  0
SECTION
  2
HEADER
  9
$ACADVER
  1
AC1015
  9
$ACADMAINTVER
 70
     6
  9
$DWGCODEPAGE
  3
ANSI_932
  9
$INSBASE
 10
0.0
 20
0.0
 30
0.0
  9
$EXTMIN
 10
-420.0
 20
-297.0
 30
1.000000E+20
  9
$EXTMAX
 10
420.0
 20
297.0
 30
-1.000000E+20
  9
$LIMMIN
 10
-420.0
 20
-297.0
  9
$LIMMAX
 10
420.0
 20
297.0
  9
$ORTHOMODE
 70
     0
  9
$REGENMODE
 70
     1
  9
$FILLMODE
 70
     1
  9
$QTEXTMODE
 70
     0
  9
$MIRRTEXT
 70
     1
  9
$LTSCALE
 40
1.0
  9
$ATTMODE
 70
     1
  9
$TEXTSIZE
 40
0.2
  9
$TRACEWID
 40
0.05
  9
$TEXTSTYLE
  7
STANDARD
  9
$CLAYER
  8
0
  9
$CELTYPE
  6
CONTINUOUS
  9
$CECOLOR
 62
   256
  9
$CELTSCALE
 40
1.0
  9
$DISPSILH
 70
     0
  9
$DIMSCALE
 40
2.0
  9
$DIMASZ
 40
2.0
  9
$DIMEXO
 40
1.0
  9
$DIMDLI
 40
0.38
  9
$DIMRND
 40
0.0
  9
$DIMDLE
 40
0.0
  9
$DIMEXE
 40
2.0
  9
$DIMTP
 40
0.0
  9
$DIMTM
 40
0.0
  9
$DIMTXT
 40
3.5
  9
$DIMCEN
 40
0.09
  9
$DIMTSZ
 40
0.0
  9
$DIMTOL
 70
     0
  9
$DIMLIM
 70
     0
  9
$DIMTIH
 70
     0
  9
$DIMTOH
 70
     0
  9
$DIMSE1
 70
     0
  9
$DIMSE2
 70
     0
  9
$DIMTAD
 70
     1
  9
$DIMZIN
 70
     0
  9
$DIMBLK
  1

  9
$DIMASO
 70
     1
  9
$DIMSHO
 70
     1
  9
$DIMPOST
  1

  9
$DIMAPOST
  1

  9
$DIMALT
 70
     0
  9
$DIMALTD
 70
     2
  9
$DIMALTF
 40
25.4
  9
$DIMLFAC
 40
1.0
  9
$DIMTOFL
 70
     0
  9
$DIMTVP
 40
0.0
  9
$DIMTIX
 70
     0
  9
$DIMSOXD
 70
     0
  9
$DIMSAH
 70
     0
  9
$DIMBLK1
  1

  9
$DIMBLK2
  1

  9
$DIMSTYLE
  2
Standard
  9
$DIMCLRD
 70
     0
  9
$DIMCLRE
 70
     0
  9
$DIMCLRT
 70
     0
  9
$DIMTFAC
 40
1.0
  9
$DIMGAP
 40
0.5
  9
$DIMJUST
 70
     0
  9
$DIMSD1
 70
     0
  9
$DIMSD2
 70
     0
  9
$DIMTOLJ
 70
     1
  9
$DIMTZIN
 70
     0
  9
$DIMALTZ
 70
     0
  9
$DIMALTTZ
 70
     0
  9
$DIMUPT
 70
     0
  9
$DIMDEC
 70
     3
  9
$DIMTDEC
 70
     4
  9
$DIMALTU
 70
     2
  9
$DIMALTTD
 70
     2
  9
$DIMTXSTY
  7
STANDARD
  9
$DIMAUNIT
 70
     0
  9
$DIMADEC
 70
     0
  9
$DIMALTRND
 40
0.0
  9
$DIMAZIN
 70
     0
  9
$DIMDSEP
 70
     0
  9
$DIMATFIT
 70
     3
  9
$DIMFRAC
 70
     0
  9
$DIMLDRBLK
  1

  9
$DIMLUNIT
 70
     2
  9
$DIMLWD
 70
     0
  9
$DIMLWE
 70
     0
  9
$DIMTMOVE
 70
     0
  9
$LUNITS
 70
     2
  9
$LUPREC
 70
     4
  9
$SKETCHINC
 40
0.1
  9
$FILLETRAD
 40
0.0
  9
$AUNITS
 70
     0
  9
$AUPREC
 70
     0
  9
$MENU
  1
acad
  9
$ELEVATION
 40
0.0
  9
$PELEVATION
 40
0.0
  9
$THICKNESS
 40
0.0
  9
$LIMCHECK
 70
     0
  9
$CHAMFERA
 40
0.0
  9
$CHAMFERB
 40
0.0
  9
$CHAMFERC
 40
0.0
  9
$CHAMFERD
 40
0.0
  9
$SKPOLY
 70
     0
  9
$TDCREATE
 40
2454289.000000000
  9
$TDUCREATE
 40
0.000000000
  9
$TDUPDATE
 40
0.000000000
  9
$TDUUPDATE
 40
2447892.625000000
  9
$TDINDWG
 40
0.0000000000
  9
$TDUSRTIMER
 40
0.0000000000
  9
$USRTIMER
 70
     1
  9
$ANGBASE
 50
0.0
  9
$ANGDIR
 70
     0
  9
$PDMODE
 70
     0
  9
$PDSIZE
 40
0.0
  9
$PLINEWID
 40
0.0
  9
$SPLFRAME
 70
     0
  9
$SPLINETYPE
 70
     6
  9
$SPLINESEGS
 70
     8
  9
$HANDSEED
  5
511
  9
$SURFTAB1
 70
     6
  9
$SURFTAB2
 70
     6
  9
$SURFTYPE
 70
     6
  9
$SURFU
 70
     6
  9
$SURFV
 70
     6
  9
$UCSBASE
  2

  9
$UCSNAME
  2

  9
$UCSORG
 10
0.0
 20
0.0
 30
0.0
  9
$UCSXDIR
 10
1.0
 20
0.0
 30
0.0
  9
$UCSYDIR
 10
0.0
 20
1.0
 30
0.0
  9
$UCSORTHOREF
  2

  9
$UCSORTHOVIEW
 70
     0
  9
$UCSORGTOP
 10
0.0
 20
0.0
 30
0.0
  9
$UCSORGBOTTOM
 10
0.0
 20
0.0
 30
0.0
  9
$UCSORGLEFT
 10
0.0
 20
0.0
 30
0.0
  9
$UCSORGRIGHT
 10
0.0
 20
0.0
 30
0.0
  9
$UCSORGFRONT
 10
0.0
 20
0.0
 30
0.0
  9
$UCSORGBACK
 10
0.0
 20
0.0
 30
0.0
  9
$PUCSBASE
  2

  9
$PUCSNAME
  2

  9
$PUCSORG
 10
0.0
 20
0.0
 30
0.0
  9
$PUCSXDIR
 10
1.0
 20
0.0
 30
0.0
  9
$PUCSYDIR
 10
0.0
 20
1.0
 30
0.0
  9
$PUCSORTHOREF
  2

  9
$PUCSORTHOVIEW
 70
     0
  9
$PUCSORGTOP
 10
0.0
 20
0.0
 30
0.0
  9
$PUCSORGBOTTOM
 10
0.0
 20
0.0
 30
0.0
  9
$PUCSORGLEFT
 10
0.0
 20
0.0
 30
0.0
  9
$PUCSORGRIGHT
 10
0.0
 20
0.0
 30
0.0
  9
$PUCSORGFRONT
 10
0.0
 20
0.0
 30
0.0
  9
$PUCSORGBACK
 10
0.0
 20
0.0
 30
0.0
  9
$USERI1
 70
     0
  9
$USERI2
 70
     0
  9
$USERI3
 70
     0
  9
$USERI4
 70
     0
  9
$USERI5
 70
     0
  9
$USERR1
 40
0.0
  9
$USERR2
 40
0.0
  9
$USERR3
 40
0.0
  9
$USERR4
 40
0.0
  9
$USERR5
 40
0.0
  9
$WORLDVIEW
 70
     1
  9
$SHADEDGE
 70
     3
  9
$SHADEDIF
 70
    70
  9
$TILEMODE
 70
     1
  9
$MAXACTVP
 70
    16
  9
$PINSBASE
 10
0.0
 20
0.0
 30
0.0
  9
$PLIMCHECK
 70
     0
  9
$PEXTMIN
 10
1.000000E+20
 20
1.000000E+20
 30
1.000000E+20
  9
$PEXTMAX
 10
-1.000000E+20
 20
-1.000000E+20
 30
-1.000000E+20
  9
$PLIMMIN
 10
0.0
 20
0.0
  9
$PLIMMAX
 10
12.0
 20
9.0
  9
$UNITMODE
 70
     0
  9
$VISRETAIN
 70
     0
  9
$PLINEGEN
 70
     1
  9
$PSLTSCALE
 70
     0
  9
$TREEDEPTH
 70
  3020
  9
$CMLSTYLE
  2
Standard
  9
$CMLJUST
 70
     0
  9
$CMLSCALE
 40
1.0
  9
$PROXYGRAPHICS
 70
     0
  9
$MEASUREMENT
 70
     0
  9
$CELWEIGHT
370
     0
  9
$ENDCAPS
280
     0
  9
$JOINSTYLE
280
     0
  9
$LWDISPLAY
290
     0
  9
$INSUNITS
 70
     0
  9
$HYPERLINKBASE
  1

  9
$STYLESHEET
  1

  9
$XEDIT
290
     1
  9
$CEPSNTYPE
380
     0
  9
$PSTYLEMODE
290
     1
  9
$FINGERPRINTGUID
  2

  9
$VERSIONGUID
  2

  9
$EXTNAMES
290
     1
  9
$PSVPSCALE
 40
0.0
  0
ENDSEC
  0
SECTION
  2
CLASSES
  0
CLASS
  1
LWPOLYLINE
  2
AcDbPolyline
  3
AutoCAD 2000
 90
        0
280
     0
281
     1
  0
CLASS
  1
IMAGE
  2
AcDbRasterImage
  3
ISM
 90
      127
280
     0
281
     1
  0
CLASS
  1
OLE2FRAME
  2
AcDbOle2Frame
  3
AutoCAD 2000
 90
        0
280
     0
281
     1
  0
CLASS
  1
HATCH
  2
AcDbHatch
  3
AutoCAD 2000
 90
        0
280
     0
281
     1
  0
CLASS
  1
DICTIONARYVAR
  2
AcDbDictionaryVar
  3
AutoCAD 2000
 90
        0
280
     0
281
     0
  0
CLASS
  1
RASTERVARIABLES
  2
AcDbRasterVariables
  3
ISM
 90
        0
280
     0
281
     0
  0
CLASS
  1
IMAGEDEF
  2
AcDbRasterImageDef
  3
ISM
 90
        0
280
     0
281
     0
  0
CLASS
  1
IMAGEDEF_REACTOR
  2
AcDbRasterImageDefReactor
  3
ISM
 90
        1
280
     0
281
     0
  0
CLASS
  1
IDBUFFER
  2
AcDbIdBuffer
  3
AutoCAD 2000
 90
        0
280
     0
281
     0
  0
CLASS
  1
SPATIAL_FILTER
  2
AcDbSpatialFilter
  3
AutoCAD 2000
 90
        0
280
     0
281
     0
  0
CLASS
  1
XRECORD
  2
AcDbXrecord
  3
AutoCAD 2000
 90
        0
280
     0
281
     0
  0
CLASS
  1
SORTENTSTABLE
  2
AcDbSortentsTable
  3
AutoCAD 2000
 90
        0
280
     0
281
     0
  0
CLASS
  1
LAYER_INDEX
  2
AcDbLayerIndex
  3
AutoCAD 2000
 90
        0
280
     0
281
     0
  0
CLASS
  1
SPATIAL_INDEX
  2
AcDbSpatialIndex
  3
AutoCAD 2000
 90
        0
280
     0
281
     0
  0
CLASS
  1
OBJECT_PTR
  2
CAseDLPNTableRecord
  3
"ASE-LPNTableRecord"
 90
        1
280
     0
281
     0
  0
CLASS
  1
LAYOUT
  2
AcDbLayout
  3
AutoCAD 2000
 90
        0
280
     0
281
     0
  0
CLASS
  1
PLOTSETTINGS
  2
AcDbPlotSettings
  3
AutoCAD 2000
 90
        0
280
     0
281
     0
  0
CLASS
  1
ACDBDICTIONARYWDFLT
  2
AcDbDictionaryWithDefault
  3
AutoCAD 2000
 90
        0
280
     0
281
     0
  0
CLASS
  1
ACDBPLACEHOLDER
  2
AcDbPlaceHolder
  3
AutoCAD 2000
 90
        0
280
     0
281
     0
  0
CLASS
  1
VBA_PROJECT
  2
AcDbVbaProject
  3
acadvba
 90
        0
280
     0
281
     0
  0
CLASS
  1
WIPEOUT
  2
AcDbWipeout
  3
WipeOut|AutoCAD Express Tool|expresstools@autodesk.com
 90
      127
280
     0
281
     1
  0
CLASS
  1
WIPEOUTVARIABLES
  2
AcDbWipeoutVariables
  3
WipeOut|AutoCAD Express Tool|expresstools@autodesk.com
 90
        0
280
     0
281
     0
  0
CLASS
  1
RTEXT
  2
RText
  3
RText|AutoCAD Express Tool|expresstools@autodesk.com
 90
        0
280
     0
281
     1
  0
CLASS
  1
ARCALIGNEDTEXT
  2
AcDbArcAlignedText
  3
ATEXT|AutoCAD Express Tool|expresstools@autodesk.com
 90
        0
280
     0
281
     1
  0
ENDSEC
  0
SECTION
  2
TABLES
  0
TABLE
  2
VPORT
  5
6
100
AcDbSymbolTable
 70
     1
  0
VPORT
  5
19
100
AcDbSymbolTableRecord
100
AcDbViewportTableRecord
  2
*ACTIVE
 70
     0
 10
0.0
 20
0.0
 11
1.0
 21
1.0
 12
0.0
 22
0.0
 13
0.0
 23
0.0
 14
1.0
 24
1.0
 15
0.0
 25
0.0
 16
0.0
 26
0.0
 36
1.0
 17
0.0
 27
0.0
 37
0.0
 40
594.0
 41
1.414141
 42
50.0
 43
0.0
 44
0.0
 50
0.0
 51
0.0
 71
     0
 72
   500
 73
     1
 74
     1
 75
     0
 76
     0
 77
     0
 78
     0
281
     0
 65
     0
110
0.0
120
0.0
130
0.0
111
1.0
121
0.0
131
0.0
112
0.0
122
1.0
132
0.0
345
0
346
0
 79
     0
146
0.0
  0
ENDTAB
  0
TABLE
  2
LTYPE
  5
3
100
AcDbSymbolTable
 70
     9
  0
LTYPE
  5
C
100
AcDbSymbolTableRecord
100
AcDbLinetypeTableRecord
  2
ByBlock
 70
    64
  3

 72
    65
 73
     0
 40
0.0
  0
LTYPE
  5
D
100
AcDbSymbolTableRecord
100
AcDbLinetypeTableRecord
  2
ByLayer
 70
    64
  3

 72
    65
 73
     0
 40
0.0
  0
LTYPE
  5
E
100
AcDbSymbolTableRecord
100
AcDbLinetypeTableRecord
  2
CONTINUOUS
 70
     0
  3
Solid line
 72
    65
 73
     0
 40
0.0
  0
LTYPE
  5
F
100
AcDbSymbolTableRecord
100
AcDbLinetypeTableRecord
  2
DASHED
 70
     0
  3
__ __ __ __ __ __ __ __ __ __ __ __ __ __ __
 72
    65
 73
     2
 40
2.0
 49
1.2
 74
     0
 49
-0.8
 74
     0
  0
LTYPE
  5
10
100
AcDbSymbolTableRecord
100
AcDbLinetypeTableRecord
  2
CENTER
 70
     0
  3
____ _ ____ _ ____ _ ____ _ ____ _ ____ _ ____
 72
    65
 73
     4
 40
12.0
 49
9.0
 74
     0
 49
-1.0
 74
     0
 49
1.0
 74
     0
 49
-1.0
 74
     0
  0
LTYPE
  5
11
100
AcDbSymbolTableRecord
100
AcDbLinetypeTableRecord
  2
HIDDEN
 70
     0
  3
_ _ _ _ _ _ _ _ _ _ _ _ _ _ _ _ _ _ _ _ _ _ _
 72
    65
 73
     2
 40
3.2
 49
2.4
 74
     0
 49
-0.8
 74
     0
  0
LTYPE
  5
12
100
AcDbSymbolTableRecord
100
AcDbLinetypeTableRecord
  2
PHANTOM
 70
     0
  3
_____ _ _ _____ _ _ _____ _ _ _____ _ _ _____
 72
    65
 73
     6
 40
13.5
 49
9.0
 74
     0
 49
-1.0
 74
     0
 49
1.0
 74
     0
 49
-0.5
 74
     0
 49
1.0
 74
     0
 49
-1.0
 74
     0
  0
LTYPE
  5
13
100
AcDbSymbolTableRecord
100
AcDbLinetypeTableRecord
  2
DOT
 70
     0
  3
...............................................
 72
    65
 73
     2
 40
1.0
 49
0.5
 74
     0
 49
-0.5
 74
     0
  0
LTYPE
  5
14
100
AcDbSymbolTableRecord
100
AcDbLinetypeTableRecord
  2
DASHDOT
 70
     0
  3
__ . __ . __ . __ . __ . __ . __ . __ . __ . __
 72
    65
 73
     4
 40
8.0
 49
5.0
 74
     0
 49
-1.0
 74
     0
 49
1.0
 74
     0
 49
-1.0
 74
     0
  0
ENDTAB
  0
TABLE
  2
LAYER
  5
1
100
AcDbSymbolTable
 70
     4
  0
LAYER
  5
15
100
AcDbSymbolTableRecord
100
AcDbLayerTableRecord
  2
0
 70
     0
 62
     7
  6
CONTINUOUS
290
     1
370
    -3
390
0
  0
LAYER
  5
16
100
AcDbSymbolTableRecord
100
AcDbLayerTableRecord
  2
1
 70
     0
 62
     7
  6
CONTINUOUS
290
     1
370
    -3
390
0
  0
LAYER
  5
17
100
AcDbSymbolTableRecord
100
AcDbLayerTableRecord
  2
2
 70
     0
 62
     7
  6
CONTINUOUS
290
     1
370
    -3
390
0
  0
LAYER
  5
18
100
AcDbSymbolTableRecord
100
AcDbLayerTableRecord
  2
3
 70
     0
 62
     7
  6
CONTINUOUS
290
     1
370
    -3
390
0
  0
ENDTAB
  0
TABLE
  2
STYLE
  5
2
100
AcDbSymbolTable
 70
     1
  0
STYLE
  5
1B
100
AcDbSymbolTableRecord
100
AcDbTextStyleTableRecord
  2
STANDARD
 70
    64
 40
0.0
 41
1.0
 50
0.0
 71
     0
 42
1.0
  3
txt
  4
BIGFONT
  0
ENDTAB
  0
TABLE
  2
VIEW
  5
4
100
AcDbSymbolTable
 70
     0
  0
ENDTAB
  0
TABLE
  2
UCS
  5
5
100
AcDbSymbolTable
 70
     0
  0
ENDTAB
  0
TABLE
  2
APPID
  5
7
100
AcDbSymbolTable
 70
     1
  0
APPID
  5
1A
100
AcDbSymbolTableRecord
100
AcDbRegAppTableRecord
  2
ACAD
 70
     0
  0
ENDTAB
  0
TABLE
  2
DIMSTYLE
  5
8
100
AcDbSymbolTable
 70
     1
100
AcDbDimStyleTable
 71
     0
  0
DIMSTYLE
105
2F
100
AcDbSymbolTableRecord
100
AcDbDimStyleTableRecord
  2
Standard
 70
     0
  3

  4

 40
2.0
 41
2.0
 42
1.0
 43
0.38
 44
2.0
 45
0.0
 46
0.0
 47
0.0
 48
0.0
 71
     0
 72
     0
 73
     0
 74
     0
 75
     0
 76
     0
 77
     1
 78
     0
 79
     0
140
3.5
141
0.09
142
0.0
143
25.4
144
1.0
145
0.0
146
1.0
147
0.5
148
0.0
170
     0
171
     2
172
     0
173
     0
174
     0
175
     0
176
     0
177
     0
178
     0
179
     0
271
     3
272
     4
273
     2
274
     2
275
     0
276
     0
277
     2
278
    46
279
     0
280
     0
281
     0
282
     0
283
     1
284
     0
285
     0
286
     0
288
     0
289
     3
340
1B
341
0
342
0
343
0
344
0
371
    -2
372
    -2
  0
ENDTAB
  0
TABLE
  2
BLOCK_RECORD
  5
2A
100
AcDbSymbolTable
 70
    12
  0
BLOCK_RECORD
  5
28
100
AcDbSymbolTableRecord
100
AcDbBlockTableRecord
  2
*Model_Space
340
0
  0
BLOCK_RECORD
  5
29
100
AcDbSymbolTableRecord
100
AcDbBlockTableRecord
  2
*Paper_Space
340
0
  0
BLOCK_RECORD
  5
1C
100
AcDbSymbolTableRecord
100
AcDbBlockTableRecord
  2
*D0
340
0
  0
BLOCK_RECORD
  5
1D
100
AcDbSymbolTableRecord
100
AcDbBlockTableRecord
  2
*D1
340
0
  0
BLOCK_RECORD
  5
1E
100
AcDbSymbolTableRecord
100
AcDbBlockTableRecord
  2
*D2
340
0
  0
BLOCK_RECORD
  5
1F
100
AcDbSymbolTableRecord
100
AcDbBlockTableRecord
  2
*D3
340
0
  0
BLOCK_RECORD
  5
20
100
AcDbSymbolTableRecord
100
AcDbBlockTableRecord
  2
*D4
340
0
  0
BLOCK_RECORD
  5
21
100
AcDbSymbolTableRecord
100
AcDbBlockTableRecord
  2
*D5
340
0
  0
BLOCK_RECORD
  5
22
100
AcDbSymbolTableRecord
100
AcDbBlockTableRecord
  2
*D6
340
0
  0
BLOCK_RECORD
  5
23
100
AcDbSymbolTableRecord
100
AcDbBlockTableRecord
  2
*D7
340
0
  0
BLOCK_RECORD
  5
24
100
AcDbSymbolTableRecord
100
AcDbBlockTableRecord
  2
*D8
340
0
  0
BLOCK_RECORD
  5
25
100
AcDbSymbolTableRecord
100
AcDbBlockTableRecord
  2
*D9
340
0
  0
BLOCK_RECORD
  5
26
100
AcDbSymbolTableRecord
100
AcDbBlockTableRecord
  2
*D10
340
0
  0
BLOCK_RECORD
  5
27
100
AcDbSymbolTableRecord
100
AcDbBlockTableRecord
  2
*D11
340
0
  0
ENDTAB
  0
ENDSEC
  0
SECTION
  2
BLOCKS
  0
BLOCK
  5
2B
100
AcDbEntity
  8
0
390
0
100
AcDbBlockBegin
  2
*Model_Space
 70
     0
 10
0.0
 20
0.0
 30
0.0
  3
*Model_Space
  1

  0
ENDBLK
  5
2C
100
AcDbEntity
  8
0
390
0
100
AcDbBlockEnd
  0
BLOCK
  5
2D
100
AcDbEntity
 67
     1
  8
0
390
0
100
AcDbBlockBegin
  2
*Paper_Space
 70
     0
 10
0.0
 20
0.0
 30
0.0
  3
*Paper_Space
  1

  0
ENDBLK
  5
2E
100
AcDbEntity
 67
     1
  8
0
390
0
100
AcDbBlockEnd
  0
BLOCK
  5
485
100
AcDbEntity
  8
3
100
AcDbBlockBegin
  2
*D0
 70
     1
 10
0.0
 20
0.0
 30
0.0
  3
*D0
  1

  0
LINE
  5
486
100
AcDbEntity
  8
3
370
    25
100
AcDbLine
 10
-216.136154
 20
-51.039161
 30
0.0
 11
-216.136154
 21
-38.122861
 31
0.0
  0
LINE
  5
487
100
AcDbEntity
  8
3
370
    25
100
AcDbLine
 10
-216.136154
 20
-40.122861
 30
0.0
 11
-212.272451
 21
-41.158137
 31
0.0
  0
LINE
  5
488
100
AcDbEntity
  8
3
370
    25
100
AcDbLine
 10
-216.136154
 20
-40.122861
 30
0.0
 11
-212.272451
 21
-39.087585
 31
0.0
  0
LINE
  5
489
100
AcDbEntity
  8
3
370
    25
100
AcDbLine
 10
-212.272451
 20
-41.158137
 30
0.0
 11
-212.272451
 21
-39.087585
 31
0.0
  0
LINE
  5
48A
100
AcDbEntity
  8
3
370
    25
100
AcDbLine
 10
-187.136154
 20
-40.122861
 30
0.0
 11
-274.136154
 21
-40.122861
 31
0.0
  0
LINE
  5
48B
100
AcDbEntity
  8
3
370
    25
100
AcDbLine
 10
-264.136154
 20
-40.122861
 30
0.0
 11
-267.999857
 21
-39.087585
 31
0.0
  0
LINE
  5
48C
100
AcDbEntity
  8
3
370
    25
100
AcDbLine
 10
-264.136154
 20
-40.122861
 30
0.0
 11
-267.999857
 21
-41.158137
 31
0.0
  0
LINE
  5
48D
100
AcDbEntity
  8
3
370
    25
100
AcDbLine
 10
-267.999857
 20
-39.087585
 30
0.0
 11
-267.999857
 21
-41.158137
 31
0.0
  0
LINE
  5
48E
100
AcDbEntity
  8
3
370
    25
100
AcDbLine
 10
-264.136154
 20
-51.039161
 30
0.0
 11
-264.136154
 21
-38.122861
 31
0.0
  0
ENDBLK
  5
48F
100
AcDbEntity
  8
3
100
AcDbBlockEnd
  0
BLOCK
  5
490
100
AcDbEntity
  8
3
100
AcDbBlockBegin
  2
*D1
 70
     1
 10
0.0
 20
0.0
 30
0.0
  3
*D1
  1

  0
LINE
  5
491
100
AcDbEntity
  8
3
370
    25
100
AcDbLine
 10
78.271976
 20
-56.539161
 30
0.0
 11
-81.638245
 21
-56.539161
 31
0.0
  0
LINE
  5
492
100
AcDbEntity
  8
3
370
    25
100
AcDbLine
 10
-79.638245
 20
-56.539161
 30
0.0
 11
-78.602968
 21
-52.675458
 31
0.0
  0
LINE
  5
493
100
AcDbEntity
  8
3
370
    25
100
AcDbLine
 10
-79.638245
 20
-56.539161
 30
0.0
 11
-80.673521
 21
-52.675458
 31
0.0
  0
LINE
  5
494
100
AcDbEntity
  8
3
370
    25
100
AcDbLine
 10
-78.602968
 20
-52.675458
 30
0.0
 11
-80.673521
 21
-52.675458
 31
0.0
  0
LINE
  5
495
100
AcDbEntity
  8
3
370
    25
100
AcDbLine
 10
-79.638245
 20
-56.539161
 30
0.0
 11
-79.638245
 21
107.189038
 31
0.0
  0
LINE
  5
496
100
AcDbEntity
  8
3
370
    25
100
AcDbLine
 10
-79.638245
 20
107.189038
 30
0.0
 11
-80.673521
 21
103.325334
 31
0.0
  0
LINE
  5
497
100
AcDbEntity
  8
3
370
    25
100
AcDbLine
 10
-79.638245
 20
107.189038
 30
0.0
 11
-78.602968
 21
103.325334
 31
0.0
  0
LINE
  5
498
100
AcDbEntity
  8
3
370
    25
100
AcDbLine
 10
-80.673521
 20
103.325334
 30
0.0
 11
-78.602968
 21
103.325334
 31
0.0
  0
LINE
  5
499
100
AcDbEntity
  8
3
370
    25
100
AcDbLine
 10
38.709314
 20
107.189038
 30
0.0
 11
-81.638245
 21
107.189038
 31
0.0
  0
ENDBLK
  5
49A
100
AcDbEntity
  8
3
100
AcDbBlockEnd
  0
BLOCK
  5
49B
100
AcDbEntity
  8
3
100
AcDbBlockBegin
  2
*D2
 70
     1
 10
0.0
 20
0.0
 30
0.0
  3
*D2
  1

  0
LINE
  5
49C
100
AcDbEntity
  8
3
370
    25
100
AcDbLine
 10
103.771976
 20
87.695892
 30
0.0
 11
103.771976
 21
101.76532
 31
0.0
  0
LINE
  5
49D
100
AcDbEntity
  8
3
370
    25
100
AcDbLine
 10
103.771976
 20
99.76532
 30
0.0
 11
107.63568
 21
98.730044
 31
0.0
  0
LINE
  5
49E
100
AcDbEntity
  8
3
370
    25
100
AcDbLine
 10
103.771976
 20
99.76532
 30
0.0
 11
107.63568
 21
100.800596
 31
0.0
  0
LINE
  5
49F
100
AcDbEntity
  8
3
370
    25
100
AcDbLine
 10
107.63568
 20
98.730044
 30
0.0
 11
107.63568
 21
100.800596
 31
0.0
  0
LINE
  5
4A0
100
AcDbEntity
  8
3
370
    25
100
AcDbLine
 10
103.771976
 20
99.76532
 30
0.0
 11
129.362859
 21
99.76532
 31
0.0
  0
LINE
  5
4A1
100
AcDbEntity
  8
3
370
    25
100
AcDbLine
 10
129.362859
 20
99.76532
 30
0.0
 11
125.499155
 21
100.800596
 31
0.0
  0
LINE
  5
4A2
100
AcDbEntity
  8
3
370
    25
100
AcDbLine
 10
129.362859
 20
99.76532
 30
0.0
 11
125.499155
 21
98.730044
 31
0.0
  0
LINE
  5
4A3
100
AcDbEntity
  8
3
370
    25
100
AcDbLine
 10
125.499155
 20
100.800596
 30
0.0
 11
125.499155
 21
98.730044
 31
0.0
  0
LINE
  5
4A4
100
AcDbEntity
  8
3
370
    25
100
AcDbLine
 10
129.362859
 20
77.68482
 30
0.0
 11
129.362859
 21
101.76532
 31
0.0
  0
ENDBLK
  5
4A5
100
AcDbEntity
  8
3
100
AcDbBlockEnd
  0
BLOCK
  5
4A6
100
AcDbEntity
  8
3
100
AcDbBlockBegin
  2
*D3
 70
     1
 10
0.0
 20
0.0
 30
0.0
  3
*D3
  1

  0
TEXT
  5
4A7
100
AcDbEntity
  8
3
370
    25
100
AcDbText
 10
12.988411
 20
87.804309
 30
0.0
 40
7.0
  1
２２゜
 50
79.0
 72
     5
 11
16.728268
 21
107.044201
 31
0.0
100
AcDbText
  0
LINE
  5
4A8
100
AcDbEntity
  8
3
370
    25
100
AcDbLine
 10
39.318538
 20
107.750947
 30
0.0
 11
19.215068
 21
115.873277
 31
0.0
  0
LINE
  5
4A9
100
AcDbEntity
  8
3
370
    25
100
AcDbLine
 10
25.772154
 20
80.060839
 30
0.0
 11
12.253835
 21
80.060839
 31
0.0
  0
LINE
  5
4AA
100
AcDbEntity
  8
3
370
    25
100
AcDbLine
 10
21.069435
 20
115.124064
 30
0.0
 11
18.728622
 21
111.880518
 31
0.0
  0
LINE
  5
4AB
100
AcDbEntity
  8
3
370
    25
100
AcDbLine
 10
21.069435
 20
115.124064
 30
0.0
 11
20.664004
 21
111.144664
 31
0.0
  0
LINE
  5
4AC
100
AcDbEntity
  8
3
370
    25
100
AcDbLine
 10
18.728622
 20
111.880518
 30
0.0
 11
20.664004
 21
111.144664
 31
0.0
  0
LINE
  5
4AD
100
AcDbEntity
  8
3
370
    25
100
AcDbLine
 10
14.253835
 20
80.060839
 30
0.0
 11
15.368635
 21
83.902351
 31
0.0
  0
LINE
  5
4AE
100
AcDbEntity
  8
3
370
    25
100
AcDbLine
 10
14.253835
 20
80.060839
 30
0.0
 11
13.298524
 21
83.945086
 31
0.0
  0
LINE
  5
4AF
100
AcDbEntity
  8
3
370
    25
100
AcDbLine
 10
15.368635
 20
83.902351
 30
0.0
 11
13.298524
 21
83.945086
 31
0.0
  0
ARC
  5
4B0
100
AcDbEntity
  8
3
370
    25
100
AcDbCircle
 10
107.853963
 20
80.060839
 30
0.0
 40
93.600128
100
AcDbArc
 50
158.0
 51
180.0
  0
ENDBLK
  5
4B1
100
AcDbEntity
  8
3
100
AcDbBlockEnd
  0
BLOCK
  5
4B2
100
AcDbEntity
  8
3
100
AcDbBlockBegin
  2
*D4
 70
     1
 10
0.0
 20
0.0
 30
0.0
  3
*D4
  1

  0
TEXT
  5
4B3
100
AcDbEntity
  8
3
370
    25
100
AcDbText
 10
129.271976
 20
42.181076
 30
0.0
 40
7.0
  1
φ３５
 72
     5
 11
148.871976
 21
42.181076
 31
0.0
100
AcDbText
  0
LINE
  5
4B4
100
AcDbEntity
  8
3
370
    25
100
AcDbLine
 10
86.271976
 20
41.181076
 30
0.0
 11
82.408273
 21
42.216352
 31
0.0
  0
LINE
  5
4B5
100
AcDbEntity
  8
3
370
    25
100
AcDbLine
 10
86.271976
 20
41.181076
 30
0.0
 11
82.408273
 21
40.1458
 31
0.0
  0
LINE
  5
4B6
100
AcDbEntity
  8
3
370
    25
100
AcDbLine
 10
82.408273
 20
42.216352
 30
0.0
 11
82.408273
 21
40.1458
 31
0.0
  0
LINE
  5
4B7
100
AcDbEntity
  8
3
370
    25
100
AcDbLine
 10
76.271976
 20
41.181076
 30
0.0
 11
150.271976
 21
41.181076
 31
0.0
  0
LINE
  5
4B8
100
AcDbEntity
  8
3
370
    25
100
AcDbLine
 10
121.271976
 20
41.181076
 30
0.0
 11
125.13568
 21
40.1458
 31
0.0
  0
LINE
  5
4B9
100
AcDbEntity
  8
3
370
    25
100
AcDbLine
 10
121.271976
 20
41.181076
 30
0.0
 11
125.13568
 21
42.216352
 31
0.0
  0
LINE
  5
4BA
100
AcDbEntity
  8
3
370
    25
100
AcDbLine
 10
125.13568
 20
40.1458
 30
0.0
 11
125.13568
 21
42.216352
 31
0.0
  0
ENDBLK
  5
4BB
100
AcDbEntity
  8
3
100
AcDbBlockEnd
  0
BLOCK
  5
4BC
100
AcDbEntity
  8
3
100
AcDbBlockBegin
  2
*D5
 70
     1
 10
0.0
 20
0.0
 30
0.0
  3
*D5
  1

  0
TEXT
  5
4BD
100
AcDbEntity
  8
3
370
    25
100
AcDbText
 10
17.301183
 20
186.061218
 30
0.0
 40
7.0
  1
９０゜
 50
90.0
 72
     5
 11
17.301183
 21
205.661218
 31
0.0
100
AcDbText
  0
LINE
  5
4BE
100
AcDbEntity
  8
3
370
    25
100
AcDbLine
 10
46.670679
 20
253.662516
 30
0.0
 11
41.920785
 21
258.41241
 31
0.0
  0
LINE
  5
4BF
100
AcDbEntity
  8
3
370
    25
100
AcDbLine
 10
46.316145
 20
139.105386
 30
0.0
 11
41.920785
 21
134.710027
 31
0.0
  0
LINE
  5
4C0
100
AcDbEntity
  8
3
370
    25
100
AcDbLine
 10
43.334999
 20
256.998196
 30
0.0
 11
39.916987
 21
254.92041
 31
0.0
  0
LINE
  5
4C1
100
AcDbEntity
  8
3
370
    25
100
AcDbLine
 10
43.334999
 20
256.998196
 30
0.0
 11
41.413807
 21
253.489775
 31
0.0
  0
LINE
  5
4C2
100
AcDbEntity
  8
3
370
    25
100
AcDbLine
 10
39.916987
 20
254.92041
 30
0.0
 11
41.413807
 21
253.489775
 31
0.0
  0
LINE
  5
4C3
100
AcDbEntity
  8
3
370
    25
100
AcDbLine
 10
43.334999
 20
136.12424
 30
0.0
 11
41.413807
 21
139.632662
 31
0.0
  0
LINE
  5
4C4
100
AcDbEntity
  8
3
370
    25
100
AcDbLine
 10
43.334999
 20
136.12424
 30
0.0
 11
39.916987
 21
138.202027
 31
0.0
  0
LINE
  5
4C5
100
AcDbEntity
  8
3
370
    25
100
AcDbLine
 10
41.413807
 20
139.632662
 30
0.0
 11
39.916987
 21
138.202027
 31
0.0
  0
ARC
  5
4C6
100
AcDbEntity
  8
3
370
    25
100
AcDbCircle
 10
103.771976
 20
196.561218
 30
0.0
 40
85.470794
100
AcDbArc
 50
135.0
 51
225.0
  0
ENDBLK
  5
4C7
100
AcDbEntity
  8
3
100
AcDbBlockEnd
  0
BLOCK
  5
4C8
100
AcDbEntity
  8
3
100
AcDbBlockBegin
  2
*D6
 70
     1
 10
0.0
 20
0.0
 30
0.0
  3
*D6
  1

  0
LINE
  5
4C9
100
AcDbEntity
  8
3
370
    25
100
AcDbLine
 10
-195.448311
 20
-218.435465
 30
0.0
 11
-109.92794
 21
-218.435465
 31
0.0
  0
LINE
  5
4CA
100
AcDbEntity
  8
3
370
    25
100
AcDbLine
 10
-111.92794
 20
-218.435465
 30
0.0
 11
-110.892664
 21
-214.571761
 31
0.0
  0
LINE
  5
4CB
100
AcDbEntity
  8
3
370
    25
100
AcDbLine
 10
-111.92794
 20
-218.435465
 30
0.0
 11
-112.963217
 21
-214.571761
 31
0.0
  0
LINE
  5
4CC
100
AcDbEntity
  8
3
370
    25
100
AcDbLine
 10
-110.892664
 20
-214.571761
 30
0.0
 11
-112.963217
 21
-214.571761
 31
0.0
  0
LINE
  5
4CD
100
AcDbEntity
  8
3
370
    25
100
AcDbLine
 10
-111.92794
 20
-218.435465
 30
0.0
 11
-111.92794
 21
-56.539161
 31
0.0
  0
LINE
  5
4CE
100
AcDbEntity
  8
3
370
    25
100
AcDbLine
 10
-111.92794
 20
-56.539161
 30
0.0
 11
-112.963217
 21
-60.402865
 31
0.0
  0
LINE
  5
4CF
100
AcDbEntity
  8
3
370
    25
100
AcDbLine
 10
-111.92794
 20
-56.539161
 30
0.0
 11
-110.892664
 21
-60.402865
 31
0.0
  0
LINE
  5
4D0
100
AcDbEntity
  8
3
370
    25
100
AcDbLine
 10
-112.963217
 20
-60.402865
 30
0.0
 11
-110.892664
 21
-60.402865
 31
0.0
  0
LINE
  5
4D1
100
AcDbEntity
  8
3
370
    25
100
AcDbLine
 10
-214.636154
 20
-56.539161
 30
0.0
 11
-109.92794
 21
-56.539161
 31
0.0
  0
ENDBLK
  5
4D2
100
AcDbEntity
  8
3
100
AcDbBlockEnd
  0
BLOCK
  5
4D3
100
AcDbEntity
  8
3
100
AcDbBlockBegin
  2
*D7
 70
     1
 10
0.0
 20
0.0
 30
0.0
  3
*D7
  1

  0
LINE
  5
4D4
100
AcDbEntity
  8
3
370
    25
100
AcDbLine
 10
78.271976
 20
-56.539161
 30
0.0
 11
-62.645309
 21
-56.539161
 31
0.0
  0
LINE
  5
4D5
100
AcDbEntity
  8
3
370
    25
100
AcDbLine
 10
-60.645309
 20
-56.539161
 30
0.0
 11
-59.610033
 21
-52.675458
 31
0.0
  0
LINE
  5
4D6
100
AcDbEntity
  8
3
370
    25
100
AcDbLine
 10
-60.645309
 20
-56.539161
 30
0.0
 11
-61.680586
 21
-52.675458
 31
0.0
  0
LINE
  5
4D7
100
AcDbEntity
  8
3
370
    25
100
AcDbLine
 10
-59.610033
 20
-52.675458
 30
0.0
 11
-61.680586
 21
-52.675458
 31
0.0
  0
LINE
  5
4D8
100
AcDbEntity
  8
3
370
    25
100
AcDbLine
 10
-60.645309
 20
-56.539161
 30
0.0
 11
-60.645309
 21
80.060839
 31
0.0
  0
LINE
  5
4D9
100
AcDbEntity
  8
3
370
    25
100
AcDbLine
 10
-60.645309
 20
80.060839
 30
0.0
 11
-61.680586
 21
76.197135
 31
0.0
  0
LINE
  5
4DA
100
AcDbEntity
  8
3
370
    25
100
AcDbLine
 10
-60.645309
 20
80.060839
 30
0.0
 11
-59.610033
 21
76.197135
 31
0.0
  0
LINE
  5
4DB
100
AcDbEntity
  8
3
370
    25
100
AcDbLine
 10
-61.680586
 20
76.197135
 30
0.0
 11
-59.610033
 21
76.197135
 31
0.0
  0
LINE
  5
4DC
100
AcDbEntity
  8
3
370
    25
100
AcDbLine
 10
25.772154
 20
80.060839
 30
0.0
 11
-62.645309
 21
80.060839
 31
0.0
  0
ENDBLK
  5
4DD
100
AcDbEntity
  8
3
100
AcDbBlockEnd
  0
BLOCK
  5
4DE
100
AcDbEntity
  8
3
100
AcDbBlockBegin
  2
*D8
 70
     1
 10
0.0
 20
0.0
 30
0.0
  3
*D8
  1

  0
TEXT
  5
4DF
100
AcDbEntity
  8
3
370
    25
100
AcDbText
 10
51.021015
 20
-22.039161
 30
0.0
 40
7.0
  1
φ２１
 50
90.0
 72
     5
 11
51.021015
 21
-2.439161
 31
0.0
100
AcDbText
  0
LINE
  5
4E0
100
AcDbEntity
  8
3
370
    25
100
AcDbLine
 10
52.021015
 20
27.960839
 30
0.0
 11
53.056291
 21
31.824542
 31
0.0
  0
LINE
  5
4E1
100
AcDbEntity
  8
3
370
    25
100
AcDbLine
 10
52.021015
 20
27.960839
 30
0.0
 11
50.985739
 21
31.824542
 31
0.0
  0
LINE
  5
4E2
100
AcDbEntity
  8
3
370
    25
100
AcDbLine
 10
53.056291
 20
31.824542
 30
0.0
 11
50.985739
 21
31.824542
 31
0.0
  0
LINE
  5
4E3
100
AcDbEntity
  8
3
370
    25
100
AcDbLine
 10
52.021015
 20
37.960839
 30
0.0
 11
52.021015
 21
-22.039161
 31
0.0
  0
LINE
  5
4E4
100
AcDbEntity
  8
3
370
    25
100
AcDbLine
 10
52.021015
 20
6.960839
 30
0.0
 11
50.985739
 21
3.097135
 31
0.0
  0
LINE
  5
4E5
100
AcDbEntity
  8
3
370
    25
100
AcDbLine
 10
52.021015
 20
6.960839
 30
0.0
 11
53.056291
 21
3.097135
 31
0.0
  0
LINE
  5
4E6
100
AcDbEntity
  8
3
370
    25
100
AcDbLine
 10
50.985739
 20
3.097135
 30
0.0
 11
53.056291
 21
3.097135
 31
0.0
  0
ENDBLK
  5
4E7
100
AcDbEntity
  8
3
100
AcDbBlockEnd
  0
BLOCK
  5
4E8
100
AcDbEntity
  8
3
100
AcDbBlockBegin
  2
*D9
 70
     1
 10
0.0
 20
0.0
 30
0.0
  3
*D9
  1

  0
TEXT
  5
4E9
100
AcDbEntity
  8
3
370
    25
100
AcDbText
 10
31.614679
 20
-77.685013
 30
0.0
 40
7.0
  1
１２３
 72
     5
 11
51.214679
 21
-77.685013
 31
0.0
100
AcDbText
  0
LINE
  5
4EA
100
AcDbEntity
  8
3
370
    25
100
AcDbLine
 10
-19.542618
 20
-0.513936
 30
0.0
 11
-19.542618
 21
-80.685013
 31
0.0
  0
LINE
  5
4EB
100
AcDbEntity
  8
3
370
    25
100
AcDbLine
 10
-19.542618
 20
-78.685013
 30
0.0
 11
-15.678914
 21
-79.720289
 31
0.0
  0
LINE
  5
4EC
100
AcDbEntity
  8
3
370
    25
100
AcDbLine
 10
-19.542618
 20
-78.685013
 30
0.0
 11
-15.678914
 21
-77.649737
 31
0.0
  0
LINE
  5
4ED
100
AcDbEntity
  8
3
370
    25
100
AcDbLine
 10
-15.678914
 20
-79.720289
 30
0.0
 11
-15.678914
 21
-77.649737
 31
0.0
  0
LINE
  5
4EE
100
AcDbEntity
  8
3
370
    25
100
AcDbLine
 10
-19.542618
 20
-78.685013
 30
0.0
 11
103.771976
 21
-78.685013
 31
0.0
  0
LINE
  5
4EF
100
AcDbEntity
  8
3
370
    25
100
AcDbLine
 10
103.771976
 20
-78.685013
 30
0.0
 11
99.908273
 21
-77.649737
 31
0.0
  0
LINE
  5
4F0
100
AcDbEntity
  8
3
370
    25
100
AcDbLine
 10
103.771976
 20
-78.685013
 30
0.0
 11
99.908273
 21
-79.720289
 31
0.0
  0
LINE
  5
4F1
100
AcDbEntity
  8
3
370
    25
100
AcDbLine
 10
99.908273
 20
-77.649737
 30
0.0
 11
99.908273
 21
-79.720289
 31
0.0
  0
LINE
  5
4F2
100
AcDbEntity
  8
3
370
    25
100
AcDbLine
 10
103.771976
 20
-64.642476
 30
0.0
 11
103.771976
 21
-80.685013
 31
0.0
  0
ENDBLK
  5
4F3
100
AcDbEntity
  8
3
100
AcDbBlockEnd
  0
BLOCK
  5
4F4
100
AcDbEntity
  8
3
100
AcDbBlockBegin
  2
*D10
 70
     1
 10
0.0
 20
0.0
 30
0.0
  3
*D10
  1

  0
TEXT
  5
4F5
100
AcDbEntity
  8
3
370
    25
100
AcDbText
 10
-41.718292
 20
-34.526549
 30
0.0
 40
7.0
  1
５８
 50
90.0
 72
     5
 11
-41.718292
 21
-21.926549
 31
0.0
100
AcDbText
  0
LINE
  5
4F6
100
AcDbEntity
  8
3
370
    25
100
AcDbLine
 10
78.271976
 20
-56.539161
 30
0.0
 11
-42.718292
 21
-56.539161
 31
0.0
  0
LINE
  5
4F7
100
AcDbEntity
  8
3
370
    25
100
AcDbLine
 10
-40.718292
 20
-56.539161
 30
0.0
 11
-39.683016
 21
-52.675458
 31
0.0
  0
LINE
  5
4F8
100
AcDbEntity
  8
3
370
    25
100
AcDbLine
 10
-40.718292
 20
-56.539161
 30
0.0
 11
-41.753568
 21
-52.675458
 31
0.0
  0
LINE
  5
4F9
100
AcDbEntity
  8
3
370
    25
100
AcDbLine
 10
-39.683016
 20
-52.675458
 30
0.0
 11
-41.753568
 21
-52.675458
 31
0.0
  0
LINE
  5
4FA
100
AcDbEntity
  8
3
370
    25
100
AcDbLine
 10
-40.718292
 20
-56.539161
 30
0.0
 11
-40.718292
 21
1.486064
 31
0.0
  0
LINE
  5
4FB
100
AcDbEntity
  8
3
370
    25
100
AcDbLine
 10
-40.718292
 20
1.486064
 30
0.0
 11
-41.753568
 21
-2.377639
 31
0.0
  0
LINE
  5
4FC
100
AcDbEntity
  8
3
370
    25
100
AcDbLine
 10
-40.718292
 20
1.486064
 30
0.0
 11
-39.683016
 21
-2.377639
 31
0.0
  0
LINE
  5
4FD
100
AcDbEntity
  8
3
370
    25
100
AcDbLine
 10
-41.753568
 20
-2.377639
 30
0.0
 11
-39.683016
 21
-2.377639
 31
0.0
  0
LINE
  5
4FE
100
AcDbEntity
  8
3
370
    25
100
AcDbLine
 10
-21.542618
 20
1.486064
 30
0.0
 11
-42.718292
 21
1.486064
 31
0.0
  0
ENDBLK
  5
4FF
100
AcDbEntity
  8
3
100
AcDbBlockEnd
  0
BLOCK
  5
500
100
AcDbEntity
  8
3
100
AcDbBlockBegin
  2
*D11
 70
     1
 10
0.0
 20
0.0
 30
0.0
  3
*D11
  1

  0
TEXT
  5
501
100
AcDbEntity
  8
3
370
    25
100
AcDbText
 10
-34.853559
 20
-24.879506
 30
0.0
 40
7.0
  1
２０゜
 50
350.0
 72
     5
 11
-15.551327
 21
-28.283011
 31
0.0
100
AcDbText
  0
LINE
  5
502
100
AcDbEntity
  8
3
370
    25
100
AcDbLine
 10
-20.226658
 20
-0.393321
 30
0.0
 11
-30.358572
 21
-28.230527
 31
0.0
  0
LINE
  5
503
100
AcDbEntity
  8
3
370
    25
100
AcDbLine
 10
-19.542618
 20
-0.513936
 30
0.0
 11
-19.542618
 21
-30.137671
 31
0.0
  0
LINE
  5
504
100
AcDbEntity
  8
3
370
    25
100
AcDbLine
 10
-29.674532
 20
-26.351141
 30
0.0
 11
-26.25528
 21
-28.426886
 31
0.0
  0
LINE
  5
505
100
AcDbEntity
  8
3
370
    25
100
AcDbLine
 10
-29.674532
 20
-26.351141
 30
0.0
 11
-25.675501
 21
-26.439163
 31
0.0
  0
LINE
  5
506
100
AcDbEntity
  8
3
370
    25
100
AcDbLine
 10
-26.25528
 20
-28.426886
 30
0.0
 11
-25.675501
 21
-26.439163
 31
0.0
  0
LINE
  5
507
100
AcDbEntity
  8
3
370
    25
100
AcDbLine
 10
-19.542618
 20
-28.137671
 30
0.0
 11
-23.330583
 21
-26.852635
 31
0.0
  0
LINE
  5
508
100
AcDbEntity
  8
3
370
    25
100
AcDbLine
 10
-19.542618
 20
-28.137671
 30
0.0
 11
-23.46561
 21
-28.91878
 31
0.0
  0
LINE
  5
509
100
AcDbEntity
  8
3
370
    25
100
AcDbLine
 10
-23.330583
 20
-26.852635
 30
0.0
 11
-23.46561
 21
-28.91878
 31
0.0
  0
ARC
  5
50A
100
AcDbEntity
  8
3
370
    25
100
AcDbCircle
 10
-19.542618
 20
1.486064
 30
0.0
 40
29.623735
100
AcDbArc
 50
250.0
 51
270.0
  0
ENDBLK
  5
50B
100
AcDbEntity
  8
3
100
AcDbBlockEnd
  0
ENDSEC
  0
SECTION
  2
ENTITIES
  0
LINE
  5
30
100
AcDbEntity
  8
1
370
   100
100
AcDbLine
 10
-373.02157
 20
275.028767
 30
0.0
 11
394.982385
 21
275.028767
 31
0.0
  0
LINE
  5
31
100
AcDbEntity
  8
1
370
   100
100
AcDbLine
 10
-373.02157
 20
275.028767
 30
0.0
 11
-373.02157
 21
-277.971881
 31
0.0
  0
LINE
  5
32
100
AcDbEntity
  8
1
370
   100
100
AcDbLine
 10
-373.02157
 20
-277.971881
 30
0.0
 11
394.982385
 21
-277.971881
 31
0.0
  0
LINE
  5
33
100
AcDbEntity
  8
1
370
   100
100
AcDbLine
 10
394.982385
 20
-277.971881
 30
0.0
 11
394.982385
 21
275.028767
 31
0.0
  0
TEXT
  5
34
100
AcDbEntity
  8
1
370
    50
100
AcDbText
 10
359.628442
 20
-226.252857
 30
0.0
 40
6.0
  1
設計
 72
     5
 11
370.428442
 21
-226.252857
 31
0.0
100
AcDbText
  0
TEXT
  5
35
100
AcDbEntity
  8
1
370
    50
100
AcDbText
 10
379.127478
 20
-226.099658
 30
0.0
 40
6.0
  1
製図
 72
     5
 11
389.927478
 21
-226.099658
 31
0.0
100
AcDbText
  0
TEXT
  5
36
100
AcDbEntity
  8
1
370
    50
100
AcDbText
 10
319.005745
 20
-226.252857
 30
0.0
 40
6.0
  1
承認
 72
     5
 11
329.805745
 21
-226.252857
 31
0.0
100
AcDbText
  0
TEXT
  5
37
100
AcDbEntity
  8
1
370
    50
100
AcDbText
 10
338.989679
 20
-226.19802
 30
0.0
 40
6.0
  1
検図
 72
     5
 11
349.789679
 21
-226.19802
 31
0.0
100
AcDbText
  0
LINE
  5
38
100
AcDbEntity
  8
1
370
    25
100
AcDbLine
 10
284.982385
 20
-227.971881
 30
0.0
 11
394.982385
 21
-227.971881
 31
0.0
  0
LINE
  5
39
100
AcDbEntity
  8
1
370
    25
100
AcDbLine
 10
342.482385
 20
-245.971881
 30
0.0
 11
342.482385
 21
-259.971881
 31
0.0
  0
TEXT
  5
3A
100
AcDbEntity
  8
1
370
    50
100
AcDbText
 10
319.55159
 20
-256.012528
 30
0.0
 40
6.0
  1
日　付
 72
     5
 11
336.35159
 21
-256.012528
 31
0.0
100
AcDbText
  0
LINE
  5
3B
100
AcDbEntity
  8
1
370
    50
100
AcDbLine
 10
40.982385
 20
-259.971881
 30
0.0
 11
394.982385
 21
-259.971881
 31
0.0
  0
TEXT
  5
3C
100
AcDbEntity
  8
1
370
    50
100
AcDbText
 10
287.775011
 20
-256.322406
 30
0.0
 40
6.0
  1
第三角法
 72
     5
 11
310.575011
 21
-256.322406
 31
0.0
100
AcDbText
  0
TEXT
  5
3D
100
AcDbEntity
  8
1
370
    50
100
AcDbText
 10
291.087419
 20
-225.99802
 30
0.0
 40
6.0
  1
尺　度
 72
     5
 11
307.887419
 21
-225.99802
 31
0.0
100
AcDbText
  0
LINE
  5
3E
100
AcDbEntity
  8
1
370
   100
100
AcDbLine
 10
40.982385
 20
-217.971881
 30
0.0
 11
394.982385
 21
-217.971881
 31
0.0
  0
LINE
  5
3F
100
AcDbEntity
  8
1
370
    50
100
AcDbLine
 10
211.982385
 20
-217.971881
 30
0.0
 11
211.982385
 21
-277.971881
 31
0.0
  0
LINE
  5
40
100
AcDbEntity
  8
1
370
    25
100
AcDbLine
 10
374.982385
 20
-245.971881
 30
0.0
 11
374.982385
 21
-217.971881
 31
0.0
  0
LINE
  5
41
100
AcDbEntity
  8
1
370
    25
100
AcDbLine
 10
354.982385
 20
-245.971881
 30
0.0
 11
354.982385
 21
-217.971881
 31
0.0
  0
LINE
  5
42
100
AcDbEntity
  8
1
370
    25
100
AcDbLine
 10
334.982385
 20
-245.971881
 30
0.0
 11
334.982385
 21
-217.971881
 31
0.0
  0
LINE
  5
43
100
AcDbEntity
  8
1
370
    50
100
AcDbLine
 10
284.982385
 20
-277.971881
 30
0.0
 11
284.982385
 21
-217.971881
 31
0.0
  0
LINE
  5
44
100
AcDbEntity
  8
1
370
    50
100
AcDbLine
 10
189.982385
 20
-217.971881
 30
0.0
 11
189.982385
 21
-277.971881
 31
0.0
  0
LINE
  5
45
100
AcDbEntity
  8
1
370
    50
100
AcDbLine
 10
62.982385
 20
-217.971881
 30
0.0
 11
62.982385
 21
-259.971881
 31
0.0
  0
LINE
  5
46
100
AcDbEntity
  8
1
370
    50
100
AcDbLine
 10
284.982385
 20
-245.971881
 30
0.0
 11
394.982385
 21
-245.971881
 31
0.0
  0
TEXT
  5
47
100
AcDbEntity
  8
1
370
    50
100
AcDbText
 10
287.101129
 20
-271.880939
 30
0.0
 40
6.0
  1
コードＮｏ
 41
0.9
 72
     5
 11
313.021129
 21
-271.880939
 31
0.0
100
AcDbText
  0
TEXT
  5
48
100
AcDbEntity
  8
1
370
   100
100
AcDbText
 10
52.886774
 20
-272.875659
 30
0.0
 40
8.0
  1
ミズタニバルブ工業株式会社
 41
1.2
 72
     5
 11
175.766774
 21
-272.875659
 31
0.0
100
AcDbText
  0
LINE
  5
49
100
AcDbEntity
  8
1
370
    50
100
AcDbLine
 10
40.982385
 20
-238.971881
 30
0.0
 11
284.982385
 21
-238.971881
 31
0.0
  0
LINE
  5
4A
100
AcDbEntity
  8
1
370
    50
100
AcDbLine
 10
115.482385
 20
-238.971881
 30
0.0
 11
115.482385
 21
-259.971881
 31
0.0
  0
LINE
  5
4B
100
AcDbEntity
  8
1
370
    50
100
AcDbLine
 10
137.482385
 20
-238.971881
 30
0.0
 11
137.482385
 21
-259.971881
 31
0.0
  0
LINE
  5
4C
100
AcDbEntity
  8
1
370
    50
100
AcDbLine
 10
314.982385
 20
-277.971881
 30
0.0
 11
314.982385
 21
-217.971881
 31
0.0
  0
TEXT
  5
4D
100
AcDbEntity
  8
1
370
    50
100
AcDbText
 10
345.098131
 20
-256.100293
 30
0.0
 40
6.0
  1
　　・　　・
 72
     5
 11
379.898131
 21
-256.100293
 31
0.0
100
AcDbText
  0
LINE
  5
4E
100
AcDbEntity
  8
1
370
   100
100
AcDbLine
 10
40.982385
 20
-217.971881
 30
0.0
 11
40.982385
 21
-277.971881
 31
0.0
  0
TEXT
  5
4F
100
AcDbEntity
  8
1
370
    50
100
AcDbText
 10
290.832582
 20
-240.013492
 30
0.0
 40
6.0
  1
　／ 
 72
     5
 11
301.632582
 21
-240.013492
 31
0.0
100
AcDbText
  0
TEXT
  5
50
100
AcDbEntity
  8
1
370
    50
100
AcDbText
 10
193.904123
 20
-272.024909
 30
0.0
 40
6.0
  1
備 考 
 72
     5
 11
207.704123
 21
-272.024909
 31
0.0
100
AcDbText
  0
TEXT
  5
51
100
AcDbEntity
  8
1
370
    50
100
AcDbText
 10
193.512534
 20
-230.89184
 30
0.0
 40
6.0
  1
仕 上
 72
     5
 11
207.312534
 21
-230.89184
 31
0.0
100
AcDbText
  0
TEXT
  5
52
100
AcDbEntity
  8
1
370
    50
100
AcDbText
 10
193.447176
 20
-248.891666
 30
0.0
 40
6.0
  1
表 面
 72
     5
 11
207.247176
 21
-248.891666
 31
0.0
100
AcDbText
  0
TEXT
  5
53
100
AcDbEntity
  8
1
370
    50
100
AcDbText
 10
193.447176
 20
-255.891666
 30
0.0
 40
6.0
  1
処 理
 72
     5
 11
207.247176
 21
-255.891666
 31
0.0
100
AcDbText
  0
TEXT
  5
54
100
AcDbEntity
  8
1
370
    50
100
AcDbText
 10
44.79335
 20
-231.693399
 30
0.0
 40
6.0
  1
品 名
 72
     5
 11
58.59335
 21
-231.693399
 31
0.0
100
AcDbText
  0
TEXT
  5
55
100
AcDbEntity
  8
1
370
    50
100
AcDbText
 10
44.397766
 20
-252.462534
 30
0.0
 40
6.0
  1
材 質
 72
     5
 11
58.197766
 21
-252.462534
 31
0.0
100
AcDbText
  0
TEXT
  5
56
100
AcDbEntity
  8
1
370
    50
100
AcDbText
 10
118.897766
 20
-252.462534
 30
0.0
 40
6.0
  1
規 格
 72
     5
 11
132.697766
 21
-252.462534
 31
0.0
100
AcDbText
  0
LINE
  5
57
100
AcDbEntity
  8
2
370
    50
100
AcDbLine
 10
-223.636154
 20
83.860839
 30
0.0
 11
-256.636154
 21
83.860839
 31
0.0
  0
LINE
  5
58
100
AcDbEntity
  8
2
370
    50
100
AcDbLine
 10
-257.636154
 20
82.860839
 30
0.0
 11
-257.636154
 21
58.360839
 31
0.0
  0
LINE
  5
59
100
AcDbEntity
  8
2
370
    50
100
AcDbLine
 10
-222.636154
 20
82.860839
 30
0.0
 11
-222.636154
 21
58.360839
 31
0.0
  0
ARC
  5
5A
100
AcDbEntity
  8
2
370
    50
100
AcDbCircle
 10
-256.636154
 20
82.860839
 30
0.0
 40
1.0
100
AcDbArc
 50
90.0
 51
180.0
  0
ARC
  5
5B
100
AcDbEntity
  8
2
370
    50
100
AcDbCircle
 10
-223.636154
 20
82.860839
 30
0.0
 40
1.0
100
AcDbArc
 50
0.0
 51
90.0
  0
LINE
  5
5C
100
AcDbEntity
  8
2
370
    50
100
AcDbLine
 10
-222.636154
 20
58.360839
 30
0.0
 11
-257.636154
 21
58.360839
 31
0.0
  0
CIRCLE
  5
5D
100
AcDbEntity
  8
2
370
    50
100
AcDbCircle
 10
-240.136154
 20
75.860839
 30
0.0
 40
4.0
  0
CIRCLE
  5
5E
100
AcDbEntity
  8
2
370
    25
100
AcDbCircle
 10
-240.136154
 20
75.860839
 30
0.0
 40
3.5
  0
LINE
  5
5F
100
AcDbEntity
  8
2
370
    50
100
AcDbLine
 10
-223.136154
 20
57.460839
 30
0.0
 11
-257.136154
 21
57.460839
 31
0.0
  0
LINE
  5
60
100
AcDbEntity
  8
2
370
    50
100
AcDbLine
 10
-222.636154
 20
56.960839
 30
0.0
 11
-222.636154
 21
-52.239161
 31
0.0
  0
LINE
  5
61
100
AcDbEntity
  8
2
370
    50
100
AcDbLine
 10
-222.636154
 20
56.960839
 30
0.0
 11
-223.136154
 21
57.460839
 31
0.0
  0
LINE
  5
62
100
AcDbEntity
  8
2
370
    50
100
AcDbLine
 10
-257.136154
 20
57.460839
 30
0.0
 11
-257.636154
 21
56.960839
 31
0.0
  0
LINE
  5
63
100
AcDbEntity
  8
2
370
    25
100
AcDbLine
 10
-222.636154
 20
56.960839
 30
0.0
 11
-257.636154
 21
56.960839
 31
0.0
  0
LINE
  5
64
100
AcDbEntity
  8
2
370
    50
100
AcDbLine
 10
-257.636154
 20
-52.239161
 30
0.0
 11
-257.336154
 21
-52.539161
 31
0.0
  0
LINE
  5
65
100
AcDbEntity
  8
2
370
    50
100
AcDbLine
 10
-222.636154
 20
-52.239161
 30
0.0
 11
-222.936154
 21
-52.539161
 31
0.0
  0
LINE
  5
66
100
AcDbEntity
  8
2
370
    50
100
AcDbLine
 10
-257.636154
 20
-52.239161
 30
0.0
 11
-257.636154
 21
56.960839
 31
0.0
  0
LINE
  5
67
100
AcDbEntity
  8
2
370
    50
100
AcDbLine
 10
-264.136154
 20
-53.039161
 30
0.0
 11
-264.136154
 21
-56.039161
 31
0.0
  0
LINE
  5
68
100
AcDbEntity
  8
2
370
    50
100
AcDbLine
 10
-263.636154
 20
-56.539161
 30
0.0
 11
-240.136154
 21
-56.539161
 31
0.0
  0
LINE
  5
69
100
AcDbEntity
  8
2
370
    50
100
AcDbLine
 10
-258.136154
 20
-52.539161
 30
0.0
 11
-257.386154
 21
-52.539161
 31
0.0
  0
LINE
  5
6A
100
AcDbEntity
  8
2
370
    50
100
AcDbLine
 10
-240.136154
 20
-52.539161
 30
0.0
 11
-263.636154
 21
-52.539161
 31
0.0
  0
LINE
  5
6B
100
AcDbEntity
  8
2
370
    50
100
AcDbLine
 10
-257.636154
 20
-59.539161
 30
0.0
 11
-257.636154
 21
-61.039161
 31
0.0
  0
LINE
  5
6C
100
AcDbEntity
  8
2
370
    50
100
AcDbLine
 10
-263.636154
 20
-52.539161
 30
0.0
 11
-264.136154
 21
-53.039161
 31
0.0
  0
LINE
  5
6D
100
AcDbEntity
  8
2
370
    50
100
AcDbLine
 10
-263.636154
 20
-56.539161
 30
0.0
 11
-264.136154
 21
-56.039161
 31
0.0
  0
LINE
  5
6E
100
AcDbEntity
  8
2
370
    50
100
AcDbLine
 10
-257.636154
 20
-61.039161
 30
0.0
 11
-257.136154
 21
-61.539161
 31
0.0
  0
LINE
  5
6F
100
AcDbEntity
  8
2
370
    50
100
AcDbLine
 10
-257.136154
 20
-61.539161
 30
0.0
 11
-240.136154
 21
-61.539161
 31
0.0
  0
LINE
  5
70
100
AcDbEntity
  8
2
370
    50
100
AcDbLine
 10
-216.136154
 20
-53.039161
 30
0.0
 11
-216.136154
 21
-56.039161
 31
0.0
  0
LINE
  5
71
100
AcDbEntity
  8
2
370
    50
100
AcDbLine
 10
-216.636154
 20
-56.539161
 30
0.0
 11
-240.136154
 21
-56.539161
 31
0.0
  0
LINE
  5
72
100
AcDbEntity
  8
2
370
    50
100
AcDbLine
 10
-222.136154
 20
-52.539161
 30
0.0
 11
-222.886154
 21
-52.539161
 31
0.0
  0
LINE
  5
73
100
AcDbEntity
  8
2
370
    50
100
AcDbLine
 10
-240.136154
 20
-52.539161
 30
0.0
 11
-216.636154
 21
-52.539161
 31
0.0
  0
LINE
  5
74
100
AcDbEntity
  8
2
370
    50
100
AcDbLine
 10
-222.636154
 20
-59.539161
 30
0.0
 11
-222.636154
 21
-61.039161
 31
0.0
  0
LINE
  5
75
100
AcDbEntity
  8
2
370
    50
100
AcDbLine
 10
-216.636154
 20
-52.539161
 30
0.0
 11
-216.136154
 21
-53.039161
 31
0.0
  0
LINE
  5
76
100
AcDbEntity
  8
2
370
    50
100
AcDbLine
 10
-216.636154
 20
-56.539161
 30
0.0
 11
-216.136154
 21
-56.039161
 31
0.0
  0
LINE
  5
77
100
AcDbEntity
  8
2
370
    50
100
AcDbLine
 10
-222.636154
 20
-61.039161
 30
0.0
 11
-223.136154
 21
-61.539161
 31
0.0
  0
LINE
  5
78
100
AcDbEntity
  8
2
370
    50
100
AcDbLine
 10
-240.136154
 20
-61.539161
 30
0.0
 11
-223.136154
 21
-61.539161
 31
0.0
  0
LINE
  5
79
100
AcDbEntity
  8
2
370
    25
100
AcDbLine
 10
-257.636154
 20
-52.239161
 30
0.0
 11
-222.636154
 21
-52.239161
 31
0.0
  0
LINE
  5
7A
100
AcDbEntity
  8
2
370
    25
100
AcDbLine
 10
-216.136154
 20
-53.039161
 30
0.0
 11
-264.136154
 21
-53.039161
 31
0.0
  0
LINE
  5
7B
100
AcDbEntity
  8
2
370
    25
100
AcDbLine
 10
-264.136154
 20
-56.039161
 30
0.0
 11
-216.136154
 21
-56.039161
 31
0.0
  0
LINE
  5
7C
100
AcDbEntity
  8
2
370
    25
100
AcDbLine
 10
-222.636154
 20
-61.039161
 30
0.0
 11
-257.636154
 21
-61.039161
 31
0.0
  0
LINE
  5
7D
100
AcDbEntity
  8
2
370
    50
100
AcDbLine
 10
-216.636154
 20
-59.539161
 30
0.0
 11
-263.636154
 21
-59.539161
 31
0.0
  0
LINE
  5
7E
100
AcDbEntity
  8
2
370
    50
100
AcDbLine
 10
-263.636154
 20
-56.539161
 30
0.0
 11
-263.636154
 21
-59.539161
 31
0.0
  0
LINE
  5
7F
100
AcDbEntity
  8
2
370
    50
100
AcDbLine
 10
-216.636154
 20
-56.539161
 30
0.0
 11
-216.636154
 21
-59.539161
 31
0.0
  0
LINE
  5
80
100
AcDbEntity
  8
2
370
    25
  6
CENTER
100
AcDbLine
 10
-248.136154
 20
-118.036819
 30
0.0
 11
-248.136154
 21
-137.505645
 31
0.0
  0
LINE
  5
81
100
AcDbEntity
  8
2
370
    50
100
AcDbLine
 10
-241.286154
 20
-117.539161
 30
0.0
 11
-238.986154
 21
-117.539161
 31
0.0
  0
LINE
  5
82
100
AcDbEntity
  8
2
370
    50
100
AcDbLine
 10
-241.286154
 20
-111.350976
 30
0.0
 11
-238.986154
 21
-111.350976
 31
0.0
  0
ARC
  5
83
100
AcDbEntity
  8
2
370
    50
100
AcDbCircle
 10
-240.136154
 20
-104.350976
 30
0.0
 40
7.0
100
AcDbArc
 50
270.0
 51
279.455743
  0
ARC
  5
84
100
AcDbEntity
  8
2
370
    50
100
AcDbCircle
 10
-240.136154
 20
-104.350976
 30
0.0
 40
7.0
100
AcDbArc
 50
260.544257
 51
270.0
  0
LINE
  5
85
100
AcDbEntity
  8
2
370
    50
100
AcDbLine
 10
-264.636154
 20
-75.550976
 30
0.0
 11
-264.636154
 21
-81.350976
 31
0.0
  0
LINE
  5
86
100
AcDbEntity
  8
2
370
    50
100
AcDbLine
 10
-215.636154
 20
-75.550976
 30
0.0
 11
-215.636154
 21
-81.350976
 31
0.0
  0
LINE
  5
87
100
AcDbEntity
  8
2
370
    50
100
AcDbLine
 10
-225.886154
 20
-75.550976
 30
0.0
 11
-215.636154
 21
-75.550976
 31
0.0
  0
LINE
  5
88
100
AcDbEntity
  8
2
370
    50
100
AcDbLine
 10
-264.636154
 20
-75.550976
 30
0.0
 11
-254.386154
 21
-75.550976
 31
0.0
  0
LINE
  5
89
100
AcDbEntity
  8
2
370
    50
100
AcDbLine
 10
-241.886154
 20
-75.550976
 30
0.0
 11
-238.386154
 21
-75.550976
 31
0.0
  0
LINE
  5
8A
100
AcDbEntity
  8
2
370
    50
100
AcDbLine
 10
-264.636154
 20
-77.350976
 30
0.0
 11
-254.074339
 21
-77.350976
 31
0.0
  0
LINE
  5
8B
100
AcDbEntity
  8
2
370
    50
100
AcDbLine
 10
-242.197969
 20
-77.350976
 30
0.0
 11
-238.074339
 21
-77.350976
 31
0.0
  0
LINE
  5
8C
100
AcDbEntity
  8
2
370
    50
100
AcDbLine
 10
-226.197969
 20
-77.350976
 30
0.0
 11
-215.636154
 21
-77.350976
 31
0.0
  0
LINE
  5
8D
100
AcDbEntity
  8
2
370
    50
100
AcDbLine
 10
-226.136154
 20
-81.350976
 30
0.0
 11
-215.636154
 21
-81.350976
 31
0.0
  0
LINE
  5
8E
100
AcDbEntity
  8
2
370
    50
100
AcDbLine
 10
-264.636154
 20
-81.350976
 30
0.0
 11
-254.136154
 21
-81.350976
 31
0.0
  0
LINE
  5
8F
100
AcDbEntity
  8
2
370
    50
100
AcDbLine
 10
-242.136154
 20
-81.350976
 30
0.0
 11
-238.136154
 21
-81.350976
 31
0.0
  0
ARC
  5
90
100
AcDbEntity
  8
2
370
    50
100
AcDbCircle
 10
-240.136154
 20
-88.350976
 30
0.0
 40
7.0
100
AcDbArc
 50
73.39845
 51
90.0
  0
ARC
  5
91
100
AcDbEntity
  8
2
370
    50
100
AcDbCircle
 10
-240.136154
 20
-88.350976
 30
0.0
 40
7.0
100
AcDbArc
 50
90.0
 51
106.60155
  0
LINE
  5
92
100
AcDbEntity
  8
2
370
    25
  6
CENTER
100
AcDbLine
 10
-282.823997
 20
-129.194644
 30
0.0
 11
-282.823997
 21
-141.025879
 31
0.0
  0
HATCH
  5
93
100
AcDbEntity
  8
2
370
    25
100
AcDbHatch
 10
0.0
 20
0.0
 30
0.0
210
0.0
220
0.0
230
1.0
  2
_U
 70
     0
 71
     1
 91
        1
 92
        1
 93
        5
 72
     1
 10
-216.636154
 20
-59.539161
 11
-216.636154
 21
-56.539161
 72
     1
 10
-216.636154
 20
-56.539161
 11
-240.136154
 21
-56.539161
 72
     1
 10
-240.136154
 20
-56.539161
 11
-263.63615399999998
 21
-56.539161
 72
     1
 10
-263.63615399999998
 20
-56.539161
 11
-263.63615399999998
 21
-59.539161
 72
     1
 10
-263.63615399999998
 20
-59.539161
 11
-216.636154
 21
-59.539161
 97
        5
330
0
330
0
330
0
330
0
330
0
 75
     0
 76
     0
 52
45.0
 41
1.0
 77
     0
 78
     1
 53
45.0
 43
0.0
 44
0.0
 45
-1.4142140000000001
 46
1.4142140000000001
 79
     0
 98
        1
 10
0.0
 20
0.0
  0
LINE
  5
94
100
AcDbEntity
  8
2
370
    25
  6
CENTER
100
AcDbLine
 10
-248.136154
 20
-137.505645
 30
0.0
 11
-282.823997
 21
-129.194644
 31
0.0
  0
LINE
  5
95
100
AcDbEntity
  8
2
370
    25
  6
CENTER
100
AcDbLine
 10
-197.448311
 20
-129.194644
 30
0.0
 11
-197.448311
 21
-141.025879
 31
0.0
  0
LINE
  5
96
100
AcDbEntity
  8
2
370
    25
  6
CENTER
100
AcDbLine
 10
-232.136154
 20
-137.505645
 30
0.0
 11
-197.448311
 21
-129.194644
 31
0.0
  0
LINE
  5
97
100
AcDbEntity
  8
2
370
    50
100
AcDbLine
 10
120.771976
 20
57.460839
 30
0.0
 11
86.771976
 21
57.460839
 31
0.0
  0
LINE
  5
98
100
AcDbEntity
  8
2
370
    50
100
AcDbLine
 10
121.271976
 20
56.960839
 30
0.0
 11
121.271976
 21
-52.239161
 31
0.0
  0
LINE
  5
99
100
AcDbEntity
  8
2
370
    50
100
AcDbLine
 10
121.271976
 20
56.960839
 30
0.0
 11
120.771976
 21
57.460839
 31
0.0
  0
LINE
  5
9A
100
AcDbEntity
  8
2
370
    50
100
AcDbLine
 10
86.771976
 20
57.460839
 30
0.0
 11
86.271976
 21
56.960839
 31
0.0
  0
LINE
  5
9B
100
AcDbEntity
  8
2
370
    50
100
AcDbLine
 10
86.271976
 20
-52.239161
 30
0.0
 11
86.571976
 21
-52.539161
 31
0.0
  0
LINE
  5
9C
100
AcDbEntity
  8
2
370
    50
100
AcDbLine
 10
121.271976
 20
-52.239161
 30
0.0
 11
120.971976
 21
-52.539161
 31
0.0
  0
LINE
  5
9D
100
AcDbEntity
  8
2
370
    50
100
AcDbLine
 10
86.271976
 20
-52.239161
 30
0.0
 11
86.271976
 21
6.960839
 31
0.0
  0
LINE
  5
9E
100
AcDbEntity
  8
2
370
    50
100
AcDbLine
 10
86.271976
 20
27.960839
 30
0.0
 11
86.271976
 21
56.960839
 31
0.0
  0
LINE
  5
9F
100
AcDbEntity
  8
2
370
    50
100
AcDbLine
 10
86.271976
 20
27.960839
 30
0.0
 11
33.940438
 21
27.960839
 31
0.0
  0
LINE
  5
A0
100
AcDbEntity
  8
2
370
    50
100
AcDbLine
 10
79.771976
 20
-53.039161
 30
0.0
 11
79.771976
 21
-56.039161
 31
0.0
  0
LINE
  5
A1
100
AcDbEntity
  8
2
370
    50
100
AcDbLine
 10
80.271976
 20
-56.539161
 30
0.0
 11
103.771976
 21
-56.539161
 31
0.0
  0
LINE
  5
A2
100
AcDbEntity
  8
2
370
    50
100
AcDbLine
 10
85.771976
 20
-52.539161
 30
0.0
 11
86.521976
 21
-52.539161
 31
0.0
  0
LINE
  5
A3
100
AcDbEntity
  8
2
370
    50
100
AcDbLine
 10
103.771976
 20
-52.539161
 30
0.0
 11
80.271976
 21
-52.539161
 31
0.0
  0
LINE
  5
A4
100
AcDbEntity
  8
2
370
    50
100
AcDbLine
 10
86.271976
 20
-59.539161
 30
0.0
 11
86.271976
 21
-61.039161
 31
0.0
  0
LINE
  5
A5
100
AcDbEntity
  8
2
370
    50
100
AcDbLine
 10
80.271976
 20
-52.539161
 30
0.0
 11
79.771976
 21
-53.039161
 31
0.0
  0
LINE
  5
A6
100
AcDbEntity
  8
2
370
    50
100
AcDbLine
 10
80.271976
 20
-56.539161
 30
0.0
 11
79.771976
 21
-56.039161
 31
0.0
  0
LINE
  5
A7
100
AcDbEntity
  8
2
370
    50
100
AcDbLine
 10
86.271976
 20
-61.039161
 30
0.0
 11
86.771976
 21
-61.539161
 31
0.0
  0
LINE
  5
A8
100
AcDbEntity
  8
2
370
    50
100
AcDbLine
 10
86.771976
 20
-61.539161
 30
0.0
 11
103.771976
 21
-61.539161
 31
0.0
  0
LINE
  5
A9
100
AcDbEntity
  8
2
370
    50
100
AcDbLine
 10
127.771976
 20
-53.039161
 30
0.0
 11
127.771976
 21
-56.039161
 31
0.0
  0
LINE
  5
AA
100
AcDbEntity
  8
2
370
    50
100
AcDbLine
 10
127.271976
 20
-56.539161
 30
0.0
 11
103.771976
 21
-56.539161
 31
0.0
  0
LINE
  5
AB
100
AcDbEntity
  8
2
370
    50
100
AcDbLine
 10
121.771976
 20
-52.539161
 30
0.0
 11
121.021976
 21
-52.539161
 31
0.0
  0
LINE
  5
AC
100
AcDbEntity
  8
2
370
    50
100
AcDbLine
 10
103.771976
 20
-52.539161
 30
0.0
 11
127.271976
 21
-52.539161
 31
0.0
  0
LINE
  5
AD
100
AcDbEntity
  8
2
370
    50
100
AcDbLine
 10
121.271976
 20
-59.539161
 30
0.0
 11
121.271976
 21
-61.039161
 31
0.0
  0
LINE
  5
AE
100
AcDbEntity
  8
2
370
    50
100
AcDbLine
 10
127.271976
 20
-52.539161
 30
0.0
 11
127.771976
 21
-53.039161
 31
0.0
  0
LINE
  5
AF
100
AcDbEntity
  8
2
370
    50
100
AcDbLine
 10
127.271976
 20
-56.539161
 30
0.0
 11
127.771976
 21
-56.039161
 31
0.0
  0
LINE
  5
B0
100
AcDbEntity
  8
2
370
    50
100
AcDbLine
 10
121.271976
 20
-61.039161
 30
0.0
 11
120.771976
 21
-61.539161
 31
0.0
  0
LINE
  5
B1
100
AcDbEntity
  8
2
370
    50
100
AcDbLine
 10
103.771976
 20
-61.539161
 30
0.0
 11
120.771976
 21
-61.539161
 31
0.0
  0
LINE
  5
B2
100
AcDbEntity
  8
2
370
    50
100
AcDbLine
 10
103.771976
 20
58.360839
 30
0.0
 11
86.271976
 21
58.360839
 31
0.0
  0
LINE
  5
B3
100
AcDbEntity
  8
2
370
    50
100
AcDbLine
 10
120.271976
 20
83.860839
 30
0.0
 11
87.271976
 21
83.860839
 31
0.0
  0
LINE
  5
B4
100
AcDbEntity
  8
2
370
    50
100
AcDbLine
 10
103.771976
 20
58.360839
 30
0.0
 11
121.271976
 21
65.431297
 31
0.0
  0
LINE
  5
B5
100
AcDbEntity
  8
2
370
    50
100
AcDbLine
 10
86.271976
 20
58.360839
 30
0.0
 11
86.271976
 21
71.660839
 31
0.0
  0
ARC
  5
B6
100
AcDbEntity
  8
2
370
    50
100
AcDbCircle
 10
120.271976
 20
82.860839
 30
0.0
 40
1.0
100
AcDbArc
 50
0.0
 51
90.0
  0
ARC
  5
B7
100
AcDbEntity
  8
2
370
    50
100
AcDbCircle
 10
87.271976
 20
82.860839
 30
0.0
 40
1.0
100
AcDbArc
 50
90.0
 51
180.0
  0
LINE
  5
B8
100
AcDbEntity
  8
2
370
    50
100
AcDbLine
 10
86.271976
 20
82.860839
 30
0.0
 11
86.271976
 21
80.060839
 31
0.0
  0
ARC
  5
B9
100
AcDbEntity
  8
2
370
    50
100
AcDbCircle
 10
69.283451
 20
75.860839
 30
0.0
 40
17.5
100
AcDbArc
 50
346.11346
 51
360.0
  0
ARC
  5
BA
100
AcDbEntity
  8
2
370
    50
100
AcDbCircle
 10
69.283451
 20
75.860839
 30
0.0
 40
17.5
100
AcDbArc
 50
0.0
 51
13.88654
  0
ARC
  5
BB
100
AcDbEntity
  8
2
370
    50
100
AcDbCircle
 10
115.343773
 20
75.860839
 30
0.0
 40
8.0
100
AcDbArc
 50
0.0
 51
30.0
  0
LINE
  5
BC
100
AcDbEntity
  8
2
370
    50
100
AcDbLine
 10
122.271976
 20
79.860839
 30
0.0
 11
121.271976
 21
79.860839
 31
0.0
  0
LINE
  5
BD
100
AcDbEntity
  8
2
370
    50
100
AcDbLine
 10
121.271976
 20
79.110839
 30
0.0
 11
121.271976
 21
79.860839
 31
0.0
  0
ARC
  5
BE
100
AcDbEntity
  8
2
370
    50
100
AcDbCircle
 10
115.343773
 20
75.860839
 30
0.0
 40
8.0
100
AcDbArc
 50
330.0
 51
360.0
  0
LINE
  5
BF
100
AcDbEntity
  8
2
370
    50
100
AcDbLine
 10
122.271976
 20
71.860839
 30
0.0
 11
121.271976
 21
71.860839
 31
0.0
  0
LINE
  5
C0
100
AcDbEntity
  8
2
370
    50
100
AcDbLine
 10
121.271976
 20
72.610839
 30
0.0
 11
121.271976
 21
71.860839
 31
0.0
  0
LINE
  5
C1
100
AcDbEntity
  8
2
370
    50
100
AcDbLine
 10
121.271976
 20
65.431297
 30
0.0
 11
121.271976
 21
75.860839
 31
0.0
  0
LINE
  5
C2
100
AcDbEntity
  8
2
370
    50
100
AcDbLine
 10
121.271976
 20
75.860839
 30
0.0
 11
121.271976
 21
82.860839
 31
0.0
  0
LINE
  5
C3
100
AcDbEntity
  8
2
370
    50
100
AcDbLine
 10
27.772154
 20
71.860839
 30
0.0
 11
86.320176
 21
71.860839
 31
0.0
  0
LINE
  5
C4
100
AcDbEntity
  8
2
370
    50
100
AcDbLine
 10
27.772154
 20
79.860839
 30
0.0
 11
86.320176
 21
79.860839
 31
0.0
  0
LINE
  5
C5
100
AcDbEntity
  8
2
370
    50
100
AcDbLine
 10
27.272154
 20
72.360839
 30
0.0
 11
27.272154
 21
79.360839
 31
0.0
  0
LINE
  5
C6
100
AcDbEntity
  8
2
370
    50
100
AcDbLine
 10
27.772154
 20
79.860839
 30
0.0
 11
27.272154
 21
79.360839
 31
0.0
  0
LINE
  5
C7
100
AcDbEntity
  8
2
370
    50
100
AcDbLine
 10
27.272154
 20
72.360839
 30
0.0
 11
27.772154
 21
71.860839
 31
0.0
  0
LINE
  5
C8
100
AcDbEntity
  8
2
370
    25
100
AcDbLine
 10
122.271976
 20
79.860839
 30
0.0
 11
122.271976
 21
71.860839
 31
0.0
  0
POINT
  5
C9
100
AcDbEntity
  8
2
370
    50
100
AcDbPoint
 10
103.771976
 20
59.060839
 30
0.0
  0
LINE
  5
CA
100
AcDbEntity
  8
2
370
    50
100
AcDbLine
 10
110.896976
 20
-117.539161
 30
0.0
 11
110.271976
 21
-116.914161
 31
0.0
  0
LINE
  5
CB
100
AcDbEntity
  8
2
370
    50
100
AcDbLine
 10
117.646976
 20
-117.539161
 30
0.0
 11
118.271976
 21
-116.914161
 31
0.0
  0
LINE
  5
CC
100
AcDbEntity
  8
2
370
    50
100
AcDbLine
 10
110.896976
 20
-117.539161
 30
0.0
 11
117.646976
 21
-117.539161
 31
0.0
  0
LINE
  5
CD
100
AcDbEntity
  8
2
370
    50
100
AcDbLine
 10
121.271976
 20
-81.850976
 30
0.0
 11
121.271976
 21
-110.850976
 31
0.0
  0
LINE
  5
CE
100
AcDbEntity
  8
2
370
    50
100
AcDbLine
 10
120.771976
 20
-81.350976
 30
0.0
 11
121.271976
 21
-81.850976
 31
0.0
  0
LINE
  5
CF
100
AcDbEntity
  8
2
370
    50
100
AcDbLine
 10
120.771976
 20
-111.350976
 30
0.0
 11
121.271976
 21
-110.850976
 31
0.0
  0
LINE
  5
D0
100
AcDbEntity
  8
2
370
    50
100
AcDbLine
 10
107.771976
 20
-81.350976
 30
0.0
 11
107.271976
 21
-81.850976
 31
0.0
  0
LINE
  5
D1
100
AcDbEntity
  8
2
370
    50
100
AcDbLine
 10
107.271976
 20
-81.850976
 30
0.0
 11
107.271976
 21
-110.850976
 31
0.0
  0
LINE
  5
D2
100
AcDbEntity
  8
2
370
    50
100
AcDbLine
 10
107.771976
 20
-111.350976
 30
0.0
 11
107.271976
 21
-110.850976
 31
0.0
  0
LINE
  5
D3
100
AcDbEntity
  8
2
370
    50
100
AcDbLine
 10
107.771976
 20
-111.350976
 30
0.0
 11
118.271976
 21
-111.350976
 31
0.0
  0
LINE
  5
D4
100
AcDbEntity
  8
2
370
    50
100
AcDbLine
 10
118.271976
 20
-111.350976
 30
0.0
 11
120.771976
 21
-111.350976
 31
0.0
  0
LINE
  5
D5
100
AcDbEntity
  8
2
370
    50
100
AcDbLine
 10
87.571976
 20
-77.350976
 30
0.0
 11
127.571976
 21
-77.350976
 31
0.0
  0
LINE
  5
D6
100
AcDbEntity
  8
2
370
    50
100
AcDbLine
 10
87.571976
 20
-75.550976
 30
0.0
 11
127.571976
 21
-75.550976
 31
0.0
  0
LINE
  5
D7
100
AcDbEntity
  8
2
370
    50
100
AcDbLine
 10
87.571976
 20
-75.550976
 30
0.0
 11
87.571976
 21
-81.350976
 31
0.0
  0
LINE
  5
D8
100
AcDbEntity
  8
2
370
    50
100
AcDbLine
 10
127.571976
 20
-81.350976
 30
0.0
 11
127.571976
 21
-75.550976
 31
0.0
  0
LINE
  5
D9
100
AcDbEntity
  8
2
370
    50
100
AcDbLine
 10
118.271976
 20
-116.914161
 30
0.0
 11
118.271976
 21
-111.350976
 31
0.0
  0
LINE
  5
DA
100
AcDbEntity
  8
2
370
    50
100
AcDbLine
 10
118.271976
 20
-75.550976
 30
0.0
 11
118.271976
 21
-61.539161
 31
0.0
  0
LINE
  5
DB
100
AcDbEntity
  8
2
370
    50
100
AcDbLine
 10
117.646976
 20
-117.539161
 30
0.0
 11
117.646976
 21
-111.350976
 31
0.0
  0
LINE
  5
DC
100
AcDbEntity
  8
2
370
    50
100
AcDbLine
 10
117.646976
 20
-75.550976
 30
0.0
 11
117.646976
 21
-61.539161
 31
0.0
  0
LINE
  5
DD
100
AcDbEntity
  8
2
370
    50
100
AcDbLine
 10
110.896976
 20
-117.539161
 30
0.0
 11
110.896976
 21
-111.350976
 31
0.0
  0
LINE
  5
DE
100
AcDbEntity
  8
2
370
    50
100
AcDbLine
 10
110.896976
 20
-75.550976
 30
0.0
 11
110.896976
 21
-61.539161
 31
0.0
  0
LINE
  5
DF
100
AcDbEntity
  8
2
370
    50
100
AcDbLine
 10
110.271976
 20
-116.914161
 30
0.0
 11
110.271976
 21
-111.350976
 31
0.0
  0
LINE
  5
E0
100
AcDbEntity
  8
2
370
    50
100
AcDbLine
 10
110.271976
 20
-75.550976
 30
0.0
 11
110.271976
 21
-61.539161
 31
0.0
  0
LINE
  5
E1
100
AcDbEntity
  8
2
370
    50
100
AcDbLine
 10
118.602103
 20
-81.850976
 30
0.0
 11
118.602103
 21
-110.850976
 31
0.0
  0
LINE
  5
E2
100
AcDbEntity
  8
2
370
    50
100
AcDbLine
 10
116.870053
 20
-81.850976
 30
0.0
 11
116.870053
 21
-110.850976
 31
0.0
  0
LINE
  5
E3
100
AcDbEntity
  8
2
370
    50
100
AcDbLine
 10
118.602103
 20
-81.850976
 30
0.0
 11
116.870053
 21
-81.850976
 31
0.0
  0
LINE
  5
E4
100
AcDbEntity
  8
2
370
    50
100
AcDbLine
 10
118.602103
 20
-110.850976
 30
0.0
 11
116.870053
 21
-110.850976
 31
0.0
  0
ARC
  5
E5
100
AcDbEntity
  8
2
370
    50
100
AcDbCircle
 10
114.271976
 20
-88.350976
 30
0.0
 40
7.0
100
AcDbArc
 50
68.213211
 51
90.0
  0
ARC
  5
E6
100
AcDbEntity
  8
2
370
    50
100
AcDbCircle
 10
119.93704
 20
-83.383032
 30
0.0
 40
2.032055
100
AcDbArc
 50
48.93316
 51
131.06684
  0
ARC
  5
E7
100
AcDbEntity
  8
2
370
    50
100
AcDbCircle
 10
119.93704
 20
-109.318921
 30
0.0
 40
2.032055
100
AcDbArc
 50
228.93316
 51
311.06684
  0
ARC
  5
E8
100
AcDbEntity
  8
2
370
    50
100
AcDbCircle
 10
114.271976
 20
-104.350976
 30
0.0
 40
7.0
100
AcDbArc
 50
270.0
 51
291.786789
  0
ARC
  5
E9
100
AcDbEntity
  8
2
370
    50
100
AcDbCircle
 10
114.271976
 20
-88.350976
 30
0.0
 40
7.0
100
AcDbArc
 50
90.0
 51
111.786789
  0
LINE
  5
EA
100
AcDbEntity
  8
2
370
    50
100
AcDbLine
 10
111.6739
 20
-81.850976
 30
0.0
 11
111.6739
 21
-110.850976
 31
0.0
  0
LINE
  5
EB
100
AcDbEntity
  8
2
370
    50
100
AcDbLine
 10
109.941849
 20
-81.850976
 30
0.0
 11
111.6739
 21
-81.850976
 31
0.0
  0
LINE
  5
EC
100
AcDbEntity
  8
2
370
    50
100
AcDbLine
 10
109.941849
 20
-81.850976
 30
0.0
 11
109.941849
 21
-110.850976
 31
0.0
  0
ARC
  5
ED
100
AcDbEntity
  8
2
370
    50
100
AcDbCircle
 10
108.606913
 20
-83.383032
 30
0.0
 40
2.032055
100
AcDbArc
 50
48.93316
 51
131.06684
  0
ARC
  5
EE
100
AcDbEntity
  8
2
370
    50
100
AcDbCircle
 10
108.606913
 20
-109.318921
 30
0.0
 40
2.032055
100
AcDbArc
 50
228.93316
 51
311.06684
  0
LINE
  5
EF
100
AcDbEntity
  8
2
370
    50
100
AcDbLine
 10
109.941849
 20
-110.850976
 30
0.0
 11
111.6739
 21
-110.850976
 31
0.0
  0
ARC
  5
F0
100
AcDbEntity
  8
2
370
    50
100
AcDbCircle
 10
114.271976
 20
-104.350976
 30
0.0
 40
7.0
100
AcDbArc
 50
248.213211
 51
270.0
  0
POINT
  5
F1
100
AcDbEntity
  8
2
370
    50
100
AcDbPoint
 10
114.271976
 20
-117.539161
 30
0.0
  0
LINE
  5
F2
100
AcDbEntity
  8
2
370
    25
100
AcDbLine
 10
121.271976
 20
56.960839
 30
0.0
 11
86.271976
 21
56.960839
 31
0.0
  0
LINE
  5
F3
100
AcDbEntity
  8
2
370
    25
100
AcDbLine
 10
86.271976
 20
-52.239161
 30
0.0
 11
121.271976
 21
-52.239161
 31
0.0
  0
LINE
  5
F4
100
AcDbEntity
  8
2
370
    25
100
AcDbLine
 10
127.771976
 20
-53.039161
 30
0.0
 11
79.771976
 21
-53.039161
 31
0.0
  0
LINE
  5
F5
100
AcDbEntity
  8
2
370
    25
100
AcDbLine
 10
79.771976
 20
-56.039161
 30
0.0
 11
127.771976
 21
-56.039161
 31
0.0
  0
LINE
  5
F6
100
AcDbEntity
  8
2
370
    25
100
AcDbLine
 10
121.271976
 20
-61.039161
 30
0.0
 11
86.271976
 21
-61.039161
 31
0.0
  0
LINE
  5
F7
100
AcDbEntity
  8
2
370
    50
100
AcDbLine
 10
127.271976
 20
-59.539161
 30
0.0
 11
80.271976
 21
-59.539161
 31
0.0
  0
LINE
  5
F8
100
AcDbEntity
  8
2
370
    50
100
AcDbLine
 10
80.271976
 20
-56.539161
 30
0.0
 11
80.271976
 21
-59.539161
 31
0.0
  0
LINE
  5
F9
100
AcDbEntity
  8
2
370
    50
100
AcDbLine
 10
127.271976
 20
-56.539161
 30
0.0
 11
127.271976
 21
-59.539161
 31
0.0
  0
HATCH
  5
FA
100
AcDbEntity
  8
2
370
    25
100
AcDbHatch
 10
0.0
 20
0.0
 30
0.0
210
0.0
220
0.0
230
1.0
  2
_U
 70
     0
 71
     1
 91
        1
 92
        1
 93
        5
 72
     1
 10
127.271976
 20
-56.539161
 11
103.771976
 21
-56.539161
 72
     1
 10
103.771976
 20
-56.539161
 11
80.271975999999995
 21
-56.539161
 72
     1
 10
80.271975999999995
 20
-56.539161
 11
80.271975999999995
 21
-59.539161
 72
     1
 10
80.271975999999995
 20
-59.539161
 11
127.271976
 21
-59.539161
 72
     1
 10
127.271976
 20
-59.539161
 11
127.271976
 21
-56.539161
 97
        5
330
0
330
0
330
0
330
0
330
0
 75
     0
 76
     0
 52
45.0
 41
1.0
 77
     0
 78
     1
 53
45.0
 43
0.0
 44
0.0
 45
-1.4142140000000001
 46
1.4142140000000001
 79
     0
 98
        1
 10
0.0
 20
0.0
  0
LINE
  5
FB
100
AcDbEntity
  8
2
370
    50
100
AcDbLine
 10
238.438168
 20
57.460839
 30
0.0
 11
255.438168
 21
57.460839
 31
0.0
  0
LINE
  5
FC
100
AcDbEntity
  8
2
370
    50
100
AcDbLine
 10
238.438168
 20
57.460839
 30
0.0
 11
221.438168
 21
57.460839
 31
0.0
  0
LINE
  5
FD
100
AcDbEntity
  8
2
370
    50
100
AcDbLine
 10
220.938168
 20
56.960839
 30
0.0
 11
220.938168
 21
-52.239161
 31
0.0
  0
LINE
  5
FE
100
AcDbEntity
  8
2
370
    50
100
AcDbLine
 10
220.938168
 20
56.960839
 30
0.0
 11
221.438168
 21
57.460839
 31
0.0
  0
LINE
  5
FF
100
AcDbEntity
  8
2
370
    50
100
AcDbLine
 10
255.438168
 20
57.460839
 30
0.0
 11
255.938168
 21
56.960839
 31
0.0
  0
LINE
  5
100
100
AcDbEntity
  8
2
370
    50
100
AcDbLine
 10
255.938168
 20
-52.239161
 30
0.0
 11
255.638168
 21
-52.539161
 31
0.0
  0
LINE
  5
101
100
AcDbEntity
  8
2
370
    50
100
AcDbLine
 10
220.938168
 20
-52.239161
 30
0.0
 11
221.238168
 21
-52.539161
 31
0.0
  0
LINE
  5
102
100
AcDbEntity
  8
2
370
    50
100
AcDbLine
 10
255.938168
 20
-52.239161
 30
0.0
 11
255.938168
 21
6.960839
 31
0.0
  0
LINE
  5
103
100
AcDbEntity
  8
2
370
    50
100
AcDbLine
 10
255.938168
 20
27.960839
 30
0.0
 11
255.938168
 21
56.960839
 31
0.0
  0
LINE
  5
104
100
AcDbEntity
  8
2
370
    50
100
AcDbLine
 10
262.438168
 20
-53.039161
 30
0.0
 11
262.438168
 21
-56.039161
 31
0.0
  0
LINE
  5
105
100
AcDbEntity
  8
2
370
    50
100
AcDbLine
 10
261.938168
 20
-56.539161
 30
0.0
 11
238.438168
 21
-56.539161
 31
0.0
  0
LINE
  5
106
100
AcDbEntity
  8
2
370
    50
100
AcDbLine
 10
256.438168
 20
-52.539161
 30
0.0
 11
255.688168
 21
-52.539161
 31
0.0
  0
LINE
  5
107
100
AcDbEntity
  8
2
370
    50
100
AcDbLine
 10
238.438168
 20
-52.539161
 30
0.0
 11
261.938168
 21
-52.539161
 31
0.0
  0
LINE
  5
108
100
AcDbEntity
  8
2
370
    50
100
AcDbLine
 10
255.938168
 20
-59.539161
 30
0.0
 11
255.938168
 21
-61.039161
 31
0.0
  0
LINE
  5
109
100
AcDbEntity
  8
2
370
    50
100
AcDbLine
 10
261.938168
 20
-52.539161
 30
0.0
 11
262.438168
 21
-53.039161
 31
0.0
  0
LINE
  5
10A
100
AcDbEntity
  8
2
370
    50
100
AcDbLine
 10
261.938168
 20
-56.539161
 30
0.0
 11
262.438168
 21
-56.039161
 31
0.0
  0
LINE
  5
10B
100
AcDbEntity
  8
2
370
    50
100
AcDbLine
 10
255.938168
 20
-61.039161
 30
0.0
 11
255.438168
 21
-61.539161
 31
0.0
  0
LINE
  5
10C
100
AcDbEntity
  8
2
370
    50
100
AcDbLine
 10
255.438168
 20
-61.539161
 30
0.0
 11
238.438168
 21
-61.539161
 31
0.0
  0
LINE
  5
10D
100
AcDbEntity
  8
2
370
    50
100
AcDbLine
 10
214.438168
 20
-53.039161
 30
0.0
 11
214.438168
 21
-56.039161
 31
0.0
  0
LINE
  5
10E
100
AcDbEntity
  8
2
370
    50
100
AcDbLine
 10
214.938168
 20
-56.539161
 30
0.0
 11
238.438168
 21
-56.539161
 31
0.0
  0
LINE
  5
10F
100
AcDbEntity
  8
2
370
    50
100
AcDbLine
 10
220.438168
 20
-52.539161
 30
0.0
 11
221.188168
 21
-52.539161
 31
0.0
  0
LINE
  5
110
100
AcDbEntity
  8
2
370
    50
100
AcDbLine
 10
238.438168
 20
-52.539161
 30
0.0
 11
214.938168
 21
-52.539161
 31
0.0
  0
LINE
  5
111
100
AcDbEntity
  8
2
370
    50
100
AcDbLine
 10
220.938168
 20
-59.539161
 30
0.0
 11
220.938168
 21
-61.039161
 31
0.0
  0
LINE
  5
112
100
AcDbEntity
  8
2
370
    50
100
AcDbLine
 10
214.938168
 20
-52.539161
 30
0.0
 11
214.438168
 21
-53.039161
 31
0.0
  0
LINE
  5
113
100
AcDbEntity
  8
2
370
    50
100
AcDbLine
 10
214.938168
 20
-56.539161
 30
0.0
 11
214.438168
 21
-56.039161
 31
0.0
  0
LINE
  5
114
100
AcDbEntity
  8
2
370
    50
100
AcDbLine
 10
220.938168
 20
-61.039161
 30
0.0
 11
221.438168
 21
-61.539161
 31
0.0
  0
LINE
  5
115
100
AcDbEntity
  8
2
370
    50
100
AcDbLine
 10
238.438168
 20
-61.539161
 30
0.0
 11
221.438168
 21
-61.539161
 31
0.0
  0
LINE
  5
116
100
AcDbEntity
  8
2
370
    50
100
AcDbLine
 10
238.438168
 20
58.360839
 30
0.0
 11
255.938168
 21
58.360839
 31
0.0
  0
LINE
  5
117
100
AcDbEntity
  8
2
370
    50
100
AcDbLine
 10
221.938168
 20
83.860839
 30
0.0
 11
254.938168
 21
83.860839
 31
0.0
  0
LINE
  5
118
100
AcDbEntity
  8
2
370
    50
100
AcDbLine
 10
238.438168
 20
58.360839
 30
0.0
 11
220.938168
 21
65.431297
 31
0.0
  0
LINE
  5
119
100
AcDbEntity
  8
2
370
    50
100
AcDbLine
 10
255.938168
 20
58.360839
 30
0.0
 11
255.938168
 21
71.660839
 31
0.0
  0
ARC
  5
11A
100
AcDbEntity
  8
2
370
    50
100
AcDbCircle
 10
221.938168
 20
82.860839
 30
0.0
 40
1.0
100
AcDbArc
 50
90.0
 51
180.0
  0
ARC
  5
11B
100
AcDbEntity
  8
2
370
    50
100
AcDbCircle
 10
254.938168
 20
82.860839
 30
0.0
 40
1.0
100
AcDbArc
 50
0.0
 51
90.0
  0
LINE
  5
11C
100
AcDbEntity
  8
2
370
    50
100
AcDbLine
 10
255.938168
 20
82.860839
 30
0.0
 11
255.938168
 21
80.060839
 31
0.0
  0
ARC
  5
11D
100
AcDbEntity
  8
2
370
    50
100
AcDbCircle
 10
272.926693
 20
75.860839
 30
0.0
 40
17.5
100
AcDbArc
 50
180.0
 51
193.88654
  0
ARC
  5
11E
100
AcDbEntity
  8
2
370
    50
100
AcDbCircle
 10
272.926693
 20
75.860839
 30
0.0
 40
17.5
100
AcDbArc
 50
166.11346
 51
180.0
  0
ARC
  5
11F
100
AcDbEntity
  8
2
370
    50
100
AcDbCircle
 10
226.866371
 20
75.860839
 30
0.0
 40
8.0
100
AcDbArc
 50
150.0
 51
180.0
  0
LINE
  5
120
100
AcDbEntity
  8
2
370
    50
100
AcDbLine
 10
219.938168
 20
79.860839
 30
0.0
 11
220.938168
 21
79.860839
 31
0.0
  0
LINE
  5
121
100
AcDbEntity
  8
2
370
    50
100
AcDbLine
 10
220.938168
 20
79.110839
 30
0.0
 11
220.938168
 21
79.860839
 31
0.0
  0
ARC
  5
122
100
AcDbEntity
  8
2
370
    50
100
AcDbCircle
 10
226.866371
 20
75.860839
 30
0.0
 40
8.0
100
AcDbArc
 50
180.0
 51
210.0
  0
LINE
  5
123
100
AcDbEntity
  8
2
370
    50
100
AcDbLine
 10
219.938168
 20
71.860839
 30
0.0
 11
220.938168
 21
71.860839
 31
0.0
  0
LINE
  5
124
100
AcDbEntity
  8
2
370
    50
100
AcDbLine
 10
220.938168
 20
72.610839
 30
0.0
 11
220.938168
 21
71.860839
 31
0.0
  0
LINE
  5
125
100
AcDbEntity
  8
2
370
    50
100
AcDbLine
 10
220.938168
 20
65.431297
 30
0.0
 11
220.938168
 21
75.860839
 31
0.0
  0
LINE
  5
126
100
AcDbEntity
  8
2
370
    50
100
AcDbLine
 10
220.938168
 20
75.860839
 30
0.0
 11
220.938168
 21
82.860839
 31
0.0
  0
LINE
  5
127
100
AcDbEntity
  8
2
370
    50
100
AcDbLine
 10
314.437991
 20
71.860839
 30
0.0
 11
255.889968
 21
71.860839
 31
0.0
  0
LINE
  5
128
100
AcDbEntity
  8
2
370
    50
100
AcDbLine
 10
314.437991
 20
79.860839
 30
0.0
 11
255.889968
 21
79.860839
 31
0.0
  0
LINE
  5
129
100
AcDbEntity
  8
2
370
    50
100
AcDbLine
 10
314.937991
 20
72.360839
 30
0.0
 11
314.937991
 21
79.360839
 31
0.0
  0
LINE
  5
12A
100
AcDbEntity
  8
2
370
    50
100
AcDbLine
 10
314.437991
 20
79.860839
 30
0.0
 11
314.937991
 21
79.360839
 31
0.0
  0
LINE
  5
12B
100
AcDbEntity
  8
2
370
    50
100
AcDbLine
 10
314.937991
 20
72.360839
 30
0.0
 11
314.437991
 21
71.860839
 31
0.0
  0
LINE
  5
12C
100
AcDbEntity
  8
2
370
    25
100
AcDbLine
 10
219.938168
 20
79.860839
 30
0.0
 11
219.938168
 21
71.860839
 31
0.0
  0
LINE
  5
12D
100
AcDbEntity
  8
2
370
    25
100
AcDbLine
 10
220.938168
 20
56.960839
 30
0.0
 11
255.938168
 21
56.960839
 31
0.0
  0
LINE
  5
12E
100
AcDbEntity
  8
2
370
    25
100
AcDbLine
 10
255.938168
 20
-52.239161
 30
0.0
 11
220.938168
 21
-52.239161
 31
0.0
  0
LINE
  5
12F
100
AcDbEntity
  8
2
370
    25
100
AcDbLine
 10
214.438168
 20
-53.039161
 30
0.0
 11
262.438168
 21
-53.039161
 31
0.0
  0
LINE
  5
130
100
AcDbEntity
  8
2
370
    25
100
AcDbLine
 10
262.438168
 20
-56.039161
 30
0.0
 11
214.438168
 21
-56.039161
 31
0.0
  0
LINE
  5
131
100
AcDbEntity
  8
2
370
    25
100
AcDbLine
 10
220.938168
 20
-61.039161
 30
0.0
 11
255.938168
 21
-61.039161
 31
0.0
  0
LINE
  5
132
100
AcDbEntity
  8
2
370
    50
100
AcDbLine
 10
214.938168
 20
-59.539161
 30
0.0
 11
261.938168
 21
-59.539161
 31
0.0
  0
LINE
  5
133
100
AcDbEntity
  8
2
370
    50
100
AcDbLine
 10
261.938168
 20
-56.539161
 30
0.0
 11
261.938168
 21
-59.539161
 31
0.0
  0
LINE
  5
134
100
AcDbEntity
  8
2
370
    50
100
AcDbLine
 10
214.938168
 20
-56.539161
 30
0.0
 11
214.938168
 21
-59.539161
 31
0.0
  0
HATCH
  5
135
100
AcDbEntity
  8
2
370
    25
100
AcDbHatch
 10
0.0
 20
0.0
 30
0.0
210
0.0
220
0.0
230
1.0
  2
_U
 70
     0
 71
     1
 91
        1
 92
        1
 93
        5
 72
     1
 10
214.93816799999999
 20
-56.539161
 11
238.43816799999999
 21
-56.539161
 72
     1
 10
238.43816799999999
 20
-56.539161
 11
261.93816800000002
 21
-56.539161
 72
     1
 10
261.93816800000002
 20
-56.539161
 11
261.93816800000002
 21
-59.539161
 72
     1
 10
261.93816800000002
 20
-59.539161
 11
214.93816799999999
 21
-59.539161
 72
     1
 10
214.93816799999999
 20
-59.539161
 11
214.93816799999999
 21
-56.539161
 97
        5
330
0
330
0
330
0
330
0
330
0
 75
     0
 76
     0
 52
45.0
 41
1.0
 77
     0
 78
     1
 53
45.0
 43
0.0
 44
0.0
 45
-1.4142140000000001
 46
1.4142140000000001
 79
     0
 98
        1
 10
0.0
 20
0.0
  0
LINE
  5
136
100
AcDbEntity
  8
2
370
    25
100
AcDbLine
 10
27.772154
 20
79.860839
 30
0.0
 11
27.772154
 21
71.860839
 31
0.0
  0
LINE
  5
137
100
AcDbEntity
  8
2
370
    25
  6
CENTER
100
AcDbLine
 10
103.771976
 20
-62.642476
 30
0.0
 11
103.771976
 21
85.695892
 31
0.0
  0
LINE
  5
138
100
AcDbEntity
  8
2
370
    25
  6
DASHED
100
AcDbLine
 10
81.258428
 20
179.704524
 30
0.0
 11
47.203559
 21
145.649655
 31
0.0
  0
LINE
  5
139
100
AcDbEntity
  8
2
370
    25
  6
DASHED
100
AcDbLine
 10
88.093776
 20
175.226163
 30
0.0
 11
52.860413
 21
139.992801
 31
0.0
  0
LINE
  5
13A
100
AcDbEntity
  8
2
370
    25
  6
DASHED
100
AcDbLine
 10
47.203559
 20
144.942548
 30
0.0
 11
52.153307
 21
139.992801
 31
0.0
  0
LINE
  5
13B
100
AcDbEntity
  8
2
370
    25
  6
DASHED
100
AcDbLine
 10
52.860413
 20
139.992801
 30
0.0
 11
52.153307
 21
139.992801
 31
0.0
  0
LINE
  5
13C
100
AcDbEntity
  8
2
370
    25
  6
DASHED
100
AcDbLine
 10
47.203559
 20
145.649655
 30
0.0
 11
47.203559
 21
144.942548
 31
0.0
  0
LINE
  5
13D
100
AcDbEntity
  8
2
370
    25
  6
DASHED
100
AcDbLine
 10
52.860413
 20
139.992801
 30
0.0
 11
47.203559
 21
145.649655
 31
0.0
  0
LINE
  5
13E
100
AcDbEntity
  8
2
370
    25
  6
CENTER
100
AcDbLine
 10
103.771976
 20
196.561218
 30
0.0
 11
47.730358
 21
140.5196
 31
0.0
  0
LINE
  5
13F
100
AcDbEntity
  8
2
370
    25
  6
DASHED
100
AcDbLine
 10
38.176053
 20
99.384263
 30
0.0
 11
82.89398
 21
81.317048
 31
0.0
  0
LINE
  5
140
100
AcDbEntity
  8
2
370
    25
  6
DASHED
100
AcDbLine
 10
41.172906
 20
106.801734
 30
0.0
 11
92.348682
 21
86.125379
 31
0.0
  0
LINE
  5
141
100
AcDbEntity
  8
2
370
    25
  6
DASHED
100
AcDbLine
 10
37.899765
 20
100.035159
 30
0.0
 11
40.522011
 21
106.525446
 31
0.0
  0
LINE
  5
142
100
AcDbEntity
  8
2
370
    25
  6
DASHED
100
AcDbLine
 10
41.172906
 20
106.801734
 30
0.0
 11
40.522011
 21
106.525446
 31
0.0
  0
LINE
  5
143
100
AcDbEntity
  8
2
370
    25
  6
DASHED
100
AcDbLine
 10
37.899765
 20
100.035159
 30
0.0
 11
38.176053
 21
99.384263
 31
0.0
  0
LINE
  5
144
100
AcDbEntity
  8
2
370
    25
  6
DASHED
100
AcDbLine
 10
41.172906
 20
106.801734
 30
0.0
 11
38.176053
 21
99.384263
 31
0.0
  0
LINE
  5
145
100
AcDbEntity
  8
2
370
    25
  6
DASHED
100
AcDbLine
 10
128.435675
 20
75.859426
 30
0.0
 11
125.185074
 21
77.172754
 31
0.0
  0
LINE
  5
146
100
AcDbEntity
  8
2
370
    25
  6
DASHED
100
AcDbLine
 10
119.937325
 20
58.360839
 30
0.0
 11
122.444321
 21
58.360839
 31
0.0
  0
ARC
  5
147
100
AcDbEntity
  8
2
370
    25
  6
DASHED
100
AcDbCircle
 10
128.061068
 20
74.932242
 30
0.0
 40
1.0
100
AcDbArc
 50
338.0
 51
68.0
  0
ARC
  5
148
100
AcDbEntity
  8
2
370
    25
  6
DASHED
100
AcDbCircle
 10
120.869472
 20
70.288093
 30
0.0
 40
8.0
100
AcDbArc
 50
338.0
 51
8.0
  0
LINE
  5
149
100
AcDbEntity
  8
2
370
    25
  6
DASHED
100
AcDbLine
 10
128.791616
 20
71.401478
 30
0.0
 11
127.864432
 21
71.776084
 31
0.0
  0
LINE
  5
14A
100
AcDbEntity
  8
2
370
    25
  6
DASHED
100
AcDbLine
 10
127.583477
 20
71.080696
 30
0.0
 11
127.864432
 21
71.776084
 31
0.0
  0
ARC
  5
14B
100
AcDbEntity
  8
2
370
    25
  6
DASHED
100
AcDbCircle
 10
120.869472
 20
70.288093
 30
0.0
 40
8.0
100
AcDbArc
 50
308.0
 51
338.0
  0
LINE
  5
14C
100
AcDbEntity
  8
2
370
    25
  6
DASHED
100
AcDbLine
 10
125.794763
 20
63.984007
 30
0.0
 11
124.86758
 21
64.358613
 31
0.0
  0
LINE
  5
14D
100
AcDbEntity
  8
2
370
    25
  6
DASHED
100
AcDbLine
 10
125.148535
 20
65.054001
 30
0.0
 11
124.86758
 21
64.358613
 31
0.0
  0
LINE
  5
14E
100
AcDbEntity
  8
2
370
    25
  6
DASHED
100
AcDbLine
 10
122.444321
 20
58.360839
 30
0.0
 11
126.366006
 21
68.067349
 31
0.0
  0
LINE
  5
14F
100
AcDbEntity
  8
2
370
    25
  6
DASHED
100
AcDbLine
 10
126.366006
 20
68.067349
 30
0.0
 11
128.988252
 21
74.557636
 31
0.0
  0
LINE
  5
150
100
AcDbEntity
  8
2
370
    25
  6
DASHED
100
AcDbLine
 10
128.791616
 20
71.401478
 30
0.0
 11
125.794763
 21
63.984007
 31
0.0
  0
LINE
  5
151
100
AcDbEntity
  8
2
370
    25
  6
CENTER
100
AcDbLine
 10
129.958351
 20
196.561218
 30
0.0
 11
-32.431206
 21
196.561218
 31
0.0
  0
CIRCLE
  5
152
100
AcDbEntity
  8
2
370
    50
100
AcDbCircle
 10
103.771976
 20
196.561218
 30
0.0
 40
17.5
  0
LINE
  5
153
100
AcDbEntity
  8
2
370
    50
100
AcDbLine
 10
86.735251
 20
192.561218
 30
0.0
 11
27.772154
 21
192.561218
 31
0.0
  0
LINE
  5
154
100
AcDbEntity
  8
2
370
    50
100
AcDbLine
 10
86.735251
 20
200.561218
 30
0.0
 11
27.772154
 21
200.561218
 31
0.0
  0
LINE
  5
155
100
AcDbEntity
  8
2
370
    50
100
AcDbLine
 10
27.272154
 20
193.061218
 30
0.0
 11
27.272154
 21
200.061218
 31
0.0
  0
LINE
  5
156
100
AcDbEntity
  8
2
370
    50
100
AcDbLine
 10
27.772154
 20
200.561218
 30
0.0
 11
27.272154
 21
200.061218
 31
0.0
  0
LINE
  5
157
100
AcDbEntity
  8
2
370
    50
100
AcDbLine
 10
27.772154
 20
192.561218
 30
0.0
 11
27.272154
 21
193.061218
 31
0.0
  0
LINE
  5
158
100
AcDbEntity
  8
2
370
    50
100
AcDbLine
 10
27.772154
 20
200.561218
 30
0.0
 11
27.772154
 21
192.561218
 31
0.0
  0
ARC
  5
159
100
AcDbEntity
  8
2
370
    25
100
AcDbCircle
 10
103.771976
 20
196.561218
 30
0.0
 40
23.5
100
AcDbArc
 50
206.53799
 51
153.45978
  0
ARC
  5
15A
100
AcDbEntity
  8
2
370
    50
100
AcDbCircle
 10
103.771976
 20
196.561218
 30
0.0
 40
24.0
100
AcDbArc
 50
205.943394
 51
154.054434
  0
LINE
  5
15B
100
AcDbEntity
  8
2
370
    25
  6
CENTER
100
AcDbLine
 10
103.771976
 20
171.409912
 30
0.0
 11
103.771976
 21
221.814362
 31
0.0
  0
TEXT
  5
15C
100
AcDbEntity
  8
2
370
    50
100
AcDbText
 10
100.730011
 20
212.182739
 30
0.0
 40
7.0
  1
Ｈ
 50
270.0
 72
     5
 11
100.730011
 21
206.582739
 31
0.0
100
AcDbText
  0
TEXT
  5
15D
100
AcDbEntity
  8
2
370
    50
100
AcDbText
 10
100.894875
 20
188.396835
 30
0.0
 40
7.0
  1
Ｃ
 50
270.0
 72
     5
 11
100.894875
 21
182.796835
 31
0.0
100
AcDbText
  0
POINT
  5
15E
100
AcDbEntity
  8
2
370
    50
100
AcDbPoint
 10
103.771976
 20
196.561218
 30
0.0
  0
LINE
  5
15F
100
AcDbEntity
  8
2
370
    25
  6
DASHED
100
AcDbLine
 10
81.258428
 20
213.417913
 30
0.0
 11
47.203559
 21
247.472781
 31
0.0
  0
LINE
  5
160
100
AcDbEntity
  8
2
370
    25
  6
DASHED
100
AcDbLine
 10
88.093776
 20
217.896273
 30
0.0
 11
52.860413
 21
253.129636
 31
0.0
  0
LINE
  5
161
100
AcDbEntity
  8
2
370
    25
  6
DASHED
100
AcDbLine
 10
47.203559
 20
248.179888
 30
0.0
 11
52.153307
 21
253.129636
 31
0.0
  0
LINE
  5
162
100
AcDbEntity
  8
2
370
    25
  6
DASHED
100
AcDbLine
 10
52.860413
 20
253.129636
 30
0.0
 11
52.153307
 21
253.129636
 31
0.0
  0
LINE
  5
163
100
AcDbEntity
  8
2
370
    25
  6
DASHED
100
AcDbLine
 10
47.203559
 20
247.472781
 30
0.0
 11
47.203559
 21
248.179888
 31
0.0
  0
LINE
  5
164
100
AcDbEntity
  8
2
370
    25
  6
DASHED
100
AcDbLine
 10
52.860413
 20
253.129636
 30
0.0
 11
47.203559
 21
247.472781
 31
0.0
  0
LINE
  5
165
100
AcDbEntity
  8
2
370
    25
  6
CENTER
100
AcDbLine
 10
48.084892
 20
252.248302
 30
0.0
 11
103.771976
 21
196.561218
 31
0.0
  0
LINE
  5
166
100
AcDbEntity
  8
2
370
    50
100
AcDbLine
 10
-254.136154
 20
-83.150486
 30
0.0
 11
-254.136154
 21
-77.827837
 31
0.0
  0
LINE
  5
167
100
AcDbEntity
  8
2
370
    50
100
AcDbLine
 10
-242.136154
 20
-83.150486
 30
0.0
 11
-242.136154
 21
-77.827837
 31
0.0
  0
LINE
  5
168
100
AcDbEntity
  8
2
370
    50
100
AcDbLine
 10
-245.738238
 20
-77.827837
 30
0.0
 11
-245.738238
 21
-83.150486
 31
0.0
  0
LINE
  5
169
100
AcDbEntity
  8
2
370
    50
100
AcDbLine
 10
-244.571972
 20
-77.827837
 30
0.0
 11
-244.571972
 21
-83.150486
 31
0.0
  0
LINE
  5
16A
100
AcDbEntity
  8
2
370
    50
100
AcDbLine
 10
-242.174057
 20
-77.827837
 30
0.0
 11
-242.174057
 21
-83.150486
 31
0.0
  0
LINE
  5
16B
100
AcDbEntity
  8
2
370
    50
100
AcDbLine
 10
-242.636154
 20
-83.439161
 30
0.0
 11
-242.136154
 21
-83.150486
 31
0.0
  0
LINE
  5
16C
100
AcDbEntity
  8
2
370
    50
100
AcDbLine
 10
-244.571972
 20
-83.150486
 30
0.0
 11
-245.738238
 21
-83.150486
 31
0.0
  0
LINE
  5
16D
100
AcDbEntity
  8
2
370
    50
100
AcDbLine
 10
-254.136154
 20
-83.150486
 30
0.0
 11
-253.636154
 21
-83.439161
 31
0.0
  0
LINE
  5
16E
100
AcDbEntity
  8
2
370
    50
100
AcDbLine
 10
-254.136154
 20
-77.827837
 30
0.0
 11
-253.636154
 21
-77.539161
 31
0.0
  0
ARC
  5
16F
100
AcDbEntity
  8
2
370
    50
100
AcDbCircle
 10
-248.136154
 20
-73.335532
 30
0.0
 40
10.10363
100
AcDbArc
 50
270.0
 51
283.729133
  0
ARC
  5
170
100
AcDbEntity
  8
2
370
    50
100
AcDbCircle
 10
-248.136154
 20
-87.642791
 30
0.0
 40
10.10363
100
AcDbArc
 50
76.270867
 51
90.0
  0
LINE
  5
171
100
AcDbEntity
  8
2
370
    50
100
AcDbLine
 10
-244.571972
 20
-77.827837
 30
0.0
 11
-245.738238
 21
-77.827837
 31
0.0
  0
LINE
  5
172
100
AcDbEntity
  8
2
370
    50
100
AcDbLine
 10
-242.136154
 20
-81.150486
 30
0.0
 11
-242.174057
 21
-81.150486
 31
0.0
  0
ARC
  5
173
100
AcDbEntity
  8
2
370
    50
100
AcDbCircle
 10
-243.373014
 20
-80.805001
 30
0.0
 40
2.634161
100
AcDbArc
 50
242.924933
 51
297.075067
  0
ARC
  5
174
100
AcDbEntity
  8
2
370
    50
100
AcDbCircle
 10
-243.373014
 20
-80.173322
 30
0.0
 40
2.634161
100
AcDbArc
 50
62.924933
 51
117.075067
  0
LINE
  5
175
100
AcDbEntity
  8
2
370
    50
100
AcDbLine
 10
-242.636154
 20
-77.539161
 30
0.0
 11
-242.136154
 21
-77.827837
 31
0.0
  0
LINE
  5
176
100
AcDbEntity
  8
2
370
    50
100
AcDbLine
 10
-242.136154
 20
-77.827837
 30
0.0
 11
-242.174057
 21
-77.827837
 31
0.0
  0
ARC
  5
177
100
AcDbEntity
  8
2
370
    50
100
AcDbCircle
 10
-248.136154
 20
-73.335532
 30
0.0
 40
10.10363
100
AcDbArc
 50
256.270867
 51
270.0
  0
LINE
  5
178
100
AcDbEntity
  8
2
370
    50
100
AcDbLine
 10
-251.700336
 20
-83.150486
 30
0.0
 11
-250.53407
 21
-83.150486
 31
0.0
  0
LINE
  5
179
100
AcDbEntity
  8
2
370
    50
100
AcDbLine
 10
-250.53407
 20
-77.827837
 30
0.0
 11
-250.53407
 21
-83.150486
 31
0.0
  0
LINE
  5
17A
100
AcDbEntity
  8
2
370
    50
100
AcDbLine
 10
-251.700336
 20
-77.827837
 30
0.0
 11
-251.700336
 21
-83.150486
 31
0.0
  0
ARC
  5
17B
100
AcDbEntity
  8
2
370
    50
100
AcDbCircle
 10
-252.899294
 20
-80.805001
 30
0.0
 40
2.634161
100
AcDbArc
 50
242.924933
 51
297.075067
  0
LINE
  5
17C
100
AcDbEntity
  8
2
370
    50
100
AcDbLine
 10
-254.098252
 20
-77.827837
 30
0.0
 11
-254.098252
 21
-83.150486
 31
0.0
  0
LINE
  5
17D
100
AcDbEntity
  8
2
370
    50
100
AcDbLine
 10
-254.098252
 20
-81.150486
 30
0.0
 11
-254.136154
 21
-81.150486
 31
0.0
  0
LINE
  5
17E
100
AcDbEntity
  8
2
370
    50
100
AcDbLine
 10
-255.086154
 20
-83.439161
 30
0.0
 11
-241.186154
 21
-83.439161
 31
0.0
  0
LINE
  5
17F
100
AcDbEntity
  8
2
370
    50
100
AcDbLine
 10
-255.086154
 20
-112.439161
 30
0.0
 11
-248.136154
 21
-112.439161
 31
0.0
  0
LINE
  5
180
100
AcDbEntity
  8
2
370
    50
100
AcDbLine
 10
-255.086154
 20
-106.939161
 30
0.0
 11
-248.136154
 21
-106.939161
 31
0.0
  0
LINE
  5
181
100
AcDbEntity
  8
2
370
    50
100
AcDbLine
 10
-255.086154
 20
-104.939161
 30
0.0
 11
-248.136154
 21
-104.939161
 31
0.0
  0
LINE
  5
182
100
AcDbEntity
  8
2
370
    50
100
AcDbLine
 10
-255.086154
 20
-99.939161
 30
0.0
 11
-248.136154
 21
-99.939161
 31
0.0
  0
LINE
  5
183
100
AcDbEntity
  8
2
370
    50
100
AcDbLine
 10
-255.086154
 20
-97.939161
 30
0.0
 11
-248.136154
 21
-97.939161
 31
0.0
  0
LINE
  5
184
100
AcDbEntity
  8
2
370
    50
100
AcDbLine
 10
-255.086154
 20
-92.939161
 30
0.0
 11
-248.136154
 21
-92.939161
 31
0.0
  0
LINE
  5
185
100
AcDbEntity
  8
2
370
    50
100
AcDbLine
 10
-255.086154
 20
-90.939161
 30
0.0
 11
-248.136154
 21
-90.939161
 31
0.0
  0
LINE
  5
186
100
AcDbEntity
  8
2
370
    50
100
AcDbLine
 10
-255.486154
 20
-111.639161
 30
0.0
 11
-255.486154
 21
-107.739161
 31
0.0
  0
LINE
  5
187
100
AcDbEntity
  8
2
370
    50
100
AcDbLine
 10
-255.486154
 20
-104.139161
 30
0.0
 11
-255.486154
 21
-100.739161
 31
0.0
  0
LINE
  5
188
100
AcDbEntity
  8
2
370
    50
100
AcDbLine
 10
-255.486154
 20
-97.139161
 30
0.0
 11
-255.486154
 21
-93.739161
 31
0.0
  0
LINE
  5
189
100
AcDbEntity
  8
2
370
    50
100
AcDbLine
 10
-255.486154
 20
-90.139161
 30
0.0
 11
-255.486154
 21
-84.239161
 31
0.0
  0
LINE
  5
18A
100
AcDbEntity
  8
2
370
    50
100
AcDbLine
 10
-255.086154
 20
-92.939161
 30
0.0
 11
-255.086154
 21
-90.939161
 31
0.0
  0
LINE
  5
18B
100
AcDbEntity
  8
2
370
    50
100
AcDbLine
 10
-255.086154
 20
-106.939161
 30
0.0
 11
-255.086154
 21
-104.939161
 31
0.0
  0
LINE
  5
18C
100
AcDbEntity
  8
2
370
    50
100
AcDbLine
 10
-255.086154
 20
-99.939161
 30
0.0
 11
-255.086154
 21
-97.939161
 31
0.0
  0
ARC
  5
18D
100
AcDbEntity
  8
2
370
    50
100
AcDbCircle
 10
-254.486154
 20
-90.139161
 30
0.0
 40
1.0
100
AcDbArc
 50
180.0
 51
233.130102
  0
ARC
  5
18E
100
AcDbEntity
  8
2
370
    50
100
AcDbCircle
 10
-254.486154
 20
-93.739161
 30
0.0
 40
1.0
100
AcDbArc
 50
126.869898
 51
180.0
  0
ARC
  5
18F
100
AcDbEntity
  8
2
370
    50
100
AcDbCircle
 10
-254.486154
 20
-97.139161
 30
0.0
 40
1.0
100
AcDbArc
 50
180.0
 51
233.130102
  0
ARC
  5
190
100
AcDbEntity
  8
2
370
    50
100
AcDbCircle
 10
-254.486154
 20
-100.739161
 30
0.0
 40
1.0
100
AcDbArc
 50
126.869898
 51
180.0
  0
ARC
  5
191
100
AcDbEntity
  8
2
370
    50
100
AcDbCircle
 10
-254.486154
 20
-104.139161
 30
0.0
 40
1.0
100
AcDbArc
 50
180.0
 51
233.130102
  0
ARC
  5
192
100
AcDbEntity
  8
2
370
    50
100
AcDbCircle
 10
-254.486154
 20
-107.739161
 30
0.0
 40
1.0
100
AcDbArc
 50
126.869898
 51
180.0
  0
ARC
  5
193
100
AcDbEntity
  8
2
370
    50
100
AcDbCircle
 10
-254.486154
 20
-111.639161
 30
0.0
 40
1.0
100
AcDbArc
 50
180.0
 51
233.130102
  0
ARC
  5
194
100
AcDbEntity
  8
2
370
    50
100
AcDbCircle
 10
-254.486154
 20
-84.239161
 30
0.0
 40
1.0
100
AcDbArc
 50
126.869898
 51
180.0
  0
LINE
  5
195
100
AcDbEntity
  8
2
370
    50
100
AcDbLine
 10
-241.186154
 20
-112.439161
 30
0.0
 11
-248.136154
 21
-112.439161
 31
0.0
  0
ARC
  5
196
100
AcDbEntity
  8
2
370
    50
100
AcDbCircle
 10
-241.786154
 20
-111.639161
 30
0.0
 40
1.0
100
AcDbArc
 50
306.869898
 51
360.0
  0
LINE
  5
197
100
AcDbEntity
  8
2
370
    50
100
AcDbLine
 10
-240.786154
 20
-111.639161
 30
0.0
 11
-240.786154
 21
-107.739161
 31
0.0
  0
ARC
  5
198
100
AcDbEntity
  8
2
370
    50
100
AcDbCircle
 10
-241.786154
 20
-107.739161
 30
0.0
 40
1.0
100
AcDbArc
 50
360.0
 51
53.130102
  0
LINE
  5
199
100
AcDbEntity
  8
2
370
    50
100
AcDbLine
 10
-241.186154
 20
-106.939161
 30
0.0
 11
-241.186154
 21
-104.939161
 31
0.0
  0
LINE
  5
19A
100
AcDbEntity
  8
2
370
    50
100
AcDbLine
 10
-241.186154
 20
-106.939161
 30
0.0
 11
-248.136154
 21
-106.939161
 31
0.0
  0
LINE
  5
19B
100
AcDbEntity
  8
2
370
    50
100
AcDbLine
 10
-241.186154
 20
-104.939161
 30
0.0
 11
-248.136154
 21
-104.939161
 31
0.0
  0
ARC
  5
19C
100
AcDbEntity
  8
2
370
    50
100
AcDbCircle
 10
-241.786154
 20
-104.139161
 30
0.0
 40
1.0
100
AcDbArc
 50
306.869898
 51
360.0
  0
LINE
  5
19D
100
AcDbEntity
  8
2
370
    50
100
AcDbLine
 10
-240.786154
 20
-104.139161
 30
0.0
 11
-240.786154
 21
-100.739161
 31
0.0
  0
ARC
  5
19E
100
AcDbEntity
  8
2
370
    50
100
AcDbCircle
 10
-241.786154
 20
-100.739161
 30
0.0
 40
1.0
100
AcDbArc
 50
360.0
 51
53.130102
  0
LINE
  5
19F
100
AcDbEntity
  8
2
370
    50
100
AcDbLine
 10
-241.186154
 20
-99.939161
 30
0.0
 11
-248.136154
 21
-99.939161
 31
0.0
  0
LINE
  5
1A0
100
AcDbEntity
  8
2
370
    50
100
AcDbLine
 10
-241.186154
 20
-99.939161
 30
0.0
 11
-241.186154
 21
-97.939161
 31
0.0
  0
LINE
  5
1A1
100
AcDbEntity
  8
2
370
    50
100
AcDbLine
 10
-241.186154
 20
-97.939161
 30
0.0
 11
-248.136154
 21
-97.939161
 31
0.0
  0
ARC
  5
1A2
100
AcDbEntity
  8
2
370
    50
100
AcDbCircle
 10
-241.786154
 20
-97.139161
 30
0.0
 40
1.0
100
AcDbArc
 50
306.869898
 51
360.0
  0
ARC
  5
1A3
100
AcDbEntity
  8
2
370
    50
100
AcDbCircle
 10
-241.786154
 20
-97.139161
 30
0.0
 40
1.0
100
AcDbArc
 50
306.869898
 51
360.0
  0
LINE
  5
1A4
100
AcDbEntity
  8
2
370
    50
100
AcDbLine
 10
-240.786154
 20
-97.139161
 30
0.0
 11
-240.786154
 21
-93.739161
 31
0.0
  0
ARC
  5
1A5
100
AcDbEntity
  8
2
370
    50
100
AcDbCircle
 10
-241.786154
 20
-93.739161
 30
0.0
 40
1.0
100
AcDbArc
 50
360.0
 51
53.130102
  0
LINE
  5
1A6
100
AcDbEntity
  8
2
370
    50
100
AcDbLine
 10
-241.186154
 20
-92.939161
 30
0.0
 11
-248.136154
 21
-92.939161
 31
0.0
  0
LINE
  5
1A7
100
AcDbEntity
  8
2
370
    50
100
AcDbLine
 10
-241.186154
 20
-92.939161
 30
0.0
 11
-241.186154
 21
-90.939161
 31
0.0
  0
LINE
  5
1A8
100
AcDbEntity
  8
2
370
    50
100
AcDbLine
 10
-241.186154
 20
-90.939161
 30
0.0
 11
-248.136154
 21
-90.939161
 31
0.0
  0
ARC
  5
1A9
100
AcDbEntity
  8
2
370
    50
100
AcDbCircle
 10
-241.786154
 20
-90.139161
 30
0.0
 40
1.0
100
AcDbArc
 50
306.869898
 51
360.0
  0
LINE
  5
1AA
100
AcDbEntity
  8
2
370
    50
100
AcDbLine
 10
-240.786154
 20
-90.139161
 30
0.0
 11
-240.786154
 21
-84.239161
 31
0.0
  0
ARC
  5
1AB
100
AcDbEntity
  8
2
370
    50
100
AcDbCircle
 10
-241.786154
 20
-84.239161
 30
0.0
 40
1.0
100
AcDbArc
 50
360.0
 51
53.130102
  0
LINE
  5
1AC
100
AcDbEntity
  8
2
370
    50
100
AcDbLine
 10
-254.986154
 20
-128.61721
 30
0.0
 11
-254.986154
 21
-112.439161
 31
0.0
  0
LINE
  5
1AD
100
AcDbEntity
  8
2
370
    50
100
AcDbLine
 10
-241.286154
 20
-128.55687
 30
0.0
 11
-241.286154
 21
-112.439161
 31
0.0
  0
ARC
  5
1AE
100
AcDbEntity
  8
2
370
    50
100
AcDbCircle
 10
-248.136154
 20
-87.642791
 30
0.0
 40
10.10363
100
AcDbArc
 50
90.0
 51
103.729133
  0
LINE
  5
1AF
100
AcDbEntity
  8
2
370
    50
100
AcDbLine
 10
-251.700336
 20
-77.827837
 30
0.0
 11
-250.53407
 21
-77.827837
 31
0.0
  0
ARC
  5
1B0
100
AcDbEntity
  8
2
370
    50
100
AcDbCircle
 10
-252.899294
 20
-80.173322
 30
0.0
 40
2.634161
100
AcDbArc
 50
62.924933
 51
117.075067
  0
POINT
  5
1B1
100
AcDbEntity
  8
2
370
    50
100
AcDbPoint
 10
-248.136154
 20
-61.539161
 30
0.0
  0
POINT
  5
1B2
100
AcDbEntity
  8
2
370
    50
100
AcDbPoint
 10
-232.136154
 20
-61.539161
 30
0.0
  0
POINT
  5
1B3
100
AcDbEntity
  8
2
370
    50
100
AcDbPoint
 10
-248.136154
 20
-61.539161
 30
0.0
  0
LINE
  5
1B4
100
AcDbEntity
  8
2
370
    50
100
AcDbLine
 10
-238.136154
 20
-83.150486
 30
0.0
 11
-238.136154
 21
-77.827837
 31
0.0
  0
LINE
  5
1B5
100
AcDbEntity
  8
2
370
    50
100
AcDbLine
 10
-226.136154
 20
-83.150486
 30
0.0
 11
-226.136154
 21
-77.827837
 31
0.0
  0
LINE
  5
1B6
100
AcDbEntity
  8
2
370
    50
100
AcDbLine
 10
-229.738238
 20
-77.827837
 30
0.0
 11
-229.738238
 21
-83.150486
 31
0.0
  0
LINE
  5
1B7
100
AcDbEntity
  8
2
370
    50
100
AcDbLine
 10
-228.571972
 20
-77.827837
 30
0.0
 11
-228.571972
 21
-83.150486
 31
0.0
  0
LINE
  5
1B8
100
AcDbEntity
  8
2
370
    50
100
AcDbLine
 10
-226.174057
 20
-77.827837
 30
0.0
 11
-226.174057
 21
-83.150486
 31
0.0
  0
LINE
  5
1B9
100
AcDbEntity
  8
2
370
    50
100
AcDbLine
 10
-226.636154
 20
-83.439161
 30
0.0
 11
-226.136154
 21
-83.150486
 31
0.0
  0
LINE
  5
1BA
100
AcDbEntity
  8
2
370
    50
100
AcDbLine
 10
-228.571972
 20
-83.150486
 30
0.0
 11
-229.738238
 21
-83.150486
 31
0.0
  0
LINE
  5
1BB
100
AcDbEntity
  8
2
370
    50
100
AcDbLine
 10
-238.136154
 20
-83.150486
 30
0.0
 11
-237.636154
 21
-83.439161
 31
0.0
  0
LINE
  5
1BC
100
AcDbEntity
  8
2
370
    50
100
AcDbLine
 10
-238.136154
 20
-77.827837
 30
0.0
 11
-237.636154
 21
-77.539161
 31
0.0
  0
ARC
  5
1BD
100
AcDbEntity
  8
2
370
    50
100
AcDbCircle
 10
-232.136154
 20
-73.335532
 30
0.0
 40
10.10363
100
AcDbArc
 50
270.0
 51
283.729133
  0
ARC
  5
1BE
100
AcDbEntity
  8
2
370
    50
100
AcDbCircle
 10
-232.136154
 20
-87.642791
 30
0.0
 40
10.10363
100
AcDbArc
 50
76.270867
 51
90.0
  0
LINE
  5
1BF
100
AcDbEntity
  8
2
370
    50
100
AcDbLine
 10
-228.571972
 20
-77.827837
 30
0.0
 11
-229.738238
 21
-77.827837
 31
0.0
  0
LINE
  5
1C0
100
AcDbEntity
  8
2
370
    50
100
AcDbLine
 10
-226.136154
 20
-81.150486
 30
0.0
 11
-226.174057
 21
-81.150486
 31
0.0
  0
ARC
  5
1C1
100
AcDbEntity
  8
2
370
    50
100
AcDbCircle
 10
-227.373014
 20
-80.805001
 30
0.0
 40
2.634161
100
AcDbArc
 50
242.924933
 51
297.075067
  0
ARC
  5
1C2
100
AcDbEntity
  8
2
370
    50
100
AcDbCircle
 10
-227.373014
 20
-80.173322
 30
0.0
 40
2.634161
100
AcDbArc
 50
62.924933
 51
117.075067
  0
LINE
  5
1C3
100
AcDbEntity
  8
2
370
    50
100
AcDbLine
 10
-226.636154
 20
-77.539161
 30
0.0
 11
-226.136154
 21
-77.827837
 31
0.0
  0
ARC
  5
1C4
100
AcDbEntity
  8
2
370
    50
100
AcDbCircle
 10
-232.136154
 20
-73.335532
 30
0.0
 40
10.10363
100
AcDbArc
 50
256.270867
 51
270.0
  0
LINE
  5
1C5
100
AcDbEntity
  8
2
370
    50
100
AcDbLine
 10
-235.700336
 20
-83.150486
 30
0.0
 11
-234.53407
 21
-83.150486
 31
0.0
  0
LINE
  5
1C6
100
AcDbEntity
  8
2
370
    50
100
AcDbLine
 10
-234.53407
 20
-77.827837
 30
0.0
 11
-234.53407
 21
-83.150486
 31
0.0
  0
LINE
  5
1C7
100
AcDbEntity
  8
2
370
    50
100
AcDbLine
 10
-235.700336
 20
-77.827837
 30
0.0
 11
-235.700336
 21
-83.150486
 31
0.0
  0
ARC
  5
1C8
100
AcDbEntity
  8
2
370
    50
100
AcDbCircle
 10
-236.899294
 20
-80.805001
 30
0.0
 40
2.634161
100
AcDbArc
 50
242.924933
 51
297.075067
  0
LINE
  5
1C9
100
AcDbEntity
  8
2
370
    50
100
AcDbLine
 10
-238.098252
 20
-77.827837
 30
0.0
 11
-238.098252
 21
-83.150486
 31
0.0
  0
LINE
  5
1CA
100
AcDbEntity
  8
2
370
    50
100
AcDbLine
 10
-238.098252
 20
-81.150486
 30
0.0
 11
-238.136154
 21
-81.150486
 31
0.0
  0
LINE
  5
1CB
100
AcDbEntity
  8
2
370
    25
  6
CENTER
100
AcDbLine
 10
-232.136154
 20
-117.800316
 30
0.0
 11
-232.136154
 21
-137.505645
 31
0.0
  0
LINE
  5
1CC
100
AcDbEntity
  8
2
370
    50
100
AcDbLine
 10
-239.086154
 20
-83.439161
 30
0.0
 11
-225.186154
 21
-83.439161
 31
0.0
  0
LINE
  5
1CD
100
AcDbEntity
  8
2
370
    50
100
AcDbLine
 10
-239.086154
 20
-112.439161
 30
0.0
 11
-232.136154
 21
-112.439161
 31
0.0
  0
LINE
  5
1CE
100
AcDbEntity
  8
2
370
    50
100
AcDbLine
 10
-239.086154
 20
-106.939161
 30
0.0
 11
-232.136154
 21
-106.939161
 31
0.0
  0
LINE
  5
1CF
100
AcDbEntity
  8
2
370
    50
100
AcDbLine
 10
-239.086154
 20
-104.939161
 30
0.0
 11
-232.136154
 21
-104.939161
 31
0.0
  0
LINE
  5
1D0
100
AcDbEntity
  8
2
370
    50
100
AcDbLine
 10
-239.086154
 20
-99.939161
 30
0.0
 11
-232.136154
 21
-99.939161
 31
0.0
  0
LINE
  5
1D1
100
AcDbEntity
  8
2
370
    50
100
AcDbLine
 10
-239.086154
 20
-97.939161
 30
0.0
 11
-232.136154
 21
-97.939161
 31
0.0
  0
LINE
  5
1D2
100
AcDbEntity
  8
2
370
    50
100
AcDbLine
 10
-239.086154
 20
-92.939161
 30
0.0
 11
-232.136154
 21
-92.939161
 31
0.0
  0
LINE
  5
1D3
100
AcDbEntity
  8
2
370
    50
100
AcDbLine
 10
-239.086154
 20
-90.939161
 30
0.0
 11
-232.136154
 21
-90.939161
 31
0.0
  0
LINE
  5
1D4
100
AcDbEntity
  8
2
370
    50
100
AcDbLine
 10
-239.486154
 20
-111.639161
 30
0.0
 11
-239.486154
 21
-107.739161
 31
0.0
  0
LINE
  5
1D5
100
AcDbEntity
  8
2
370
    50
100
AcDbLine
 10
-239.486154
 20
-104.139161
 30
0.0
 11
-239.486154
 21
-100.739161
 31
0.0
  0
LINE
  5
1D6
100
AcDbEntity
  8
2
370
    50
100
AcDbLine
 10
-239.486154
 20
-97.139161
 30
0.0
 11
-239.486154
 21
-93.739161
 31
0.0
  0
LINE
  5
1D7
100
AcDbEntity
  8
2
370
    50
100
AcDbLine
 10
-239.486154
 20
-90.139161
 30
0.0
 11
-239.486154
 21
-84.239161
 31
0.0
  0
LINE
  5
1D8
100
AcDbEntity
  8
2
370
    50
100
AcDbLine
 10
-239.086154
 20
-92.939161
 30
0.0
 11
-239.086154
 21
-90.939161
 31
0.0
  0
LINE
  5
1D9
100
AcDbEntity
  8
2
370
    50
100
AcDbLine
 10
-239.086154
 20
-106.939161
 30
0.0
 11
-239.086154
 21
-104.939161
 31
0.0
  0
LINE
  5
1DA
100
AcDbEntity
  8
2
370
    50
100
AcDbLine
 10
-239.086154
 20
-99.939161
 30
0.0
 11
-239.086154
 21
-97.939161
 31
0.0
  0
ARC
  5
1DB
100
AcDbEntity
  8
2
370
    50
100
AcDbCircle
 10
-238.486154
 20
-90.139161
 30
0.0
 40
1.0
100
AcDbArc
 50
180.0
 51
233.130102
  0
ARC
  5
1DC
100
AcDbEntity
  8
2
370
    50
100
AcDbCircle
 10
-238.486154
 20
-93.739161
 30
0.0
 40
1.0
100
AcDbArc
 50
126.869898
 51
180.0
  0
ARC
  5
1DD
100
AcDbEntity
  8
2
370
    50
100
AcDbCircle
 10
-238.486154
 20
-97.139161
 30
0.0
 40
1.0
100
AcDbArc
 50
180.0
 51
233.130102
  0
ARC
  5
1DE
100
AcDbEntity
  8
2
370
    50
100
AcDbCircle
 10
-238.486154
 20
-100.739161
 30
0.0
 40
1.0
100
AcDbArc
 50
126.869898
 51
180.0
  0
ARC
  5
1DF
100
AcDbEntity
  8
2
370
    50
100
AcDbCircle
 10
-238.486154
 20
-104.139161
 30
0.0
 40
1.0
100
AcDbArc
 50
180.0
 51
233.130102
  0
ARC
  5
1E0
100
AcDbEntity
  8
2
370
    50
100
AcDbCircle
 10
-238.486154
 20
-107.739161
 30
0.0
 40
1.0
100
AcDbArc
 50
126.869898
 51
180.0
  0
ARC
  5
1E1
100
AcDbEntity
  8
2
370
    50
100
AcDbCircle
 10
-238.486154
 20
-111.639161
 30
0.0
 40
1.0
100
AcDbArc
 50
180.0
 51
233.130102
  0
ARC
  5
1E2
100
AcDbEntity
  8
2
370
    50
100
AcDbCircle
 10
-238.486154
 20
-84.239161
 30
0.0
 40
1.0
100
AcDbArc
 50
126.869898
 51
180.0
  0
LINE
  5
1E3
100
AcDbEntity
  8
2
370
    50
100
AcDbLine
 10
-225.186154
 20
-112.439161
 30
0.0
 11
-232.136154
 21
-112.439161
 31
0.0
  0
ARC
  5
1E4
100
AcDbEntity
  8
2
370
    50
100
AcDbCircle
 10
-225.786154
 20
-111.639161
 30
0.0
 40
1.0
100
AcDbArc
 50
306.869898
 51
360.0
  0
LINE
  5
1E5
100
AcDbEntity
  8
2
370
    50
100
AcDbLine
 10
-224.786154
 20
-111.639161
 30
0.0
 11
-224.786154
 21
-107.739161
 31
0.0
  0
ARC
  5
1E6
100
AcDbEntity
  8
2
370
    50
100
AcDbCircle
 10
-225.786154
 20
-107.739161
 30
0.0
 40
1.0
100
AcDbArc
 50
360.0
 51
53.130102
  0
LINE
  5
1E7
100
AcDbEntity
  8
2
370
    50
100
AcDbLine
 10
-225.186154
 20
-106.939161
 30
0.0
 11
-225.186154
 21
-104.939161
 31
0.0
  0
LINE
  5
1E8
100
AcDbEntity
  8
2
370
    50
100
AcDbLine
 10
-225.186154
 20
-106.939161
 30
0.0
 11
-232.136154
 21
-106.939161
 31
0.0
  0
LINE
  5
1E9
100
AcDbEntity
  8
2
370
    50
100
AcDbLine
 10
-225.186154
 20
-104.939161
 30
0.0
 11
-232.136154
 21
-104.939161
 31
0.0
  0
ARC
  5
1EA
100
AcDbEntity
  8
2
370
    50
100
AcDbCircle
 10
-225.786154
 20
-104.139161
 30
0.0
 40
1.0
100
AcDbArc
 50
306.869898
 51
360.0
  0
LINE
  5
1EB
100
AcDbEntity
  8
2
370
    50
100
AcDbLine
 10
-224.786154
 20
-104.139161
 30
0.0
 11
-224.786154
 21
-100.739161
 31
0.0
  0
ARC
  5
1EC
100
AcDbEntity
  8
2
370
    50
100
AcDbCircle
 10
-225.786154
 20
-100.739161
 30
0.0
 40
1.0
100
AcDbArc
 50
360.0
 51
53.130102
  0
LINE
  5
1ED
100
AcDbEntity
  8
2
370
    50
100
AcDbLine
 10
-225.186154
 20
-99.939161
 30
0.0
 11
-232.136154
 21
-99.939161
 31
0.0
  0
LINE
  5
1EE
100
AcDbEntity
  8
2
370
    50
100
AcDbLine
 10
-225.186154
 20
-99.939161
 30
0.0
 11
-225.186154
 21
-97.939161
 31
0.0
  0
LINE
  5
1EF
100
AcDbEntity
  8
2
370
    50
100
AcDbLine
 10
-225.186154
 20
-97.939161
 30
0.0
 11
-232.136154
 21
-97.939161
 31
0.0
  0
ARC
  5
1F0
100
AcDbEntity
  8
2
370
    50
100
AcDbCircle
 10
-225.786154
 20
-97.139161
 30
0.0
 40
1.0
100
AcDbArc
 50
306.869898
 51
360.0
  0
ARC
  5
1F1
100
AcDbEntity
  8
2
370
    50
100
AcDbCircle
 10
-225.786154
 20
-97.139161
 30
0.0
 40
1.0
100
AcDbArc
 50
306.869898
 51
360.0
  0
LINE
  5
1F2
100
AcDbEntity
  8
2
370
    50
100
AcDbLine
 10
-224.786154
 20
-97.139161
 30
0.0
 11
-224.786154
 21
-93.739161
 31
0.0
  0
ARC
  5
1F3
100
AcDbEntity
  8
2
370
    50
100
AcDbCircle
 10
-225.786154
 20
-93.739161
 30
0.0
 40
1.0
100
AcDbArc
 50
360.0
 51
53.130102
  0
LINE
  5
1F4
100
AcDbEntity
  8
2
370
    50
100
AcDbLine
 10
-225.186154
 20
-92.939161
 30
0.0
 11
-232.136154
 21
-92.939161
 31
0.0
  0
LINE
  5
1F5
100
AcDbEntity
  8
2
370
    50
100
AcDbLine
 10
-225.186154
 20
-92.939161
 30
0.0
 11
-225.186154
 21
-90.939161
 31
0.0
  0
LINE
  5
1F6
100
AcDbEntity
  8
2
370
    50
100
AcDbLine
 10
-225.186154
 20
-90.939161
 30
0.0
 11
-232.136154
 21
-90.939161
 31
0.0
  0
ARC
  5
1F7
100
AcDbEntity
  8
2
370
    50
100
AcDbCircle
 10
-225.786154
 20
-90.139161
 30
0.0
 40
1.0
100
AcDbArc
 50
306.869898
 51
360.0
  0
LINE
  5
1F8
100
AcDbEntity
  8
2
370
    50
100
AcDbLine
 10
-224.786154
 20
-90.139161
 30
0.0
 11
-224.786154
 21
-84.239161
 31
0.0
  0
ARC
  5
1F9
100
AcDbEntity
  8
2
370
    50
100
AcDbCircle
 10
-225.786154
 20
-84.239161
 30
0.0
 40
1.0
100
AcDbArc
 50
360.0
 51
53.130102
  0
LINE
  5
1FA
100
AcDbEntity
  8
2
370
    50
100
AcDbLine
 10
-238.986154
 20
-128.677498
 30
0.0
 11
-238.986154
 21
-112.439161
 31
0.0
  0
LINE
  5
1FB
100
AcDbEntity
  8
2
370
    50
100
AcDbLine
 10
-225.286154
 20
-128.691177
 30
0.0
 11
-225.286154
 21
-112.439161
 31
0.0
  0
ARC
  5
1FC
100
AcDbEntity
  8
2
370
    50
100
AcDbCircle
 10
-232.136154
 20
-87.642791
 30
0.0
 40
10.10363
100
AcDbArc
 50
90.0
 51
103.729133
  0
LINE
  5
1FD
100
AcDbEntity
  8
2
370
    50
100
AcDbLine
 10
-235.700336
 20
-77.827837
 30
0.0
 11
-234.53407
 21
-77.827837
 31
0.0
  0
ARC
  5
1FE
100
AcDbEntity
  8
2
370
    50
100
AcDbCircle
 10
-236.899294
 20
-80.173322
 30
0.0
 40
2.634161
100
AcDbArc
 50
62.924933
 51
117.075067
  0
POINT
  5
1FF
100
AcDbEntity
  8
2
370
    50
100
AcDbPoint
 10
-232.136154
 20
-61.539161
 30
0.0
  0
HATCH
  5
200
100
AcDbEntity
  8
2
370
    25
100
AcDbHatch
 10
0.0
 20
0.0
 30
0.0
210
0.0
220
0.0
230
1.0
  2
_U
 70
     0
 71
     1
 91
        1
 92
        1
 93
        5
 72
     1
 10
-226.61569
 20
-75.550976000000006
 11
-215.636154
 21
-75.550976000000006
 72
     1
 10
-215.636154
 20
-75.550976000000006
 11
-215.636154
 21
-77.350976000000003
 72
     1
 10
-215.636154
 20
-77.350976000000003
 11
-226.136154
 21
-77.350976000000003
 72
     1
 10
-226.136154
 20
-77.350976000000003
 11
-226.136154
 21
-75.827837000000002
 72
     1
 10
-226.136154
 20
-75.827837000000002
 11
-226.61569
 21
-75.550976000000006
 97
        5
330
0
330
0
330
0
330
0
330
0
 75
     0
 76
     0
 52
45.0
 41
1.0
 77
     0
 78
     1
 53
45.0
 43
0.0
 44
0.0
 45
-1.4142140000000001
 46
1.4142140000000001
 79
     0
 98
        1
 10
0.0
 20
0.0
  0
ARC
  5
201
100
AcDbEntity
  8
2
370
    50
100
AcDbCircle
 10
-235.561154
 20
-124.048064
 30
0.0
 40
5.708333
100
AcDbArc
 50
233.130102
 51
306.869898
  0
ARC
  5
202
100
AcDbEntity
  8
2
370
    50
100
AcDbCircle
 10
-228.711154
 20
-133.181398
 30
0.0
 40
5.708333
100
AcDbArc
 50
53.130102
 51
126.869898
  0
ARC
  5
203
100
AcDbEntity
  8
2
370
    50
100
AcDbCircle
 10
-228.711154
 20
-124.048064
 30
0.0
 40
5.708333
100
AcDbArc
 50
233.130102
 51
306.869898
  0
ARC
  5
204
100
AcDbEntity
  8
2
370
    50
100
AcDbCircle
 10
-251.561154
 20
-124.048064
 30
0.0
 40
5.708333
100
AcDbArc
 50
233.130102
 51
306.869898
  0
ARC
  5
205
100
AcDbEntity
  8
2
370
    50
100
AcDbCircle
 10
-244.711154
 20
-133.181398
 30
0.0
 40
5.708333
100
AcDbArc
 50
53.130102
 51
126.869898
  0
ARC
  5
206
100
AcDbEntity
  8
2
370
    50
100
AcDbCircle
 10
-244.711154
 20
-124.048064
 30
0.0
 40
5.708333
100
AcDbArc
 50
233.130102
 51
306.869898
  0
LINE
  5
207
100
AcDbEntity
  8
2
370
    50
100
AcDbLine
 10
-276.823997
 20
-198.435657
 30
0.0
 11
-276.823997
 21
-197.935349
 31
0.0
  0
LINE
  5
208
100
AcDbEntity
  8
2
370
    50
100
AcDbLine
 10
-288.823997
 20
-197.935349
 30
0.0
 11
-288.823997
 21
-198.435657
 31
0.0
  0
LINE
  5
209
100
AcDbEntity
  8
2
370
    50
100
AcDbLine
 10
-276.823997
 20
-197.935349
 30
0.0
 11
-277.323997
 21
-197.435349
 31
0.0
  0
LINE
  5
20A
100
AcDbEntity
  8
2
370
    50
100
AcDbLine
 10
-288.323997
 20
-197.435349
 30
0.0
 11
-288.823997
 21
-197.935349
 31
0.0
  0
LINE
  5
20B
100
AcDbEntity
  8
2
370
    50
100
AcDbLine
 10
-276.823997
 20
-197.935349
 30
0.0
 11
-288.823997
 21
-197.935349
 31
0.0
  0
POINT
  5
20C
100
AcDbEntity
  8
2
370
    50
100
AcDbPoint
 10
-282.823997
 20
-218.435657
 30
0.0
  0
LINE
  5
20D
100
AcDbEntity
  8
2
370
    50
100
AcDbLine
 10
-290.074251
 20
-169.435349
 30
0.0
 11
-275.574251
 21
-169.435349
 31
0.0
  0
LINE
  5
20E
100
AcDbEntity
  8
2
370
    50
100
AcDbLine
 10
-289.724251
 20
-175.435349
 30
0.0
 11
-275.924251
 21
-175.435349
 31
0.0
  0
LINE
  5
20F
100
AcDbEntity
  8
2
370
    50
100
AcDbLine
 10
-289.724251
 20
-177.935349
 30
0.0
 11
-275.924251
 21
-177.935349
 31
0.0
  0
LINE
  5
210
100
AcDbEntity
  8
2
370
    50
100
AcDbLine
 10
-289.724251
 20
-182.935349
 30
0.0
 11
-275.924251
 21
-182.935349
 31
0.0
  0
LINE
  5
211
100
AcDbEntity
  8
2
370
    50
100
AcDbLine
 10
-289.724251
 20
-185.435349
 30
0.0
 11
-275.924251
 21
-185.435349
 31
0.0
  0
LINE
  5
212
100
AcDbEntity
  8
2
370
    50
100
AcDbLine
 10
-289.724251
 20
-190.435349
 30
0.0
 11
-275.924251
 21
-190.435349
 31
0.0
  0
LINE
  5
213
100
AcDbEntity
  8
2
370
    50
100
AcDbLine
 10
-289.724251
 20
-192.935349
 30
0.0
 11
-275.924251
 21
-192.935349
 31
0.0
  0
LINE
  5
214
100
AcDbEntity
  8
2
370
    50
100
AcDbLine
 10
-290.074251
 20
-193.695283
 30
0.0
 11
-290.074251
 21
-196.435349
 31
0.0
  0
LINE
  5
215
100
AcDbEntity
  8
2
370
    50
100
AcDbLine
 10
-290.074251
 20
-186.195283
 30
0.0
 11
-290.074251
 21
-189.675414
 31
0.0
  0
LINE
  5
216
100
AcDbEntity
  8
2
370
    50
100
AcDbLine
 10
-290.074251
 20
-169.435349
 30
0.0
 11
-290.074251
 21
-174.675414
 31
0.0
  0
LINE
  5
217
100
AcDbEntity
  8
2
370
    50
100
AcDbLine
 10
-290.074251
 20
-178.695283
 30
0.0
 11
-290.074251
 21
-182.175414
 31
0.0
  0
LINE
  5
218
100
AcDbEntity
  8
2
370
    50
100
AcDbLine
 10
-275.574251
 20
-193.695283
 30
0.0
 11
-275.574251
 21
-196.435349
 31
0.0
  0
LINE
  5
219
100
AcDbEntity
  8
2
370
    50
100
AcDbLine
 10
-275.574251
 20
-186.195283
 30
0.0
 11
-275.574251
 21
-189.675414
 31
0.0
  0
LINE
  5
21A
100
AcDbEntity
  8
2
370
    50
100
AcDbLine
 10
-275.574251
 20
-169.435349
 30
0.0
 11
-275.574251
 21
-174.675414
 31
0.0
  0
LINE
  5
21B
100
AcDbEntity
  8
2
370
    50
100
AcDbLine
 10
-275.574251
 20
-178.695283
 30
0.0
 11
-275.574251
 21
-182.175414
 31
0.0
  0
LINE
  5
21C
100
AcDbEntity
  8
2
370
    50
100
AcDbLine
 10
-289.724251
 20
-190.435349
 30
0.0
 11
-289.724251
 21
-192.935349
 31
0.0
  0
LINE
  5
21D
100
AcDbEntity
  8
2
370
    50
100
AcDbLine
 10
-275.924251
 20
-190.435349
 30
0.0
 11
-275.924251
 21
-192.935349
 31
0.0
  0
LINE
  5
21E
100
AcDbEntity
  8
2
370
    50
100
AcDbLine
 10
-289.724251
 20
-175.435349
 30
0.0
 11
-289.724251
 21
-177.935349
 31
0.0
  0
LINE
  5
21F
100
AcDbEntity
  8
2
370
    50
100
AcDbLine
 10
-289.724251
 20
-182.935349
 30
0.0
 11
-289.724251
 21
-185.435349
 31
0.0
  0
LINE
  5
220
100
AcDbEntity
  8
2
370
    50
100
AcDbLine
 10
-275.924251
 20
-175.435349
 30
0.0
 11
-275.924251
 21
-177.935349
 31
0.0
  0
LINE
  5
221
100
AcDbEntity
  8
2
370
    50
100
AcDbLine
 10
-275.924251
 20
-182.935349
 30
0.0
 11
-275.924251
 21
-185.435349
 31
0.0
  0
LINE
  5
222
100
AcDbEntity
  8
2
370
    50
100
AcDbLine
 10
-275.924251
 20
-169.435349
 30
0.0
 11
-275.924251
 21
-137.357422
 31
0.0
  0
LINE
  5
223
100
AcDbEntity
  8
2
370
    50
100
AcDbLine
 10
-289.724251
 20
-169.435349
 30
0.0
 11
-289.724251
 21
-137.357422
 31
0.0
  0
ARC
  5
224
100
AcDbEntity
  8
2
370
    50
100
AcDbCircle
 10
-276.574251
 20
-193.695283
 30
0.0
 40
1.0
100
AcDbArc
 50
0.0
 51
49.458398
  0
ARC
  5
225
100
AcDbEntity
  8
2
370
    50
100
AcDbCircle
 10
-276.574251
 20
-189.675414
 30
0.0
 40
1.0
100
AcDbArc
 50
310.541602
 51
360.0
  0
ARC
  5
226
100
AcDbEntity
  8
2
370
    50
100
AcDbCircle
 10
-276.574251
 20
-186.195283
 30
0.0
 40
1.0
100
AcDbArc
 50
0.0
 51
49.458398
  0
ARC
  5
227
100
AcDbEntity
  8
2
370
    50
100
AcDbCircle
 10
-276.574251
 20
-182.175414
 30
0.0
 40
1.0
100
AcDbArc
 50
310.541602
 51
360.0
  0
ARC
  5
228
100
AcDbEntity
  8
2
370
    50
100
AcDbCircle
 10
-276.574251
 20
-178.695283
 30
0.0
 40
1.0
100
AcDbArc
 50
0.0
 51
49.458398
  0
ARC
  5
229
100
AcDbEntity
  8
2
370
    50
100
AcDbCircle
 10
-276.574251
 20
-174.675414
 30
0.0
 40
1.0
100
AcDbArc
 50
310.541602
 51
360.0
  0
ARC
  5
22A
100
AcDbEntity
  8
2
370
    50
100
AcDbCircle
 10
-289.074251
 20
-193.695283
 30
0.0
 40
1.0
100
AcDbArc
 50
130.541602
 51
180.0
  0
ARC
  5
22B
100
AcDbEntity
  8
2
370
    50
100
AcDbCircle
 10
-289.074251
 20
-189.675414
 30
0.0
 40
1.0
100
AcDbArc
 50
180.0
 51
229.458398
  0
ARC
  5
22C
100
AcDbEntity
  8
2
370
    50
100
AcDbCircle
 10
-289.074251
 20
-186.195283
 30
0.0
 40
1.0
100
AcDbArc
 50
130.541602
 51
180.0
  0
ARC
  5
22D
100
AcDbEntity
  8
2
370
    50
100
AcDbCircle
 10
-289.074251
 20
-182.175414
 30
0.0
 40
1.0
100
AcDbArc
 50
180.0
 51
229.458398
  0
ARC
  5
22E
100
AcDbEntity
  8
2
370
    50
100
AcDbCircle
 10
-289.074251
 20
-178.695283
 30
0.0
 40
1.0
100
AcDbArc
 50
130.541602
 51
180.0
  0
ARC
  5
22F
100
AcDbEntity
  8
2
370
    50
100
AcDbCircle
 10
-289.074251
 20
-174.675414
 30
0.0
 40
1.0
100
AcDbArc
 50
180.0
 51
229.458398
  0
ARC
  5
230
100
AcDbEntity
  8
2
370
    50
100
AcDbCircle
 10
-276.574251
 20
-196.435349
 30
0.0
 40
1.0
100
AcDbArc
 50
270.0
 51
360.0
  0
ARC
  5
231
100
AcDbEntity
  8
2
370
    50
100
AcDbCircle
 10
-289.074251
 20
-196.435349
 30
0.0
 40
1.0
100
AcDbArc
 50
180.0
 51
270.0
  0
LINE
  5
232
100
AcDbEntity
  8
2
370
    50
100
AcDbLine
 10
-289.074251
 20
-197.435349
 30
0.0
 11
-276.574251
 21
-197.435349
 31
0.0
  0
ARC
  5
233
100
AcDbEntity
  8
2
370
    50
100
AcDbCircle
 10
-286.274124
 20
-132.914705
 30
0.0
 40
5.750212
100
AcDbArc
 50
233.130102
 51
306.869898
  0
ARC
  5
234
100
AcDbEntity
  8
2
370
    50
100
AcDbCircle
 10
-279.37387
 20
-142.115044
 30
0.0
 40
5.750212
100
AcDbArc
 50
53.130102
 51
126.869898
  0
ARC
  5
235
100
AcDbEntity
  8
2
370
    50
100
AcDbCircle
 10
-286.274124
 20
-142.115044
 30
0.0
 40
5.750212
100
AcDbArc
 50
53.130102
 51
126.869898
  0
LINE
  5
236
100
AcDbEntity
  8
2
370
    50
100
AcDbLine
 10
-292.824251
 20
-210.435657
 30
0.0
 11
-272.824251
 21
-210.435657
 31
0.0
  0
LINE
  5
237
100
AcDbEntity
  8
2
370
    50
100
AcDbLine
 10
-272.824251
 20
-198.435657
 30
0.0
 11
-282.823997
 21
-198.435657
 31
0.0
  0
LINE
  5
238
100
AcDbEntity
  8
2
370
    50
100
AcDbLine
 10
-282.823997
 20
-198.435657
 30
0.0
 11
-292.824251
 21
-198.435657
 31
0.0
  0
POINT
  5
239
100
AcDbEntity
  8
2
370
    50
100
AcDbPoint
 10
-282.823997
 20
-198.435657
 30
0.0
  0
LINE
  5
23A
100
AcDbEntity
  8
2
370
    50
100
AcDbLine
 10
-271.824251
 20
-199.013007
 30
0.0
 11
-271.824251
 21
-209.858306
 31
0.0
  0
LINE
  5
23B
100
AcDbEntity
  8
2
370
    50
100
AcDbLine
 10
-272.824251
 20
-198.435657
 30
0.0
 11
-271.824251
 21
-199.013007
 31
0.0
  0
LINE
  5
23C
100
AcDbEntity
  8
2
370
    50
100
AcDbLine
 10
-272.824251
 20
-210.435657
 30
0.0
 11
-271.824251
 21
-209.858306
 31
0.0
  0
LINE
  5
23D
100
AcDbEntity
  8
2
370
    50
100
AcDbLine
 10
-276.455285
 20
-199.013007
 30
0.0
 11
-276.455285
 21
-209.858306
 31
0.0
  0
LINE
  5
23E
100
AcDbEntity
  8
2
370
    50
100
AcDbLine
 10
-278.241675
 20
-199.013007
 30
0.0
 11
-278.241675
 21
-209.858306
 31
0.0
  0
LINE
  5
23F
100
AcDbEntity
  8
2
370
    50
100
AcDbLine
 10
-276.455285
 20
-199.013007
 30
0.0
 11
-278.241675
 21
-199.013007
 31
0.0
  0
ARC
  5
240
100
AcDbEntity
  8
2
370
    50
100
AcDbCircle
 10
-282.823997
 20
-216.90885
 30
0.0
 40
18.473194
100
AcDbArc
 50
75.637701
 51
90.000787
  0
ARC
  5
241
100
AcDbEntity
  8
2
370
    50
100
AcDbCircle
 10
-274.139768
 20
-203.36763
 30
0.0
 40
4.931973
100
AcDbArc
 50
61.998739
 51
118.001261
  0
ARC
  5
242
100
AcDbEntity
  8
2
370
    50
100
AcDbCircle
 10
-274.139768
 20
-205.503684
 30
0.0
 40
4.931973
100
AcDbArc
 50
241.998739
 51
298.001261
  0
ARC
  5
243
100
AcDbEntity
  8
2
370
    50
100
AcDbCircle
 10
-282.823997
 20
-191.962463
 30
0.0
 40
18.473194
100
AcDbArc
 50
269.999213
 51
284.362299
  0
LINE
  5
244
100
AcDbEntity
  8
2
370
    50
100
AcDbLine
 10
-276.455285
 20
-209.858306
 30
0.0
 11
-278.241675
 21
-209.858306
 31
0.0
  0
LINE
  5
245
100
AcDbEntity
  8
2
370
    50
100
AcDbLine
 10
-287.406826
 20
-199.013007
 30
0.0
 11
-287.406826
 21
-209.858306
 31
0.0
  0
LINE
  5
246
100
AcDbEntity
  8
2
370
    50
100
AcDbLine
 10
-289.193217
 20
-199.013007
 30
0.0
 11
-289.193217
 21
-209.858306
 31
0.0
  0
LINE
  5
247
100
AcDbEntity
  8
2
370
    50
100
AcDbLine
 10
-289.193217
 20
-199.013007
 30
0.0
 11
-287.406826
 21
-199.013007
 31
0.0
  0
ARC
  5
248
100
AcDbEntity
  8
2
370
    50
100
AcDbCircle
 10
-282.824505
 20
-216.90885
 30
0.0
 40
18.473194
100
AcDbArc
 50
89.999213
 51
104.362299
  0
ARC
  5
249
100
AcDbEntity
  8
2
370
    50
100
AcDbCircle
 10
-291.508734
 20
-203.36763
 30
0.0
 40
4.931973
100
AcDbArc
 50
61.998739
 51
118.001261
  0
LINE
  5
24A
100
AcDbEntity
  8
2
370
    50
100
AcDbLine
 10
-289.193217
 20
-209.858306
 30
0.0
 11
-287.406826
 21
-209.858306
 31
0.0
  0
ARC
  5
24B
100
AcDbEntity
  8
2
370
    50
100
AcDbCircle
 10
-282.824505
 20
-191.962463
 30
0.0
 40
18.473194
100
AcDbArc
 50
255.637701
 51
270.000787
  0
ARC
  5
24C
100
AcDbEntity
  8
2
370
    50
100
AcDbCircle
 10
-291.508734
 20
-205.503684
 30
0.0
 40
4.931973
100
AcDbArc
 50
241.998739
 51
298.001261
  0
LINE
  5
24D
100
AcDbEntity
  8
2
370
    50
100
AcDbLine
 10
-292.824251
 20
-210.435657
 30
0.0
 11
-293.824251
 21
-209.858306
 31
0.0
  0
LINE
  5
24E
100
AcDbEntity
  8
2
370
    50
100
AcDbLine
 10
-292.824251
 20
-198.435657
 30
0.0
 11
-293.824251
 21
-199.013007
 31
0.0
  0
LINE
  5
24F
100
AcDbEntity
  8
2
370
    50
100
AcDbLine
 10
-293.824251
 20
-199.013007
 30
0.0
 11
-293.824251
 21
-209.858306
 31
0.0
  0
POINT
  5
250
100
AcDbEntity
  8
2
370
    50
100
AcDbPoint
 10
-197.448311
 20
-218.435465
 30
0.0
  0
LINE
  5
251
100
AcDbEntity
  8
2
370
    50
100
AcDbLine
 10
104.79244
 20
-75.550976
 30
0.0
 11
115.771976
 21
-75.550976
 31
0.0
  0
LINE
  5
252
100
AcDbEntity
  8
2
370
    50
100
AcDbLine
 10
88.79244
 20
-75.550976
 30
0.0
 11
93.751513
 21
-75.550976
 31
0.0
  0
LINE
  5
253
100
AcDbEntity
  8
2
370
    50
100
AcDbLine
 10
89.271976
 20
-77.350976
 30
0.0
 11
93.271976
 21
-77.350976
 31
0.0
  0
LINE
  5
254
100
AcDbEntity
  8
2
370
    50
100
AcDbLine
 10
105.271976
 20
-77.350976
 30
0.0
 11
115.771976
 21
-77.350976
 31
0.0
  0
LINE
  5
255
100
AcDbEntity
  8
2
370
    50
100
AcDbLine
 10
87.571976
 20
-81.350976
 30
0.0
 11
127.571976
 21
-81.350976
 31
0.0
  0
LINE
  5
256
100
AcDbEntity
  8
2
370
    50
100
AcDbLine
 10
93.071976
 20
-75.539161
 30
0.0
 11
105.471976
 21
-75.539161
 31
0.0
  0
LINE
  5
257
100
AcDbEntity
  8
2
370
    50
100
AcDbLine
 10
104.771976
 20
-75.539161
 30
0.0
 11
99.271976
 21
-75.539161
 31
0.0
  0
LINE
  5
258
100
AcDbEntity
  8
2
370
    50
100
AcDbLine
 10
94.271976
 20
-75.539161
 30
0.0
 11
93.771976
 21
-75.539161
 31
0.0
  0
LINE
  5
259
100
AcDbEntity
  8
2
370
    50
100
AcDbLine
 10
92.321976
 20
-83.439161
 30
0.0
 11
106.221976
 21
-83.439161
 31
0.0
  0
LINE
  5
25A
100
AcDbEntity
  8
2
370
    50
100
AcDbLine
 10
92.321976
 20
-112.439161
 30
0.0
 11
99.271976
 21
-112.439161
 31
0.0
  0
LINE
  5
25B
100
AcDbEntity
  8
2
370
    50
100
AcDbLine
 10
92.321976
 20
-106.939161
 30
0.0
 11
99.271976
 21
-106.939161
 31
0.0
  0
LINE
  5
25C
100
AcDbEntity
  8
2
370
    50
100
AcDbLine
 10
92.321976
 20
-104.939161
 30
0.0
 11
99.271976
 21
-104.939161
 31
0.0
  0
LINE
  5
25D
100
AcDbEntity
  8
2
370
    50
100
AcDbLine
 10
92.321976
 20
-99.939161
 30
0.0
 11
99.271976
 21
-99.939161
 31
0.0
  0
LINE
  5
25E
100
AcDbEntity
  8
2
370
    50
100
AcDbLine
 10
92.321976
 20
-97.939161
 30
0.0
 11
99.271976
 21
-97.939161
 31
0.0
  0
LINE
  5
25F
100
AcDbEntity
  8
2
370
    50
100
AcDbLine
 10
92.321976
 20
-92.939161
 30
0.0
 11
99.271976
 21
-92.939161
 31
0.0
  0
LINE
  5
260
100
AcDbEntity
  8
2
370
    50
100
AcDbLine
 10
92.321976
 20
-90.939161
 30
0.0
 11
99.271976
 21
-90.939161
 31
0.0
  0
LINE
  5
261
100
AcDbEntity
  8
2
370
    50
100
AcDbLine
 10
91.921976
 20
-111.639161
 30
0.0
 11
91.921976
 21
-107.739161
 31
0.0
  0
LINE
  5
262
100
AcDbEntity
  8
2
370
    50
100
AcDbLine
 10
91.921976
 20
-104.139161
 30
0.0
 11
91.921976
 21
-100.739161
 31
0.0
  0
LINE
  5
263
100
AcDbEntity
  8
2
370
    50
100
AcDbLine
 10
91.921976
 20
-97.139161
 30
0.0
 11
91.921976
 21
-93.739161
 31
0.0
  0
LINE
  5
264
100
AcDbEntity
  8
2
370
    50
100
AcDbLine
 10
91.921976
 20
-90.139161
 30
0.0
 11
91.921976
 21
-84.239161
 31
0.0
  0
LINE
  5
265
100
AcDbEntity
  8
2
370
    50
100
AcDbLine
 10
92.321976
 20
-92.939161
 30
0.0
 11
92.321976
 21
-90.939161
 31
0.0
  0
LINE
  5
266
100
AcDbEntity
  8
2
370
    50
100
AcDbLine
 10
92.321976
 20
-106.939161
 30
0.0
 11
92.321976
 21
-104.939161
 31
0.0
  0
LINE
  5
267
100
AcDbEntity
  8
2
370
    50
100
AcDbLine
 10
92.321976
 20
-99.939161
 30
0.0
 11
92.321976
 21
-97.939161
 31
0.0
  0
ARC
  5
268
100
AcDbEntity
  8
2
370
    50
100
AcDbCircle
 10
92.921976
 20
-90.139161
 30
0.0
 40
1.0
100
AcDbArc
 50
180.0
 51
233.130102
  0
ARC
  5
269
100
AcDbEntity
  8
2
370
    50
100
AcDbCircle
 10
92.921976
 20
-93.739161
 30
0.0
 40
1.0
100
AcDbArc
 50
126.869898
 51
180.0
  0
ARC
  5
26A
100
AcDbEntity
  8
2
370
    50
100
AcDbCircle
 10
92.921976
 20
-97.139161
 30
0.0
 40
1.0
100
AcDbArc
 50
180.0
 51
233.130102
  0
ARC
  5
26B
100
AcDbEntity
  8
2
370
    50
100
AcDbCircle
 10
92.921976
 20
-100.739161
 30
0.0
 40
1.0
100
AcDbArc
 50
126.869898
 51
180.0
  0
ARC
  5
26C
100
AcDbEntity
  8
2
370
    50
100
AcDbCircle
 10
92.921976
 20
-104.139161
 30
0.0
 40
1.0
100
AcDbArc
 50
180.0
 51
233.130102
  0
ARC
  5
26D
100
AcDbEntity
  8
2
370
    50
100
AcDbCircle
 10
92.921976
 20
-107.739161
 30
0.0
 40
1.0
100
AcDbArc
 50
126.869898
 51
180.0
  0
ARC
  5
26E
100
AcDbEntity
  8
2
370
    50
100
AcDbCircle
 10
92.921976
 20
-111.639161
 30
0.0
 40
1.0
100
AcDbArc
 50
180.0
 51
233.130102
  0
ARC
  5
26F
100
AcDbEntity
  8
2
370
    50
100
AcDbCircle
 10
92.921976
 20
-84.239161
 30
0.0
 40
1.0
100
AcDbArc
 50
126.869898
 51
180.0
  0
LINE
  5
270
100
AcDbEntity
  8
2
370
    50
100
AcDbLine
 10
106.221976
 20
-112.439161
 30
0.0
 11
99.271976
 21
-112.439161
 31
0.0
  0
ARC
  5
271
100
AcDbEntity
  8
2
370
    50
100
AcDbCircle
 10
105.621976
 20
-111.639161
 30
0.0
 40
1.0
100
AcDbArc
 50
306.869898
 51
360.0
  0
LINE
  5
272
100
AcDbEntity
  8
2
370
    50
100
AcDbLine
 10
106.621976
 20
-111.639161
 30
0.0
 11
106.621976
 21
-107.739161
 31
0.0
  0
ARC
  5
273
100
AcDbEntity
  8
2
370
    50
100
AcDbCircle
 10
105.621976
 20
-107.739161
 30
0.0
 40
1.0
100
AcDbArc
 50
360.0
 51
53.130102
  0
LINE
  5
274
100
AcDbEntity
  8
2
370
    50
100
AcDbLine
 10
106.221976
 20
-106.939161
 30
0.0
 11
106.221976
 21
-104.939161
 31
0.0
  0
LINE
  5
275
100
AcDbEntity
  8
2
370
    50
100
AcDbLine
 10
106.221976
 20
-106.939161
 30
0.0
 11
99.271976
 21
-106.939161
 31
0.0
  0
LINE
  5
276
100
AcDbEntity
  8
2
370
    50
100
AcDbLine
 10
106.221976
 20
-104.939161
 30
0.0
 11
99.271976
 21
-104.939161
 31
0.0
  0
ARC
  5
277
100
AcDbEntity
  8
2
370
    50
100
AcDbCircle
 10
105.621976
 20
-104.139161
 30
0.0
 40
1.0
100
AcDbArc
 50
306.869898
 51
360.0
  0
LINE
  5
278
100
AcDbEntity
  8
2
370
    50
100
AcDbLine
 10
106.621976
 20
-104.139161
 30
0.0
 11
106.621976
 21
-100.739161
 31
0.0
  0
ARC
  5
279
100
AcDbEntity
  8
2
370
    50
100
AcDbCircle
 10
105.621976
 20
-100.739161
 30
0.0
 40
1.0
100
AcDbArc
 50
360.0
 51
53.130102
  0
LINE
  5
27A
100
AcDbEntity
  8
2
370
    50
100
AcDbLine
 10
106.221976
 20
-99.939161
 30
0.0
 11
99.271976
 21
-99.939161
 31
0.0
  0
LINE
  5
27B
100
AcDbEntity
  8
2
370
    50
100
AcDbLine
 10
106.221976
 20
-99.939161
 30
0.0
 11
106.221976
 21
-97.939161
 31
0.0
  0
LINE
  5
27C
100
AcDbEntity
  8
2
370
    50
100
AcDbLine
 10
106.221976
 20
-97.939161
 30
0.0
 11
99.271976
 21
-97.939161
 31
0.0
  0
ARC
  5
27D
100
AcDbEntity
  8
2
370
    50
100
AcDbCircle
 10
105.621976
 20
-97.139161
 30
0.0
 40
1.0
100
AcDbArc
 50
306.869898
 51
360.0
  0
ARC
  5
27E
100
AcDbEntity
  8
2
370
    50
100
AcDbCircle
 10
105.621976
 20
-97.139161
 30
0.0
 40
1.0
100
AcDbArc
 50
306.869898
 51
360.0
  0
LINE
  5
27F
100
AcDbEntity
  8
2
370
    50
100
AcDbLine
 10
106.621976
 20
-97.139161
 30
0.0
 11
106.621976
 21
-93.739161
 31
0.0
  0
ARC
  5
280
100
AcDbEntity
  8
2
370
    50
100
AcDbCircle
 10
105.621976
 20
-93.739161
 30
0.0
 40
1.0
100
AcDbArc
 50
360.0
 51
53.130102
  0
LINE
  5
281
100
AcDbEntity
  8
2
370
    50
100
AcDbLine
 10
106.221976
 20
-92.939161
 30
0.0
 11
99.271976
 21
-92.939161
 31
0.0
  0
LINE
  5
282
100
AcDbEntity
  8
2
370
    50
100
AcDbLine
 10
106.221976
 20
-92.939161
 30
0.0
 11
106.221976
 21
-90.939161
 31
0.0
  0
LINE
  5
283
100
AcDbEntity
  8
2
370
    50
100
AcDbLine
 10
106.221976
 20
-90.939161
 30
0.0
 11
99.271976
 21
-90.939161
 31
0.0
  0
ARC
  5
284
100
AcDbEntity
  8
2
370
    50
100
AcDbCircle
 10
105.621976
 20
-90.139161
 30
0.0
 40
1.0
100
AcDbArc
 50
306.869898
 51
360.0
  0
LINE
  5
285
100
AcDbEntity
  8
2
370
    50
100
AcDbLine
 10
106.621976
 20
-90.139161
 30
0.0
 11
106.621976
 21
-84.239161
 31
0.0
  0
ARC
  5
286
100
AcDbEntity
  8
2
370
    50
100
AcDbCircle
 10
105.621976
 20
-84.239161
 30
0.0
 40
1.0
100
AcDbArc
 50
360.0
 51
53.130102
  0
LINE
  5
287
100
AcDbEntity
  8
2
370
    50
100
AcDbLine
 10
92.421976
 20
-143.578735
 30
0.0
 11
92.421976
 21
-112.439161
 31
0.0
  0
LINE
  5
288
100
AcDbEntity
  8
2
370
    50
100
AcDbLine
 10
106.121976
 20
-143.642105
 30
0.0
 11
106.121976
 21
-112.439161
 31
0.0
  0
ARC
  5
289
100
AcDbEntity
  8
2
370
    50
100
AcDbCircle
 10
95.846976
 20
-139.048064
 30
0.0
 40
5.708333
100
AcDbArc
 50
233.130102
 51
306.869898
  0
ARC
  5
28A
100
AcDbEntity
  8
2
370
    50
100
AcDbCircle
 10
102.696976
 20
-148.181398
 30
0.0
 40
5.708333
100
AcDbArc
 50
53.130102
 51
126.869898
  0
ARC
  5
28B
100
AcDbEntity
  8
2
370
    50
100
AcDbCircle
 10
102.696976
 20
-139.048064
 30
0.0
 40
5.708333
100
AcDbArc
 50
233.130102
 51
306.869898
  0
HATCH
  5
28C
100
AcDbEntity
  8
2
370
    25
100
AcDbHatch
 10
0.0
 20
0.0
 30
0.0
210
0.0
220
0.0
230
1.0
  2
_U
 70
     0
 71
     1
 91
        1
 92
        1
 93
        4
 72
     1
 10
127.57197600000001
 20
-75.550976000000006
 11
127.57197600000001
 21
-77.350976000000003
 72
     1
 10
127.57197600000001
 20
-77.350976000000003
 11
87.571976000000006
 21
-77.350976000000003
 72
     1
 10
87.571976000000006
 20
-77.350976000000003
 11
87.571976000000006
 21
-75.550976000000006
 72
     1
 10
87.571976000000006
 20
-75.550976000000006
 11
127.57197600000001
 21
-75.550976000000006
 97
        4
330
0
330
0
330
0
330
0
 75
     0
 76
     0
 52
45.0
 41
1.0
 77
     0
 78
     1
 53
45.0
 43
0.0
 44
0.0
 45
-1.4142140000000001
 46
1.4142140000000001
 79
     0
 98
        1
 10
0.0
 20
0.0
  0
LINE
  5
28D
100
AcDbEntity
  8
2
370
    50
100
AcDbLine
 10
122.271976
 20
200.561218
 30
0.0
 11
120.808702
 21
200.561218
 31
0.0
  0
LINE
  5
28E
100
AcDbEntity
  8
2
370
    25
100
AcDbLine
 10
122.271976
 20
200.561218
 30
0.0
 11
122.271976
 21
192.561218
 31
0.0
  0
ARC
  5
28F
100
AcDbEntity
  8
2
370
    50
100
AcDbCircle
 10
115.343773
 20
196.561218
 30
0.0
 40
8.0
100
AcDbArc
 50
0.0
 51
30.0
  0
ARC
  5
290
100
AcDbEntity
  8
2
370
    50
100
AcDbCircle
 10
115.343773
 20
196.561218
 30
0.0
 40
8.0
100
AcDbArc
 50
330.0
 51
360.0
  0
LINE
  5
291
100
AcDbEntity
  8
2
370
    50
100
AcDbLine
 10
122.271976
 20
192.561218
 30
0.0
 11
120.808702
 21
192.561218
 31
0.0
  0
LINE
  5
292
100
AcDbEntity
  8
2
370
    50
100
AcDbLine
 10
93.271976
 20
-83.150486
 30
0.0
 11
93.271976
 21
-81.350976
 31
0.0
  0
LINE
  5
293
100
AcDbEntity
  8
2
370
    50
100
AcDbLine
 10
105.271976
 20
-83.150486
 30
0.0
 11
105.271976
 21
-81.350976
 31
0.0
  0
LINE
  5
294
100
AcDbEntity
  8
2
370
    50
100
AcDbLine
 10
101.669892
 20
-81.350976
 30
0.0
 11
101.669892
 21
-83.150486
 31
0.0
  0
LINE
  5
295
100
AcDbEntity
  8
2
370
    50
100
AcDbLine
 10
102.836158
 20
-81.350976
 30
0.0
 11
102.836158
 21
-83.150486
 31
0.0
  0
LINE
  5
296
100
AcDbEntity
  8
2
370
    50
100
AcDbLine
 10
105.234074
 20
-81.350976
 30
0.0
 11
105.234074
 21
-83.150486
 31
0.0
  0
LINE
  5
297
100
AcDbEntity
  8
2
370
    50
100
AcDbLine
 10
104.771976
 20
-83.439161
 30
0.0
 11
105.271976
 21
-83.150486
 31
0.0
  0
LINE
  5
298
100
AcDbEntity
  8
2
370
    50
100
AcDbLine
 10
102.836158
 20
-83.150486
 30
0.0
 11
101.669892
 21
-83.150486
 31
0.0
  0
LINE
  5
299
100
AcDbEntity
  8
2
370
    50
100
AcDbLine
 10
93.271976
 20
-83.150486
 30
0.0
 11
93.771976
 21
-83.439161
 31
0.0
  0
ARC
  5
29A
100
AcDbEntity
  8
2
370
    50
100
AcDbCircle
 10
99.271976
 20
-73.335532
 30
0.0
 40
10.10363
100
AcDbArc
 50
270.0
 51
283.729133
  0
LINE
  5
29B
100
AcDbEntity
  8
2
370
    50
100
AcDbLine
 10
105.271976
 20
-83.150486
 30
0.0
 11
105.234074
 21
-83.150486
 31
0.0
  0
ARC
  5
29C
100
AcDbEntity
  8
2
370
    50
100
AcDbCircle
 10
104.035116
 20
-80.805001
 30
0.0
 40
2.634161
100
AcDbArc
 50
242.924933
 51
297.075067
  0
ARC
  5
29D
100
AcDbEntity
  8
2
370
    50
100
AcDbCircle
 10
99.271976
 20
-73.335532
 30
0.0
 40
10.10363
100
AcDbArc
 50
256.270867
 51
270.0
  0
LINE
  5
29E
100
AcDbEntity
  8
2
370
    50
100
AcDbLine
 10
95.707795
 20
-83.150486
 30
0.0
 11
96.874061
 21
-83.150486
 31
0.0
  0
LINE
  5
29F
100
AcDbEntity
  8
2
370
    50
100
AcDbLine
 10
96.874061
 20
-81.350976
 30
0.0
 11
96.874061
 21
-83.150486
 31
0.0
  0
LINE
  5
2A0
100
AcDbEntity
  8
2
370
    50
100
AcDbLine
 10
95.707794
 20
-81.350976
 30
0.0
 11
95.707795
 21
-83.150486
 31
0.0
  0
ARC
  5
2A1
100
AcDbEntity
  8
2
370
    50
100
AcDbCircle
 10
94.508837
 20
-80.805001
 30
0.0
 40
2.634161
100
AcDbArc
 50
242.924933
 51
297.075067
  0
LINE
  5
2A2
100
AcDbEntity
  8
2
370
    50
100
AcDbLine
 10
93.309879
 20
-81.350976
 30
0.0
 11
93.309879
 21
-83.150486
 31
0.0
  0
LINE
  5
2A3
100
AcDbEntity
  8
2
370
    50
100
AcDbLine
 10
93.309879
 20
-83.150486
 30
0.0
 11
93.271976
 21
-83.150486
 31
0.0
  0
HATCH
  5
2A4
100
AcDbEntity
  8
2
370
    25
100
AcDbHatch
 10
0.0
 20
0.0
 30
0.0
210
0.0
220
0.0
230
1.0
  2
_U
 70
     0
 71
     1
 91
        1
 92
        1
 93
        5
 72
     1
 10
-254.636154
 20
-75.550976000000006
 11
-264.63615399999998
 21
-75.550976000000006
 72
     1
 10
-264.63615399999998
 20
-75.550976000000006
 11
-264.63615399999998
 21
-77.350976000000003
 72
     1
 10
-264.63615399999998
 20
-77.350976000000003
 11
-254.524339
 21
-77.350976000000003
 72
     1
 10
-254.524339
 20
-77.350976000000003
 11
-254.636154
 21
-77.239160999999996
 72
     1
 10
-254.636154
 20
-77.239160999999996
 11
-254.636154
 21
-75.550976000000006
 97
        5
330
0
330
0
330
0
330
0
330
0
 75
     0
 76
     0
 52
45.0
 41
1.0
 77
     0
 78
     1
 53
45.0
 43
0.0
 44
0.0
 45
-1.4142140000000001
 46
1.4142140000000001
 79
     0
 98
        1
 10
0.0
 20
0.0
  0
HATCH
  5
2A5
100
AcDbEntity
  8
2
370
    25
100
AcDbHatch
 10
0.0
 20
0.0
 30
0.0
210
0.0
220
0.0
230
1.0
  2
_U
 70
     0
 71
     1
 91
        1
 92
        1
 93
        6
 72
     1
 10
-238.636154
 20
-75.550976000000006
 11
-241.636154
 21
-75.550976000000006
 72
     1
 10
-241.636154
 20
-75.550976000000006
 11
-241.636154
 21
-77.239160999999996
 72
     1
 10
-241.636154
 20
-77.239160999999996
 11
-241.74796900000001
 21
-77.350976000000003
 72
     1
 10
-241.74796900000001
 20
-77.350976000000003
 11
-238.524339
 21
-77.350976000000003
 72
     1
 10
-238.524339
 20
-77.350976000000003
 11
-238.636154
 21
-77.239160999999996
 72
     1
 10
-238.636154
 20
-77.239160999999996
 11
-238.636154
 21
-75.550976000000006
 97
        6
330
0
330
0
330
0
330
0
330
0
330
0
 75
     0
 76
     0
 52
45.0
 41
1.0
 77
     0
 78
     1
 53
45.0
 43
0.0
 44
0.0
 45
-1.4142140000000001
 46
1.4142140000000001
 79
     0
 98
        1
 10
0.0
 20
0.0
  0
POINT
  5
2A6
100
AcDbEntity
  8
2
370
    50
100
AcDbPoint
 10
-232.136154
 20
-77.539161
 30
0.0
  0
LINE
  5
2A7
100
AcDbEntity
  8
2
370
    50
100
AcDbLine
 10
-237.136154
 20
-61.539161
 30
0.0
 11
-237.136154
 21
-62.039161
 31
0.0
  0
LINE
  5
2A8
100
AcDbEntity
  8
2
370
    50
100
AcDbLine
 10
-227.136154
 20
-61.539161
 30
0.0
 11
-227.136154
 21
-62.039161
 31
0.0
  0
LINE
  5
2A9
100
AcDbEntity
  8
2
370
    50
100
AcDbLine
 10
-232.136154
 20
-62.039161
 30
0.0
 11
-226.386154
 21
-62.039161
 31
0.0
  0
LINE
  5
2AA
100
AcDbEntity
  8
2
370
    50
100
AcDbLine
 10
-232.136154
 20
-77.539161
 30
0.0
 11
-226.386154
 21
-77.539161
 31
0.0
  0
LINE
  5
2AB
100
AcDbEntity
  8
2
370
    50
100
AcDbLine
 10
-225.886154
 20
-62.539161
 30
0.0
 11
-225.886154
 21
-77.039161
 31
0.0
  0
LINE
  5
2AC
100
AcDbEntity
  8
2
370
    50
100
AcDbLine
 10
-225.886154
 20
-62.539161
 30
0.0
 11
-226.386154
 21
-62.039161
 31
0.0
  0
LINE
  5
2AD
100
AcDbEntity
  8
2
370
    50
100
AcDbLine
 10
-225.886154
 20
-77.039161
 30
0.0
 11
-226.386154
 21
-77.539161
 31
0.0
  0
LINE
  5
2AE
100
AcDbEntity
  8
2
370
    50
100
AcDbLine
 10
-227.815002
 20
-77.039161
 30
0.0
 11
-230.386154
 21
-77.039161
 31
0.0
  0
LINE
  5
2AF
100
AcDbEntity
  8
2
370
    50
100
AcDbLine
 10
-227.815002
 20
-62.539161
 30
0.0
 11
-230.386154
 21
-62.539161
 31
0.0
  0
LINE
  5
2B0
100
AcDbEntity
  8
2
370
    50
100
AcDbLine
 10
-226.065002
 20
-62.539161
 30
0.0
 11
-226.065002
 21
-77.039161
 31
0.0
  0
LINE
  5
2B1
100
AcDbEntity
  8
2
370
    50
100
AcDbLine
 10
-227.815002
 20
-62.539161
 30
0.0
 11
-227.815002
 21
-77.039161
 31
0.0
  0
LINE
  5
2B2
100
AcDbEntity
  8
2
370
    50
100
AcDbLine
 10
-230.386154
 20
-62.539161
 30
0.0
 11
-230.386154
 21
-77.039161
 31
0.0
  0
LINE
  5
2B3
100
AcDbEntity
  8
2
370
    50
100
AcDbLine
 10
-225.886154
 20
-77.039161
 30
0.0
 11
-226.065002
 21
-77.039161
 31
0.0
  0
LINE
  5
2B4
100
AcDbEntity
  8
2
370
    50
100
AcDbLine
 10
-225.886154
 20
-62.539161
 30
0.0
 11
-226.065002
 21
-62.539161
 31
0.0
  0
ARC
  5
2B5
100
AcDbEntity
  8
2
370
    50
100
AcDbCircle
 10
-232.136154
 20
-68.539161
 30
0.0
 40
6.25
100
AcDbArc
 50
73.739795
 51
90.0
  0
ARC
  5
2B6
100
AcDbEntity
  8
2
370
    50
100
AcDbCircle
 10
-226.940002
 20
-63.945411
 30
0.0
 40
1.65625
100
AcDbArc
 50
58.109208
 51
121.890792
  0
ARC
  5
2B7
100
AcDbEntity
  8
2
370
    50
100
AcDbCircle
 10
-226.940002
 20
-75.632911
 30
0.0
 40
1.65625
100
AcDbArc
 50
238.109208
 51
301.890792
  0
ARC
  5
2B8
100
AcDbEntity
  8
2
370
    50
100
AcDbCircle
 10
-232.136154
 20
-71.039161
 30
0.0
 40
6.25
100
AcDbArc
 50
270.0
 51
286.260205
  0
LINE
  5
2B9
100
AcDbEntity
  8
2
370
    50
100
AcDbLine
 10
-232.136154
 20
-62.039161
 30
0.0
 11
-237.886154
 21
-62.039161
 31
0.0
  0
LINE
  5
2BA
100
AcDbEntity
  8
2
370
    50
100
AcDbLine
 10
-238.386154
 20
-62.539161
 30
0.0
 11
-238.386154
 21
-77.039161
 31
0.0
  0
LINE
  5
2BB
100
AcDbEntity
  8
2
370
    50
100
AcDbLine
 10
-238.386154
 20
-62.539161
 30
0.0
 11
-237.886154
 21
-62.039161
 31
0.0
  0
LINE
  5
2BC
100
AcDbEntity
  8
2
370
    50
100
AcDbLine
 10
-238.386154
 20
-77.039161
 30
0.0
 11
-237.886154
 21
-77.539161
 31
0.0
  0
LINE
  5
2BD
100
AcDbEntity
  8
2
370
    50
100
AcDbLine
 10
-236.457307
 20
-77.039161
 30
0.0
 11
-233.886154
 21
-77.039161
 31
0.0
  0
LINE
  5
2BE
100
AcDbEntity
  8
2
370
    50
100
AcDbLine
 10
-236.457307
 20
-62.539161
 30
0.0
 11
-233.886154
 21
-62.539161
 31
0.0
  0
LINE
  5
2BF
100
AcDbEntity
  8
2
370
    50
100
AcDbLine
 10
-238.207307
 20
-62.539161
 30
0.0
 11
-238.207307
 21
-77.039161
 31
0.0
  0
LINE
  5
2C0
100
AcDbEntity
  8
2
370
    50
100
AcDbLine
 10
-236.457307
 20
-62.539161
 30
0.0
 11
-236.457307
 21
-77.039161
 31
0.0
  0
LINE
  5
2C1
100
AcDbEntity
  8
2
370
    50
100
AcDbLine
 10
-233.886154
 20
-62.539161
 30
0.0
 11
-233.886154
 21
-77.039161
 31
0.0
  0
LINE
  5
2C2
100
AcDbEntity
  8
2
370
    50
100
AcDbLine
 10
-238.386154
 20
-77.039161
 30
0.0
 11
-238.207307
 21
-77.039161
 31
0.0
  0
LINE
  5
2C3
100
AcDbEntity
  8
2
370
    50
100
AcDbLine
 10
-238.386154
 20
-62.539161
 30
0.0
 11
-238.207307
 21
-62.539161
 31
0.0
  0
ARC
  5
2C4
100
AcDbEntity
  8
2
370
    50
100
AcDbCircle
 10
-232.136154
 20
-68.539161
 30
0.0
 40
6.25
100
AcDbArc
 50
90.0
 51
106.260205
  0
ARC
  5
2C5
100
AcDbEntity
  8
2
370
    50
100
AcDbCircle
 10
-237.332307
 20
-63.945411
 30
0.0
 40
1.65625
100
AcDbArc
 50
58.109208
 51
121.890792
  0
ARC
  5
2C6
100
AcDbEntity
  8
2
370
    50
100
AcDbCircle
 10
-237.332307
 20
-75.632911
 30
0.0
 40
1.65625
100
AcDbArc
 50
238.109208
 51
301.890792
  0
ARC
  5
2C7
100
AcDbEntity
  8
2
370
    50
100
AcDbCircle
 10
-232.136154
 20
-71.039161
 30
0.0
 40
6.25
100
AcDbArc
 50
253.739795
 51
270.0
  0
LINE
  5
2C8
100
AcDbEntity
  8
2
370
    50
100
AcDbLine
 10
-253.136154
 20
-61.539161
 30
0.0
 11
-253.136154
 21
-62.039161
 31
0.0
  0
LINE
  5
2C9
100
AcDbEntity
  8
2
370
    50
100
AcDbLine
 10
-243.136154
 20
-61.539161
 30
0.0
 11
-243.136154
 21
-62.039161
 31
0.0
  0
LINE
  5
2CA
100
AcDbEntity
  8
2
370
    50
100
AcDbLine
 10
-248.136154
 20
-62.039161
 30
0.0
 11
-242.386154
 21
-62.039161
 31
0.0
  0
LINE
  5
2CB
100
AcDbEntity
  8
2
370
    50
100
AcDbLine
 10
-241.886154
 20
-62.539161
 30
0.0
 11
-241.886154
 21
-77.039161
 31
0.0
  0
LINE
  5
2CC
100
AcDbEntity
  8
2
370
    50
100
AcDbLine
 10
-241.886154
 20
-62.539161
 30
0.0
 11
-242.386154
 21
-62.039161
 31
0.0
  0
LINE
  5
2CD
100
AcDbEntity
  8
2
370
    50
100
AcDbLine
 10
-241.886154
 20
-77.039161
 30
0.0
 11
-242.386154
 21
-77.539161
 31
0.0
  0
LINE
  5
2CE
100
AcDbEntity
  8
2
370
    50
100
AcDbLine
 10
-243.815002
 20
-77.039161
 30
0.0
 11
-246.386154
 21
-77.039161
 31
0.0
  0
LINE
  5
2CF
100
AcDbEntity
  8
2
370
    50
100
AcDbLine
 10
-243.815002
 20
-62.539161
 30
0.0
 11
-246.386154
 21
-62.539161
 31
0.0
  0
LINE
  5
2D0
100
AcDbEntity
  8
2
370
    50
100
AcDbLine
 10
-242.065002
 20
-62.539161
 30
0.0
 11
-242.065002
 21
-77.039161
 31
0.0
  0
LINE
  5
2D1
100
AcDbEntity
  8
2
370
    50
100
AcDbLine
 10
-243.815002
 20
-62.539161
 30
0.0
 11
-243.815002
 21
-77.039161
 31
0.0
  0
LINE
  5
2D2
100
AcDbEntity
  8
2
370
    50
100
AcDbLine
 10
-246.386154
 20
-62.539161
 30
0.0
 11
-246.386154
 21
-77.039161
 31
0.0
  0
LINE
  5
2D3
100
AcDbEntity
  8
2
370
    50
100
AcDbLine
 10
-241.886154
 20
-77.039161
 30
0.0
 11
-242.065002
 21
-77.039161
 31
0.0
  0
LINE
  5
2D4
100
AcDbEntity
  8
2
370
    50
100
AcDbLine
 10
-241.886154
 20
-62.539161
 30
0.0
 11
-242.065002
 21
-62.539161
 31
0.0
  0
ARC
  5
2D5
100
AcDbEntity
  8
2
370
    50
100
AcDbCircle
 10
-248.136154
 20
-68.539161
 30
0.0
 40
6.25
100
AcDbArc
 50
73.739795
 51
90.0
  0
ARC
  5
2D6
100
AcDbEntity
  8
2
370
    50
100
AcDbCircle
 10
-242.940002
 20
-63.945411
 30
0.0
 40
1.65625
100
AcDbArc
 50
58.109208
 51
121.890792
  0
ARC
  5
2D7
100
AcDbEntity
  8
2
370
    50
100
AcDbCircle
 10
-242.940002
 20
-75.632911
 30
0.0
 40
1.65625
100
AcDbArc
 50
238.109208
 51
301.890792
  0
ARC
  5
2D8
100
AcDbEntity
  8
2
370
    50
100
AcDbCircle
 10
-248.136154
 20
-71.039161
 30
0.0
 40
6.25
100
AcDbArc
 50
270.0
 51
286.260205
  0
LINE
  5
2D9
100
AcDbEntity
  8
2
370
    50
100
AcDbLine
 10
-248.136154
 20
-62.039161
 30
0.0
 11
-253.886154
 21
-62.039161
 31
0.0
  0
LINE
  5
2DA
100
AcDbEntity
  8
2
370
    50
100
AcDbLine
 10
-248.136154
 20
-77.539161
 30
0.0
 11
-253.886154
 21
-77.539161
 31
0.0
  0
LINE
  5
2DB
100
AcDbEntity
  8
2
370
    50
100
AcDbLine
 10
-254.386154
 20
-62.539161
 30
0.0
 11
-254.386154
 21
-77.039161
 31
0.0
  0
LINE
  5
2DC
100
AcDbEntity
  8
2
370
    50
100
AcDbLine
 10
-254.386154
 20
-62.539161
 30
0.0
 11
-253.886154
 21
-62.039161
 31
0.0
  0
LINE
  5
2DD
100
AcDbEntity
  8
2
370
    50
100
AcDbLine
 10
-254.386154
 20
-77.039161
 30
0.0
 11
-253.886154
 21
-77.539161
 31
0.0
  0
LINE
  5
2DE
100
AcDbEntity
  8
2
370
    50
100
AcDbLine
 10
-252.457307
 20
-77.039161
 30
0.0
 11
-249.886154
 21
-77.039161
 31
0.0
  0
LINE
  5
2DF
100
AcDbEntity
  8
2
370
    50
100
AcDbLine
 10
-252.457307
 20
-62.539161
 30
0.0
 11
-249.886154
 21
-62.539161
 31
0.0
  0
LINE
  5
2E0
100
AcDbEntity
  8
2
370
    50
100
AcDbLine
 10
-254.207307
 20
-62.539161
 30
0.0
 11
-254.207307
 21
-77.039161
 31
0.0
  0
LINE
  5
2E1
100
AcDbEntity
  8
2
370
    50
100
AcDbLine
 10
-252.457307
 20
-62.539161
 30
0.0
 11
-252.457307
 21
-77.039161
 31
0.0
  0
LINE
  5
2E2
100
AcDbEntity
  8
2
370
    50
100
AcDbLine
 10
-249.886154
 20
-62.539161
 30
0.0
 11
-249.886154
 21
-77.039161
 31
0.0
  0
LINE
  5
2E3
100
AcDbEntity
  8
2
370
    50
100
AcDbLine
 10
-254.386154
 20
-77.039161
 30
0.0
 11
-254.207307
 21
-77.039161
 31
0.0
  0
LINE
  5
2E4
100
AcDbEntity
  8
2
370
    50
100
AcDbLine
 10
-254.386154
 20
-62.539161
 30
0.0
 11
-254.207307
 21
-62.539161
 31
0.0
  0
ARC
  5
2E5
100
AcDbEntity
  8
2
370
    50
100
AcDbCircle
 10
-248.136154
 20
-68.539161
 30
0.0
 40
6.25
100
AcDbArc
 50
90.0
 51
106.260205
  0
ARC
  5
2E6
100
AcDbEntity
  8
2
370
    50
100
AcDbCircle
 10
-253.332307
 20
-63.945411
 30
0.0
 40
1.65625
100
AcDbArc
 50
58.109208
 51
121.890792
  0
ARC
  5
2E7
100
AcDbEntity
  8
2
370
    50
100
AcDbCircle
 10
-253.332307
 20
-75.632911
 30
0.0
 40
1.65625
100
AcDbArc
 50
238.109208
 51
301.890792
  0
ARC
  5
2E8
100
AcDbEntity
  8
2
370
    50
100
AcDbCircle
 10
-248.136154
 20
-71.039161
 30
0.0
 40
6.25
100
AcDbArc
 50
253.739795
 51
270.0
  0
LINE
  5
2E9
100
AcDbEntity
  8
2
370
    50
100
AcDbLine
 10
-242.386154
 20
-77.539161
 30
0.0
 11
-252.899294
 21
-77.539161
 31
0.0
  0
LINE
  5
2EA
100
AcDbEntity
  8
2
370
    50
100
AcDbLine
 10
-226.636154
 20
-77.539161
 30
0.0
 11
-237.886154
 21
-77.539161
 31
0.0
  0
POINT
  5
2EB
100
AcDbEntity
  8
2
370
    50
100
AcDbPoint
 10
99.271976
 20
-77.539161
 30
0.0
  0
LINE
  5
2EC
100
AcDbEntity
  8
2
370
    50
100
AcDbLine
 10
94.271976
 20
-61.539161
 30
0.0
 11
94.271976
 21
-62.039161
 31
0.0
  0
LINE
  5
2ED
100
AcDbEntity
  8
2
370
    50
100
AcDbLine
 10
104.271976
 20
-61.539161
 30
0.0
 11
104.271976
 21
-62.039161
 31
0.0
  0
LINE
  5
2EE
100
AcDbEntity
  8
2
370
    50
100
AcDbLine
 10
99.271976
 20
-62.039161
 30
0.0
 11
105.021976
 21
-62.039161
 31
0.0
  0
LINE
  5
2EF
100
AcDbEntity
  8
2
370
    50
100
AcDbLine
 10
105.521976
 20
-62.539161
 30
0.0
 11
105.521976
 21
-75.539161
 31
0.0
  0
LINE
  5
2F0
100
AcDbEntity
  8
2
370
    50
100
AcDbLine
 10
105.521976
 20
-62.539161
 30
0.0
 11
105.021976
 21
-62.039161
 31
0.0
  0
LINE
  5
2F1
100
AcDbEntity
  8
2
370
    50
100
AcDbLine
 10
103.593129
 20
-62.539161
 30
0.0
 11
101.021976
 21
-62.539161
 31
0.0
  0
LINE
  5
2F2
100
AcDbEntity
  8
2
370
    50
100
AcDbLine
 10
105.343129
 20
-62.539161
 30
0.0
 11
105.343129
 21
-75.539161
 31
0.0
  0
LINE
  5
2F3
100
AcDbEntity
  8
2
370
    50
100
AcDbLine
 10
103.593129
 20
-62.539161
 30
0.0
 11
103.593129
 21
-75.539161
 31
0.0
  0
LINE
  5
2F4
100
AcDbEntity
  8
2
370
    50
100
AcDbLine
 10
101.021976
 20
-62.539161
 30
0.0
 11
101.021976
 21
-75.539161
 31
0.0
  0
LINE
  5
2F5
100
AcDbEntity
  8
2
370
    50
100
AcDbLine
 10
105.521976
 20
-62.539161
 30
0.0
 11
105.343129
 21
-62.539161
 31
0.0
  0
ARC
  5
2F6
100
AcDbEntity
  8
2
370
    50
100
AcDbCircle
 10
99.271976
 20
-68.539161
 30
0.0
 40
6.25
100
AcDbArc
 50
73.739795
 51
90.0
  0
ARC
  5
2F7
100
AcDbEntity
  8
2
370
    50
100
AcDbCircle
 10
104.468129
 20
-63.945411
 30
0.0
 40
1.65625
100
AcDbArc
 50
58.109208
 51
121.890792
  0
LINE
  5
2F8
100
AcDbEntity
  8
2
370
    50
100
AcDbLine
 10
99.271976
 20
-62.039161
 30
0.0
 11
93.521976
 21
-62.039161
 31
0.0
  0
LINE
  5
2F9
100
AcDbEntity
  8
2
370
    50
100
AcDbLine
 10
93.021976
 20
-62.539161
 30
0.0
 11
93.021976
 21
-75.539161
 31
0.0
  0
LINE
  5
2FA
100
AcDbEntity
  8
2
370
    50
100
AcDbLine
 10
93.021976
 20
-62.539161
 30
0.0
 11
93.521976
 21
-62.039161
 31
0.0
  0
LINE
  5
2FB
100
AcDbEntity
  8
2
370
    50
100
AcDbLine
 10
94.950824
 20
-62.539161
 30
0.0
 11
97.521976
 21
-62.539161
 31
0.0
  0
LINE
  5
2FC
100
AcDbEntity
  8
2
370
    50
100
AcDbLine
 10
93.200824
 20
-62.539161
 30
0.0
 11
93.200824
 21
-75.539161
 31
0.0
  0
LINE
  5
2FD
100
AcDbEntity
  8
2
370
    50
100
AcDbLine
 10
94.950824
 20
-62.539161
 30
0.0
 11
94.950824
 21
-75.539161
 31
0.0
  0
LINE
  5
2FE
100
AcDbEntity
  8
2
370
    50
100
AcDbLine
 10
97.521976
 20
-62.539161
 30
0.0
 11
97.521976
 21
-75.539161
 31
0.0
  0
LINE
  5
2FF
100
AcDbEntity
  8
2
370
    50
100
AcDbLine
 10
93.021976
 20
-62.539161
 30
0.0
 11
93.200824
 21
-62.539161
 31
0.0
  0
ARC
  5
300
100
AcDbEntity
  8
2
370
    50
100
AcDbCircle
 10
99.271976
 20
-68.539161
 30
0.0
 40
6.25
100
AcDbArc
 50
90.0
 51
106.260205
  0
ARC
  5
301
100
AcDbEntity
  8
2
370
    50
100
AcDbCircle
 10
94.075824
 20
-63.945411
 30
0.0
 40
1.65625
100
AcDbArc
 50
58.109208
 51
121.890792
  0
LINE
  5
302
100
AcDbEntity
  8
2
370
    50
100
AcDbLine
 10
-282.823997
 20
-225.435657
 30
0.0
 11
-270.823997
 21
-225.435657
 31
0.0
  0
LINE
  5
303
100
AcDbEntity
  8
2
370
    50
100
AcDbLine
 10
-282.823997
 20
-214.435657
 30
0.0
 11
-270.823997
 21
-214.435657
 31
0.0
  0
LINE
  5
304
100
AcDbEntity
  8
2
370
    50
100
AcDbLine
 10
-270.823997
 20
-214.435657
 30
0.0
 11
-269.823997
 21
-215.435657
 31
0.0
  0
LINE
  5
305
100
AcDbEntity
  8
2
370
    50
100
AcDbLine
 10
-274.931692
 20
-215.435657
 30
0.0
 11
-277.823997
 21
-215.435657
 31
0.0
  0
ARC
  5
306
100
AcDbEntity
  8
2
370
    50
100
AcDbCircle
 10
-272.377844
 20
-218.196725
 30
0.0
 40
3.761069
100
AcDbArc
 50
47.232751
 51
132.767249
  0
ARC
  5
307
100
AcDbEntity
  8
2
370
    50
100
AcDbCircle
 10
-282.823997
 20
-227.435657
 30
0.0
 40
13.0
100
AcDbArc
 50
67.380135
 51
90.0
  0
ARC
  5
308
100
AcDbEntity
  8
2
370
    50
100
AcDbCircle
 10
-272.377844
 20
-221.674588
 30
0.0
 40
3.761069
100
AcDbArc
 50
227.232751
 51
312.767249
  0
ARC
  5
309
100
AcDbEntity
  8
2
370
    50
100
AcDbCircle
 10
-282.823997
 20
-212.435657
 30
0.0
 40
13.0
100
AcDbArc
 50
270.0
 51
292.619865
  0
LINE
  5
30A
100
AcDbEntity
  8
2
370
    50
100
AcDbLine
 10
-270.823997
 20
-225.435657
 30
0.0
 11
-269.823997
 21
-224.435657
 31
0.0
  0
LINE
  5
30B
100
AcDbEntity
  8
2
370
    50
100
AcDbLine
 10
-277.823997
 20
-224.435657
 30
0.0
 11
-274.931692
 21
-224.435657
 31
0.0
  0
LINE
  5
30C
100
AcDbEntity
  8
2
370
    50
100
AcDbLine
 10
-274.473997
 20
-214.435657
 30
0.0
 11
-274.473997
 21
-210.435657
 31
0.0
  0
LINE
  5
30D
100
AcDbEntity
  8
2
370
    25
100
AcDbLine
 10
-275.323997
 20
-212.435657
 30
0.0
 11
-275.323997
 21
-210.435657
 31
0.0
  0
LINE
  5
30E
100
AcDbEntity
  8
2
370
    50
100
AcDbLine
 10
-275.323997
 20
-212.435657
 30
0.0
 11
-274.473997
 21
-213.285657
 31
0.0
  0
LINE
  5
30F
100
AcDbEntity
  8
2
370
    25
100
AcDbLine
 10
-274.473997
 20
-212.435657
 30
0.0
 11
-282.823997
 21
-212.435657
 31
0.0
  0
LINE
  5
310
100
AcDbEntity
  8
2
370
    50
100
AcDbLine
 10
-274.181692
 20
-219.935657
 30
0.0
 11
-279.323997
 21
-219.935657
 31
0.0
  0
LINE
  5
311
100
AcDbEntity
  8
2
370
    50
100
AcDbLine
 10
-270.323997
 20
-219.935657
 30
0.0
 11
-269.823997
 21
-219.435657
 31
0.0
  0
LINE
  5
312
100
AcDbEntity
  8
2
370
    50
100
AcDbLine
 10
-270.323997
 20
-219.935657
 30
0.0
 11
-269.823997
 21
-220.435657
 31
0.0
  0
LINE
  5
313
100
AcDbEntity
  8
2
370
    50
100
AcDbLine
 10
-274.931692
 20
-219.435657
 30
0.0
 11
-277.823997
 21
-219.435657
 31
0.0
  0
LINE
  5
314
100
AcDbEntity
  8
2
370
    50
100
AcDbLine
 10
-269.823997
 20
-224.435657
 30
0.0
 11
-269.823997
 21
-220.435657
 31
0.0
  0
LINE
  5
315
100
AcDbEntity
  8
2
370
    50
100
AcDbLine
 10
-269.823997
 20
-219.435657
 30
0.0
 11
-269.823997
 21
-215.435657
 31
0.0
  0
LINE
  5
316
100
AcDbEntity
  8
2
370
    50
100
AcDbLine
 10
-274.931692
 20
-220.435657
 30
0.0
 11
-277.823997
 21
-220.435657
 31
0.0
  0
LINE
  5
317
100
AcDbEntity
  8
2
370
    50
100
AcDbLine
 10
-277.823997
 20
-219.435657
 30
0.0
 11
-279.323997
 21
-219.935657
 31
0.0
  0
LINE
  5
318
100
AcDbEntity
  8
2
370
    50
100
AcDbLine
 10
-274.931692
 20
-219.435657
 30
0.0
 11
-274.181692
 21
-219.935657
 31
0.0
  0
LINE
  5
319
100
AcDbEntity
  8
2
370
    50
100
AcDbLine
 10
-274.931692
 20
-220.435657
 30
0.0
 11
-274.181692
 21
-219.935657
 31
0.0
  0
LINE
  5
31A
100
AcDbEntity
  8
2
370
    50
100
AcDbLine
 10
-277.823997
 20
-220.435657
 30
0.0
 11
-279.323997
 21
-219.935657
 31
0.0
  0
LINE
  5
31B
100
AcDbEntity
  8
2
370
    50
100
AcDbLine
 10
-277.823997
 20
-224.435657
 30
0.0
 11
-277.823997
 21
-220.435657
 31
0.0
  0
LINE
  5
31C
100
AcDbEntity
  8
2
370
    50
100
AcDbLine
 10
-277.823997
 20
-219.435657
 30
0.0
 11
-277.823997
 21
-215.435657
 31
0.0
  0
LINE
  5
31D
100
AcDbEntity
  8
2
370
    50
100
AcDbLine
 10
-274.931692
 20
-224.435657
 30
0.0
 11
-274.931692
 21
-220.435657
 31
0.0
  0
LINE
  5
31E
100
AcDbEntity
  8
2
370
    50
100
AcDbLine
 10
-274.931692
 20
-219.435657
 30
0.0
 11
-274.931692
 21
-215.435657
 31
0.0
  0
LINE
  5
31F
100
AcDbEntity
  8
2
370
    50
100
AcDbLine
 10
-270.323997
 20
-219.935657
 30
0.0
 11
-270.681692
 21
-219.935657
 31
0.0
  0
LINE
  5
320
100
AcDbEntity
  8
2
370
    50
100
AcDbLine
 10
-269.823997
 20
-219.435657
 30
0.0
 11
-270.681692
 21
-219.935657
 31
0.0
  0
LINE
  5
321
100
AcDbEntity
  8
2
370
    50
100
AcDbLine
 10
-269.823997
 20
-220.435657
 30
0.0
 11
-270.681692
 21
-219.935657
 31
0.0
  0
POINT
  5
322
100
AcDbEntity
  8
2
370
    50
100
AcDbPoint
 10
-282.823997
 20
-218.435657
 30
0.0
  0
LINE
  5
323
100
AcDbEntity
  8
2
370
    50
100
AcDbLine
 10
-282.823997
 20
-225.435657
 30
0.0
 11
-294.823997
 21
-225.435657
 31
0.0
  0
LINE
  5
324
100
AcDbEntity
  8
2
370
    50
100
AcDbLine
 10
-282.823997
 20
-214.435657
 30
0.0
 11
-294.823997
 21
-214.435657
 31
0.0
  0
LINE
  5
325
100
AcDbEntity
  8
2
370
    50
100
AcDbLine
 10
-294.823997
 20
-214.435657
 30
0.0
 11
-295.823997
 21
-215.435657
 31
0.0
  0
LINE
  5
326
100
AcDbEntity
  8
2
370
    50
100
AcDbLine
 10
-290.716302
 20
-215.435657
 30
0.0
 11
-287.823997
 21
-215.435657
 31
0.0
  0
ARC
  5
327
100
AcDbEntity
  8
2
370
    50
100
AcDbCircle
 10
-293.270149
 20
-218.196725
 30
0.0
 40
3.761069
100
AcDbArc
 50
47.232751
 51
132.767249
  0
ARC
  5
328
100
AcDbEntity
  8
2
370
    50
100
AcDbCircle
 10
-282.823997
 20
-227.435657
 30
0.0
 40
13.0
100
AcDbArc
 50
90.0
 51
112.619865
  0
ARC
  5
329
100
AcDbEntity
  8
2
370
    50
100
AcDbCircle
 10
-293.270149
 20
-221.674588
 30
0.0
 40
3.761069
100
AcDbArc
 50
227.232751
 51
312.767249
  0
ARC
  5
32A
100
AcDbEntity
  8
2
370
    50
100
AcDbCircle
 10
-282.823997
 20
-212.435657
 30
0.0
 40
13.0
100
AcDbArc
 50
247.380135
 51
270.0
  0
LINE
  5
32B
100
AcDbEntity
  8
2
370
    50
100
AcDbLine
 10
-294.823997
 20
-225.435657
 30
0.0
 11
-295.823997
 21
-224.435657
 31
0.0
  0
LINE
  5
32C
100
AcDbEntity
  8
2
370
    50
100
AcDbLine
 10
-287.823997
 20
-224.435657
 30
0.0
 11
-290.716302
 21
-224.435657
 31
0.0
  0
LINE
  5
32D
100
AcDbEntity
  8
2
370
    50
100
AcDbLine
 10
-291.173997
 20
-214.435657
 30
0.0
 11
-291.173997
 21
-210.435657
 31
0.0
  0
LINE
  5
32E
100
AcDbEntity
  8
2
370
    25
100
AcDbLine
 10
-290.323997
 20
-212.435657
 30
0.0
 11
-290.323997
 21
-210.435657
 31
0.0
  0
LINE
  5
32F
100
AcDbEntity
  8
2
370
    50
100
AcDbLine
 10
-290.323997
 20
-212.435657
 30
0.0
 11
-291.173997
 21
-213.285657
 31
0.0
  0
LINE
  5
330
100
AcDbEntity
  8
2
370
    25
100
AcDbLine
 10
-291.173997
 20
-212.435657
 30
0.0
 11
-282.823997
 21
-212.435657
 31
0.0
  0
LINE
  5
331
100
AcDbEntity
  8
2
370
    50
100
AcDbLine
 10
-291.466302
 20
-219.935657
 30
0.0
 11
-286.323997
 21
-219.935657
 31
0.0
  0
LINE
  5
332
100
AcDbEntity
  8
2
370
    50
100
AcDbLine
 10
-295.323997
 20
-219.935657
 30
0.0
 11
-295.823997
 21
-219.435657
 31
0.0
  0
LINE
  5
333
100
AcDbEntity
  8
2
370
    50
100
AcDbLine
 10
-295.323997
 20
-219.935657
 30
0.0
 11
-295.823997
 21
-220.435657
 31
0.0
  0
LINE
  5
334
100
AcDbEntity
  8
2
370
    50
100
AcDbLine
 10
-290.716302
 20
-219.435657
 30
0.0
 11
-287.823997
 21
-219.435657
 31
0.0
  0
LINE
  5
335
100
AcDbEntity
  8
2
370
    50
100
AcDbLine
 10
-295.823997
 20
-224.435657
 30
0.0
 11
-295.823997
 21
-220.435657
 31
0.0
  0
LINE
  5
336
100
AcDbEntity
  8
2
370
    50
100
AcDbLine
 10
-295.823997
 20
-219.435657
 30
0.0
 11
-295.823997
 21
-215.435657
 31
0.0
  0
LINE
  5
337
100
AcDbEntity
  8
2
370
    50
100
AcDbLine
 10
-290.716302
 20
-220.435657
 30
0.0
 11
-287.823997
 21
-220.435657
 31
0.0
  0
LINE
  5
338
100
AcDbEntity
  8
2
370
    50
100
AcDbLine
 10
-287.823997
 20
-219.435657
 30
0.0
 11
-286.323997
 21
-219.935657
 31
0.0
  0
LINE
  5
339
100
AcDbEntity
  8
2
370
    50
100
AcDbLine
 10
-290.716302
 20
-219.435657
 30
0.0
 11
-291.466302
 21
-219.935657
 31
0.0
  0
LINE
  5
33A
100
AcDbEntity
  8
2
370
    50
100
AcDbLine
 10
-290.716302
 20
-220.435657
 30
0.0
 11
-291.466302
 21
-219.935657
 31
0.0
  0
LINE
  5
33B
100
AcDbEntity
  8
2
370
    50
100
AcDbLine
 10
-287.823997
 20
-220.435657
 30
0.0
 11
-286.323997
 21
-219.935657
 31
0.0
  0
LINE
  5
33C
100
AcDbEntity
  8
2
370
    50
100
AcDbLine
 10
-287.823997
 20
-224.435657
 30
0.0
 11
-287.823997
 21
-220.435657
 31
0.0
  0
LINE
  5
33D
100
AcDbEntity
  8
2
370
    50
100
AcDbLine
 10
-287.823997
 20
-219.435657
 30
0.0
 11
-287.823997
 21
-215.435657
 31
0.0
  0
LINE
  5
33E
100
AcDbEntity
  8
2
370
    50
100
AcDbLine
 10
-290.716302
 20
-224.435657
 30
0.0
 11
-290.716302
 21
-220.435657
 31
0.0
  0
LINE
  5
33F
100
AcDbEntity
  8
2
370
    50
100
AcDbLine
 10
-290.716302
 20
-219.435657
 30
0.0
 11
-290.716302
 21
-215.435657
 31
0.0
  0
LINE
  5
340
100
AcDbEntity
  8
2
370
    50
100
AcDbLine
 10
-295.323997
 20
-219.935657
 30
0.0
 11
-294.966302
 21
-219.935657
 31
0.0
  0
LINE
  5
341
100
AcDbEntity
  8
2
370
    50
100
AcDbLine
 10
-295.823997
 20
-219.435657
 30
0.0
 11
-294.966302
 21
-219.935657
 31
0.0
  0
LINE
  5
342
100
AcDbEntity
  8
2
370
    50
100
AcDbLine
 10
-295.823997
 20
-220.435657
 30
0.0
 11
-294.966302
 21
-219.935657
 31
0.0
  0
LINE
  5
343
100
AcDbEntity
  8
2
370
    50
100
AcDbLine
 10
-191.448311
 20
-198.435465
 30
0.0
 11
-191.448311
 21
-197.935157
 31
0.0
  0
LINE
  5
344
100
AcDbEntity
  8
2
370
    50
100
AcDbLine
 10
-203.448311
 20
-197.935157
 30
0.0
 11
-203.448311
 21
-198.435465
 31
0.0
  0
LINE
  5
345
100
AcDbEntity
  8
2
370
    50
100
AcDbLine
 10
-191.448311
 20
-197.935157
 30
0.0
 11
-191.948311
 21
-197.435157
 31
0.0
  0
LINE
  5
346
100
AcDbEntity
  8
2
370
    50
100
AcDbLine
 10
-202.948311
 20
-197.435157
 30
0.0
 11
-203.448311
 21
-197.935157
 31
0.0
  0
LINE
  5
347
100
AcDbEntity
  8
2
370
    50
100
AcDbLine
 10
-191.448311
 20
-197.935157
 30
0.0
 11
-203.448311
 21
-197.935157
 31
0.0
  0
LINE
  5
348
100
AcDbEntity
  8
2
370
    50
100
AcDbLine
 10
-204.698565
 20
-169.435157
 30
0.0
 11
-190.198565
 21
-169.435157
 31
0.0
  0
LINE
  5
349
100
AcDbEntity
  8
2
370
    50
100
AcDbLine
 10
-204.348565
 20
-175.435157
 30
0.0
 11
-190.548565
 21
-175.435157
 31
0.0
  0
LINE
  5
34A
100
AcDbEntity
  8
2
370
    50
100
AcDbLine
 10
-204.348565
 20
-177.935157
 30
0.0
 11
-190.548565
 21
-177.935157
 31
0.0
  0
LINE
  5
34B
100
AcDbEntity
  8
2
370
    50
100
AcDbLine
 10
-204.348565
 20
-182.935157
 30
0.0
 11
-190.548565
 21
-182.935157
 31
0.0
  0
LINE
  5
34C
100
AcDbEntity
  8
2
370
    50
100
AcDbLine
 10
-204.348565
 20
-185.435157
 30
0.0
 11
-190.548565
 21
-185.435157
 31
0.0
  0
LINE
  5
34D
100
AcDbEntity
  8
2
370
    50
100
AcDbLine
 10
-204.348565
 20
-190.435157
 30
0.0
 11
-190.548565
 21
-190.435157
 31
0.0
  0
LINE
  5
34E
100
AcDbEntity
  8
2
370
    50
100
AcDbLine
 10
-204.348565
 20
-192.935157
 30
0.0
 11
-190.548565
 21
-192.935157
 31
0.0
  0
LINE
  5
34F
100
AcDbEntity
  8
2
370
    50
100
AcDbLine
 10
-204.698565
 20
-193.695091
 30
0.0
 11
-204.698565
 21
-196.435157
 31
0.0
  0
LINE
  5
350
100
AcDbEntity
  8
2
370
    50
100
AcDbLine
 10
-204.698565
 20
-186.195091
 30
0.0
 11
-204.698565
 21
-189.675223
 31
0.0
  0
LINE
  5
351
100
AcDbEntity
  8
2
370
    50
100
AcDbLine
 10
-204.698565
 20
-169.435157
 30
0.0
 11
-204.698565
 21
-174.675223
 31
0.0
  0
LINE
  5
352
100
AcDbEntity
  8
2
370
    50
100
AcDbLine
 10
-204.698565
 20
-178.695091
 30
0.0
 11
-204.698565
 21
-182.175223
 31
0.0
  0
LINE
  5
353
100
AcDbEntity
  8
2
370
    50
100
AcDbLine
 10
-190.198565
 20
-193.695091
 30
0.0
 11
-190.198565
 21
-196.435157
 31
0.0
  0
LINE
  5
354
100
AcDbEntity
  8
2
370
    50
100
AcDbLine
 10
-190.198565
 20
-186.195091
 30
0.0
 11
-190.198565
 21
-189.675223
 31
0.0
  0
LINE
  5
355
100
AcDbEntity
  8
2
370
    50
100
AcDbLine
 10
-190.198565
 20
-169.435157
 30
0.0
 11
-190.198565
 21
-174.675223
 31
0.0
  0
LINE
  5
356
100
AcDbEntity
  8
2
370
    50
100
AcDbLine
 10
-190.198565
 20
-178.695091
 30
0.0
 11
-190.198565
 21
-182.175223
 31
0.0
  0
LINE
  5
357
100
AcDbEntity
  8
2
370
    50
100
AcDbLine
 10
-204.348565
 20
-190.435157
 30
0.0
 11
-204.348565
 21
-192.935157
 31
0.0
  0
LINE
  5
358
100
AcDbEntity
  8
2
370
    50
100
AcDbLine
 10
-190.548565
 20
-190.435157
 30
0.0
 11
-190.548565
 21
-192.935157
 31
0.0
  0
LINE
  5
359
100
AcDbEntity
  8
2
370
    50
100
AcDbLine
 10
-204.348565
 20
-175.435157
 30
0.0
 11
-204.348565
 21
-177.935157
 31
0.0
  0
LINE
  5
35A
100
AcDbEntity
  8
2
370
    50
100
AcDbLine
 10
-204.348565
 20
-182.935157
 30
0.0
 11
-204.348565
 21
-185.435157
 31
0.0
  0
LINE
  5
35B
100
AcDbEntity
  8
2
370
    50
100
AcDbLine
 10
-190.548565
 20
-175.435157
 30
0.0
 11
-190.548565
 21
-177.935157
 31
0.0
  0
LINE
  5
35C
100
AcDbEntity
  8
2
370
    50
100
AcDbLine
 10
-190.548565
 20
-182.935157
 30
0.0
 11
-190.548565
 21
-185.435157
 31
0.0
  0
LINE
  5
35D
100
AcDbEntity
  8
2
370
    50
100
AcDbLine
 10
-190.548565
 20
-169.435157
 30
0.0
 11
-190.548565
 21
-137.357422
 31
0.0
  0
LINE
  5
35E
100
AcDbEntity
  8
2
370
    50
100
AcDbLine
 10
-204.348565
 20
-169.435157
 30
0.0
 11
-204.348565
 21
-137.357422
 31
0.0
  0
ARC
  5
35F
100
AcDbEntity
  8
2
370
    50
100
AcDbCircle
 10
-191.198565
 20
-193.695091
 30
0.0
 40
1.0
100
AcDbArc
 50
0.0
 51
49.458398
  0
ARC
  5
360
100
AcDbEntity
  8
2
370
    50
100
AcDbCircle
 10
-191.198565
 20
-189.675223
 30
0.0
 40
1.0
100
AcDbArc
 50
310.541602
 51
360.0
  0
ARC
  5
361
100
AcDbEntity
  8
2
370
    50
100
AcDbCircle
 10
-191.198565
 20
-186.195091
 30
0.0
 40
1.0
100
AcDbArc
 50
0.0
 51
49.458398
  0
ARC
  5
362
100
AcDbEntity
  8
2
370
    50
100
AcDbCircle
 10
-191.198565
 20
-182.175223
 30
0.0
 40
1.0
100
AcDbArc
 50
310.541602
 51
360.0
  0
ARC
  5
363
100
AcDbEntity
  8
2
370
    50
100
AcDbCircle
 10
-191.198565
 20
-178.695091
 30
0.0
 40
1.0
100
AcDbArc
 50
0.0
 51
49.458398
  0
ARC
  5
364
100
AcDbEntity
  8
2
370
    50
100
AcDbCircle
 10
-191.198565
 20
-174.675223
 30
0.0
 40
1.0
100
AcDbArc
 50
310.541602
 51
360.0
  0
ARC
  5
365
100
AcDbEntity
  8
2
370
    50
100
AcDbCircle
 10
-203.698565
 20
-193.695091
 30
0.0
 40
1.0
100
AcDbArc
 50
130.541602
 51
180.0
  0
ARC
  5
366
100
AcDbEntity
  8
2
370
    50
100
AcDbCircle
 10
-203.698565
 20
-189.675223
 30
0.0
 40
1.0
100
AcDbArc
 50
180.0
 51
229.458398
  0
ARC
  5
367
100
AcDbEntity
  8
2
370
    50
100
AcDbCircle
 10
-203.698565
 20
-186.195091
 30
0.0
 40
1.0
100
AcDbArc
 50
130.541602
 51
180.0
  0
ARC
  5
368
100
AcDbEntity
  8
2
370
    50
100
AcDbCircle
 10
-203.698565
 20
-182.175223
 30
0.0
 40
1.0
100
AcDbArc
 50
180.0
 51
229.458398
  0
ARC
  5
369
100
AcDbEntity
  8
2
370
    50
100
AcDbCircle
 10
-203.698565
 20
-178.695091
 30
0.0
 40
1.0
100
AcDbArc
 50
130.541602
 51
180.0
  0
ARC
  5
36A
100
AcDbEntity
  8
2
370
    50
100
AcDbCircle
 10
-203.698565
 20
-174.675223
 30
0.0
 40
1.0
100
AcDbArc
 50
180.0
 51
229.458398
  0
ARC
  5
36B
100
AcDbEntity
  8
2
370
    50
100
AcDbCircle
 10
-191.198565
 20
-196.435157
 30
0.0
 40
1.0
100
AcDbArc
 50
270.0
 51
360.0
  0
ARC
  5
36C
100
AcDbEntity
  8
2
370
    50
100
AcDbCircle
 10
-203.698565
 20
-196.435157
 30
0.0
 40
1.0
100
AcDbArc
 50
180.0
 51
270.0
  0
LINE
  5
36D
100
AcDbEntity
  8
2
370
    50
100
AcDbLine
 10
-203.698565
 20
-197.435157
 30
0.0
 11
-191.198565
 21
-197.435157
 31
0.0
  0
ARC
  5
36E
100
AcDbEntity
  8
2
370
    50
100
AcDbCircle
 10
-200.898438
 20
-132.914513
 30
0.0
 40
5.750212
100
AcDbArc
 50
233.130102
 51
306.869898
  0
ARC
  5
36F
100
AcDbEntity
  8
2
370
    50
100
AcDbCircle
 10
-193.998185
 20
-142.114852
 30
0.0
 40
5.750212
100
AcDbArc
 50
53.130102
 51
126.869898
  0
ARC
  5
370
100
AcDbEntity
  8
2
370
    50
100
AcDbCircle
 10
-200.898438
 20
-142.114852
 30
0.0
 40
5.750212
100
AcDbArc
 50
53.130102
 51
126.869898
  0
LINE
  5
371
100
AcDbEntity
  8
2
370
    50
100
AcDbLine
 10
-207.448565
 20
-210.435465
 30
0.0
 11
-187.448565
 21
-210.435465
 31
0.0
  0
LINE
  5
372
100
AcDbEntity
  8
2
370
    50
100
AcDbLine
 10
-187.448565
 20
-198.435465
 30
0.0
 11
-197.448311
 21
-198.435465
 31
0.0
  0
LINE
  5
373
100
AcDbEntity
  8
2
370
    50
100
AcDbLine
 10
-197.448311
 20
-198.435465
 30
0.0
 11
-207.448565
 21
-198.435465
 31
0.0
  0
POINT
  5
374
100
AcDbEntity
  8
2
370
    50
100
AcDbPoint
 10
-197.448311
 20
-198.435465
 30
0.0
  0
LINE
  5
375
100
AcDbEntity
  8
2
370
    50
100
AcDbLine
 10
-186.448565
 20
-199.012815
 30
0.0
 11
-186.448565
 21
-209.858114
 31
0.0
  0
LINE
  5
376
100
AcDbEntity
  8
2
370
    50
100
AcDbLine
 10
-187.448565
 20
-198.435465
 30
0.0
 11
-186.448565
 21
-199.012815
 31
0.0
  0
LINE
  5
377
100
AcDbEntity
  8
2
370
    50
100
AcDbLine
 10
-187.448565
 20
-210.435465
 30
0.0
 11
-186.448565
 21
-209.858114
 31
0.0
  0
LINE
  5
378
100
AcDbEntity
  8
2
370
    50
100
AcDbLine
 10
-191.079599
 20
-199.012815
 30
0.0
 11
-191.079599
 21
-209.858114
 31
0.0
  0
LINE
  5
379
100
AcDbEntity
  8
2
370
    50
100
AcDbLine
 10
-192.86599
 20
-199.012815
 30
0.0
 11
-192.86599
 21
-209.858114
 31
0.0
  0
LINE
  5
37A
100
AcDbEntity
  8
2
370
    50
100
AcDbLine
 10
-191.079599
 20
-199.012815
 30
0.0
 11
-192.86599
 21
-199.012815
 31
0.0
  0
ARC
  5
37B
100
AcDbEntity
  8
2
370
    50
100
AcDbCircle
 10
-197.448311
 20
-216.908658
 30
0.0
 40
18.473194
100
AcDbArc
 50
75.637701
 51
90.000787
  0
ARC
  5
37C
100
AcDbEntity
  8
2
370
    50
100
AcDbCircle
 10
-188.764082
 20
-203.367438
 30
0.0
 40
4.931973
100
AcDbArc
 50
61.998739
 51
118.001261
  0
ARC
  5
37D
100
AcDbEntity
  8
2
370
    50
100
AcDbCircle
 10
-188.764082
 20
-205.503492
 30
0.0
 40
4.931973
100
AcDbArc
 50
241.998739
 51
298.001261
  0
ARC
  5
37E
100
AcDbEntity
  8
2
370
    50
100
AcDbCircle
 10
-197.448311
 20
-191.962271
 30
0.0
 40
18.473194
100
AcDbArc
 50
269.999213
 51
284.362299
  0
LINE
  5
37F
100
AcDbEntity
  8
2
370
    50
100
AcDbLine
 10
-191.079599
 20
-209.858114
 30
0.0
 11
-192.86599
 21
-209.858114
 31
0.0
  0
LINE
  5
380
100
AcDbEntity
  8
2
370
    50
100
AcDbLine
 10
-202.031141
 20
-199.012815
 30
0.0
 11
-202.031141
 21
-209.858114
 31
0.0
  0
LINE
  5
381
100
AcDbEntity
  8
2
370
    50
100
AcDbLine
 10
-203.817532
 20
-199.012815
 30
0.0
 11
-203.817532
 21
-209.858114
 31
0.0
  0
LINE
  5
382
100
AcDbEntity
  8
2
370
    50
100
AcDbLine
 10
-203.817532
 20
-199.012815
 30
0.0
 11
-202.031141
 21
-199.012815
 31
0.0
  0
ARC
  5
383
100
AcDbEntity
  8
2
370
    50
100
AcDbCircle
 10
-197.448819
 20
-216.908658
 30
0.0
 40
18.473194
100
AcDbArc
 50
89.999213
 51
104.362299
  0
ARC
  5
384
100
AcDbEntity
  8
2
370
    50
100
AcDbCircle
 10
-206.133048
 20
-203.367438
 30
0.0
 40
4.931973
100
AcDbArc
 50
61.998739
 51
118.001261
  0
LINE
  5
385
100
AcDbEntity
  8
2
370
    50
100
AcDbLine
 10
-203.817532
 20
-209.858114
 30
0.0
 11
-202.031141
 21
-209.858114
 31
0.0
  0
ARC
  5
386
100
AcDbEntity
  8
2
370
    50
100
AcDbCircle
 10
-197.448819
 20
-191.962271
 30
0.0
 40
18.473194
100
AcDbArc
 50
255.637701
 51
270.000787
  0
ARC
  5
387
100
AcDbEntity
  8
2
370
    50
100
AcDbCircle
 10
-206.133048
 20
-205.503492
 30
0.0
 40
4.931973
100
AcDbArc
 50
241.998739
 51
298.001261
  0
LINE
  5
388
100
AcDbEntity
  8
2
370
    50
100
AcDbLine
 10
-207.448565
 20
-210.435465
 30
0.0
 11
-208.448565
 21
-209.858114
 31
0.0
  0
LINE
  5
389
100
AcDbEntity
  8
2
370
    50
100
AcDbLine
 10
-207.448565
 20
-198.435465
 30
0.0
 11
-208.448565
 21
-199.012815
 31
0.0
  0
LINE
  5
38A
100
AcDbEntity
  8
2
370
    50
100
AcDbLine
 10
-208.448565
 20
-199.012815
 30
0.0
 11
-208.448565
 21
-209.858114
 31
0.0
  0
LINE
  5
38B
100
AcDbEntity
  8
2
370
    50
100
AcDbLine
 10
-197.448311
 20
-225.435465
 30
0.0
 11
-185.448311
 21
-225.435465
 31
0.0
  0
LINE
  5
38C
100
AcDbEntity
  8
2
370
    50
100
AcDbLine
 10
-197.448311
 20
-214.435465
 30
0.0
 11
-185.448311
 21
-214.435465
 31
0.0
  0
LINE
  5
38D
100
AcDbEntity
  8
2
370
    50
100
AcDbLine
 10
-185.448311
 20
-214.435465
 30
0.0
 11
-184.448311
 21
-215.435465
 31
0.0
  0
LINE
  5
38E
100
AcDbEntity
  8
2
370
    50
100
AcDbLine
 10
-189.556007
 20
-215.435465
 30
0.0
 11
-192.448311
 21
-215.435465
 31
0.0
  0
ARC
  5
38F
100
AcDbEntity
  8
2
370
    50
100
AcDbCircle
 10
-187.002159
 20
-218.196533
 30
0.0
 40
3.761069
100
AcDbArc
 50
47.232751
 51
132.767249
  0
ARC
  5
390
100
AcDbEntity
  8
2
370
    50
100
AcDbCircle
 10
-197.448311
 20
-227.435465
 30
0.0
 40
13.0
100
AcDbArc
 50
67.380135
 51
90.0
  0
ARC
  5
391
100
AcDbEntity
  8
2
370
    50
100
AcDbCircle
 10
-187.002159
 20
-221.674396
 30
0.0
 40
3.761069
100
AcDbArc
 50
227.232751
 51
312.767249
  0
ARC
  5
392
100
AcDbEntity
  8
2
370
    50
100
AcDbCircle
 10
-197.448311
 20
-212.435465
 30
0.0
 40
13.0
100
AcDbArc
 50
270.0
 51
292.619865
  0
LINE
  5
393
100
AcDbEntity
  8
2
370
    50
100
AcDbLine
 10
-185.448311
 20
-225.435465
 30
0.0
 11
-184.448311
 21
-224.435465
 31
0.0
  0
LINE
  5
394
100
AcDbEntity
  8
2
370
    50
100
AcDbLine
 10
-192.448311
 20
-224.435465
 30
0.0
 11
-189.556007
 21
-224.435465
 31
0.0
  0
LINE
  5
395
100
AcDbEntity
  8
2
370
    50
100
AcDbLine
 10
-189.098311
 20
-214.435465
 30
0.0
 11
-189.098311
 21
-210.435465
 31
0.0
  0
LINE
  5
396
100
AcDbEntity
  8
2
370
    25
100
AcDbLine
 10
-189.948311
 20
-212.435465
 30
0.0
 11
-189.948311
 21
-210.435465
 31
0.0
  0
LINE
  5
397
100
AcDbEntity
  8
2
370
    50
100
AcDbLine
 10
-189.948311
 20
-212.435465
 30
0.0
 11
-189.098311
 21
-213.285465
 31
0.0
  0
LINE
  5
398
100
AcDbEntity
  8
2
370
    25
100
AcDbLine
 10
-189.098311
 20
-212.435465
 30
0.0
 11
-197.448311
 21
-212.435465
 31
0.0
  0
LINE
  5
399
100
AcDbEntity
  8
2
370
    50
100
AcDbLine
 10
-188.806007
 20
-219.935465
 30
0.0
 11
-193.948311
 21
-219.935465
 31
0.0
  0
LINE
  5
39A
100
AcDbEntity
  8
2
370
    50
100
AcDbLine
 10
-184.948311
 20
-219.935465
 30
0.0
 11
-184.448311
 21
-219.435465
 31
0.0
  0
LINE
  5
39B
100
AcDbEntity
  8
2
370
    50
100
AcDbLine
 10
-184.948311
 20
-219.935465
 30
0.0
 11
-184.448311
 21
-220.435465
 31
0.0
  0
LINE
  5
39C
100
AcDbEntity
  8
2
370
    50
100
AcDbLine
 10
-189.556007
 20
-219.435465
 30
0.0
 11
-192.448311
 21
-219.435465
 31
0.0
  0
LINE
  5
39D
100
AcDbEntity
  8
2
370
    50
100
AcDbLine
 10
-184.448311
 20
-224.435465
 30
0.0
 11
-184.448311
 21
-220.435465
 31
0.0
  0
LINE
  5
39E
100
AcDbEntity
  8
2
370
    50
100
AcDbLine
 10
-184.448311
 20
-219.435465
 30
0.0
 11
-184.448311
 21
-215.435465
 31
0.0
  0
LINE
  5
39F
100
AcDbEntity
  8
2
370
    50
100
AcDbLine
 10
-189.556007
 20
-220.435465
 30
0.0
 11
-192.448311
 21
-220.435465
 31
0.0
  0
LINE
  5
3A0
100
AcDbEntity
  8
2
370
    50
100
AcDbLine
 10
-192.448311
 20
-219.435465
 30
0.0
 11
-193.948311
 21
-219.935465
 31
0.0
  0
LINE
  5
3A1
100
AcDbEntity
  8
2
370
    50
100
AcDbLine
 10
-189.556007
 20
-219.435465
 30
0.0
 11
-188.806007
 21
-219.935465
 31
0.0
  0
LINE
  5
3A2
100
AcDbEntity
  8
2
370
    50
100
AcDbLine
 10
-189.556007
 20
-220.435465
 30
0.0
 11
-188.806007
 21
-219.935465
 31
0.0
  0
LINE
  5
3A3
100
AcDbEntity
  8
2
370
    50
100
AcDbLine
 10
-192.448311
 20
-220.435465
 30
0.0
 11
-193.948311
 21
-219.935465
 31
0.0
  0
LINE
  5
3A4
100
AcDbEntity
  8
2
370
    50
100
AcDbLine
 10
-192.448311
 20
-224.435465
 30
0.0
 11
-192.448311
 21
-220.435465
 31
0.0
  0
LINE
  5
3A5
100
AcDbEntity
  8
2
370
    50
100
AcDbLine
 10
-192.448311
 20
-219.435465
 30
0.0
 11
-192.448311
 21
-215.435465
 31
0.0
  0
LINE
  5
3A6
100
AcDbEntity
  8
2
370
    50
100
AcDbLine
 10
-189.556007
 20
-224.435465
 30
0.0
 11
-189.556007
 21
-220.435465
 31
0.0
  0
LINE
  5
3A7
100
AcDbEntity
  8
2
370
    50
100
AcDbLine
 10
-189.556007
 20
-219.435465
 30
0.0
 11
-189.556007
 21
-215.435465
 31
0.0
  0
LINE
  5
3A8
100
AcDbEntity
  8
2
370
    50
100
AcDbLine
 10
-184.948311
 20
-219.935465
 30
0.0
 11
-185.306007
 21
-219.935465
 31
0.0
  0
LINE
  5
3A9
100
AcDbEntity
  8
2
370
    50
100
AcDbLine
 10
-184.448311
 20
-219.435465
 30
0.0
 11
-185.306007
 21
-219.935465
 31
0.0
  0
LINE
  5
3AA
100
AcDbEntity
  8
2
370
    50
100
AcDbLine
 10
-184.448311
 20
-220.435465
 30
0.0
 11
-185.306007
 21
-219.935465
 31
0.0
  0
POINT
  5
3AB
100
AcDbEntity
  8
2
370
    50
100
AcDbPoint
 10
-197.448311
 20
-218.435465
 30
0.0
  0
LINE
  5
3AC
100
AcDbEntity
  8
2
370
    50
100
AcDbLine
 10
-197.448311
 20
-225.435465
 30
0.0
 11
-209.448311
 21
-225.435465
 31
0.0
  0
LINE
  5
3AD
100
AcDbEntity
  8
2
370
    50
100
AcDbLine
 10
-197.448311
 20
-214.435465
 30
0.0
 11
-209.448311
 21
-214.435465
 31
0.0
  0
LINE
  5
3AE
100
AcDbEntity
  8
2
370
    50
100
AcDbLine
 10
-209.448311
 20
-214.435465
 30
0.0
 11
-210.448311
 21
-215.435465
 31
0.0
  0
LINE
  5
3AF
100
AcDbEntity
  8
2
370
    50
100
AcDbLine
 10
-205.340616
 20
-215.435465
 30
0.0
 11
-202.448311
 21
-215.435465
 31
0.0
  0
ARC
  5
3B0
100
AcDbEntity
  8
2
370
    50
100
AcDbCircle
 10
-207.894464
 20
-218.196533
 30
0.0
 40
3.761069
100
AcDbArc
 50
47.232751
 51
132.767249
  0
ARC
  5
3B1
100
AcDbEntity
  8
2
370
    50
100
AcDbCircle
 10
-197.448311
 20
-227.435465
 30
0.0
 40
13.0
100
AcDbArc
 50
90.0
 51
112.619865
  0
ARC
  5
3B2
100
AcDbEntity
  8
2
370
    50
100
AcDbCircle
 10
-207.894464
 20
-221.674396
 30
0.0
 40
3.761069
100
AcDbArc
 50
227.232751
 51
312.767249
  0
ARC
  5
3B3
100
AcDbEntity
  8
2
370
    50
100
AcDbCircle
 10
-197.448311
 20
-212.435465
 30
0.0
 40
13.0
100
AcDbArc
 50
247.380135
 51
270.0
  0
LINE
  5
3B4
100
AcDbEntity
  8
2
370
    50
100
AcDbLine
 10
-209.448311
 20
-225.435465
 30
0.0
 11
-210.448311
 21
-224.435465
 31
0.0
  0
LINE
  5
3B5
100
AcDbEntity
  8
2
370
    50
100
AcDbLine
 10
-202.448311
 20
-224.435465
 30
0.0
 11
-205.340616
 21
-224.435465
 31
0.0
  0
LINE
  5
3B6
100
AcDbEntity
  8
2
370
    50
100
AcDbLine
 10
-205.798311
 20
-214.435465
 30
0.0
 11
-205.798311
 21
-210.435465
 31
0.0
  0
LINE
  5
3B7
100
AcDbEntity
  8
2
370
    25
100
AcDbLine
 10
-204.948311
 20
-212.435465
 30
0.0
 11
-204.948311
 21
-210.435465
 31
0.0
  0
LINE
  5
3B8
100
AcDbEntity
  8
2
370
    50
100
AcDbLine
 10
-204.948311
 20
-212.435465
 30
0.0
 11
-205.798311
 21
-213.285465
 31
0.0
  0
LINE
  5
3B9
100
AcDbEntity
  8
2
370
    25
100
AcDbLine
 10
-205.798311
 20
-212.435465
 30
0.0
 11
-197.448311
 21
-212.435465
 31
0.0
  0
LINE
  5
3BA
100
AcDbEntity
  8
2
370
    50
100
AcDbLine
 10
-206.090616
 20
-219.935465
 30
0.0
 11
-200.948311
 21
-219.935465
 31
0.0
  0
LINE
  5
3BB
100
AcDbEntity
  8
2
370
    50
100
AcDbLine
 10
-209.948311
 20
-219.935465
 30
0.0
 11
-210.448311
 21
-219.435465
 31
0.0
  0
LINE
  5
3BC
100
AcDbEntity
  8
2
370
    50
100
AcDbLine
 10
-209.948311
 20
-219.935465
 30
0.0
 11
-210.448311
 21
-220.435465
 31
0.0
  0
LINE
  5
3BD
100
AcDbEntity
  8
2
370
    50
100
AcDbLine
 10
-205.340616
 20
-219.435465
 30
0.0
 11
-202.448311
 21
-219.435465
 31
0.0
  0
LINE
  5
3BE
100
AcDbEntity
  8
2
370
    50
100
AcDbLine
 10
-210.448311
 20
-224.435465
 30
0.0
 11
-210.448311
 21
-220.435465
 31
0.0
  0
LINE
  5
3BF
100
AcDbEntity
  8
2
370
    50
100
AcDbLine
 10
-210.448311
 20
-219.435465
 30
0.0
 11
-210.448311
 21
-215.435465
 31
0.0
  0
LINE
  5
3C0
100
AcDbEntity
  8
2
370
    50
100
AcDbLine
 10
-205.340616
 20
-220.435465
 30
0.0
 11
-202.448311
 21
-220.435465
 31
0.0
  0
LINE
  5
3C1
100
AcDbEntity
  8
2
370
    50
100
AcDbLine
 10
-202.448311
 20
-219.435465
 30
0.0
 11
-200.948311
 21
-219.935465
 31
0.0
  0
LINE
  5
3C2
100
AcDbEntity
  8
2
370
    50
100
AcDbLine
 10
-205.340616
 20
-219.435465
 30
0.0
 11
-206.090616
 21
-219.935465
 31
0.0
  0
LINE
  5
3C3
100
AcDbEntity
  8
2
370
    50
100
AcDbLine
 10
-205.340616
 20
-220.435465
 30
0.0
 11
-206.090616
 21
-219.935465
 31
0.0
  0
LINE
  5
3C4
100
AcDbEntity
  8
2
370
    50
100
AcDbLine
 10
-202.448311
 20
-220.435465
 30
0.0
 11
-200.948311
 21
-219.935465
 31
0.0
  0
LINE
  5
3C5
100
AcDbEntity
  8
2
370
    50
100
AcDbLine
 10
-202.448311
 20
-224.435465
 30
0.0
 11
-202.448311
 21
-220.435465
 31
0.0
  0
LINE
  5
3C6
100
AcDbEntity
  8
2
370
    50
100
AcDbLine
 10
-202.448311
 20
-219.435465
 30
0.0
 11
-202.448311
 21
-215.435465
 31
0.0
  0
LINE
  5
3C7
100
AcDbEntity
  8
2
370
    50
100
AcDbLine
 10
-205.340616
 20
-224.435465
 30
0.0
 11
-205.340616
 21
-220.435465
 31
0.0
  0
LINE
  5
3C8
100
AcDbEntity
  8
2
370
    50
100
AcDbLine
 10
-205.340616
 20
-219.435465
 30
0.0
 11
-205.340616
 21
-215.435465
 31
0.0
  0
LINE
  5
3C9
100
AcDbEntity
  8
2
370
    50
100
AcDbLine
 10
-209.948311
 20
-219.935465
 30
0.0
 11
-209.590616
 21
-219.935465
 31
0.0
  0
LINE
  5
3CA
100
AcDbEntity
  8
2
370
    50
100
AcDbLine
 10
-210.448311
 20
-219.435465
 30
0.0
 11
-209.590616
 21
-219.935465
 31
0.0
  0
LINE
  5
3CB
100
AcDbEntity
  8
2
370
    50
100
AcDbLine
 10
-210.448311
 20
-220.435465
 30
0.0
 11
-209.590616
 21
-219.935465
 31
0.0
  0
ARC
  5
3CC
100
AcDbEntity
  8
2
370
    50
100
AcDbCircle
 10
145.273033
 20
57.202101
 30
0.0
 40
56.0
100
AcDbArc
 50
178.814366
 51
179.735275
  0
ARC
  5
3CD
100
AcDbEntity
  8
2
370
    50
100
AcDbCircle
 10
62.27092
 20
57.202101
 30
0.0
 40
56.0
100
AcDbArc
 50
0.264725
 51
7.022942
  0
ARC
  5
3CE
100
AcDbEntity
  8
2
370
    50
100
AcDbCircle
 10
-198.635098
 20
57.202101
 30
0.0
 40
56.0
100
AcDbArc
 50
178.814366
 51
179.735275
  0
ARC
  5
3CF
100
AcDbEntity
  8
2
370
    50
100
AcDbCircle
 10
-281.63721
 20
57.202101
 30
0.0
 40
56.0
100
AcDbArc
 50
0.264725
 51
1.185634
  0
ARC
  5
3D0
100
AcDbEntity
  8
2
370
    50
100
AcDbCircle
 10
279.939224
 20
57.202101
 30
0.0
 40
56.0
100
AcDbArc
 50
172.977058
 51
179.735275
  0
ARC
  5
3D1
100
AcDbEntity
  8
2
370
    50
100
AcDbCircle
 10
196.937111
 20
57.202101
 30
0.0
 40
56.0
100
AcDbArc
 50
0.264725
 51
1.185634
  0
LINE
  5
3D2
100
AcDbEntity
  8
2
370
    50
100
AcDbLine
 10
371.438168
 20
27.960839
 30
0.0
 11
255.938168
 21
27.960839
 31
0.0
  0
LINE
  5
3D3
100
AcDbEntity
  8
2
370
    50
100
AcDbLine
 10
371.938168
 20
27.460839
 30
0.0
 11
371.938168
 21
7.460839
 31
0.0
  0
LINE
  5
3D4
100
AcDbEntity
  8
2
370
    50
100
AcDbLine
 10
371.438168
 20
27.960839
 30
0.0
 11
371.938168
 21
27.460839
 31
0.0
  0
LINE
  5
3D5
100
AcDbEntity
  8
2
370
    50
100
AcDbLine
 10
371.938168
 20
7.460839
 30
0.0
 11
371.438168
 21
6.960839
 31
0.0
  0
LINE
  5
3D6
100
AcDbEntity
  8
2
370
    50
100
AcDbLine
 10
371.438168
 20
6.960839
 30
0.0
 11
369.603751
 21
6.960839
 31
0.0
  0
LINE
  5
3D7
100
AcDbEntity
  8
2
370
    50
100
AcDbLine
 10
349.916462
 20
6.960839
 30
0.0
 11
255.938168
 21
6.960839
 31
0.0
  0
LINE
  5
3D8
100
AcDbEntity
  8
2
370
    50
100
AcDbLine
 10
353.342513
 20
-1.575016
 30
0.0
 11
361.752693
 21
1.486039
 31
0.0
  0
LINE
  5
3D9
100
AcDbEntity
  8
2
370
    50
100
AcDbLine
 10
370.163011
 20
4.547144
 30
0.0
 11
361.753494
 21
1.486331
 31
0.0
  0
LINE
  5
3DA
100
AcDbEntity
  8
2
370
    50
100
AcDbLine
 10
349.916462
 20
6.960839
 30
0.0
 11
352.957999
 21
-1.395715
 31
0.0
  0
LINE
  5
3DB
100
AcDbEntity
  8
2
370
    50
100
AcDbLine
 10
369.603751
 20
6.960839
 30
0.0
 11
370.342313
 21
4.931658
 31
0.0
  0
LINE
  5
3DC
100
AcDbEntity
  8
2
370
    50
100
AcDbLine
 10
352.957999
 20
-1.395715
 30
0.0
 11
353.342513
 21
-1.575016
 31
0.0
  0
LINE
  5
3DD
100
AcDbEntity
  8
2
370
    50
100
AcDbLine
 10
370.163011
 20
4.547144
 30
0.0
 11
370.342313
 21
4.931658
 31
0.0
  0
ARC
  5
3DE
100
AcDbEntity
  8
2
370
    25
100
AcDbCircle
 10
269.938168
 20
17.460839
 30
0.0
 40
17.5
100
AcDbArc
 50
147.181108
 51
212.29933
  0
LINE
  5
3DF
100
AcDbEntity
  8
2
370
    50
100
AcDbLine
 10
371.438168
 20
27.960839
 30
0.0
 11
371.438168
 21
6.960839
 31
0.0
  0
POINT
  5
3E0
100
AcDbEntity
  8
2
370
    50
100
AcDbPoint
 10
359.529631
 20
7.594066
 30
0.0
  0
ARC
  5
3E1
100
AcDbEntity
  8
2
370
    25
100
AcDbCircle
 10
357.746987
 20
4.107711
 30
0.0
 40
8.384128
100
AcDbArc
 50
90.0
 51
151.997723
  0
ARC
  5
3E2
100
AcDbEntity
  8
2
370
    25
100
AcDbCircle
 10
357.746987
 20
-2.98229
 30
0.0
 40
15.474128
100
AcDbArc
 50
45.451578
 51
90.0
  0
LINE
  5
3E3
100
AcDbEntity
  8
2
370
    50
100
AcDbLine
 10
370.342313
 20
4.931658
 30
0.0
 11
352.957999
 21
-1.395715
 31
0.0
  0
LINE
  5
3E4
100
AcDbEntity
  8
2
370
    50
100
AcDbLine
 10
89.77167
 20
186.061627
 30
0.0
 11
-29.22845
 21
186.061627
 31
0.0
  0
LINE
  5
3E5
100
AcDbEntity
  8
2
370
    50
100
AcDbLine
 10
89.772283
 20
207.061627
 30
0.0
 11
-29.22845
 21
207.061627
 31
0.0
  0
LINE
  5
3E6
100
AcDbEntity
  8
2
370
    50
100
AcDbLine
 10
-29.72845
 20
206.561627
 30
0.0
 11
-29.72845
 21
186.561627
 31
0.0
  0
LINE
  5
3E7
100
AcDbEntity
  8
2
370
    50
100
AcDbLine
 10
-29.22845
 20
186.061627
 30
0.0
 11
-29.72845
 21
186.561627
 31
0.0
  0
LINE
  5
3E8
100
AcDbEntity
  8
2
370
    50
100
AcDbLine
 10
-29.22845
 20
207.061627
 30
0.0
 11
-29.72845
 21
206.561627
 31
0.0
  0
LINE
  5
3E9
100
AcDbEntity
  8
2
370
    50
100
AcDbLine
 10
-29.22845
 20
207.061627
 30
0.0
 11
-29.22845
 21
186.061627
 31
0.0
  0
LINE
  5
3EA
100
AcDbEntity
  8
2
370
    50
100
AcDbLine
 10
-29.228024
 20
27.960839
 30
0.0
 11
86.271976
 21
27.960839
 31
0.0
  0
LINE
  5
3EB
100
AcDbEntity
  8
2
370
    50
100
AcDbLine
 10
-29.728024
 20
27.460839
 30
0.0
 11
-29.728024
 21
7.460839
 31
0.0
  0
LINE
  5
3EC
100
AcDbEntity
  8
2
370
    50
100
AcDbLine
 10
-29.228024
 20
27.960839
 30
0.0
 11
-29.728024
 21
27.460839
 31
0.0
  0
LINE
  5
3ED
100
AcDbEntity
  8
2
370
    50
100
AcDbLine
 10
-29.728024
 20
7.460839
 30
0.0
 11
-29.228024
 21
6.960839
 31
0.0
  0
LINE
  5
3EE
100
AcDbEntity
  8
2
370
    50
100
AcDbLine
 10
-29.228024
 20
6.960839
 30
0.0
 11
-27.393607
 21
6.960839
 31
0.0
  0
LINE
  5
3EF
100
AcDbEntity
  8
2
370
    50
100
AcDbLine
 10
-7.706318
 20
6.960839
 30
0.0
 11
86.271976
 21
6.960839
 31
0.0
  0
LINE
  5
3F0
100
AcDbEntity
  8
2
370
    50
100
AcDbLine
 10
-11.132369
 20
-1.575016
 30
0.0
 11
-19.542548
 21
1.486039
 31
0.0
  0
LINE
  5
3F1
100
AcDbEntity
  8
2
370
    50
100
AcDbLine
 10
-27.952867
 20
4.547144
 30
0.0
 11
-19.54335
 21
1.486331
 31
0.0
  0
LINE
  5
3F2
100
AcDbEntity
  8
2
370
    50
100
AcDbLine
 10
-7.706318
 20
6.960839
 30
0.0
 11
-10.747855
 21
-1.395715
 31
0.0
  0
LINE
  5
3F3
100
AcDbEntity
  8
2
370
    50
100
AcDbLine
 10
-27.393607
 20
6.960839
 30
0.0
 11
-28.132168
 21
4.931658
 31
0.0
  0
LINE
  5
3F4
100
AcDbEntity
  8
2
370
    50
100
AcDbLine
 10
-10.747855
 20
-1.395715
 30
0.0
 11
-11.132369
 21
-1.575016
 31
0.0
  0
LINE
  5
3F5
100
AcDbEntity
  8
2
370
    50
100
AcDbLine
 10
-27.952867
 20
4.547144
 30
0.0
 11
-28.132168
 21
4.931658
 31
0.0
  0
ARC
  5
3F6
100
AcDbEntity
  8
2
370
    25
100
AcDbCircle
 10
72.271976
 20
17.460839
 30
0.0
 40
17.5
100
AcDbArc
 50
327.181108
 51
32.29933
  0
LINE
  5
3F7
100
AcDbEntity
  8
2
370
    50
100
AcDbLine
 10
-29.228024
 20
27.960839
 30
0.0
 11
-29.228024
 21
6.960839
 31
0.0
  0
ARC
  5
3F8
100
AcDbEntity
  8
2
370
    25
100
AcDbCircle
 10
-15.536843
 20
4.107711
 30
0.0
 40
8.384128
100
AcDbArc
 50
27.774954
 51
90.0
  0
ARC
  5
3F9
100
AcDbEntity
  8
2
370
    25
100
AcDbCircle
 10
-15.536843
 20
-2.98229
 30
0.0
 40
15.474128
100
AcDbArc
 50
90.0
 51
136.713424
  0
LINE
  5
3FA
100
AcDbEntity
  8
2
370
    50
100
AcDbLine
 10
-28.132168
 20
4.931658
 30
0.0
 11
-10.747855
 21
-1.395715
 31
0.0
  0
CIRCLE
  5
3FB
100
AcDbEntity
  8
2
370
    50
100
AcDbCircle
 10
-240.136154
 20
17.460839
 30
0.0
 40
10.5
  0
LINE
  5
3FC
100
AcDbEntity
  8
2
370
    50
100
AcDbLine
 10
-230.886154
 20
12.492187
 30
0.0
 11
-230.886154
 21
1.767972
 31
0.0
  0
LINE
  5
3FD
100
AcDbEntity
  8
2
370
    50
100
AcDbLine
 10
-249.386154
 20
12.492187
 30
0.0
 11
-249.386154
 21
1.767972
 31
0.0
  0
LINE
  5
3FE
100
AcDbEntity
  8
2
370
    50
100
AcDbLine
 10
-231.520606
 20
0.616484
 30
0.0
 11
-231.800029
 21
0.371922
 31
0.0
  0
LINE
  5
3FF
100
AcDbEntity
  8
2
370
    50
100
AcDbLine
 10
-248.751702
 20
0.616484
 30
0.0
 11
-248.472279
 21
0.371922
 31
0.0
  0
ELLIPSE
  5
400
100
AcDbEntity
  8
2
370
    50
100
AcDbEllipse
 10
-240.136154
 20
1.486064
 30
0.0
 11
8.9499999999999993
 21
0.0
 31
0.0
210
0.0
220
0.0
230
1.0
 40
0.34202
 41
0.0
 42
6.2831849999999996
  0
ELLIPSE
  5
401
100
AcDbEntity
  8
2
370
    50
100
AcDbEllipse
 10
-240.136154
 20
1.767972
 30
0.0
 11
9.25
 21
0.0
 31
0.0
210
0.0
220
0.0
230
1.0
 40
0.34202
 41
5.9106579999999997
 42
3.5141200000000001
  0
ELLIPSE
  5
402
100
AcDbEntity
  8
2
370
    50
100
AcDbEllipse
 10
-240.136154
 20
1.486064
 30
0.0
 11
8.3499999999999996
 21
0.0
 31
0.0
210
0.0
220
0.0
230
1.0
 40
0.34202
 41
0.0
 42
6.2831849999999996
  0
CIRCLE
  5
403
100
AcDbEntity
  8
2
370
    50
100
AcDbCircle
 10
-240.136154
 20
17.460839
 30
0.0
 40
10.0
  0
TEXT
  5
404
100
AcDbEntity
  8
3
370
    50
100
AcDbText
 10
226.627838
 20
-272.447357
 30
0.0
 40
7.0
  1
外観寸法図
 72
     5
 11
260.227838
 21
-272.447357
 31
0.0
100
AcDbText
  0
TEXT
  5
405
100
AcDbEntity
  8
3
370
    50
100
AcDbText
 10
288.787354
 20
-240.051102
 30
0.0
 40
7.0
  1
１
 72
     5
 11
294.387354
 21
-240.051102
 31
0.0
100
AcDbText
  0
TEXT
  5
406
100
AcDbEntity
  8
3
370
    50
100
AcDbText
 10
303.428314
 20
-240.051102
 30
0.0
 40
7.0
  1
２
 72
     5
 11
309.028314
 21
-240.051102
 31
0.0
100
AcDbText
  0
TEXT
  5
407
100
AcDbEntity
  8
3
370
    50
100
AcDbText
 10
-208.136154
 20
-39.122861
 30
0.0
 40
7.0
  1
φ４８
 72
     5
 11
-188.536154
 21
-39.122861
 31
0.0
100
AcDbText
  0
DIMENSION
  5
408
100
AcDbEntity
  8
3
370
    25
100
AcDbDimension
  2
*D0
 10
-264.136154
 20
-40.122861
 30
0.0
 11
-240.136154
 21
-38.122861
 31
0.0
 70
     1
 71
     0
 72
     0
 41
0.0
 42
0.0
  3
Standard
100
AcDbAlignedDimension
 13
-216.136154
 23
-53.039161
 33
0.0
 14
-264.136154
 24
-53.039161
 34
0.0
  0
TEXT
  5
409
100
AcDbEntity
  8
3
370
    50
100
AcDbText
 10
-291.844818
 20
-47.54746
 30
0.0
 40
7.0
  1
５～３０
 50
90.0
 72
     5
 11
-291.844818
 21
-20.94746
 31
0.0
100
AcDbText
  0
TEXT
  5
40A
100
AcDbEntity
  8
3
370
    50
100
AcDbText
 10
-254.330078
 20
-239.108688
 30
0.0
 40
7.0
  1
Ｇ１／２
 72
     5
 11
-227.730078
 21
-239.108688
 31
0.0
100
AcDbText
  0
LWPOLYLINE
  5
40B
100
AcDbEntity
  8
3
370
    25
100
AcDbPolyline
 90
        3
 70
     0
 10
-204.257339
 20
-225.753836
 10
-225.77269
 20
-239.752991
 10
-252.507706
 20
-239.752991
  0
LINE
  5
410
100
AcDbEntity
  8
3
370
    25
100
AcDbLine
 10
-207.495861
 20
-227.861009
 30
0.0
 11
-206.931246
 21
-228.728769
 31
0.0
  0
LINE
  5
411
100
AcDbEntity
  8
3
370
    25
100
AcDbLine
 10
-206.931246
 20
-228.728769
 30
0.0
 11
-204.257339
 21
-225.753836
 31
0.0
  0
LINE
  5
412
100
AcDbEntity
  8
3
370
    25
100
AcDbLine
 10
-204.257339
 20
-225.753836
 30
0.0
 11
-208.060477
 21
-226.99325
 31
0.0
  0
LINE
  5
413
100
AcDbEntity
  8
3
370
    25
100
AcDbLine
 10
-208.060477
 20
-226.99325
 30
0.0
 11
-207.495861
 21
-227.861009
 31
0.0
  0
LWPOLYLINE
  5
414
100
AcDbEntity
  8
3
370
    25
100
AcDbPolyline
 90
        2
 70
     0
 10
-275.368134
 20
-225.753836
 10
-252.516968
 20
-239.843262
  0
LINE
  5
418
100
AcDbEntity
  8
3
370
    25
100
AcDbLine
 10
-272.079325
 20
-227.781629
 30
0.0
 11
-271.53598
 21
-226.900395
 31
0.0
  0
LINE
  5
419
100
AcDbEntity
  8
3
370
    25
100
AcDbLine
 10
-271.53598
 20
-226.900395
 30
0.0
 11
-275.368134
 21
-225.753836
 31
0.0
  0
LINE
  5
41A
100
AcDbEntity
  8
3
370
    25
100
AcDbLine
 10
-275.368134
 20
-225.753836
 30
0.0
 11
-272.62267
 21
-228.662862
 31
0.0
  0
LINE
  5
41B
100
AcDbEntity
  8
3
370
    25
100
AcDbLine
 10
-272.62267
 20
-228.662862
 30
0.0
 11
-272.079325
 21
-227.781629
 31
0.0
  0
LINE
  5
41C
100
AcDbEntity
  8
3
370
    25
100
AcDbLine
 10
-266.636154
 20
-75.550976
 30
0.0
 11
-292.634048
 21
-75.550976
 31
0.0
  0
LINE
  5
41D
100
AcDbEntity
  8
3
370
    25
100
AcDbLine
 10
-290.634048
 20
-75.550976
 30
0.0
 11
-291.669325
 21
-79.41468
 31
0.0
  0
LINE
  5
41E
100
AcDbEntity
  8
3
370
    25
100
AcDbLine
 10
-290.634048
 20
-75.550976
 30
0.0
 11
-289.598772
 21
-79.41468
 31
0.0
  0
LINE
  5
41F
100
AcDbEntity
  8
3
370
    25
100
AcDbLine
 10
-291.669325
 20
-79.41468
 30
0.0
 11
-289.598772
 21
-79.41468
 31
0.0
  0
LINE
  5
420
100
AcDbEntity
  8
3
370
    25
100
AcDbLine
 10
-290.634048
 20
-85.550976
 30
0.0
 11
-290.634048
 21
20.881195
 31
0.0
  0
LINE
  5
421
100
AcDbEntity
  8
3
370
    25
100
AcDbLine
 10
-290.634048
 20
-56.539161
 30
0.0
 11
-289.598772
 21
-52.675458
 31
0.0
  0
LINE
  5
422
100
AcDbEntity
  8
3
370
    25
100
AcDbLine
 10
-290.634048
 20
-56.539161
 30
0.0
 11
-291.669325
 21
-52.675458
 31
0.0
  0
LINE
  5
423
100
AcDbEntity
  8
3
370
    25
100
AcDbLine
 10
-289.598772
 20
-52.675458
 30
0.0
 11
-291.669325
 21
-52.675458
 31
0.0
  0
LINE
  5
424
100
AcDbEntity
  8
3
370
    25
100
AcDbLine
 10
-265.636154
 20
-56.539161
 30
0.0
 11
-292.634048
 21
-56.539161
 31
0.0
  0
POINT
  5
425
100
AcDbEntity
  8
3
370
    50
100
AcDbPoint
 10
-257.636154
 20
51.960839
 30
0.0
  0
TEXT
  5
426
100
AcDbEntity
  8
3
370
    50
100
AcDbText
 10
135.235809
 20
-111.004005
 30
0.0
 40
7.0
  1
１３六角
 72
     5
 11
161.835809
 21
-111.004005
 31
0.0
100
AcDbText
  0
LWPOLYLINE
  5
427
100
AcDbEntity
  8
3
370
    25
100
AcDbPolyline
 90
        3
 70
     0
 10
120.309807
 20
-102.26503
 10
134.545258
 20
-112.307991
 10
164.481476
 20
-112.307991
  0
LINE
  5
42C
100
AcDbEntity
  8
3
370
    25
100
AcDbLine
 10
123.466912
 20
-104.492335
 30
0.0
 11
124.063717
 21
-103.646391
 31
0.0
  0
LINE
  5
42D
100
AcDbEntity
  8
3
370
    25
100
AcDbLine
 10
124.063717
 20
-103.646391
 30
0.0
 11
120.309807
 21
-102.26503
 31
0.0
  0
LINE
  5
42E
100
AcDbEntity
  8
3
370
    25
100
AcDbLine
 10
120.309807
 20
-102.26503
 30
0.0
 11
122.870108
 21
-105.338279
 31
0.0
  0
LINE
  5
42F
100
AcDbEntity
  8
3
370
    25
100
AcDbLine
 10
122.870108
 20
-105.338279
 30
0.0
 11
123.466912
 21
-104.492335
 31
0.0
  0
POINT
  5
430
100
AcDbEntity
  8
3
370
    50
100
AcDbPoint
 10
103.771976
 20
-49.911161
 30
0.0
  0
POINT
  5
431
100
AcDbEntity
  8
3
370
    50
100
AcDbPoint
 10
103.771976
 20
-49.911161
 30
0.0
  0
TEXT
  5
432
100
AcDbEntity
  8
3
370
    50
100
AcDbText
 10
29.530751
 20
61.9002
 30
0.0
 40
7.0
  1
止水
 72
     5
 11
42.130751
 21
61.9002
 31
0.0
100
AcDbText
  0
TEXT
  5
433
100
AcDbEntity
  8
3
370
    50
100
AcDbText
 10
67.054295
 20
100.153099
 30
0.0
 40
7.0
  1
吐水
 72
     5
 11
79.654295
 21
100.153099
 31
0.0
100
AcDbText
  0
POINT
  5
434
100
AcDbEntity
  8
3
370
    50
100
AcDbPoint
 10
40.709314
 20
107.189038
 30
0.0
  0
TEXT
  5
435
100
AcDbEntity
  8
3
370
    50
100
AcDbText
 10
-80.638245
 20
14.824938
 30
0.0
 40
7.0
  1
１６４
 50
90.0
 72
     5
 11
-80.638245
 21
34.424938
 31
0.0
100
AcDbText
  0
DIMENSION
  5
436
100
AcDbEntity
  8
3
370
    25
100
AcDbDimension
  2
*D1
 10
-79.638245
 20
107.189038
 30
0.0
 11
-82.138245
 21
25.324938
 31
0.0
 71
     0
 72
     0
 41
0.0
 42
0.0
  3
Standard
100
AcDbAlignedDimension
 13
80.271976
 23
-56.539161
 33
0.0
 14
40.709314
 24
107.189038
 34
0.0
 50
90.0
100
AcDbRotatedDimension
  0
POINT
  5
437
100
AcDbEntity
  8
3
370
    50
100
AcDbPoint
 10
129.362859
 20
75.68482
 30
0.0
  0
TEXT
  5
438
100
AcDbEntity
  8
3
370
    50
100
AcDbText
 10
109.567418
 20
100.76532
 30
0.0
 40
7.0
  1
２６
 72
     5
 11
122.167418
 21
100.76532
 31
0.0
100
AcDbText
  0
DIMENSION
  5
439
100
AcDbEntity
  8
3
370
    25
100
AcDbDimension
  2
*D2
 10
129.362859
 20
99.76532
 30
0.0
 11
116.567418
 21
101.76532
 31
0.0
 71
     0
 72
     0
 41
0.0
 42
0.0
  3
Standard
100
AcDbAlignedDimension
 13
103.771976
 23
85.695892
 33
0.0
 14
129.362859
 24
75.68482
 34
0.0
100
AcDbRotatedDimension
  0
TEXT
  5
43A
100
AcDbEntity
  8
3
370
    50
100
AcDbText
 10
120.522293
 20
221.210754
 30
0.0
 40
7.0
  1
湯表示
 72
     5
 11
140.122293
 21
221.210754
 31
0.0
100
AcDbText
  0
LWPOLYLINE
  5
43B
100
AcDbEntity
  8
3
370
    25
100
AcDbPolyline
 90
        2
 70
     0
 10
107.988739
 20
210.37323
 10
119.485504
 20
224.017944
  0
LINE
  5
43F
100
AcDbEntity
  8
3
370
    25
100
AcDbLine
 10
110.478309
 20
213.327928
 30
0.0
 11
109.6866
 21
213.995007
 31
0.0
  0
LINE
  5
440
100
AcDbEntity
  8
3
370
    25
100
AcDbLine
 10
109.6866
 20
213.995007
 30
0.0
 11
107.988739
 21
210.37323
 31
0.0
  0
LINE
  5
441
100
AcDbEntity
  8
3
370
    25
100
AcDbLine
 10
107.988739
 20
210.37323
 30
0.0
 11
111.270018
 21
212.66085
 31
0.0
  0
LINE
  5
442
100
AcDbEntity
  8
3
370
    25
100
AcDbLine
 10
111.270018
 20
212.66085
 30
0.0
 11
110.478309
 21
213.327928
 31
0.0
  0
TEXT
  5
443
100
AcDbEntity
  8
3
370
    50
100
AcDbText
 10
122.14222
 20
164.082489
 30
0.0
 40
7.0
  1
水表示
 72
     5
 11
141.74222
 21
164.082489
 31
0.0
100
AcDbText
  0
LWPOLYLINE
  5
444
100
AcDbEntity
  8
3
370
    25
100
AcDbPolyline
 90
        2
 70
     0
 10
108.707253
 20
182.87851
 10
120.717247
 20
167.3871
  0
LINE
  5
448
100
AcDbEntity
  8
3
370
    25
100
AcDbLine
 10
111.074559
 20
179.824977
 30
0.0
 11
111.892751
 21
180.459294
 31
0.0
  0
LINE
  5
449
100
AcDbEntity
  8
3
370
    25
100
AcDbLine
 10
111.892751
 20
180.459294
 30
0.0
 11
108.707253
 21
182.87851
 31
0.0
  0
LINE
  5
44A
100
AcDbEntity
  8
3
370
    25
100
AcDbLine
 10
108.707253
 20
182.87851
 30
0.0
 11
110.256367
 21
179.190659
 31
0.0
  0
LINE
  5
44B
100
AcDbEntity
  8
3
370
    25
100
AcDbLine
 10
110.256367
 20
179.190659
 30
0.0
 11
111.074559
 21
179.824977
 31
0.0
  0
TEXT
  5
44C
100
AcDbEntity
  8
3
370
    50
100
AcDbText
 10
-253.225571
 20
-188.621613
 30
0.0
 40
7.0
  1
２０六角
 72
     5
 11
-226.625571
 21
-188.621613
 31
0.0
100
AcDbText
  0
TEXT
  5
44D
100
AcDbEntity
  8
3
370
    50
100
AcDbText
 10
-253.682556
 20
-208.926666
 30
0.0
 40
7.0
  1
２４六角
 72
     5
 11
-227.082556
 21
-208.926666
 31
0.0
100
AcDbText
  0
DIMENSION
  5
44E
100
AcDbEntity
  8
3
370
    25
100
AcDbDimension
  2
*D3
 10
41.290472
 20
80.060839
 30
0.0
 11
16.9954
 21
108.418479
 31
0.0
 70
     2
 71
     0
 72
     0
 41
0.0
 42
0.0
  3
Standard
100
AcDb2LineAngularDimension
 13
61.276377
 23
98.879405
 33
0.0
 14
107.853963
 24
80.060839
 34
0.0
 15
107.853963
 25
80.060839
 35
0.0
 16
15.973533
 26
97.920585
 36
0.0
1001
ACAD
1000
DSTYLE
1002
{
1070
   275
1070
     0
1070
   179
1070
     0
1002
}
  0
DIMENSION
  5
44F
100
AcDbEntity
  8
3
370
    25
100
AcDbDimension
  2
*D4
 10
121.271976
 20
41.181076
 30
0.0
 11
139.771976
 21
45.681076
 31
0.0
 70
     1
 71
     0
 72
     0
 41
0.0
 42
0.0
  3
Standard
100
AcDbAlignedDimension
 13
86.271976
 23
41.181076
 33
0.0
 14
121.271976
 24
41.181076
 34
0.0
  0
TEXT
  5
450
100
AcDbEntity
  8
3
370
    50
100
AcDbText
 10
17.546141
 20
209.101166
 30
0.0
 40
7.0
  1
ハンドル回転角度
 50
90.0
 72
     5
 11
17.546141
 21
263.701166
 31
0.0
100
AcDbText
  0
DIMENSION
  5
451
100
AcDbEntity
  8
3
370
    25
100
AcDbDimension
  2
*D5
 10
52.125718
 20
144.914959
 30
0.0
 11
17.301183
 21
207.061218
 31
0.0
 70
     2
 71
     0
 72
     0
 41
0.0
 42
0.0
  3
Standard
100
AcDb2LineAngularDimension
 13
52.834786
 23
247.498409
 33
0.0
 14
103.771976
 24
196.561218
 34
0.0
 15
103.771976
 25
196.561218
 35
0.0
 16
18.301183
 26
196.561218
 36
0.0
1001
ACAD
1000
DSTYLE
1002
{
1070
   275
1070
     0
1070
   179
1070
     0
1002
}
  0
TEXT
  5
452
100
AcDbEntity
  8
3
370
    50
100
AcDbText
 10
65.195799
 20
-227.117035
 30
0.0
 40
7.0
  1
台付シングルレバー湯水混合水栓（共）
 72
     5
 11
189.795799
 21
-227.117035
 31
0.0
100
AcDbText
  0
LWPOLYLINE
  5
453
100
AcDbEntity
  8
3
370
    25
100
AcDbPolyline
 90
        3
 70
     0
 10
-271.824251
 20
-203.876953
 10
-253.210007
 20
-189.060913
 10
-239.163513
 20
-189.060913
  0
LINE
  5
458
100
AcDbEntity
  8
3
370
    25
100
AcDbLine
 10
-268.801245
 20
-201.470786
 30
0.0
 11
-269.445975
 21
-200.660774
 31
0.0
  0
LINE
  5
459
100
AcDbEntity
  8
3
370
    25
100
AcDbLine
 10
-269.445975
 20
-200.660774
 30
0.0
 11
-271.824251
 21
-203.876953
 31
0.0
  0
LINE
  5
45A
100
AcDbEntity
  8
3
370
    25
100
AcDbLine
 10
-271.824251
 20
-203.876953
 30
0.0
 11
-268.156514
 21
-202.280798
 31
0.0
  0
LINE
  5
45B
100
AcDbEntity
  8
3
370
    25
100
AcDbLine
 10
-268.156514
 20
-202.280798
 30
0.0
 11
-268.801245
 21
-201.470786
 31
0.0
  0
LWPOLYLINE
  5
45C
100
AcDbEntity
  8
3
370
    25
100
AcDbPolyline
 90
        3
 70
     0
 10
-269.823997
 20
-218.252228
 10
-253.896301
 20
-209.36261
 10
-237.984253
 20
-209.36261
  0
LINE
  5
461
100
AcDbEntity
  8
3
370
    25
100
AcDbLine
 10
-266.450197
 20
-216.369231
 30
0.0
 11
-266.954744
 21
-215.465224
 31
0.0
  0
LINE
  5
462
100
AcDbEntity
  8
3
370
    25
100
AcDbLine
 10
-266.954744
 20
-215.465224
 30
0.0
 11
-269.823997
 21
-218.252228
 31
0.0
  0
LINE
  5
463
100
AcDbEntity
  8
3
370
    25
100
AcDbLine
 10
-269.823997
 20
-218.252228
 30
0.0
 11
-265.945649
 21
-217.273238
 31
0.0
  0
LINE
  5
464
100
AcDbEntity
  8
3
370
    25
100
AcDbLine
 10
-265.945649
 20
-217.273238
 30
0.0
 11
-266.450197
 21
-216.369231
 31
0.0
  0
LWPOLYLINE
  5
465
100
AcDbEntity
  8
3
370
    25
100
AcDbPolyline
 90
        3
 70
     0
 10
-210.448311
 20
-218.252228
 10
-226.376007
 20
-209.36261
 10
-242.288055
 20
-209.36261
  0
LINE
  5
46A
100
AcDbEntity
  8
3
370
    25
100
AcDbLine
 10
-213.822112
 20
-216.369231
 30
0.0
 11
-214.326659
 21
-217.273238
 31
0.0
  0
LINE
  5
46B
100
AcDbEntity
  8
3
370
    25
100
AcDbLine
 10
-214.326659
 20
-217.273238
 30
0.0
 11
-210.448311
 21
-218.252228
 31
0.0
  0
LINE
  5
46C
100
AcDbEntity
  8
3
370
    25
100
AcDbLine
 10
-210.448311
 20
-218.252228
 30
0.0
 11
-213.317564
 21
-215.465224
 31
0.0
  0
LINE
  5
46D
100
AcDbEntity
  8
3
370
    25
100
AcDbLine
 10
-213.317564
 20
-215.465224
 30
0.0
 11
-213.822112
 21
-216.369231
 31
0.0
  0
LWPOLYLINE
  5
46E
100
AcDbEntity
  8
3
370
    25
100
AcDbPolyline
 90
        3
 70
     0
 10
-208.448058
 20
-203.876953
 10
-227.062302
 20
-189.060913
 10
-241.108795
 20
-189.060913
  0
LINE
  5
473
100
AcDbEntity
  8
3
370
    25
100
AcDbLine
 10
-211.471064
 20
-201.470786
 30
0.0
 11
-212.115794
 21
-202.280798
 31
0.0
  0
LINE
  5
474
100
AcDbEntity
  8
3
370
    25
100
AcDbLine
 10
-212.115794
 20
-202.280798
 30
0.0
 11
-208.448058
 21
-203.876953
 31
0.0
  0
LINE
  5
475
100
AcDbEntity
  8
3
370
    25
100
AcDbLine
 10
-208.448058
 20
-203.876953
 30
0.0
 11
-210.826333
 21
-200.660774
 31
0.0
  0
LINE
  5
476
100
AcDbEntity
  8
3
370
    25
100
AcDbLine
 10
-210.826333
 20
-200.660774
 30
0.0
 11
-211.471064
 21
-201.470786
 31
0.0
  0
TEXT
  5
477
100
AcDbEntity
  8
3
370
    50
100
AcDbText
 10
-112.92794
 20
-172.487313
 30
0.0
 40
7.0
  1
４１０（水側、湯側）
 50
90.0
 72
     5
 11
-112.92794
 21
-103.887313
 31
0.0
100
AcDbText
  0
DIMENSION
  5
478
100
AcDbEntity
  8
3
370
    25
100
AcDbDimension
  2
*D6
 10
-111.92794
 20
-56.539161
 30
0.0
 11
-114.42794
 21
-137.487313
 31
0.0
 71
     0
 72
     0
 41
0.0
 42
0.0
  3
Standard
100
AcDbAlignedDimension
 13
-197.448311
 23
-218.435465
 33
0.0
 14
-216.636154
 24
-56.539161
 34
0.0
 50
90.0
100
AcDbRotatedDimension
  0
TEXT
  5
479
100
AcDbEntity
  8
3
370
    50
100
AcDbText
 10
-61.645309
 20
1.260839
 30
0.0
 40
7.0
  1
１３６
 50
90.0
 72
     5
 11
-61.645309
 21
20.860839
 31
0.0
100
AcDbText
  0
DIMENSION
  5
47A
100
AcDbEntity
  8
3
370
    25
100
AcDbDimension
  2
*D7
 10
-60.645309
 20
80.060839
 30
0.0
 11
-63.145309
 21
11.760839
 31
0.0
 71
     0
 72
     0
 41
0.0
 42
0.0
  3
Standard
100
AcDbAlignedDimension
 13
80.271976
 23
-56.539161
 33
0.0
 14
27.772154
 24
80.060839
 34
0.0
 50
90.0
100
AcDbRotatedDimension
  0
DIMENSION
  5
47B
100
AcDbEntity
  8
3
370
    25
100
AcDbDimension
  2
*D8
 10
52.021015
 20
6.960839
 30
0.0
 11
40.521015
 21
-15.039161
 31
0.0
 70
     1
 71
     0
 72
     0
 41
0.0
 42
0.0
  3
Standard
100
AcDbAlignedDimension
 13
52.021015
 23
27.960839
 33
0.0
 14
52.021015
 24
6.960839
 34
0.0
 50
270.0
  0
DIMENSION
  5
47C
100
AcDbEntity
  8
3
370
    25
100
AcDbDimension
  2
*D9
 10
103.771976
 20
-78.685013
 30
0.0
 11
42.114679
 21
-74.185013
 31
0.0
 71
     0
 72
     0
 41
0.0
 42
0.0
  3
Standard
100
AcDbAlignedDimension
 13
-19.542618
 23
1.486064
 33
0.0
 14
103.771976
 24
-62.642476
 34
0.0
100
AcDbRotatedDimension
  0
POINT
  5
47D
100
AcDbEntity
  8
3
370
    50
100
AcDbPoint
 10
-19.542618
 20
1.486064
 30
0.0
  0
DIMENSION
  5
47E
100
AcDbEntity
  8
3
370
    25
100
AcDbDimension
  2
*D10
 10
-40.718292
 20
1.486064
 30
0.0
 11
-48.718292
 21
-27.526549
 31
0.0
 71
     0
 72
     0
 41
0.0
 42
0.0
  3
Standard
100
AcDbAlignedDimension
 13
80.271976
 23
-56.539161
 33
0.0
 14
-19.542618
 24
1.486064
 34
0.0
 50
90.0
100
AcDbRotatedDimension
  0
DIMENSION
  5
47F
100
AcDbEntity
  8
3
370
    25
100
AcDbDimension
  2
*D11
 10
-19.542618
 20
1.483102
 30
0.0
 11
-14.172596
 21
-28.526118
 31
0.0
 70
     2
 71
     0
 72
     0
 41
0.0
 42
0.0
  3
Standard
100
AcDb2LineAngularDimension
 13
-19.543631
 23
1.48328
 33
0.0
 14
-19.542618
 24
1.486064
 34
0.0
 15
-19.542618
 25
1.486064
 35
0.0
 16
-24.686725
 26
-27.68762
 36
0.0
1001
ACAD
1000
DSTYLE
1002
{
1070
   275
1070
     0
1070
   179
1070
     0
1002
}
  0
TEXT
  5
480
100
AcDbEntity
  8
3
370
    50
100
AcDbText
 10
64.855337
 20
-235.628509
 30
0.0
 40
7.0
  1
ＭＬＺ５５３ＭＭＸ
 72
     5
 11
126.455337
 21
-235.628509
 31
0.0
100
AcDbText
  0
TEXT
  5
481
100
AcDbEntity
  8
3
370
    50
100
AcDbText
 10
333.717224
 20
-272.433197
 30
0.0
 40
7.0
  1
１１０１８４
 72
     5
 11
374.317224
 21
-272.433197
 31
0.0
100
AcDbText
  0
TEXT
  5
482
100
AcDbEntity
  8
3
370
    50
100
AcDbText
 10
-281.069046
 20
-46.700358
 30
0.0
 40
7.0
  1
取付穴径　φ３７
 50
90.0
 72
     5
 11
-281.069046
 21
7.899642
 31
0.0
100
AcDbText
  0
TEXT
  5
483
100
AcDbEntity
  8
3
370
    50
100
AcDbText
 10
-284.569046
 20
9.299642
 30
0.0
 40
3.5
  1
＋１
 50
90.0
 72
     5
 11
-284.569046
 21
15.599642
 31
0.0
100
AcDbText
  0
TEXT
  5
484
100
AcDbEntity
  8
3
370
    50
100
AcDbText
 10
-281.069046
 20
9.299642
 30
0.0
 40
3.5
  1
－２
 50
90.0
 72
     5
 11
-281.069046
 21
15.599642
 31
0.0
100
AcDbText
  0
ENDSEC
  0
SECTION
  2
OBJECTS
  0
DICTIONARY
  5
50C
100
AcDbDictionary
280
     0
281
     1
  3
ACAD_GROUP
350
50D
  3
ACAD_MLINESTYLE
350
50E
  0
DICTIONARY
  5
50D
102
{ACAD_REACTORS
330
50C
102
}
100
AcDbDictionary
280
     0
281
     1
  0
DICTIONARY
  5
50E
102
{ACAD_REACTORS
330
50C
102
}
100
AcDbDictionary
280
     0
281
     1
  3
Standard
350
50F
  0
MLINESTYLE
  5
50F
102
{ACAD_REACTORS
330
50E
102
}
100
AcDbMlineStyle
  2
Standard
 70
     0
  3

 62
     0
 51
90.0
 52
90.0
 71
     2
 49
0.5
 62
   256
  6
ByLayer
 49
-0.5
 62
   256
  6
ByLayer
  0
ENDSEC
  0
EOF
