  0
SECTION
  2
HEADER
  9
$ACADVER
  1
AC1009
  9
$DWGCODEPAGE
  3
ansi_932
  9
$INSBASE
 10
0.0
 20
0.0
 30
0.0
  9
$EXTMIN
 10
-1261.5
 20
-891.0
 30
1.000000E+20
  9
$EXTMAX
 10
1261.5
 20
891.0
 30
-1.000000E+20
  9
$LIMMIN
 10
-1261.5
 20
-891.0
  9
$LIMMAX
 10
1261.5
 20
891.0
  9
$ORTHOMODE
 70
     0
  9
$REGENMODE
 70
     1
  9
$FILLMODE
 70
     1
  9
$QTEXTMODE
 70
     0
  9
$MIRRTEXT
 70
     1
  9
$DRAGMODE
 70
     2
  9
$LTSCALE
 40
1.0
  9
$OSMODE
 70
     0
  9
$ATTMODE
 70
     1
  9
$TEXTSIZE
 40
0.2
  9
$TRACEWID
 40
0.05
  9
$TEXTSTYLE
  7
STANDARD
  9
$CLAYER
  8
0
  9
$CELTYPE
  6
CONTINUOUS
  9
$CECOLOR
 62
   256
  9
$DIMSCALE
 40
3.0
  9
$DIMASZ
 40
2.0
  9
$DIMEXO
 40
1.0
  9
$DIMDLI
 40
0.38
  9
$DIMRND
 40
0.0
  9
$DIMDLE
 40
0.0
  9
$DIMEXE
 40
2.0
  9
$DIMTP
 40
0.0
  9
$DIMTM
 40
0.0
  9
$DIMTXT
 40
3.5
  9
$DIMCEN
 40
0.09
  9
$DIMTSZ
 40
0.0
  9
$DIMTOL
 70
     0
  9
$DIMLIM
 70
     0
  9
$DIMTIH
 70
     0
  9
$DIMTOH
 70
     0
  9
$DIMSE1
 70
     0
  9
$DIMSE2
 70
     0
  9
$DIMTAD
 70
     1
  9
$DIMZIN
 70
     0
  9
$DIMBLK
  1

  9
$DIMASO
 70
     1
  9
$DIMSHO
 70
     1
  9
$DIMPOST
  1

  9
$DIMAPOST
  1

  9
$DIMALT
 70
     0
  9
$DIMALTD
 70
     2
  9
$DIMALTF
 40
25.4
  9
$DIMLFAC
 40
1.0
  9
$DIMTOFL
 70
     0
  9
$DIMTVP
 40
0.0
  9
$DIMTIX
 70
     0
  9
$DIMSOXD
 70
     0
  9
$DIMSAH
 70
     0
  9
$DIMBLK1
  1

  9
$DIMBLK2
  1

  9
$DIMSTYLE
  2
STANDARD
  9
$DIMCLRD
 70
     0
  9
$DIMCLRE
 70
     0
  9
$DIMCLRT
 70
     0
  9
$DIMTFAC
 40
1.0
  9
$DIMGAP
 40
0.5
  9
$LUNITS
 70
     2
  9
$LUPREC
 70
     4
  9
$AXISMODE
 70
     0
  9
$AXISUNIT
 10
0.0
 20
0.0
  9
$SKETCHINC
 40
0.1
  9
$FILLETRAD
 40
0.0
  9
$AUNITS
 70
     0
  9
$AUPREC
 70
     0
  9
$MENU
  1
acad
  9
$ELEVATION
 40
0.0
  9
$PELEVATION
 40
0.0
  9
$THICKNESS
 40
0.0
  9
$LIMCHECK
 70
     0
  9
$BLIPMODE
 70
     1
  9
$CHAMFERA
 40
0.0
  9
$CHAMFERB
 40
0.0
  9
$SKPOLY
 70
     0
  9
$TDCREATE
 40
2454497.000000000
  9
$TDUPDATE
 40
0.000000000
  9
$TDINDWG
 40
0.0000000000
  9
$TDUSRTIMER
 40
0.0000000000
  9
$USRTIMER
 70
     1
  9
$ANGBASE
 50
0.0
  9
$ANGDIR
 70
     0
  9
$PDMODE
 70
     0
  9
$PDSIZE
 40
0.0
  9
$PLINEWID
 40
0.0
  9
$COORDS
 70
     0
  9
$SPLFRAME
 70
     0
  9
$SPLINETYPE
 70
     6
  9
$SPLINESEGS
 70
     8
  9
$ATTDIA
 70
     0
  9
$ATTREQ
 70
     1
  9
$HANDLING
 70
     1
  9
$HANDSEED
  5
A9C
  9
$SURFTAB1
 70
     6
  9
$SURFTAB2
 70
     6
  9
$SURFTYPE
 70
     6
  9
$SURFU
 70
     6
  9
$SURFV
 70
     6
  9
$UCSNAME
  2

  9
$UCSORG
 10
0.0
 20
0.0
 30
0.0
  9
$UCSXDIR
 10
1.0
 20
0.0
 30
0.0
  9
$UCSYDIR
 10
0.0
 20
1.0
 30
0.0
  9
$PUCSNAME
  2

  9
$PUCSORG
 10
0.0
 20
0.0
 30
0.0
  9
$PUCSXDIR
 10
1.0
 20
0.0
 30
0.0
  9
$PUCSYDIR
 10
0.0
 20
1.0
 30
0.0
  9
$USERI1
 70
     0
  9
$USERI2
 70
     0
  9
$USERI3
 70
     0
  9
$USERI4
 70
     0
  9
$USERI5
 70
     0
  9
$USERR1
 40
0.0
  9
$USERR2
 40
0.0
  9
$USERR3
 40
0.0
  9
$USERR4
 40
0.0
  9
$USERR5
 40
0.0
  9
$WORLDVIEW
 70
     1
  9
$SHADEDGE
 70
     3
  9
$SHADEDIF
 70
    70
  9
$TILEMODE
 70
     1
  9
$MAXACTVP
 70
    16
  9
$PINSBASE
 10
0.0
 20
0.0
 30
0.0
  9
$PLIMCHECK
 70
     0
  9
$PEXTMIN
 10
1.000000E+20
 20
1.000000E+20
 30
1.000000E+20
  9
$PEXTMAX
 10
-1.000000E+20
 20
-1.000000E+20
 30
-1.000000E+20
  9
$PLIMMIN
 10
0.0
 20
0.0
  9
$PLIMMAX
 10
12.0
 20
9.0
  9
$UNITMODE
 70
     0
  9
$VISRETAIN
 70
     0
  9
$PLINEGEN
 70
     1
  9
$PSLTSCALE
 70
     0
  9
$TREEDEPTH
 70
  3020
  0
ENDSEC
  0
SECTION
  2
TABLES
  0
TABLE
  2
VPORT
 70
     1
  0
VPORT
  2
*ACTIVE
 70
     0
 10
0.0
 20
0.0
 11
1.0
 21
1.0
 12
0.0
 22
0.0
 13
0.0
 23
0.0
 14
1.0
 24
1.0
 15
0.0
 25
0.0
 16
0.0
 26
0.0
 36
1.0
 17
0.0
 27
0.0
 37
0.0
 40
1782.0
 41
1.415825
 42
50.0
 43
0.0
 44
0.0
 50
0.0
 51
0.0
 71
     0
 72
   500
 73
     1
 74
     1
 75
     0
 76
     0
 77
     0
 78
     0
  0
ENDTAB
  0
TABLE
  2
LTYPE
 70
     7
  0
LTYPE
  2
CONTINUOUS
 70
     0
  3
Solid line
 72
    65
 73
     0
 40
0.0
  0
LTYPE
  2
DASHED
 70
     0
  3
__ __ __ __ __ __ __ __ __ __ __ __ __ __ __
 72
    65
 73
     2
 40
2.0
 49
1.2
 49
-0.8
  0
LTYPE
  2
CENTER
 70
     0
  3
____ _ ____ _ ____ _ ____ _ ____ _ ____ _ ____
 72
    65
 73
     4
 40
12.0
 49
9.0
 49
-1.0
 49
1.0
 49
-1.0
  0
LTYPE
  2
HIDDEN
 70
     0
  3
_ _ _ _ _ _ _ _ _ _ _ _ _ _ _ _ _ _ _ _ _ _ _
 72
    65
 73
     2
 40
3.2
 49
2.4
 49
-0.8
  0
LTYPE
  2
PHANTOM
 70
     0
  3
_____ _ _ _____ _ _ _____ _ _ _____ _ _ _____
 72
    65
 73
     6
 40
13.5
 49
9.0
 49
-1.0
 49
1.0
 49
-0.5
 49
1.0
 49
-1.0
  0
LTYPE
  2
DOT
 70
     0
  3
...............................................
 72
    65
 73
     2
 40
1.0
 49
0.5
 49
-0.5
  0
LTYPE
  2
DASHDOT
 70
     0
  3
__ . __ . __ . __ . __ . __ . __ . __ . __ . __
 72
    65
 73
     4
 40
8.0
 49
5.0
 49
-1.0
 49
1.0
 49
-1.0
  0
ENDTAB
  0
TABLE
  2
LAYER
 70
     4
  0
LAYER
  2
0
 70
     0
 62
     7
  6
CONTINUOUS
  0
LAYER
  2
1
 70
     0
 62
     7
  6
CONTINUOUS
  0
LAYER
  2
2
 70
     0
 62
     7
  6
CONTINUOUS
  0
LAYER
  2
3
 70
     0
 62
     7
  6
CONTINUOUS
  0
ENDTAB
  0
TABLE
  2
STYLE
 70
     1
  0
STYLE
  2
STANDARD
 70
    64
 40
0.0
 41
1.0
 50
0.0
 71
     0
 42
1.0
  3
txt
  4
BIGFONT
  0
ENDTAB
  0
TABLE
  2
VIEW
 70
     0
  0
ENDTAB
  0
TABLE
  2
UCS
 70
     0
  0
ENDTAB
  0
TABLE
  2
APPID
 70
     1
  0
APPID
  2
ACAD
 70
     0
  0
ENDTAB
  0
TABLE
  2
DIMSTYLE
 70
     1
  0
DIMSTYLE
  2
STANDARD
 70
     0
  3

  4

  5

  6

  7

 40
3.0
 41
2.0
 42
1.0
 43
0.38
 44
2.0
 45
0.0
 46
0.0
 47
0.0
 48
0.0
 71
     0
 72
     0
 73
     0
 74
     0
 75
     0
 76
     0
 77
     1
 78
     0
140
3.5
141
0.09
142
0.0
143
25.4
144
1.0
145
0.0
146
1.0
147
0.5
170
     0
171
     2
172
     0
173
     0
174
     0
175
     0
176
     0
177
     0
178
     0
  0
ENDTAB
  0
ENDSEC
  0
SECTION
  2
BLOCKS
  0
BLOCK
  8
3
  5
918
  2
*D0
 70
     1
 10
0.0
 20
0.0
 30
0.0
  3
*D0
  0
TEXT
  8
3
 62
     2
  5
919
 10
-33.304326
 20
68.198013
 30
0.0
 40
10.5
  1
４０゜
 50
340.0
 72
     5
 11
-5.677363
 21
58.142621
 31
0.0
  0
LINE
  8
3
 62
     2
  5
91A
 10
-14.445519
 20
92.312215
 30
0.0
 11
-35.611941
 21
67.087055
 31
0.0
  0
LINE
  8
3
 62
     2
  5
91B
 10
-12.517156
 20
91.610348
 30
0.0
 11
-12.517156
 21
58.681241
 31
0.0
  0
LINE
  8
3
 62
     2
  5
91C
 10
-33.683578
 20
69.385189
 30
0.0
 11
-29.822956
 21
64.792194
 31
0.0
  0
LINE
  8
3
 62
     2
  5
91D
 10
-33.683578
 20
69.385189
 30
0.0
 11
-28.043684
 21
67.33785
 31
0.0
  0
LINE
  8
3
 62
     2
  5
91E
 10
-29.822956
 20
64.792194
 30
0.0
 11
-28.043684
 21
67.33785
 31
0.0
  0
LINE
  8
3
 62
     2
  5
91F
 10
-12.517156
 20
61.681241
 30
0.0
 11
-18.153569
 21
63.738142
 31
0.0
  0
LINE
  8
3
 62
     2
  5
920
 10
-12.517156
 20
61.681241
 30
0.0
 11
-18.426884
 21
60.644363
 31
0.0
  0
LINE
  8
3
 62
     2
  5
921
 10
-18.153569
 20
63.738142
 30
0.0
 11
-18.426884
 21
60.644363
 31
0.0
  0
ARC
  8
3
 62
     2
  5
922
 10
-12.517156
 20
94.610348
 30
0.0
 40
32.929107
 50
230.0
 51
270.0
  0
ENDBLK
  8
3
  5
923
  0
BLOCK
  8
3
  5
924
  2
*D1
 70
     1
 10
0.0
 20
0.0
 30
0.0
  3
*D1
  0
LINE
  8
3
 62
     2
  5
925
 10
97.954872
 20
199.385756
 30
0.0
 11
97.954872
 21
213.455184
 31
0.0
  0
LINE
  8
3
 62
     2
  5
926
 10
97.954872
 20
210.455184
 30
0.0
 11
103.750427
 21
208.902269
 31
0.0
  0
LINE
  8
3
 62
     2
  5
927
 10
97.954872
 20
210.455184
 30
0.0
 11
103.750427
 21
212.008098
 31
0.0
  0
LINE
  8
3
 62
     2
  5
928
 10
103.750427
 20
208.902269
 30
0.0
 11
103.750427
 21
212.008098
 31
0.0
  0
LINE
  8
3
 62
     2
  5
929
 10
97.954872
 20
210.455184
 30
0.0
 11
123.545754
 21
210.455184
 31
0.0
  0
LINE
  8
3
 62
     2
  5
92A
 10
123.545754
 20
210.455184
 30
0.0
 11
117.7502
 21
212.008098
 31
0.0
  0
LINE
  8
3
 62
     2
  5
92B
 10
123.545754
 20
210.455184
 30
0.0
 11
117.7502
 21
208.902269
 31
0.0
  0
LINE
  8
3
 62
     2
  5
92C
 10
117.7502
 20
212.008098
 30
0.0
 11
117.7502
 21
208.902269
 31
0.0
  0
LINE
  8
3
 62
     2
  5
92D
 10
123.545754
 20
189.374683
 30
0.0
 11
123.545754
 21
213.455184
 31
0.0
  0
ENDBLK
  8
3
  5
92E
  0
BLOCK
  8
3
  5
92F
  2
*D2
 70
     1
 10
0.0
 20
0.0
 30
0.0
  3
*D2
  0
TEXT
  8
3
 62
     2
  5
930
 10
-319.953258
 20
-80.62393
 30
0.0
 40
10.5
  1
φ４８
 72
     5
 11
-290.553258
 21
-80.62393
 31
0.0
  0
LINE
  8
3
 62
     2
  5
931
 10
-379.953258
 20
-99.349298
 30
0.0
 11
-379.953258
 21
-79.12393
 31
0.0
  0
LINE
  8
3
 62
     2
  5
932
 10
-379.953258
 20
-82.12393
 30
0.0
 11
-385.748813
 21
-80.571016
 31
0.0
  0
LINE
  8
3
 62
     2
  5
933
 10
-379.953258
 20
-82.12393
 30
0.0
 11
-385.748813
 21
-83.676844
 31
0.0
  0
LINE
  8
3
 62
     2
  5
934
 10
-385.748813
 20
-80.571016
 30
0.0
 11
-385.748813
 21
-83.676844
 31
0.0
  0
LINE
  8
3
 62
     2
  5
935
 10
-394.953258
 20
-82.12393
 30
0.0
 11
-288.453258
 21
-82.12393
 31
0.0
  0
LINE
  8
3
 62
     2
  5
936
 10
-331.953258
 20
-82.12393
 30
0.0
 11
-326.157703
 21
-83.676844
 31
0.0
  0
LINE
  8
3
 62
     2
  5
937
 10
-331.953258
 20
-82.12393
 30
0.0
 11
-326.157703
 21
-80.571016
 31
0.0
  0
LINE
  8
3
 62
     2
  5
938
 10
-326.157703
 20
-83.676844
 30
0.0
 11
-326.157703
 21
-80.571016
 31
0.0
  0
LINE
  8
3
 62
     2
  5
939
 10
-331.953258
 20
-99.349298
 30
0.0
 11
-331.953258
 21
-79.12393
 31
0.0
  0
ENDBLK
  8
3
  5
93A
  0
BLOCK
  8
3
  5
93B
  2
*D3
 70
     1
 10
0.0
 20
0.0
 30
0.0
  3
*D3
  0
LINE
  8
3
 62
     2
  5
93C
 10
-12.517156
 20
91.610348
 30
0.0
 11
-12.517156
 21
-157.682636
 31
0.0
  0
LINE
  8
3
 62
     2
  5
93D
 10
-12.517156
 20
-154.682636
 30
0.0
 11
-6.721601
 21
-156.235551
 31
0.0
  0
LINE
  8
3
 62
     2
  5
93E
 10
-12.517156
 20
-154.682636
 30
0.0
 11
-6.721601
 21
-153.129722
 31
0.0
  0
LINE
  8
3
 62
     2
  5
93F
 10
-6.721601
 20
-156.235551
 30
0.0
 11
-6.721601
 21
-153.129722
 31
0.0
  0
LINE
  8
3
 62
     2
  5
940
 10
-12.517156
 20
-154.682636
 30
0.0
 11
97.954872
 21
-154.682636
 31
0.0
  0
LINE
  8
3
 62
     2
  5
941
 10
97.954872
 20
-154.682636
 30
0.0
 11
92.159317
 21
-153.129722
 31
0.0
  0
LINE
  8
3
 62
     2
  5
942
 10
97.954872
 20
-154.682636
 30
0.0
 11
92.159317
 21
-156.235551
 31
0.0
  0
LINE
  8
3
 62
     2
  5
943
 10
92.159317
 20
-153.129722
 30
0.0
 11
92.159317
 21
-156.235551
 31
0.0
  0
LINE
  8
3
 62
     2
  5
944
 10
97.954872
 20
-97.295053
 30
0.0
 11
97.954872
 21
-157.682636
 31
0.0
  0
ENDBLK
  8
3
  5
945
  0
BLOCK
  8
3
  5
946
  2
*D4
 70
     1
 10
0.0
 20
0.0
 30
0.0
  3
*D4
  0
LINE
  8
3
 62
     2
  5
947
 10
71.454872
 20
-105.849298
 30
0.0
 11
-49.792437
 21
-105.849298
 31
0.0
  0
LINE
  8
3
 62
     2
  5
948
 10
-46.792437
 20
-105.849298
 30
0.0
 11
-45.239522
 21
-100.053743
 31
0.0
  0
LINE
  8
3
 62
     2
  5
949
 10
-46.792437
 20
-105.849298
 30
0.0
 11
-48.345351
 21
-100.053743
 31
0.0
  0
LINE
  8
3
 62
     2
  5
94A
 10
-45.239522
 20
-100.053743
 30
0.0
 11
-48.345351
 21
-100.053743
 31
0.0
  0
LINE
  8
3
 62
     2
  5
94B
 10
-46.792437
 20
-105.849298
 30
0.0
 11
-46.792437
 21
94.610348
 31
0.0
  0
LINE
  8
3
 62
     2
  5
94C
 10
-46.792437
 20
94.610348
 30
0.0
 11
-48.345351
 21
88.814793
 31
0.0
  0
LINE
  8
3
 62
     2
  5
94D
 10
-46.792437
 20
94.610348
 30
0.0
 11
-45.239522
 21
88.814793
 31
0.0
  0
LINE
  8
3
 62
     2
  5
94E
 10
-48.345351
 20
88.814793
 30
0.0
 11
-45.239522
 21
88.814793
 31
0.0
  0
LINE
  8
3
 62
     2
  5
94F
 10
-15.517156
 20
94.610348
 30
0.0
 11
-49.792437
 21
94.610348
 31
0.0
  0
ENDBLK
  8
3
  5
950
  0
BLOCK
  8
3
  5
951
  2
*D5
 70
     1
 10
0.0
 20
0.0
 30
0.0
  3
*D5
  0
LINE
  8
3
 62
     2
  5
952
 10
71.454872
 20
-105.849298
 30
0.0
 11
-96.17997
 21
-105.849298
 31
0.0
  0
LINE
  8
3
 62
     2
  5
953
 10
-93.17997
 20
-105.849298
 30
0.0
 11
-91.627056
 21
-100.053743
 31
0.0
  0
LINE
  8
3
 62
     2
  5
954
 10
-93.17997
 20
-105.849298
 30
0.0
 11
-94.732884
 21
-100.053743
 31
0.0
  0
LINE
  8
3
 62
     2
  5
955
 10
-91.627056
 20
-100.053743
 30
0.0
 11
-94.732884
 21
-100.053743
 31
0.0
  0
LINE
  8
3
 62
     2
  5
956
 10
-93.17997
 20
-105.849298
 30
0.0
 11
-93.17997
 21
217.878901
 31
0.0
  0
LINE
  8
3
 62
     2
  5
957
 10
-93.17997
 20
217.878901
 30
0.0
 11
-94.732884
 21
212.083346
 31
0.0
  0
LINE
  8
3
 62
     2
  5
958
 10
-93.17997
 20
217.878901
 30
0.0
 11
-91.627056
 21
212.083346
 31
0.0
  0
LINE
  8
3
 62
     2
  5
959
 10
-94.732884
 20
212.083346
 30
0.0
 11
-91.627056
 21
212.083346
 31
0.0
  0
LINE
  8
3
 62
     2
  5
95A
 10
31.89221
 20
217.878901
 30
0.0
 11
-96.17997
 21
217.878901
 31
0.0
  0
ENDBLK
  8
3
  5
95B
  0
BLOCK
  8
3
  5
95C
  2
*D6
 70
     1
 10
0.0
 20
0.0
 30
0.0
  3
*D6
  0
TEXT
  8
3
 62
     2
  5
95D
 10
15.623696
 20
191.502932
 30
0.0
 40
10.5
  1
２２゜
 50
79.0
 72
     5
 11
21.23348
 21
220.362771
 31
0.0
  0
LINE
  8
3
 62
     2
  5
95E
 10
32.57425
 20
218.815418
 30
0.0
 11
21.864159
 21
223.142575
 31
0.0
  0
LINE
  8
3
 62
     2
  5
95F
 10
18.955049
 20
190.750702
 30
0.0
 11
15.567817
 21
190.750702
 31
0.0
  0
LINE
  8
3
 62
     2
  5
960
 10
24.645711
 20
222.018756
 30
0.0
 11
21.203354
 21
217.104473
 31
0.0
  0
LINE
  8
3
 62
     2
  5
961
 10
24.645711
 20
222.018756
 30
0.0
 11
24.121684
 21
216.041683
 31
0.0
  0
LINE
  8
3
 62
     2
  5
962
 10
21.203354
 20
217.104473
 30
0.0
 11
24.121684
 21
216.041683
 31
0.0
  0
LINE
  8
3
 62
     2
  5
963
 10
18.567817
 20
190.750702
 30
0.0
 11
20.320998
 21
196.488851
 31
0.0
  0
LINE
  8
3
 62
     2
  5
964
 10
18.567817
 20
190.750702
 30
0.0
 11
17.217042
 21
196.596676
 31
0.0
  0
LINE
  8
3
 62
     2
  5
965
 10
20.320998
 20
196.488851
 30
0.0
 11
17.217042
 21
196.596676
 31
0.0
  0
ARC
  8
3
 62
     2
  5
966
 10
102.036859
 20
190.750702
 30
0.0
 40
83.469042
 50
158.0
 51
180.0
  0
ENDBLK
  8
3
  5
967
  0
BLOCK
  8
3
  5
968
  2
*D7
 70
     1
 10
0.0
 20
0.0
 30
0.0
  3
*D7
  0
TEXT
  8
3
 62
     2
  5
969
 10
127.454872
 20
153.528477
 30
0.0
 40
10.5
  1
φ３５
 72
     5
 11
156.854872
 21
153.528477
 31
0.0
  0
LINE
  8
3
 62
     2
  5
96A
 10
80.454872
 20
152.028477
 30
0.0
 11
74.659317
 21
153.581391
 31
0.0
  0
LINE
  8
3
 62
     2
  5
96B
 10
80.454872
 20
152.028477
 30
0.0
 11
74.659317
 21
150.475562
 31
0.0
  0
LINE
  8
3
 62
     2
  5
96C
 10
74.659317
 20
153.581391
 30
0.0
 11
74.659317
 21
150.475562
 31
0.0
  0
LINE
  8
3
 62
     2
  5
96D
 10
65.454872
 20
152.028477
 30
0.0
 11
158.954872
 21
152.028477
 31
0.0
  0
LINE
  8
3
 62
     2
  5
96E
 10
115.454872
 20
152.028477
 30
0.0
 11
121.250427
 21
150.475562
 31
0.0
  0
LINE
  8
3
 62
     2
  5
96F
 10
115.454872
 20
152.028477
 30
0.0
 11
121.250427
 21
153.581391
 31
0.0
  0
LINE
  8
3
 62
     2
  5
970
 10
121.250427
 20
150.475562
 30
0.0
 11
121.250427
 21
153.581391
 31
0.0
  0
ENDBLK
  8
3
  5
971
  0
BLOCK
  8
3
  5
972
  2
*D8
 70
     1
 10
0.0
 20
0.0
 30
0.0
  3
*D8
  0
TEXT
  8
3
 62
     2
  5
973
 10
11.784601
 20
291.501082
 30
0.0
 40
10.5
  1
９０゜
 50
90.0
 72
     5
 11
11.784601
 21
320.901082
 31
0.0
  0
LINE
  8
3
 62
     2
  5
974
 10
40.146468
 20
365.059487
 30
0.0
 11
35.962629
 21
369.243325
 31
0.0
  0
LINE
  8
3
 62
     2
  5
975
 10
39.791933
 20
249.088143
 30
0.0
 11
35.962629
 21
245.258839
 31
0.0
  0
LINE
  8
3
 62
     2
  5
976
 10
38.083949
 20
367.122005
 30
0.0
 11
32.993514
 21
363.945928
 31
0.0
  0
LINE
  8
3
 62
     2
  5
977
 10
38.083949
 20
367.122005
 30
0.0
 11
35.263541
 21
361.826224
 31
0.0
  0
LINE
  8
3
 62
     2
  5
978
 10
32.993514
 20
363.945928
 30
0.0
 11
35.263541
 21
361.826224
 31
0.0
  0
LINE
  8
3
 62
     2
  5
979
 10
38.083949
 20
247.380159
 30
0.0
 11
35.263541
 21
252.67594
 31
0.0
  0
LINE
  8
3
 62
     2
  5
97A
 10
38.083949
 20
247.380159
 30
0.0
 11
32.993514
 21
250.556236
 31
0.0
  0
LINE
  8
3
 62
     2
  5
97B
 10
35.263541
 20
252.67594
 30
0.0
 11
32.993514
 21
250.556236
 31
0.0
  0
ARC
  8
3
 62
     2
  5
97C
 10
97.954872
 20
307.251082
 30
0.0
 40
84.670271
 50
135.0
 51
225.0
  0
ENDBLK
  8
3
  5
97D
  0
BLOCK
  8
3
  5
97E
  2
*D9
 70
     1
 10
0.0
 20
0.0
 30
0.0
  3
*D9
  0
LINE
  8
3
 62
     2
  5
97F
 10
71.454872
 20
-105.849298
 30
0.0
 11
-72.560589
 21
-105.849298
 31
0.0
  0
LINE
  8
3
 62
     2
  5
980
 10
-69.560589
 20
-105.849298
 30
0.0
 11
-68.007675
 21
-100.053743
 31
0.0
  0
LINE
  8
3
 62
     2
  5
981
 10
-69.560589
 20
-105.849298
 30
0.0
 11
-71.113503
 21
-100.053743
 31
0.0
  0
LINE
  8
3
 62
     2
  5
982
 10
-68.007675
 20
-100.053743
 30
0.0
 11
-71.113503
 21
-100.053743
 31
0.0
  0
LINE
  8
3
 62
     2
  5
983
 10
-69.560589
 20
-105.849298
 30
0.0
 11
-69.560589
 21
190.750702
 31
0.0
  0
LINE
  8
3
 62
     2
  5
984
 10
-69.560589
 20
190.750702
 30
0.0
 11
-71.113503
 21
184.955147
 31
0.0
  0
LINE
  8
3
 62
     2
  5
985
 10
-69.560589
 20
190.750702
 30
0.0
 11
-68.007675
 21
184.955147
 31
0.0
  0
LINE
  8
3
 62
     2
  5
986
 10
-71.113503
 20
184.955147
 30
0.0
 11
-68.007675
 21
184.955147
 31
0.0
  0
LINE
  8
3
 62
     2
  5
987
 10
18.955049
 20
190.750702
 30
0.0
 11
-72.560589
 21
190.750702
 31
0.0
  0
ENDBLK
  8
3
  5
988
  0
BLOCK
  8
3
  5
989
  2
*D10
 70
     1
 10
0.0
 20
0.0
 30
0.0
  3
*D10
  0
LINE
  8
3
 62
     2
  5
98A
 10
-290.265416
 20
-317.245601
 30
0.0
 11
-182.146133
 21
-317.245601
 31
0.0
  0
LINE
  8
3
 62
     2
  5
98B
 10
-185.146133
 20
-317.245601
 30
0.0
 11
-183.593219
 21
-311.450046
 31
0.0
  0
LINE
  8
3
 62
     2
  5
98C
 10
-185.146133
 20
-317.245601
 30
0.0
 11
-186.699048
 21
-311.450046
 31
0.0
  0
LINE
  8
3
 62
     2
  5
98D
 10
-183.593219
 20
-311.450046
 30
0.0
 11
-186.699048
 21
-311.450046
 31
0.0
  0
LINE
  8
3
 62
     2
  5
98E
 10
-185.146133
 20
-317.245601
 30
0.0
 11
-185.146133
 21
-105.849298
 31
0.0
  0
LINE
  8
3
 62
     2
  5
98F
 10
-185.146133
 20
-105.849298
 30
0.0
 11
-186.699048
 21
-111.644853
 31
0.0
  0
LINE
  8
3
 62
     2
  5
990
 10
-185.146133
 20
-105.849298
 30
0.0
 11
-183.593219
 21
-111.644853
 31
0.0
  0
LINE
  8
3
 62
     2
  5
991
 10
-186.699048
 20
-111.644853
 30
0.0
 11
-183.593219
 21
-111.644853
 31
0.0
  0
LINE
  8
3
 62
     2
  5
992
 10
-329.453258
 20
-105.849298
 30
0.0
 11
-182.146133
 21
-105.849298
 31
0.0
  0
ENDBLK
  8
3
  5
993
  0
ENDSEC
  0
SECTION
  2
ENTITIES
  0
LINE
  8
1
 62
     3
  5
2F
 10
-559.532355
 20
412.543151
 30
0.0
 11
592.473578
 21
412.543151
 31
0.0
  0
LINE
  8
1
 62
     3
  5
30
 10
-559.532355
 20
412.543151
 30
0.0
 11
-559.532355
 21
-416.957822
 31
0.0
  0
LINE
  8
1
 62
     3
  5
31
 10
-559.532355
 20
-416.957822
 30
0.0
 11
592.473578
 21
-416.957822
 31
0.0
  0
LINE
  8
1
 62
     3
  5
32
 10
592.473578
 20
-416.957822
 30
0.0
 11
592.473578
 21
412.543151
 31
0.0
  0
TEXT
  8
1
  5
33
 10
539.442664
 20
-339.379285
 30
0.0
 40
9.0
  1
設計
 72
     5
 11
555.642664
 21
-339.379285
 31
0.0
  0
TEXT
  8
1
  5
34
 10
568.691217
 20
-339.149488
 30
0.0
 40
9.0
  1
製図
 72
     5
 11
584.891217
 21
-339.149488
 31
0.0
  0
TEXT
  8
1
  5
35
 10
478.508617
 20
-339.379285
 30
0.0
 40
9.0
  1
承認
 72
     5
 11
494.708617
 21
-339.379285
 31
0.0
  0
TEXT
  8
1
  5
36
 10
508.484518
 20
-339.297029
 30
0.0
 40
9.0
  1
検図
 72
     5
 11
524.684518
 21
-339.297029
 31
0.0
  0
LINE
  8
1
 62
     2
  5
37
 10
427.473578
 20
-341.957822
 30
0.0
 11
592.473578
 21
-341.957822
 31
0.0
  0
LINE
  8
1
 62
     2
  5
38
 10
513.723578
 20
-368.957822
 30
0.0
 11
513.723578
 21
-389.957822
 31
0.0
  0
TEXT
  8
1
  5
39
 10
479.327385
 20
-384.018792
 30
0.0
 40
9.0
  1
日　付
 72
     5
 11
504.527385
 21
-384.018792
 31
0.0
  0
LINE
  8
1
  5
3A
 10
61.473578
 20
-389.957822
 30
0.0
 11
592.473578
 21
-389.957822
 31
0.0
  0
TEXT
  8
1
  5
3B
 10
431.662516
 20
-384.483609
 30
0.0
 40
9.0
  1
第三角法
 72
     5
 11
465.862516
 21
-384.483609
 31
0.0
  0
TEXT
  8
1
  5
3C
 10
436.631129
 20
-338.997029
 30
0.0
 40
9.0
  1
尺　度
 72
     5
 11
461.831129
 21
-338.997029
 31
0.0
  0
LINE
  8
1
 62
     3
  5
3D
 10
61.473578
 20
-326.957822
 30
0.0
 11
592.473578
 21
-326.957822
 31
0.0
  0
LINE
  8
1
  5
3E
 10
317.973578
 20
-326.957822
 30
0.0
 11
317.973578
 21
-416.957822
 31
0.0
  0
LINE
  8
1
 62
     2
  5
3F
 10
562.473578
 20
-368.957822
 30
0.0
 11
562.473578
 21
-326.957822
 31
0.0
  0
LINE
  8
1
 62
     2
  5
40
 10
532.473578
 20
-368.957822
 30
0.0
 11
532.473578
 21
-326.957822
 31
0.0
  0
LINE
  8
1
 62
     2
  5
41
 10
502.473578
 20
-368.957822
 30
0.0
 11
502.473578
 21
-326.957822
 31
0.0
  0
LINE
  8
1
  5
42
 10
427.473578
 20
-416.957822
 30
0.0
 11
427.473578
 21
-326.957822
 31
0.0
  0
LINE
  8
1
  5
43
 10
284.973578
 20
-326.957822
 30
0.0
 11
284.973578
 21
-416.957822
 31
0.0
  0
LINE
  8
1
  5
44
 10
94.473578
 20
-326.957822
 30
0.0
 11
94.473578
 21
-389.957822
 31
0.0
  0
LINE
  8
1
  5
45
 10
427.473578
 20
-368.957822
 30
0.0
 11
592.473578
 21
-368.957822
 31
0.0
  0
TEXT
  8
1
  5
46
 10
430.651694
 20
-407.821408
 30
0.0
 40
9.0
  1
コードＮｏ
 41
0.9
 72
     5
 11
469.531694
 21
-407.821408
 31
0.0
  0
TEXT
  8
1
 62
     3
  5
47
 10
79.330161
 20
-409.313489
 30
0.0
 40
12.0
  1
ミズタニバルブ工業株式会社
 41
1.2
 72
     5
 11
263.650161
 21
-409.313489
 31
0.0
  0
LINE
  8
1
  5
48
 10
61.473578
 20
-358.457822
 30
0.0
 11
427.473578
 21
-358.457822
 31
0.0
  0
LINE
  8
1
  5
49
 10
173.223578
 20
-358.457822
 30
0.0
 11
173.223578
 21
-389.957822
 31
0.0
  0
LINE
  8
1
  5
4A
 10
206.223578
 20
-358.457822
 30
0.0
 11
206.223578
 21
-389.957822
 31
0.0
  0
LINE
  8
1
  5
4B
 10
472.473578
 20
-416.957822
 30
0.0
 11
472.473578
 21
-326.957822
 31
0.0
  0
TEXT
  8
1
  5
4C
 10
517.647196
 20
-384.15044
 30
0.0
 40
9.0
  1
　　・　　・
 72
     5
 11
569.847196
 21
-384.15044
 31
0.0
  0
LINE
  8
1
 62
     3
  5
4D
 10
61.473578
 20
-326.957822
 30
0.0
 11
61.473578
 21
-416.957822
 31
0.0
  0
TEXT
  8
1
  5
4E
 10
436.248873
 20
-360.020238
 30
0.0
 40
9.0
  1
　／ 
 72
     5
 11
452.448873
 21
-360.020238
 31
0.0
  0
TEXT
  8
1
  5
4F
 10
290.856184
 20
-408.037363
 30
0.0
 40
9.0
  1
備 考 
 72
     5
 11
311.556184
 21
-408.037363
 31
0.0
  0
TEXT
  8
1
  5
50
 10
290.2688
 20
-346.33776
 30
0.0
 40
9.0
  1
仕 上
 72
     5
 11
310.9688
 21
-346.33776
 31
0.0
  0
TEXT
  8
1
  5
51
 10
290.170764
 20
-373.337499
 30
0.0
 40
9.0
  1
表 面
 72
     5
 11
310.870764
 21
-373.337499
 31
0.0
  0
TEXT
  8
1
  5
52
 10
290.170764
 20
-383.837499
 30
0.0
 40
9.0
  1
処 理
 72
     5
 11
310.870764
 21
-383.837499
 31
0.0
  0
TEXT
  8
1
  5
53
 10
67.190025
 20
-347.540099
 30
0.0
 40
9.0
  1
品 名
 72
     5
 11
87.890025
 21
-347.540099
 31
0.0
  0
TEXT
  8
1
  5
54
 10
66.596649
 20
-378.693801
 30
0.0
 40
9.0
  1
材 質
 72
     5
 11
87.296649
 21
-378.693801
 31
0.0
  0
TEXT
  8
1
  5
55
 10
178.346649
 20
-378.693801
 30
0.0
 40
9.0
  1
規 格
 72
     5
 11
199.046649
 21
-378.693801
 31
0.0
  0
LINE
  8
2
  5
56
 10
115.454872
 20
167.650702
 30
0.0
 11
115.454872
 21
58.450702
 31
0.0
  0
LINE
  8
2
  5
57
 10
80.454872
 20
58.450702
 30
0.0
 11
80.754872
 21
58.150702
 31
0.0
  0
LINE
  8
2
  5
58
 10
115.454872
 20
58.450702
 30
0.0
 11
115.154872
 21
58.150702
 31
0.0
  0
LINE
  8
2
  5
59
 10
80.454872
 20
58.450702
 30
0.0
 11
80.454872
 21
119.650702
 31
0.0
  0
LINE
  8
2
  5
5A
 10
80.454872
 20
138.650702
 30
0.0
 11
80.454872
 21
164.650702
 31
0.0
  0
LINE
  8
2
  5
5B
 10
80.454872
 20
138.650702
 30
0.0
 11
28.123334
 21
138.650702
 31
0.0
  0
LINE
  8
2
  5
5C
 10
80.454872
 20
119.650702
 30
0.0
 11
28.123334
 21
119.650702
 31
0.0
  0
ARC
  8
2
  5
5D
 10
28.123334
 20
104.150702
 30
0.0
 40
34.5
 50
90.0
 51
140.0
  0
ARC
  8
2
  5
5E
 10
28.123334
 20
104.150702
 30
0.0
 40
15.5
 50
90.0
 51
140.0
  0
LINE
  8
2
  5
5F
 10
1.694801
 20
126.326875
 30
0.0
 11
-6.231759
 21
116.880368
 31
0.0
  0
LINE
  8
2
  5
60
 10
16.249645
 20
114.11391
 30
0.0
 11
8.323085
 21
104.667404
 31
0.0
  0
LINE
  8
2
  5
61
 10
-6.231759
 20
116.880368
 30
0.0
 11
-6.553153
 21
116.497346
 31
0.0
  0
LINE
  8
2
  5
62
 10
-6.553153
 20
116.497346
 30
0.0
 11
0.724269
 21
110.390864
 31
0.0
  0
LINE
  8
2
  5
63
 10
-6.231759
 20
116.880368
 30
0.0
 11
1.045663
 21
110.773886
 31
0.0
  0
LINE
  8
2
  5
64
 10
8.323085
 20
104.667404
 30
0.0
 11
8.001691
 21
104.284382
 31
0.0
  0
LINE
  8
2
  5
65
 10
8.001691
 20
104.284382
 30
0.0
 11
0.724269
 21
110.390864
 31
0.0
  0
LINE
  8
2
  5
66
 10
8.323085
 20
104.667404
 30
0.0
 11
1.045663
 21
110.773886
 31
0.0
  0
LINE
  8
2
  5
67
 10
115.154872
 20
58.150702
 30
0.0
 11
80.754872
 21
58.150702
 31
0.0
  0
LINE
  8
2
  5
68
 10
97.954872
 20
169.050702
 30
0.0
 11
80.454872
 21
169.050702
 31
0.0
  0
LINE
  8
2
  5
69
 10
114.454872
 20
194.050702
 30
0.0
 11
81.454872
 21
194.050702
 31
0.0
  0
LINE
  8
2
  5
6A
 10
80.454872
 20
169.050702
 30
0.0
 11
80.454872
 21
181.850702
 31
0.0
  0
ARC
  8
2
  5
6B
 10
114.454872
 20
193.050702
 30
0.0
 40
1.0
 50
0.0
 51
90.0
  0
ARC
  8
2
  5
6C
 10
81.454872
 20
193.050702
 30
0.0
 40
1.0
 50
90.0
 51
180.0
  0
LINE
  8
2
  5
6D
 10
80.454872
 20
193.050702
 30
0.0
 11
80.454872
 21
190.250702
 31
0.0
  0
ARC
  8
2
  5
6E
 10
63.466347
 20
186.050702
 30
0.0
 40
17.5
 50
346.11346
 51
360.0
  0
ARC
  8
2
  5
6F
 10
63.466347
 20
186.050702
 30
0.0
 40
17.5
 50
0.0
 51
13.88654
  0
ARC
  8
2
  5
70
 10
109.526669
 20
186.050702
 30
0.0
 40
8.0
 50
0.0
 51
30.0
  0
LINE
  8
2
  5
71
 10
116.454872
 20
190.050702
 30
0.0
 11
115.454872
 21
190.050702
 31
0.0
  0
LINE
  8
2
  5
72
 10
115.454872
 20
189.300702
 30
0.0
 11
115.454872
 21
190.050702
 31
0.0
  0
ARC
  8
2
  5
73
 10
109.526669
 20
186.050702
 30
0.0
 40
8.0
 50
330.0
 51
360.0
  0
LINE
  8
2
  5
74
 10
116.454872
 20
182.050702
 30
0.0
 11
115.454872
 21
182.050702
 31
0.0
  0
LINE
  8
2
  5
75
 10
115.454872
 20
182.800702
 30
0.0
 11
115.454872
 21
182.050702
 31
0.0
  0
LINE
  8
2
  5
76
 10
115.454872
 20
177.470178
 30
0.0
 11
115.454872
 21
186.050702
 31
0.0
  0
LINE
  8
2
  5
77
 10
115.454872
 20
186.050702
 30
0.0
 11
115.454872
 21
193.050702
 31
0.0
  0
LINE
  8
2
  5
78
 10
21.955049
 20
182.050702
 30
0.0
 11
80.503072
 21
182.050702
 31
0.0
  0
LINE
  8
2
  5
79
 10
21.955049
 20
190.050702
 30
0.0
 11
80.503072
 21
190.050702
 31
0.0
  0
LINE
  8
2
  5
7A
 10
21.455049
 20
182.550702
 30
0.0
 11
21.455049
 21
189.550702
 31
0.0
  0
LINE
  8
2
  5
7B
 10
21.955049
 20
190.050702
 30
0.0
 11
21.455049
 21
189.550702
 31
0.0
  0
LINE
  8
2
  5
7C
 10
21.455049
 20
182.550702
 30
0.0
 11
21.955049
 21
182.050702
 31
0.0
  0
LINE
  8
2
 62
     2
  5
7D
 10
116.454872
 20
190.050702
 30
0.0
 11
116.454872
 21
182.050702
 31
0.0
  0
ARC
  8
2
 62
     2
  5
7E
 10
65.757934
 20
129.150702
 30
0.0
 40
17.5
 50
327.12165
 51
32.87835
  0
LINE
  8
2
 62
     2
  5
7F
 10
80.454872
 20
58.450702
 30
0.0
 11
115.454872
 21
58.450702
 31
0.0
  0
LINE
  8
2
  5
80
 10
-339.453258
 20
194.550702
 30
0.0
 11
-372.453258
 21
194.550702
 31
0.0
  0
LINE
  8
2
  5
81
 10
-373.453258
 20
193.550702
 30
0.0
 11
-373.453258
 21
169.050702
 31
0.0
  0
LINE
  8
2
  5
82
 10
-338.453258
 20
193.550702
 30
0.0
 11
-338.453258
 21
169.050702
 31
0.0
  0
ARC
  8
2
  5
83
 10
-372.453258
 20
193.550702
 30
0.0
 40
1.0
 50
90.0
 51
180.0
  0
ARC
  8
2
  5
84
 10
-339.453258
 20
193.550702
 30
0.0
 40
1.0
 50
0.0
 51
90.0
  0
LINE
  8
2
  5
85
 10
-338.453258
 20
169.050702
 30
0.0
 11
-373.453258
 21
169.050702
 31
0.0
  0
CIRCLE
  8
2
  5
86
 10
-355.953258
 20
186.550702
 30
0.0
 40
4.0
  0
CIRCLE
  8
2
 62
     2
  5
87
 10
-355.953258
 20
186.550702
 30
0.0
 40
3.5
  0
LINE
  8
2
  5
88
 10
-338.953258
 20
168.150702
 30
0.0
 11
-372.953258
 21
168.150702
 31
0.0
  0
LINE
  8
2
  5
89
 10
-338.453258
 20
167.650702
 30
0.0
 11
-338.453258
 21
58.450702
 31
0.0
  0
LINE
  8
2
  5
8A
 10
-338.453258
 20
167.650702
 30
0.0
 11
-338.953258
 21
168.150702
 31
0.0
  0
LINE
  8
2
  5
8B
 10
-372.953258
 20
168.150702
 30
0.0
 11
-373.453258
 21
167.650702
 31
0.0
  0
LINE
  8
2
 62
     2
  5
8C
 10
-338.453258
 20
167.650702
 30
0.0
 11
-373.453258
 21
167.650702
 31
0.0
  0
LINE
  8
2
  5
8D
 10
-373.453258
 20
58.450702
 30
0.0
 11
-373.153258
 21
58.150702
 31
0.0
  0
LINE
  8
2
  5
8E
 10
-338.453258
 20
58.450702
 30
0.0
 11
-338.753258
 21
58.150702
 31
0.0
  0
LINE
  8
2
  5
8F
 10
-373.453258
 20
58.450702
 30
0.0
 11
-373.453258
 21
167.650702
 31
0.0
  0
LINE
  8
2
  5
90
 10
-338.753258
 20
58.150702
 30
0.0
 11
-373.153258
 21
58.150702
 31
0.0
  0
LINE
  8
2
 62
     2
  5
91
 10
-373.453258
 20
58.450702
 30
0.0
 11
-338.453258
 21
58.450702
 31
0.0
  0
LINE
  8
2
  5
92
 10
-365.453258
 20
129.150702
 30
0.0
 11
-365.453258
 21
110.390864
 31
0.0
  0
LINE
  8
2
  5
93
 10
-346.453258
 20
129.150702
 30
0.0
 11
-346.453258
 21
110.390864
 31
0.0
  0
POLYLINE
  8
2
  5
94
 66
     1
 10
0.0
 20
0.0
 30
0.0
  0
VERTEX
  8
2
  5
99A
 10
-346.453258
 20
110.390864
 30
0.0
  0
VERTEX
  8
2
  5
99B
 10
-346.486302
 20
110.899739
 30
0.0
  0
VERTEX
  8
2
  5
99C
 10
-346.586132
 20
111.408614
 30
0.0
  0
VERTEX
  8
2
  5
99D
 10
-346.754923
 20
111.917489
 30
0.0
  0
VERTEX
  8
2
  5
99E
 10
-346.996573
 20
112.426364
 30
0.0
  0
VERTEX
  8
2
  5
99F
 10
-347.317195
 20
112.935239
 30
0.0
  0
VERTEX
  8
2
  5
9A0
 10
-347.726017
 20
113.444114
 30
0.0
  0
VERTEX
  8
2
  5
9A1
 10
-348.237046
 20
113.952989
 30
0.0
  0
VERTEX
  8
2
  5
9A2
 10
-348.872377
 20
114.461864
 30
0.0
  0
VERTEX
  8
2
  5
9A3
 10
-349.669599
 20
114.970739
 30
0.0
  0
VERTEX
  8
2
  5
9A4
 10
-350.701936
 20
115.479614
 30
0.0
  0
VERTEX
  8
2
  5
9A5
 10
-352.156558
 20
115.988489
 30
0.0
  0
VERTEX
  8
2
  5
9A6
 10
-355.953258
 20
116.497364
 30
0.0
  0
VERTEX
  8
2
  5
9A7
 10
-359.749958
 20
115.988489
 30
0.0
  0
VERTEX
  8
2
  5
9A8
 10
-361.204581
 20
115.479614
 30
0.0
  0
VERTEX
  8
2
  5
9A9
 10
-362.236918
 20
114.970739
 30
0.0
  0
VERTEX
  8
2
  5
9AA
 10
-363.03414
 20
114.461864
 30
0.0
  0
VERTEX
  8
2
  5
9AB
 10
-363.669471
 20
113.952989
 30
0.0
  0
VERTEX
  8
2
  5
9AC
 10
-364.1805
 20
113.444114
 30
0.0
  0
VERTEX
  8
2
  5
9AD
 10
-364.589322
 20
112.935239
 30
0.0
  0
VERTEX
  8
2
  5
9AE
 10
-364.909944
 20
112.426364
 30
0.0
  0
VERTEX
  8
2
  5
9AF
 10
-365.151594
 20
111.917489
 30
0.0
  0
VERTEX
  8
2
  5
9B0
 10
-365.320385
 20
111.408614
 30
0.0
  0
VERTEX
  8
2
  5
9B1
 10
-365.420215
 20
110.899739
 30
0.0
  0
VERTEX
  8
2
  5
9B2
 10
-365.453258
 20
110.390864
 30
0.0
  0
SEQEND
  8
2
  5
9B3
  0
ARC
  8
2
  5
AF
 10
-355.953258
 20
129.150702
 30
0.0
 40
9.5
 50
0.0
 51
180.0
  0
LINE
  8
2
  5
B0
 10
332.621063
 20
168.150702
 30
0.0
 11
349.621063
 21
168.150702
 31
0.0
  0
LINE
  8
2
  5
B1
 10
332.621063
 20
168.150702
 30
0.0
 11
315.621063
 21
168.150702
 31
0.0
  0
LINE
  8
2
  5
B2
 10
315.121063
 20
167.650702
 30
0.0
 11
315.121063
 21
58.450702
 31
0.0
  0
LINE
  8
2
  5
B3
 10
315.121063
 20
167.650702
 30
0.0
 11
315.621063
 21
168.150702
 31
0.0
  0
LINE
  8
2
  5
B4
 10
349.621063
 20
168.150702
 30
0.0
 11
350.121063
 21
167.650702
 31
0.0
  0
LINE
  8
2
  5
B5
 10
350.121063
 20
58.450702
 30
0.0
 11
349.821063
 21
58.150702
 31
0.0
  0
LINE
  8
2
  5
B6
 10
315.121063
 20
58.450702
 30
0.0
 11
315.421063
 21
58.150702
 31
0.0
  0
LINE
  8
2
  5
B7
 10
350.121063
 20
58.450702
 30
0.0
 11
350.121063
 21
119.650702
 31
0.0
  0
LINE
  8
2
  5
B8
 10
350.121063
 20
138.650702
 30
0.0
 11
350.121063
 21
167.650702
 31
0.0
  0
LINE
  8
2
  5
B9
 10
350.121063
 20
138.650702
 30
0.0
 11
402.452602
 21
138.650702
 31
0.0
  0
LINE
  8
2
  5
BA
 10
350.121063
 20
119.650702
 30
0.0
 11
402.452602
 21
119.650702
 31
0.0
  0
ARC
  8
2
  5
BB
 10
402.452602
 20
104.150702
 30
0.0
 40
34.5
 50
40.0
 51
90.0
  0
ARC
  8
2
  5
BC
 10
402.452602
 20
104.150702
 30
0.0
 40
15.5
 50
40.0
 51
90.0
  0
LINE
  8
2
  5
BD
 10
428.881135
 20
126.326875
 30
0.0
 11
436.807695
 21
116.880368
 31
0.0
  0
LINE
  8
2
  5
BE
 10
414.32629
 20
114.11391
 30
0.0
 11
422.25285
 21
104.667404
 31
0.0
  0
LINE
  8
2
  5
BF
 10
436.807695
 20
116.880368
 30
0.0
 11
437.129089
 21
116.497346
 31
0.0
  0
LINE
  8
2
  5
C0
 10
437.129089
 20
116.497346
 30
0.0
 11
429.851666
 21
110.390864
 31
0.0
  0
LINE
  8
2
  5
C1
 10
436.807695
 20
116.880368
 30
0.0
 11
429.530273
 21
110.773886
 31
0.0
  0
LINE
  8
2
  5
C2
 10
422.25285
 20
104.667404
 30
0.0
 11
422.574244
 21
104.284382
 31
0.0
  0
LINE
  8
2
  5
C3
 10
422.574244
 20
104.284382
 30
0.0
 11
429.851666
 21
110.390864
 31
0.0
  0
LINE
  8
2
  5
C4
 10
422.25285
 20
104.667404
 30
0.0
 11
429.530273
 21
110.773886
 31
0.0
  0
LINE
  8
2
  5
C5
 10
356.621063
 20
-102.349298
 30
0.0
 11
356.621063
 21
-105.349298
 31
0.0
  0
LINE
  8
2
  5
C6
 10
356.121063
 20
-105.849298
 30
0.0
 11
332.621063
 21
-105.849298
 31
0.0
  0
LINE
  8
2
  5
C7
 10
332.621063
 20
-101.849298
 30
0.0
 11
356.121063
 21
-101.849298
 31
0.0
  0
LINE
  8
2
  5
C8
 10
356.121063
 20
-101.849298
 30
0.0
 11
356.621063
 21
-102.349298
 31
0.0
  0
LINE
  8
2
  5
C9
 10
356.121063
 20
-105.849298
 30
0.0
 11
356.621063
 21
-105.349298
 31
0.0
  0
LINE
  8
2
  5
CA
 10
308.621063
 20
-102.349298
 30
0.0
 11
308.621063
 21
-105.349298
 31
0.0
  0
LINE
  8
2
  5
CB
 10
309.121063
 20
-105.849298
 30
0.0
 11
332.621063
 21
-105.849298
 31
0.0
  0
LINE
  8
2
  5
CC
 10
332.621063
 20
-101.849298
 30
0.0
 11
309.121063
 21
-101.849298
 31
0.0
  0
LINE
  8
2
  5
CD
 10
309.121063
 20
-101.849298
 30
0.0
 11
308.621063
 21
-102.349298
 31
0.0
  0
LINE
  8
2
  5
CE
 10
309.121063
 20
-105.849298
 30
0.0
 11
308.621063
 21
-105.349298
 31
0.0
  0
LINE
  8
2
  5
CF
 10
332.621063
 20
169.050702
 30
0.0
 11
350.121063
 21
169.050702
 31
0.0
  0
LINE
  8
2
  5
D0
 10
316.121063
 20
194.550702
 30
0.0
 11
349.121063
 21
194.550702
 31
0.0
  0
LINE
  8
2
  5
D1
 10
332.621063
 20
169.050702
 30
0.0
 11
315.121063
 21
176.121161
 31
0.0
  0
LINE
  8
2
  5
D2
 10
350.121063
 20
169.050702
 30
0.0
 11
350.121063
 21
182.350702
 31
0.0
  0
ARC
  8
2
  5
D3
 10
316.121063
 20
193.550702
 30
0.0
 40
1.0
 50
90.0
 51
180.0
  0
ARC
  8
2
  5
D4
 10
349.121063
 20
193.550702
 30
0.0
 40
1.0
 50
0.0
 51
90.0
  0
LINE
  8
2
  5
D5
 10
350.121063
 20
193.550702
 30
0.0
 11
350.121063
 21
190.750702
 31
0.0
  0
ARC
  8
2
  5
D6
 10
367.109589
 20
186.550702
 30
0.0
 40
17.5
 50
180.0
 51
193.88654
  0
ARC
  8
2
  5
D7
 10
367.109589
 20
186.550702
 30
0.0
 40
17.5
 50
166.11346
 51
180.0
  0
ARC
  8
2
  5
D8
 10
321.049267
 20
186.550702
 30
0.0
 40
8.0
 50
150.0
 51
180.0
  0
LINE
  8
2
  5
D9
 10
314.121063
 20
190.550702
 30
0.0
 11
315.121063
 21
190.550702
 31
0.0
  0
LINE
  8
2
  5
DA
 10
315.121063
 20
189.800702
 30
0.0
 11
315.121063
 21
190.550702
 31
0.0
  0
ARC
  8
2
  5
DB
 10
321.049267
 20
186.550702
 30
0.0
 40
8.0
 50
180.0
 51
210.0
  0
LINE
  8
2
  5
DC
 10
314.121063
 20
182.550702
 30
0.0
 11
315.121063
 21
182.550702
 31
0.0
  0
LINE
  8
2
  5
DD
 10
315.121063
 20
183.300702
 30
0.0
 11
315.121063
 21
182.550702
 31
0.0
  0
LINE
  8
2
  5
DE
 10
315.121063
 20
176.121161
 30
0.0
 11
315.121063
 21
186.550702
 31
0.0
  0
LINE
  8
2
  5
DF
 10
315.121063
 20
186.550702
 30
0.0
 11
315.121063
 21
193.550702
 31
0.0
  0
LINE
  8
2
  5
E0
 10
408.620886
 20
182.550702
 30
0.0
 11
350.072864
 21
182.550702
 31
0.0
  0
LINE
  8
2
  5
E1
 10
408.620886
 20
190.550702
 30
0.0
 11
350.072864
 21
190.550702
 31
0.0
  0
LINE
  8
2
  5
E2
 10
409.120886
 20
183.050702
 30
0.0
 11
409.120886
 21
190.050702
 31
0.0
  0
LINE
  8
2
  5
E3
 10
408.620886
 20
190.550702
 30
0.0
 11
409.120886
 21
190.050702
 31
0.0
  0
LINE
  8
2
  5
E4
 10
409.120886
 20
183.050702
 30
0.0
 11
408.620886
 21
182.550702
 31
0.0
  0
LINE
  8
2
 62
     2
  5
E5
 10
314.121063
 20
190.550702
 30
0.0
 11
314.121063
 21
182.550702
 31
0.0
  0
ARC
  8
2
 62
     2
  5
E6
 10
364.818002
 20
129.150702
 30
0.0
 40
17.5
 50
147.12165
 51
212.87835
  0
LINE
  8
2
 62
     2
  5
E7
 10
315.121063
 20
167.650702
 30
0.0
 11
350.121063
 21
167.650702
 31
0.0
  0
LINE
  8
2
 62
     2
  5
E8
 10
350.121063
 20
58.450702
 30
0.0
 11
315.121063
 21
58.450702
 31
0.0
  0
LINE
  8
2
 62
     2
  5
E9
 10
308.621063
 20
-102.349298
 30
0.0
 11
356.621063
 21
-102.349298
 31
0.0
  0
LINE
  8
2
 62
     2
  5
EA
 10
356.621063
 20
-105.349298
 30
0.0
 11
308.621063
 21
-105.349298
 31
0.0
  0
LINE
  8
2
  5
EB
 10
309.121063
 20
-108.849298
 30
0.0
 11
356.121063
 21
-108.849298
 31
0.0
  0
LINE
  8
2
  5
EC
 10
356.121063
 20
-105.849298
 30
0.0
 11
356.121063
 21
-108.849298
 31
0.0
  0
LINE
  8
2
  5
ED
 10
309.121063
 20
-105.849298
 30
0.0
 11
309.121063
 21
-108.849298
 31
0.0
  0
LINE
  8
2
 62
     2
  5
EE
 10
317.871063
 20
-108.849298
 30
0.0
 11
320.871063
 21
-105.849298
 31
0.0
  0
LINE
  8
2
 62
     2
  5
EF
 10
322.113704
 20
-108.849298
 30
0.0
 11
325.113704
 21
-105.849298
 31
0.0
  0
LINE
  8
2
 62
     2
  5
F0
 10
326.356345
 20
-108.849298
 30
0.0
 11
329.356345
 21
-105.849298
 31
0.0
  0
LINE
  8
2
 62
     2
  5
F1
 10
330.598985
 20
-108.849298
 30
0.0
 11
333.598985
 21
-105.849298
 31
0.0
  0
LINE
  8
2
 62
     2
  5
F2
 10
334.841626
 20
-108.849298
 30
0.0
 11
337.841626
 21
-105.849298
 31
0.0
  0
LINE
  8
2
 62
     2
  5
F3
 10
339.084267
 20
-108.849298
 30
0.0
 11
342.084267
 21
-105.849298
 31
0.0
  0
LINE
  8
2
 62
     2
  5
F4
 10
343.326907
 20
-108.849298
 30
0.0
 11
346.326907
 21
-105.849298
 31
0.0
  0
LINE
  8
2
 62
     2
  5
F5
 10
347.569548
 20
-108.849298
 30
0.0
 11
350.569548
 21
-105.849298
 31
0.0
  0
LINE
  8
2
 62
     2
  5
F6
 10
351.812189
 20
-108.849298
 30
0.0
 11
354.812189
 21
-105.849298
 31
0.0
  0
LINE
  8
2
 62
     2
  5
F7
 10
356.054829
 20
-108.849298
 30
0.0
 11
356.121063
 21
-108.783064
 31
0.0
  0
LINE
  8
2
 62
     2
  5
F8
 10
313.628423
 20
-108.849298
 30
0.0
 11
316.628423
 21
-105.849298
 31
0.0
  0
LINE
  8
2
 62
     2
  5
F9
 10
309.385782
 20
-108.849298
 30
0.0
 11
312.385782
 21
-105.849298
 31
0.0
  0
LINE
  8
2
  6
CENTER
 62
     2
  5
FA
 10
124.141247
 20
307.251082
 30
0.0
 11
-21.215649
 21
307.251082
 31
0.0
  0
CIRCLE
  8
2
  5
FB
 10
97.954872
 20
307.251082
 30
0.0
 40
17.5
  0
LINE
  8
2
  5
FC
 10
80.918147
 20
303.251082
 30
0.0
 11
21.955049
 21
303.251082
 31
0.0
  0
LINE
  8
2
  5
FD
 10
80.918147
 20
311.251082
 30
0.0
 11
21.955049
 21
311.251082
 31
0.0
  0
LINE
  8
2
  5
FE
 10
21.455049
 20
303.751082
 30
0.0
 11
21.455049
 21
310.751082
 31
0.0
  0
LINE
  8
2
 62
     2
  5
FF
 10
21.955049
 20
190.050702
 30
0.0
 11
21.955049
 21
182.050702
 31
0.0
  0
LINE
  8
2
  5
100
 10
21.955049
 20
311.251082
 30
0.0
 11
21.455049
 21
310.751082
 31
0.0
  0
LINE
  8
2
  5
101
 10
21.955049
 20
303.251082
 30
0.0
 11
21.455049
 21
303.751082
 31
0.0
  0
LINE
  8
2
  5
102
 10
21.955049
 20
311.251082
 30
0.0
 11
21.955049
 21
303.251082
 31
0.0
  0
LINE
  8
2
  5
103
 10
83.257934
 20
316.751082
 30
0.0
 11
-12.517156
 21
316.751082
 31
0.0
  0
LINE
  8
2
  5
104
 10
83.257934
 20
297.751082
 30
0.0
 11
-12.517156
 21
297.751082
 31
0.0
  0
POINT
  8
2
  5
105
 10
-12.517156
 20
94.610348
 30
0.0
  0
POLYLINE
  8
2
  5
106
 66
     1
 10
0.0
 20
0.0
 30
0.0
  0
VERTEX
  8
2
  5
9B4
 10
-12.517156
 20
316.751082
 30
0.0
  0
VERTEX
  8
2
  5
9B5
 10
-13.036977
 20
316.726816
 30
0.0
  0
VERTEX
  8
2
  5
9B6
 10
-13.556799
 20
316.653644
 30
0.0
  0
VERTEX
  8
2
  5
9B7
 10
-14.07662
 20
316.530407
 30
0.0
  0
VERTEX
  8
2
  5
9B8
 10
-14.596441
 20
316.355073
 30
0.0
  0
VERTEX
  8
2
  5
9B9
 10
-15.116263
 20
316.124555
 30
0.0
  0
VERTEX
  8
2
  5
9BA
 10
-15.636084
 20
315.834407
 30
0.0
  0
VERTEX
  8
2
  5
9BB
 10
-16.155906
 20
315.478323
 30
0.0
  0
VERTEX
  8
2
  5
9BC
 10
-16.675727
 20
315.047274
 30
0.0
  0
VERTEX
  8
2
  5
9BD
 10
-17.195549
 20
314.52795
 30
0.0
  0
VERTEX
  8
2
  5
9BE
 10
-17.71537
 20
313.899697
 30
0.0
  0
VERTEX
  8
2
  5
9BF
 10
-18.235191
 20
313.127683
 30
0.0
  0
VERTEX
  8
2
  5
9C0
 10
-18.755013
 20
312.14433
 30
0.0
  0
VERTEX
  8
2
  5
9C1
 10
-19.274834
 20
310.777043
 30
0.0
  0
VERTEX
  8
2
  5
9C2
 10
-19.794656
 20
307.251082
 30
0.0
  0
VERTEX
  8
2
  5
9C3
 10
-19.274834
 20
303.725121
 30
0.0
  0
VERTEX
  8
2
  5
9C4
 10
-18.755013
 20
302.357834
 30
0.0
  0
VERTEX
  8
2
  5
9C5
 10
-18.235191
 20
301.374481
 30
0.0
  0
VERTEX
  8
2
  5
9C6
 10
-17.71537
 20
300.602467
 30
0.0
  0
VERTEX
  8
2
  5
9C7
 10
-17.195549
 20
299.974214
 30
0.0
  0
VERTEX
  8
2
  5
9C8
 10
-16.675727
 20
299.45489
 30
0.0
  0
VERTEX
  8
2
  5
9C9
 10
-16.155906
 20
299.023841
 30
0.0
  0
VERTEX
  8
2
  5
9CA
 10
-15.636084
 20
298.667757
 30
0.0
  0
VERTEX
  8
2
  5
9CB
 10
-15.116263
 20
298.377609
 30
0.0
  0
VERTEX
  8
2
  5
9CC
 10
-14.596441
 20
298.147091
 30
0.0
  0
VERTEX
  8
2
  5
9CD
 10
-14.07662
 20
297.971757
 30
0.0
  0
VERTEX
  8
2
  5
9CE
 10
-13.556799
 20
297.84852
 30
0.0
  0
VERTEX
  8
2
  5
9CF
 10
-13.036977
 20
297.775348
 30
0.0
  0
VERTEX
  8
2
  5
9D0
 10
-12.517156
 20
297.751082
 30
0.0
  0
SEQEND
  8
2
  5
9D1
  0
POLYLINE
  8
2
  5
125
 66
     1
 10
0.0
 20
0.0
 30
0.0
  0
VERTEX
  8
2
  5
9D2
 10
-0.181225
 20
316.726816
 30
0.0
  0
VERTEX
  8
2
  5
9D3
 10
0.338596
 20
316.751082
 30
0.0
  0
VERTEX
  8
2
  5
9D4
 10
-0.181225
 20
316.726816
 30
0.0
  0
VERTEX
  8
2
  5
9D5
 10
-0.701046
 20
316.653644
 30
0.0
  0
VERTEX
  8
2
  5
9D6
 10
-1.220868
 20
316.530407
 30
0.0
  0
VERTEX
  8
2
  5
9D7
 10
-1.740689
 20
316.355073
 30
0.0
  0
VERTEX
  8
2
  5
9D8
 10
-2.260511
 20
316.124555
 30
0.0
  0
VERTEX
  8
2
  5
9D9
 10
-2.780332
 20
315.834407
 30
0.0
  0
VERTEX
  8
2
  5
9DA
 10
-3.300154
 20
315.478323
 30
0.0
  0
VERTEX
  8
2
  5
9DB
 10
-3.819975
 20
315.047274
 30
0.0
  0
VERTEX
  8
2
  5
9DC
 10
-4.339796
 20
314.52795
 30
0.0
  0
VERTEX
  8
2
  5
9DD
 10
-4.859618
 20
313.899697
 30
0.0
  0
VERTEX
  8
2
  5
9DE
 10
-5.379439
 20
313.127683
 30
0.0
  0
VERTEX
  8
2
  5
9DF
 10
-5.899261
 20
312.14433
 30
0.0
  0
VERTEX
  8
2
  5
9E0
 10
-6.419082
 20
310.777043
 30
0.0
  0
VERTEX
  8
2
  5
9E1
 10
-6.938904
 20
307.251082
 30
0.0
  0
VERTEX
  8
2
  5
9E2
 10
-6.419082
 20
303.725121
 30
0.0
  0
VERTEX
  8
2
  5
9E3
 10
-5.899261
 20
302.357834
 30
0.0
  0
VERTEX
  8
2
  5
9E4
 10
-5.379439
 20
301.374481
 30
0.0
  0
VERTEX
  8
2
  5
9E5
 10
-4.859618
 20
300.602467
 30
0.0
  0
VERTEX
  8
2
  5
9E6
 10
-4.339796
 20
299.974214
 30
0.0
  0
VERTEX
  8
2
  5
9E7
 10
-3.819975
 20
299.45489
 30
0.0
  0
VERTEX
  8
2
  5
9E8
 10
-3.300154
 20
299.023841
 30
0.0
  0
VERTEX
  8
2
  5
9E9
 10
-2.780332
 20
298.667757
 30
0.0
  0
VERTEX
  8
2
  5
9EA
 10
-2.260511
 20
298.377609
 30
0.0
  0
VERTEX
  8
2
  5
9EB
 10
-1.740689
 20
298.147091
 30
0.0
  0
VERTEX
  8
2
  5
9EC
 10
-1.220868
 20
297.971757
 30
0.0
  0
VERTEX
  8
2
  5
9ED
 10
-0.701046
 20
297.84852
 30
0.0
  0
VERTEX
  8
2
  5
9EE
 10
-0.181225
 20
297.775348
 30
0.0
  0
VERTEX
  8
2
  5
9EF
 10
0.338596
 20
297.751082
 30
0.0
  0
SEQEND
  8
2
  5
9F0
  0
POLYLINE
  8
2
  5
145
 66
     1
 10
0.0
 20
0.0
 30
0.0
  0
VERTEX
  8
2
  5
9F1
 10
0.724269
 20
316.751082
 30
0.0
  0
VERTEX
  8
2
  5
9F2
 10
0.204448
 20
316.726816
 30
0.0
  0
VERTEX
  8
2
  5
9F3
 10
-0.315374
 20
316.653644
 30
0.0
  0
VERTEX
  8
2
  5
9F4
 10
-0.835195
 20
316.530407
 30
0.0
  0
VERTEX
  8
2
  5
9F5
 10
-1.355017
 20
316.355073
 30
0.0
  0
VERTEX
  8
2
  5
9F6
 10
-1.874838
 20
316.124555
 30
0.0
  0
VERTEX
  8
2
  5
9F7
 10
-2.39466
 20
315.834407
 30
0.0
  0
VERTEX
  8
2
  5
9F8
 10
-2.914481
 20
315.478323
 30
0.0
  0
VERTEX
  8
2
  5
9F9
 10
-3.434302
 20
315.047274
 30
0.0
  0
VERTEX
  8
2
  5
9FA
 10
-3.954124
 20
314.52795
 30
0.0
  0
VERTEX
  8
2
  5
9FB
 10
-4.473945
 20
313.899697
 30
0.0
  0
VERTEX
  8
2
  5
9FC
 10
-4.993767
 20
313.127683
 30
0.0
  0
VERTEX
  8
2
  5
9FD
 10
-5.513588
 20
312.14433
 30
0.0
  0
VERTEX
  8
2
  5
9FE
 10
-6.03341
 20
310.777043
 30
0.0
  0
VERTEX
  8
2
  5
9FF
 10
-6.553231
 20
307.251082
 30
0.0
  0
VERTEX
  8
2
  5
A00
 10
-6.03341
 20
303.725121
 30
0.0
  0
VERTEX
  8
2
  5
A01
 10
-5.513588
 20
302.357834
 30
0.0
  0
VERTEX
  8
2
  5
A02
 10
-4.993767
 20
301.374481
 30
0.0
  0
VERTEX
  8
2
  5
A03
 10
-4.473945
 20
300.602467
 30
0.0
  0
VERTEX
  8
2
  5
A04
 10
-3.954124
 20
299.974214
 30
0.0
  0
VERTEX
  8
2
  5
A05
 10
-3.434302
 20
299.45489
 30
0.0
  0
VERTEX
  8
2
  5
A06
 10
-2.914481
 20
299.023841
 30
0.0
  0
VERTEX
  8
2
  5
A07
 10
-2.39466
 20
298.667757
 30
0.0
  0
VERTEX
  8
2
  5
A08
 10
-1.874838
 20
298.377609
 30
0.0
  0
VERTEX
  8
2
  5
A09
 10
-1.355017
 20
298.147091
 30
0.0
  0
VERTEX
  8
2
  5
A0A
 10
-0.835195
 20
297.971757
 30
0.0
  0
VERTEX
  8
2
  5
A0B
 10
-0.315374
 20
297.84852
 30
0.0
  0
VERTEX
  8
2
  5
A0C
 10
0.204448
 20
297.775348
 30
0.0
  0
VERTEX
  8
2
  5
A0D
 10
0.724269
 20
297.751082
 30
0.0
  0
SEQEND
  8
2
  5
A0E
  0
ARC
  8
2
 62
     2
  5
164
 10
97.954872
 20
307.251082
 30
0.0
 40
23.5
 50
203.84447
 51
156.15553
  0
ARC
  8
2
  5
165
 10
97.954872
 20
307.251082
 30
0.0
 40
24.0
 50
203.317957
 51
156.682043
  0
LINE
  8
2
  6
CENTER
 62
     2
  5
166
 10
97.954872
 20
282.099776
 30
0.0
 11
97.954872
 21
332.504225
 31
0.0
  0
TEXT
  8
2
  5
167
 10
94.912907
 20
322.872603
 30
0.0
 40
7.0
  1
Ｈ
 50
270.0
 72
     5
 11
94.912907
 21
317.272603
 31
0.0
  0
TEXT
  8
2
  5
168
 10
95.07777
 20
299.086699
 30
0.0
 40
7.0
  1
Ｃ
 50
270.0
 72
     5
 11
95.07777
 21
293.486699
 31
0.0
  0
POINT
  8
2
  5
169
 10
97.954872
 20
307.251082
 30
0.0
  0
LINE
  8
2
  6
DASHED
 62
     2
  5
16A
 10
75.441324
 20
290.394388
 30
0.0
 11
41.386455
 21
256.339519
 31
0.0
  0
LINE
  8
2
  6
DASHED
 62
     2
  5
16B
 10
82.276671
 20
285.916027
 30
0.0
 11
47.043309
 21
250.682665
 31
0.0
  0
LINE
  8
2
  6
DASHED
 62
     2
  5
16C
 10
41.386455
 20
255.632412
 30
0.0
 11
46.336202
 21
250.682665
 31
0.0
  0
LINE
  8
2
  6
DASHED
 62
     2
  5
16D
 10
47.043309
 20
250.682665
 30
0.0
 11
46.336202
 21
250.682665
 31
0.0
  0
LINE
  8
2
  6
DASHED
 62
     2
  5
16E
 10
41.386455
 20
256.339519
 30
0.0
 11
41.386455
 21
255.632412
 31
0.0
  0
LINE
  8
2
  6
DASHED
 62
     2
  5
16F
 10
47.043309
 20
250.682665
 30
0.0
 11
41.386455
 21
256.339519
 31
0.0
  0
LINE
  8
2
  6
DASHED
 62
     2
  5
170
 10
75.441324
 20
324.107776
 30
0.0
 11
41.386455
 21
358.162645
 31
0.0
  0
LINE
  8
2
  6
DASHED
 62
     2
  5
171
 10
82.276671
 20
328.586137
 30
0.0
 11
47.043309
 21
363.819499
 31
0.0
  0
LINE
  8
2
  6
DASHED
 62
     2
  5
172
 10
41.386455
 20
358.869752
 30
0.0
 11
46.336202
 21
363.819499
 31
0.0
  0
LINE
  8
2
  6
DASHED
 62
     2
  5
173
 10
47.043309
 20
363.819499
 30
0.0
 11
46.336202
 21
363.819499
 31
0.0
  0
LINE
  8
2
  6
DASHED
 62
     2
  5
174
 10
41.386455
 20
358.162645
 30
0.0
 11
41.386455
 21
358.869752
 31
0.0
  0
LINE
  8
2
  6
DASHED
 62
     2
  5
175
 10
47.043309
 20
363.819499
 30
0.0
 11
41.386455
 21
358.162645
 31
0.0
  0
LINE
  8
2
  6
CENTER
 62
     2
  5
176
 10
42.267788
 20
362.938166
 30
0.0
 11
78.648762
 21
326.557192
 31
0.0
  0
LINE
  8
2
  6
CENTER
 62
     2
  5
177
 10
78.294523
 20
287.590733
 30
0.0
 11
41.913254
 21
251.209464
 31
0.0
  0
LINE
  8
2
  6
DASHED
 62
     2
  5
178
 10
32.358949
 20
209.574127
 30
0.0
 11
77.076875
 21
191.506912
 31
0.0
  0
LINE
  8
2
  6
DASHED
 62
     2
  5
179
 10
35.355802
 20
216.991598
 30
0.0
 11
86.531577
 21
196.315243
 31
0.0
  0
LINE
  8
2
  6
DASHED
 62
     2
  5
17A
 10
32.08266
 20
210.225022
 30
0.0
 11
34.704907
 21
216.715309
 31
0.0
  0
LINE
  8
2
  6
DASHED
 62
     2
  5
17B
 10
35.355802
 20
216.991598
 30
0.0
 11
34.704907
 21
216.715309
 31
0.0
  0
LINE
  8
2
  6
DASHED
 62
     2
  5
17C
 10
32.08266
 20
210.225022
 30
0.0
 11
32.358949
 21
209.574127
 31
0.0
  0
LINE
  8
2
  6
DASHED
 62
     2
  5
17D
 10
35.355802
 20
216.991598
 30
0.0
 11
32.358949
 21
209.574127
 31
0.0
  0
LINE
  8
2
  6
DASHED
 62
     2
  5
17E
 10
122.618571
 20
186.04929
 30
0.0
 11
119.36797
 21
187.362618
 31
0.0
  0
LINE
  8
2
  6
DASHED
 62
     2
  5
17F
 10
114.12022
 20
169.050702
 30
0.0
 11
116.82923
 21
169.050702
 31
0.0
  0
ARC
  8
2
  6
DASHED
 62
     2
  5
180
 10
122.243964
 20
185.122106
 30
0.0
 40
1.0
 50
338.0
 51
68.0
  0
ARC
  8
2
  6
DASHED
 62
     2
  5
181
 10
115.052367
 20
180.477956
 30
0.0
 40
8.0
 50
338.0
 51
8.0
  0
LINE
  8
2
  6
DASHED
 62
     2
  5
182
 10
122.974512
 20
181.591341
 30
0.0
 11
122.047328
 21
181.965948
 31
0.0
  0
LINE
  8
2
  6
DASHED
 62
     2
  5
183
 10
121.766373
 20
181.27056
 30
0.0
 11
122.047328
 21
181.965948
 31
0.0
  0
ARC
  8
2
  6
DASHED
 62
     2
  5
184
 10
115.052367
 20
180.477956
 30
0.0
 40
8.0
 50
308.0
 51
338.0
  0
LINE
  8
2
  6
DASHED
 62
     2
  5
185
 10
119.977659
 20
174.17387
 30
0.0
 11
119.050475
 21
174.548477
 31
0.0
  0
LINE
  8
2
  6
DASHED
 62
     2
  5
186
 10
119.33143
 20
175.243865
 30
0.0
 11
119.050475
 21
174.548477
 31
0.0
  0
LINE
  8
2
  6
DASHED
 62
     2
  5
187
 10
116.82923
 20
169.050702
 30
0.0
 11
120.548902
 21
178.257212
 31
0.0
  0
LINE
  8
2
  6
DASHED
 62
     2
  5
188
 10
120.548902
 20
178.257212
 30
0.0
 11
123.171148
 21
184.747499
 31
0.0
  0
LINE
  8
2
  6
DASHED
 62
     2
  5
189
 10
122.974512
 20
181.591341
 30
0.0
 11
119.977659
 21
174.17387
 31
0.0
  0
LINE
  8
2
 62
     2
  5
18A
 10
-373.453258
 20
57.850702
 30
0.0
 11
-338.453258
 21
57.850702
 31
0.0
  0
LINE
  8
2
  5
18B
 10
-338.453258
 20
57.850702
 30
0.0
 11
-338.753258
 21
58.150702
 31
0.0
  0
LINE
  8
2
  5
18C
 10
-373.453258
 20
57.850702
 30
0.0
 11
-373.153258
 21
58.150702
 31
0.0
  0
LINE
  8
2
  5
18D
 10
-373.453258
 20
57.850702
 30
0.0
 11
-373.453258
 21
-101.549298
 31
0.0
  0
LINE
  8
2
  5
18E
 10
-338.453258
 20
-101.549298
 30
0.0
 11
-338.453258
 21
57.850702
 31
0.0
  0
LINE
  8
2
  5
18F
 10
-373.453258
 20
-101.549298
 30
0.0
 11
-373.153258
 21
-101.849298
 31
0.0
  0
LINE
  8
2
  5
190
 10
-338.453258
 20
-101.549298
 30
0.0
 11
-338.753258
 21
-101.849298
 31
0.0
  0
LINE
  8
2
  5
191
 10
-355.953258
 20
-101.849298
 30
0.0
 11
-379.453258
 21
-101.849298
 31
0.0
  0
LINE
  8
2
  5
192
 10
-379.453258
 20
-101.849298
 30
0.0
 11
-379.953258
 21
-102.349298
 31
0.0
  0
LINE
  8
2
  5
193
 10
-379.953258
 20
-102.349298
 30
0.0
 11
-379.953258
 21
-105.349298
 31
0.0
  0
LINE
  8
2
  5
194
 10
-379.953258
 20
-105.349298
 30
0.0
 11
-379.453258
 21
-105.849298
 31
0.0
  0
LINE
  8
2
  5
195
 10
-355.953258
 20
-105.849298
 30
0.0
 11
-379.453258
 21
-105.849298
 31
0.0
  0
LINE
  8
2
  5
196
 10
-373.453258
 20
-145.099298
 30
0.0
 11
-372.703258
 21
-145.849298
 31
0.0
  0
LINE
  8
2
  5
197
 10
-355.953258
 20
-145.849298
 30
0.0
 11
-372.703258
 21
-145.849298
 31
0.0
  0
LINE
  8
2
  5
198
 10
-373.453258
 20
-145.099298
 30
0.0
 11
-373.453258
 21
-139.298578
 31
0.0
  0
LINE
  8
2
  5
199
 10
-373.453258
 20
-123.849298
 30
0.0
 11
-373.453258
 21
-108.849298
 31
0.0
  0
LINE
  8
2
 62
     2
  5
19A
 10
-372.703258
 20
-145.849298
 30
0.0
 11
-372.703258
 21
-139.298578
 31
0.0
  0
LINE
  8
2
 62
     2
  5
19B
 10
-372.703258
 20
-123.849298
 30
0.0
 11
-372.703258
 21
-108.849298
 31
0.0
  0
LINE
  8
2
  5
19C
 10
-355.953258
 20
-101.849298
 30
0.0
 11
-332.453258
 21
-101.849298
 31
0.0
  0
LINE
  8
2
  5
19D
 10
-332.453258
 20
-101.849298
 30
0.0
 11
-331.953258
 21
-102.349298
 31
0.0
  0
LINE
  8
2
  5
19E
 10
-331.953258
 20
-102.349298
 30
0.0
 11
-331.953258
 21
-105.349298
 31
0.0
  0
LINE
  8
2
  5
19F
 10
-331.953258
 20
-105.349298
 30
0.0
 11
-332.453258
 21
-105.849298
 31
0.0
  0
LINE
  8
2
  5
1A0
 10
-355.953258
 20
-105.849298
 30
0.0
 11
-332.453258
 21
-105.849298
 31
0.0
  0
LINE
  8
2
  5
1A1
 10
-338.453258
 20
-145.099298
 30
0.0
 11
-339.203258
 21
-145.849298
 31
0.0
  0
LINE
  8
2
  5
1A2
 10
-355.953258
 20
-145.849298
 30
0.0
 11
-339.203258
 21
-145.849298
 31
0.0
  0
LINE
  8
2
  5
1A3
 10
-338.453258
 20
-145.099298
 30
0.0
 11
-338.453258
 21
-139.298578
 31
0.0
  0
LINE
  8
2
  5
1A4
 10
-338.453258
 20
-123.849298
 30
0.0
 11
-338.453258
 21
-108.849298
 31
0.0
  0
LINE
  8
2
 62
     2
  5
1A5
 10
-339.203258
 20
-145.849298
 30
0.0
 11
-339.203258
 21
-139.298578
 31
0.0
  0
LINE
  8
2
 62
     2
  5
1A6
 10
-339.203258
 20
-123.849298
 30
0.0
 11
-339.203258
 21
-108.849298
 31
0.0
  0
LINE
  8
2
 62
     2
  5
1A7
 10
-373.453258
 20
-101.549298
 30
0.0
 11
-338.453258
 21
-101.549298
 31
0.0
  0
LINE
  8
2
 62
     2
  5
1A8
 10
-379.953258
 20
-102.349298
 30
0.0
 11
-331.953258
 21
-102.349298
 31
0.0
  0
LINE
  8
2
 62
     2
  5
1A9
 10
-331.953258
 20
-105.349298
 30
0.0
 11
-379.953258
 21
-105.349298
 31
0.0
  0
LINE
  8
2
  5
1AA
 10
-379.453258
 20
-105.849298
 30
0.0
 11
-379.453258
 21
-108.849298
 31
0.0
  0
LINE
  8
2
  5
1AB
 10
-332.453258
 20
-105.849298
 30
0.0
 11
-332.453258
 21
-108.849298
 31
0.0
  0
LINE
  8
2
  5
1AC
 10
-379.453258
 20
-108.849298
 30
0.0
 11
-332.453258
 21
-108.849298
 31
0.0
  0
LINE
  8
2
 62
     2
  5
1AD
 10
-333.953258
 20
-108.849298
 30
0.0
 11
-332.453258
 21
-107.349298
 31
0.0
  0
LINE
  8
2
 62
     2
  5
1AE
 10
-338.195899
 20
-108.849298
 30
0.0
 11
-335.195899
 21
-105.849298
 31
0.0
  0
LINE
  8
2
 62
     2
  5
1AF
 10
-342.43854
 20
-108.849298
 30
0.0
 11
-339.43854
 21
-105.849298
 31
0.0
  0
LINE
  8
2
 62
     2
  5
1B0
 10
-346.681181
 20
-108.849298
 30
0.0
 11
-343.681181
 21
-105.849298
 31
0.0
  0
LINE
  8
2
 62
     2
  5
1B1
 10
-350.923821
 20
-108.849298
 30
0.0
 11
-347.923821
 21
-105.849298
 31
0.0
  0
LINE
  8
2
 62
     2
  5
1B2
 10
-355.166462
 20
-108.849298
 30
0.0
 11
-352.166462
 21
-105.849298
 31
0.0
  0
LINE
  8
2
 62
     2
  5
1B3
 10
-359.409103
 20
-108.849298
 30
0.0
 11
-356.409103
 21
-105.849298
 31
0.0
  0
LINE
  8
2
 62
     2
  5
1B4
 10
-363.651743
 20
-108.849298
 30
0.0
 11
-360.651743
 21
-105.849298
 31
0.0
  0
LINE
  8
2
 62
     2
  5
1B5
 10
-367.894384
 20
-108.849298
 30
0.0
 11
-364.894384
 21
-105.849298
 31
0.0
  0
LINE
  8
2
 62
     2
  5
1B6
 10
-372.137025
 20
-108.849298
 30
0.0
 11
-369.137025
 21
-105.849298
 31
0.0
  0
LINE
  8
2
 62
     2
  5
1B7
 10
-376.379665
 20
-108.849298
 30
0.0
 11
-373.379665
 21
-105.849298
 31
0.0
  0
LINE
  8
2
 62
     2
  5
1B8
 10
-379.453258
 20
-107.68025
 30
0.0
 11
-377.622306
 21
-105.849298
 31
0.0
  0
LINE
  8
2
 62
     2
  5
1B9
 10
-338.453258
 20
-145.099298
 30
0.0
 11
-348.864535
 21
-145.099298
 31
0.0
  0
LINE
  8
2
  5
1BA
 10
-348.864535
 20
-145.849298
 30
0.0
 11
-348.864535
 21
-139.298578
 31
0.0
  0
LINE
  8
2
  5
1BB
 10
-363.041982
 20
-145.849298
 30
0.0
 11
-363.041982
 21
-139.298578
 31
0.0
  0
LINE
  8
2
 62
     2
  5
1BC
 10
-373.453258
 20
-145.099298
 30
0.0
 11
-363.041982
 21
-145.099298
 31
0.0
  0
LINE
  8
2
  5
1BD
 10
-383.541258
 20
-123.849298
 30
0.0
 11
-328.365258
 21
-123.849298
 31
0.0
  0
LINE
  8
2
  5
1BE
 10
-328.365258
 20
-125.504578
 30
0.0
 11
-383.541258
 21
-125.504578
 31
0.0
  0
LINE
  8
2
  5
1BF
 10
-327.261738
 20
-126.056338
 30
0.0
 11
-384.644778
 21
-126.056338
 31
0.0
  0
LINE
  8
2
  5
1C0
 10
-328.365258
 20
-125.504578
 30
0.0
 11
-383.541258
 21
-125.504578
 31
0.0
  0
LINE
  8
2
  5
1C1
 10
-327.261738
 20
-126.056338
 30
0.0
 11
-384.644778
 21
-126.056338
 31
0.0
  0
LINE
  8
2
  5
1C2
 10
-328.365258
 20
-125.504578
 30
0.0
 11
-383.541258
 21
-125.504578
 31
0.0
  0
LINE
  8
2
  5
1C3
 10
-328.365258
 20
-126.056338
 30
0.0
 11
-328.365258
 21
-123.849298
 31
0.0
  0
LINE
  8
2
  5
1C4
 10
-383.541258
 20
-126.056338
 30
0.0
 11
-383.541258
 21
-123.849298
 31
0.0
  0
LINE
  8
2
  5
1C5
 10
-384.644778
 20
-138.093632
 30
0.0
 11
-384.644778
 21
-126.056338
 31
0.0
  0
LINE
  8
2
  5
1C6
 10
-371.24408
 20
-128.263378
 30
0.0
 11
-384.644778
 21
-128.263378
 31
0.0
  0
LINE
  8
2
  5
1C7
 10
-371.24408
 20
-138.093632
 30
0.0
 11
-371.24408
 21
-128.263378
 31
0.0
  0
LINE
  8
2
  5
1C8
 10
-369.332727
 20
-138.093632
 30
0.0
 11
-369.332727
 21
-128.263378
 31
0.0
  0
LINE
  8
2
  5
1C9
 10
-342.57379
 20
-128.263378
 30
0.0
 11
-369.332727
 21
-128.263378
 31
0.0
  0
LINE
  8
2
  5
1CA
 10
-340.662437
 20
-138.093632
 30
0.0
 11
-340.662437
 21
-128.263378
 31
0.0
  0
LINE
  8
2
  5
1CB
 10
-342.57379
 20
-138.093632
 30
0.0
 11
-342.57379
 21
-128.263378
 31
0.0
  0
LINE
  8
2
  5
1CC
 10
-327.261738
 20
-128.263378
 30
0.0
 11
-340.662437
 21
-128.263378
 31
0.0
  0
LINE
  8
2
  5
1CD
 10
-327.261738
 20
-138.093632
 30
0.0
 11
-327.261738
 21
-126.056338
 31
0.0
  0
ARC
  8
2
  5
1CE
 10
-333.962088
 20
-120.066762
 30
0.0
 40
19.231816
 50
249.610566
 51
290.389434
  0
ARC
  8
2
  5
1CF
 10
-355.953258
 20
-64.414646
 30
0.0
 40
74.883932
 50
259.707733
 51
280.292267
  0
LINE
  8
2
  5
1D0
 10
-340.662437
 20
-138.093632
 30
0.0
 11
-342.57379
 21
-138.093632
 31
0.0
  0
LINE
  8
2
  5
1D1
 10
-369.332727
 20
-138.093632
 30
0.0
 11
-371.24408
 21
-138.093632
 31
0.0
  0
ARC
  8
2
  5
1D2
 10
-355.953258
 20
-64.414646
 30
0.0
 40
74.883932
 50
259.707733
 51
280.292267
  0
ARC
  8
2
  5
1D3
 10
-377.944429
 20
-120.066762
 30
0.0
 40
19.231816
 50
249.610566
 51
290.389434
  0
LINE
  8
2
  5
1D4
 10
-330.572298
 20
-139.298578
 30
0.0
 11
-381.334218
 21
-139.298578
 31
0.0
  0
LINE
  8
2
  5
1D5
 10
-381.334218
 20
-139.298578
 30
0.0
 11
-384.644778
 21
-138.093632
 31
0.0
  0
LINE
  8
2
  5
1D6
 10
-330.572298
 20
-139.298578
 30
0.0
 11
-327.261738
 21
-138.093632
 31
0.0
  0
POINT
  8
2
  5
1D7
 10
-355.953258
 20
-123.849298
 30
0.0
  0
LINE
  8
2
 62
     2
  5
1D8
 10
-329.192898
 20
-125.504578
 30
0.0
 11
-328.365258
 21
-124.676938
 31
0.0
  0
LINE
  8
2
 62
     2
  5
1D9
 10
-331.780259
 20
-123.849298
 30
0.0
 11
-333.435539
 21
-125.504578
 31
0.0
  0
LINE
  8
2
 62
     2
  5
1DA
 10
-336.0229
 20
-123.849298
 30
0.0
 11
-337.67818
 21
-125.504578
 31
0.0
  0
LINE
  8
2
 62
     2
  5
1DB
 10
-340.265541
 20
-123.849298
 30
0.0
 11
-341.920821
 21
-125.504578
 31
0.0
  0
LINE
  8
2
 62
     2
  5
1DC
 10
-344.508181
 20
-123.849298
 30
0.0
 11
-346.163461
 21
-125.504578
 31
0.0
  0
LINE
  8
2
 62
     2
  5
1DD
 10
-348.750822
 20
-123.849298
 30
0.0
 11
-350.406102
 21
-125.504578
 31
0.0
  0
LINE
  8
2
 62
     2
  5
1DE
 10
-352.993463
 20
-123.849298
 30
0.0
 11
-354.648743
 21
-125.504578
 31
0.0
  0
LINE
  8
2
 62
     2
  5
1DF
 10
-357.236103
 20
-123.849298
 30
0.0
 11
-358.891383
 21
-125.504578
 31
0.0
  0
LINE
  8
2
 62
     2
  5
1E0
 10
-361.478744
 20
-123.849298
 30
0.0
 11
-363.134024
 21
-125.504578
 31
0.0
  0
LINE
  8
2
 62
     2
  5
1E1
 10
-365.721385
 20
-123.849298
 30
0.0
 11
-367.376665
 21
-125.504578
 31
0.0
  0
LINE
  8
2
 62
     2
  5
1E2
 10
-369.964025
 20
-123.849298
 30
0.0
 11
-371.619305
 21
-125.504578
 31
0.0
  0
LINE
  8
2
 62
     2
  5
1E3
 10
-374.206666
 20
-123.849298
 30
0.0
 11
-375.861946
 21
-125.504578
 31
0.0
  0
LINE
  8
2
 62
     2
  5
1E4
 10
-378.449307
 20
-123.849298
 30
0.0
 11
-380.104587
 21
-125.504578
 31
0.0
  0
LINE
  8
2
 62
     2
  5
1E5
 10
-382.691947
 20
-123.849298
 30
0.0
 11
-383.541258
 21
-124.698609
 31
0.0
  0
LINE
  8
2
  5
1E6
 10
80.454872
 20
57.850702
 30
0.0
 11
80.454872
 21
-101.549298
 31
0.0
  0
LINE
  8
2
  5
1E7
 10
115.454872
 20
-101.549298
 30
0.0
 11
115.454872
 21
57.850702
 31
0.0
  0
LINE
  8
2
  5
1E8
 10
80.454872
 20
-101.549298
 30
0.0
 11
80.754872
 21
-101.849298
 31
0.0
  0
LINE
  8
2
  5
1E9
 10
115.454872
 20
-101.549298
 30
0.0
 11
115.154872
 21
-101.849298
 31
0.0
  0
LINE
  8
2
  5
1EA
 10
97.954872
 20
-101.849298
 30
0.0
 11
74.454872
 21
-101.849298
 31
0.0
  0
LINE
  8
2
  5
1EB
 10
74.454872
 20
-101.849298
 30
0.0
 11
73.954872
 21
-102.349298
 31
0.0
  0
LINE
  8
2
  5
1EC
 10
73.954872
 20
-102.349298
 30
0.0
 11
73.954872
 21
-105.349298
 31
0.0
  0
LINE
  8
2
  5
1ED
 10
73.954872
 20
-105.349298
 30
0.0
 11
74.454872
 21
-105.849298
 31
0.0
  0
LINE
  8
2
  5
1EE
 10
97.954872
 20
-105.849298
 30
0.0
 11
74.454872
 21
-105.849298
 31
0.0
  0
LINE
  8
2
  5
1EF
 10
80.454872
 20
-123.849298
 30
0.0
 11
80.454872
 21
-108.849298
 31
0.0
  0
LINE
  8
2
 62
     2
  5
1F0
 10
81.204872
 20
-123.849298
 30
0.0
 11
81.204872
 21
-108.849298
 31
0.0
  0
LINE
  8
2
  5
1F1
 10
97.954872
 20
-101.849298
 30
0.0
 11
121.454872
 21
-101.849298
 31
0.0
  0
LINE
  8
2
  5
1F2
 10
121.454872
 20
-101.849298
 30
0.0
 11
121.954872
 21
-102.349298
 31
0.0
  0
LINE
  8
2
  5
1F3
 10
121.954872
 20
-102.349298
 30
0.0
 11
121.954872
 21
-105.349298
 31
0.0
  0
LINE
  8
2
  5
1F4
 10
121.954872
 20
-105.349298
 30
0.0
 11
121.454872
 21
-105.849298
 31
0.0
  0
LINE
  8
2
  5
1F5
 10
97.954872
 20
-105.849298
 30
0.0
 11
121.454872
 21
-105.849298
 31
0.0
  0
LINE
  8
2
  5
1F6
 10
115.454872
 20
-123.849298
 30
0.0
 11
115.454872
 21
-108.849298
 31
0.0
  0
LINE
  8
2
 62
     2
  5
1F7
 10
114.704872
 20
-123.849298
 30
0.0
 11
114.704872
 21
-108.849298
 31
0.0
  0
LINE
  8
2
 62
     2
  5
1F8
 10
80.454872
 20
-101.549298
 30
0.0
 11
115.454872
 21
-101.549298
 31
0.0
  0
LINE
  8
2
 62
     2
  5
1F9
 10
73.954872
 20
-102.349298
 30
0.0
 11
121.954872
 21
-102.349298
 31
0.0
  0
LINE
  8
2
 62
     2
  5
1FA
 10
121.954872
 20
-105.349298
 30
0.0
 11
73.954872
 21
-105.349298
 31
0.0
  0
LINE
  8
2
  5
1FB
 10
74.454872
 20
-105.849298
 30
0.0
 11
74.454872
 21
-108.849298
 31
0.0
  0
LINE
  8
2
  5
1FC
 10
121.454872
 20
-105.849298
 30
0.0
 11
121.454872
 21
-108.849298
 31
0.0
  0
LINE
  8
2
  5
1FD
 10
74.454872
 20
-108.849298
 30
0.0
 11
121.454872
 21
-108.849298
 31
0.0
  0
LINE
  8
2
 62
     2
  5
1FE
 10
119.954872
 20
-108.849298
 30
0.0
 11
121.454872
 21
-107.349298
 31
0.0
  0
LINE
  8
2
 62
     2
  5
1FF
 10
115.712232
 20
-108.849298
 30
0.0
 11
118.712232
 21
-105.849298
 31
0.0
  0
LINE
  8
2
 62
     2
  5
200
 10
111.469591
 20
-108.849298
 30
0.0
 11
114.469591
 21
-105.849298
 31
0.0
  0
LINE
  8
2
 62
     2
  5
201
 10
107.22695
 20
-108.849298
 30
0.0
 11
110.22695
 21
-105.849298
 31
0.0
  0
LINE
  8
2
 62
     2
  5
202
 10
102.984309
 20
-108.849298
 30
0.0
 11
105.984309
 21
-105.849298
 31
0.0
  0
LINE
  8
2
 62
     2
  5
203
 10
98.741669
 20
-108.849298
 30
0.0
 11
101.741669
 21
-105.849298
 31
0.0
  0
LINE
  8
2
 62
     2
  5
204
 10
94.499028
 20
-108.849298
 30
0.0
 11
97.499028
 21
-105.849298
 31
0.0
  0
LINE
  8
2
 62
     2
  5
205
 10
90.256387
 20
-108.849298
 30
0.0
 11
93.256387
 21
-105.849298
 31
0.0
  0
LINE
  8
2
 62
     2
  5
206
 10
86.013747
 20
-108.849298
 30
0.0
 11
89.013747
 21
-105.849298
 31
0.0
  0
LINE
  8
2
 62
     2
  5
207
 10
81.771106
 20
-108.849298
 30
0.0
 11
84.771106
 21
-105.849298
 31
0.0
  0
LINE
  8
2
 62
     2
  5
208
 10
77.528465
 20
-108.849298
 30
0.0
 11
80.528465
 21
-105.849298
 31
0.0
  0
LINE
  8
2
 62
     2
  5
209
 10
74.454872
 20
-107.68025
 30
0.0
 11
76.285825
 21
-105.849298
 31
0.0
  0
LINE
  8
2
  5
20A
 10
80.454872
 20
57.850702
 30
0.0
 11
80.754872
 21
58.150702
 31
0.0
  0
LINE
  8
2
 62
     2
  5
20B
 10
80.454872
 20
57.850702
 30
0.0
 11
115.454872
 21
57.850702
 31
0.0
  0
LINE
  8
2
  5
20C
 10
115.454872
 20
57.850702
 30
0.0
 11
115.154872
 21
58.150702
 31
0.0
  0
LINE
  8
2
  5
20D
 10
81.954872
 20
-145.849298
 30
0.0
 11
113.954872
 21
-145.849298
 31
0.0
  0
LINE
  8
2
  5
20E
 10
81.954872
 20
-137.849298
 30
0.0
 11
81.954872
 21
-145.849298
 31
0.0
  0
LINE
  8
2
  5
20F
 10
113.954872
 20
-137.849298
 30
0.0
 11
113.954872
 21
-145.849298
 31
0.0
  0
LINE
  8
2
  5
210
 10
72.954872
 20
-123.849298
 30
0.0
 11
122.954872
 21
-123.849298
 31
0.0
  0
LINE
  8
2
  5
211
 10
123.954872
 20
-125.849298
 30
0.0
 11
71.954872
 21
-125.849298
 31
0.0
  0
LINE
  8
2
  5
212
 10
120.954872
 20
-137.849298
 30
0.0
 11
74.954872
 21
-137.849298
 31
0.0
  0
LINE
  8
2
  5
213
 10
71.954872
 20
-127.849298
 30
0.0
 11
71.954872
 21
-125.849298
 31
0.0
  0
LINE
  8
2
  5
214
 10
74.954872
 20
-137.849298
 30
0.0
 11
74.954872
 21
-129.849298
 31
0.0
  0
LINE
  8
2
  5
215
 10
122.954872
 20
-128.849298
 30
0.0
 11
72.954872
 21
-128.849298
 31
0.0
  0
LINE
  8
2
  5
216
 10
75.954872
 20
-136.757298
 30
0.0
 11
75.954872
 21
-128.849298
 31
0.0
  0
LINE
  8
2
  5
217
 10
119.954872
 20
-136.757298
 30
0.0
 11
119.954872
 21
-128.849298
 31
0.0
  0
LINE
  8
2
  5
218
 10
98.954872
 20
-136.757298
 30
0.0
 11
98.954872
 21
-128.849298
 31
0.0
  0
LINE
  8
2
  5
219
 10
96.954872
 20
-136.757298
 30
0.0
 11
96.954872
 21
-128.849298
 31
0.0
  0
LINE
  8
2
  5
21A
 10
75.954872
 20
-136.757298
 30
0.0
 11
74.954872
 21
-136.757298
 31
0.0
  0
LINE
  8
2
  5
21B
 10
120.954872
 20
-136.757298
 30
0.0
 11
119.954872
 21
-136.757298
 31
0.0
  0
LINE
  8
2
  5
21C
 10
98.954872
 20
-136.757298
 30
0.0
 11
96.954872
 21
-136.757298
 31
0.0
  0
ARC
  8
2
  5
21D
 10
86.454872
 20
-86.822528
 30
0.0
 40
51.026769
 50
258.125168
 51
281.874832
  0
ARC
  8
2
  5
21E
 10
109.454872
 20
-86.822528
 30
0.0
 40
51.026769
 50
258.125168
 51
281.874832
  0
ARC
  8
2
  5
21F
 10
73.954872
 20
-129.849298
 30
0.0
 40
1.0
 50
0.0
 51
90.0
  0
ARC
  8
2
  5
220
 10
72.954872
 20
-127.849298
 30
0.0
 40
1.0
 50
180.0
 51
270.0
  0
LINE
  8
2
  5
221
 10
72.954872
 20
-125.349298
 30
0.0
 11
122.954872
 21
-125.349298
 31
0.0
  0
LINE
  8
2
  5
222
 10
72.954872
 20
-123.849298
 30
0.0
 11
72.954872
 21
-125.849298
 31
0.0
  0
LINE
  8
2
  5
223
 10
72.954872
 20
-123.849298
 30
0.0
 11
122.954872
 21
-123.849298
 31
0.0
  0
LINE
  8
2
  5
224
 10
122.954872
 20
-123.849298
 30
0.0
 11
122.954872
 21
-125.849298
 31
0.0
  0
LINE
  8
2
  5
225
 10
123.954872
 20
-127.849298
 30
0.0
 11
123.954872
 21
-125.849298
 31
0.0
  0
ARC
  8
2
  5
226
 10
122.954872
 20
-127.849298
 30
0.0
 40
1.0
 50
270.0
 51
360.0
  0
LINE
  8
2
  5
227
 10
120.954872
 20
-137.849298
 30
0.0
 11
120.954872
 21
-129.849298
 31
0.0
  0
ARC
  8
2
  5
228
 10
121.954872
 20
-129.849298
 30
0.0
 40
1.0
 50
90.0
 51
180.0
  0
LINE
  8
2
  5
229
 10
315.421063
 20
58.150702
 30
0.0
 11
349.821063
 21
58.150702
 31
0.0
  0
LINE
  8
2
 62
     2
  5
22A
 10
350.121063
 20
57.850702
 30
0.0
 11
315.121063
 21
57.850702
 31
0.0
  0
LINE
  8
2
  5
22B
 10
350.121063
 20
57.850702
 30
0.0
 11
349.821063
 21
58.150702
 31
0.0
  0
LINE
  8
2
  5
22C
 10
315.121063
 20
57.850702
 30
0.0
 11
315.421063
 21
58.150702
 31
0.0
  0
LINE
  8
2
  5
22D
 10
315.121063
 20
-101.549298
 30
0.0
 11
315.121063
 21
57.850702
 31
0.0
  0
LINE
  8
2
  5
22E
 10
350.121063
 20
57.850702
 30
0.0
 11
350.121063
 21
-101.549298
 31
0.0
  0
LINE
  8
2
  5
22F
 10
315.121063
 20
-101.549298
 30
0.0
 11
315.421063
 21
-101.849298
 31
0.0
  0
LINE
  8
2
  5
230
 10
350.121063
 20
-101.549298
 30
0.0
 11
349.821063
 21
-101.849298
 31
0.0
  0
LINE
  8
2
 62
     2
  5
231
 10
315.121063
 20
-101.549298
 30
0.0
 11
350.121063
 21
-101.549298
 31
0.0
  0
LINE
  8
2
  5
232
 10
-352.953258
 20
-145.849298
 30
0.0
 11
-352.953258
 21
-158.849298
 31
0.0
  0
LINE
  8
2
  5
233
 10
-342.953258
 20
-145.849298
 30
0.0
 11
-342.953258
 21
-158.849298
 31
0.0
  0
LINE
  8
2
  5
234
 10
-347.953258
 20
-158.849298
 30
0.0
 11
-342.203258
 21
-158.849298
 31
0.0
  0
LINE
  8
2
  5
235
 10
-347.953258
 20
-174.349298
 30
0.0
 11
-342.203258
 21
-174.349298
 31
0.0
  0
LINE
  8
2
  5
236
 10
-341.703258
 20
-159.349298
 30
0.0
 11
-341.703258
 21
-173.849298
 31
0.0
  0
LINE
  8
2
  5
237
 10
-341.703258
 20
-159.349298
 30
0.0
 11
-342.203258
 21
-158.849298
 31
0.0
  0
LINE
  8
2
  5
238
 10
-341.703258
 20
-173.849298
 30
0.0
 11
-342.203258
 21
-174.349298
 31
0.0
  0
LINE
  8
2
  5
239
 10
-343.632106
 20
-173.849298
 30
0.0
 11
-346.203258
 21
-173.849298
 31
0.0
  0
LINE
  8
2
  5
23A
 10
-343.632106
 20
-159.349298
 30
0.0
 11
-346.203258
 21
-159.349298
 31
0.0
  0
LINE
  8
2
  5
23B
 10
-341.882106
 20
-159.349298
 30
0.0
 11
-341.882106
 21
-173.849298
 31
0.0
  0
LINE
  8
2
  5
23C
 10
-343.632106
 20
-159.349298
 30
0.0
 11
-343.632106
 21
-173.849298
 31
0.0
  0
LINE
  8
2
  5
23D
 10
-346.203258
 20
-159.349298
 30
0.0
 11
-346.203258
 21
-173.849298
 31
0.0
  0
LINE
  8
2
  5
23E
 10
-341.703258
 20
-173.849298
 30
0.0
 11
-341.882106
 21
-173.849298
 31
0.0
  0
LINE
  8
2
  5
23F
 10
-341.703258
 20
-159.349298
 30
0.0
 11
-341.882106
 21
-159.349298
 31
0.0
  0
ARC
  8
2
  5
240
 10
-347.953258
 20
-165.349298
 30
0.0
 40
6.25
 50
73.739795
 51
90.0
  0
ARC
  8
2
  5
241
 10
-342.757106
 20
-160.755548
 30
0.0
 40
1.65625
 50
58.109208
 51
121.890792
  0
ARC
  8
2
  5
242
 10
-342.757106
 20
-172.443048
 30
0.0
 40
1.65625
 50
238.109208
 51
301.890792
  0
ARC
  8
2
  5
243
 10
-347.953258
 20
-167.849298
 30
0.0
 40
6.25
 50
270.0
 51
286.260205
  0
LINE
  8
2
  5
244
 10
-347.953258
 20
-158.849298
 30
0.0
 11
-353.703258
 21
-158.849298
 31
0.0
  0
LINE
  8
2
  5
245
 10
-347.953258
 20
-174.349298
 30
0.0
 11
-353.703258
 21
-174.349298
 31
0.0
  0
LINE
  8
2
  5
246
 10
-354.203258
 20
-159.349298
 30
0.0
 11
-354.203258
 21
-173.849298
 31
0.0
  0
LINE
  8
2
  5
247
 10
-354.203258
 20
-159.349298
 30
0.0
 11
-353.703258
 21
-158.849298
 31
0.0
  0
LINE
  8
2
  5
248
 10
-354.203258
 20
-173.849298
 30
0.0
 11
-353.703258
 21
-174.349298
 31
0.0
  0
LINE
  8
2
  5
249
 10
-352.274411
 20
-173.849298
 30
0.0
 11
-349.703258
 21
-173.849298
 31
0.0
  0
LINE
  8
2
  5
24A
 10
-352.274411
 20
-159.349298
 30
0.0
 11
-349.703258
 21
-159.349298
 31
0.0
  0
LINE
  8
2
  5
24B
 10
-354.024411
 20
-159.349298
 30
0.0
 11
-354.024411
 21
-173.849298
 31
0.0
  0
LINE
  8
2
  5
24C
 10
-352.274411
 20
-159.349298
 30
0.0
 11
-352.274411
 21
-173.849298
 31
0.0
  0
LINE
  8
2
  5
24D
 10
-349.703258
 20
-159.349298
 30
0.0
 11
-349.703258
 21
-173.849298
 31
0.0
  0
LINE
  8
2
  5
24E
 10
-354.203258
 20
-173.849298
 30
0.0
 11
-354.024411
 21
-173.849298
 31
0.0
  0
LINE
  8
2
  5
24F
 10
-354.203258
 20
-159.349298
 30
0.0
 11
-354.024411
 21
-159.349298
 31
0.0
  0
ARC
  8
2
  5
250
 10
-347.953258
 20
-165.349298
 30
0.0
 40
6.25
 50
90.0
 51
106.260205
  0
ARC
  8
2
  5
251
 10
-353.149411
 20
-160.755548
 30
0.0
 40
1.65625
 50
58.109208
 51
121.890792
  0
ARC
  8
2
  5
252
 10
-353.149411
 20
-172.443048
 30
0.0
 40
1.65625
 50
238.109208
 51
301.890792
  0
ARC
  8
2
  5
253
 10
-347.953258
 20
-167.849298
 30
0.0
 40
6.25
 50
253.739795
 51
270.0
  0
LINE
  8
2
  5
254
 10
-368.953258
 20
-145.849298
 30
0.0
 11
-368.953258
 21
-158.849298
 31
0.0
  0
LINE
  8
2
  5
255
 10
-358.953258
 20
-145.849298
 30
0.0
 11
-358.953258
 21
-158.849298
 31
0.0
  0
LINE
  8
2
  5
256
 10
-363.953258
 20
-158.849298
 30
0.0
 11
-358.203258
 21
-158.849298
 31
0.0
  0
LINE
  8
2
  5
257
 10
-363.953258
 20
-174.349298
 30
0.0
 11
-358.203258
 21
-174.349298
 31
0.0
  0
LINE
  8
2
  5
258
 10
-357.703258
 20
-159.349298
 30
0.0
 11
-357.703258
 21
-173.849298
 31
0.0
  0
LINE
  8
2
  5
259
 10
-357.703258
 20
-159.349298
 30
0.0
 11
-358.203258
 21
-158.849298
 31
0.0
  0
LINE
  8
2
  5
25A
 10
-357.703258
 20
-173.849298
 30
0.0
 11
-358.203258
 21
-174.349298
 31
0.0
  0
LINE
  8
2
  5
25B
 10
-359.632106
 20
-173.849298
 30
0.0
 11
-362.203258
 21
-173.849298
 31
0.0
  0
LINE
  8
2
  5
25C
 10
-359.632106
 20
-159.349298
 30
0.0
 11
-362.203258
 21
-159.349298
 31
0.0
  0
LINE
  8
2
  5
25D
 10
-357.882106
 20
-159.349298
 30
0.0
 11
-357.882106
 21
-173.849298
 31
0.0
  0
LINE
  8
2
  5
25E
 10
-359.632106
 20
-159.349298
 30
0.0
 11
-359.632106
 21
-173.849298
 31
0.0
  0
LINE
  8
2
  5
25F
 10
-362.203258
 20
-159.349298
 30
0.0
 11
-362.203258
 21
-173.849298
 31
0.0
  0
LINE
  8
2
  5
260
 10
-357.703258
 20
-173.849298
 30
0.0
 11
-357.882106
 21
-173.849298
 31
0.0
  0
LINE
  8
2
  5
261
 10
-357.703258
 20
-159.349298
 30
0.0
 11
-357.882106
 21
-159.349298
 31
0.0
  0
ARC
  8
2
  5
262
 10
-363.953258
 20
-165.349298
 30
0.0
 40
6.25
 50
73.739795
 51
90.0
  0
ARC
  8
2
  5
263
 10
-358.757106
 20
-160.755548
 30
0.0
 40
1.65625
 50
58.109208
 51
121.890792
  0
ARC
  8
2
  5
264
 10
-358.757106
 20
-172.443048
 30
0.0
 40
1.65625
 50
238.109208
 51
301.890792
  0
ARC
  8
2
  5
265
 10
-363.953258
 20
-167.849298
 30
0.0
 40
6.25
 50
270.0
 51
286.260205
  0
LINE
  8
2
  5
266
 10
-363.953258
 20
-158.849298
 30
0.0
 11
-369.703258
 21
-158.849298
 31
0.0
  0
LINE
  8
2
  5
267
 10
-363.953258
 20
-174.349298
 30
0.0
 11
-369.703258
 21
-174.349298
 31
0.0
  0
LINE
  8
2
  5
268
 10
-370.203258
 20
-159.349298
 30
0.0
 11
-370.203258
 21
-173.849298
 31
0.0
  0
LINE
  8
2
  5
269
 10
-370.203258
 20
-159.349298
 30
0.0
 11
-369.703258
 21
-158.849298
 31
0.0
  0
LINE
  8
2
  5
26A
 10
-370.203258
 20
-173.849298
 30
0.0
 11
-369.703258
 21
-174.349298
 31
0.0
  0
LINE
  8
2
  5
26B
 10
-368.274411
 20
-173.849298
 30
0.0
 11
-365.703258
 21
-173.849298
 31
0.0
  0
LINE
  8
2
  5
26C
 10
-368.274411
 20
-159.349298
 30
0.0
 11
-365.703258
 21
-159.349298
 31
0.0
  0
LINE
  8
2
  5
26D
 10
-370.024411
 20
-159.349298
 30
0.0
 11
-370.024411
 21
-173.849298
 31
0.0
  0
LINE
  8
2
  5
26E
 10
-368.274411
 20
-159.349298
 30
0.0
 11
-368.274411
 21
-173.849298
 31
0.0
  0
LINE
  8
2
  5
26F
 10
-365.703258
 20
-159.349298
 30
0.0
 11
-365.703258
 21
-173.849298
 31
0.0
  0
LINE
  8
2
  5
270
 10
-370.203258
 20
-173.849298
 30
0.0
 11
-370.024411
 21
-173.849298
 31
0.0
  0
LINE
  8
2
  5
271
 10
-370.203258
 20
-159.349298
 30
0.0
 11
-370.024411
 21
-159.349298
 31
0.0
  0
ARC
  8
2
  5
272
 10
-363.953258
 20
-165.349298
 30
0.0
 40
6.25
 50
90.0
 51
106.260205
  0
ARC
  8
2
  5
273
 10
-369.149411
 20
-160.755548
 30
0.0
 40
1.65625
 50
58.109208
 51
121.890792
  0
ARC
  8
2
  5
274
 10
-369.149411
 20
-172.443048
 30
0.0
 40
1.65625
 50
238.109208
 51
301.890792
  0
ARC
  8
2
  5
275
 10
-363.953258
 20
-167.849298
 30
0.0
 40
6.25
 50
253.739795
 51
270.0
  0
LINE
  8
2
  5
276
 10
-369.953259
 20
-179.960623
 30
0.0
 11
-369.953259
 21
-174.637973
 31
0.0
  0
LINE
  8
2
  5
277
 10
-357.953259
 20
-179.960623
 30
0.0
 11
-357.953259
 21
-174.637973
 31
0.0
  0
LINE
  8
2
  5
278
 10
-361.555343
 20
-174.637973
 30
0.0
 11
-361.555343
 21
-179.960623
 31
0.0
  0
LINE
  8
2
  5
279
 10
-360.389077
 20
-174.637973
 30
0.0
 11
-360.389077
 21
-179.960623
 31
0.0
  0
LINE
  8
2
  5
27A
 10
-357.991161
 20
-174.637973
 30
0.0
 11
-357.991161
 21
-179.960623
 31
0.0
  0
LINE
  8
2
  5
27B
 10
-358.453259
 20
-174.349298
 30
0.0
 11
-368.716398
 21
-174.349298
 31
0.0
  0
LINE
  8
2
  5
27C
 10
-368.953259
 20
-174.349298
 30
0.0
 11
-369.453259
 21
-174.349298
 31
0.0
  0
LINE
  8
2
  5
27D
 10
-358.453259
 20
-180.249298
 30
0.0
 11
-357.953259
 21
-179.960623
 31
0.0
  0
LINE
  8
2
  5
27E
 10
-360.389077
 20
-179.960623
 30
0.0
 11
-361.555343
 21
-179.960623
 31
0.0
  0
LINE
  8
2
  5
27F
 10
-369.953259
 20
-179.960623
 30
0.0
 11
-369.453259
 21
-180.249298
 31
0.0
  0
LINE
  8
2
  5
280
 10
-369.953259
 20
-174.637973
 30
0.0
 11
-369.453259
 21
-174.349298
 31
0.0
  0
ARC
  8
2
  5
281
 10
-363.953259
 20
-170.145668
 30
0.0
 40
10.10363
 50
270.0
 51
283.729133
  0
ARC
  8
2
  5
282
 10
-363.953259
 20
-184.452927
 30
0.0
 40
10.10363
 50
76.270867
 51
90.0
  0
LINE
  8
2
  5
283
 10
-360.389077
 20
-174.637973
 30
0.0
 11
-361.555343
 21
-174.637973
 31
0.0
  0
LINE
  8
2
  5
284
 10
-357.953259
 20
-179.960623
 30
0.0
 11
-357.991161
 21
-179.960623
 31
0.0
  0
ARC
  8
2
  5
285
 10
-359.190119
 20
-177.615137
 30
0.0
 40
2.634161
 50
242.924933
 51
297.075067
  0
ARC
  8
2
  5
286
 10
-359.190119
 20
-176.983458
 30
0.0
 40
2.634161
 50
62.924933
 51
117.075067
  0
LINE
  8
2
  5
287
 10
-358.453259
 20
-174.349298
 30
0.0
 11
-357.953259
 21
-174.637973
 31
0.0
  0
LINE
  8
2
  5
288
 10
-357.953259
 20
-174.637973
 30
0.0
 11
-357.991161
 21
-174.637973
 31
0.0
  0
ARC
  8
2
  5
289
 10
-363.953259
 20
-170.145668
 30
0.0
 40
10.10363
 50
256.270867
 51
270.0
  0
LINE
  8
2
  5
28A
 10
-367.517441
 20
-179.960623
 30
0.0
 11
-366.351174
 21
-179.960623
 31
0.0
  0
LINE
  8
2
  5
28B
 10
-366.351174
 20
-174.637973
 30
0.0
 11
-366.351174
 21
-179.960623
 31
0.0
  0
LINE
  8
2
  5
28C
 10
-367.517441
 20
-174.637973
 30
0.0
 11
-367.517441
 21
-179.960623
 31
0.0
  0
ARC
  8
2
  5
28D
 10
-368.716398
 20
-177.615137
 30
0.0
 40
2.634161
 50
242.924933
 51
297.075067
  0
LINE
  8
2
  5
28E
 10
-369.915356
 20
-174.637973
 30
0.0
 11
-369.915356
 21
-179.960623
 31
0.0
  0
LINE
  8
2
  5
28F
 10
-369.915356
 20
-179.960623
 30
0.0
 11
-369.953259
 21
-179.960623
 31
0.0
  0
ARC
  8
2
  5
290
 10
-363.953259
 20
-184.452927
 30
0.0
 40
10.10363
 50
90.0
 51
103.729133
  0
LINE
  8
2
  5
291
 10
-367.517441
 20
-174.637973
 30
0.0
 11
-366.351174
 21
-174.637973
 31
0.0
  0
ARC
  8
2
  5
292
 10
-368.716398
 20
-176.983458
 30
0.0
 40
2.634161
 50
62.924933
 51
117.075067
  0
LINE
  8
2
  5
293
 10
-353.953259
 20
-179.960623
 30
0.0
 11
-353.953259
 21
-174.637973
 31
0.0
  0
LINE
  8
2
  5
294
 10
-341.953259
 20
-179.960623
 30
0.0
 11
-341.953259
 21
-174.637973
 31
0.0
  0
LINE
  8
2
  5
295
 10
-345.555343
 20
-174.637973
 30
0.0
 11
-345.555343
 21
-179.960623
 31
0.0
  0
LINE
  8
2
  5
296
 10
-344.389077
 20
-174.637973
 30
0.0
 11
-344.389077
 21
-179.960623
 31
0.0
  0
LINE
  8
2
  5
297
 10
-341.991161
 20
-174.637973
 30
0.0
 11
-341.991161
 21
-179.960623
 31
0.0
  0
LINE
  8
2
  5
298
 10
-342.453259
 20
-174.349298
 30
0.0
 11
-353.453259
 21
-174.349298
 31
0.0
  0
LINE
  8
2
  5
299
 10
-342.453259
 20
-180.249298
 30
0.0
 11
-341.953259
 21
-179.960623
 31
0.0
  0
LINE
  8
2
  5
29A
 10
-344.389077
 20
-179.960623
 30
0.0
 11
-345.555343
 21
-179.960623
 31
0.0
  0
LINE
  8
2
  5
29B
 10
-353.953259
 20
-179.960623
 30
0.0
 11
-353.453259
 21
-180.249298
 31
0.0
  0
LINE
  8
2
  5
29C
 10
-353.953259
 20
-174.637973
 30
0.0
 11
-353.453259
 21
-174.349298
 31
0.0
  0
ARC
  8
2
  5
29D
 10
-347.953259
 20
-170.145668
 30
0.0
 40
10.10363
 50
270.0
 51
283.729133
  0
ARC
  8
2
  5
29E
 10
-347.953259
 20
-184.452927
 30
0.0
 40
10.10363
 50
76.270867
 51
90.0
  0
LINE
  8
2
  5
29F
 10
-344.389077
 20
-174.637973
 30
0.0
 11
-345.555343
 21
-174.637973
 31
0.0
  0
LINE
  8
2
  5
2A0
 10
-341.953259
 20
-179.960623
 30
0.0
 11
-341.991161
 21
-179.960623
 31
0.0
  0
ARC
  8
2
  5
2A1
 10
-343.190119
 20
-177.615137
 30
0.0
 40
2.634161
 50
242.924933
 51
297.075067
  0
ARC
  8
2
  5
2A2
 10
-343.190119
 20
-176.983458
 30
0.0
 40
2.634161
 50
62.924933
 51
117.075067
  0
LINE
  8
2
  5
2A3
 10
-342.453259
 20
-174.349298
 30
0.0
 11
-341.953259
 21
-174.637973
 31
0.0
  0
LINE
  8
2
  5
2A4
 10
-341.953259
 20
-174.637973
 30
0.0
 11
-341.991161
 21
-174.637973
 31
0.0
  0
ARC
  8
2
  5
2A5
 10
-347.953259
 20
-170.145668
 30
0.0
 40
10.10363
 50
256.270867
 51
270.0
  0
LINE
  8
2
  5
2A6
 10
-351.517441
 20
-179.960623
 30
0.0
 11
-350.351174
 21
-179.960623
 31
0.0
  0
LINE
  8
2
  5
2A7
 10
-350.351174
 20
-174.637973
 30
0.0
 11
-350.351174
 21
-179.960623
 31
0.0
  0
LINE
  8
2
  5
2A8
 10
-351.517441
 20
-174.637973
 30
0.0
 11
-351.517441
 21
-179.960623
 31
0.0
  0
ARC
  8
2
  5
2A9
 10
-352.716398
 20
-177.615137
 30
0.0
 40
2.634161
 50
242.924933
 51
297.075067
  0
LINE
  8
2
  5
2AA
 10
-353.915356
 20
-174.637973
 30
0.0
 11
-353.915356
 21
-179.960623
 31
0.0
  0
LINE
  8
2
  5
2AB
 10
-353.915356
 20
-179.960623
 30
0.0
 11
-353.953259
 21
-179.960623
 31
0.0
  0
ARC
  8
2
  5
2AC
 10
-347.953259
 20
-184.452927
 30
0.0
 40
10.10363
 50
90.0
 51
103.729133
  0
LINE
  8
2
  5
2AD
 10
-351.517441
 20
-174.637973
 30
0.0
 11
-350.351174
 21
-174.637973
 31
0.0
  0
ARC
  8
2
  5
2AE
 10
-352.716398
 20
-176.983458
 30
0.0
 40
2.634161
 50
62.924933
 51
117.075067
  0
POINT
  8
2
  5
2AF
 10
-293.265416
 20
-317.245601
 30
0.0
  0
POINT
  8
2
  5
2B0
 10
93.454872
 20
-145.849298
 30
0.0
  0
POINT
  8
2
  5
2B1
 10
-347.953258
 20
-145.849298
 30
0.0
  0
LINE
  8
2
  5
2B2
 10
88.454872
 20
-145.849298
 30
0.0
 11
88.454872
 21
-158.849298
 31
0.0
  0
LINE
  8
2
  5
2B3
 10
98.454872
 20
-145.849298
 30
0.0
 11
98.454872
 21
-158.849298
 31
0.0
  0
LINE
  8
2
  5
2B4
 10
93.454872
 20
-158.849298
 30
0.0
 11
99.204872
 21
-158.849298
 31
0.0
  0
LINE
  8
2
  5
2B5
 10
93.454872
 20
-174.349298
 30
0.0
 11
99.204872
 21
-174.349298
 31
0.0
  0
LINE
  8
2
  5
2B6
 10
99.704872
 20
-159.349298
 30
0.0
 11
99.704872
 21
-173.849298
 31
0.0
  0
LINE
  8
2
  5
2B7
 10
99.704872
 20
-159.349298
 30
0.0
 11
99.204872
 21
-158.849298
 31
0.0
  0
LINE
  8
2
  5
2B8
 10
99.704872
 20
-173.849298
 30
0.0
 11
99.204872
 21
-174.349298
 31
0.0
  0
LINE
  8
2
  5
2B9
 10
97.776025
 20
-173.849298
 30
0.0
 11
95.204872
 21
-173.849298
 31
0.0
  0
LINE
  8
2
  5
2BA
 10
97.776025
 20
-159.349298
 30
0.0
 11
95.204872
 21
-159.349298
 31
0.0
  0
LINE
  8
2
  5
2BB
 10
99.526025
 20
-159.349298
 30
0.0
 11
99.526025
 21
-173.849298
 31
0.0
  0
LINE
  8
2
  5
2BC
 10
97.776025
 20
-159.349298
 30
0.0
 11
97.776025
 21
-173.849298
 31
0.0
  0
LINE
  8
2
  5
2BD
 10
95.204872
 20
-159.349298
 30
0.0
 11
95.204872
 21
-173.849298
 31
0.0
  0
LINE
  8
2
  5
2BE
 10
99.704872
 20
-173.849298
 30
0.0
 11
99.526025
 21
-173.849298
 31
0.0
  0
LINE
  8
2
  5
2BF
 10
99.704872
 20
-159.349298
 30
0.0
 11
99.526025
 21
-159.349298
 31
0.0
  0
ARC
  8
2
  5
2C0
 10
93.454872
 20
-165.349298
 30
0.0
 40
6.25
 50
73.739795
 51
90.0
  0
ARC
  8
2
  5
2C1
 10
98.651025
 20
-160.755548
 30
0.0
 40
1.65625
 50
58.109208
 51
121.890792
  0
ARC
  8
2
  5
2C2
 10
98.651025
 20
-172.443048
 30
0.0
 40
1.65625
 50
238.109208
 51
301.890792
  0
ARC
  8
2
  5
2C3
 10
93.454872
 20
-167.849298
 30
0.0
 40
6.25
 50
270.0
 51
286.260205
  0
LINE
  8
2
  5
2C4
 10
93.454872
 20
-158.849298
 30
0.0
 11
87.704872
 21
-158.849298
 31
0.0
  0
LINE
  8
2
  5
2C5
 10
93.454872
 20
-174.349298
 30
0.0
 11
87.704872
 21
-174.349298
 31
0.0
  0
LINE
  8
2
  5
2C6
 10
87.204872
 20
-159.349298
 30
0.0
 11
87.204872
 21
-173.849298
 31
0.0
  0
LINE
  8
2
  5
2C7
 10
87.204872
 20
-159.349298
 30
0.0
 11
87.704872
 21
-158.849298
 31
0.0
  0
LINE
  8
2
  5
2C8
 10
87.204872
 20
-173.849298
 30
0.0
 11
87.704872
 21
-174.349298
 31
0.0
  0
LINE
  8
2
  5
2C9
 10
89.13372
 20
-173.849298
 30
0.0
 11
91.704872
 21
-173.849298
 31
0.0
  0
LINE
  8
2
  5
2CA
 10
89.13372
 20
-159.349298
 30
0.0
 11
91.704872
 21
-159.349298
 31
0.0
  0
LINE
  8
2
  5
2CB
 10
87.38372
 20
-159.349298
 30
0.0
 11
87.38372
 21
-173.849298
 31
0.0
  0
LINE
  8
2
  5
2CC
 10
89.13372
 20
-159.349298
 30
0.0
 11
89.13372
 21
-173.849298
 31
0.0
  0
LINE
  8
2
  5
2CD
 10
91.704872
 20
-159.349298
 30
0.0
 11
91.704872
 21
-173.849298
 31
0.0
  0
LINE
  8
2
  5
2CE
 10
87.204872
 20
-173.849298
 30
0.0
 11
87.38372
 21
-173.849298
 31
0.0
  0
LINE
  8
2
  5
2CF
 10
87.204872
 20
-159.349298
 30
0.0
 11
87.38372
 21
-159.349298
 31
0.0
  0
ARC
  8
2
  5
2D0
 10
93.454872
 20
-165.349298
 30
0.0
 40
6.25
 50
90.0
 51
106.260205
  0
ARC
  8
2
  5
2D1
 10
88.25872
 20
-160.755548
 30
0.0
 40
1.65625
 50
58.109208
 51
121.890792
  0
ARC
  8
2
  5
2D2
 10
88.25872
 20
-172.443048
 30
0.0
 40
1.65625
 50
238.109208
 51
301.890792
  0
ARC
  8
2
  5
2D3
 10
93.454872
 20
-167.849298
 30
0.0
 40
6.25
 50
253.739795
 51
270.0
  0
LINE
  8
2
  5
2D4
 10
87.454872
 20
-179.960623
 30
0.0
 11
87.454872
 21
-174.637973
 31
0.0
  0
LINE
  8
2
  5
2D5
 10
99.454872
 20
-179.960623
 30
0.0
 11
99.454872
 21
-174.637973
 31
0.0
  0
LINE
  8
2
  5
2D6
 10
95.852788
 20
-174.637973
 30
0.0
 11
95.852788
 21
-179.960623
 31
0.0
  0
LINE
  8
2
  5
2D7
 10
97.019054
 20
-174.637973
 30
0.0
 11
97.019054
 21
-179.960623
 31
0.0
  0
LINE
  8
2
  5
2D8
 10
99.41697
 20
-174.637973
 30
0.0
 11
99.41697
 21
-179.960623
 31
0.0
  0
LINE
  8
2
  5
2D9
 10
98.954872
 20
-174.349298
 30
0.0
 11
87.954872
 21
-174.349298
 31
0.0
  0
LINE
  8
2
  5
2DA
 10
98.954872
 20
-180.249298
 30
0.0
 11
99.454872
 21
-179.960623
 31
0.0
  0
LINE
  8
2
  5
2DB
 10
97.019054
 20
-179.960623
 30
0.0
 11
95.852788
 21
-179.960623
 31
0.0
  0
LINE
  8
2
  5
2DC
 10
87.454872
 20
-179.960623
 30
0.0
 11
87.954872
 21
-180.249298
 31
0.0
  0
LINE
  8
2
  5
2DD
 10
87.454872
 20
-174.637973
 30
0.0
 11
87.954872
 21
-174.349298
 31
0.0
  0
ARC
  8
2
  5
2DE
 10
93.454872
 20
-170.145668
 30
0.0
 40
10.10363
 50
270.0
 51
283.729133
  0
ARC
  8
2
  5
2DF
 10
93.454872
 20
-184.452927
 30
0.0
 40
10.10363
 50
76.270867
 51
90.0
  0
LINE
  8
2
  5
2E0
 10
97.019054
 20
-174.637973
 30
0.0
 11
95.852788
 21
-174.637973
 31
0.0
  0
LINE
  8
2
  5
2E1
 10
99.454872
 20
-179.960623
 30
0.0
 11
99.41697
 21
-179.960623
 31
0.0
  0
ARC
  8
2
  5
2E2
 10
98.218012
 20
-177.615137
 30
0.0
 40
2.634161
 50
242.924933
 51
297.075067
  0
ARC
  8
2
  5
2E3
 10
98.218012
 20
-176.983458
 30
0.0
 40
2.634161
 50
62.924933
 51
117.075067
  0
LINE
  8
2
  5
2E4
 10
98.954872
 20
-174.349298
 30
0.0
 11
99.454872
 21
-174.637973
 31
0.0
  0
LINE
  8
2
  5
2E5
 10
99.454872
 20
-174.637973
 30
0.0
 11
99.41697
 21
-174.637973
 31
0.0
  0
ARC
  8
2
  5
2E6
 10
93.454872
 20
-170.145668
 30
0.0
 40
10.10363
 50
256.270867
 51
270.0
  0
LINE
  8
2
  5
2E7
 10
89.89069
 20
-179.960623
 30
0.0
 11
91.056956
 21
-179.960623
 31
0.0
  0
LINE
  8
2
  5
2E8
 10
91.056957
 20
-174.637973
 30
0.0
 11
91.056956
 21
-179.960623
 31
0.0
  0
LINE
  8
2
  5
2E9
 10
89.89069
 20
-174.637973
 30
0.0
 11
89.89069
 21
-179.960623
 31
0.0
  0
ARC
  8
2
  5
2EA
 10
88.691732
 20
-177.615137
 30
0.0
 40
2.634161
 50
242.924933
 51
297.075067
  0
LINE
  8
2
  5
2EB
 10
87.492774
 20
-174.637973
 30
0.0
 11
87.492774
 21
-179.960623
 31
0.0
  0
LINE
  8
2
  5
2EC
 10
87.492774
 20
-179.960623
 30
0.0
 11
87.454872
 21
-179.960623
 31
0.0
  0
ARC
  8
2
  5
2ED
 10
93.454872
 20
-184.452927
 30
0.0
 40
10.10363
 50
90.0
 51
103.729133
  0
LINE
  8
2
  5
2EE
 10
89.89069
 20
-174.637973
 30
0.0
 11
91.056956
 21
-174.637973
 31
0.0
  0
ARC
  8
2
  5
2EF
 10
88.691732
 20
-176.983458
 30
0.0
 40
2.634161
 50
62.924933
 51
117.075067
  0
LINE
  8
2
 62
     2
  5
2F0
 10
116.454872
 20
311.251082
 30
0.0
 11
116.454872
 21
303.251082
 31
0.0
  0
LINE
  8
2
  5
2F1
 10
116.454872
 20
311.251082
 30
0.0
 11
114.991597
 21
311.251082
 31
0.0
  0
ARC
  8
2
  5
2F2
 10
109.526669
 20
307.251082
 30
0.0
 40
8.0
 50
0.0
 51
30.0
  0
ARC
  8
2
  5
2F3
 10
109.526669
 20
307.251082
 30
0.0
 40
8.0
 50
330.0
 51
360.0
  0
LINE
  8
2
  5
2F4
 10
116.454872
 20
303.251082
 30
0.0
 11
114.991597
 21
303.251082
 31
0.0
  0
LINE
  8
2
  5
2F5
 10
-5.914762
 20
115.43951
 30
0.0
 11
-5.657647
 21
115.745928
 31
0.0
  0
LINE
  8
2
  5
2F6
 10
-5.657647
 20
115.745928
 30
0.0
 11
-5.737852
 21
115.291064
 31
0.0
  0
LINE
  8
2
  5
2F7
 10
6.84907
 20
104.729383
 30
0.0
 11
7.106185
 21
105.0358
 31
0.0
  0
LINE
  8
2
  5
2F8
 10
7.106185
 20
105.0358
 30
0.0
 11
6.67216
 21
104.877828
 31
0.0
  0
LINE
  8
2
  5
2F9
 10
-7.131662
 20
115.807906
 30
0.0
 11
-19.344627
 21
101.253062
 31
0.0
  0
LINE
  8
2
  5
2FA
 10
7.423182
 20
103.594942
 30
0.0
 11
-4.789782
 21
89.040097
 31
0.0
  0
ARC
  8
2
  5
2FB
 10
-18.961604
 20
100.931668
 30
0.0
 40
0.5
 50
140.0
 51
230.0
  0
ARC
  8
2
  5
2FC
 10
-5.172804
 20
89.361491
 30
0.0
 40
0.5
 50
230.0
 51
320.0
  0
ARC
  8
2
  5
2FD
 10
7.04016
 20
103.916335
 30
0.0
 40
0.5
 50
320.0
 51
50.0
  0
ARC
  8
2
  5
2FE
 10
-6.74864
 20
115.486512
 30
0.0
 40
0.5
 50
50.0
 51
140.0
  0
LINE
  8
2
  5
2FF
 10
-6.427246
 20
115.869535
 30
0.0
 11
0.467154
 21
110.084446
 31
0.0
  0
LINE
  8
2
  5
300
 10
0.467154
 20
110.084446
 30
0.0
 11
7.361554
 21
104.299358
 31
0.0
  0
LINE
  8
2
  5
301
 10
-19.282998
 20
100.548646
 30
0.0
 11
-5.494198
 21
88.978469
 31
0.0
  0
POINT
  8
2
  5
302
 10
-12.517156
 20
94.610348
 30
0.0
  0
LINE
  8
2
  5
303
 10
436.490698
 20
115.43951
 30
0.0
 11
436.233583
 21
115.745928
 31
0.0
  0
LINE
  8
2
  5
304
 10
436.233583
 20
115.745928
 30
0.0
 11
436.313787
 21
115.291064
 31
0.0
  0
LINE
  8
2
  5
305
 10
423.726865
 20
104.729383
 30
0.0
 11
423.46975
 21
105.0358
 31
0.0
  0
LINE
  8
2
  5
306
 10
423.46975
 20
105.0358
 30
0.0
 11
423.903776
 21
104.877828
 31
0.0
  0
LINE
  8
2
  5
307
 10
437.707598
 20
115.807906
 30
0.0
 11
449.920562
 21
101.253062
 31
0.0
  0
LINE
  8
2
  5
308
 10
423.152753
 20
103.594942
 30
0.0
 11
435.365718
 21
89.040097
 31
0.0
  0
ARC
  8
2
  5
309
 10
449.53754
 20
100.931668
 30
0.0
 40
0.5
 50
310.0
 51
40.0
  0
ARC
  8
2
  5
30A
 10
435.74874
 20
89.361491
 30
0.0
 40
0.5
 50
220.0
 51
310.0
  0
ARC
  8
2
  5
30B
 10
423.535775
 20
103.916335
 30
0.0
 40
0.5
 50
130.0
 51
220.0
  0
ARC
  8
2
  5
30C
 10
437.324575
 20
115.486512
 30
0.0
 40
0.5
 50
40.0
 51
130.0
  0
LINE
  8
2
  5
30D
 10
437.003182
 20
115.869535
 30
0.0
 11
430.108782
 21
110.084446
 31
0.0
  0
LINE
  8
2
  5
30E
 10
430.108782
 20
110.084446
 30
0.0
 11
423.214382
 21
104.299358
 31
0.0
  0
LINE
  8
2
  5
30F
 10
449.858934
 20
100.548646
 30
0.0
 11
436.070134
 21
88.978469
 31
0.0
  0
POLYLINE
  8
2
  5
310
 66
     1
 10
0.0
 20
0.0
 30
0.0
 70
     1
  0
VERTEX
  8
2
  5
A0F
 10
-346.453258
 20
94.670348
 30
0.0
  0
VERTEX
  8
2
  5
A10
 10
-346.486302
 20
95.179223
 30
0.0
  0
VERTEX
  8
2
  5
A11
 10
-346.586132
 20
95.688098
 30
0.0
  0
VERTEX
  8
2
  5
A12
 10
-346.754923
 20
96.196973
 30
0.0
  0
VERTEX
  8
2
  5
A13
 10
-346.996573
 20
96.705848
 30
0.0
  0
VERTEX
  8
2
  5
A14
 10
-347.317195
 20
97.214723
 30
0.0
  0
VERTEX
  8
2
  5
A15
 10
-347.726017
 20
97.723598
 30
0.0
  0
VERTEX
  8
2
  5
A16
 10
-348.237046
 20
98.232473
 30
0.0
  0
VERTEX
  8
2
  5
A17
 10
-348.872377
 20
98.741348
 30
0.0
  0
VERTEX
  8
2
  5
A18
 10
-349.669599
 20
99.250223
 30
0.0
  0
VERTEX
  8
2
  5
A19
 10
-350.701936
 20
99.759098
 30
0.0
  0
VERTEX
  8
2
  5
A1A
 10
-352.156558
 20
100.267973
 30
0.0
  0
VERTEX
  8
2
  5
A1B
 10
-355.953258
 20
100.776848
 30
0.0
  0
VERTEX
  8
2
  5
A1C
 10
-359.749958
 20
100.267973
 30
0.0
  0
VERTEX
  8
2
  5
A1D
 10
-361.204581
 20
99.759098
 30
0.0
  0
VERTEX
  8
2
  5
A1E
 10
-362.236918
 20
99.250223
 30
0.0
  0
VERTEX
  8
2
  5
A1F
 10
-363.03414
 20
98.741348
 30
0.0
  0
VERTEX
  8
2
  5
A20
 10
-363.669471
 20
98.232473
 30
0.0
  0
VERTEX
  8
2
  5
A21
 10
-364.1805
 20
97.723598
 30
0.0
  0
VERTEX
  8
2
  5
A22
 10
-364.589322
 20
97.214723
 30
0.0
  0
VERTEX
  8
2
  5
A23
 10
-364.909944
 20
96.705848
 30
0.0
  0
VERTEX
  8
2
  5
A24
 10
-365.151594
 20
96.196973
 30
0.0
  0
VERTEX
  8
2
  5
A25
 10
-365.320385
 20
95.688098
 30
0.0
  0
VERTEX
  8
2
  5
A26
 10
-365.420215
 20
95.179223
 30
0.0
  0
VERTEX
  8
2
  5
A27
 10
-365.453258
 20
94.670348
 30
0.0
  0
VERTEX
  8
2
  5
A28
 10
-365.420215
 20
94.161473
 30
0.0
  0
VERTEX
  8
2
  5
A29
 10
-365.320385
 20
93.652598
 30
0.0
  0
VERTEX
  8
2
  5
A2A
 10
-365.151594
 20
93.143723
 30
0.0
  0
VERTEX
  8
2
  5
A2B
 10
-364.909944
 20
92.634848
 30
0.0
  0
VERTEX
  8
2
  5
A2C
 10
-364.589322
 20
92.125973
 30
0.0
  0
VERTEX
  8
2
  5
A2D
 10
-364.1805
 20
91.617098
 30
0.0
  0
VERTEX
  8
2
  5
A2E
 10
-363.669471
 20
91.108223
 30
0.0
  0
VERTEX
  8
2
  5
A2F
 10
-363.03414
 20
90.599348
 30
0.0
  0
VERTEX
  8
2
  5
A30
 10
-362.236918
 20
90.090473
 30
0.0
  0
VERTEX
  8
2
  5
A31
 10
-361.204581
 20
89.581598
 30
0.0
  0
VERTEX
  8
2
  5
A32
 10
-359.749958
 20
89.072723
 30
0.0
  0
VERTEX
  8
2
  5
A33
 10
-355.953258
 20
88.563848
 30
0.0
  0
VERTEX
  8
2
  5
A34
 10
-352.156558
 20
89.072723
 30
0.0
  0
VERTEX
  8
2
  5
A35
 10
-350.701936
 20
89.581598
 30
0.0
  0
VERTEX
  8
2
  5
A36
 10
-349.669599
 20
90.090473
 30
0.0
  0
VERTEX
  8
2
  5
A37
 10
-348.872377
 20
90.599348
 30
0.0
  0
VERTEX
  8
2
  5
A38
 10
-348.237046
 20
91.108223
 30
0.0
  0
VERTEX
  8
2
  5
A39
 10
-347.726017
 20
91.617098
 30
0.0
  0
VERTEX
  8
2
  5
A3A
 10
-347.317195
 20
92.125973
 30
0.0
  0
VERTEX
  8
2
  5
A3B
 10
-346.996573
 20
92.634848
 30
0.0
  0
VERTEX
  8
2
  5
A3C
 10
-346.754923
 20
93.143723
 30
0.0
  0
VERTEX
  8
2
  5
A3D
 10
-346.586132
 20
93.652598
 30
0.0
  0
VERTEX
  8
2
  5
A3E
 10
-346.486302
 20
94.161473
 30
0.0
  0
VERTEX
  8
2
  5
A3F
 10
-346.453258
 20
94.670348
 30
0.0
  0
SEQEND
  8
2
  5
A40
  0
LINE
  8
2
  5
343
 10
-346.453258
 20
109.991237
 30
0.0
 11
-346.453258
 21
94.670348
 31
0.0
  0
LINE
  8
2
  5
344
 10
-365.453258
 20
109.991237
 30
0.0
 11
-365.453258
 21
94.670348
 31
0.0
  0
POLYLINE
  8
2
  5
345
 66
     1
 10
0.0
 20
0.0
 30
0.0
  0
VERTEX
  8
2
  5
A41
 10
-346.453258
 20
109.991237
 30
0.0
  0
VERTEX
  8
2
  5
A42
 10
-346.486302
 20
110.500112
 30
0.0
  0
VERTEX
  8
2
  5
A43
 10
-346.586132
 20
111.008987
 30
0.0
  0
VERTEX
  8
2
  5
A44
 10
-346.754923
 20
111.517862
 30
0.0
  0
VERTEX
  8
2
  5
A45
 10
-346.996573
 20
112.026737
 30
0.0
  0
VERTEX
  8
2
  5
A46
 10
-347.317195
 20
112.535612
 30
0.0
  0
VERTEX
  8
2
  5
A47
 10
-347.726017
 20
113.044487
 30
0.0
  0
VERTEX
  8
2
  5
A48
 10
-348.237046
 20
113.553362
 30
0.0
  0
VERTEX
  8
2
  5
A49
 10
-348.872377
 20
114.062237
 30
0.0
  0
VERTEX
  8
2
  5
A4A
 10
-349.669599
 20
114.571112
 30
0.0
  0
VERTEX
  8
2
  5
A4B
 10
-350.701936
 20
115.079987
 30
0.0
  0
VERTEX
  8
2
  5
A4C
 10
-352.156558
 20
115.588862
 30
0.0
  0
VERTEX
  8
2
  5
A4D
 10
-355.953258
 20
116.097737
 30
0.0
  0
VERTEX
  8
2
  5
A4E
 10
-359.749958
 20
115.588862
 30
0.0
  0
VERTEX
  8
2
  5
A4F
 10
-361.204581
 20
115.079987
 30
0.0
  0
VERTEX
  8
2
  5
A50
 10
-362.236918
 20
114.571112
 30
0.0
  0
VERTEX
  8
2
  5
A51
 10
-363.03414
 20
114.062237
 30
0.0
  0
VERTEX
  8
2
  5
A52
 10
-363.669471
 20
113.553362
 30
0.0
  0
VERTEX
  8
2
  5
A53
 10
-364.1805
 20
113.044487
 30
0.0
  0
VERTEX
  8
2
  5
A54
 10
-364.589322
 20
112.535612
 30
0.0
  0
VERTEX
  8
2
  5
A55
 10
-364.909944
 20
112.026737
 30
0.0
  0
VERTEX
  8
2
  5
A56
 10
-365.151594
 20
111.517862
 30
0.0
  0
VERTEX
  8
2
  5
A57
 10
-365.320385
 20
111.008987
 30
0.0
  0
VERTEX
  8
2
  5
A58
 10
-365.420215
 20
110.500112
 30
0.0
  0
VERTEX
  8
2
  5
A59
 10
-365.453258
 20
109.991237
 30
0.0
  0
SEQEND
  8
2
  5
A5A
  0
POLYLINE
  8
2
  5
360
 66
     1
 10
0.0
 20
0.0
 30
0.0
 70
     1
  0
VERTEX
  8
2
  5
A5B
 10
-348.203258
 20
94.670348
 30
0.0
  0
VERTEX
  8
2
  5
A5C
 10
-348.251247
 20
95.223848
 30
0.0
  0
VERTEX
  8
2
  5
A5D
 10
-348.397039
 20
95.777348
 30
0.0
  0
VERTEX
  8
2
  5
A5E
 10
-348.646488
 20
96.330848
 30
0.0
  0
VERTEX
  8
2
  5
A5F
 10
-349.010759
 20
96.884348
 30
0.0
  0
VERTEX
  8
2
  5
A60
 10
-349.509293
 20
97.437848
 30
0.0
  0
VERTEX
  8
2
  5
A61
 10
-350.17675
 20
97.991348
 30
0.0
  0
VERTEX
  8
2
  5
A62
 10
-351.082078
 20
98.544848
 30
0.0
  0
VERTEX
  8
2
  5
A63
 10
-352.402806
 20
99.098348
 30
0.0
  0
VERTEX
  8
2
  5
A64
 10
-355.953258
 20
99.651848
 30
0.0
  0
VERTEX
  8
2
  5
A65
 10
-359.503711
 20
99.098348
 30
0.0
  0
VERTEX
  8
2
  5
A66
 10
-360.824439
 20
98.544848
 30
0.0
  0
VERTEX
  8
2
  5
A67
 10
-361.729767
 20
97.991348
 30
0.0
  0
VERTEX
  8
2
  5
A68
 10
-362.397224
 20
97.437848
 30
0.0
  0
VERTEX
  8
2
  5
A69
 10
-362.895758
 20
96.884348
 30
0.0
  0
VERTEX
  8
2
  5
A6A
 10
-363.260029
 20
96.330848
 30
0.0
  0
VERTEX
  8
2
  5
A6B
 10
-363.509478
 20
95.777348
 30
0.0
  0
VERTEX
  8
2
  5
A6C
 10
-363.65527
 20
95.223848
 30
0.0
  0
VERTEX
  8
2
  5
A6D
 10
-363.703258
 20
94.670348
 30
0.0
  0
VERTEX
  8
2
  5
A6E
 10
-363.65527
 20
94.116848
 30
0.0
  0
VERTEX
  8
2
  5
A6F
 10
-363.509478
 20
93.563348
 30
0.0
  0
VERTEX
  8
2
  5
A70
 10
-363.260029
 20
93.009848
 30
0.0
  0
VERTEX
  8
2
  5
A71
 10
-362.895758
 20
92.456348
 30
0.0
  0
VERTEX
  8
2
  5
A72
 10
-362.397224
 20
91.902848
 30
0.0
  0
VERTEX
  8
2
  5
A73
 10
-361.729767
 20
91.349348
 30
0.0
  0
VERTEX
  8
2
  5
A74
 10
-360.824439
 20
90.795848
 30
0.0
  0
VERTEX
  8
2
  5
A75
 10
-359.503711
 20
90.242348
 30
0.0
  0
VERTEX
  8
2
  5
A76
 10
-355.953258
 20
89.688848
 30
0.0
  0
VERTEX
  8
2
  5
A77
 10
-352.402806
 20
90.242348
 30
0.0
  0
VERTEX
  8
2
  5
A78
 10
-351.082078
 20
90.795848
 30
0.0
  0
VERTEX
  8
2
  5
A79
 10
-350.17675
 20
91.349348
 30
0.0
  0
VERTEX
  8
2
  5
A7A
 10
-349.509293
 20
91.902848
 30
0.0
  0
VERTEX
  8
2
  5
A7B
 10
-349.010759
 20
92.456348
 30
0.0
  0
VERTEX
  8
2
  5
A7C
 10
-348.646488
 20
93.009848
 30
0.0
  0
VERTEX
  8
2
  5
A7D
 10
-348.397039
 20
93.563348
 30
0.0
  0
VERTEX
  8
2
  5
A7E
 10
-348.251247
 20
94.116848
 30
0.0
  0
VERTEX
  8
2
  5
A7F
 10
-348.203258
 20
94.670348
 30
0.0
  0
SEQEND
  8
2
  5
A80
  0
POINT
  8
2
  5
387
 10
-355.953258
 20
-123.849298
 30
0.0
  0
LINE
  8
2
  5
388
 10
-347.953258
 20
-158.849298
 30
0.0
 11
-342.203258
 21
-158.849298
 31
0.0
  0
LINE
  8
2
  5
389
 10
-347.953258
 20
-174.349298
 30
0.0
 11
-342.203258
 21
-174.349298
 31
0.0
  0
LINE
  8
2
  5
38A
 10
-341.703258
 20
-159.349298
 30
0.0
 11
-341.703258
 21
-173.849298
 31
0.0
  0
LINE
  8
2
  5
38B
 10
-341.703258
 20
-159.349298
 30
0.0
 11
-342.203258
 21
-158.849298
 31
0.0
  0
LINE
  8
2
  5
38C
 10
-341.703258
 20
-173.849298
 30
0.0
 11
-342.203258
 21
-174.349298
 31
0.0
  0
LINE
  8
2
  5
38D
 10
-343.632106
 20
-173.849298
 30
0.0
 11
-346.203258
 21
-173.849298
 31
0.0
  0
LINE
  8
2
  5
38E
 10
-343.632106
 20
-159.349298
 30
0.0
 11
-346.203258
 21
-159.349298
 31
0.0
  0
LINE
  8
2
  5
38F
 10
-341.882106
 20
-159.349298
 30
0.0
 11
-341.882106
 21
-173.849298
 31
0.0
  0
LINE
  8
2
  5
390
 10
-343.632106
 20
-159.349298
 30
0.0
 11
-343.632106
 21
-173.849298
 31
0.0
  0
LINE
  8
2
  5
391
 10
-346.203258
 20
-159.349298
 30
0.0
 11
-346.203258
 21
-173.849298
 31
0.0
  0
LINE
  8
2
  5
392
 10
-341.703258
 20
-173.849298
 30
0.0
 11
-341.882106
 21
-173.849298
 31
0.0
  0
LINE
  8
2
  5
393
 10
-341.703258
 20
-159.349298
 30
0.0
 11
-341.882106
 21
-159.349298
 31
0.0
  0
ARC
  8
2
  5
394
 10
-347.953258
 20
-165.349298
 30
0.0
 40
6.25
 50
73.739795
 51
90.0
  0
ARC
  8
2
  5
395
 10
-342.757106
 20
-160.755548
 30
0.0
 40
1.65625
 50
58.109208
 51
121.890792
  0
ARC
  8
2
  5
396
 10
-342.757106
 20
-172.443048
 30
0.0
 40
1.65625
 50
238.109208
 51
301.890792
  0
ARC
  8
2
  5
397
 10
-347.953258
 20
-167.849298
 30
0.0
 40
6.25
 50
270.0
 51
286.260205
  0
LINE
  8
2
  5
398
 10
-347.953258
 20
-158.849298
 30
0.0
 11
-353.703258
 21
-158.849298
 31
0.0
  0
LINE
  8
2
  5
399
 10
-347.953258
 20
-174.349298
 30
0.0
 11
-353.703258
 21
-174.349298
 31
0.0
  0
LINE
  8
2
  5
39A
 10
-354.203258
 20
-159.349298
 30
0.0
 11
-354.203258
 21
-173.849298
 31
0.0
  0
LINE
  8
2
  5
39B
 10
-354.203258
 20
-159.349298
 30
0.0
 11
-353.703258
 21
-158.849298
 31
0.0
  0
LINE
  8
2
  5
39C
 10
-354.203258
 20
-173.849298
 30
0.0
 11
-353.703258
 21
-174.349298
 31
0.0
  0
LINE
  8
2
  5
39D
 10
-352.274411
 20
-173.849298
 30
0.0
 11
-349.703258
 21
-173.849298
 31
0.0
  0
LINE
  8
2
  5
39E
 10
-352.274411
 20
-159.349298
 30
0.0
 11
-349.703258
 21
-159.349298
 31
0.0
  0
LINE
  8
2
  5
39F
 10
-354.024411
 20
-159.349298
 30
0.0
 11
-354.024411
 21
-173.849298
 31
0.0
  0
LINE
  8
2
  5
3A0
 10
-352.274411
 20
-159.349298
 30
0.0
 11
-352.274411
 21
-173.849298
 31
0.0
  0
LINE
  8
2
  5
3A1
 10
-349.703258
 20
-159.349298
 30
0.0
 11
-349.703258
 21
-173.849298
 31
0.0
  0
LINE
  8
2
  5
3A2
 10
-354.203258
 20
-173.849298
 30
0.0
 11
-354.024411
 21
-173.849298
 31
0.0
  0
LINE
  8
2
  5
3A3
 10
-354.203258
 20
-159.349298
 30
0.0
 11
-354.024411
 21
-159.349298
 31
0.0
  0
ARC
  8
2
  5
3A4
 10
-347.953258
 20
-165.349298
 30
0.0
 40
6.25
 50
90.0
 51
106.260205
  0
ARC
  8
2
  5
3A5
 10
-353.149411
 20
-160.755548
 30
0.0
 40
1.65625
 50
58.109208
 51
121.890792
  0
ARC
  8
2
  5
3A6
 10
-353.149411
 20
-172.443048
 30
0.0
 40
1.65625
 50
238.109208
 51
301.890792
  0
ARC
  8
2
  5
3A7
 10
-347.953258
 20
-167.849298
 30
0.0
 40
6.25
 50
253.739795
 51
270.0
  0
LINE
  8
2
  5
3A8
 10
-363.953258
 20
-158.849298
 30
0.0
 11
-358.203258
 21
-158.849298
 31
0.0
  0
LINE
  8
2
  5
3A9
 10
-363.953258
 20
-174.349298
 30
0.0
 11
-358.203258
 21
-174.349298
 31
0.0
  0
LINE
  8
2
  5
3AA
 10
-357.703258
 20
-159.349298
 30
0.0
 11
-357.703258
 21
-173.849298
 31
0.0
  0
LINE
  8
2
  5
3AB
 10
-357.703258
 20
-159.349298
 30
0.0
 11
-358.203258
 21
-158.849298
 31
0.0
  0
LINE
  8
2
  5
3AC
 10
-357.703258
 20
-173.849298
 30
0.0
 11
-358.203258
 21
-174.349298
 31
0.0
  0
LINE
  8
2
  5
3AD
 10
-359.632106
 20
-173.849298
 30
0.0
 11
-362.203258
 21
-173.849298
 31
0.0
  0
LINE
  8
2
  5
3AE
 10
-359.632106
 20
-159.349298
 30
0.0
 11
-362.203258
 21
-159.349298
 31
0.0
  0
LINE
  8
2
  5
3AF
 10
-357.882106
 20
-159.349298
 30
0.0
 11
-357.882106
 21
-173.849298
 31
0.0
  0
LINE
  8
2
  5
3B0
 10
-359.632106
 20
-159.349298
 30
0.0
 11
-359.632106
 21
-173.849298
 31
0.0
  0
LINE
  8
2
  5
3B1
 10
-362.203258
 20
-159.349298
 30
0.0
 11
-362.203258
 21
-173.849298
 31
0.0
  0
LINE
  8
2
  5
3B2
 10
-357.703258
 20
-173.849298
 30
0.0
 11
-357.882106
 21
-173.849298
 31
0.0
  0
LINE
  8
2
  5
3B3
 10
-357.703258
 20
-159.349298
 30
0.0
 11
-357.882106
 21
-159.349298
 31
0.0
  0
ARC
  8
2
  5
3B4
 10
-363.953258
 20
-165.349298
 30
0.0
 40
6.25
 50
73.739795
 51
90.0
  0
ARC
  8
2
  5
3B5
 10
-358.757106
 20
-160.755548
 30
0.0
 40
1.65625
 50
58.109208
 51
121.890792
  0
ARC
  8
2
  5
3B6
 10
-358.757106
 20
-172.443048
 30
0.0
 40
1.65625
 50
238.109208
 51
301.890792
  0
ARC
  8
2
  5
3B7
 10
-363.953258
 20
-167.849298
 30
0.0
 40
6.25
 50
270.0
 51
286.260205
  0
LINE
  8
2
  5
3B8
 10
-363.953258
 20
-158.849298
 30
0.0
 11
-369.703258
 21
-158.849298
 31
0.0
  0
LINE
  8
2
  5
3B9
 10
-363.953258
 20
-174.349298
 30
0.0
 11
-369.703258
 21
-174.349298
 31
0.0
  0
LINE
  8
2
  5
3BA
 10
-370.203258
 20
-159.349298
 30
0.0
 11
-370.203258
 21
-173.849298
 31
0.0
  0
LINE
  8
2
  5
3BB
 10
-370.203258
 20
-159.349298
 30
0.0
 11
-369.703258
 21
-158.849298
 31
0.0
  0
LINE
  8
2
  5
3BC
 10
-370.203258
 20
-173.849298
 30
0.0
 11
-369.703258
 21
-174.349298
 31
0.0
  0
LINE
  8
2
  5
3BD
 10
-368.274411
 20
-173.849298
 30
0.0
 11
-365.703258
 21
-173.849298
 31
0.0
  0
LINE
  8
2
  5
3BE
 10
-368.274411
 20
-159.349298
 30
0.0
 11
-365.703258
 21
-159.349298
 31
0.0
  0
LINE
  8
2
  5
3BF
 10
-370.024411
 20
-159.349298
 30
0.0
 11
-370.024411
 21
-173.849298
 31
0.0
  0
LINE
  8
2
  5
3C0
 10
-368.274411
 20
-159.349298
 30
0.0
 11
-368.274411
 21
-173.849298
 31
0.0
  0
LINE
  8
2
  5
3C1
 10
-365.703258
 20
-159.349298
 30
0.0
 11
-365.703258
 21
-173.849298
 31
0.0
  0
LINE
  8
2
  5
3C2
 10
-370.203258
 20
-173.849298
 30
0.0
 11
-370.024411
 21
-173.849298
 31
0.0
  0
LINE
  8
2
  5
3C3
 10
-370.203258
 20
-159.349298
 30
0.0
 11
-370.024411
 21
-159.349298
 31
0.0
  0
ARC
  8
2
  5
3C4
 10
-363.953258
 20
-165.349298
 30
0.0
 40
6.25
 50
90.0
 51
106.260205
  0
ARC
  8
2
  5
3C5
 10
-369.149411
 20
-160.755548
 30
0.0
 40
1.65625
 50
58.109208
 51
121.890792
  0
ARC
  8
2
  5
3C6
 10
-369.149411
 20
-172.443048
 30
0.0
 40
1.65625
 50
238.109208
 51
301.890792
  0
ARC
  8
2
  5
3C7
 10
-363.953258
 20
-167.849298
 30
0.0
 40
6.25
 50
253.739795
 51
270.0
  0
LINE
  8
2
  5
3C8
 10
-369.953259
 20
-179.960623
 30
0.0
 11
-369.953259
 21
-174.637973
 31
0.0
  0
LINE
  8
2
  5
3C9
 10
-357.953259
 20
-179.960623
 30
0.0
 11
-357.953259
 21
-174.637973
 31
0.0
  0
LINE
  8
2
  5
3CA
 10
-361.555343
 20
-174.637973
 30
0.0
 11
-361.555343
 21
-179.960623
 31
0.0
  0
LINE
  8
2
  5
3CB
 10
-360.389077
 20
-174.637973
 30
0.0
 11
-360.389077
 21
-179.960623
 31
0.0
  0
LINE
  8
2
  5
3CC
 10
-357.991161
 20
-174.637973
 30
0.0
 11
-357.991161
 21
-179.960623
 31
0.0
  0
LINE
  8
2
  5
3CD
 10
-358.453259
 20
-174.349298
 30
0.0
 11
-368.716398
 21
-174.349298
 31
0.0
  0
LINE
  8
2
  5
3CE
 10
-368.953259
 20
-174.349298
 30
0.0
 11
-369.453259
 21
-174.349298
 31
0.0
  0
LINE
  8
2
  5
3CF
 10
-358.453259
 20
-180.249298
 30
0.0
 11
-357.953259
 21
-179.960623
 31
0.0
  0
LINE
  8
2
  5
3D0
 10
-360.389077
 20
-179.960623
 30
0.0
 11
-361.555343
 21
-179.960623
 31
0.0
  0
LINE
  8
2
  5
3D1
 10
-369.953259
 20
-179.960623
 30
0.0
 11
-369.453259
 21
-180.249298
 31
0.0
  0
LINE
  8
2
  5
3D2
 10
-369.953259
 20
-174.637973
 30
0.0
 11
-369.453259
 21
-174.349298
 31
0.0
  0
ARC
  8
2
  5
3D3
 10
-363.953259
 20
-170.145668
 30
0.0
 40
10.10363
 50
270.0
 51
283.729133
  0
ARC
  8
2
  5
3D4
 10
-363.953259
 20
-184.452927
 30
0.0
 40
10.10363
 50
76.270867
 51
90.0
  0
LINE
  8
2
  5
3D5
 10
-360.389077
 20
-174.637973
 30
0.0
 11
-361.555343
 21
-174.637973
 31
0.0
  0
LINE
  8
2
  5
3D6
 10
-357.953259
 20
-179.960623
 30
0.0
 11
-357.991161
 21
-179.960623
 31
0.0
  0
ARC
  8
2
  5
3D7
 10
-359.190119
 20
-177.615137
 30
0.0
 40
2.634161
 50
242.924933
 51
297.075067
  0
ARC
  8
2
  5
3D8
 10
-359.190119
 20
-176.983458
 30
0.0
 40
2.634161
 50
62.924933
 51
117.075067
  0
LINE
  8
2
  5
3D9
 10
-358.453259
 20
-174.349298
 30
0.0
 11
-357.953259
 21
-174.637973
 31
0.0
  0
LINE
  8
2
  5
3DA
 10
-357.953259
 20
-174.637973
 30
0.0
 11
-357.991161
 21
-174.637973
 31
0.0
  0
ARC
  8
2
  5
3DB
 10
-363.953259
 20
-170.145668
 30
0.0
 40
10.10363
 50
256.270867
 51
270.0
  0
LINE
  8
2
  5
3DC
 10
-367.517441
 20
-179.960623
 30
0.0
 11
-366.351174
 21
-179.960623
 31
0.0
  0
LINE
  8
2
  5
3DD
 10
-366.351174
 20
-174.637973
 30
0.0
 11
-366.351174
 21
-179.960623
 31
0.0
  0
LINE
  8
2
  5
3DE
 10
-367.517441
 20
-174.637973
 30
0.0
 11
-367.517441
 21
-179.960623
 31
0.0
  0
ARC
  8
2
  5
3DF
 10
-368.716398
 20
-177.615137
 30
0.0
 40
2.634161
 50
242.924933
 51
297.075067
  0
LINE
  8
2
  5
3E0
 10
-369.915356
 20
-174.637973
 30
0.0
 11
-369.915356
 21
-179.960623
 31
0.0
  0
LINE
  8
2
  5
3E1
 10
-369.915356
 20
-179.960623
 30
0.0
 11
-369.953259
 21
-179.960623
 31
0.0
  0
ARC
  8
2
  5
3E2
 10
-363.953259
 20
-184.452927
 30
0.0
 40
10.10363
 50
90.0
 51
103.729133
  0
LINE
  8
2
  5
3E3
 10
-367.517441
 20
-174.637973
 30
0.0
 11
-366.351174
 21
-174.637973
 31
0.0
  0
ARC
  8
2
  5
3E4
 10
-368.716398
 20
-176.983458
 30
0.0
 40
2.634161
 50
62.924933
 51
117.075067
  0
LINE
  8
2
  5
3E5
 10
-353.953259
 20
-179.960623
 30
0.0
 11
-353.953259
 21
-174.637973
 31
0.0
  0
LINE
  8
2
  5
3E6
 10
-341.953259
 20
-179.960623
 30
0.0
 11
-341.953259
 21
-174.637973
 31
0.0
  0
LINE
  8
2
  5
3E7
 10
-345.555343
 20
-174.637973
 30
0.0
 11
-345.555343
 21
-179.960623
 31
0.0
  0
LINE
  8
2
  5
3E8
 10
-344.389077
 20
-174.637973
 30
0.0
 11
-344.389077
 21
-179.960623
 31
0.0
  0
LINE
  8
2
  5
3E9
 10
-341.991161
 20
-174.637973
 30
0.0
 11
-341.991161
 21
-179.960623
 31
0.0
  0
LINE
  8
2
  5
3EA
 10
-342.453259
 20
-174.349298
 30
0.0
 11
-353.453259
 21
-174.349298
 31
0.0
  0
LINE
  8
2
  5
3EB
 10
-342.453259
 20
-180.249298
 30
0.0
 11
-341.953259
 21
-179.960623
 31
0.0
  0
LINE
  8
2
  5
3EC
 10
-344.389077
 20
-179.960623
 30
0.0
 11
-345.555343
 21
-179.960623
 31
0.0
  0
LINE
  8
2
  5
3ED
 10
-353.953259
 20
-179.960623
 30
0.0
 11
-353.453259
 21
-180.249298
 31
0.0
  0
LINE
  8
2
  5
3EE
 10
-353.953259
 20
-174.637973
 30
0.0
 11
-353.453259
 21
-174.349298
 31
0.0
  0
ARC
  8
2
  5
3EF
 10
-347.953259
 20
-170.145668
 30
0.0
 40
10.10363
 50
270.0
 51
283.729133
  0
ARC
  8
2
  5
3F0
 10
-347.953259
 20
-184.452927
 30
0.0
 40
10.10363
 50
76.270867
 51
90.0
  0
LINE
  8
2
  5
3F1
 10
-344.389077
 20
-174.637973
 30
0.0
 11
-345.555343
 21
-174.637973
 31
0.0
  0
LINE
  8
2
  5
3F2
 10
-341.953259
 20
-179.960623
 30
0.0
 11
-341.991161
 21
-179.960623
 31
0.0
  0
ARC
  8
2
  5
3F3
 10
-343.190119
 20
-177.615137
 30
0.0
 40
2.634161
 50
242.924933
 51
297.075067
  0
ARC
  8
2
  5
3F4
 10
-343.190119
 20
-176.983458
 30
0.0
 40
2.634161
 50
62.924933
 51
117.075067
  0
LINE
  8
2
  5
3F5
 10
-342.453259
 20
-174.349298
 30
0.0
 11
-341.953259
 21
-174.637973
 31
0.0
  0
LINE
  8
2
  5
3F6
 10
-341.953259
 20
-174.637973
 30
0.0
 11
-341.991161
 21
-174.637973
 31
0.0
  0
ARC
  8
2
  5
3F7
 10
-347.953259
 20
-170.145668
 30
0.0
 40
10.10363
 50
256.270867
 51
270.0
  0
LINE
  8
2
  5
3F8
 10
-351.517441
 20
-179.960623
 30
0.0
 11
-350.351174
 21
-179.960623
 31
0.0
  0
LINE
  8
2
  5
3F9
 10
-350.351174
 20
-174.637973
 30
0.0
 11
-350.351174
 21
-179.960623
 31
0.0
  0
LINE
  8
2
  5
3FA
 10
-351.517441
 20
-174.637973
 30
0.0
 11
-351.517441
 21
-179.960623
 31
0.0
  0
ARC
  8
2
  5
3FB
 10
-352.716398
 20
-177.615137
 30
0.0
 40
2.634161
 50
242.924933
 51
297.075067
  0
LINE
  8
2
  5
3FC
 10
-353.915356
 20
-174.637973
 30
0.0
 11
-353.915356
 21
-179.960623
 31
0.0
  0
LINE
  8
2
  5
3FD
 10
-353.915356
 20
-179.960623
 30
0.0
 11
-353.953259
 21
-179.960623
 31
0.0
  0
LINE
  8
2
  6
CENTER
 62
     2
  5
3FE
 10
-347.953259
 20
-216.610452
 30
0.0
 11
-347.953259
 21
-239.66636
 31
0.0
  0
ARC
  8
2
  5
3FF
 10
-347.953259
 20
-184.452927
 30
0.0
 40
10.10363
 50
90.0
 51
103.729133
  0
LINE
  8
2
  5
400
 10
-351.517441
 20
-174.637973
 30
0.0
 11
-350.351174
 21
-174.637973
 31
0.0
  0
ARC
  8
2
  5
401
 10
-352.716398
 20
-176.983458
 30
0.0
 40
2.634161
 50
62.924933
 51
117.075067
  0
LINE
  8
2
  5
402
 10
-302.165416
 20
-294.646349
 30
0.0
 11
-302.165416
 21
-297.046349
 31
0.0
  0
LINE
  8
2
  5
403
 10
-301.965416
 20
-294.446349
 30
0.0
 11
-302.165416
 21
-294.646349
 31
0.0
  0
LINE
  8
2
  5
404
 10
-301.965416
 20
-297.246349
 30
0.0
 11
-302.165416
 21
-297.046349
 31
0.0
  0
LINE
  8
2
  5
405
 10
-302.265416
 20
-303.046349
 30
0.0
 11
-284.265416
 21
-303.046349
 31
0.0
  0
LINE
  8
2
  5
406
 10
-299.265416
 20
-289.046349
 30
0.0
 11
-306.765416
 21
-289.046349
 31
0.0
  0
LINE
  8
2
  5
407
 10
-301.565416
 20
-303.046349
 30
0.0
 11
-306.765416
 21
-303.046349
 31
0.0
  0
LINE
  8
2
  5
408
 10
-302.165416
 20
-294.646349
 30
0.0
 11
-297.265416
 21
-294.646349
 31
0.0
  0
LINE
  8
2
  5
409
 10
-302.165416
 20
-297.046349
 30
0.0
 11
-297.265416
 21
-297.046349
 31
0.0
  0
LINE
  8
2
  5
40A
 10
-302.065416
 20
-302.046349
 30
0.0
 11
-302.065416
 21
-299.446349
 31
0.0
  0
LINE
  8
2
  5
40B
 10
-302.065416
 20
-294.546349
 30
0.0
 11
-302.065416
 21
-290.046349
 31
0.0
  0
ARC
  8
2
  5
40C
 10
-301.065416
 20
-290.046349
 30
0.0
 40
1.0
 50
90.0
 51
180.0
  0
ARC
  8
2
  5
40D
 10
-303.065416
 20
-302.046349
 30
0.0
 40
1.0
 50
270.0
 51
360.0
  0
ARC
  8
2
  5
40E
 10
-301.065416
 20
-290.046349
 30
0.0
 40
1.0
 50
90.0
 51
180.0
  0
LINE
  8
2
  5
40F
 10
-302.265416
 20
-297.446349
 30
0.0
 11
-302.265416
 21
-299.246349
 31
0.0
  0
LINE
  8
2
  5
410
 10
-302.065416
 20
-297.246349
 30
0.0
 11
-302.265416
 21
-297.446349
 31
0.0
  0
LINE
  8
2
  5
411
 10
-302.265416
 20
-299.246349
 30
0.0
 11
-302.065416
 21
-299.446349
 31
0.0
  0
LINE
  8
2
  5
412
 10
-302.065416
 20
-299.446349
 30
0.0
 11
-297.265416
 21
-299.446349
 31
0.0
  0
LINE
  8
2
  5
413
 10
-302.265416
 20
-299.246349
 30
0.0
 11
-297.265416
 21
-299.246349
 31
0.0
  0
LINE
  8
2
  5
414
 10
-302.265416
 20
-297.446349
 30
0.0
 11
-297.265416
 21
-297.446349
 31
0.0
  0
LINE
  8
2
  5
415
 10
-302.065416
 20
-297.246349
 30
0.0
 11
-297.265416
 21
-297.246349
 31
0.0
  0
LINE
  8
2
  5
416
 10
-307.765416
 20
-290.046349
 30
0.0
 11
-307.765416
 21
-302.046349
 31
0.0
  0
ARC
  8
2
  5
417
 10
-306.765416
 20
-290.046349
 30
0.0
 40
1.0
 50
90.0
 51
180.0
  0
ARC
  8
2
  5
418
 10
-306.765416
 20
-302.046349
 30
0.0
 40
1.0
 50
180.0
 51
270.0
  0
LINE
  8
2
  5
419
 10
-302.26521
 20
-303.445601
 30
0.0
 11
-303.26521
 21
-304.445601
 31
0.0
  0
LINE
  8
2
  5
41A
 10
-302.26521
 20
-303.445601
 30
0.0
 11
-284.26521
 21
-303.445601
 31
0.0
  0
LINE
  8
2
  5
41B
 10
-283.26521
 20
-304.445601
 30
0.0
 11
-303.26521
 21
-304.445601
 31
0.0
  0
LINE
  8
2
  5
41C
 10
-303.26521
 20
-304.445601
 30
0.0
 11
-303.26521
 21
-313.245601
 31
0.0
  0
LINE
  8
2
  5
41D
 10
-303.592078
 20
-313.245601
 30
0.0
 11
-281.26521
 21
-313.245601
 31
0.0
  0
LINE
  8
2
  5
41E
 10
-307.121617
 20
-322.389194
 30
0.0
 11
-307.121617
 21
-315.102007
 31
0.0
  0
LINE
  8
2
  5
41F
 10
-305.26521
 20
-324.245601
 30
0.0
 11
-281.26521
 21
-324.245601
 31
0.0
  0
LINE
  8
2
  5
420
 10
-305.26521
 20
-313.245601
 30
0.0
 11
-281.26521
 21
-313.245601
 31
0.0
  0
LINE
  8
2
  5
421
 10
-305.26521
 20
-324.245601
 30
0.0
 11
-307.121617
 21
-322.389194
 31
0.0
  0
LINE
  8
2
  5
422
 10
-305.26521
 20
-313.245601
 30
0.0
 11
-307.121617
 21
-315.102007
 31
0.0
  0
ARC
  8
2
  5
423
 10
-303.592078
 20
-317.2849
 30
0.0
 40
4.039299
 50
32.711809
 51
135.0
  0
ARC
  8
2
  5
424
 10
-303.592078
 20
-320.206301
 30
0.0
 40
4.039299
 50
225.0
 51
327.288191
  0
LINE
  8
2
  5
425
 10
-412.141101
 20
-269.054124
 30
0.0
 11
-425.141101
 21
-269.054124
 31
0.0
  0
LINE
  8
2
  5
426
 10
-414.059664
 20
-283.054124
 30
0.0
 11
-412.641101
 21
-283.054124
 31
0.0
  0
LINE
  8
2
  5
427
 10
-414.059664
 20
-285.554124
 30
0.0
 11
-412.641101
 21
-285.554124
 31
0.0
  0
ARC
  8
2
  5
428
 10
-412.841101
 20
-285.854124
 30
0.0
 40
0.2
 50
270.0
 51
360.0
  0
LINE
  8
2
  5
429
 10
-418.141101
 20
-285.554124
 30
0.0
 11
-414.766771
 21
-285.554124
 31
0.0
  0
LINE
  8
2
  5
42A
 10
-418.141101
 20
-283.054124
 30
0.0
 11
-414.766771
 21
-283.054124
 31
0.0
  0
LINE
  8
2
  5
42B
 10
-422.515432
 20
-285.554124
 30
0.0
 11
-419.141101
 21
-285.554124
 31
0.0
  0
LINE
  8
2
  5
42C
 10
-422.515432
 20
-283.054124
 30
0.0
 11
-419.141101
 21
-283.054124
 31
0.0
  0
LINE
  8
2
  5
42D
 10
-424.641101
 20
-285.554124
 30
0.0
 11
-423.222538
 21
-285.554124
 31
0.0
  0
LINE
  8
2
  5
42E
 10
-424.641101
 20
-283.054124
 30
0.0
 11
-423.222538
 21
-283.054124
 31
0.0
  0
ARC
  8
2
  5
42F
 10
-424.441101
 20
-285.854124
 30
0.0
 40
0.2
 50
180.0
 51
270.0
  0
LINE
  8
2
  5
430
 10
-424.641101
 20
-283.054124
 30
0.0
 11
-424.641101
 21
-285.854124
 31
0.0
  0
LINE
  8
2
  5
431
 10
-424.620232
 20
-283.054124
 30
0.0
 11
-424.620232
 21
-285.554124
 31
0.0
  0
ARC
  8
2
  5
432
 10
-422.641101
 20
-281.554124
 30
0.0
 40
2.5
 50
180.0
 51
216.869898
  0
LINE
  8
2
  5
433
 10
-423.222538
 20
-283.054124
 30
0.0
 11
-423.222538
 21
-285.554124
 31
0.0
  0
LINE
  8
2
  5
434
 10
-422.515432
 20
-283.054124
 30
0.0
 11
-422.515432
 21
-285.554124
 31
0.0
  0
LINE
  8
2
  5
435
 10
-419.141101
 20
-283.054124
 30
0.0
 11
-419.141101
 21
-285.554124
 31
0.0
  0
LINE
  8
2
  5
436
 10
-418.141101
 20
-283.054124
 30
0.0
 11
-418.141101
 21
-285.554124
 31
0.0
  0
LINE
  8
2
  5
437
 10
-414.059664
 20
-283.054124
 30
0.0
 11
-414.059664
 21
-285.554124
 31
0.0
  0
LINE
  8
2
  5
438
 10
-414.766771
 20
-283.054124
 30
0.0
 11
-414.766771
 21
-285.554124
 31
0.0
  0
LINE
  8
2
  5
439
 10
-412.641101
 20
-283.054124
 30
0.0
 11
-412.641101
 21
-285.854124
 31
0.0
  0
LINE
  8
2
  5
43A
 10
-412.661971
 20
-283.054124
 30
0.0
 11
-412.661971
 21
-285.554124
 31
0.0
  0
ARC
  8
2
  5
43B
 10
-414.641101
 20
-281.554124
 30
0.0
 40
2.5
 50
323.130102
 51
360.0
  0
LINE
  8
2
  5
43C
 10
-412.141101
 20
-269.054124
 30
0.0
 11
-412.141101
 21
-281.554124
 31
0.0
  0
LINE
  8
2
 62
     2
  5
43D
 10
-425.121842
 20
-269.054124
 30
0.0
 11
-425.121842
 21
-281.554124
 31
0.0
  0
LINE
  8
2
  5
43E
 10
-425.141101
 20
-269.054124
 30
0.0
 11
-425.141101
 21
-281.554124
 31
0.0
  0
LINE
  8
2
  5
43F
 10
-425.641101
 20
-286.054124
 30
0.0
 11
-411.641101
 21
-286.054124
 31
0.0
  0
LINE
  8
2
  5
440
 10
-426.141101
 20
-286.554124
 30
0.0
 11
-425.641101
 21
-286.054124
 31
0.0
  0
LINE
  8
2
  5
441
 10
-412.891101
 20
-269.054124
 30
0.0
 11
-412.891101
 21
-233.562265
 31
0.0
  0
LINE
  8
2
  5
442
 10
-424.391101
 20
-269.054124
 30
0.0
 11
-424.391101
 21
-233.710325
 31
0.0
  0
LINE
  8
2
 62
     2
  5
443
 10
-425.140962
 20
-299.853502
 30
0.0
 11
-425.140962
 21
-296.853502
 31
0.0
  0
LINE
  8
2
  5
444
 10
-427.541101
 20
-291.454759
 30
0.0
 11
-427.541101
 21
-293.854759
 31
0.0
  0
LINE
  8
2
  5
445
 10
-427.341101
 20
-291.254759
 30
0.0
 11
-427.541101
 21
-291.454759
 31
0.0
  0
LINE
  8
2
  5
446
 10
-427.341101
 20
-294.054759
 30
0.0
 11
-427.541101
 21
-293.854759
 31
0.0
  0
LINE
  8
2
  5
447
 10
-426.141101
 20
-291.254759
 30
0.0
 11
-426.141101
 21
-290.853502
 31
0.0
  0
LINE
  8
2
  5
448
 10
-426.141101
 20
-286.554124
 30
0.0
 11
-426.141101
 21
-287.853502
 31
0.0
  0
LINE
  8
2
  5
449
 10
-409.741101
 20
-291.454124
 30
0.0
 11
-409.741101
 21
-293.854124
 31
0.0
  0
LINE
  8
2
  5
44A
 10
-427.541101
 20
-291.454124
 30
0.0
 11
-427.541101
 21
-293.854124
 31
0.0
  0
LINE
  8
2
  5
44B
 10
-427.341101
 20
-291.254124
 30
0.0
 11
-427.541101
 21
-291.454124
 31
0.0
  0
LINE
  8
2
  5
44C
 10
-409.941101
 20
-291.254124
 30
0.0
 11
-409.741101
 21
-291.454124
 31
0.0
  0
LINE
  8
2
  5
44D
 10
-409.941101
 20
-294.054124
 30
0.0
 11
-409.741101
 21
-293.854124
 31
0.0
  0
LINE
  8
2
  5
44E
 10
-409.641101
 20
-299.854124
 30
0.0
 11
-427.641101
 21
-299.854124
 31
0.0
  0
LINE
  8
2
  5
44F
 10
-410.341101
 20
-287.854124
 30
0.0
 11
-426.941101
 21
-287.854124
 31
0.0
  0
LINE
  8
2
  5
450
 10
-422.641101
 20
-288.854124
 30
0.0
 11
-422.641101
 21
-298.854124
 31
0.0
  0
LINE
  8
2
  5
451
 10
-414.641101
 20
-288.854124
 30
0.0
 11
-414.641101
 21
-298.854124
 31
0.0
  0
ARC
  8
2
  5
452
 10
-432.141101
 20
-286.854124
 30
0.0
 40
1.0
 50
90.0
 51
180.0
  0
ARC
  8
2
  5
453
 10
-432.141101
 20
-298.854124
 30
0.0
 40
1.0
 50
180.0
 51
270.0
  0
LINE
  8
2
  5
454
 10
-432.141101
 20
-285.854124
 30
0.0
 11
-424.641101
 21
-285.854124
 31
0.0
  0
LINE
  8
2
  5
455
 10
-412.641101
 20
-285.854124
 30
0.0
 11
-405.141101
 21
-285.854124
 31
0.0
  0
LINE
  8
2
  5
456
 10
-432.141101
 20
-299.854124
 30
0.0
 11
-426.141101
 21
-299.854124
 31
0.0
  0
LINE
  8
2
  5
457
 10
-410.341101
 20
-299.854124
 30
0.0
 11
-405.141101
 21
-299.854124
 31
0.0
  0
LINE
  8
2
  5
458
 10
-410.341101
 20
-290.854124
 30
0.0
 11
-414.641101
 21
-290.854124
 31
0.0
  0
LINE
  8
2
  5
459
 10
-422.641101
 20
-290.854124
 30
0.0
 11
-426.941101
 21
-290.854124
 31
0.0
  0
LINE
  8
2
  5
45A
 10
-409.941101
 20
-291.254124
 30
0.0
 11
-414.641101
 21
-291.254124
 31
0.0
  0
LINE
  8
2
  5
45B
 10
-422.641101
 20
-291.254124
 30
0.0
 11
-427.341101
 21
-291.254124
 31
0.0
  0
LINE
  8
2
  5
45C
 10
-409.741101
 20
-291.454124
 30
0.0
 11
-414.641101
 21
-291.454124
 31
0.0
  0
LINE
  8
2
  5
45D
 10
-422.641101
 20
-291.454124
 30
0.0
 11
-427.541101
 21
-291.454124
 31
0.0
  0
LINE
  8
2
  5
45E
 10
-409.741101
 20
-293.854124
 30
0.0
 11
-414.641101
 21
-293.854124
 31
0.0
  0
LINE
  8
2
  5
45F
 10
-422.641101
 20
-293.854124
 30
0.0
 11
-427.541101
 21
-293.854124
 31
0.0
  0
LINE
  8
2
  5
460
 10
-410.341101
 20
-296.854124
 30
0.0
 11
-414.641101
 21
-296.854124
 31
0.0
  0
LINE
  8
2
  5
461
 10
-422.641101
 20
-296.854124
 30
0.0
 11
-426.941101
 21
-296.854124
 31
0.0
  0
ARC
  8
2
  5
462
 10
-415.641101
 20
-288.854124
 30
0.0
 40
1.0
 50
0.0
 51
90.0
  0
ARC
  8
2
  5
463
 10
-421.641101
 20
-288.854124
 30
0.0
 40
1.0
 50
90.0
 51
180.0
  0
ARC
  8
2
  5
464
 10
-421.641101
 20
-298.854124
 30
0.0
 40
1.0
 50
180.0
 51
270.0
  0
ARC
  8
2
  5
465
 10
-415.641101
 20
-298.854124
 30
0.0
 40
1.0
 50
270.0
 51
0.0
  0
LINE
  8
2
  5
466
 10
-426.941101
 20
-287.854124
 30
0.0
 11
-426.941101
 21
-290.854124
 31
0.0
  0
LINE
  8
2
  5
467
 10
-410.341101
 20
-287.854124
 30
0.0
 11
-410.341101
 21
-290.854124
 31
0.0
  0
LINE
  8
2
  5
468
 10
-410.341101
 20
-296.854124
 30
0.0
 11
-410.341101
 21
-299.854124
 31
0.0
  0
LINE
  8
2
  5
469
 10
-426.941101
 20
-296.854124
 30
0.0
 11
-426.941101
 21
-299.854124
 31
0.0
  0
LINE
  8
2
  5
46A
 10
-426.141101
 20
-291.254124
 30
0.0
 11
-426.141101
 21
-290.854124
 31
0.0
  0
LINE
  8
2
  5
46B
 10
-411.141101
 20
-291.254124
 30
0.0
 11
-411.141101
 21
-290.854124
 31
0.0
  0
LINE
  8
2
 62
     2
  5
46C
 10
-423.641101
 20
-299.554707
 30
0.0
 11
-423.641101
 21
-297.249485
 31
0.0
  0
LINE
  8
2
 62
     2
  5
46D
 10
-423.641102
 20
-290.592937
 30
0.0
 11
-423.641101
 21
-288.160732
 31
0.0
  0
LINE
  8
2
 62
     2
  5
46E
 10
-413.641101
 20
-299.554707
 30
0.0
 11
-413.641101
 21
-297.249485
 31
0.0
  0
LINE
  8
2
 62
     2
  5
46F
 10
-413.641101
 20
-290.550259
 30
0.0
 11
-413.641101
 21
-288.081211
 31
0.0
  0
LINE
  8
2
  5
470
 10
-427.441101
 20
-298.854124
 30
0.0
 11
-427.441101
 21
-296.254124
 31
0.0
  0
LINE
  8
2
  5
471
 10
-427.441101
 20
-291.354124
 30
0.0
 11
-427.441101
 21
-286.854124
 31
0.0
  0
LINE
  8
2
  5
472
 10
-409.841101
 20
-298.854124
 30
0.0
 11
-409.841101
 21
-296.254124
 31
0.0
  0
LINE
  8
2
  5
473
 10
-409.841101
 20
-291.354124
 30
0.0
 11
-409.841101
 21
-286.854124
 31
0.0
  0
ARC
  8
2
  5
474
 10
-426.441101
 20
-286.854124
 30
0.0
 40
1.0
 50
90.0
 51
180.0
  0
ARC
  8
2
  5
475
 10
-410.841101
 20
-286.854124
 30
0.0
 40
1.0
 50
0.0
 51
90.0
  0
ARC
  8
2
  5
476
 10
-428.441101
 20
-298.854124
 30
0.0
 40
1.0
 50
270.0
 51
0.0
  0
ARC
  8
2
  5
477
 10
-408.841101
 20
-298.854124
 30
0.0
 40
1.0
 50
180.0
 51
270.0
  0
LINE
  8
2
  5
478
 10
-411.141101
 20
-286.554124
 30
0.0
 11
-411.141101
 21
-287.853502
 31
0.0
  0
ARC
  8
2
  5
479
 10
-410.841101
 20
-286.854124
 30
0.0
 40
1.0
 50
0.0
 51
90.0
  0
LINE
  8
2
  5
47A
 10
-411.141101
 20
-286.554124
 30
0.0
 11
-411.641101
 21
-286.054124
 31
0.0
  0
LINE
  8
2
  5
47B
 10
-409.641101
 20
-294.254124
 30
0.0
 11
-409.641101
 21
-296.054124
 31
0.0
  0
LINE
  8
2
  5
47C
 10
-427.641101
 20
-294.254124
 30
0.0
 11
-427.641101
 21
-296.054124
 31
0.0
  0
LINE
  8
2
  5
47D
 10
-409.841101
 20
-294.054124
 30
0.0
 11
-409.641101
 21
-294.254124
 31
0.0
  0
LINE
  8
2
  5
47E
 10
-409.641101
 20
-296.054124
 30
0.0
 11
-409.841101
 21
-296.254124
 31
0.0
  0
LINE
  8
2
  5
47F
 10
-427.441101
 20
-294.054124
 30
0.0
 11
-427.641101
 21
-294.254124
 31
0.0
  0
LINE
  8
2
  5
480
 10
-427.641101
 20
-296.054124
 30
0.0
 11
-427.441101
 21
-296.254124
 31
0.0
  0
LINE
  8
2
  5
481
 10
-426.141101
 20
-300.254124
 30
0.0
 11
-426.141101
 21
-299.854124
 31
0.0
  0
LINE
  8
2
  5
482
 10
-426.141101
 20
-296.854124
 30
0.0
 11
-426.141101
 21
-296.254124
 31
0.0
  0
LINE
  8
2
  5
483
 10
-411.141101
 20
-300.254124
 30
0.0
 11
-411.141101
 21
-299.854124
 31
0.0
  0
LINE
  8
2
  5
484
 10
-411.141101
 20
-296.854124
 30
0.0
 11
-411.141101
 21
-296.254124
 31
0.0
  0
LINE
  8
2
  5
485
 10
-409.841101
 20
-296.254124
 30
0.0
 11
-414.641101
 21
-296.254124
 31
0.0
  0
LINE
  8
2
  5
486
 10
-422.641101
 20
-296.254124
 30
0.0
 11
-427.441101
 21
-296.254124
 31
0.0
  0
LINE
  8
2
  5
487
 10
-409.641101
 20
-296.054124
 30
0.0
 11
-414.641101
 21
-296.054124
 31
0.0
  0
LINE
  8
2
  5
488
 10
-422.641101
 20
-296.054124
 30
0.0
 11
-427.641101
 21
-296.054124
 31
0.0
  0
LINE
  8
2
  5
489
 10
-409.641101
 20
-294.254124
 30
0.0
 11
-414.641101
 21
-294.254124
 31
0.0
  0
LINE
  8
2
  5
48A
 10
-422.641101
 20
-294.254124
 30
0.0
 11
-427.641101
 21
-294.254124
 31
0.0
  0
LINE
  8
2
  5
48B
 10
-409.841101
 20
-294.054124
 30
0.0
 11
-414.641101
 21
-294.054124
 31
0.0
  0
LINE
  8
2
  5
48C
 10
-422.641101
 20
-294.054124
 30
0.0
 11
-427.441101
 21
-294.054124
 31
0.0
  0
LINE
  8
2
 62
     2
  5
48D
 10
-412.141241
 20
-299.853502
 30
0.0
 11
-412.141241
 21
-296.853502
 31
0.0
  0
LINE
  8
2
 62
     2
  5
48E
 10
-425.140962
 20
-290.854124
 30
0.0
 11
-425.140962
 21
-287.854124
 31
0.0
  0
LINE
  8
2
 62
     2
  5
48F
 10
-412.141241
 20
-290.854124
 30
0.0
 11
-412.141241
 21
-287.854124
 31
0.0
  0
LINE
  8
2
 62
     2
  5
490
 10
-422.706965
 20
-260.370558
 30
0.0
 11
-414.575237
 21
-252.23883
 31
0.0
  0
LINE
  8
2
 62
     2
  5
491
 10
-422.706965
 20
-252.23883
 30
0.0
 11
-414.575237
 21
-260.370558
 31
0.0
  0
LINE
  8
2
 62
     2
  5
492
 10
-421.937899
 20
-261.015706
 30
0.0
 11
-413.93009
 21
-253.007897
 31
0.0
  0
LINE
  8
2
 62
     2
  5
493
 10
-421.038875
 20
-261.530896
 30
0.0
 11
-413.4149
 21
-253.90692
 31
0.0
  0
LINE
  8
2
 62
     2
  5
494
 10
-419.98839
 20
-261.894624
 30
0.0
 11
-413.051172
 21
-254.957406
 31
0.0
  0
LINE
  8
2
 62
     2
  5
495
 10
-418.733505
 20
-262.053952
 30
0.0
 11
-412.891844
 21
-256.212291
 31
0.0
  0
LINE
  8
2
 62
     2
  5
496
 10
-417.113365
 20
-261.848026
 30
0.0
 11
-413.09777
 21
-257.832431
 31
0.0
  0
LINE
  8
2
 62
     2
  5
497
 10
-423.352112
 20
-259.601492
 30
0.0
 11
-415.344304
 21
-251.593683
 31
0.0
  0
LINE
  8
2
 62
     2
  5
498
 10
-423.867303
 20
-258.702469
 30
0.0
 11
-416.243327
 21
-251.078493
 31
0.0
  0
LINE
  8
2
 62
     2
  5
499
 10
-424.231031
 20
-257.651983
 30
0.0
 11
-417.293812
 21
-250.714765
 31
0.0
  0
LINE
  8
2
 62
     2
  5
49A
 10
-424.390359
 20
-256.397098
 30
0.0
 11
-418.548698
 21
-250.555437
 31
0.0
  0
LINE
  8
2
 62
     2
  5
49B
 10
-424.184433
 20
-254.776958
 30
0.0
 11
-420.168838
 21
-250.761363
 31
0.0
  0
LINE
  8
2
 62
     2
  5
49C
 10
-421.937899
 20
-251.593683
 30
0.0
 11
-413.93009
 21
-259.601492
 31
0.0
  0
LINE
  8
2
 62
     2
  5
49D
 10
-421.038875
 20
-251.078493
 30
0.0
 11
-413.4149
 21
-258.702469
 31
0.0
  0
LINE
  8
2
 62
     2
  5
49E
 10
-419.98839
 20
-250.714765
 30
0.0
 11
-413.051172
 21
-257.651983
 31
0.0
  0
LINE
  8
2
 62
     2
  5
49F
 10
-418.733505
 20
-250.555437
 30
0.0
 11
-412.891844
 21
-256.397098
 31
0.0
  0
LINE
  8
2
 62
     2
  5
4A0
 10
-417.113365
 20
-250.761363
 30
0.0
 11
-413.09777
 21
-254.776958
 31
0.0
  0
LINE
  8
2
 62
     2
  5
4A1
 10
-423.352112
 20
-253.007897
 30
0.0
 11
-415.344304
 21
-261.015706
 31
0.0
  0
LINE
  8
2
 62
     2
  5
4A2
 10
-423.867303
 20
-253.90692
 30
0.0
 11
-416.243327
 21
-261.530896
 31
0.0
  0
LINE
  8
2
 62
     2
  5
4A3
 10
-424.231031
 20
-254.957406
 30
0.0
 11
-417.293812
 21
-261.894624
 31
0.0
  0
LINE
  8
2
 62
     2
  5
4A4
 10
-424.390359
 20
-256.212291
 30
0.0
 11
-418.548698
 21
-262.053952
 31
0.0
  0
LINE
  8
2
 62
     2
  5
4A5
 10
-424.184433
 20
-257.832431
 30
0.0
 11
-420.168838
 21
-261.848026
 31
0.0
  0
LINE
  8
2
  5
4A6
 10
-404.141101
 20
-286.854124
 30
0.0
 11
-404.141101
 21
-298.854124
 31
0.0
  0
ARC
  8
2
  5
4A7
 10
-405.141101
 20
-286.854124
 30
0.0
 40
1.0
 50
0.0
 51
90.0
  0
ARC
  8
2
  5
4A8
 10
-405.141101
 20
-298.854124
 30
0.0
 40
1.0
 50
270.0
 51
360.0
  0
LINE
  8
2
  5
4A9
 10
-433.141101
 20
-286.854124
 30
0.0
 11
-433.141101
 21
-298.854124
 31
0.0
  0
LINE
  8
2
 62
     2
  5
4AA
 10
-413.704972
 20
-281.554124
 30
0.0
 11
-413.704972
 21
-280.304124
 31
0.0
  0
LINE
  8
2
 62
     2
  5
4AB
 10
-413.704972
 20
-270.304124
 30
0.0
 11
-413.704972
 21
-269.054124
 31
0.0
  0
LINE
  8
2
 62
     2
  5
4AC
 10
-414.412079
 20
-281.554124
 30
0.0
 11
-414.412079
 21
-280.304124
 31
0.0
  0
LINE
  8
2
 62
     2
  5
4AD
 10
-414.412079
 20
-270.304124
 30
0.0
 11
-414.412079
 21
-269.054124
 31
0.0
  0
LINE
  8
2
 62
     2
  5
4AE
 10
-418.141101
 20
-281.554124
 30
0.0
 11
-418.141101
 21
-280.304124
 31
0.0
  0
LINE
  8
2
 62
     2
  5
4AF
 10
-418.141101
 20
-270.304124
 30
0.0
 11
-418.141101
 21
-269.054124
 31
0.0
  0
LINE
  8
2
 62
     2
  5
4B0
 10
-419.141101
 20
-281.554124
 30
0.0
 11
-419.141101
 21
-280.304124
 31
0.0
  0
LINE
  8
2
 62
     2
  5
4B1
 10
-419.141101
 20
-270.304124
 30
0.0
 11
-419.141101
 21
-269.054124
 31
0.0
  0
LINE
  8
2
 62
     2
  5
4B2
 10
-422.870124
 20
-281.554124
 30
0.0
 11
-422.870124
 21
-280.304124
 31
0.0
  0
LINE
  8
2
 62
     2
  5
4B3
 10
-422.870124
 20
-270.304124
 30
0.0
 11
-422.870124
 21
-269.054124
 31
0.0
  0
LINE
  8
2
 62
     2
  5
4B4
 10
-423.57723
 20
-281.554124
 30
0.0
 11
-423.57723
 21
-280.304124
 31
0.0
  0
LINE
  8
2
 62
     2
  5
4B5
 10
-423.57723
 20
-270.304124
 30
0.0
 11
-423.57723
 21
-269.054124
 31
0.0
  0
POINT
  8
2
  5
4B6
 10
-425.141101
 20
-270.304124
 30
0.0
  0
LINE
  8
2
  5
4B7
 10
-427.640836
 20
-300.253375
 30
0.0
 11
-428.640836
 21
-301.253375
 31
0.0
  0
LINE
  8
2
  5
4B8
 10
-409.640836
 20
-300.253375
 30
0.0
 11
-408.640836
 21
-301.253375
 31
0.0
  0
LINE
  8
2
  5
4B9
 10
-428.640836
 20
-301.253375
 30
0.0
 11
-408.640836
 21
-301.253375
 31
0.0
  0
LINE
  8
2
  5
4BA
 10
-428.640836
 20
-301.253375
 30
0.0
 11
-428.640836
 21
-310.053375
 31
0.0
  0
LINE
  8
2
  5
4BB
 10
-408.640836
 20
-301.253375
 30
0.0
 11
-408.640836
 21
-310.053375
 31
0.0
  0
LINE
  8
2
  5
4BC
 10
-408.313969
 20
-310.053375
 30
0.0
 11
-430.640836
 21
-310.053375
 31
0.0
  0
LINE
  8
2
  5
4BD
 10
-432.497242
 20
-311.909782
 30
0.0
 11
-432.497242
 21
-319.196969
 31
0.0
  0
LINE
  8
2
  5
4BE
 10
-404.784429
 20
-319.196969
 30
0.0
 11
-404.784429
 21
-311.909782
 31
0.0
  0
LINE
  8
2
  5
4BF
 10
-406.640836
 20
-321.053375
 30
0.0
 11
-430.640836
 21
-321.053375
 31
0.0
  0
LINE
  8
2
  5
4C0
 10
-425.569039
 20
-319.196969
 30
0.0
 11
-425.569039
 21
-311.909782
 31
0.0
  0
LINE
  8
2
  5
4C1
 10
-411.712633
 20
-319.196969
 30
0.0
 11
-411.712633
 21
-311.909782
 31
0.0
  0
LINE
  8
2
  5
4C2
 10
-406.640836
 20
-310.053375
 30
0.0
 11
-430.640836
 21
-310.053375
 31
0.0
  0
LINE
  8
2
  5
4C3
 10
-430.640836
 20
-310.053375
 30
0.0
 11
-432.497242
 21
-311.909782
 31
0.0
  0
LINE
  8
2
  5
4C4
 10
-406.640836
 20
-321.053375
 30
0.0
 11
-404.784429
 21
-319.196969
 31
0.0
  0
LINE
  8
2
  5
4C5
 10
-406.640836
 20
-310.053375
 30
0.0
 11
-404.784429
 21
-311.909782
 31
0.0
  0
LINE
  8
2
  5
4C6
 10
-430.640836
 20
-321.053375
 30
0.0
 11
-432.497242
 21
-319.196969
 31
0.0
  0
ARC
  8
2
  5
4C7
 10
-418.640836
 20
-323.909782
 30
0.0
 40
13.856406
 50
60.0
 51
120.0
  0
ARC
  8
2
  5
4C8
 10
-418.640836
 20
-307.196969
 30
0.0
 40
13.856406
 50
240.0
 51
300.0
  0
ARC
  8
2
  5
4C9
 10
-428.967703
 20
-314.092675
 30
0.0
 40
4.039299
 50
32.711809
 51
135.0
  0
ARC
  8
2
  5
4CA
 10
-428.967703
 20
-317.014076
 30
0.0
 40
4.039299
 50
225.0
 51
327.288191
  0
ARC
  8
2
  5
4CB
 10
-408.313969
 20
-314.092675
 30
0.0
 40
4.039299
 50
45.0
 51
147.288191
  0
ARC
  8
2
  5
4CC
 10
-408.313969
 20
-317.014076
 30
0.0
 40
4.039299
 50
212.711809
 51
315.0
  0
LINE
  8
2
  5
4CD
 10
-409.640836
 20
-300.253375
 30
0.0
 11
-427.640836
 21
-300.253375
 31
0.0
  0
LINE
  8
2
  5
4CE
 10
-369.753259
 20
-180.249298
 30
0.0
 11
-358.153259
 21
-180.249298
 31
0.0
  0
LINE
  8
2
  5
4CF
 10
-357.453259
 20
-197.249298
 30
0.0
 11
-370.453259
 21
-197.249298
 31
0.0
  0
LINE
  8
2
  5
4D0
 10
-357.453259
 20
-197.249298
 30
0.0
 11
-357.453259
 21
-184.749298
 31
0.0
  0
LINE
  8
2
  5
4D1
 10
-370.453259
 20
-197.249298
 30
0.0
 11
-370.453259
 21
-184.749298
 31
0.0
  0
LINE
  8
2
  5
4D2
 10
-360.078928
 20
-183.249298
 30
0.0
 11
-360.078928
 21
-180.749298
 31
0.0
  0
LINE
  8
2
  5
4D3
 10
-359.371822
 20
-183.249298
 30
0.0
 11
-359.371822
 21
-180.749298
 31
0.0
  0
LINE
  8
2
  5
4D4
 10
-357.974128
 20
-183.249298
 30
0.0
 11
-357.974128
 21
-180.749298
 31
0.0
  0
LINE
  8
2
  5
4D5
 10
-357.953259
 20
-183.249298
 30
0.0
 11
-357.953259
 21
-180.449298
 31
0.0
  0
LINE
  8
2
  5
4D6
 10
-363.453259
 20
-183.249298
 30
0.0
 11
-363.453259
 21
-180.749298
 31
0.0
  0
LINE
  8
2
  5
4D7
 10
-364.453259
 20
-183.249298
 30
0.0
 11
-364.453259
 21
-180.749298
 31
0.0
  0
LINE
  8
2
  5
4D8
 10
-367.827589
 20
-183.249298
 30
0.0
 11
-367.827589
 21
-180.749298
 31
0.0
  0
LINE
  8
2
  5
4D9
 10
-368.534696
 20
-183.249298
 30
0.0
 11
-368.534696
 21
-180.749298
 31
0.0
  0
LINE
  8
2
  5
4DA
 10
-369.953259
 20
-183.249298
 30
0.0
 11
-369.953259
 21
-180.449298
 31
0.0
  0
LINE
  8
2
  5
4DB
 10
-369.932389
 20
-183.249298
 30
0.0
 11
-369.932389
 21
-180.749298
 31
0.0
  0
LINE
  8
2
  5
4DC
 10
-359.371822
 20
-180.749298
 30
0.0
 11
-357.953259
 21
-180.749298
 31
0.0
  0
LINE
  8
2
  5
4DD
 10
-363.453259
 20
-180.749298
 30
0.0
 11
-360.078928
 21
-180.749298
 31
0.0
  0
LINE
  8
2
  5
4DE
 10
-369.953259
 20
-180.749298
 30
0.0
 11
-368.534696
 21
-180.749298
 31
0.0
  0
LINE
  8
2
  5
4DF
 10
-367.827589
 20
-180.749298
 30
0.0
 11
-364.453259
 21
-180.749298
 31
0.0
  0
LINE
  8
2
  5
4E0
 10
-359.371822
 20
-183.249298
 30
0.0
 11
-357.953259
 21
-183.249298
 31
0.0
  0
LINE
  8
2
  5
4E1
 10
-363.453259
 20
-183.249298
 30
0.0
 11
-360.078928
 21
-183.249298
 31
0.0
  0
LINE
  8
2
  5
4E2
 10
-369.953259
 20
-183.249298
 30
0.0
 11
-368.534696
 21
-183.249298
 31
0.0
  0
LINE
  8
2
  5
4E3
 10
-367.827589
 20
-183.249298
 30
0.0
 11
-364.453259
 21
-183.249298
 31
0.0
  0
ARC
  8
2
  5
4E4
 10
-369.753259
 20
-180.449298
 30
0.0
 40
0.2
 50
90.0
 51
180.0
  0
ARC
  8
2
  5
4E5
 10
-358.153259
 20
-180.449298
 30
0.0
 40
0.2
 50
0.0
 51
90.0
  0
ARC
  8
2
  5
4E6
 10
-359.953259
 20
-184.749298
 30
0.0
 40
2.5
 50
0.0
 51
36.869898
  0
ARC
  8
2
  5
4E7
 10
-367.953259
 20
-184.749298
 30
0.0
 40
2.5
 50
143.130102
 51
180.0
  0
LINE
  8
2
 62
     2
  5
4E8
 10
-357.472518
 20
-197.249298
 30
0.0
 11
-357.472518
 21
-184.749298
 31
0.0
  0
LINE
  8
2
 62
     2
  5
4E9
 10
-359.01713
 20
-197.249298
 30
0.0
 11
-359.01713
 21
-184.749298
 31
0.0
  0
LINE
  8
2
 62
     2
  5
4EA
 10
-359.724236
 20
-197.249298
 30
0.0
 11
-359.724236
 21
-184.749298
 31
0.0
  0
LINE
  8
2
 62
     2
  5
4EB
 10
-363.453259
 20
-197.249298
 30
0.0
 11
-363.453259
 21
-184.749298
 31
0.0
  0
LINE
  8
2
 62
     2
  5
4EC
 10
-364.453259
 20
-197.249298
 30
0.0
 11
-364.453259
 21
-184.749298
 31
0.0
  0
LINE
  8
2
 62
     2
  5
4ED
 10
-368.182281
 20
-197.249298
 30
0.0
 11
-368.182281
 21
-184.749298
 31
0.0
  0
LINE
  8
2
 62
     2
  5
4EE
 10
-368.889388
 20
-197.249298
 30
0.0
 11
-368.889388
 21
-184.749298
 31
0.0
  0
LINE
  8
2
 62
     2
  5
4EF
 10
-370.433999
 20
-197.249298
 30
0.0
 11
-370.433999
 21
-184.749298
 31
0.0
  0
LINE
  8
2
  5
4F0
 10
-358.203259
 20
-223.249298
 30
0.0
 11
-358.203259
 21
-197.249298
 31
0.0
  0
LINE
  8
2
  5
4F1
 10
-369.703259
 20
-223.249298
 30
0.0
 11
-369.703259
 21
-197.249298
 31
0.0
  0
LINE
  8
2
  5
4F2
 10
-353.753259
 20
-180.249298
 30
0.0
 11
-342.153259
 21
-180.249298
 31
0.0
  0
LINE
  8
2
  5
4F3
 10
-341.453259
 20
-197.249298
 30
0.0
 11
-354.453259
 21
-197.249298
 31
0.0
  0
LINE
  8
2
  5
4F4
 10
-341.453259
 20
-197.249298
 30
0.0
 11
-341.453259
 21
-184.749298
 31
0.0
  0
LINE
  8
2
  5
4F5
 10
-354.453259
 20
-197.249298
 30
0.0
 11
-354.453259
 21
-184.749298
 31
0.0
  0
LINE
  8
2
  5
4F6
 10
-344.078928
 20
-183.249298
 30
0.0
 11
-344.078928
 21
-180.749298
 31
0.0
  0
LINE
  8
2
  5
4F7
 10
-343.371822
 20
-183.249298
 30
0.0
 11
-343.371822
 21
-180.749298
 31
0.0
  0
LINE
  8
2
  5
4F8
 10
-341.974128
 20
-183.249298
 30
0.0
 11
-341.974128
 21
-180.749298
 31
0.0
  0
LINE
  8
2
  5
4F9
 10
-341.953259
 20
-183.249298
 30
0.0
 11
-341.953259
 21
-180.449298
 31
0.0
  0
LINE
  8
2
  5
4FA
 10
-347.453259
 20
-183.249298
 30
0.0
 11
-347.453259
 21
-180.749298
 31
0.0
  0
LINE
  8
2
  5
4FB
 10
-348.453259
 20
-183.249298
 30
0.0
 11
-348.453259
 21
-180.749298
 31
0.0
  0
LINE
  8
2
  5
4FC
 10
-351.827589
 20
-183.249298
 30
0.0
 11
-351.827589
 21
-180.749298
 31
0.0
  0
LINE
  8
2
  5
4FD
 10
-352.534696
 20
-183.249298
 30
0.0
 11
-352.534696
 21
-180.749298
 31
0.0
  0
LINE
  8
2
  5
4FE
 10
-353.953259
 20
-183.249298
 30
0.0
 11
-353.953259
 21
-180.449298
 31
0.0
  0
LINE
  8
2
  5
4FF
 10
-353.932389
 20
-183.249298
 30
0.0
 11
-353.932389
 21
-180.749298
 31
0.0
  0
LINE
  8
2
  5
500
 10
-343.371822
 20
-180.749298
 30
0.0
 11
-341.953259
 21
-180.749298
 31
0.0
  0
LINE
  8
2
  5
501
 10
-347.453259
 20
-180.749298
 30
0.0
 11
-344.078928
 21
-180.749298
 31
0.0
  0
LINE
  8
2
  5
502
 10
-353.953259
 20
-180.749298
 30
0.0
 11
-352.534696
 21
-180.749298
 31
0.0
  0
LINE
  8
2
  5
503
 10
-351.827589
 20
-180.749298
 30
0.0
 11
-348.453259
 21
-180.749298
 31
0.0
  0
LINE
  8
2
  5
504
 10
-343.371822
 20
-183.249298
 30
0.0
 11
-341.953259
 21
-183.249298
 31
0.0
  0
LINE
  8
2
  5
505
 10
-347.453259
 20
-183.249298
 30
0.0
 11
-344.078928
 21
-183.249298
 31
0.0
  0
LINE
  8
2
  5
506
 10
-353.953259
 20
-183.249298
 30
0.0
 11
-352.534696
 21
-183.249298
 31
0.0
  0
LINE
  8
2
  5
507
 10
-351.827589
 20
-183.249298
 30
0.0
 11
-348.453259
 21
-183.249298
 31
0.0
  0
ARC
  8
2
  5
508
 10
-353.753259
 20
-180.449298
 30
0.0
 40
0.2
 50
90.0
 51
180.0
  0
ARC
  8
2
  5
509
 10
-342.153259
 20
-180.449298
 30
0.0
 40
0.2
 50
0.0
 51
90.0
  0
ARC
  8
2
  5
50A
 10
-343.953259
 20
-184.749298
 30
0.0
 40
2.5
 50
0.0
 51
36.869898
  0
ARC
  8
2
  5
50B
 10
-351.953259
 20
-184.749298
 30
0.0
 40
2.5
 50
143.130102
 51
180.0
  0
LINE
  8
2
 62
     2
  5
50C
 10
-341.472518
 20
-197.249298
 30
0.0
 11
-341.472518
 21
-184.749298
 31
0.0
  0
LINE
  8
2
 62
     2
  5
50D
 10
-343.01713
 20
-197.249298
 30
0.0
 11
-343.01713
 21
-184.749298
 31
0.0
  0
LINE
  8
2
 62
     2
  5
50E
 10
-343.724236
 20
-197.249298
 30
0.0
 11
-343.724236
 21
-184.749298
 31
0.0
  0
LINE
  8
2
 62
     2
  5
50F
 10
-347.453259
 20
-197.249298
 30
0.0
 11
-347.453259
 21
-184.749298
 31
0.0
  0
LINE
  8
2
 62
     2
  5
510
 10
-348.453259
 20
-197.249298
 30
0.0
 11
-348.453259
 21
-184.749298
 31
0.0
  0
LINE
  8
2
 62
     2
  5
511
 10
-352.182281
 20
-197.249298
 30
0.0
 11
-352.182281
 21
-184.749298
 31
0.0
  0
LINE
  8
2
 62
     2
  5
512
 10
-352.889388
 20
-197.249298
 30
0.0
 11
-352.889388
 21
-184.749298
 31
0.0
  0
LINE
  8
2
 62
     2
  5
513
 10
-354.433999
 20
-197.249298
 30
0.0
 11
-354.433999
 21
-184.749298
 31
0.0
  0
LINE
  8
2
  5
514
 10
-342.203259
 20
-223.249298
 30
0.0
 11
-342.203259
 21
-197.249298
 31
0.0
  0
LINE
  8
2
  5
515
 10
-353.703259
 20
-223.249298
 30
0.0
 11
-353.703259
 21
-197.249298
 31
0.0
  0
ARC
  8
2
  5
516
 10
-345.078259
 20
-227.250146
 30
0.0
 40
4.791667
 50
53.130102
 51
126.869898
  0
ARC
  8
2
  5
517
 10
-350.828259
 20
-219.583479
 30
0.0
 40
4.791667
 50
233.130102
 51
306.869898
  0
ARC
  8
2
  5
518
 10
-345.078259
 20
-219.583479
 30
0.0
 40
4.791667
 50
233.130102
 51
306.869898
  0
ARC
  8
2
  5
519
 10
-361.078259
 20
-227.250146
 30
0.0
 40
4.791667
 50
53.130102
 51
126.869898
  0
ARC
  8
2
  5
51A
 10
-366.828259
 20
-219.583479
 30
0.0
 40
4.791667
 50
233.130102
 51
306.869898
  0
ARC
  8
2
  5
51B
 10
-361.078259
 20
-219.583479
 30
0.0
 40
4.791667
 50
233.130102
 51
306.869898
  0
LINE
  8
2
  5
51C
 10
-425.141101
 20
-270.304124
 30
0.0
 11
-412.141101
 21
-270.304124
 31
0.0
  0
LINE
  8
2
 62
     2
  5
51D
 10
-420.141101
 20
-270.304124
 30
0.0
 11
-425.141101
 21
-275.304124
 31
0.0
  0
LINE
  8
2
 62
     2
  5
51E
 10
-419.080441
 20
-270.304124
 30
0.0
 11
-425.141101
 21
-276.364784
 31
0.0
  0
LINE
  8
2
 62
     2
  5
51F
 10
-418.019781
 20
-270.304124
 30
0.0
 11
-425.141101
 21
-277.425444
 31
0.0
  0
LINE
  8
2
 62
     2
  5
520
 10
-416.959121
 20
-270.304124
 30
0.0
 11
-425.141101
 21
-278.486104
 31
0.0
  0
LINE
  8
2
 62
     2
  5
521
 10
-415.898461
 20
-270.304124
 30
0.0
 11
-425.141101
 21
-279.546764
 31
0.0
  0
LINE
  8
2
 62
     2
  5
522
 10
-414.8378
 20
-270.304124
 30
0.0
 11
-424.8378
 21
-280.304124
 31
0.0
  0
LINE
  8
2
 62
     2
  5
523
 10
-413.77714
 20
-270.304124
 30
0.0
 11
-423.77714
 21
-280.304124
 31
0.0
  0
LINE
  8
2
 62
     2
  5
524
 10
-412.71648
 20
-270.304124
 30
0.0
 11
-422.71648
 21
-280.304124
 31
0.0
  0
LINE
  8
2
 62
     2
  5
525
 10
-412.141101
 20
-270.789405
 30
0.0
 11
-421.65582
 21
-280.304124
 31
0.0
  0
LINE
  8
2
 62
     2
  5
526
 10
-412.141101
 20
-271.850065
 30
0.0
 11
-420.59516
 21
-280.304124
 31
0.0
  0
LINE
  8
2
 62
     2
  5
527
 10
-412.141101
 20
-272.910725
 30
0.0
 11
-419.5345
 21
-280.304124
 31
0.0
  0
LINE
  8
2
 62
     2
  5
528
 10
-412.141101
 20
-273.971386
 30
0.0
 11
-418.473839
 21
-280.304124
 31
0.0
  0
LINE
  8
2
 62
     2
  5
529
 10
-412.141101
 20
-275.032046
 30
0.0
 11
-417.413179
 21
-280.304124
 31
0.0
  0
LINE
  8
2
 62
     2
  5
52A
 10
-412.141101
 20
-276.092706
 30
0.0
 11
-416.352519
 21
-280.304124
 31
0.0
  0
LINE
  8
2
 62
     2
  5
52B
 10
-412.141101
 20
-277.153366
 30
0.0
 11
-415.291859
 21
-280.304124
 31
0.0
  0
LINE
  8
2
 62
     2
  5
52C
 10
-412.141101
 20
-278.214026
 30
0.0
 11
-414.231199
 21
-280.304124
 31
0.0
  0
LINE
  8
2
 62
     2
  5
52D
 10
-412.141101
 20
-279.274686
 30
0.0
 11
-413.170539
 21
-280.304124
 31
0.0
  0
LINE
  8
2
 62
     2
  5
52E
 10
-421.201762
 20
-270.304124
 30
0.0
 11
-425.141101
 21
-274.243464
 31
0.0
  0
LINE
  8
2
 62
     2
  5
52F
 10
-422.262422
 20
-270.304124
 30
0.0
 11
-425.141101
 21
-273.182803
 31
0.0
  0
LINE
  8
2
 62
     2
  5
530
 10
-423.323082
 20
-270.304124
 30
0.0
 11
-425.141101
 21
-272.122143
 31
0.0
  0
LINE
  8
2
 62
     2
  5
531
 10
-424.383742
 20
-270.304124
 30
0.0
 11
-425.141101
 21
-271.061483
 31
0.0
  0
LINE
  8
2
  5
532
 10
-425.141101
 20
-280.304124
 30
0.0
 11
-412.141101
 21
-280.304124
 31
0.0
  0
POINT
  8
2
  5
533
 10
-355.953258
 20
-123.849298
 30
0.0
  0
LINE
  8
2
  5
534
 10
-347.953258
 20
-158.849298
 30
0.0
 11
-342.203258
 21
-158.849298
 31
0.0
  0
LINE
  8
2
  5
535
 10
-341.703258
 20
-159.349298
 30
0.0
 11
-341.703258
 21
-173.849298
 31
0.0
  0
LINE
  8
2
  5
536
 10
-341.703258
 20
-159.349298
 30
0.0
 11
-342.203258
 21
-158.849298
 31
0.0
  0
LINE
  8
2
  5
537
 10
-343.632106
 20
-159.349298
 30
0.0
 11
-346.203258
 21
-159.349298
 31
0.0
  0
LINE
  8
2
  5
538
 10
-341.882106
 20
-159.349298
 30
0.0
 11
-341.882106
 21
-173.849298
 31
0.0
  0
LINE
  8
2
  5
539
 10
-343.632106
 20
-159.349298
 30
0.0
 11
-343.632106
 21
-173.849298
 31
0.0
  0
LINE
  8
2
  5
53A
 10
-346.203258
 20
-159.349298
 30
0.0
 11
-346.203258
 21
-173.849298
 31
0.0
  0
LINE
  8
2
  5
53B
 10
-341.703258
 20
-159.349298
 30
0.0
 11
-341.882106
 21
-159.349298
 31
0.0
  0
ARC
  8
2
  5
53C
 10
-347.953258
 20
-165.349298
 30
0.0
 40
6.25
 50
73.739795
 51
90.0
  0
ARC
  8
2
  5
53D
 10
-342.757106
 20
-160.755548
 30
0.0
 40
1.65625
 50
58.109208
 51
121.890792
  0
LINE
  8
2
  5
53E
 10
-347.953258
 20
-158.849298
 30
0.0
 11
-353.703258
 21
-158.849298
 31
0.0
  0
LINE
  8
2
  5
53F
 10
-354.203258
 20
-159.349298
 30
0.0
 11
-354.203258
 21
-173.849298
 31
0.0
  0
LINE
  8
2
  5
540
 10
-354.203258
 20
-159.349298
 30
0.0
 11
-353.703258
 21
-158.849298
 31
0.0
  0
LINE
  8
2
  5
541
 10
-352.274411
 20
-159.349298
 30
0.0
 11
-349.703258
 21
-159.349298
 31
0.0
  0
LINE
  8
2
  5
542
 10
-354.024411
 20
-159.349298
 30
0.0
 11
-354.024411
 21
-173.849298
 31
0.0
  0
LINE
  8
2
  5
543
 10
-352.274411
 20
-159.349298
 30
0.0
 11
-352.274411
 21
-173.849298
 31
0.0
  0
LINE
  8
2
  5
544
 10
-349.703258
 20
-159.349298
 30
0.0
 11
-349.703258
 21
-173.849298
 31
0.0
  0
LINE
  8
2
  5
545
 10
-354.203258
 20
-159.349298
 30
0.0
 11
-354.024411
 21
-159.349298
 31
0.0
  0
ARC
  8
2
  5
546
 10
-347.953258
 20
-165.349298
 30
0.0
 40
6.25
 50
90.0
 51
106.260205
  0
ARC
  8
2
  5
547
 10
-353.149411
 20
-160.755548
 30
0.0
 40
1.65625
 50
58.109208
 51
121.890792
  0
LINE
  8
2
  5
548
 10
-363.953258
 20
-158.849298
 30
0.0
 11
-358.203258
 21
-158.849298
 31
0.0
  0
LINE
  8
2
  5
549
 10
-357.703258
 20
-159.349298
 30
0.0
 11
-357.703258
 21
-173.849298
 31
0.0
  0
LINE
  8
2
  5
54A
 10
-357.703258
 20
-159.349298
 30
0.0
 11
-358.203258
 21
-158.849298
 31
0.0
  0
LINE
  8
2
  5
54B
 10
-359.632106
 20
-159.349298
 30
0.0
 11
-362.203258
 21
-159.349298
 31
0.0
  0
LINE
  8
2
  5
54C
 10
-357.882106
 20
-159.349298
 30
0.0
 11
-357.882106
 21
-173.849298
 31
0.0
  0
LINE
  8
2
  5
54D
 10
-359.632106
 20
-159.349298
 30
0.0
 11
-359.632106
 21
-173.849298
 31
0.0
  0
LINE
  8
2
  5
54E
 10
-362.203258
 20
-159.349298
 30
0.0
 11
-362.203258
 21
-173.849298
 31
0.0
  0
LINE
  8
2
  5
54F
 10
-357.703258
 20
-159.349298
 30
0.0
 11
-357.882106
 21
-159.349298
 31
0.0
  0
ARC
  8
2
  5
550
 10
-363.953258
 20
-165.349298
 30
0.0
 40
6.25
 50
73.739795
 51
90.0
  0
ARC
  8
2
  5
551
 10
-358.757106
 20
-160.755548
 30
0.0
 40
1.65625
 50
58.109208
 51
121.890792
  0
LINE
  8
2
  5
552
 10
-363.953258
 20
-158.849298
 30
0.0
 11
-369.703258
 21
-158.849298
 31
0.0
  0
LINE
  8
2
  5
553
 10
-370.203258
 20
-159.349298
 30
0.0
 11
-370.203258
 21
-173.849298
 31
0.0
  0
LINE
  8
2
  5
554
 10
-370.203258
 20
-159.349298
 30
0.0
 11
-369.703258
 21
-158.849298
 31
0.0
  0
LINE
  8
2
  5
555
 10
-368.274411
 20
-159.349298
 30
0.0
 11
-365.703258
 21
-159.349298
 31
0.0
  0
LINE
  8
2
  5
556
 10
-370.024411
 20
-159.349298
 30
0.0
 11
-370.024411
 21
-173.849298
 31
0.0
  0
LINE
  8
2
  5
557
 10
-368.274411
 20
-159.349298
 30
0.0
 11
-368.274411
 21
-173.849298
 31
0.0
  0
LINE
  8
2
  5
558
 10
-365.703258
 20
-159.349298
 30
0.0
 11
-365.703258
 21
-173.849298
 31
0.0
  0
LINE
  8
2
  5
559
 10
-370.203258
 20
-159.349298
 30
0.0
 11
-370.024411
 21
-159.349298
 31
0.0
  0
ARC
  8
2
  5
55A
 10
-363.953258
 20
-165.349298
 30
0.0
 40
6.25
 50
90.0
 51
106.260205
  0
ARC
  8
2
  5
55B
 10
-369.149411
 20
-160.755548
 30
0.0
 40
1.65625
 50
58.109208
 51
121.890792
  0
POINT
  8
2
  5
55C
 10
-355.953258
 20
-123.849298
 30
0.0
  0
LINE
  8
2
  5
55D
 10
-347.953258
 20
-174.349298
 30
0.0
 11
-342.203258
 21
-174.349298
 31
0.0
  0
LINE
  8
2
  5
55E
 10
-341.703258
 20
-173.849298
 30
0.0
 11
-342.203258
 21
-174.349298
 31
0.0
  0
LINE
  8
2
  5
55F
 10
-343.632106
 20
-173.849298
 30
0.0
 11
-346.203258
 21
-173.849298
 31
0.0
  0
LINE
  8
2
  5
560
 10
-341.703258
 20
-173.849298
 30
0.0
 11
-341.882106
 21
-173.849298
 31
0.0
  0
ARC
  8
2
  5
561
 10
-342.757106
 20
-172.443048
 30
0.0
 40
1.65625
 50
238.109208
 51
301.890792
  0
ARC
  8
2
  5
562
 10
-347.953258
 20
-167.849298
 30
0.0
 40
6.25
 50
270.0
 51
286.260205
  0
LINE
  8
2
  5
563
 10
-347.953258
 20
-174.349298
 30
0.0
 11
-353.703258
 21
-174.349298
 31
0.0
  0
LINE
  8
2
  5
564
 10
-354.203258
 20
-173.849298
 30
0.0
 11
-353.703258
 21
-174.349298
 31
0.0
  0
LINE
  8
2
  5
565
 10
-352.274411
 20
-173.849298
 30
0.0
 11
-349.703258
 21
-173.849298
 31
0.0
  0
LINE
  8
2
  5
566
 10
-354.203258
 20
-173.849298
 30
0.0
 11
-354.024411
 21
-173.849298
 31
0.0
  0
ARC
  8
2
  5
567
 10
-353.149411
 20
-172.443048
 30
0.0
 40
1.65625
 50
238.109208
 51
301.890792
  0
ARC
  8
2
  5
568
 10
-347.953258
 20
-167.849298
 30
0.0
 40
6.25
 50
253.739795
 51
270.0
  0
LINE
  8
2
  5
569
 10
-363.953258
 20
-174.349298
 30
0.0
 11
-358.203258
 21
-174.349298
 31
0.0
  0
LINE
  8
2
  5
56A
 10
-357.703258
 20
-173.849298
 30
0.0
 11
-358.203258
 21
-174.349298
 31
0.0
  0
LINE
  8
2
  5
56B
 10
-359.632106
 20
-173.849298
 30
0.0
 11
-362.203258
 21
-173.849298
 31
0.0
  0
LINE
  8
2
  5
56C
 10
-357.703258
 20
-173.849298
 30
0.0
 11
-357.882106
 21
-173.849298
 31
0.0
  0
ARC
  8
2
  5
56D
 10
-358.757106
 20
-172.443048
 30
0.0
 40
1.65625
 50
238.109208
 51
301.890792
  0
ARC
  8
2
  5
56E
 10
-363.953258
 20
-167.849298
 30
0.0
 40
6.25
 50
270.0
 51
286.260205
  0
LINE
  8
2
  5
56F
 10
-363.953258
 20
-174.349298
 30
0.0
 11
-369.703258
 21
-174.349298
 31
0.0
  0
LINE
  8
2
  5
570
 10
-370.203258
 20
-173.849298
 30
0.0
 11
-369.703258
 21
-174.349298
 31
0.0
  0
LINE
  8
2
  5
571
 10
-368.274411
 20
-173.849298
 30
0.0
 11
-365.703258
 21
-173.849298
 31
0.0
  0
LINE
  8
2
  5
572
 10
-370.203258
 20
-173.849298
 30
0.0
 11
-370.024411
 21
-173.849298
 31
0.0
  0
ARC
  8
2
  5
573
 10
-369.149411
 20
-172.443048
 30
0.0
 40
1.65625
 50
238.109208
 51
301.890792
  0
ARC
  8
2
  5
574
 10
-363.953258
 20
-167.849298
 30
0.0
 40
6.25
 50
253.739795
 51
270.0
  0
LINE
  8
2
  6
CENTER
 62
     2
  5
575
 10
-363.953259
 20
-216.846956
 30
0.0
 11
-363.953259
 21
-239.66636
 31
0.0
  0
LINE
  8
2
  5
576
 10
-369.953259
 20
-179.960623
 30
0.0
 11
-369.953259
 21
-174.637973
 31
0.0
  0
LINE
  8
2
  5
577
 10
-357.953259
 20
-179.960623
 30
0.0
 11
-357.953259
 21
-174.637973
 31
0.0
  0
LINE
  8
2
  5
578
 10
-361.555343
 20
-174.637973
 30
0.0
 11
-361.555343
 21
-179.960623
 31
0.0
  0
LINE
  8
2
  5
579
 10
-360.389077
 20
-174.637973
 30
0.0
 11
-360.389077
 21
-179.960623
 31
0.0
  0
LINE
  8
2
  5
57A
 10
-357.991161
 20
-174.637973
 30
0.0
 11
-357.991161
 21
-179.960623
 31
0.0
  0
LINE
  8
2
  5
57B
 10
-358.453259
 20
-174.349298
 30
0.0
 11
-368.716398
 21
-174.349298
 31
0.0
  0
LINE
  8
2
  5
57C
 10
-368.953259
 20
-174.349298
 30
0.0
 11
-369.453259
 21
-174.349298
 31
0.0
  0
LINE
  8
2
  5
57D
 10
-358.453259
 20
-180.249298
 30
0.0
 11
-357.953259
 21
-179.960623
 31
0.0
  0
LINE
  8
2
  5
57E
 10
-360.389077
 20
-179.960623
 30
0.0
 11
-361.555343
 21
-179.960623
 31
0.0
  0
LINE
  8
2
  5
57F
 10
-369.953259
 20
-179.960623
 30
0.0
 11
-369.453259
 21
-180.249298
 31
0.0
  0
LINE
  8
2
  5
580
 10
-369.953259
 20
-174.637973
 30
0.0
 11
-369.453259
 21
-174.349298
 31
0.0
  0
ARC
  8
2
  5
581
 10
-363.953259
 20
-170.145668
 30
0.0
 40
10.10363
 50
270.0
 51
283.729133
  0
ARC
  8
2
  5
582
 10
-363.953259
 20
-184.452927
 30
0.0
 40
10.10363
 50
76.270867
 51
90.0
  0
LINE
  8
2
  5
583
 10
-360.389077
 20
-174.637973
 30
0.0
 11
-361.555343
 21
-174.637973
 31
0.0
  0
LINE
  8
2
  5
584
 10
-357.953259
 20
-179.960623
 30
0.0
 11
-357.991161
 21
-179.960623
 31
0.0
  0
ARC
  8
2
  5
585
 10
-359.190119
 20
-177.615137
 30
0.0
 40
2.634161
 50
242.924933
 51
297.075067
  0
ARC
  8
2
  5
586
 10
-359.190119
 20
-176.983458
 30
0.0
 40
2.634161
 50
62.924933
 51
117.075067
  0
LINE
  8
2
  5
587
 10
-358.453259
 20
-174.349298
 30
0.0
 11
-357.953259
 21
-174.637973
 31
0.0
  0
LINE
  8
2
  5
588
 10
-357.953259
 20
-174.637973
 30
0.0
 11
-357.991161
 21
-174.637973
 31
0.0
  0
ARC
  8
2
  5
589
 10
-363.953259
 20
-170.145668
 30
0.0
 40
10.10363
 50
256.270867
 51
270.0
  0
LINE
  8
2
  5
58A
 10
-367.517441
 20
-179.960623
 30
0.0
 11
-366.351174
 21
-179.960623
 31
0.0
  0
LINE
  8
2
  5
58B
 10
-366.351174
 20
-174.637973
 30
0.0
 11
-366.351174
 21
-179.960623
 31
0.0
  0
LINE
  8
2
  5
58C
 10
-367.517441
 20
-174.637973
 30
0.0
 11
-367.517441
 21
-179.960623
 31
0.0
  0
ARC
  8
2
  5
58D
 10
-368.716398
 20
-177.615137
 30
0.0
 40
2.634161
 50
242.924933
 51
297.075067
  0
LINE
  8
2
  5
58E
 10
-369.915356
 20
-174.637973
 30
0.0
 11
-369.915356
 21
-179.960623
 31
0.0
  0
LINE
  8
2
  5
58F
 10
-369.915356
 20
-179.960623
 30
0.0
 11
-369.953259
 21
-179.960623
 31
0.0
  0
ARC
  8
2
  5
590
 10
-363.953259
 20
-184.452927
 30
0.0
 40
10.10363
 50
90.0
 51
103.729133
  0
LINE
  8
2
  5
591
 10
-367.517441
 20
-174.637973
 30
0.0
 11
-366.351174
 21
-174.637973
 31
0.0
  0
ARC
  8
2
  5
592
 10
-368.716398
 20
-176.983458
 30
0.0
 40
2.634161
 50
62.924933
 51
117.075067
  0
LINE
  8
2
  5
593
 10
-353.953259
 20
-179.960623
 30
0.0
 11
-353.953259
 21
-174.637973
 31
0.0
  0
LINE
  8
2
  5
594
 10
-341.953259
 20
-179.960623
 30
0.0
 11
-341.953259
 21
-174.637973
 31
0.0
  0
LINE
  8
2
  5
595
 10
-345.555343
 20
-174.637973
 30
0.0
 11
-345.555343
 21
-179.960623
 31
0.0
  0
LINE
  8
2
  5
596
 10
-344.389077
 20
-174.637973
 30
0.0
 11
-344.389077
 21
-179.960623
 31
0.0
  0
LINE
  8
2
  5
597
 10
-341.991161
 20
-174.637973
 30
0.0
 11
-341.991161
 21
-179.960623
 31
0.0
  0
LINE
  8
2
  5
598
 10
-342.453259
 20
-174.349298
 30
0.0
 11
-353.453259
 21
-174.349298
 31
0.0
  0
LINE
  8
2
  5
599
 10
-342.453259
 20
-180.249298
 30
0.0
 11
-341.953259
 21
-179.960623
 31
0.0
  0
LINE
  8
2
  5
59A
 10
-344.389077
 20
-179.960623
 30
0.0
 11
-345.555343
 21
-179.960623
 31
0.0
  0
LINE
  8
2
  5
59B
 10
-353.953259
 20
-179.960623
 30
0.0
 11
-353.453259
 21
-180.249298
 31
0.0
  0
LINE
  8
2
  5
59C
 10
-353.953259
 20
-174.637973
 30
0.0
 11
-353.453259
 21
-174.349298
 31
0.0
  0
ARC
  8
2
  5
59D
 10
-347.953259
 20
-170.145668
 30
0.0
 40
10.10363
 50
270.0
 51
283.729133
  0
ARC
  8
2
  5
59E
 10
-347.953259
 20
-184.452927
 30
0.0
 40
10.10363
 50
76.270867
 51
90.0
  0
LINE
  8
2
  5
59F
 10
-344.389077
 20
-174.637973
 30
0.0
 11
-345.555343
 21
-174.637973
 31
0.0
  0
LINE
  8
2
  5
5A0
 10
-341.953259
 20
-179.960623
 30
0.0
 11
-341.991161
 21
-179.960623
 31
0.0
  0
ARC
  8
2
  5
5A1
 10
-343.190119
 20
-177.615137
 30
0.0
 40
2.634161
 50
242.924933
 51
297.075067
  0
ARC
  8
2
  5
5A2
 10
-343.190119
 20
-176.983458
 30
0.0
 40
2.634161
 50
62.924933
 51
117.075067
  0
LINE
  8
2
  5
5A3
 10
-342.453259
 20
-174.349298
 30
0.0
 11
-341.953259
 21
-174.637973
 31
0.0
  0
LINE
  8
2
  5
5A4
 10
-341.953259
 20
-174.637973
 30
0.0
 11
-341.991161
 21
-174.637973
 31
0.0
  0
ARC
  8
2
  5
5A5
 10
-347.953259
 20
-170.145668
 30
0.0
 40
10.10363
 50
256.270867
 51
270.0
  0
LINE
  8
2
  5
5A6
 10
-351.517441
 20
-179.960623
 30
0.0
 11
-350.351174
 21
-179.960623
 31
0.0
  0
LINE
  8
2
  5
5A7
 10
-350.351174
 20
-174.637973
 30
0.0
 11
-350.351174
 21
-179.960623
 31
0.0
  0
LINE
  8
2
  5
5A8
 10
-351.517441
 20
-174.637973
 30
0.0
 11
-351.517441
 21
-179.960623
 31
0.0
  0
ARC
  8
2
  5
5A9
 10
-352.716398
 20
-177.615137
 30
0.0
 40
2.634161
 50
242.924933
 51
297.075067
  0
LINE
  8
2
  5
5AA
 10
-353.915356
 20
-174.637973
 30
0.0
 11
-353.915356
 21
-179.960623
 31
0.0
  0
LINE
  8
2
  5
5AB
 10
-353.915356
 20
-179.960623
 30
0.0
 11
-353.953259
 21
-179.960623
 31
0.0
  0
LINE
  8
2
  6
CENTER
 62
     2
  5
5AC
 10
-347.953259
 20
-216.610452
 30
0.0
 11
-347.953259
 21
-239.66636
 31
0.0
  0
ARC
  8
2
  5
5AD
 10
-347.953259
 20
-184.452927
 30
0.0
 40
10.10363
 50
90.0
 51
103.729133
  0
LINE
  8
2
  5
5AE
 10
-351.517441
 20
-174.637973
 30
0.0
 11
-350.351174
 21
-174.637973
 31
0.0
  0
ARC
  8
2
  5
5AF
 10
-352.716398
 20
-176.983458
 30
0.0
 40
2.634161
 50
62.924933
 51
117.075067
  0
LINE
  8
2
  5
5B0
 10
-369.753259
 20
-180.249298
 30
0.0
 11
-358.153259
 21
-180.249298
 31
0.0
  0
LINE
  8
2
  5
5B1
 10
-357.453259
 20
-197.249298
 30
0.0
 11
-370.453259
 21
-197.249298
 31
0.0
  0
LINE
  8
2
  5
5B2
 10
-357.453259
 20
-197.249298
 30
0.0
 11
-357.453259
 21
-184.749298
 31
0.0
  0
LINE
  8
2
  5
5B3
 10
-370.453259
 20
-197.249298
 30
0.0
 11
-370.453259
 21
-184.749298
 31
0.0
  0
LINE
  8
2
  5
5B4
 10
-360.078928
 20
-183.249298
 30
0.0
 11
-360.078928
 21
-180.749298
 31
0.0
  0
LINE
  8
2
  5
5B5
 10
-359.371822
 20
-183.249298
 30
0.0
 11
-359.371822
 21
-180.749298
 31
0.0
  0
LINE
  8
2
  5
5B6
 10
-357.974128
 20
-183.249298
 30
0.0
 11
-357.974128
 21
-180.749298
 31
0.0
  0
LINE
  8
2
  5
5B7
 10
-357.953259
 20
-183.249298
 30
0.0
 11
-357.953259
 21
-180.449298
 31
0.0
  0
LINE
  8
2
  5
5B8
 10
-363.453259
 20
-183.249298
 30
0.0
 11
-363.453259
 21
-180.749298
 31
0.0
  0
LINE
  8
2
  5
5B9
 10
-364.453259
 20
-183.249298
 30
0.0
 11
-364.453259
 21
-180.749298
 31
0.0
  0
LINE
  8
2
  5
5BA
 10
-367.827589
 20
-183.249298
 30
0.0
 11
-367.827589
 21
-180.749298
 31
0.0
  0
LINE
  8
2
  5
5BB
 10
-368.534696
 20
-183.249298
 30
0.0
 11
-368.534696
 21
-180.749298
 31
0.0
  0
LINE
  8
2
  5
5BC
 10
-369.953259
 20
-183.249298
 30
0.0
 11
-369.953259
 21
-180.449298
 31
0.0
  0
LINE
  8
2
  5
5BD
 10
-369.932389
 20
-183.249298
 30
0.0
 11
-369.932389
 21
-180.749298
 31
0.0
  0
LINE
  8
2
  5
5BE
 10
-359.371822
 20
-180.749298
 30
0.0
 11
-357.953259
 21
-180.749298
 31
0.0
  0
LINE
  8
2
  5
5BF
 10
-363.453259
 20
-180.749298
 30
0.0
 11
-360.078928
 21
-180.749298
 31
0.0
  0
LINE
  8
2
  5
5C0
 10
-369.953259
 20
-180.749298
 30
0.0
 11
-368.534696
 21
-180.749298
 31
0.0
  0
LINE
  8
2
  5
5C1
 10
-367.827589
 20
-180.749298
 30
0.0
 11
-364.453259
 21
-180.749298
 31
0.0
  0
LINE
  8
2
  5
5C2
 10
-359.371822
 20
-183.249298
 30
0.0
 11
-357.953259
 21
-183.249298
 31
0.0
  0
LINE
  8
2
  5
5C3
 10
-363.453259
 20
-183.249298
 30
0.0
 11
-360.078928
 21
-183.249298
 31
0.0
  0
LINE
  8
2
  5
5C4
 10
-369.953259
 20
-183.249298
 30
0.0
 11
-368.534696
 21
-183.249298
 31
0.0
  0
LINE
  8
2
  5
5C5
 10
-367.827589
 20
-183.249298
 30
0.0
 11
-364.453259
 21
-183.249298
 31
0.0
  0
ARC
  8
2
  5
5C6
 10
-369.753259
 20
-180.449298
 30
0.0
 40
0.2
 50
90.0
 51
180.0
  0
ARC
  8
2
  5
5C7
 10
-358.153259
 20
-180.449298
 30
0.0
 40
0.2
 50
0.0
 51
90.0
  0
ARC
  8
2
  5
5C8
 10
-359.953259
 20
-184.749298
 30
0.0
 40
2.5
 50
0.0
 51
36.869898
  0
ARC
  8
2
  5
5C9
 10
-367.953259
 20
-184.749298
 30
0.0
 40
2.5
 50
143.130102
 51
180.0
  0
LINE
  8
2
 62
     2
  5
5CA
 10
-357.472518
 20
-197.249298
 30
0.0
 11
-357.472518
 21
-184.749298
 31
0.0
  0
LINE
  8
2
 62
     2
  5
5CB
 10
-359.01713
 20
-197.249298
 30
0.0
 11
-359.01713
 21
-184.749298
 31
0.0
  0
LINE
  8
2
 62
     2
  5
5CC
 10
-359.724236
 20
-197.249298
 30
0.0
 11
-359.724236
 21
-184.749298
 31
0.0
  0
LINE
  8
2
 62
     2
  5
5CD
 10
-363.453259
 20
-197.249298
 30
0.0
 11
-363.453259
 21
-184.749298
 31
0.0
  0
LINE
  8
2
 62
     2
  5
5CE
 10
-364.453259
 20
-197.249298
 30
0.0
 11
-364.453259
 21
-184.749298
 31
0.0
  0
LINE
  8
2
 62
     2
  5
5CF
 10
-368.182281
 20
-197.249298
 30
0.0
 11
-368.182281
 21
-184.749298
 31
0.0
  0
LINE
  8
2
 62
     2
  5
5D0
 10
-368.889388
 20
-197.249298
 30
0.0
 11
-368.889388
 21
-184.749298
 31
0.0
  0
LINE
  8
2
 62
     2
  5
5D1
 10
-370.433999
 20
-197.249298
 30
0.0
 11
-370.433999
 21
-184.749298
 31
0.0
  0
LINE
  8
2
  5
5D2
 10
-358.203259
 20
-223.249298
 30
0.0
 11
-358.203259
 21
-197.249298
 31
0.0
  0
LINE
  8
2
  5
5D3
 10
-369.703259
 20
-223.249298
 30
0.0
 11
-369.703259
 21
-197.249298
 31
0.0
  0
LINE
  8
2
  5
5D4
 10
-353.753259
 20
-180.249298
 30
0.0
 11
-342.153259
 21
-180.249298
 31
0.0
  0
LINE
  8
2
  5
5D5
 10
-341.453259
 20
-197.249298
 30
0.0
 11
-354.453259
 21
-197.249298
 31
0.0
  0
LINE
  8
2
  5
5D6
 10
-341.453259
 20
-197.249298
 30
0.0
 11
-341.453259
 21
-184.749298
 31
0.0
  0
LINE
  8
2
  5
5D7
 10
-354.453259
 20
-197.249298
 30
0.0
 11
-354.453259
 21
-184.749298
 31
0.0
  0
LINE
  8
2
  5
5D8
 10
-344.078928
 20
-183.249298
 30
0.0
 11
-344.078928
 21
-180.749298
 31
0.0
  0
LINE
  8
2
  5
5D9
 10
-343.371822
 20
-183.249298
 30
0.0
 11
-343.371822
 21
-180.749298
 31
0.0
  0
LINE
  8
2
  5
5DA
 10
-341.974128
 20
-183.249298
 30
0.0
 11
-341.974128
 21
-180.749298
 31
0.0
  0
LINE
  8
2
  5
5DB
 10
-341.953259
 20
-183.249298
 30
0.0
 11
-341.953259
 21
-180.449298
 31
0.0
  0
LINE
  8
2
  5
5DC
 10
-347.453259
 20
-183.249298
 30
0.0
 11
-347.453259
 21
-180.749298
 31
0.0
  0
LINE
  8
2
  5
5DD
 10
-348.453259
 20
-183.249298
 30
0.0
 11
-348.453259
 21
-180.749298
 31
0.0
  0
LINE
  8
2
  5
5DE
 10
-351.827589
 20
-183.249298
 30
0.0
 11
-351.827589
 21
-180.749298
 31
0.0
  0
LINE
  8
2
  5
5DF
 10
-352.534696
 20
-183.249298
 30
0.0
 11
-352.534696
 21
-180.749298
 31
0.0
  0
LINE
  8
2
  5
5E0
 10
-353.953259
 20
-183.249298
 30
0.0
 11
-353.953259
 21
-180.449298
 31
0.0
  0
LINE
  8
2
  5
5E1
 10
-353.932389
 20
-183.249298
 30
0.0
 11
-353.932389
 21
-180.749298
 31
0.0
  0
LINE
  8
2
  5
5E2
 10
-343.371822
 20
-180.749298
 30
0.0
 11
-341.953259
 21
-180.749298
 31
0.0
  0
LINE
  8
2
  5
5E3
 10
-347.453259
 20
-180.749298
 30
0.0
 11
-344.078928
 21
-180.749298
 31
0.0
  0
LINE
  8
2
  5
5E4
 10
-353.953259
 20
-180.749298
 30
0.0
 11
-352.534696
 21
-180.749298
 31
0.0
  0
LINE
  8
2
  5
5E5
 10
-351.827589
 20
-180.749298
 30
0.0
 11
-348.453259
 21
-180.749298
 31
0.0
  0
LINE
  8
2
  5
5E6
 10
-343.371822
 20
-183.249298
 30
0.0
 11
-341.953259
 21
-183.249298
 31
0.0
  0
LINE
  8
2
  5
5E7
 10
-347.453259
 20
-183.249298
 30
0.0
 11
-344.078928
 21
-183.249298
 31
0.0
  0
LINE
  8
2
  5
5E8
 10
-353.953259
 20
-183.249298
 30
0.0
 11
-352.534696
 21
-183.249298
 31
0.0
  0
LINE
  8
2
  5
5E9
 10
-351.827589
 20
-183.249298
 30
0.0
 11
-348.453259
 21
-183.249298
 31
0.0
  0
ARC
  8
2
  5
5EA
 10
-353.753259
 20
-180.449298
 30
0.0
 40
0.2
 50
90.0
 51
180.0
  0
ARC
  8
2
  5
5EB
 10
-342.153259
 20
-180.449298
 30
0.0
 40
0.2
 50
0.0
 51
90.0
  0
ARC
  8
2
  5
5EC
 10
-343.953259
 20
-184.749298
 30
0.0
 40
2.5
 50
0.0
 51
36.869898
  0
ARC
  8
2
  5
5ED
 10
-351.953259
 20
-184.749298
 30
0.0
 40
2.5
 50
143.130102
 51
180.0
  0
LINE
  8
2
 62
     2
  5
5EE
 10
-341.472518
 20
-197.249298
 30
0.0
 11
-341.472518
 21
-184.749298
 31
0.0
  0
LINE
  8
2
 62
     2
  5
5EF
 10
-343.01713
 20
-197.249298
 30
0.0
 11
-343.01713
 21
-184.749298
 31
0.0
  0
LINE
  8
2
 62
     2
  5
5F0
 10
-343.724236
 20
-197.249298
 30
0.0
 11
-343.724236
 21
-184.749298
 31
0.0
  0
LINE
  8
2
 62
     2
  5
5F1
 10
-347.453259
 20
-197.249298
 30
0.0
 11
-347.453259
 21
-184.749298
 31
0.0
  0
LINE
  8
2
 62
     2
  5
5F2
 10
-348.453259
 20
-197.249298
 30
0.0
 11
-348.453259
 21
-184.749298
 31
0.0
  0
LINE
  8
2
 62
     2
  5
5F3
 10
-352.182281
 20
-197.249298
 30
0.0
 11
-352.182281
 21
-184.749298
 31
0.0
  0
LINE
  8
2
 62
     2
  5
5F4
 10
-352.889388
 20
-197.249298
 30
0.0
 11
-352.889388
 21
-184.749298
 31
0.0
  0
LINE
  8
2
 62
     2
  5
5F5
 10
-354.433999
 20
-197.249298
 30
0.0
 11
-354.433999
 21
-184.749298
 31
0.0
  0
LINE
  8
2
  5
5F6
 10
-342.203259
 20
-223.249298
 30
0.0
 11
-342.203259
 21
-197.249298
 31
0.0
  0
LINE
  8
2
  5
5F7
 10
-353.703259
 20
-223.249298
 30
0.0
 11
-353.703259
 21
-197.249298
 31
0.0
  0
ARC
  8
2
  5
5F8
 10
-345.078259
 20
-227.250146
 30
0.0
 40
4.791667
 50
53.130102
 51
126.869898
  0
ARC
  8
2
  5
5F9
 10
-350.828259
 20
-219.583479
 30
0.0
 40
4.791667
 50
233.130102
 51
306.869898
  0
ARC
  8
2
  5
5FA
 10
-345.078259
 20
-219.583479
 30
0.0
 40
4.791667
 50
233.130102
 51
306.869898
  0
ARC
  8
2
  5
5FB
 10
-361.078259
 20
-227.250146
 30
0.0
 40
4.791667
 50
53.130102
 51
126.869898
  0
ARC
  8
2
  5
5FC
 10
-366.828259
 20
-219.583479
 30
0.0
 40
4.791667
 50
233.130102
 51
306.869898
  0
ARC
  8
2
  5
5FD
 10
-361.078259
 20
-219.583479
 30
0.0
 40
4.791667
 50
233.130102
 51
306.869898
  0
LINE
  8
2
  5
5FE
 10
-412.141101
 20
-269.054124
 30
0.0
 11
-425.141101
 21
-269.054124
 31
0.0
  0
LINE
  8
2
  5
5FF
 10
-414.059664
 20
-283.054124
 30
0.0
 11
-412.641101
 21
-283.054124
 31
0.0
  0
LINE
  8
2
  5
600
 10
-414.059664
 20
-285.554124
 30
0.0
 11
-412.641101
 21
-285.554124
 31
0.0
  0
ARC
  8
2
  5
601
 10
-412.841101
 20
-285.854124
 30
0.0
 40
0.2
 50
270.0
 51
360.0
  0
LINE
  8
2
  5
602
 10
-418.141101
 20
-285.554124
 30
0.0
 11
-414.766771
 21
-285.554124
 31
0.0
  0
LINE
  8
2
  5
603
 10
-418.141101
 20
-283.054124
 30
0.0
 11
-414.766771
 21
-283.054124
 31
0.0
  0
LINE
  8
2
  5
604
 10
-422.515432
 20
-285.554124
 30
0.0
 11
-419.141101
 21
-285.554124
 31
0.0
  0
LINE
  8
2
  5
605
 10
-422.515432
 20
-283.054124
 30
0.0
 11
-419.141101
 21
-283.054124
 31
0.0
  0
LINE
  8
2
  5
606
 10
-419.141101
 20
-283.054124
 30
0.0
 11
-419.141101
 21
-285.554124
 31
0.0
  0
LINE
  8
2
  5
607
 10
-418.141101
 20
-283.054124
 30
0.0
 11
-418.141101
 21
-285.554124
 31
0.0
  0
LINE
  8
2
  5
608
 10
-414.059664
 20
-283.054124
 30
0.0
 11
-414.059664
 21
-285.554124
 31
0.0
  0
LINE
  8
2
  5
609
 10
-414.766771
 20
-283.054124
 30
0.0
 11
-414.766771
 21
-285.554124
 31
0.0
  0
LINE
  8
2
  5
60A
 10
-412.641101
 20
-283.054124
 30
0.0
 11
-412.641101
 21
-285.854124
 31
0.0
  0
LINE
  8
2
  5
60B
 10
-412.661971
 20
-283.054124
 30
0.0
 11
-412.661971
 21
-285.554124
 31
0.0
  0
ARC
  8
2
  5
60C
 10
-414.641101
 20
-281.554124
 30
0.0
 40
2.5
 50
323.130102
 51
360.0
  0
LINE
  8
2
  5
60D
 10
-412.141101
 20
-269.054124
 30
0.0
 11
-412.141101
 21
-281.554124
 31
0.0
  0
LINE
  8
2
  5
60E
 10
-425.641101
 20
-286.054124
 30
0.0
 11
-411.641101
 21
-286.054124
 31
0.0
  0
LINE
  8
2
  5
60F
 10
-412.891101
 20
-269.054124
 30
0.0
 11
-412.891101
 21
-233.562265
 31
0.0
  0
LINE
  8
2
  5
610
 10
-412.641101
 20
-285.854124
 30
0.0
 11
-405.141101
 21
-285.854124
 31
0.0
  0
LINE
  8
2
  5
611
 10
-409.841101
 20
-291.354124
 30
0.0
 11
-409.841101
 21
-286.854124
 31
0.0
  0
ARC
  8
2
  5
612
 10
-410.841101
 20
-286.854124
 30
0.0
 40
1.0
 50
0.0
 51
90.0
  0
LINE
  8
2
  5
613
 10
-411.141101
 20
-286.554124
 30
0.0
 11
-411.141101
 21
-287.853502
 31
0.0
  0
ARC
  8
2
  5
614
 10
-410.841101
 20
-286.854124
 30
0.0
 40
1.0
 50
0.0
 51
90.0
  0
LINE
  8
2
  5
615
 10
-411.141101
 20
-286.554124
 30
0.0
 11
-411.641101
 21
-286.054124
 31
0.0
  0
LINE
  8
2
 62
     2
  5
616
 10
-422.706965
 20
-260.370558
 30
0.0
 11
-414.575237
 21
-252.23883
 31
0.0
  0
LINE
  8
2
 62
     2
  5
617
 10
-422.706965
 20
-252.23883
 30
0.0
 11
-414.575237
 21
-260.370558
 31
0.0
  0
LINE
  8
2
 62
     2
  5
618
 10
-421.937899
 20
-261.015706
 30
0.0
 11
-413.93009
 21
-253.007897
 31
0.0
  0
LINE
  8
2
 62
     2
  5
619
 10
-421.038875
 20
-261.530896
 30
0.0
 11
-413.4149
 21
-253.90692
 31
0.0
  0
LINE
  8
2
 62
     2
  5
61A
 10
-419.98839
 20
-261.894624
 30
0.0
 11
-413.051172
 21
-254.957406
 31
0.0
  0
LINE
  8
2
 62
     2
  5
61B
 10
-418.733505
 20
-262.053952
 30
0.0
 11
-412.891844
 21
-256.212291
 31
0.0
  0
LINE
  8
2
 62
     2
  5
61C
 10
-417.113365
 20
-261.848026
 30
0.0
 11
-413.09777
 21
-257.832431
 31
0.0
  0
LINE
  8
2
 62
     2
  5
61D
 10
-423.352112
 20
-259.601492
 30
0.0
 11
-415.344304
 21
-251.593683
 31
0.0
  0
LINE
  8
2
 62
     2
  5
61E
 10
-423.867303
 20
-258.702469
 30
0.0
 11
-416.243327
 21
-251.078493
 31
0.0
  0
LINE
  8
2
 62
     2
  5
61F
 10
-424.231031
 20
-257.651983
 30
0.0
 11
-417.293812
 21
-250.714765
 31
0.0
  0
LINE
  8
2
 62
     2
  5
620
 10
-424.390359
 20
-256.397098
 30
0.0
 11
-418.548698
 21
-250.555437
 31
0.0
  0
LINE
  8
2
 62
     2
  5
621
 10
-421.937899
 20
-251.593683
 30
0.0
 11
-413.93009
 21
-259.601492
 31
0.0
  0
LINE
  8
2
 62
     2
  5
622
 10
-421.038875
 20
-251.078493
 30
0.0
 11
-413.4149
 21
-258.702469
 31
0.0
  0
LINE
  8
2
 62
     2
  5
623
 10
-419.98839
 20
-250.714765
 30
0.0
 11
-413.051172
 21
-257.651983
 31
0.0
  0
LINE
  8
2
 62
     2
  5
624
 10
-418.733505
 20
-250.555437
 30
0.0
 11
-412.891844
 21
-256.397098
 31
0.0
  0
LINE
  8
2
 62
     2
  5
625
 10
-417.113365
 20
-250.761363
 30
0.0
 11
-413.09777
 21
-254.776958
 31
0.0
  0
LINE
  8
2
 62
     2
  5
626
 10
-423.352112
 20
-253.007897
 30
0.0
 11
-415.344304
 21
-261.015706
 31
0.0
  0
LINE
  8
2
 62
     2
  5
627
 10
-423.867303
 20
-253.90692
 30
0.0
 11
-416.243327
 21
-261.530896
 31
0.0
  0
LINE
  8
2
 62
     2
  5
628
 10
-424.231031
 20
-254.957406
 30
0.0
 11
-417.293812
 21
-261.894624
 31
0.0
  0
LINE
  8
2
 62
     2
  5
629
 10
-424.390359
 20
-256.212291
 30
0.0
 11
-418.548698
 21
-262.053952
 31
0.0
  0
LINE
  8
2
  5
62A
 10
-404.141101
 20
-286.854124
 30
0.0
 11
-404.141101
 21
-298.854124
 31
0.0
  0
ARC
  8
2
  5
62B
 10
-405.141101
 20
-286.854124
 30
0.0
 40
1.0
 50
0.0
 51
90.0
  0
ARC
  8
2
  5
62C
 10
-421.516101
 20
-229.709477
 30
0.0
 40
4.791667
 50
233.130102
 51
306.869898
  0
ARC
  8
2
  5
62D
 10
-415.766101
 20
-237.376144
 30
0.0
 40
4.791667
 50
53.130102
 51
126.869898
  0
ARC
  8
2
  5
62E
 10
-421.516101
 20
-237.376144
 30
0.0
 40
4.791667
 50
53.130102
 51
126.869898
  0
LINE
  8
2
 62
     2
  5
62F
 10
-413.704972
 20
-281.554124
 30
0.0
 11
-413.704972
 21
-280.304124
 31
0.0
  0
LINE
  8
2
 62
     2
  5
630
 10
-413.704972
 20
-270.304124
 30
0.0
 11
-413.704972
 21
-269.054124
 31
0.0
  0
LINE
  8
2
 62
     2
  5
631
 10
-414.412079
 20
-281.554124
 30
0.0
 11
-414.412079
 21
-280.304124
 31
0.0
  0
LINE
  8
2
 62
     2
  5
632
 10
-414.412079
 20
-270.304124
 30
0.0
 11
-414.412079
 21
-269.054124
 31
0.0
  0
LINE
  8
2
 62
     2
  5
633
 10
-418.141101
 20
-281.554124
 30
0.0
 11
-418.141101
 21
-280.304124
 31
0.0
  0
LINE
  8
2
 62
     2
  5
634
 10
-418.141101
 20
-270.304124
 30
0.0
 11
-418.141101
 21
-269.054124
 31
0.0
  0
LINE
  8
2
 62
     2
  5
635
 10
-419.141101
 20
-281.554124
 30
0.0
 11
-419.141101
 21
-280.304124
 31
0.0
  0
LINE
  8
2
 62
     2
  5
636
 10
-419.141101
 20
-270.304124
 30
0.0
 11
-419.141101
 21
-269.054124
 31
0.0
  0
POINT
  8
2
  5
637
 10
-412.891101
 20
-233.562265
 30
0.0
  0
LINE
  8
2
  5
638
 10
-425.141101
 20
-270.304124
 30
0.0
 11
-412.141101
 21
-270.304124
 31
0.0
  0
LINE
  8
2
 62
     2
  5
639
 10
-420.141101
 20
-270.304124
 30
0.0
 11
-425.141101
 21
-275.304124
 31
0.0
  0
LINE
  8
2
 62
     2
  5
63A
 10
-419.080441
 20
-270.304124
 30
0.0
 11
-425.141101
 21
-276.364784
 31
0.0
  0
LINE
  8
2
 62
     2
  5
63B
 10
-418.019781
 20
-270.304124
 30
0.0
 11
-425.141101
 21
-277.425444
 31
0.0
  0
LINE
  8
2
 62
     2
  5
63C
 10
-416.959121
 20
-270.304124
 30
0.0
 11
-425.141101
 21
-278.486104
 31
0.0
  0
LINE
  8
2
 62
     2
  5
63D
 10
-415.898461
 20
-270.304124
 30
0.0
 11
-425.141101
 21
-279.546764
 31
0.0
  0
LINE
  8
2
 62
     2
  5
63E
 10
-414.8378
 20
-270.304124
 30
0.0
 11
-424.8378
 21
-280.304124
 31
0.0
  0
LINE
  8
2
 62
     2
  5
63F
 10
-413.77714
 20
-270.304124
 30
0.0
 11
-423.77714
 21
-280.304124
 31
0.0
  0
LINE
  8
2
 62
     2
  5
640
 10
-412.71648
 20
-270.304124
 30
0.0
 11
-422.71648
 21
-280.304124
 31
0.0
  0
LINE
  8
2
 62
     2
  5
641
 10
-412.141101
 20
-270.789405
 30
0.0
 11
-421.65582
 21
-280.304124
 31
0.0
  0
LINE
  8
2
 62
     2
  5
642
 10
-412.141101
 20
-271.850065
 30
0.0
 11
-420.59516
 21
-280.304124
 31
0.0
  0
LINE
  8
2
 62
     2
  5
643
 10
-412.141101
 20
-272.910725
 30
0.0
 11
-419.5345
 21
-280.304124
 31
0.0
  0
LINE
  8
2
 62
     2
  5
644
 10
-412.141101
 20
-273.971386
 30
0.0
 11
-418.473839
 21
-280.304124
 31
0.0
  0
LINE
  8
2
 62
     2
  5
645
 10
-412.141101
 20
-275.032046
 30
0.0
 11
-417.413179
 21
-280.304124
 31
0.0
  0
LINE
  8
2
 62
     2
  5
646
 10
-412.141101
 20
-276.092706
 30
0.0
 11
-416.352519
 21
-280.304124
 31
0.0
  0
LINE
  8
2
 62
     2
  5
647
 10
-412.141101
 20
-277.153366
 30
0.0
 11
-415.291859
 21
-280.304124
 31
0.0
  0
LINE
  8
2
 62
     2
  5
648
 10
-412.141101
 20
-278.214026
 30
0.0
 11
-414.231199
 21
-280.304124
 31
0.0
  0
LINE
  8
2
 62
     2
  5
649
 10
-412.141101
 20
-279.274686
 30
0.0
 11
-413.170539
 21
-280.304124
 31
0.0
  0
LINE
  8
2
 62
     2
  5
64A
 10
-421.201762
 20
-270.304124
 30
0.0
 11
-425.141101
 21
-274.243464
 31
0.0
  0
LINE
  8
2
 62
     2
  5
64B
 10
-422.262422
 20
-270.304124
 30
0.0
 11
-425.141101
 21
-273.182803
 31
0.0
  0
LINE
  8
2
 62
     2
  5
64C
 10
-423.323082
 20
-270.304124
 30
0.0
 11
-425.141101
 21
-272.122143
 31
0.0
  0
LINE
  8
2
 62
     2
  5
64D
 10
-424.383742
 20
-270.304124
 30
0.0
 11
-425.141101
 21
-271.061483
 31
0.0
  0
LINE
  8
2
  5
64E
 10
-425.141101
 20
-280.304124
 30
0.0
 11
-412.141101
 21
-280.304124
 31
0.0
  0
LINE
  8
2
  5
64F
 10
-424.641101
 20
-285.554124
 30
0.0
 11
-423.222538
 21
-285.554124
 31
0.0
  0
LINE
  8
2
  5
650
 10
-424.641101
 20
-283.054124
 30
0.0
 11
-423.222538
 21
-283.054124
 31
0.0
  0
ARC
  8
2
  5
651
 10
-424.441101
 20
-285.854124
 30
0.0
 40
0.2
 50
180.0
 51
270.0
  0
LINE
  8
2
  5
652
 10
-424.641101
 20
-283.054124
 30
0.0
 11
-424.641101
 21
-285.854124
 31
0.0
  0
LINE
  8
2
  5
653
 10
-424.620232
 20
-283.054124
 30
0.0
 11
-424.620232
 21
-285.554124
 31
0.0
  0
ARC
  8
2
  5
654
 10
-422.641101
 20
-281.554124
 30
0.0
 40
2.5
 50
180.0
 51
216.869898
  0
LINE
  8
2
  5
655
 10
-423.222538
 20
-283.054124
 30
0.0
 11
-423.222538
 21
-285.554124
 31
0.0
  0
LINE
  8
2
  5
656
 10
-422.515432
 20
-283.054124
 30
0.0
 11
-422.515432
 21
-285.554124
 31
0.0
  0
LINE
  8
2
 62
     2
  5
657
 10
-425.121842
 20
-269.054124
 30
0.0
 11
-425.121842
 21
-281.554124
 31
0.0
  0
LINE
  8
2
  5
658
 10
-425.141101
 20
-269.054124
 30
0.0
 11
-425.141101
 21
-281.554124
 31
0.0
  0
LINE
  8
2
  5
659
 10
-426.141101
 20
-286.554124
 30
0.0
 11
-425.641101
 21
-286.054124
 31
0.0
  0
LINE
  8
2
  5
65A
 10
-424.391101
 20
-269.054124
 30
0.0
 11
-424.391101
 21
-233.710325
 31
0.0
  0
LINE
  8
2
 62
     2
  5
65B
 10
-425.140962
 20
-299.853502
 30
0.0
 11
-425.140962
 21
-296.853502
 31
0.0
  0
LINE
  8
2
  5
65C
 10
-427.541101
 20
-291.454759
 30
0.0
 11
-427.541101
 21
-293.854759
 31
0.0
  0
LINE
  8
2
  5
65D
 10
-427.341101
 20
-291.254759
 30
0.0
 11
-427.541101
 21
-291.454759
 31
0.0
  0
LINE
  8
2
  5
65E
 10
-427.341101
 20
-294.054759
 30
0.0
 11
-427.541101
 21
-293.854759
 31
0.0
  0
LINE
  8
2
  5
65F
 10
-426.141101
 20
-291.254759
 30
0.0
 11
-426.141101
 21
-290.853502
 31
0.0
  0
LINE
  8
2
  5
660
 10
-426.141101
 20
-286.554124
 30
0.0
 11
-426.141101
 21
-287.853502
 31
0.0
  0
LINE
  8
2
  5
661
 10
-409.741101
 20
-291.454124
 30
0.0
 11
-409.741101
 21
-293.854124
 31
0.0
  0
LINE
  8
2
  5
662
 10
-427.541101
 20
-291.454124
 30
0.0
 11
-427.541101
 21
-293.854124
 31
0.0
  0
LINE
  8
2
  5
663
 10
-427.341101
 20
-291.254124
 30
0.0
 11
-427.541101
 21
-291.454124
 31
0.0
  0
LINE
  8
2
  5
664
 10
-409.941101
 20
-291.254124
 30
0.0
 11
-409.741101
 21
-291.454124
 31
0.0
  0
LINE
  8
2
  5
665
 10
-409.941101
 20
-294.054124
 30
0.0
 11
-409.741101
 21
-293.854124
 31
0.0
  0
LINE
  8
2
  5
666
 10
-409.641101
 20
-299.854124
 30
0.0
 11
-427.641101
 21
-299.854124
 31
0.0
  0
LINE
  8
2
  5
667
 10
-410.341101
 20
-287.854124
 30
0.0
 11
-426.941101
 21
-287.854124
 31
0.0
  0
LINE
  8
2
  5
668
 10
-422.641101
 20
-288.854124
 30
0.0
 11
-422.641101
 21
-298.854124
 31
0.0
  0
LINE
  8
2
  5
669
 10
-414.641101
 20
-288.854124
 30
0.0
 11
-414.641101
 21
-298.854124
 31
0.0
  0
ARC
  8
2
  5
66A
 10
-432.141101
 20
-286.854124
 30
0.0
 40
1.0
 50
90.0
 51
180.0
  0
ARC
  8
2
  5
66B
 10
-432.141101
 20
-298.854124
 30
0.0
 40
1.0
 50
180.0
 51
270.0
  0
LINE
  8
2
  5
66C
 10
-432.141101
 20
-285.854124
 30
0.0
 11
-424.641101
 21
-285.854124
 31
0.0
  0
LINE
  8
2
  5
66D
 10
-432.141101
 20
-299.854124
 30
0.0
 11
-426.141101
 21
-299.854124
 31
0.0
  0
LINE
  8
2
  5
66E
 10
-410.341101
 20
-299.854124
 30
0.0
 11
-405.141101
 21
-299.854124
 31
0.0
  0
LINE
  8
2
  5
66F
 10
-410.341101
 20
-290.854124
 30
0.0
 11
-414.641101
 21
-290.854124
 31
0.0
  0
LINE
  8
2
  5
670
 10
-422.641101
 20
-290.854124
 30
0.0
 11
-426.941101
 21
-290.854124
 31
0.0
  0
LINE
  8
2
  5
671
 10
-409.941101
 20
-291.254124
 30
0.0
 11
-414.641101
 21
-291.254124
 31
0.0
  0
LINE
  8
2
  5
672
 10
-422.641101
 20
-291.254124
 30
0.0
 11
-427.341101
 21
-291.254124
 31
0.0
  0
LINE
  8
2
  5
673
 10
-409.741101
 20
-291.454124
 30
0.0
 11
-414.641101
 21
-291.454124
 31
0.0
  0
LINE
  8
2
  5
674
 10
-422.641101
 20
-291.454124
 30
0.0
 11
-427.541101
 21
-291.454124
 31
0.0
  0
LINE
  8
2
  5
675
 10
-409.741101
 20
-293.854124
 30
0.0
 11
-414.641101
 21
-293.854124
 31
0.0
  0
LINE
  8
2
  5
676
 10
-422.641101
 20
-293.854124
 30
0.0
 11
-427.541101
 21
-293.854124
 31
0.0
  0
LINE
  8
2
  5
677
 10
-410.341101
 20
-296.854124
 30
0.0
 11
-414.641101
 21
-296.854124
 31
0.0
  0
LINE
  8
2
  5
678
 10
-422.641101
 20
-296.854124
 30
0.0
 11
-426.941101
 21
-296.854124
 31
0.0
  0
ARC
  8
2
  5
679
 10
-415.641101
 20
-288.854124
 30
0.0
 40
1.0
 50
0.0
 51
90.0
  0
ARC
  8
2
  5
67A
 10
-421.641101
 20
-288.854124
 30
0.0
 40
1.0
 50
90.0
 51
180.0
  0
ARC
  8
2
  5
67B
 10
-421.641101
 20
-298.854124
 30
0.0
 40
1.0
 50
180.0
 51
270.0
  0
ARC
  8
2
  5
67C
 10
-415.641101
 20
-298.854124
 30
0.0
 40
1.0
 50
270.0
 51
0.0
  0
LINE
  8
2
  5
67D
 10
-426.941101
 20
-287.854124
 30
0.0
 11
-426.941101
 21
-290.854124
 31
0.0
  0
LINE
  8
2
  5
67E
 10
-410.341101
 20
-287.854124
 30
0.0
 11
-410.341101
 21
-290.854124
 31
0.0
  0
LINE
  8
2
  5
67F
 10
-410.341101
 20
-296.854124
 30
0.0
 11
-410.341101
 21
-299.854124
 31
0.0
  0
LINE
  8
2
  5
680
 10
-426.941101
 20
-296.854124
 30
0.0
 11
-426.941101
 21
-299.854124
 31
0.0
  0
LINE
  8
2
  5
681
 10
-426.141101
 20
-291.254124
 30
0.0
 11
-426.141101
 21
-290.854124
 31
0.0
  0
LINE
  8
2
  5
682
 10
-411.141101
 20
-291.254124
 30
0.0
 11
-411.141101
 21
-290.854124
 31
0.0
  0
LINE
  8
2
 62
     2
  5
683
 10
-423.641101
 20
-299.554707
 30
0.0
 11
-423.641101
 21
-297.249485
 31
0.0
  0
LINE
  8
2
 62
     2
  5
684
 10
-423.641102
 20
-290.592937
 30
0.0
 11
-423.641101
 21
-288.160732
 31
0.0
  0
LINE
  8
2
 62
     2
  5
685
 10
-413.641101
 20
-299.554707
 30
0.0
 11
-413.641101
 21
-297.249485
 31
0.0
  0
LINE
  8
2
 62
     2
  5
686
 10
-413.641101
 20
-290.550259
 30
0.0
 11
-413.641101
 21
-288.081211
 31
0.0
  0
LINE
  8
2
  5
687
 10
-427.441101
 20
-298.854124
 30
0.0
 11
-427.441101
 21
-296.254124
 31
0.0
  0
LINE
  8
2
  5
688
 10
-427.441101
 20
-291.354124
 30
0.0
 11
-427.441101
 21
-286.854124
 31
0.0
  0
LINE
  8
2
  5
689
 10
-409.841101
 20
-298.854124
 30
0.0
 11
-409.841101
 21
-296.254124
 31
0.0
  0
ARC
  8
2
  5
68A
 10
-426.441101
 20
-286.854124
 30
0.0
 40
1.0
 50
90.0
 51
180.0
  0
ARC
  8
2
  5
68B
 10
-428.441101
 20
-298.854124
 30
0.0
 40
1.0
 50
270.0
 51
0.0
  0
ARC
  8
2
  5
68C
 10
-408.841101
 20
-298.854124
 30
0.0
 40
1.0
 50
180.0
 51
270.0
  0
LINE
  8
2
  5
68D
 10
-409.641101
 20
-294.254124
 30
0.0
 11
-409.641101
 21
-296.054124
 31
0.0
  0
LINE
  8
2
  5
68E
 10
-427.641101
 20
-294.254124
 30
0.0
 11
-427.641101
 21
-296.054124
 31
0.0
  0
LINE
  8
2
  5
68F
 10
-409.841101
 20
-294.054124
 30
0.0
 11
-409.641101
 21
-294.254124
 31
0.0
  0
LINE
  8
2
  5
690
 10
-409.641101
 20
-296.054124
 30
0.0
 11
-409.841101
 21
-296.254124
 31
0.0
  0
LINE
  8
2
  5
691
 10
-427.441101
 20
-294.054124
 30
0.0
 11
-427.641101
 21
-294.254124
 31
0.0
  0
LINE
  8
2
  5
692
 10
-427.641101
 20
-296.054124
 30
0.0
 11
-427.441101
 21
-296.254124
 31
0.0
  0
LINE
  8
2
  5
693
 10
-426.141101
 20
-300.254124
 30
0.0
 11
-426.141101
 21
-299.854124
 31
0.0
  0
LINE
  8
2
  5
694
 10
-426.141101
 20
-296.854124
 30
0.0
 11
-426.141101
 21
-296.254124
 31
0.0
  0
LINE
  8
2
  5
695
 10
-411.141101
 20
-300.254124
 30
0.0
 11
-411.141101
 21
-299.854124
 31
0.0
  0
LINE
  8
2
  5
696
 10
-411.141101
 20
-296.854124
 30
0.0
 11
-411.141101
 21
-296.254124
 31
0.0
  0
LINE
  8
2
  5
697
 10
-409.841101
 20
-296.254124
 30
0.0
 11
-414.641101
 21
-296.254124
 31
0.0
  0
LINE
  8
2
  5
698
 10
-422.641101
 20
-296.254124
 30
0.0
 11
-427.441101
 21
-296.254124
 31
0.0
  0
LINE
  8
2
  5
699
 10
-409.641101
 20
-296.054124
 30
0.0
 11
-414.641101
 21
-296.054124
 31
0.0
  0
LINE
  8
2
  5
69A
 10
-422.641101
 20
-296.054124
 30
0.0
 11
-427.641101
 21
-296.054124
 31
0.0
  0
LINE
  8
2
  5
69B
 10
-409.641101
 20
-294.254124
 30
0.0
 11
-414.641101
 21
-294.254124
 31
0.0
  0
LINE
  8
2
  5
69C
 10
-422.641101
 20
-294.254124
 30
0.0
 11
-427.641101
 21
-294.254124
 31
0.0
  0
LINE
  8
2
  5
69D
 10
-409.841101
 20
-294.054124
 30
0.0
 11
-414.641101
 21
-294.054124
 31
0.0
  0
LINE
  8
2
  5
69E
 10
-422.641101
 20
-294.054124
 30
0.0
 11
-427.441101
 21
-294.054124
 31
0.0
  0
LINE
  8
2
 62
     2
  5
69F
 10
-412.141241
 20
-299.853502
 30
0.0
 11
-412.141241
 21
-296.853502
 31
0.0
  0
LINE
  8
2
 62
     2
  5
6A0
 10
-425.140962
 20
-290.854124
 30
0.0
 11
-425.140962
 21
-287.854124
 31
0.0
  0
LINE
  8
2
 62
     2
  5
6A1
 10
-412.141241
 20
-290.854124
 30
0.0
 11
-412.141241
 21
-287.854124
 31
0.0
  0
LINE
  8
2
 62
     2
  5
6A2
 10
-424.184433
 20
-254.776958
 30
0.0
 11
-420.168838
 21
-250.761363
 31
0.0
  0
LINE
  8
2
 62
     2
  5
6A3
 10
-424.184433
 20
-257.832431
 30
0.0
 11
-420.168838
 21
-261.848026
 31
0.0
  0
ARC
  8
2
  5
6A4
 10
-405.141101
 20
-298.854124
 30
0.0
 40
1.0
 50
270.0
 51
360.0
  0
LINE
  8
2
  5
6A5
 10
-433.141101
 20
-286.854124
 30
0.0
 11
-433.141101
 21
-298.854124
 31
0.0
  0
LINE
  8
2
 62
     2
  5
6A6
 10
-422.870124
 20
-281.554124
 30
0.0
 11
-422.870124
 21
-280.304124
 31
0.0
  0
LINE
  8
2
 62
     2
  5
6A7
 10
-422.870124
 20
-270.304124
 30
0.0
 11
-422.870124
 21
-269.054124
 31
0.0
  0
LINE
  8
2
 62
     2
  5
6A8
 10
-423.57723
 20
-281.554124
 30
0.0
 11
-423.57723
 21
-280.304124
 31
0.0
  0
LINE
  8
2
 62
     2
  5
6A9
 10
-423.57723
 20
-270.304124
 30
0.0
 11
-423.57723
 21
-269.054124
 31
0.0
  0
POINT
  8
2
  5
6AA
 10
-425.141101
 20
-270.304124
 30
0.0
  0
LINE
  8
2
  5
6AB
 10
-427.640836
 20
-300.253375
 30
0.0
 11
-428.640836
 21
-301.253375
 31
0.0
  0
LINE
  8
2
  5
6AC
 10
-409.640836
 20
-300.253375
 30
0.0
 11
-408.640836
 21
-301.253375
 31
0.0
  0
LINE
  8
2
  5
6AD
 10
-428.640836
 20
-301.253375
 30
0.0
 11
-408.640836
 21
-301.253375
 31
0.0
  0
LINE
  8
2
  5
6AE
 10
-428.640836
 20
-301.253375
 30
0.0
 11
-428.640836
 21
-310.053375
 31
0.0
  0
LINE
  8
2
  5
6AF
 10
-408.640836
 20
-301.253375
 30
0.0
 11
-408.640836
 21
-310.053375
 31
0.0
  0
LINE
  8
2
  5
6B0
 10
-408.313969
 20
-310.053375
 30
0.0
 11
-430.640836
 21
-310.053375
 31
0.0
  0
LINE
  8
2
  5
6B1
 10
-432.497242
 20
-311.909782
 30
0.0
 11
-432.497242
 21
-319.196969
 31
0.0
  0
LINE
  8
2
  5
6B2
 10
-404.784429
 20
-319.196969
 30
0.0
 11
-404.784429
 21
-311.909782
 31
0.0
  0
LINE
  8
2
  5
6B3
 10
-406.640836
 20
-321.053375
 30
0.0
 11
-430.640836
 21
-321.053375
 31
0.0
  0
LINE
  8
2
  5
6B4
 10
-425.569039
 20
-319.196969
 30
0.0
 11
-425.569039
 21
-311.909782
 31
0.0
  0
LINE
  8
2
  5
6B5
 10
-411.712633
 20
-319.196969
 30
0.0
 11
-411.712633
 21
-311.909782
 31
0.0
  0
LINE
  8
2
  5
6B6
 10
-406.640836
 20
-310.053375
 30
0.0
 11
-430.640836
 21
-310.053375
 31
0.0
  0
LINE
  8
2
  5
6B7
 10
-430.640836
 20
-310.053375
 30
0.0
 11
-432.497242
 21
-311.909782
 31
0.0
  0
LINE
  8
2
  5
6B8
 10
-406.640836
 20
-321.053375
 30
0.0
 11
-404.784429
 21
-319.196969
 31
0.0
  0
LINE
  8
2
  5
6B9
 10
-406.640836
 20
-310.053375
 30
0.0
 11
-404.784429
 21
-311.909782
 31
0.0
  0
LINE
  8
2
  5
6BA
 10
-430.640836
 20
-321.053375
 30
0.0
 11
-432.497242
 21
-319.196969
 31
0.0
  0
ARC
  8
2
  5
6BB
 10
-418.640836
 20
-323.909782
 30
0.0
 40
13.856406
 50
60.0
 51
120.0
  0
ARC
  8
2
  5
6BC
 10
-418.640836
 20
-307.196969
 30
0.0
 40
13.856406
 50
240.0
 51
300.0
  0
ARC
  8
2
  5
6BD
 10
-428.967703
 20
-314.092675
 30
0.0
 40
4.039299
 50
32.711809
 51
135.0
  0
ARC
  8
2
  5
6BE
 10
-428.967703
 20
-317.014076
 30
0.0
 40
4.039299
 50
225.0
 51
327.288191
  0
ARC
  8
2
  5
6BF
 10
-408.313969
 20
-314.092675
 30
0.0
 40
4.039299
 50
45.0
 51
147.288191
  0
ARC
  8
2
  5
6C0
 10
-408.313969
 20
-317.014076
 30
0.0
 40
4.039299
 50
212.711809
 51
315.0
  0
LINE
  8
2
  5
6C1
 10
-409.640836
 20
-300.253375
 30
0.0
 11
-427.640836
 21
-300.253375
 31
0.0
  0
LINE
  8
2
  6
CENTER
 62
     2
  5
6C2
 10
-293.265416
 20
-215.643786
 30
0.0
 11
-293.265416
 21
-239.517265
 31
0.0
  0
LINE
  8
2
  5
6C3
 10
-299.765416
 20
-272.246349
 30
0.0
 11
-286.765416
 21
-272.246349
 31
0.0
  0
LINE
  8
2
  5
6C4
 10
-299.765416
 20
-272.246349
 30
0.0
 11
-299.765416
 21
-284.746349
 31
0.0
  0
LINE
  8
2
 62
     2
  5
6C5
 10
-286.784675
 20
-272.246349
 30
0.0
 11
-286.784675
 21
-284.746349
 31
0.0
  0
LINE
  8
2
  5
6C6
 10
-286.765416
 20
-272.246349
 30
0.0
 11
-286.765416
 21
-284.746349
 31
0.0
  0
LINE
  8
2
  5
6C7
 10
-299.015416
 20
-272.246349
 30
0.0
 11
-299.015416
 21
-236.754491
 31
0.0
  0
LINE
  8
2
  5
6C8
 10
-287.515416
 20
-272.246349
 30
0.0
 11
-287.515416
 21
-236.902551
 31
0.0
  0
LINE
  8
2
 62
     2
  5
6C9
 10
-289.199552
 20
-263.562784
 30
0.0
 11
-297.33128
 21
-255.431056
 31
0.0
  0
LINE
  8
2
 62
     2
  5
6CA
 10
-289.199552
 20
-255.431056
 30
0.0
 11
-297.33128
 21
-263.562784
 31
0.0
  0
LINE
  8
2
 62
     2
  5
6CB
 10
-289.968618
 20
-264.207931
 30
0.0
 11
-297.976427
 21
-256.200122
 31
0.0
  0
LINE
  8
2
 62
     2
  5
6CC
 10
-290.867642
 20
-264.723121
 30
0.0
 11
-298.491617
 21
-257.099146
 31
0.0
  0
LINE
  8
2
 62
     2
  5
6CD
 10
-291.918127
 20
-265.086849
 30
0.0
 11
-298.855346
 21
-258.149631
 31
0.0
  0
LINE
  8
2
 62
     2
  5
6CE
 10
-293.173013
 20
-265.246177
 30
0.0
 11
-299.014673
 21
-259.404517
 31
0.0
  0
LINE
  8
2
 62
     2
  5
6CF
 10
-294.793153
 20
-265.040251
 30
0.0
 11
-298.808747
 21
-261.024656
 31
0.0
  0
LINE
  8
2
 62
     2
  5
6D0
 10
-288.554405
 20
-262.793717
 30
0.0
 11
-296.562214
 21
-254.785909
 31
0.0
  0
LINE
  8
2
 62
     2
  5
6D1
 10
-288.039215
 20
-261.894694
 30
0.0
 11
-295.66319
 21
-254.270719
 31
0.0
  0
LINE
  8
2
 62
     2
  5
6D2
 10
-287.675486
 20
-260.844209
 30
0.0
 11
-294.612705
 21
-253.90699
 31
0.0
  0
LINE
  8
2
 62
     2
  5
6D3
 10
-287.516158
 20
-259.589323
 30
0.0
 11
-293.357819
 21
-253.747662
 31
0.0
  0
LINE
  8
2
 62
     2
  5
6D4
 10
-287.722085
 20
-257.969183
 30
0.0
 11
-291.737679
 21
-253.953589
 31
0.0
  0
LINE
  8
2
 62
     2
  5
6D5
 10
-289.968618
 20
-254.785909
 30
0.0
 11
-297.976427
 21
-262.793717
 31
0.0
  0
LINE
  8
2
 62
     2
  5
6D6
 10
-290.867642
 20
-254.270719
 30
0.0
 11
-298.491617
 21
-261.894694
 31
0.0
  0
LINE
  8
2
 62
     2
  5
6D7
 10
-291.918127
 20
-253.90699
 30
0.0
 11
-298.855346
 21
-260.844209
 31
0.0
  0
LINE
  8
2
 62
     2
  5
6D8
 10
-293.173013
 20
-253.747662
 30
0.0
 11
-299.014673
 21
-259.589323
 31
0.0
  0
LINE
  8
2
 62
     2
  5
6D9
 10
-294.793153
 20
-253.953589
 30
0.0
 11
-298.808747
 21
-257.969183
 31
0.0
  0
LINE
  8
2
 62
     2
  5
6DA
 10
-288.554405
 20
-256.200122
 30
0.0
 11
-296.562214
 21
-264.207931
 31
0.0
  0
LINE
  8
2
 62
     2
  5
6DB
 10
-288.039215
 20
-257.099146
 30
0.0
 11
-295.66319
 21
-264.723121
 31
0.0
  0
LINE
  8
2
 62
     2
  5
6DC
 10
-287.675486
 20
-258.149631
 30
0.0
 11
-294.612705
 21
-265.086849
 31
0.0
  0
LINE
  8
2
 62
     2
  5
6DD
 10
-287.516158
 20
-259.404517
 30
0.0
 11
-293.357819
 21
-265.246177
 31
0.0
  0
LINE
  8
2
 62
     2
  5
6DE
 10
-287.722085
 20
-261.024656
 30
0.0
 11
-291.737679
 21
-265.040251
 31
0.0
  0
ARC
  8
2
  5
6DF
 10
-296.140416
 20
-232.901702
 30
0.0
 40
4.791667
 50
233.130102
 51
306.869898
  0
ARC
  8
2
  5
6E0
 10
-290.390416
 20
-240.568369
 30
0.0
 40
4.791667
 50
53.130102
 51
126.869898
  0
ARC
  8
2
  5
6E1
 10
-296.140416
 20
-240.568369
 30
0.0
 40
4.791667
 50
53.130102
 51
126.869898
  0
LINE
  8
2
 62
     2
  5
6E2
 10
-288.329287
 20
-273.496349
 30
0.0
 11
-288.329287
 21
-272.246349
 31
0.0
  0
LINE
  8
2
 62
     2
  5
6E3
 10
-289.036394
 20
-273.496349
 30
0.0
 11
-289.036394
 21
-272.246349
 31
0.0
  0
LINE
  8
2
 62
     2
  5
6E4
 10
-292.765416
 20
-273.496349
 30
0.0
 11
-292.765416
 21
-272.246349
 31
0.0
  0
LINE
  8
2
 62
     2
  5
6E5
 10
-293.765416
 20
-273.496349
 30
0.0
 11
-293.765416
 21
-272.246349
 31
0.0
  0
LINE
  8
2
 62
     2
  5
6E6
 10
-297.494438
 20
-273.496349
 30
0.0
 11
-297.494438
 21
-272.246349
 31
0.0
  0
LINE
  8
2
 62
     2
  5
6E7
 10
-298.201545
 20
-273.496349
 30
0.0
 11
-298.201545
 21
-272.246349
 31
0.0
  0
LINE
  8
2
  5
6E8
 10
-286.765416
 20
-273.496349
 30
0.0
 11
-299.765416
 21
-273.496349
 31
0.0
  0
LINE
  8
2
 62
     2
  5
6E9
 10
-294.765416
 20
-273.496349
 30
0.0
 11
-299.765416
 21
-278.496349
 31
0.0
  0
LINE
  8
2
 62
     2
  5
6EA
 10
-291.583435
 20
-273.496349
 30
0.0
 11
-299.765416
 21
-281.67833
 31
0.0
  0
LINE
  8
2
 62
     2
  5
6EB
 10
-298.401455
 20
-283.496349
 30
0.0
 11
-288.401455
 21
-273.496349
 31
0.0
  0
LINE
  8
2
 62
     2
  5
6EC
 10
-295.219474
 20
-283.496349
 30
0.0
 11
-286.765416
 21
-275.042291
 31
0.0
  0
LINE
  8
2
 62
     2
  5
6ED
 10
-292.037494
 20
-283.496349
 30
0.0
 11
-286.765416
 21
-278.224271
 31
0.0
  0
LINE
  8
2
 62
     2
  5
6EE
 10
-288.855513
 20
-283.496349
 30
0.0
 11
-286.765416
 21
-281.406252
 31
0.0
  0
LINE
  8
2
 62
     2
  5
6EF
 10
-297.947396
 20
-273.496349
 30
0.0
 11
-299.765416
 21
-275.314369
 31
0.0
  0
LINE
  8
2
  5
6F0
 10
-297.846853
 20
-286.246349
 30
0.0
 11
-299.265416
 21
-286.246349
 31
0.0
  0
LINE
  8
2
  5
6F1
 10
-297.846853
 20
-288.746349
 30
0.0
 11
-299.265416
 21
-288.746349
 31
0.0
  0
ARC
  8
2
  5
6F2
 10
-299.065416
 20
-289.046349
 30
0.0
 40
0.2
 50
180.0
 51
270.0
  0
LINE
  8
2
  5
6F3
 10
-293.765416
 20
-288.746349
 30
0.0
 11
-297.139746
 21
-288.746349
 31
0.0
  0
LINE
  8
2
  5
6F4
 10
-293.765416
 20
-286.246349
 30
0.0
 11
-297.139746
 21
-286.246349
 31
0.0
  0
LINE
  8
2
  5
6F5
 10
-289.391086
 20
-288.746349
 30
0.0
 11
-292.765416
 21
-288.746349
 31
0.0
  0
LINE
  8
2
  5
6F6
 10
-289.391086
 20
-286.246349
 30
0.0
 11
-292.765416
 21
-286.246349
 31
0.0
  0
LINE
  8
2
  5
6F7
 10
-287.265416
 20
-288.746349
 30
0.0
 11
-288.683979
 21
-288.746349
 31
0.0
  0
LINE
  8
2
  5
6F8
 10
-287.265416
 20
-286.246349
 30
0.0
 11
-288.683979
 21
-286.246349
 31
0.0
  0
ARC
  8
2
  5
6F9
 10
-287.465416
 20
-289.046349
 30
0.0
 40
0.2
 50
270.0
 51
360.0
  0
LINE
  8
2
  5
6FA
 10
-287.265416
 20
-286.246349
 30
0.0
 11
-287.265416
 21
-289.046349
 31
0.0
  0
LINE
  8
2
  5
6FB
 10
-287.286286
 20
-286.246349
 30
0.0
 11
-287.286286
 21
-288.746349
 31
0.0
  0
ARC
  8
2
  5
6FC
 10
-289.265416
 20
-284.746349
 30
0.0
 40
2.5
 50
323.130102
 51
360.0
  0
LINE
  8
2
  5
6FD
 10
-288.683979
 20
-286.246349
 30
0.0
 11
-288.683979
 21
-288.746349
 31
0.0
  0
LINE
  8
2
  5
6FE
 10
-289.391086
 20
-286.246349
 30
0.0
 11
-289.391086
 21
-288.746349
 31
0.0
  0
LINE
  8
2
  5
6FF
 10
-292.765416
 20
-286.246349
 30
0.0
 11
-292.765416
 21
-288.746349
 31
0.0
  0
LINE
  8
2
  5
700
 10
-293.765416
 20
-286.246349
 30
0.0
 11
-293.765416
 21
-288.746349
 31
0.0
  0
LINE
  8
2
  5
701
 10
-297.846853
 20
-286.246349
 30
0.0
 11
-297.846853
 21
-288.746349
 31
0.0
  0
LINE
  8
2
  5
702
 10
-297.139746
 20
-286.246349
 30
0.0
 11
-297.139746
 21
-288.746349
 31
0.0
  0
LINE
  8
2
  5
703
 10
-299.265416
 20
-286.246349
 30
0.0
 11
-299.265416
 21
-289.046349
 31
0.0
  0
LINE
  8
2
  5
704
 10
-299.244546
 20
-286.246349
 30
0.0
 11
-299.244546
 21
-288.746349
 31
0.0
  0
ARC
  8
2
  5
705
 10
-297.265416
 20
-284.746349
 30
0.0
 40
2.5
 50
180.0
 51
216.869898
  0
LINE
  8
2
  5
706
 10
-286.265416
 20
-289.246349
 30
0.0
 11
-300.265416
 21
-289.246349
 31
0.0
  0
LINE
  8
2
  5
707
 10
-285.765416
 20
-289.746349
 30
0.0
 11
-286.265416
 21
-289.246349
 31
0.0
  0
LINE
  8
2
 62
     2
  5
708
 10
-286.765556
 20
-303.045727
 30
0.0
 11
-286.765556
 21
-300.045727
 31
0.0
  0
LINE
  8
2
  5
709
 10
-284.365416
 20
-294.646984
 30
0.0
 11
-284.365416
 21
-297.046984
 31
0.0
  0
LINE
  8
2
  5
70A
 10
-284.565416
 20
-294.446984
 30
0.0
 11
-284.365416
 21
-294.646984
 31
0.0
  0
LINE
  8
2
  5
70B
 10
-284.565416
 20
-297.246984
 30
0.0
 11
-284.365416
 21
-297.046984
 31
0.0
  0
LINE
  8
2
  5
70C
 10
-285.765416
 20
-294.446984
 30
0.0
 11
-285.765416
 21
-294.045727
 31
0.0
  0
LINE
  8
2
  5
70D
 10
-285.765416
 20
-289.746349
 30
0.0
 11
-285.765416
 21
-291.045727
 31
0.0
  0
LINE
  8
2
  5
70E
 10
-302.165416
 20
-294.646349
 30
0.0
 11
-302.165416
 21
-297.046349
 31
0.0
  0
LINE
  8
2
  5
70F
 10
-284.365416
 20
-294.646349
 30
0.0
 11
-284.365416
 21
-297.046349
 31
0.0
  0
LINE
  8
2
  5
710
 10
-284.565416
 20
-294.446349
 30
0.0
 11
-284.365416
 21
-294.646349
 31
0.0
  0
LINE
  8
2
  5
711
 10
-301.965416
 20
-294.446349
 30
0.0
 11
-302.165416
 21
-294.646349
 31
0.0
  0
LINE
  8
2
  5
712
 10
-301.965416
 20
-297.246349
 30
0.0
 11
-302.165416
 21
-297.046349
 31
0.0
  0
LINE
  8
2
  5
713
 10
-302.265416
 20
-303.046349
 30
0.0
 11
-284.265416
 21
-303.046349
 31
0.0
  0
LINE
  8
2
  5
714
 10
-301.565416
 20
-291.046349
 30
0.0
 11
-284.965416
 21
-291.046349
 31
0.0
  0
LINE
  8
2
  5
715
 10
-289.265416
 20
-292.046349
 30
0.0
 11
-289.265416
 21
-302.046349
 31
0.0
  0
LINE
  8
2
  5
716
 10
-297.265416
 20
-292.046349
 30
0.0
 11
-297.265416
 21
-302.046349
 31
0.0
  0
ARC
  8
2
  5
717
 10
-279.765416
 20
-290.046349
 30
0.0
 40
1.0
 50
0.0
 51
90.0
  0
ARC
  8
2
  5
718
 10
-279.765416
 20
-302.046349
 30
0.0
 40
1.0
 50
270.0
 51
360.0
  0
LINE
  8
2
  5
719
 10
-279.765416
 20
-289.046349
 30
0.0
 11
-287.265416
 21
-289.046349
 31
0.0
  0
LINE
  8
2
  5
71A
 10
-299.265416
 20
-289.046349
 30
0.0
 11
-306.765416
 21
-289.046349
 31
0.0
  0
LINE
  8
2
  5
71B
 10
-279.765416
 20
-303.046349
 30
0.0
 11
-285.765416
 21
-303.046349
 31
0.0
  0
LINE
  8
2
  5
71C
 10
-301.565416
 20
-303.046349
 30
0.0
 11
-306.765416
 21
-303.046349
 31
0.0
  0
LINE
  8
2
  5
71D
 10
-301.565416
 20
-294.046349
 30
0.0
 11
-297.265416
 21
-294.046349
 31
0.0
  0
LINE
  8
2
  5
71E
 10
-289.265416
 20
-294.046349
 30
0.0
 11
-284.965416
 21
-294.046349
 31
0.0
  0
LINE
  8
2
  5
71F
 10
-301.965416
 20
-294.446349
 30
0.0
 11
-297.265416
 21
-294.446349
 31
0.0
  0
LINE
  8
2
  5
720
 10
-289.265416
 20
-294.446349
 30
0.0
 11
-284.565416
 21
-294.446349
 31
0.0
  0
LINE
  8
2
  5
721
 10
-302.165416
 20
-294.646349
 30
0.0
 11
-297.265416
 21
-294.646349
 31
0.0
  0
LINE
  8
2
  5
722
 10
-289.265416
 20
-294.646349
 30
0.0
 11
-284.365416
 21
-294.646349
 31
0.0
  0
LINE
  8
2
  5
723
 10
-302.165416
 20
-297.046349
 30
0.0
 11
-297.265416
 21
-297.046349
 31
0.0
  0
LINE
  8
2
  5
724
 10
-289.265416
 20
-297.046349
 30
0.0
 11
-284.365416
 21
-297.046349
 31
0.0
  0
LINE
  8
2
  5
725
 10
-301.565416
 20
-300.046349
 30
0.0
 11
-297.265416
 21
-300.046349
 31
0.0
  0
LINE
  8
2
  5
726
 10
-289.265416
 20
-300.046349
 30
0.0
 11
-284.965416
 21
-300.046349
 31
0.0
  0
ARC
  8
2
  5
727
 10
-296.265416
 20
-292.046349
 30
0.0
 40
1.0
 50
90.0
 51
180.0
  0
ARC
  8
2
  5
728
 10
-290.265416
 20
-292.046349
 30
0.0
 40
1.0
 50
0.0
 51
90.0
  0
ARC
  8
2
  5
729
 10
-290.265416
 20
-302.046349
 30
0.0
 40
1.0
 50
270.0
 51
0.0
  0
ARC
  8
2
  5
72A
 10
-296.265416
 20
-302.046349
 30
0.0
 40
1.0
 50
180.0
 51
270.0
  0
LINE
  8
2
  5
72B
 10
-284.965416
 20
-291.046349
 30
0.0
 11
-284.965416
 21
-294.046349
 31
0.0
  0
LINE
  8
2
  5
72C
 10
-301.565416
 20
-291.046349
 30
0.0
 11
-301.565416
 21
-294.046349
 31
0.0
  0
LINE
  8
2
  5
72D
 10
-301.565416
 20
-300.046349
 30
0.0
 11
-301.565416
 21
-303.046349
 31
0.0
  0
LINE
  8
2
  5
72E
 10
-284.965416
 20
-300.046349
 30
0.0
 11
-284.965416
 21
-303.046349
 31
0.0
  0
LINE
  8
2
  5
72F
 10
-285.765416
 20
-294.446349
 30
0.0
 11
-285.765416
 21
-294.046349
 31
0.0
  0
LINE
  8
2
  5
730
 10
-300.765416
 20
-294.446349
 30
0.0
 11
-300.765416
 21
-294.046349
 31
0.0
  0
LINE
  8
2
 62
     2
  5
731
 10
-288.265416
 20
-302.746932
 30
0.0
 11
-288.265416
 21
-300.44171
 31
0.0
  0
LINE
  8
2
 62
     2
  5
732
 10
-288.265416
 20
-293.785163
 30
0.0
 11
-288.265416
 21
-291.352958
 31
0.0
  0
LINE
  8
2
 62
     2
  5
733
 10
-298.265416
 20
-302.746932
 30
0.0
 11
-298.265416
 21
-300.44171
 31
0.0
  0
LINE
  8
2
 62
     2
  5
734
 10
-298.265416
 20
-293.742484
 30
0.0
 11
-298.265416
 21
-291.273437
 31
0.0
  0
LINE
  8
2
  5
735
 10
-284.465416
 20
-302.046349
 30
0.0
 11
-284.465416
 21
-299.446349
 31
0.0
  0
LINE
  8
2
  5
736
 10
-284.465416
 20
-294.546349
 30
0.0
 11
-284.465416
 21
-290.046349
 31
0.0
  0
LINE
  8
2
  5
737
 10
-302.065416
 20
-302.046349
 30
0.0
 11
-302.065416
 21
-299.446349
 31
0.0
  0
LINE
  8
2
  5
738
 10
-302.065416
 20
-294.546349
 30
0.0
 11
-302.065416
 21
-290.046349
 31
0.0
  0
ARC
  8
2
  5
739
 10
-285.465416
 20
-290.046349
 30
0.0
 40
1.0
 50
0.0
 51
90.0
  0
ARC
  8
2
  5
73A
 10
-301.065416
 20
-290.046349
 30
0.0
 40
1.0
 50
90.0
 51
180.0
  0
ARC
  8
2
  5
73B
 10
-283.465416
 20
-302.046349
 30
0.0
 40
1.0
 50
180.0
 51
270.0
  0
ARC
  8
2
  5
73C
 10
-303.065416
 20
-302.046349
 30
0.0
 40
1.0
 50
270.0
 51
360.0
  0
LINE
  8
2
  5
73D
 10
-300.765416
 20
-289.746349
 30
0.0
 11
-300.765416
 21
-291.045727
 31
0.0
  0
ARC
  8
2
  5
73E
 10
-301.065416
 20
-290.046349
 30
0.0
 40
1.0
 50
90.0
 51
180.0
  0
LINE
  8
2
  5
73F
 10
-300.765416
 20
-289.746349
 30
0.0
 11
-300.265416
 21
-289.246349
 31
0.0
  0
LINE
  8
2
  5
740
 10
-302.265416
 20
-297.446349
 30
0.0
 11
-302.265416
 21
-299.246349
 31
0.0
  0
LINE
  8
2
  5
741
 10
-284.265416
 20
-297.446349
 30
0.0
 11
-284.265416
 21
-299.246349
 31
0.0
  0
LINE
  8
2
  5
742
 10
-302.065416
 20
-297.246349
 30
0.0
 11
-302.265416
 21
-297.446349
 31
0.0
  0
LINE
  8
2
  5
743
 10
-302.265416
 20
-299.246349
 30
0.0
 11
-302.065416
 21
-299.446349
 31
0.0
  0
LINE
  8
2
  5
744
 10
-284.465416
 20
-297.246349
 30
0.0
 11
-284.265416
 21
-297.446349
 31
0.0
  0
LINE
  8
2
  5
745
 10
-284.265416
 20
-299.246349
 30
0.0
 11
-284.465416
 21
-299.446349
 31
0.0
  0
LINE
  8
2
  5
746
 10
-285.765416
 20
-303.446349
 30
0.0
 11
-285.765416
 21
-303.046349
 31
0.0
  0
LINE
  8
2
  5
747
 10
-285.765416
 20
-300.046349
 30
0.0
 11
-285.765416
 21
-299.446349
 31
0.0
  0
LINE
  8
2
  5
748
 10
-300.765416
 20
-303.446349
 30
0.0
 11
-300.765416
 21
-303.046349
 31
0.0
  0
LINE
  8
2
  5
749
 10
-300.765416
 20
-300.046349
 30
0.0
 11
-300.765416
 21
-299.446349
 31
0.0
  0
LINE
  8
2
  5
74A
 10
-302.065416
 20
-299.446349
 30
0.0
 11
-297.265416
 21
-299.446349
 31
0.0
  0
LINE
  8
2
  5
74B
 10
-289.265416
 20
-299.446349
 30
0.0
 11
-284.465416
 21
-299.446349
 31
0.0
  0
LINE
  8
2
  5
74C
 10
-302.265416
 20
-299.246349
 30
0.0
 11
-297.265416
 21
-299.246349
 31
0.0
  0
LINE
  8
2
  5
74D
 10
-289.265416
 20
-299.246349
 30
0.0
 11
-284.265416
 21
-299.246349
 31
0.0
  0
LINE
  8
2
  5
74E
 10
-302.265416
 20
-297.446349
 30
0.0
 11
-297.265416
 21
-297.446349
 31
0.0
  0
LINE
  8
2
  5
74F
 10
-289.265416
 20
-297.446349
 30
0.0
 11
-284.265416
 21
-297.446349
 31
0.0
  0
LINE
  8
2
  5
750
 10
-302.065416
 20
-297.246349
 30
0.0
 11
-297.265416
 21
-297.246349
 31
0.0
  0
LINE
  8
2
  5
751
 10
-289.265416
 20
-297.246349
 30
0.0
 11
-284.465416
 21
-297.246349
 31
0.0
  0
LINE
  8
2
 62
     2
  5
752
 10
-299.765276
 20
-303.045727
 30
0.0
 11
-299.765276
 21
-300.045727
 31
0.0
  0
LINE
  8
2
 62
     2
  5
753
 10
-286.765556
 20
-294.046349
 30
0.0
 11
-286.765556
 21
-291.046349
 31
0.0
  0
LINE
  8
2
 62
     2
  5
754
 10
-299.765276
 20
-294.046349
 30
0.0
 11
-299.765276
 21
-291.046349
 31
0.0
  0
LINE
  8
2
  5
755
 10
-307.765416
 20
-290.046349
 30
0.0
 11
-307.765416
 21
-302.046349
 31
0.0
  0
ARC
  8
2
  5
756
 10
-306.765416
 20
-290.046349
 30
0.0
 40
1.0
 50
90.0
 51
180.0
  0
ARC
  8
2
  5
757
 10
-306.765416
 20
-302.046349
 30
0.0
 40
1.0
 50
180.0
 51
270.0
  0
LINE
  8
2
  5
758
 10
-278.765416
 20
-290.046349
 30
0.0
 11
-278.765416
 21
-302.046349
 31
0.0
  0
LINE
  8
2
 62
     2
  5
759
 10
-288.329287
 20
-284.746349
 30
0.0
 11
-288.329287
 21
-283.496349
 31
0.0
  0
LINE
  8
2
 62
     2
  5
75A
 10
-289.036394
 20
-284.746349
 30
0.0
 11
-289.036394
 21
-283.496349
 31
0.0
  0
LINE
  8
2
 62
     2
  5
75B
 10
-292.765416
 20
-284.746349
 30
0.0
 11
-292.765416
 21
-283.496349
 31
0.0
  0
LINE
  8
2
 62
     2
  5
75C
 10
-293.765416
 20
-284.746349
 30
0.0
 11
-293.765416
 21
-283.496349
 31
0.0
  0
LINE
  8
2
 62
     2
  5
75D
 10
-297.494438
 20
-284.746349
 30
0.0
 11
-297.494438
 21
-283.496349
 31
0.0
  0
LINE
  8
2
 62
     2
  5
75E
 10
-298.201545
 20
-284.746349
 30
0.0
 11
-298.201545
 21
-283.496349
 31
0.0
  0
LINE
  8
2
  5
75F
 10
-284.26521
 20
-303.445601
 30
0.0
 11
-283.26521
 21
-304.445601
 31
0.0
  0
LINE
  8
2
  5
760
 10
-302.26521
 20
-303.445601
 30
0.0
 11
-303.26521
 21
-304.445601
 31
0.0
  0
LINE
  8
2
  5
761
 10
-302.26521
 20
-303.445601
 30
0.0
 11
-284.26521
 21
-303.445601
 31
0.0
  0
LINE
  8
2
  5
762
 10
-283.26521
 20
-304.445601
 30
0.0
 11
-303.26521
 21
-304.445601
 31
0.0
  0
LINE
  8
2
  5
763
 10
-285.76521
 20
-303.445601
 30
0.0
 11
-285.76521
 21
-303.045601
 31
0.0
  0
LINE
  8
2
  5
764
 10
-300.76521
 20
-303.445601
 30
0.0
 11
-300.76521
 21
-303.045601
 31
0.0
  0
LINE
  8
2
  5
765
 10
-283.26521
 20
-304.445601
 30
0.0
 11
-283.26521
 21
-313.245601
 31
0.0
  0
LINE
  8
2
  5
766
 10
-303.26521
 20
-304.445601
 30
0.0
 11
-303.26521
 21
-313.245601
 31
0.0
  0
POINT
  8
2
  5
767
 10
-293.265416
 20
-303.446349
 30
0.0
  0
POINT
  8
2
  5
768
 10
-293.26521
 20
-303.445601
 30
0.0
  0
LINE
  8
2
  5
769
 10
-286.765416
 20
-283.496349
 30
0.0
 11
-299.765416
 21
-283.496349
 31
0.0
  0
LINE
  8
2
  5
76A
 10
-303.592078
 20
-313.245601
 30
0.0
 11
-281.26521
 21
-313.245601
 31
0.0
  0
LINE
  8
2
  5
76B
 10
-279.408804
 20
-315.102007
 30
0.0
 11
-279.408804
 21
-322.389194
 31
0.0
  0
LINE
  8
2
  5
76C
 10
-307.121617
 20
-322.389194
 30
0.0
 11
-307.121617
 21
-315.102007
 31
0.0
  0
LINE
  8
2
  5
76D
 10
-305.26521
 20
-324.245601
 30
0.0
 11
-281.26521
 21
-324.245601
 31
0.0
  0
LINE
  8
2
  5
76E
 10
-286.337007
 20
-322.389194
 30
0.0
 11
-286.337007
 21
-315.102007
 31
0.0
  0
LINE
  8
2
  5
76F
 10
-300.193414
 20
-322.389194
 30
0.0
 11
-300.193414
 21
-315.102007
 31
0.0
  0
LINE
  8
2
  5
770
 10
-305.26521
 20
-313.245601
 30
0.0
 11
-281.26521
 21
-313.245601
 31
0.0
  0
LINE
  8
2
  5
771
 10
-281.26521
 20
-313.245601
 30
0.0
 11
-279.408804
 21
-315.102007
 31
0.0
  0
LINE
  8
2
  5
772
 10
-305.26521
 20
-324.245601
 30
0.0
 11
-307.121617
 21
-322.389194
 31
0.0
  0
LINE
  8
2
  5
773
 10
-305.26521
 20
-313.245601
 30
0.0
 11
-307.121617
 21
-315.102007
 31
0.0
  0
LINE
  8
2
  5
774
 10
-281.26521
 20
-324.245601
 30
0.0
 11
-279.408804
 21
-322.389194
 31
0.0
  0
ARC
  8
2
  5
775
 10
-293.26521
 20
-327.102007
 30
0.0
 40
13.856406
 50
60.0
 51
120.0
  0
ARC
  8
2
  5
776
 10
-293.26521
 20
-310.389194
 30
0.0
 40
13.856406
 50
240.0
 51
300.0
  0
ARC
  8
2
  5
777
 10
-282.938343
 20
-317.2849
 30
0.0
 40
4.039299
 50
45.0
 51
147.288191
  0
ARC
  8
2
  5
778
 10
-282.938343
 20
-320.206301
 30
0.0
 40
4.039299
 50
212.711809
 51
315.0
  0
ARC
  8
2
  5
779
 10
-303.592078
 20
-317.2849
 30
0.0
 40
4.039299
 50
32.711809
 51
135.0
  0
ARC
  8
2
  5
77A
 10
-303.592078
 20
-320.206301
 30
0.0
 40
4.039299
 50
225.0
 51
327.288191
  0
POINT
  8
2
  5
77B
 10
-293.265416
 20
-317.245601
 30
0.0
  0
LINE
  8
2
  6
CENTER
 62
     2
  5
77C
 10
-347.953259
 20
-239.66636
 30
0.0
 11
-293.265416
 21
-215.643786
 31
0.0
  0
LINE
  8
2
  6
CENTER
 62
     2
  5
77D
 10
-363.953259
 20
-239.66636
 30
0.0
 11
-418.641101
 21
-215.643786
 31
0.0
  0
LINE
  8
2
  6
CENTER
 62
     2
  5
77E
 10
-418.641101
 20
-215.643786
 30
0.0
 11
-418.641101
 21
-236.013702
 31
0.0
  0
LINE
  8
2
  5
77F
 10
88.454872
 20
-145.849298
 30
0.0
 11
88.454872
 21
-158.849298
 31
0.0
  0
LINE
  8
2
  5
780
 10
98.454872
 20
-145.849298
 30
0.0
 11
98.454872
 21
-158.849298
 31
0.0
  0
LINE
  8
2
  5
781
 10
93.454872
 20
-158.849298
 30
0.0
 11
99.204872
 21
-158.849298
 31
0.0
  0
LINE
  8
2
  5
782
 10
93.454872
 20
-174.349298
 30
0.0
 11
99.204872
 21
-174.349298
 31
0.0
  0
LINE
  8
2
  5
783
 10
99.704872
 20
-159.349298
 30
0.0
 11
99.704872
 21
-173.849298
 31
0.0
  0
LINE
  8
2
  5
784
 10
99.704872
 20
-159.349298
 30
0.0
 11
99.204872
 21
-158.849298
 31
0.0
  0
LINE
  8
2
  5
785
 10
99.704872
 20
-173.849298
 30
0.0
 11
99.204872
 21
-174.349298
 31
0.0
  0
LINE
  8
2
  5
786
 10
97.776025
 20
-173.849298
 30
0.0
 11
95.204872
 21
-173.849298
 31
0.0
  0
LINE
  8
2
  5
787
 10
97.776025
 20
-159.349298
 30
0.0
 11
95.204872
 21
-159.349298
 31
0.0
  0
LINE
  8
2
  5
788
 10
99.526025
 20
-159.349298
 30
0.0
 11
99.526025
 21
-173.849298
 31
0.0
  0
LINE
  8
2
  5
789
 10
97.776025
 20
-159.349298
 30
0.0
 11
97.776025
 21
-173.849298
 31
0.0
  0
LINE
  8
2
  5
78A
 10
95.204872
 20
-159.349298
 30
0.0
 11
95.204872
 21
-173.849298
 31
0.0
  0
LINE
  8
2
  5
78B
 10
99.704872
 20
-173.849298
 30
0.0
 11
99.526025
 21
-173.849298
 31
0.0
  0
LINE
  8
2
  5
78C
 10
99.704872
 20
-159.349298
 30
0.0
 11
99.526025
 21
-159.349298
 31
0.0
  0
ARC
  8
2
  5
78D
 10
93.454872
 20
-165.349298
 30
0.0
 40
6.25
 50
73.739795
 51
90.0
  0
ARC
  8
2
  5
78E
 10
98.651025
 20
-160.755548
 30
0.0
 40
1.65625
 50
58.109208
 51
121.890792
  0
ARC
  8
2
  5
78F
 10
98.651025
 20
-172.443048
 30
0.0
 40
1.65625
 50
238.109208
 51
301.890792
  0
ARC
  8
2
  5
790
 10
93.454872
 20
-167.849298
 30
0.0
 40
6.25
 50
270.0
 51
286.260205
  0
LINE
  8
2
  5
791
 10
93.454872
 20
-158.849298
 30
0.0
 11
87.704872
 21
-158.849298
 31
0.0
  0
LINE
  8
2
  5
792
 10
93.454872
 20
-174.349298
 30
0.0
 11
87.704872
 21
-174.349298
 31
0.0
  0
LINE
  8
2
  5
793
 10
87.204872
 20
-159.349298
 30
0.0
 11
87.204872
 21
-173.849298
 31
0.0
  0
LINE
  8
2
  5
794
 10
87.204872
 20
-159.349298
 30
0.0
 11
87.704872
 21
-158.849298
 31
0.0
  0
LINE
  8
2
  5
795
 10
87.204872
 20
-173.849298
 30
0.0
 11
87.704872
 21
-174.349298
 31
0.0
  0
LINE
  8
2
  5
796
 10
89.13372
 20
-173.849298
 30
0.0
 11
91.704872
 21
-173.849298
 31
0.0
  0
LINE
  8
2
  5
797
 10
89.13372
 20
-159.349298
 30
0.0
 11
91.704872
 21
-159.349298
 31
0.0
  0
LINE
  8
2
  5
798
 10
87.38372
 20
-159.349298
 30
0.0
 11
87.38372
 21
-173.849298
 31
0.0
  0
LINE
  8
2
  5
799
 10
89.13372
 20
-159.349298
 30
0.0
 11
89.13372
 21
-173.849298
 31
0.0
  0
LINE
  8
2
  5
79A
 10
91.704872
 20
-159.349298
 30
0.0
 11
91.704872
 21
-173.849298
 31
0.0
  0
LINE
  8
2
  5
79B
 10
87.204872
 20
-173.849298
 30
0.0
 11
87.38372
 21
-173.849298
 31
0.0
  0
LINE
  8
2
  5
79C
 10
87.204872
 20
-159.349298
 30
0.0
 11
87.38372
 21
-159.349298
 31
0.0
  0
ARC
  8
2
  5
79D
 10
93.454872
 20
-165.349298
 30
0.0
 40
6.25
 50
90.0
 51
106.260205
  0
ARC
  8
2
  5
79E
 10
88.25872
 20
-160.755548
 30
0.0
 40
1.65625
 50
58.109208
 51
121.890792
  0
ARC
  8
2
  5
79F
 10
88.25872
 20
-172.443048
 30
0.0
 40
1.65625
 50
238.109208
 51
301.890792
  0
ARC
  8
2
  5
7A0
 10
93.454872
 20
-167.849298
 30
0.0
 40
6.25
 50
253.739795
 51
270.0
  0
LINE
  8
2
  5
7A1
 10
87.454872
 20
-179.960623
 30
0.0
 11
87.454872
 21
-174.637973
 31
0.0
  0
LINE
  8
2
  5
7A2
 10
99.454872
 20
-179.960623
 30
0.0
 11
99.454872
 21
-174.637973
 31
0.0
  0
LINE
  8
2
  5
7A3
 10
95.852788
 20
-174.637973
 30
0.0
 11
95.852788
 21
-179.960623
 31
0.0
  0
LINE
  8
2
  5
7A4
 10
97.019054
 20
-174.637973
 30
0.0
 11
97.019054
 21
-179.960623
 31
0.0
  0
LINE
  8
2
  5
7A5
 10
99.41697
 20
-174.637973
 30
0.0
 11
99.41697
 21
-179.960623
 31
0.0
  0
LINE
  8
2
  5
7A6
 10
98.954872
 20
-174.349298
 30
0.0
 11
87.954872
 21
-174.349298
 31
0.0
  0
LINE
  8
2
  5
7A7
 10
98.954872
 20
-180.249298
 30
0.0
 11
99.454872
 21
-179.960623
 31
0.0
  0
LINE
  8
2
  5
7A8
 10
97.019054
 20
-179.960623
 30
0.0
 11
95.852788
 21
-179.960623
 31
0.0
  0
LINE
  8
2
  5
7A9
 10
87.454872
 20
-179.960623
 30
0.0
 11
87.954872
 21
-180.249298
 31
0.0
  0
LINE
  8
2
  5
7AA
 10
87.454872
 20
-174.637973
 30
0.0
 11
87.954872
 21
-174.349298
 31
0.0
  0
ARC
  8
2
  5
7AB
 10
93.454872
 20
-170.145668
 30
0.0
 40
10.10363
 50
270.0
 51
283.729133
  0
ARC
  8
2
  5
7AC
 10
93.454872
 20
-184.452927
 30
0.0
 40
10.10363
 50
76.270867
 51
90.0
  0
LINE
  8
2
  5
7AD
 10
97.019054
 20
-174.637973
 30
0.0
 11
95.852788
 21
-174.637973
 31
0.0
  0
LINE
  8
2
  5
7AE
 10
99.454872
 20
-179.960623
 30
0.0
 11
99.41697
 21
-179.960623
 31
0.0
  0
ARC
  8
2
  5
7AF
 10
98.218012
 20
-177.615137
 30
0.0
 40
2.634161
 50
242.924933
 51
297.075067
  0
ARC
  8
2
  5
7B0
 10
98.218012
 20
-176.983458
 30
0.0
 40
2.634161
 50
62.924933
 51
117.075067
  0
LINE
  8
2
  5
7B1
 10
98.954872
 20
-174.349298
 30
0.0
 11
99.454872
 21
-174.637973
 31
0.0
  0
LINE
  8
2
  5
7B2
 10
99.454872
 20
-174.637973
 30
0.0
 11
99.41697
 21
-174.637973
 31
0.0
  0
ARC
  8
2
  5
7B3
 10
93.454872
 20
-170.145668
 30
0.0
 40
10.10363
 50
256.270867
 51
270.0
  0
LINE
  8
2
  5
7B4
 10
89.89069
 20
-179.960623
 30
0.0
 11
91.056956
 21
-179.960623
 31
0.0
  0
LINE
  8
2
  5
7B5
 10
91.056957
 20
-174.637973
 30
0.0
 11
91.056956
 21
-179.960623
 31
0.0
  0
LINE
  8
2
  5
7B6
 10
89.89069
 20
-174.637973
 30
0.0
 11
89.89069
 21
-179.960623
 31
0.0
  0
ARC
  8
2
  5
7B7
 10
88.691732
 20
-177.615137
 30
0.0
 40
2.634161
 50
242.924933
 51
297.075067
  0
LINE
  8
2
  5
7B8
 10
87.492774
 20
-174.637973
 30
0.0
 11
87.492774
 21
-179.960623
 31
0.0
  0
LINE
  8
2
  5
7B9
 10
87.492774
 20
-179.960623
 30
0.0
 11
87.454872
 21
-179.960623
 31
0.0
  0
ARC
  8
2
  5
7BA
 10
93.454872
 20
-184.452927
 30
0.0
 40
10.10363
 50
90.0
 51
103.729133
  0
LINE
  8
2
  5
7BB
 10
89.89069
 20
-174.637973
 30
0.0
 11
91.056956
 21
-174.637973
 31
0.0
  0
ARC
  8
2
  5
7BC
 10
88.691732
 20
-176.983458
 30
0.0
 40
2.634161
 50
62.924933
 51
117.075067
  0
POINT
  8
2
  5
7BD
 10
93.454872
 20
-145.849298
 30
0.0
  0
LINE
  8
2
  5
7BE
 10
93.454872
 20
-158.849298
 30
0.0
 11
99.204872
 21
-158.849298
 31
0.0
  0
LINE
  8
2
  5
7BF
 10
93.454872
 20
-174.349298
 30
0.0
 11
99.204872
 21
-174.349298
 31
0.0
  0
LINE
  8
2
  5
7C0
 10
99.704872
 20
-159.349298
 30
0.0
 11
99.704872
 21
-173.849298
 31
0.0
  0
LINE
  8
2
  5
7C1
 10
99.704872
 20
-159.349298
 30
0.0
 11
99.204872
 21
-158.849298
 31
0.0
  0
LINE
  8
2
  5
7C2
 10
99.704872
 20
-173.849298
 30
0.0
 11
99.204872
 21
-174.349298
 31
0.0
  0
LINE
  8
2
  5
7C3
 10
97.776025
 20
-173.849298
 30
0.0
 11
95.204872
 21
-173.849298
 31
0.0
  0
LINE
  8
2
  5
7C4
 10
97.776025
 20
-159.349298
 30
0.0
 11
95.204872
 21
-159.349298
 31
0.0
  0
LINE
  8
2
  5
7C5
 10
99.526025
 20
-159.349298
 30
0.0
 11
99.526025
 21
-173.849298
 31
0.0
  0
LINE
  8
2
  5
7C6
 10
97.776025
 20
-159.349298
 30
0.0
 11
97.776025
 21
-173.849298
 31
0.0
  0
LINE
  8
2
  5
7C7
 10
95.204872
 20
-159.349298
 30
0.0
 11
95.204872
 21
-173.849298
 31
0.0
  0
LINE
  8
2
  5
7C8
 10
99.704872
 20
-173.849298
 30
0.0
 11
99.526025
 21
-173.849298
 31
0.0
  0
LINE
  8
2
  5
7C9
 10
99.704872
 20
-159.349298
 30
0.0
 11
99.526025
 21
-159.349298
 31
0.0
  0
ARC
  8
2
  5
7CA
 10
93.454872
 20
-165.349298
 30
0.0
 40
6.25
 50
73.739795
 51
90.0
  0
ARC
  8
2
  5
7CB
 10
98.651025
 20
-160.755548
 30
0.0
 40
1.65625
 50
58.109208
 51
121.890792
  0
ARC
  8
2
  5
7CC
 10
98.651025
 20
-172.443048
 30
0.0
 40
1.65625
 50
238.109208
 51
301.890792
  0
ARC
  8
2
  5
7CD
 10
93.454872
 20
-167.849298
 30
0.0
 40
6.25
 50
270.0
 51
286.260205
  0
LINE
  8
2
  5
7CE
 10
93.454872
 20
-158.849298
 30
0.0
 11
87.704872
 21
-158.849298
 31
0.0
  0
LINE
  8
2
  5
7CF
 10
93.454872
 20
-174.349298
 30
0.0
 11
87.704872
 21
-174.349298
 31
0.0
  0
LINE
  8
2
  5
7D0
 10
87.204872
 20
-159.349298
 30
0.0
 11
87.204872
 21
-173.849298
 31
0.0
  0
LINE
  8
2
  5
7D1
 10
87.204872
 20
-159.349298
 30
0.0
 11
87.704872
 21
-158.849298
 31
0.0
  0
LINE
  8
2
  5
7D2
 10
87.204872
 20
-173.849298
 30
0.0
 11
87.704872
 21
-174.349298
 31
0.0
  0
LINE
  8
2
  5
7D3
 10
89.13372
 20
-173.849298
 30
0.0
 11
91.704872
 21
-173.849298
 31
0.0
  0
LINE
  8
2
  5
7D4
 10
89.13372
 20
-159.349298
 30
0.0
 11
91.704872
 21
-159.349298
 31
0.0
  0
LINE
  8
2
  5
7D5
 10
87.38372
 20
-159.349298
 30
0.0
 11
87.38372
 21
-173.849298
 31
0.0
  0
LINE
  8
2
  5
7D6
 10
89.13372
 20
-159.349298
 30
0.0
 11
89.13372
 21
-173.849298
 31
0.0
  0
LINE
  8
2
  5
7D7
 10
91.704872
 20
-159.349298
 30
0.0
 11
91.704872
 21
-173.849298
 31
0.0
  0
LINE
  8
2
  5
7D8
 10
87.204872
 20
-173.849298
 30
0.0
 11
87.38372
 21
-173.849298
 31
0.0
  0
LINE
  8
2
  5
7D9
 10
87.204872
 20
-159.349298
 30
0.0
 11
87.38372
 21
-159.349298
 31
0.0
  0
ARC
  8
2
  5
7DA
 10
93.454872
 20
-165.349298
 30
0.0
 40
6.25
 50
90.0
 51
106.260205
  0
ARC
  8
2
  5
7DB
 10
88.25872
 20
-160.755548
 30
0.0
 40
1.65625
 50
58.109208
 51
121.890792
  0
ARC
  8
2
  5
7DC
 10
88.25872
 20
-172.443048
 30
0.0
 40
1.65625
 50
238.109208
 51
301.890792
  0
ARC
  8
2
  5
7DD
 10
93.454872
 20
-167.849298
 30
0.0
 40
6.25
 50
253.739795
 51
270.0
  0
LINE
  8
2
  5
7DE
 10
87.454872
 20
-179.960623
 30
0.0
 11
87.454872
 21
-174.637973
 31
0.0
  0
LINE
  8
2
  5
7DF
 10
99.454872
 20
-179.960623
 30
0.0
 11
99.454872
 21
-174.637973
 31
0.0
  0
LINE
  8
2
  5
7E0
 10
95.852788
 20
-174.637973
 30
0.0
 11
95.852788
 21
-179.960623
 31
0.0
  0
LINE
  8
2
  5
7E1
 10
97.019054
 20
-174.637973
 30
0.0
 11
97.019054
 21
-179.960623
 31
0.0
  0
LINE
  8
2
  5
7E2
 10
99.41697
 20
-174.637973
 30
0.0
 11
99.41697
 21
-179.960623
 31
0.0
  0
LINE
  8
2
  5
7E3
 10
98.954872
 20
-174.349298
 30
0.0
 11
87.954872
 21
-174.349298
 31
0.0
  0
LINE
  8
2
  5
7E4
 10
98.954872
 20
-180.249298
 30
0.0
 11
99.454872
 21
-179.960623
 31
0.0
  0
LINE
  8
2
  5
7E5
 10
97.019054
 20
-179.960623
 30
0.0
 11
95.852788
 21
-179.960623
 31
0.0
  0
LINE
  8
2
  5
7E6
 10
87.454872
 20
-179.960623
 30
0.0
 11
87.954872
 21
-180.249298
 31
0.0
  0
LINE
  8
2
  5
7E7
 10
87.454872
 20
-174.637973
 30
0.0
 11
87.954872
 21
-174.349298
 31
0.0
  0
ARC
  8
2
  5
7E8
 10
93.454872
 20
-170.145668
 30
0.0
 40
10.10363
 50
270.0
 51
283.729133
  0
ARC
  8
2
  5
7E9
 10
93.454872
 20
-184.452927
 30
0.0
 40
10.10363
 50
76.270867
 51
90.0
  0
LINE
  8
2
  5
7EA
 10
97.019054
 20
-174.637973
 30
0.0
 11
95.852788
 21
-174.637973
 31
0.0
  0
LINE
  8
2
  5
7EB
 10
99.454872
 20
-179.960623
 30
0.0
 11
99.41697
 21
-179.960623
 31
0.0
  0
ARC
  8
2
  5
7EC
 10
98.218012
 20
-177.615137
 30
0.0
 40
2.634161
 50
242.924933
 51
297.075067
  0
ARC
  8
2
  5
7ED
 10
98.218012
 20
-176.983458
 30
0.0
 40
2.634161
 50
62.924933
 51
117.075067
  0
LINE
  8
2
  5
7EE
 10
98.954872
 20
-174.349298
 30
0.0
 11
99.454872
 21
-174.637973
 31
0.0
  0
LINE
  8
2
  5
7EF
 10
99.454872
 20
-174.637973
 30
0.0
 11
99.41697
 21
-174.637973
 31
0.0
  0
ARC
  8
2
  5
7F0
 10
93.454872
 20
-170.145668
 30
0.0
 40
10.10363
 50
256.270867
 51
270.0
  0
LINE
  8
2
  5
7F1
 10
89.89069
 20
-179.960623
 30
0.0
 11
91.056956
 21
-179.960623
 31
0.0
  0
LINE
  8
2
  5
7F2
 10
91.056957
 20
-174.637973
 30
0.0
 11
91.056956
 21
-179.960623
 31
0.0
  0
LINE
  8
2
  5
7F3
 10
89.89069
 20
-174.637973
 30
0.0
 11
89.89069
 21
-179.960623
 31
0.0
  0
ARC
  8
2
  5
7F4
 10
88.691732
 20
-177.615137
 30
0.0
 40
2.634161
 50
242.924933
 51
297.075067
  0
LINE
  8
2
  5
7F5
 10
87.492774
 20
-174.637973
 30
0.0
 11
87.492774
 21
-179.960623
 31
0.0
  0
LINE
  8
2
  5
7F6
 10
87.492774
 20
-179.960623
 30
0.0
 11
87.454872
 21
-179.960623
 31
0.0
  0
ARC
  8
2
  5
7F7
 10
93.454872
 20
-184.452927
 30
0.0
 40
10.10363
 50
90.0
 51
103.729133
  0
LINE
  8
2
  5
7F8
 10
89.89069
 20
-174.637973
 30
0.0
 11
91.056956
 21
-174.637973
 31
0.0
  0
ARC
  8
2
  5
7F9
 10
88.691732
 20
-176.983458
 30
0.0
 40
2.634161
 50
62.924933
 51
117.075067
  0
LINE
  8
2
  5
7FA
 10
87.654872
 20
-180.249298
 30
0.0
 11
99.254872
 21
-180.249298
 31
0.0
  0
LINE
  8
2
  5
7FB
 10
99.954872
 20
-197.249298
 30
0.0
 11
86.954872
 21
-197.249298
 31
0.0
  0
LINE
  8
2
  5
7FC
 10
99.954872
 20
-197.249298
 30
0.0
 11
99.954872
 21
-184.749298
 31
0.0
  0
LINE
  8
2
  5
7FD
 10
86.954872
 20
-197.249298
 30
0.0
 11
86.954872
 21
-184.749298
 31
0.0
  0
LINE
  8
2
  5
7FE
 10
97.329202
 20
-183.249298
 30
0.0
 11
97.329202
 21
-180.749298
 31
0.0
  0
LINE
  8
2
  5
7FF
 10
98.036309
 20
-183.249298
 30
0.0
 11
98.036309
 21
-180.749298
 31
0.0
  0
LINE
  8
2
  5
800
 10
99.434002
 20
-183.249298
 30
0.0
 11
99.434002
 21
-180.749298
 31
0.0
  0
LINE
  8
2
  5
801
 10
99.454872
 20
-183.249298
 30
0.0
 11
99.454872
 21
-180.449298
 31
0.0
  0
LINE
  8
2
  5
802
 10
93.954872
 20
-183.249298
 30
0.0
 11
93.954872
 21
-180.749298
 31
0.0
  0
LINE
  8
2
  5
803
 10
92.954872
 20
-183.249298
 30
0.0
 11
92.954872
 21
-180.749298
 31
0.0
  0
LINE
  8
2
  5
804
 10
89.580542
 20
-183.249298
 30
0.0
 11
89.580542
 21
-180.749298
 31
0.0
  0
LINE
  8
2
  5
805
 10
88.873435
 20
-183.249298
 30
0.0
 11
88.873435
 21
-180.749298
 31
0.0
  0
LINE
  8
2
  5
806
 10
87.454872
 20
-183.249298
 30
0.0
 11
87.454872
 21
-180.449298
 31
0.0
  0
LINE
  8
2
  5
807
 10
87.475742
 20
-183.249298
 30
0.0
 11
87.475742
 21
-180.749298
 31
0.0
  0
LINE
  8
2
  5
808
 10
98.036309
 20
-180.749298
 30
0.0
 11
99.454872
 21
-180.749298
 31
0.0
  0
LINE
  8
2
  5
809
 10
93.954872
 20
-180.749298
 30
0.0
 11
97.329202
 21
-180.749298
 31
0.0
  0
LINE
  8
2
  5
80A
 10
87.454872
 20
-180.749298
 30
0.0
 11
88.873435
 21
-180.749298
 31
0.0
  0
LINE
  8
2
  5
80B
 10
89.580542
 20
-180.749298
 30
0.0
 11
92.954872
 21
-180.749298
 31
0.0
  0
LINE
  8
2
  5
80C
 10
98.036309
 20
-183.249298
 30
0.0
 11
99.454872
 21
-183.249298
 31
0.0
  0
LINE
  8
2
  5
80D
 10
93.954872
 20
-183.249298
 30
0.0
 11
97.329202
 21
-183.249298
 31
0.0
  0
LINE
  8
2
  5
80E
 10
87.454872
 20
-183.249298
 30
0.0
 11
88.873435
 21
-183.249298
 31
0.0
  0
LINE
  8
2
  5
80F
 10
89.580542
 20
-183.249298
 30
0.0
 11
92.954872
 21
-183.249298
 31
0.0
  0
ARC
  8
2
  5
810
 10
87.654872
 20
-180.449298
 30
0.0
 40
0.2
 50
90.0
 51
180.0
  0
ARC
  8
2
  5
811
 10
99.254872
 20
-180.449298
 30
0.0
 40
0.2
 50
0.0
 51
90.0
  0
ARC
  8
2
  5
812
 10
97.454872
 20
-184.749298
 30
0.0
 40
2.5
 50
0.0
 51
36.869898
  0
ARC
  8
2
  5
813
 10
89.454872
 20
-184.749298
 30
0.0
 40
2.5
 50
143.130102
 51
180.0
  0
LINE
  8
2
 62
     2
  5
814
 10
99.935613
 20
-197.249298
 30
0.0
 11
99.935613
 21
-184.749298
 31
0.0
  0
LINE
  8
2
 62
     2
  5
815
 10
98.391001
 20
-197.249298
 30
0.0
 11
98.391001
 21
-184.749298
 31
0.0
  0
LINE
  8
2
 62
     2
  5
816
 10
97.683894
 20
-197.249298
 30
0.0
 11
97.683894
 21
-184.749298
 31
0.0
  0
LINE
  8
2
 62
     2
  5
817
 10
93.954872
 20
-197.249298
 30
0.0
 11
93.954872
 21
-184.749298
 31
0.0
  0
LINE
  8
2
 62
     2
  5
818
 10
92.954872
 20
-197.249298
 30
0.0
 11
92.954872
 21
-184.749298
 31
0.0
  0
LINE
  8
2
 62
     2
  5
819
 10
89.22585
 20
-197.249298
 30
0.0
 11
89.22585
 21
-184.749298
 31
0.0
  0
LINE
  8
2
 62
     2
  5
81A
 10
88.518743
 20
-197.249298
 30
0.0
 11
88.518743
 21
-184.749298
 31
0.0
  0
LINE
  8
2
 62
     2
  5
81B
 10
86.974131
 20
-197.249298
 30
0.0
 11
86.974131
 21
-184.749298
 31
0.0
  0
LINE
  8
2
  5
81C
 10
99.204872
 20
-223.249298
 30
0.0
 11
99.204872
 21
-197.249298
 31
0.0
  0
LINE
  8
2
  5
81D
 10
87.704872
 20
-223.249298
 30
0.0
 11
87.704872
 21
-197.249298
 31
0.0
  0
ARC
  8
2
  5
81E
 10
96.329872
 20
-227.250146
 30
0.0
 40
4.791667
 50
53.130102
 51
126.869898
  0
ARC
  8
2
  5
81F
 10
90.579872
 20
-219.583479
 30
0.0
 40
4.791667
 50
233.130102
 51
306.869898
  0
ARC
  8
2
  5
820
 10
96.329872
 20
-219.583479
 30
0.0
 40
4.791667
 50
233.130102
 51
306.869898
  0
LINE
  8
2
  5
821
 10
93.454872
 20
-158.849298
 30
0.0
 11
99.204872
 21
-158.849298
 31
0.0
  0
LINE
  8
2
  5
822
 10
99.704872
 20
-159.349298
 30
0.0
 11
99.704872
 21
-173.849298
 31
0.0
  0
LINE
  8
2
  5
823
 10
99.704872
 20
-159.349298
 30
0.0
 11
99.204872
 21
-158.849298
 31
0.0
  0
LINE
  8
2
  5
824
 10
97.776025
 20
-159.349298
 30
0.0
 11
95.204872
 21
-159.349298
 31
0.0
  0
LINE
  8
2
  5
825
 10
99.526025
 20
-159.349298
 30
0.0
 11
99.526025
 21
-173.849298
 31
0.0
  0
LINE
  8
2
  5
826
 10
97.776025
 20
-159.349298
 30
0.0
 11
97.776025
 21
-173.849298
 31
0.0
  0
LINE
  8
2
  5
827
 10
95.204872
 20
-159.349298
 30
0.0
 11
95.204872
 21
-173.849298
 31
0.0
  0
LINE
  8
2
  5
828
 10
99.704872
 20
-159.349298
 30
0.0
 11
99.526025
 21
-159.349298
 31
0.0
  0
ARC
  8
2
  5
829
 10
93.454872
 20
-165.349298
 30
0.0
 40
6.25
 50
73.739795
 51
90.0
  0
ARC
  8
2
  5
82A
 10
98.651025
 20
-160.755548
 30
0.0
 40
1.65625
 50
58.109208
 51
121.890792
  0
LINE
  8
2
  5
82B
 10
93.454872
 20
-158.849298
 30
0.0
 11
87.704872
 21
-158.849298
 31
0.0
  0
LINE
  8
2
  5
82C
 10
87.204872
 20
-159.349298
 30
0.0
 11
87.204872
 21
-173.849298
 31
0.0
  0
LINE
  8
2
  5
82D
 10
87.204872
 20
-159.349298
 30
0.0
 11
87.704872
 21
-158.849298
 31
0.0
  0
LINE
  8
2
  5
82E
 10
89.13372
 20
-159.349298
 30
0.0
 11
91.704872
 21
-159.349298
 31
0.0
  0
LINE
  8
2
  5
82F
 10
87.38372
 20
-159.349298
 30
0.0
 11
87.38372
 21
-173.849298
 31
0.0
  0
LINE
  8
2
  5
830
 10
89.13372
 20
-159.349298
 30
0.0
 11
89.13372
 21
-173.849298
 31
0.0
  0
LINE
  8
2
  5
831
 10
91.704872
 20
-159.349298
 30
0.0
 11
91.704872
 21
-173.849298
 31
0.0
  0
LINE
  8
2
  5
832
 10
87.204872
 20
-159.349298
 30
0.0
 11
87.38372
 21
-159.349298
 31
0.0
  0
ARC
  8
2
  5
833
 10
93.454872
 20
-165.349298
 30
0.0
 40
6.25
 50
90.0
 51
106.260205
  0
ARC
  8
2
  5
834
 10
88.25872
 20
-160.755548
 30
0.0
 40
1.65625
 50
58.109208
 51
121.890792
  0
LINE
  8
2
  5
835
 10
93.454872
 20
-174.349298
 30
0.0
 11
99.204872
 21
-174.349298
 31
0.0
  0
LINE
  8
2
  5
836
 10
99.704872
 20
-173.849298
 30
0.0
 11
99.204872
 21
-174.349298
 31
0.0
  0
LINE
  8
2
  5
837
 10
97.776025
 20
-173.849298
 30
0.0
 11
95.204872
 21
-173.849298
 31
0.0
  0
LINE
  8
2
  5
838
 10
99.704872
 20
-173.849298
 30
0.0
 11
99.526025
 21
-173.849298
 31
0.0
  0
ARC
  8
2
  5
839
 10
98.651025
 20
-172.443048
 30
0.0
 40
1.65625
 50
238.109208
 51
301.890792
  0
ARC
  8
2
  5
83A
 10
93.454872
 20
-167.849298
 30
0.0
 40
6.25
 50
270.0
 51
286.260205
  0
LINE
  8
2
  5
83B
 10
93.454872
 20
-174.349298
 30
0.0
 11
87.704872
 21
-174.349298
 31
0.0
  0
LINE
  8
2
  5
83C
 10
87.204872
 20
-173.849298
 30
0.0
 11
87.704872
 21
-174.349298
 31
0.0
  0
LINE
  8
2
  5
83D
 10
89.13372
 20
-173.849298
 30
0.0
 11
91.704872
 21
-173.849298
 31
0.0
  0
LINE
  8
2
  5
83E
 10
87.204872
 20
-173.849298
 30
0.0
 11
87.38372
 21
-173.849298
 31
0.0
  0
ARC
  8
2
  5
83F
 10
88.25872
 20
-172.443048
 30
0.0
 40
1.65625
 50
238.109208
 51
301.890792
  0
ARC
  8
2
  5
840
 10
93.454872
 20
-167.849298
 30
0.0
 40
6.25
 50
253.739795
 51
270.0
  0
LINE
  8
2
  5
841
 10
87.454872
 20
-179.960623
 30
0.0
 11
87.454872
 21
-174.637973
 31
0.0
  0
LINE
  8
2
  5
842
 10
99.454872
 20
-179.960623
 30
0.0
 11
99.454872
 21
-174.637973
 31
0.0
  0
LINE
  8
2
  5
843
 10
95.852788
 20
-174.637973
 30
0.0
 11
95.852788
 21
-179.960623
 31
0.0
  0
LINE
  8
2
  5
844
 10
97.019054
 20
-174.637973
 30
0.0
 11
97.019054
 21
-179.960623
 31
0.0
  0
LINE
  8
2
  5
845
 10
99.41697
 20
-174.637973
 30
0.0
 11
99.41697
 21
-179.960623
 31
0.0
  0
LINE
  8
2
  5
846
 10
98.954872
 20
-174.349298
 30
0.0
 11
87.954872
 21
-174.349298
 31
0.0
  0
LINE
  8
2
  5
847
 10
98.954872
 20
-180.249298
 30
0.0
 11
99.454872
 21
-179.960623
 31
0.0
  0
LINE
  8
2
  5
848
 10
97.019054
 20
-179.960623
 30
0.0
 11
95.852788
 21
-179.960623
 31
0.0
  0
LINE
  8
2
  5
849
 10
87.454872
 20
-179.960623
 30
0.0
 11
87.954872
 21
-180.249298
 31
0.0
  0
LINE
  8
2
  5
84A
 10
87.454872
 20
-174.637973
 30
0.0
 11
87.954872
 21
-174.349298
 31
0.0
  0
ARC
  8
2
  5
84B
 10
93.454872
 20
-170.145668
 30
0.0
 40
10.10363
 50
270.0
 51
283.729133
  0
ARC
  8
2
  5
84C
 10
93.454872
 20
-184.452927
 30
0.0
 40
10.10363
 50
76.270867
 51
90.0
  0
LINE
  8
2
  5
84D
 10
97.019054
 20
-174.637973
 30
0.0
 11
95.852788
 21
-174.637973
 31
0.0
  0
LINE
  8
2
  5
84E
 10
99.454872
 20
-179.960623
 30
0.0
 11
99.41697
 21
-179.960623
 31
0.0
  0
ARC
  8
2
  5
84F
 10
98.218012
 20
-177.615137
 30
0.0
 40
2.634161
 50
242.924933
 51
297.075067
  0
ARC
  8
2
  5
850
 10
98.218012
 20
-176.983458
 30
0.0
 40
2.634161
 50
62.924933
 51
117.075067
  0
LINE
  8
2
  5
851
 10
98.954872
 20
-174.349298
 30
0.0
 11
99.454872
 21
-174.637973
 31
0.0
  0
LINE
  8
2
  5
852
 10
99.454872
 20
-174.637973
 30
0.0
 11
99.41697
 21
-174.637973
 31
0.0
  0
ARC
  8
2
  5
853
 10
93.454872
 20
-170.145668
 30
0.0
 40
10.10363
 50
256.270867
 51
270.0
  0
LINE
  8
2
  5
854
 10
89.89069
 20
-179.960623
 30
0.0
 11
91.056956
 21
-179.960623
 31
0.0
  0
LINE
  8
2
  5
855
 10
91.056957
 20
-174.637973
 30
0.0
 11
91.056956
 21
-179.960623
 31
0.0
  0
LINE
  8
2
  5
856
 10
89.89069
 20
-174.637973
 30
0.0
 11
89.89069
 21
-179.960623
 31
0.0
  0
ARC
  8
2
  5
857
 10
88.691732
 20
-177.615137
 30
0.0
 40
2.634161
 50
242.924933
 51
297.075067
  0
LINE
  8
2
  5
858
 10
87.492774
 20
-174.637973
 30
0.0
 11
87.492774
 21
-179.960623
 31
0.0
  0
LINE
  8
2
  5
859
 10
87.492774
 20
-179.960623
 30
0.0
 11
87.454872
 21
-179.960623
 31
0.0
  0
ARC
  8
2
  5
85A
 10
93.454872
 20
-184.452927
 30
0.0
 40
10.10363
 50
90.0
 51
103.729133
  0
LINE
  8
2
  5
85B
 10
89.89069
 20
-174.637973
 30
0.0
 11
91.056956
 21
-174.637973
 31
0.0
  0
ARC
  8
2
  5
85C
 10
88.691732
 20
-176.983458
 30
0.0
 40
2.634161
 50
62.924933
 51
117.075067
  0
LINE
  8
2
  5
85D
 10
87.654872
 20
-180.249298
 30
0.0
 11
99.254872
 21
-180.249298
 31
0.0
  0
LINE
  8
2
  5
85E
 10
99.954872
 20
-197.249298
 30
0.0
 11
86.954872
 21
-197.249298
 31
0.0
  0
LINE
  8
2
  5
85F
 10
99.954872
 20
-197.249298
 30
0.0
 11
99.954872
 21
-184.749298
 31
0.0
  0
LINE
  8
2
  5
860
 10
86.954872
 20
-197.249298
 30
0.0
 11
86.954872
 21
-184.749298
 31
0.0
  0
LINE
  8
2
  5
861
 10
97.329202
 20
-183.249298
 30
0.0
 11
97.329202
 21
-180.749298
 31
0.0
  0
LINE
  8
2
  5
862
 10
98.036309
 20
-183.249298
 30
0.0
 11
98.036309
 21
-180.749298
 31
0.0
  0
LINE
  8
2
  5
863
 10
99.434002
 20
-183.249298
 30
0.0
 11
99.434002
 21
-180.749298
 31
0.0
  0
LINE
  8
2
  5
864
 10
99.454872
 20
-183.249298
 30
0.0
 11
99.454872
 21
-180.449298
 31
0.0
  0
LINE
  8
2
  5
865
 10
93.954872
 20
-183.249298
 30
0.0
 11
93.954872
 21
-180.749298
 31
0.0
  0
LINE
  8
2
  5
866
 10
92.954872
 20
-183.249298
 30
0.0
 11
92.954872
 21
-180.749298
 31
0.0
  0
LINE
  8
2
  5
867
 10
89.580542
 20
-183.249298
 30
0.0
 11
89.580542
 21
-180.749298
 31
0.0
  0
LINE
  8
2
  5
868
 10
88.873435
 20
-183.249298
 30
0.0
 11
88.873435
 21
-180.749298
 31
0.0
  0
LINE
  8
2
  5
869
 10
87.454872
 20
-183.249298
 30
0.0
 11
87.454872
 21
-180.449298
 31
0.0
  0
LINE
  8
2
  5
86A
 10
87.475742
 20
-183.249298
 30
0.0
 11
87.475742
 21
-180.749298
 31
0.0
  0
LINE
  8
2
  5
86B
 10
98.036309
 20
-180.749298
 30
0.0
 11
99.454872
 21
-180.749298
 31
0.0
  0
LINE
  8
2
  5
86C
 10
93.954872
 20
-180.749298
 30
0.0
 11
97.329202
 21
-180.749298
 31
0.0
  0
LINE
  8
2
  5
86D
 10
87.454872
 20
-180.749298
 30
0.0
 11
88.873435
 21
-180.749298
 31
0.0
  0
LINE
  8
2
  5
86E
 10
89.580542
 20
-180.749298
 30
0.0
 11
92.954872
 21
-180.749298
 31
0.0
  0
LINE
  8
2
  5
86F
 10
98.036309
 20
-183.249298
 30
0.0
 11
99.454872
 21
-183.249298
 31
0.0
  0
LINE
  8
2
  5
870
 10
93.954872
 20
-183.249298
 30
0.0
 11
97.329202
 21
-183.249298
 31
0.0
  0
LINE
  8
2
  5
871
 10
87.454872
 20
-183.249298
 30
0.0
 11
88.873435
 21
-183.249298
 31
0.0
  0
LINE
  8
2
  5
872
 10
89.580542
 20
-183.249298
 30
0.0
 11
92.954872
 21
-183.249298
 31
0.0
  0
ARC
  8
2
  5
873
 10
87.654872
 20
-180.449298
 30
0.0
 40
0.2
 50
90.0
 51
180.0
  0
ARC
  8
2
  5
874
 10
99.254872
 20
-180.449298
 30
0.0
 40
0.2
 50
0.0
 51
90.0
  0
ARC
  8
2
  5
875
 10
97.454872
 20
-184.749298
 30
0.0
 40
2.5
 50
0.0
 51
36.869898
  0
ARC
  8
2
  5
876
 10
89.454872
 20
-184.749298
 30
0.0
 40
2.5
 50
143.130102
 51
180.0
  0
LINE
  8
2
 62
     2
  5
877
 10
99.935613
 20
-197.249298
 30
0.0
 11
99.935613
 21
-184.749298
 31
0.0
  0
LINE
  8
2
 62
     2
  5
878
 10
98.391001
 20
-197.249298
 30
0.0
 11
98.391001
 21
-184.749298
 31
0.0
  0
LINE
  8
2
 62
     2
  5
879
 10
97.683894
 20
-197.249298
 30
0.0
 11
97.683894
 21
-184.749298
 31
0.0
  0
LINE
  8
2
 62
     2
  5
87A
 10
93.954872
 20
-197.249298
 30
0.0
 11
93.954872
 21
-184.749298
 31
0.0
  0
LINE
  8
2
 62
     2
  5
87B
 10
92.954872
 20
-197.249298
 30
0.0
 11
92.954872
 21
-184.749298
 31
0.0
  0
LINE
  8
2
 62
     2
  5
87C
 10
89.22585
 20
-197.249298
 30
0.0
 11
89.22585
 21
-184.749298
 31
0.0
  0
LINE
  8
2
 62
     2
  5
87D
 10
88.518743
 20
-197.249298
 30
0.0
 11
88.518743
 21
-184.749298
 31
0.0
  0
LINE
  8
2
 62
     2
  5
87E
 10
86.974131
 20
-197.249298
 30
0.0
 11
86.974131
 21
-184.749298
 31
0.0
  0
LINE
  8
2
  5
87F
 10
99.204872
 20
-223.249298
 30
0.0
 11
99.204872
 21
-197.249298
 31
0.0
  0
LINE
  8
2
  5
880
 10
87.704872
 20
-223.249298
 30
0.0
 11
87.704872
 21
-197.249298
 31
0.0
  0
ARC
  8
2
  5
881
 10
96.329872
 20
-227.250146
 30
0.0
 40
4.791667
 50
53.130102
 51
126.869898
  0
ARC
  8
2
  5
882
 10
90.579872
 20
-219.583479
 30
0.0
 40
4.791667
 50
233.130102
 51
306.869898
  0
ARC
  8
2
  5
883
 10
96.329872
 20
-219.583479
 30
0.0
 40
4.791667
 50
233.130102
 51
306.869898
  0
LINE
  8
2
  5
884
 10
80.454872
 20
138.875702
 30
0.0
 11
80.454872
 21
167.650702
 31
0.0
  0
LINE
  8
2
  5
885
 10
80.954872
 20
168.150702
 30
0.0
 11
80.454872
 21
167.650702
 31
0.0
  0
LINE
  8
2
  5
886
 10
114.954872
 20
168.150702
 30
0.0
 11
115.454872
 21
167.650702
 31
0.0
  0
LINE
  8
2
  5
887
 10
115.454872
 20
189.500702
 30
0.0
 11
115.454872
 21
190.250702
 31
0.0
  0
LINE
  8
2
  5
888
 10
115.454872
 20
183.000702
 30
0.0
 11
115.454872
 21
182.250702
 31
0.0
  0
LINE
  8
2
  5
889
 10
115.454872
 20
189.250702
 30
0.0
 11
115.454872
 21
193.250702
 31
0.0
  0
POINT
  8
2
  5
88A
 10
97.954872
 20
175.550703
 30
0.0
  0
POINT
  8
2
  5
88B
 10
97.954872
 20
167.850702
 30
0.0
  0
LINE
  8
2
  5
88C
 10
114.954872
 20
168.150702
 30
0.0
 11
97.954872
 21
168.150702
 31
0.0
  0
ARC
  8
2
  5
88D
 10
139.455928
 20
167.891965
 30
0.0
 40
56.0
 50
178.814366
 51
179.735275
  0
ARC
  8
2
  5
88E
 10
56.453816
 20
167.391965
 30
0.0
 40
56.0
 50
6.401069
 51
7.513384
  0
ARC
  8
2
  5
88F
 10
56.453816
 20
167.391965
 30
0.0
 40
56.0
 50
0.776317
 51
6.401069
  0
LINE
  8
2
  5
890
 10
114.454872
 20
194.050702
 30
0.0
 11
81.454872
 21
194.050702
 31
0.0
  0
ARC
  8
2
  5
891
 10
114.454872
 20
193.050702
 30
0.0
 40
1.0
 50
360.0
 51
90.0
  0
ARC
  8
2
  5
892
 10
81.454872
 20
193.050702
 30
0.0
 40
1.0
 50
90.0
 51
180.0
  0
LINE
  8
2
  5
893
 10
80.454872
 20
193.050702
 30
0.0
 11
80.454872
 21
190.050702
 31
0.0
  0
POINT
  8
2
  5
894
 10
97.954872
 20
180.750223
 30
0.0
  0
LINE
  8
2
  5
895
 10
97.954872
 20
169.050702
 30
0.0
 11
115.454872
 21
176.121161
 31
0.0
  0
LINE
  8
2
  5
896
 10
115.454872
 20
176.121161
 30
0.0
 11
115.454872
 21
183.050702
 31
0.0
  0
LINE
  8
2
  5
897
 10
115.454872
 20
189.050702
 30
0.0
 11
115.454872
 21
193.050702
 31
0.0
  0
ARC
  8
2
  5
898
 10
109.526669
 20
186.050702
 30
0.0
 40
8.0
 50
360.0
 51
30.0
  0
LINE
  8
2
  5
899
 10
116.454872
 20
190.050702
 30
0.0
 11
115.454872
 21
190.050702
 31
0.0
  0
ARC
  8
2
  5
89A
 10
109.526669
 20
186.050702
 30
0.0
 40
8.0
 50
330.0
 51
360.0
  0
LINE
  8
2
  5
89B
 10
116.454872
 20
182.050702
 30
0.0
 11
115.454872
 21
182.050702
 31
0.0
  0
LINE
  8
2
  5
89C
 10
115.454872
 20
190.050702
 30
0.0
 11
115.454872
 21
189.050702
 31
0.0
  0
LINE
  8
2
  5
89D
 10
115.454872
 20
182.050702
 30
0.0
 11
115.454872
 21
183.050702
 31
0.0
  0
LINE
  8
2
  5
89E
 10
80.954872
 20
168.150702
 30
0.0
 11
97.954872
 21
168.150702
 31
0.0
  0
LINE
  8
2
  5
89F
 10
80.454872
 20
167.650702
 30
0.0
 11
115.454872
 21
167.650702
 31
0.0
  0
POINT
  8
2
  5
8A0
 10
97.954872
 20
194.050702
 30
0.0
  0
ARC
  8
2
  5
8A1
 10
-314.452202
 20
168.391965
 30
0.0
 40
56.0
 50
179.326005
 51
180.246846
  0
ARC
  8
2
  5
8A2
 10
-397.454315
 20
167.891965
 30
0.0
 40
56.0
 50
0.264725
 51
1.185634
  0
ARC
  8
2
  5
8A3
 10
374.122119
 20
168.391965
 30
0.0
 40
56.0
 50
173.468627
 51
180.246846
  0
ARC
  8
2
  5
8A4
 10
291.120007
 20
167.891965
 30
0.0
 40
56.0
 50
0.264725
 51
1.185634
  0
TEXT
  8
3
  5
8A5
 10
-406.802292
 20
-93.373907
 30
0.0
 40
10.5
  1
取付穴径　φ３７±１
 50
90.0
 72
     5
 11
-406.802292
 21
9.526093
 31
0.0
  0
POINT
  8
3
  5
8A6
 10
97.954872
 20
-99.221298
 30
0.0
  0
LINE
  8
3
  5
8A7
 10
115.454872
 20
66.278528
 30
0.0
 11
115.454872
 21
62.278528
 31
0.0
  0
TEXT
  8
3
  5
8A8
 10
13.925188
 20
168.563061
 30
0.0
 40
10.5
  1
止水
 72
     5
 11
32.825188
 21
168.563061
 31
0.0
  0
TEXT
  8
3
  5
8A9
 10
40.760565
 20
219.098534
 30
0.0
 40
10.5
  1
吐水
 72
     5
 11
59.660565
 21
219.098534
 31
0.0
  0
POINT
  8
3
  5
8AA
 10
34.89221
 20
217.878901
 30
0.0
  0
POINT
  8
3
  5
8AB
 10
123.545754
 20
186.374683
 30
0.0
  0
TEXT
  8
3
  5
8AC
 10
115.30648
 20
333.43119
 30
0.0
 40
10.5
  1
湯表示
 72
     5
 11
144.70648
 21
333.43119
 31
0.0
  0
POLYLINE
  8
3
 62
     2
  5
8AD
 66
     1
 10
0.0
 20
0.0
 30
0.0
  0
VERTEX
  8
3
 62
     2
  5
A81
 10
102.171635
 20
321.063094
 30
0.0
  0
VERTEX
  8
3
 62
     2
  5
A82
 10
113.6684
 20
334.707808
 30
0.0
  0
SEQEND
  8
3
 62
     2
  5
A83
  0
LINE
  8
3
 62
     2
  5
8B1
 10
105.90599
 20
325.495141
 30
0.0
 11
104.718426
 21
326.495759
 31
0.0
  0
LINE
  8
3
 62
     2
  5
8B2
 10
104.718426
 20
326.495759
 30
0.0
 11
102.171635
 21
321.063094
 31
0.0
  0
LINE
  8
3
 62
     2
  5
8B3
 10
102.171635
 20
321.063094
 30
0.0
 11
107.093554
 21
324.494524
 31
0.0
  0
LINE
  8
3
 62
     2
  5
8B4
 10
107.093554
 20
324.494524
 30
0.0
 11
105.90599
 21
325.495141
 31
0.0
  0
TEXT
  8
3
  5
8B5
 10
116.202175
 20
270.022636
 30
0.0
 40
10.5
  1
水表示
 72
     5
 11
145.602175
 21
270.022636
 31
0.0
  0
POLYLINE
  8
3
 62
     2
  5
8B6
 66
     1
 10
0.0
 20
0.0
 30
0.0
  0
VERTEX
  8
3
 62
     2
  5
A84
 10
102.890148
 20
293.568373
 30
0.0
  0
VERTEX
  8
3
 62
     2
  5
A85
 10
114.900143
 20
278.076964
 30
0.0
  0
SEQEND
  8
3
 62
     2
  5
A86
  0
LINE
  8
3
 62
     2
  5
8BA
 10
106.441108
 20
288.988074
 30
0.0
 11
107.668395
 21
289.939551
 31
0.0
  0
LINE
  8
3
 62
     2
  5
8BB
 10
107.668395
 20
289.939551
 30
0.0
 11
102.890148
 21
293.568373
 31
0.0
  0
LINE
  8
3
 62
     2
  5
8BC
 10
102.890148
 20
293.568373
 30
0.0
 11
105.21382
 21
288.036597
 31
0.0
  0
LINE
  8
3
 62
     2
  5
8BD
 10
105.21382
 20
288.036597
 30
0.0
 11
106.441108
 21
288.988074
 31
0.0
  0
TEXT
  8
3
  5
8BE
 10
343.996307
 20
-408.501572
 30
0.0
 40
10.5
  1
外観寸法図
 72
     5
 11
394.396307
 21
-408.501572
 31
0.0
  0
TEXT
  8
3
  5
8BF
 10
433.673767
 20
-359.558281
 30
0.0
 40
10.5
  1
１
 72
     5
 11
442.073767
 21
-359.558281
 31
0.0
  0
DIMENSION
  8
3
 62
     2
  5
8C0
  2
*D0
 10
-12.517156
 20
94.607055
 30
0.0
 11
-3.704009
 21
57.424379
 31
0.0
 70
     2
 13
-12.519272
 23
94.607826
 33
0.0
 14
-12.517156
 24
94.610348
 34
0.0
 15
-12.517156
 25
94.610348
 35
0.0
 16
-23.779574
 26
63.667109
 36
0.0
  3
Standard
1001
ACAD
1000
DSTYLE
1002
{
1070
   275
1070
     0
1070
   179
1070
     0
1002
}
  0
TEXT
  8
3
  5
8C1
 10
103.750313
 20
211.455184
 30
0.0
 40
10.5
  1
２６
 72
     5
 11
122.650313
 21
211.455184
 31
0.0
  0
DIMENSION
  8
3
 62
     2
  5
8C2
  2
*D1
 10
123.545754
 20
210.455184
 30
0.0
 11
110.750313
 21
212.455184
 31
0.0
 13
97.954872
 23
196.385756
 33
0.0
 14
123.545754
 24
186.374683
 34
0.0
  3
Standard
  0
DIMENSION
  8
3
 62
     2
  5
8C3
  2
*D2
 10
-331.953258
 20
-82.12393
 30
0.0
 11
-304.203258
 21
-75.37393
 31
0.0
 70
     1
 13
-379.953258
 23
-102.349298
 33
0.0
 14
-331.953258
 24
-102.349298
 34
0.0
  3
Standard
  0
LINE
  8
3
 62
     2
  5
8C4
 10
-386.541258
 20
-123.849298
 30
0.0
 11
-422.71006
 21
-123.849298
 31
0.0
  0
LINE
  8
3
 62
     2
  5
8C5
 10
-419.71006
 20
-123.849298
 30
0.0
 11
-421.262974
 21
-129.644853
 31
0.0
  0
LINE
  8
3
 62
     2
  5
8C6
 10
-419.71006
 20
-123.849298
 30
0.0
 11
-418.157146
 21
-129.644853
 31
0.0
  0
LINE
  8
3
 62
     2
  5
8C7
 10
-421.262974
 20
-129.644853
 30
0.0
 11
-418.157146
 21
-129.644853
 31
0.0
  0
LINE
  8
3
 62
     2
  5
8C8
 10
-419.71006
 20
-138.849298
 30
0.0
 11
-419.71006
 21
8.822823
 31
0.0
  0
LINE
  8
3
 62
     2
  5
8C9
 10
-419.71006
 20
-105.849298
 30
0.0
 11
-418.157146
 21
-100.053743
 31
0.0
  0
LINE
  8
3
 62
     2
  5
8CA
 10
-419.71006
 20
-105.849298
 30
0.0
 11
-421.262974
 21
-100.053743
 31
0.0
  0
LINE
  8
3
 62
     2
  5
8CB
 10
-418.157146
 20
-100.053743
 30
0.0
 11
-421.262974
 21
-100.053743
 31
0.0
  0
LINE
  8
3
 62
     2
  5
8CC
 10
-382.453258
 20
-105.849298
 30
0.0
 11
-422.71006
 21
-105.849298
 31
0.0
  0
TEXT
  8
3
  5
8CD
 10
-421.21006
 20
-93.849298
 30
0.0
 40
10.5
  1
０～２５
 50
90.0
 72
     5
 11
-421.21006
 21
-53.949298
 31
0.0
  0
TEXT
  8
3
  5
8CE
 10
-307.957451
 20
-150.516918
 30
0.0
 40
10.5
  1
４６六角
 72
     5
 11
-268.057451
 21
-150.516918
 31
0.0
  0
POLYLINE
  8
3
 62
     2
  5
8CF
 66
     1
 10
0.0
 20
0.0
 30
0.0
  0
VERTEX
  8
3
 62
     2
  5
A87
 10
-330.893402
 20
-133.70137
 30
0.0
  0
VERTEX
  8
3
 62
     2
  5
A88
 10
-306.74614
 20
-151.484264
 30
0.0
  0
VERTEX
  8
3
 62
     2
  5
A89
 10
-265.60051
 20
-151.484264
 30
0.0
  0
SEQEND
  8
3
 62
     2
  5
A8A
  0
LINE
  8
3
 62
     2
  5
8D4
 10
-326.22675
 20
-137.138057
 30
0.0
 11
-325.305893
 21
-135.887631
 31
0.0
  0
LINE
  8
3
 62
     2
  5
8D5
 10
-325.305893
 20
-135.887631
 30
0.0
 11
-330.893402
 21
-133.70137
 31
0.0
  0
LINE
  8
3
 62
     2
  5
8D6
 10
-330.893402
 20
-133.70137
 30
0.0
 11
-327.147608
 21
-138.388483
 31
0.0
  0
LINE
  8
3
 62
     2
  5
8D7
 10
-327.147608
 20
-138.388483
 30
0.0
 11
-326.22675
 21
-137.138057
 31
0.0
  0
LINE
  8
3
  6
CENTER
 62
     2
  5
8D8
 10
97.954872
 20
-142.785699
 30
0.0
 11
97.954872
 21
197.546677
 31
0.0
  0
TEXT
  8
3
  5
8D9
 10
26.968858
 20
-153.182636
 30
0.0
 40
10.5
  1
１１０
 72
     5
 11
56.368858
 21
-153.182636
 31
0.0
  0
DIMENSION
  8
3
 62
     2
  5
8DA
  2
*D3
 10
97.954872
 20
-154.682636
 30
0.0
 11
42.718858
 21
-152.682636
 31
0.0
 13
-12.517156
 23
94.610348
 33
0.0
 14
97.954872
 24
-94.295053
 34
0.0
  3
Standard
  0
TEXT
  8
3
  5
8DB
 10
-48.292437
 20
-21.369475
 30
0.0
 40
10.5
  1
２００
 50
90.0
 72
     5
 11
-48.292437
 21
8.030525
 31
0.0
  0
DIMENSION
  8
3
 62
     2
  5
8DC
  2
*D4
 10
-46.792437
 20
94.610348
 30
0.0
 11
-49.292437
 21
-5.619475
 31
0.0
 13
74.454872
 23
-105.849298
 33
0.0
 14
-12.517156
 24
94.610348
 34
0.0
 50
90.0
  3
Standard
  0
TEXT
  8
3
  5
8DD
 10
-94.67997
 20
40.264802
 30
0.0
 40
10.5
  1
３２４
 50
90.0
 72
     5
 11
-94.67997
 21
69.664802
 31
0.0
  0
DIMENSION
  8
3
 62
     2
  5
8DE
  2
*D5
 10
-93.17997
 20
217.878901
 30
0.0
 11
-95.67997
 21
56.014802
 31
0.0
 13
74.454872
 23
-105.849298
 33
0.0
 14
34.89221
 24
217.878901
 34
0.0
 50
90.0
  3
Standard
  0
DIMENSION
  8
3
 62
     2
  5
8DF
  2
*D6
 10
28.729514
 20
190.750702
 30
0.0
 11
21.634179
 21
222.424188
 31
0.0
 70
     2
 13
56.775984
 23
209.037283
 33
0.0
 14
102.036859
 24
190.750702
 34
0.0
 15
102.036859
 25
190.750702
 35
0.0
 16
20.101378
 26
206.677346
 36
0.0
  3
Standard
1001
ACAD
1000
DSTYLE
1002
{
1070
   275
1070
     0
1070
   179
1070
     0
1002
}
  0
TEXT
  8
3
  5
8E0
 10
456.286835
 20
-359.769493
 30
0.0
 40
10.5
  1
３
 72
     5
 11
464.686835
 21
-359.769493
 31
0.0
  0
DIMENSION
  8
3
 62
     2
  5
8E1
  2
*D7
 10
115.454872
 20
152.028477
 30
0.0
 11
143.204872
 21
158.778477
 31
0.0
 70
     1
 13
80.454872
 23
152.028477
 33
0.0
 14
115.454872
 24
152.028477
 34
0.0
  3
Standard
  0
DIMENSION
  8
3
 62
     2
  5
8E2
  2
*D8
 10
49.571863
 20
258.868072
 30
0.0
 11
11.784601
 21
323.001082
 31
0.0
 70
     2
 13
50.635465
 23
354.570489
 33
0.0
 14
97.954872
 24
307.251082
 34
0.0
 15
97.954872
 25
307.251082
 35
0.0
 16
13.284601
 26
307.251082
 36
0.0
  3
Standard
1001
ACAD
1000
DSTYLE
1002
{
1070
   275
1070
     0
1070
   179
1070
     0
1002
}
  0
TEXT
  8
3
  5
8E3
 10
10.489413
 20
319.87262
 30
0.0
 40
10.5
  1
ハンドル回転角度
 50
90.0
 72
     5
 11
10.489413
 21
401.77262
 31
0.0
  0
TEXT
  8
3
  5
8E4
 10
97.327068
 20
-343.255119
 30
0.0
 40
10.5
  1
台付シングルレバー湯水混合水栓（共）
 72
     5
 11
284.227068
 21
-343.255119
 31
0.0
  0
TEXT
  8
3
  5
8E5
 10
97.327068
 20
-355.255119
 30
0.0
 40
10.5
  1
ＭＬＺ５５２ＬＭＭ
 72
     5
 11
189.727068
 21
-355.255119
 31
0.0
  0
TEXT
  8
3
  5
8E6
 10
-269.697573
 20
-285.048046
 30
0.0
 40
10.5
  1
（給水接続の
 72
     5
 11
-208.797573
 21
-285.048046
 31
0.0
  0
TEXT
  8
3
  5
8E7
 10
-269.20373
 20
-297.561077
 30
0.0
 40
10.5
  1
　　　表示）
 72
     5
 11
-208.30373
 21
-297.561077
 31
0.0
  0
TEXT
  8
3
  5
8E8
 10
-267.892853
 20
-272.515565
 30
0.0
 40
10.5
  1
青色
 72
     5
 11
-248.992853
 21
-272.515565
 31
0.0
  0
POLYLINE
  8
3
 62
     2
  5
8E9
 66
     1
 10
0.0
 20
0.0
 30
0.0
  0
VERTEX
  8
3
 62
     2
  5
A8B
 10
-287.757685
 20
-277.964807
 30
0.0
  0
VERTEX
  8
3
 62
     2
  5
A8C
 10
-278.595765
 20
-268.062974
 30
0.0
  0
VERTEX
  8
3
 62
     2
  5
A8D
 10
-269.249062
 20
-268.062974
 30
0.0
  0
SEQEND
  8
3
 62
     2
  5
A8E
  0
LINE
  8
3
 62
     2
  5
8EE
 10
-283.821629
 20
-273.710877
 30
0.0
 11
-284.961466
 21
-272.656214
 31
0.0
  0
LINE
  8
3
 62
     2
  5
8EF
 10
-284.961466
 20
-272.656214
 30
0.0
 11
-287.757685
 21
-277.964807
 31
0.0
  0
LINE
  8
3
 62
     2
  5
8F0
 10
-287.757685
 20
-277.964807
 30
0.0
 11
-282.681792
 21
-274.76554
 31
0.0
  0
LINE
  8
3
 62
     2
  5
8F1
 10
-282.681792
 20
-274.76554
 30
0.0
 11
-283.821629
 21
-273.710877
 31
0.0
  0
TEXT
  8
3
  5
8F2
 10
-274.512577
 20
-336.816865
 30
0.0
 40
10.5
  1
Ｇ１/２
 72
     5
 11
-239.862577
 21
-336.816865
 31
0.0
  0
POLYLINE
  8
3
 62
     2
  5
8F3
 66
     1
 10
0.0
 20
0.0
 30
0.0
  0
VERTEX
  8
3
 62
     2
  5
A8F
 10
-283.947575
 20
-324.245601
 30
0.0
  0
VERTEX
  8
3
 62
     2
  5
A90
 10
-275.212399
 20
-337.764436
 30
0.0
  0
VERTEX
  8
3
 62
     2
  5
A91
 10
-237.459892
 20
-337.764436
 30
0.0
  0
SEQEND
  8
3
 62
     2
  5
A92
  0
LINE
  8
3
 62
     2
  5
8F8
 10
-280.802256
 20
-329.113396
 30
0.0
 11
-279.497934
 21
-328.27061
 31
0.0
  0
LINE
  8
3
 62
     2
  5
8F9
 10
-279.497934
 20
-328.27061
 30
0.0
 11
-283.947575
 21
-324.245601
 31
0.0
  0
LINE
  8
3
 62
     2
  5
8FA
 10
-283.947575
 20
-324.245601
 30
0.0
 11
-282.106578
 21
-329.956181
 31
0.0
  0
LINE
  8
3
 62
     2
  5
8FB
 10
-282.106578
 20
-329.956181
 30
0.0
 11
-280.802256
 21
-329.113396
 31
0.0
  0
TEXT
  8
3
  5
8FC
 10
-357.295721
 20
-324.416436
 30
0.0
 40
10.5
  1
２６六角
 72
     5
 11
-317.395721
 21
-324.416436
 31
0.0
  0
POLYLINE
  8
3
 62
     2
  5
8FD
 66
     1
 10
0.0
 20
0.0
 30
0.0
  0
VERTEX
  8
3
 62
     2
  5
A93
 10
-307.121617
 20
-316.969255
 30
0.0
  0
VERTEX
  8
3
 62
     2
  5
A94
 10
-315.063015
 20
-324.605287
 30
0.0
  0
VERTEX
  8
3
 62
     2
  5
A95
 10
-355.707962
 20
-324.605287
 30
0.0
  0
SEQEND
  8
3
 62
     2
  5
A96
  0
LINE
  8
3
 62
     2
  5
902
 10
-311.299225
 20
-320.986224
 30
0.0
 11
-310.222882
 21
-322.105611
 31
0.0
  0
LINE
  8
3
 62
     2
  5
903
 10
-310.222882
 20
-322.105611
 30
0.0
 11
-307.121617
 21
-316.969255
 31
0.0
  0
LINE
  8
3
 62
     2
  5
904
 10
-307.121617
 20
-316.969255
 30
0.0
 11
-312.375569
 21
-319.866837
 31
0.0
  0
LINE
  8
3
 62
     2
  5
905
 10
-312.375569
 20
-319.866837
 30
0.0
 11
-311.299225
 21
-320.986224
 31
0.0
  0
TEXT
  8
3
  5
906
 10
-469.615118
 20
-274.570853
 30
0.0
 40
10.5
  1
赤色
 72
     5
 11
-450.715118
 21
-274.570853
 31
0.0
  0
TEXT
  8
3
  5
907
 10
-510.892531
 20
-286.756033
 30
0.0
 40
10.5
  1
（給湯接続の
 72
     5
 11
-449.992531
 21
-286.756033
 31
0.0
  0
TEXT
  8
3
  5
908
 10
-510.443399
 20
-299.519024
 30
0.0
 40
10.5
  1
　　　表示）
 72
     5
 11
-449.543399
 21
-299.519024
 31
0.0
  0
TEXT
  8
3
  5
909
 10
-71.060589
 20
26.700702
 30
0.0
 40
10.5
  1
２９６
 50
90.0
 72
     5
 11
-71.060589
 21
56.100702
 31
0.0
  0
DIMENSION
  8
3
 62
     2
  5
90A
  2
*D9
 10
-69.560589
 20
190.750702
 30
0.0
 11
-72.060589
 21
42.450702
 31
0.0
 13
74.454872
 23
-105.849298
 33
0.0
 14
21.955049
 24
190.750702
 34
0.0
 50
90.0
  3
Standard
  0
TEXT
  8
3
  5
90B
 10
516.690811
 20
-383.787231
 30
0.0
 40
10.5
  1
１６　２　　３
 72
     5
 11
588.090811
 21
-383.787231
 31
0.0
  0
TEXT
  8
3
  5
90C
 10
484.65303
 20
-409.468369
 30
0.0
 40
15.75
  1
１１０１８１
 72
     5
 11
576.00303
 21
-409.468369
 31
0.0
  0
TEXT
  8
3
  5
90D
 10
-186.646133
 20
-264.047449
 30
0.0
 40
10.5
  1
３５６（水側、湯側）
 50
90.0
 72
     5
 11
-186.646134
 21
-161.147449
 31
0.0
  0
DIMENSION
  8
3
 62
     2
  5
90E
  2
*D10
 10
-185.146133
 20
-105.849298
 30
0.0
 11
-187.646133
 21
-211.547449
 31
0.0
 13
-293.265416
 23
-317.245601
 33
0.0
 14
-332.453258
 24
-105.849298
 34
0.0
 50
90.0
  3
Standard
  0
POLYLINE
  8
3
 62
     2
  5
90F
 66
     1
 10
0.0
 20
0.0
 30
0.0
  0
VERTEX
  8
3
 62
     2
  5
A97
 10
-425.141101
 20
-275.026657
 30
0.0
  0
VERTEX
  8
3
 62
     2
  5
A98
 10
-430.678711
 20
-268.863853
 30
0.0
  0
VERTEX
  8
3
 62
     2
  5
A99
 10
-446.090973
 20
-268.863853
 30
0.0
  0
SEQEND
  8
3
 62
     2
  5
A9A
  0
LINE
  8
3
 62
     2
  5
914
 10
-429.014677
 20
-270.715756
 30
0.0
 11
-430.16978
 21
-271.753678
 31
0.0
  0
LINE
  8
3
 62
     2
  5
915
 10
-430.16978
 20
-271.753678
 30
0.0
 11
-425.141101
 21
-275.026657
 31
0.0
  0
LINE
  8
3
 62
     2
  5
916
 10
-425.141101
 20
-275.026657
 30
0.0
 11
-427.859575
 21
-269.677835
 31
0.0
  0
LINE
  8
3
 62
     2
  5
917
 10
-427.859575
 20
-269.677835
 30
0.0
 11
-429.014677
 21
-270.715756
 31
0.0
  0
ENDSEC
  0
EOF
