  0
SECTION
  2
HEADER
  9
$ACADVER
  1
AC1015
  9
$ACADMAINTVER
 70
     6
  9
$DWGCODEPAGE
  3
ANSI_932
  9
$INSBASE
 10
0.0
 20
0.0
 30
0.0
  9
$EXTMIN
 10
-841.0
 20
-594.0
 30
1.000000E+20
  9
$EXTMAX
 10
841.0
 20
594.0
 30
-1.000000E+20
  9
$LIMMIN
 10
-841.0
 20
-594.0
  9
$LIMMAX
 10
841.0
 20
594.0
  9
$ORTHOMODE
 70
     0
  9
$REGENMODE
 70
     1
  9
$FILLMODE
 70
     1
  9
$QTEXTMODE
 70
     0
  9
$MIRRTEXT
 70
     1
  9
$LTSCALE
 40
1.0
  9
$ATTMODE
 70
     1
  9
$TEXTSIZE
 40
0.2
  9
$TRACEWID
 40
0.05
  9
$TEXTSTYLE
  7
STANDARD
  9
$CLAYER
  8
0
  9
$CELTYPE
  6
CONTINUOUS
  9
$CECOLOR
 62
   256
  9
$CELTSCALE
 40
1.0
  9
$DISPSILH
 70
     0
  9
$DIMSCALE
 40
2.0
  9
$DIMASZ
 40
2.0
  9
$DIMEXO
 40
1.0
  9
$DIMDLI
 40
0.38
  9
$DIMRND
 40
0.0
  9
$DIMDLE
 40
0.0
  9
$DIMEXE
 40
2.0
  9
$DIMTP
 40
0.0
  9
$DIMTM
 40
0.0
  9
$DIMTXT
 40
3.5
  9
$DIMCEN
 40
0.09
  9
$DIMTSZ
 40
0.0
  9
$DIMTOL
 70
     0
  9
$DIMLIM
 70
     0
  9
$DIMTIH
 70
     0
  9
$DIMTOH
 70
     0
  9
$DIMSE1
 70
     0
  9
$DIMSE2
 70
     0
  9
$DIMTAD
 70
     1
  9
$DIMZIN
 70
     0
  9
$DIMBLK
  1

  9
$DIMASO
 70
     1
  9
$DIMSHO
 70
     1
  9
$DIMPOST
  1

  9
$DIMAPOST
  1

  9
$DIMALT
 70
     0
  9
$DIMALTD
 70
     2
  9
$DIMALTF
 40
25.4
  9
$DIMLFAC
 40
1.0
  9
$DIMTOFL
 70
     0
  9
$DIMTVP
 40
0.0
  9
$DIMTIX
 70
     0
  9
$DIMSOXD
 70
     0
  9
$DIMSAH
 70
     0
  9
$DIMBLK1
  1

  9
$DIMBLK2
  1

  9
$DIMSTYLE
  2
Standard
  9
$DIMCLRD
 70
     0
  9
$DIMCLRE
 70
     0
  9
$DIMCLRT
 70
     0
  9
$DIMTFAC
 40
1.0
  9
$DIMGAP
 40
0.5
  9
$DIMJUST
 70
     0
  9
$DIMSD1
 70
     0
  9
$DIMSD2
 70
     0
  9
$DIMTOLJ
 70
     1
  9
$DIMTZIN
 70
     0
  9
$DIMALTZ
 70
     0
  9
$DIMALTTZ
 70
     0
  9
$DIMUPT
 70
     0
  9
$DIMDEC
 70
     3
  9
$DIMTDEC
 70
     4
  9
$DIMALTU
 70
     2
  9
$DIMALTTD
 70
     2
  9
$DIMTXSTY
  7
STANDARD
  9
$DIMAUNIT
 70
     0
  9
$DIMADEC
 70
     0
  9
$DIMALTRND
 40
0.0
  9
$DIMAZIN
 70
     0
  9
$DIMDSEP
 70
     0
  9
$DIMATFIT
 70
     3
  9
$DIMFRAC
 70
     0
  9
$DIMLDRBLK
  1

  9
$DIMLUNIT
 70
     2
  9
$DIMLWD
 70
     0
  9
$DIMLWE
 70
     0
  9
$DIMTMOVE
 70
     0
  9
$LUNITS
 70
     2
  9
$LUPREC
 70
     4
  9
$SKETCHINC
 40
0.1
  9
$FILLETRAD
 40
0.0
  9
$AUNITS
 70
     0
  9
$AUPREC
 70
     0
  9
$MENU
  1
acad
  9
$ELEVATION
 40
0.0
  9
$PELEVATION
 40
0.0
  9
$THICKNESS
 40
0.0
  9
$LIMCHECK
 70
     0
  9
$CHAMFERA
 40
0.0
  9
$CHAMFERB
 40
0.0
  9
$CHAMFERC
 40
0.0
  9
$CHAMFERD
 40
0.0
  9
$SKPOLY
 70
     0
  9
$TDCREATE
 40
2453383.000000000
  9
$TDUCREATE
 40
0.000000000
  9
$TDUPDATE
 40
0.000000000
  9
$TDUUPDATE
 40
2447892.625000000
  9
$TDINDWG
 40
0.0000000000
  9
$TDUSRTIMER
 40
0.0000000000
  9
$USRTIMER
 70
     1
  9
$ANGBASE
 50
0.0
  9
$ANGDIR
 70
     0
  9
$PDMODE
 70
     0
  9
$PDSIZE
 40
0.0
  9
$PLINEWID
 40
0.0
  9
$SPLFRAME
 70
     0
  9
$SPLINETYPE
 70
     6
  9
$SPLINESEGS
 70
     8
  9
$HANDSEED
  5
7AD
  9
$SURFTAB1
 70
     6
  9
$SURFTAB2
 70
     6
  9
$SURFTYPE
 70
     6
  9
$SURFU
 70
     6
  9
$SURFV
 70
     6
  9
$UCSBASE
  2

  9
$UCSNAME
  2

  9
$UCSORG
 10
0.0
 20
0.0
 30
0.0
  9
$UCSXDIR
 10
1.0
 20
0.0
 30
0.0
  9
$UCSYDIR
 10
0.0
 20
1.0
 30
0.0
  9
$UCSORTHOREF
  2

  9
$UCSORTHOVIEW
 70
     0
  9
$UCSORGTOP
 10
0.0
 20
0.0
 30
0.0
  9
$UCSORGBOTTOM
 10
0.0
 20
0.0
 30
0.0
  9
$UCSORGLEFT
 10
0.0
 20
0.0
 30
0.0
  9
$UCSORGRIGHT
 10
0.0
 20
0.0
 30
0.0
  9
$UCSORGFRONT
 10
0.0
 20
0.0
 30
0.0
  9
$UCSORGBACK
 10
0.0
 20
0.0
 30
0.0
  9
$PUCSBASE
  2

  9
$PUCSNAME
  2

  9
$PUCSORG
 10
0.0
 20
0.0
 30
0.0
  9
$PUCSXDIR
 10
1.0
 20
0.0
 30
0.0
  9
$PUCSYDIR
 10
0.0
 20
1.0
 30
0.0
  9
$PUCSORTHOREF
  2

  9
$PUCSORTHOVIEW
 70
     0
  9
$PUCSORGTOP
 10
0.0
 20
0.0
 30
0.0
  9
$PUCSORGBOTTOM
 10
0.0
 20
0.0
 30
0.0
  9
$PUCSORGLEFT
 10
0.0
 20
0.0
 30
0.0
  9
$PUCSORGRIGHT
 10
0.0
 20
0.0
 30
0.0
  9
$PUCSORGFRONT
 10
0.0
 20
0.0
 30
0.0
  9
$PUCSORGBACK
 10
0.0
 20
0.0
 30
0.0
  9
$USERI1
 70
     0
  9
$USERI2
 70
     0
  9
$USERI3
 70
     0
  9
$USERI4
 70
     0
  9
$USERI5
 70
     0
  9
$USERR1
 40
0.0
  9
$USERR2
 40
0.0
  9
$USERR3
 40
0.0
  9
$USERR4
 40
0.0
  9
$USERR5
 40
0.0
  9
$WORLDVIEW
 70
     1
  9
$SHADEDGE
 70
     3
  9
$SHADEDIF
 70
    70
  9
$TILEMODE
 70
     1
  9
$MAXACTVP
 70
    16
  9
$PINSBASE
 10
0.0
 20
0.0
 30
0.0
  9
$PLIMCHECK
 70
     0
  9
$PEXTMIN
 10
1.000000E+20
 20
1.000000E+20
 30
1.000000E+20
  9
$PEXTMAX
 10
-1.000000E+20
 20
-1.000000E+20
 30
-1.000000E+20
  9
$PLIMMIN
 10
0.0
 20
0.0
  9
$PLIMMAX
 10
12.0
 20
9.0
  9
$UNITMODE
 70
     0
  9
$VISRETAIN
 70
     0
  9
$PLINEGEN
 70
     1
  9
$PSLTSCALE
 70
     0
  9
$TREEDEPTH
 70
  3020
  9
$CMLSTYLE
  2
Standard
  9
$CMLJUST
 70
     0
  9
$CMLSCALE
 40
1.0
  9
$PROXYGRAPHICS
 70
     0
  9
$MEASUREMENT
 70
     0
  9
$CELWEIGHT
370
     0
  9
$ENDCAPS
280
     0
  9
$JOINSTYLE
280
     0
  9
$LWDISPLAY
290
     0
  9
$INSUNITS
 70
     0
  9
$HYPERLINKBASE
  1

  9
$STYLESHEET
  1

  9
$XEDIT
290
     1
  9
$CEPSNTYPE
380
     0
  9
$PSTYLEMODE
290
     1
  9
$FINGERPRINTGUID
  2

  9
$VERSIONGUID
  2

  9
$EXTNAMES
290
     1
  9
$PSVPSCALE
 40
0.0
  0
ENDSEC
  0
SECTION
  2
CLASSES
  0
CLASS
  1
LWPOLYLINE
  2
AcDbPolyline
  3
AutoCAD 2000
 90
        0
280
     0
281
     1
  0
CLASS
  1
IMAGE
  2
AcDbRasterImage
  3
ISM
 90
      127
280
     0
281
     1
  0
CLASS
  1
OLE2FRAME
  2
AcDbOle2Frame
  3
AutoCAD 2000
 90
        0
280
     0
281
     1
  0
CLASS
  1
HATCH
  2
AcDbHatch
  3
AutoCAD 2000
 90
        0
280
     0
281
     1
  0
CLASS
  1
DICTIONARYVAR
  2
AcDbDictionaryVar
  3
AutoCAD 2000
 90
        0
280
     0
281
     0
  0
CLASS
  1
RASTERVARIABLES
  2
AcDbRasterVariables
  3
ISM
 90
        0
280
     0
281
     0
  0
CLASS
  1
IMAGEDEF
  2
AcDbRasterImageDef
  3
ISM
 90
        0
280
     0
281
     0
  0
CLASS
  1
IMAGEDEF_REACTOR
  2
AcDbRasterImageDefReactor
  3
ISM
 90
        1
280
     0
281
     0
  0
CLASS
  1
IDBUFFER
  2
AcDbIdBuffer
  3
AutoCAD 2000
 90
        0
280
     0
281
     0
  0
CLASS
  1
SPATIAL_FILTER
  2
AcDbSpatialFilter
  3
AutoCAD 2000
 90
        0
280
     0
281
     0
  0
CLASS
  1
XRECORD
  2
AcDbXrecord
  3
AutoCAD 2000
 90
        0
280
     0
281
     0
  0
CLASS
  1
SORTENTSTABLE
  2
AcDbSortentsTable
  3
AutoCAD 2000
 90
        0
280
     0
281
     0
  0
CLASS
  1
LAYER_INDEX
  2
AcDbLayerIndex
  3
AutoCAD 2000
 90
        0
280
     0
281
     0
  0
CLASS
  1
SPATIAL_INDEX
  2
AcDbSpatialIndex
  3
AutoCAD 2000
 90
        0
280
     0
281
     0
  0
CLASS
  1
OBJECT_PTR
  2
CAseDLPNTableRecord
  3
"ASE-LPNTableRecord"
 90
        1
280
     0
281
     0
  0
CLASS
  1
LAYOUT
  2
AcDbLayout
  3
AutoCAD 2000
 90
        0
280
     0
281
     0
  0
CLASS
  1
PLOTSETTINGS
  2
AcDbPlotSettings
  3
AutoCAD 2000
 90
        0
280
     0
281
     0
  0
CLASS
  1
ACDBDICTIONARYWDFLT
  2
AcDbDictionaryWithDefault
  3
AutoCAD 2000
 90
        0
280
     0
281
     0
  0
CLASS
  1
ACDBPLACEHOLDER
  2
AcDbPlaceHolder
  3
AutoCAD 2000
 90
        0
280
     0
281
     0
  0
CLASS
  1
VBA_PROJECT
  2
AcDbVbaProject
  3
acadvba
 90
        0
280
     0
281
     0
  0
CLASS
  1
WIPEOUT
  2
AcDbWipeout
  3
WipeOut|AutoCAD Express Tool|expresstools@autodesk.com
 90
      127
280
     0
281
     1
  0
CLASS
  1
WIPEOUTVARIABLES
  2
AcDbWipeoutVariables
  3
WipeOut|AutoCAD Express Tool|expresstools@autodesk.com
 90
        0
280
     0
281
     0
  0
CLASS
  1
RTEXT
  2
RText
  3
RText|AutoCAD Express Tool|expresstools@autodesk.com
 90
        0
280
     0
281
     1
  0
CLASS
  1
ARCALIGNEDTEXT
  2
AcDbArcAlignedText
  3
ATEXT|AutoCAD Express Tool|expresstools@autodesk.com
 90
        0
280
     0
281
     1
  0
ENDSEC
  0
SECTION
  2
TABLES
  0
TABLE
  2
VPORT
  5
6
100
AcDbSymbolTable
 70
     1
  0
VPORT
  5
19
100
AcDbSymbolTableRecord
100
AcDbViewportTableRecord
  2
*ACTIVE
 70
     0
 10
0.0
 20
0.0
 11
1.0
 21
1.0
 12
0.0
 22
0.0
 13
0.0
 23
0.0
 14
1.0
 24
1.0
 15
0.0
 25
0.0
 16
0.0
 26
0.0
 36
1.0
 17
0.0
 27
0.0
 37
0.0
 40
1188.0
 41
1.415825
 42
50.0
 43
0.0
 44
0.0
 50
0.0
 51
0.0
 71
     0
 72
   500
 73
     1
 74
     1
 75
     0
 76
     0
 77
     0
 78
     0
281
     0
 65
     0
110
0.0
120
0.0
130
0.0
111
1.0
121
0.0
131
0.0
112
0.0
122
1.0
132
0.0
345
0
346
0
 79
     0
146
0.0
  0
ENDTAB
  0
TABLE
  2
LTYPE
  5
3
100
AcDbSymbolTable
 70
     9
  0
LTYPE
  5
C
100
AcDbSymbolTableRecord
100
AcDbLinetypeTableRecord
  2
ByBlock
 70
    64
  3

 72
    65
 73
     0
 40
0.0
  0
LTYPE
  5
D
100
AcDbSymbolTableRecord
100
AcDbLinetypeTableRecord
  2
ByLayer
 70
    64
  3

 72
    65
 73
     0
 40
0.0
  0
LTYPE
  5
E
100
AcDbSymbolTableRecord
100
AcDbLinetypeTableRecord
  2
CONTINUOUS
 70
     0
  3
Solid line
 72
    65
 73
     0
 40
0.0
  0
LTYPE
  5
F
100
AcDbSymbolTableRecord
100
AcDbLinetypeTableRecord
  2
DASHED
 70
     0
  3
__ __ __ __ __ __ __ __ __ __ __ __ __ __ __
 72
    65
 73
     2
 40
2.0
 49
1.2
 74
     0
 49
-0.8
 74
     0
  0
LTYPE
  5
10
100
AcDbSymbolTableRecord
100
AcDbLinetypeTableRecord
  2
CENTER
 70
     0
  3
____ _ ____ _ ____ _ ____ _ ____ _ ____ _ ____
 72
    65
 73
     4
 40
12.0
 49
9.0
 74
     0
 49
-1.0
 74
     0
 49
1.0
 74
     0
 49
-1.0
 74
     0
  0
LTYPE
  5
11
100
AcDbSymbolTableRecord
100
AcDbLinetypeTableRecord
  2
HIDDEN
 70
     0
  3
_ _ _ _ _ _ _ _ _ _ _ _ _ _ _ _ _ _ _ _ _ _ _
 72
    65
 73
     2
 40
3.2
 49
2.4
 74
     0
 49
-0.8
 74
     0
  0
LTYPE
  5
12
100
AcDbSymbolTableRecord
100
AcDbLinetypeTableRecord
  2
PHANTOM
 70
     0
  3
_____ _ _ _____ _ _ _____ _ _ _____ _ _ _____
 72
    65
 73
     6
 40
13.5
 49
9.0
 74
     0
 49
-1.0
 74
     0
 49
1.0
 74
     0
 49
-0.5
 74
     0
 49
1.0
 74
     0
 49
-1.0
 74
     0
  0
LTYPE
  5
13
100
AcDbSymbolTableRecord
100
AcDbLinetypeTableRecord
  2
DOT
 70
     0
  3
...............................................
 72
    65
 73
     2
 40
1.0
 49
0.5
 74
     0
 49
-0.5
 74
     0
  0
LTYPE
  5
14
100
AcDbSymbolTableRecord
100
AcDbLinetypeTableRecord
  2
DASHDOT
 70
     0
  3
__ . __ . __ . __ . __ . __ . __ . __ . __ . __
 72
    65
 73
     4
 40
8.0
 49
5.0
 74
     0
 49
-1.0
 74
     0
 49
1.0
 74
     0
 49
-1.0
 74
     0
  0
ENDTAB
  0
TABLE
  2
LAYER
  5
1
100
AcDbSymbolTable
 70
     4
  0
LAYER
  5
15
100
AcDbSymbolTableRecord
100
AcDbLayerTableRecord
  2
0
 70
     0
 62
     7
  6
CONTINUOUS
290
     1
370
    -3
390
0
  0
LAYER
  5
16
100
AcDbSymbolTableRecord
100
AcDbLayerTableRecord
  2
1
 70
     0
 62
     7
  6
CONTINUOUS
290
     1
370
    -3
390
0
  0
LAYER
  5
17
100
AcDbSymbolTableRecord
100
AcDbLayerTableRecord
  2
2
 70
     0
 62
     7
  6
CONTINUOUS
290
     1
370
    -3
390
0
  0
LAYER
  5
18
100
AcDbSymbolTableRecord
100
AcDbLayerTableRecord
  2
3
 70
     0
 62
     7
  6
CONTINUOUS
290
     1
370
    -3
390
0
  0
ENDTAB
  0
TABLE
  2
STYLE
  5
2
100
AcDbSymbolTable
 70
     1
  0
STYLE
  5
1B
100
AcDbSymbolTableRecord
100
AcDbTextStyleTableRecord
  2
STANDARD
 70
    64
 40
0.0
 41
1.0
 50
0.0
 71
     0
 42
1.0
  3
txt
  4
BIGFONT
  0
ENDTAB
  0
TABLE
  2
VIEW
  5
4
100
AcDbSymbolTable
 70
     0
  0
ENDTAB
  0
TABLE
  2
UCS
  5
5
100
AcDbSymbolTable
 70
     0
  0
ENDTAB
  0
TABLE
  2
APPID
  5
7
100
AcDbSymbolTable
 70
     1
  0
APPID
  5
1A
100
AcDbSymbolTableRecord
100
AcDbRegAppTableRecord
  2
ACAD
 70
     0
  0
ENDTAB
  0
TABLE
  2
DIMSTYLE
  5
8
100
AcDbSymbolTable
 70
     1
100
AcDbDimStyleTable
 71
     0
  0
DIMSTYLE
105
33
100
AcDbSymbolTableRecord
100
AcDbDimStyleTableRecord
  2
Standard
 70
     0
  3

  4

 40
2.0
 41
2.0
 42
1.0
 43
0.38
 44
2.0
 45
0.0
 46
0.0
 47
0.0
 48
0.0
 71
     0
 72
     0
 73
     0
 74
     0
 75
     0
 76
     0
 77
     1
 78
     0
 79
     0
140
3.5
141
0.09
142
0.0
143
25.4
144
1.0
145
0.0
146
1.0
147
0.5
148
0.0
170
     0
171
     2
172
     0
173
     0
174
     0
175
     0
176
     0
177
     0
178
     0
179
     0
271
     3
272
     4
273
     2
274
     2
275
     0
276
     0
277
     2
278
    46
279
     0
280
     0
281
     0
282
     0
283
     1
284
     0
285
     0
286
     0
288
     0
289
     3
340
1B
341
0
342
0
343
0
344
0
371
    -2
372
    -2
  0
ENDTAB
  0
TABLE
  2
BLOCK_RECORD
  5
2E
100
AcDbSymbolTable
 70
    16
  0
BLOCK_RECORD
  5
2C
100
AcDbSymbolTableRecord
100
AcDbBlockTableRecord
  2
*Model_Space
340
0
  0
BLOCK_RECORD
  5
2D
100
AcDbSymbolTableRecord
100
AcDbBlockTableRecord
  2
*Paper_Space
340
0
  0
BLOCK_RECORD
  5
1C
100
AcDbSymbolTableRecord
100
AcDbBlockTableRecord
  2
*D0
340
0
  0
BLOCK_RECORD
  5
1D
100
AcDbSymbolTableRecord
100
AcDbBlockTableRecord
  2
*D1
340
0
  0
BLOCK_RECORD
  5
1E
100
AcDbSymbolTableRecord
100
AcDbBlockTableRecord
  2
*D2
340
0
  0
BLOCK_RECORD
  5
1F
100
AcDbSymbolTableRecord
100
AcDbBlockTableRecord
  2
*D3
340
0
  0
BLOCK_RECORD
  5
20
100
AcDbSymbolTableRecord
100
AcDbBlockTableRecord
  2
*D4
340
0
  0
BLOCK_RECORD
  5
21
100
AcDbSymbolTableRecord
100
AcDbBlockTableRecord
  2
*D5
340
0
  0
BLOCK_RECORD
  5
22
100
AcDbSymbolTableRecord
100
AcDbBlockTableRecord
  2
*D6
340
0
  0
BLOCK_RECORD
  5
23
100
AcDbSymbolTableRecord
100
AcDbBlockTableRecord
  2
*D7
340
0
  0
BLOCK_RECORD
  5
24
100
AcDbSymbolTableRecord
100
AcDbBlockTableRecord
  2
*D8
340
0
  0
BLOCK_RECORD
  5
25
100
AcDbSymbolTableRecord
100
AcDbBlockTableRecord
  2
*D9
340
0
  0
BLOCK_RECORD
  5
26
100
AcDbSymbolTableRecord
100
AcDbBlockTableRecord
  2
*D10
340
0
  0
BLOCK_RECORD
  5
27
100
AcDbSymbolTableRecord
100
AcDbBlockTableRecord
  2
*D11
340
0
  0
BLOCK_RECORD
  5
28
100
AcDbSymbolTableRecord
100
AcDbBlockTableRecord
  2
*D12
340
0
  0
BLOCK_RECORD
  5
29
100
AcDbSymbolTableRecord
100
AcDbBlockTableRecord
  2
*D13
340
0
  0
BLOCK_RECORD
  5
2A
100
AcDbSymbolTableRecord
100
AcDbBlockTableRecord
  2
*D14
340
0
  0
BLOCK_RECORD
  5
2B
100
AcDbSymbolTableRecord
100
AcDbBlockTableRecord
  2
*D15
340
0
  0
ENDTAB
  0
ENDSEC
  0
SECTION
  2
BLOCKS
  0
BLOCK
  5
2F
100
AcDbEntity
  8
0
390
0
100
AcDbBlockBegin
  2
*Model_Space
 70
     0
 10
0.0
 20
0.0
 30
0.0
  3
*Model_Space
  1

  0
ENDBLK
  5
30
100
AcDbEntity
  8
0
390
0
100
AcDbBlockEnd
  0
BLOCK
  5
31
100
AcDbEntity
 67
     1
  8
0
390
0
100
AcDbBlockBegin
  2
*Paper_Space
 70
     0
 10
0.0
 20
0.0
 30
0.0
  3
*Paper_Space
  1

  0
ENDBLK
  5
32
100
AcDbEntity
 67
     1
  8
0
390
0
100
AcDbBlockEnd
  0
BLOCK
  5
6F0
100
AcDbEntity
  8
2
100
AcDbBlockBegin
  2
*D0
 70
     1
 10
0.0
 20
0.0
 30
0.0
  3
*D0
  1

  0
TEXT
  5
6F1
100
AcDbEntity
  8
2
370
    25
100
AcDbText
 10
-138.673582
 20
235.799561
 30
0.0
 40
7.0
  1
１００
 72
     5
 11
-119.073582
 21
235.799561
 31
0.0
100
AcDbText
  0
LINE
  5
6F2
100
AcDbEntity
  8
2
370
    25
100
AcDbLine
 10
-178.173582
 20
185.313228
 30
0.0
 11
-178.173582
 21
236.799561
 31
0.0
  0
LINE
  5
6F3
100
AcDbEntity
  8
2
370
    25
100
AcDbLine
 10
-178.173582
 20
234.799561
 30
0.0
 11
-174.309879
 21
233.764285
 31
0.0
  0
LINE
  5
6F4
100
AcDbEntity
  8
2
370
    25
100
AcDbLine
 10
-178.173582
 20
234.799561
 30
0.0
 11
-174.309879
 21
235.834837
 31
0.0
  0
LINE
  5
6F5
100
AcDbEntity
  8
2
370
    25
100
AcDbLine
 10
-174.309879
 20
233.764285
 30
0.0
 11
-174.309879
 21
235.834837
 31
0.0
  0
LINE
  5
6F6
100
AcDbEntity
  8
2
370
    25
100
AcDbLine
 10
-178.173582
 20
234.799561
 30
0.0
 11
-78.173582
 21
234.799561
 31
0.0
  0
LINE
  5
6F7
100
AcDbEntity
  8
2
370
    25
100
AcDbLine
 10
-78.173582
 20
234.799561
 30
0.0
 11
-82.037285
 21
235.834837
 31
0.0
  0
LINE
  5
6F8
100
AcDbEntity
  8
2
370
    25
100
AcDbLine
 10
-78.173582
 20
234.799561
 30
0.0
 11
-82.037285
 21
233.764285
 31
0.0
  0
LINE
  5
6F9
100
AcDbEntity
  8
2
370
    25
100
AcDbLine
 10
-82.037285
 20
235.834837
 30
0.0
 11
-82.037285
 21
233.764285
 31
0.0
  0
LINE
  5
6FA
100
AcDbEntity
  8
2
370
    25
100
AcDbLine
 10
-78.173582
 20
183.735366
 30
0.0
 11
-78.173582
 21
236.799561
 31
0.0
  0
ENDBLK
  5
6FB
100
AcDbEntity
  8
2
100
AcDbBlockEnd
  0
BLOCK
  5
6FC
100
AcDbEntity
  8
2
100
AcDbBlockBegin
  2
*D1
 70
     1
 10
0.0
 20
0.0
 30
0.0
  3
*D1
  1

  0
TEXT
  5
6FD
100
AcDbEntity
  8
2
370
    25
100
AcDbText
 10
-55.173582
 20
235.799561
 30
0.0
 40
7.0
  1
６０
 72
     5
 11
-42.573582
 21
235.799561
 31
0.0
100
AcDbText
  0
LINE
  5
6FE
100
AcDbEntity
  8
2
370
    25
100
AcDbLine
 10
-78.173582
 20
183.735366
 30
0.0
 11
-78.173582
 21
236.799561
 31
0.0
  0
LINE
  5
6FF
100
AcDbEntity
  8
2
370
    25
100
AcDbLine
 10
-78.173582
 20
234.799561
 30
0.0
 11
-74.309879
 21
233.764285
 31
0.0
  0
LINE
  5
700
100
AcDbEntity
  8
2
370
    25
100
AcDbLine
 10
-78.173582
 20
234.799561
 30
0.0
 11
-74.309879
 21
235.834837
 31
0.0
  0
LINE
  5
701
100
AcDbEntity
  8
2
370
    25
100
AcDbLine
 10
-74.309879
 20
233.764285
 30
0.0
 11
-74.309879
 21
235.834837
 31
0.0
  0
LINE
  5
702
100
AcDbEntity
  8
2
370
    25
100
AcDbLine
 10
-78.173582
 20
234.799561
 30
0.0
 11
-18.173582
 21
234.799561
 31
0.0
  0
LINE
  5
703
100
AcDbEntity
  8
2
370
    25
100
AcDbLine
 10
-18.173582
 20
234.799561
 30
0.0
 11
-22.037285
 21
235.834837
 31
0.0
  0
LINE
  5
704
100
AcDbEntity
  8
2
370
    25
100
AcDbLine
 10
-18.173582
 20
234.799561
 30
0.0
 11
-22.037285
 21
233.764285
 31
0.0
  0
LINE
  5
705
100
AcDbEntity
  8
2
370
    25
100
AcDbLine
 10
-22.037285
 20
235.834837
 30
0.0
 11
-22.037285
 21
233.764285
 31
0.0
  0
LINE
  5
706
100
AcDbEntity
  8
2
370
    25
100
AcDbLine
 10
-18.173582
 20
219.710816
 30
0.0
 11
-18.173582
 21
236.799561
 31
0.0
  0
ENDBLK
  5
707
100
AcDbEntity
  8
2
100
AcDbBlockEnd
  0
BLOCK
  5
708
100
AcDbEntity
  8
2
100
AcDbBlockBegin
  2
*D2
 70
     1
 10
0.0
 20
0.0
 30
0.0
  3
*D2
  1

  0
LINE
  5
709
100
AcDbEntity
  8
2
370
    25
100
AcDbLine
 10
-241.47458
 20
-39.150873
 30
0.0
 11
-241.47458
 21
6.675066
 31
0.0
  0
LINE
  5
70A
100
AcDbEntity
  8
2
370
    25
100
AcDbLine
 10
-241.47458
 20
4.675066
 30
0.0
 11
-237.610877
 21
3.63979
 31
0.0
  0
LINE
  5
70B
100
AcDbEntity
  8
2
370
    25
100
AcDbLine
 10
-241.47458
 20
4.675066
 30
0.0
 11
-237.610877
 21
5.710343
 31
0.0
  0
LINE
  5
70C
100
AcDbEntity
  8
2
370
    25
100
AcDbLine
 10
-237.610877
 20
3.63979
 30
0.0
 11
-237.610877
 21
5.710343
 31
0.0
  0
LINE
  5
70D
100
AcDbEntity
  8
2
370
    25
100
AcDbLine
 10
-241.47458
 20
4.675066
 30
0.0
 11
-14.873424
 21
4.675066
 31
0.0
  0
LINE
  5
70E
100
AcDbEntity
  8
2
370
    25
100
AcDbLine
 10
-14.873424
 20
4.675066
 30
0.0
 11
-18.737127
 21
5.710343
 31
0.0
  0
LINE
  5
70F
100
AcDbEntity
  8
2
370
    25
100
AcDbLine
 10
-14.873424
 20
4.675066
 30
0.0
 11
-18.737127
 21
3.63979
 31
0.0
  0
LINE
  5
710
100
AcDbEntity
  8
2
370
    25
100
AcDbLine
 10
-18.737127
 20
5.710343
 30
0.0
 11
-18.737127
 21
3.63979
 31
0.0
  0
LINE
  5
711
100
AcDbEntity
  8
2
370
    25
100
AcDbLine
 10
-14.873424
 20
-39.151607
 30
0.0
 11
-14.873424
 21
6.675066
 31
0.0
  0
ENDBLK
  5
712
100
AcDbEntity
  8
2
100
AcDbBlockEnd
  0
BLOCK
  5
713
100
AcDbEntity
  8
2
100
AcDbBlockBegin
  2
*D3
 70
     1
 10
0.0
 20
0.0
 30
0.0
  3
*D3
  1

  0
LINE
  5
714
100
AcDbEntity
  8
2
370
    25
100
AcDbLine
 10
-241.47458
 20
-39.150873
 30
0.0
 11
-241.47458
 21
-10.394682
 31
0.0
  0
LINE
  5
715
100
AcDbEntity
  8
2
370
    25
100
AcDbLine
 10
-241.47458
 20
-12.394682
 30
0.0
 11
-237.610877
 21
-13.429958
 31
0.0
  0
LINE
  5
716
100
AcDbEntity
  8
2
370
    25
100
AcDbLine
 10
-241.47458
 20
-12.394682
 30
0.0
 11
-237.610877
 21
-11.359406
 31
0.0
  0
LINE
  5
717
100
AcDbEntity
  8
2
370
    25
100
AcDbLine
 10
-237.610877
 20
-13.429958
 30
0.0
 11
-237.610877
 21
-11.359406
 31
0.0
  0
LINE
  5
718
100
AcDbEntity
  8
2
370
    25
100
AcDbLine
 10
-241.47458
 20
-12.394682
 30
0.0
 11
-128.173582
 21
-12.394682
 31
0.0
  0
LINE
  5
719
100
AcDbEntity
  8
2
370
    25
100
AcDbLine
 10
-128.173582
 20
-12.394682
 30
0.0
 11
-132.037285
 21
-11.359406
 31
0.0
  0
LINE
  5
71A
100
AcDbEntity
  8
2
370
    25
100
AcDbLine
 10
-128.173582
 20
-12.394682
 30
0.0
 11
-132.037285
 21
-13.429958
 31
0.0
  0
LINE
  5
71B
100
AcDbEntity
  8
2
370
    25
100
AcDbLine
 10
-132.037285
 20
-11.359406
 30
0.0
 11
-132.037285
 21
-13.429958
 31
0.0
  0
LINE
  5
71C
100
AcDbEntity
  8
2
370
    25
100
AcDbLine
 10
-128.173582
 20
-18.22434
 30
0.0
 11
-128.173582
 21
-10.394682
 31
0.0
  0
ENDBLK
  5
71D
100
AcDbEntity
  8
2
100
AcDbBlockEnd
  0
BLOCK
  5
71E
100
AcDbEntity
  8
2
100
AcDbBlockBegin
  2
*D4
 70
     1
 10
0.0
 20
0.0
 30
0.0
  3
*D4
  1

  0
LINE
  5
71F
100
AcDbEntity
  8
2
370
    25
100
AcDbLine
 10
-128.173582
 20
-18.22434
 30
0.0
 11
-128.173582
 21
-10.394682
 31
0.0
  0
LINE
  5
720
100
AcDbEntity
  8
2
370
    25
100
AcDbLine
 10
-128.173582
 20
-12.394682
 30
0.0
 11
-124.309879
 21
-13.429958
 31
0.0
  0
LINE
  5
721
100
AcDbEntity
  8
2
370
    25
100
AcDbLine
 10
-128.173582
 20
-12.394682
 30
0.0
 11
-124.309879
 21
-11.359406
 31
0.0
  0
LINE
  5
722
100
AcDbEntity
  8
2
370
    25
100
AcDbLine
 10
-124.309879
 20
-13.429958
 30
0.0
 11
-124.309879
 21
-11.359406
 31
0.0
  0
LINE
  5
723
100
AcDbEntity
  8
2
370
    25
100
AcDbLine
 10
-128.173582
 20
-12.394682
 30
0.0
 11
-14.873424
 21
-12.394682
 31
0.0
  0
LINE
  5
724
100
AcDbEntity
  8
2
370
    25
100
AcDbLine
 10
-14.873424
 20
-12.394682
 30
0.0
 11
-18.737127
 21
-11.359406
 31
0.0
  0
LINE
  5
725
100
AcDbEntity
  8
2
370
    25
100
AcDbLine
 10
-14.873424
 20
-12.394682
 30
0.0
 11
-18.737127
 21
-13.429958
 31
0.0
  0
LINE
  5
726
100
AcDbEntity
  8
2
370
    25
100
AcDbLine
 10
-18.737127
 20
-11.359406
 30
0.0
 11
-18.737127
 21
-13.429958
 31
0.0
  0
LINE
  5
727
100
AcDbEntity
  8
2
370
    25
100
AcDbLine
 10
-14.873424
 20
-39.151607
 30
0.0
 11
-14.873424
 21
-10.394682
 31
0.0
  0
ENDBLK
  5
728
100
AcDbEntity
  8
2
100
AcDbBlockEnd
  0
BLOCK
  5
729
100
AcDbEntity
  8
2
100
AcDbBlockBegin
  2
*D5
 70
     1
 10
0.0
 20
0.0
 30
0.0
  3
*D5
  1

  0
LINE
  5
72A
100
AcDbEntity
  8
2
370
    25
100
AcDbLine
 10
-220.599989
 20
-96.577647
 30
0.0
 11
-220.599989
 21
-197.943115
 31
0.0
  0
LINE
  5
72B
100
AcDbEntity
  8
2
370
    25
100
AcDbLine
 10
-220.599989
 20
-195.943115
 30
0.0
 11
-216.736286
 21
-196.978391
 31
0.0
  0
LINE
  5
72C
100
AcDbEntity
  8
2
370
    25
100
AcDbLine
 10
-220.599989
 20
-195.943115
 30
0.0
 11
-216.736286
 21
-194.907839
 31
0.0
  0
LINE
  5
72D
100
AcDbEntity
  8
2
370
    25
100
AcDbLine
 10
-216.736286
 20
-196.978391
 30
0.0
 11
-216.736286
 21
-194.907839
 31
0.0
  0
LINE
  5
72E
100
AcDbEntity
  8
2
370
    25
100
AcDbLine
 10
-220.599989
 20
-195.943115
 30
0.0
 11
-35.747175
 21
-195.943115
 31
0.0
  0
LINE
  5
72F
100
AcDbEntity
  8
2
370
    25
100
AcDbLine
 10
-35.747175
 20
-195.943115
 30
0.0
 11
-39.610879
 21
-194.907839
 31
0.0
  0
LINE
  5
730
100
AcDbEntity
  8
2
370
    25
100
AcDbLine
 10
-35.747175
 20
-195.943115
 30
0.0
 11
-39.610879
 21
-196.978391
 31
0.0
  0
LINE
  5
731
100
AcDbEntity
  8
2
370
    25
100
AcDbLine
 10
-39.610879
 20
-194.907839
 30
0.0
 11
-39.610879
 21
-196.978391
 31
0.0
  0
LINE
  5
732
100
AcDbEntity
  8
2
370
    25
100
AcDbLine
 10
-35.747175
 20
-96.577647
 30
0.0
 11
-35.747175
 21
-197.943115
 31
0.0
  0
ENDBLK
  5
733
100
AcDbEntity
  8
2
100
AcDbBlockEnd
  0
BLOCK
  5
734
100
AcDbEntity
  8
2
100
AcDbBlockBegin
  2
*D6
 70
     1
 10
0.0
 20
0.0
 30
0.0
  3
*D6
  1

  0
LINE
  5
735
100
AcDbEntity
  8
2
370
    25
100
AcDbLine
 10
208.129525
 20
-82.15124
 30
0.0
 11
208.129525
 21
-173.200424
 31
0.0
  0
LINE
  5
736
100
AcDbEntity
  8
2
370
    25
100
AcDbLine
 10
208.129525
 20
-171.200424
 30
0.0
 11
211.993228
 21
-172.2357
 31
0.0
  0
LINE
  5
737
100
AcDbEntity
  8
2
370
    25
100
AcDbLine
 10
208.129525
 20
-171.200424
 30
0.0
 11
211.993228
 21
-170.165148
 31
0.0
  0
LINE
  5
738
100
AcDbEntity
  8
2
370
    25
100
AcDbLine
 10
211.993228
 20
-172.2357
 30
0.0
 11
211.993228
 21
-170.165148
 31
0.0
  0
LINE
  5
739
100
AcDbEntity
  8
2
370
    25
100
AcDbLine
 10
208.129525
 20
-171.200424
 30
0.0
 11
304.829776
 21
-171.200424
 31
0.0
  0
LINE
  5
73A
100
AcDbEntity
  8
2
370
    25
100
AcDbLine
 10
304.829776
 20
-171.200424
 30
0.0
 11
300.966073
 21
-170.165148
 31
0.0
  0
LINE
  5
73B
100
AcDbEntity
  8
2
370
    25
100
AcDbLine
 10
304.829776
 20
-171.200424
 30
0.0
 11
300.966073
 21
-172.2357
 31
0.0
  0
LINE
  5
73C
100
AcDbEntity
  8
2
370
    25
100
AcDbLine
 10
300.966073
 20
-170.165148
 30
0.0
 11
300.966073
 21
-172.2357
 31
0.0
  0
LINE
  5
73D
100
AcDbEntity
  8
2
370
    25
100
AcDbLine
 10
304.829776
 20
-137.15124
 30
0.0
 11
304.829776
 21
-173.200424
 31
0.0
  0
ENDBLK
  5
73E
100
AcDbEntity
  8
2
100
AcDbBlockEnd
  0
BLOCK
  5
73F
100
AcDbEntity
  8
2
100
AcDbBlockBegin
  2
*D7
 70
     1
 10
0.0
 20
0.0
 30
0.0
  3
*D7
  1

  0
LINE
  5
740
100
AcDbEntity
  8
2
370
    25
100
AcDbLine
 10
304.829776
 20
-137.15124
 30
0.0
 11
304.829776
 21
-173.200424
 31
0.0
  0
LINE
  5
741
100
AcDbEntity
  8
2
370
    25
100
AcDbLine
 10
304.829776
 20
-171.200424
 30
0.0
 11
300.966073
 21
-170.165148
 31
0.0
  0
LINE
  5
742
100
AcDbEntity
  8
2
370
    25
100
AcDbLine
 10
304.829776
 20
-171.200424
 30
0.0
 11
300.966073
 21
-172.2357
 31
0.0
  0
LINE
  5
743
100
AcDbEntity
  8
2
370
    25
100
AcDbLine
 10
300.966073
 20
-170.165148
 30
0.0
 11
300.966073
 21
-172.2357
 31
0.0
  0
LINE
  5
744
100
AcDbEntity
  8
2
370
    25
100
AcDbLine
 10
294.829776
 20
-171.200424
 30
0.0
 11
357.829776
 21
-171.200424
 31
0.0
  0
LINE
  5
745
100
AcDbEntity
  8
2
370
    25
100
AcDbLine
 10
321.829776
 20
-171.200424
 30
0.0
 11
325.69348
 21
-172.2357
 31
0.0
  0
LINE
  5
746
100
AcDbEntity
  8
2
370
    25
100
AcDbLine
 10
321.829776
 20
-171.200424
 30
0.0
 11
325.69348
 21
-170.165148
 31
0.0
  0
LINE
  5
747
100
AcDbEntity
  8
2
370
    25
100
AcDbLine
 10
325.69348
 20
-172.2357
 30
0.0
 11
325.69348
 21
-170.165148
 31
0.0
  0
LINE
  5
748
100
AcDbEntity
  8
2
370
    25
100
AcDbLine
 10
321.829776
 20
-123.46674
 30
0.0
 11
321.829776
 21
-173.200424
 31
0.0
  0
ENDBLK
  5
749
100
AcDbEntity
  8
2
100
AcDbBlockEnd
  0
BLOCK
  5
74A
100
AcDbEntity
  8
2
100
AcDbBlockBegin
  2
*D8
 70
     1
 10
0.0
 20
0.0
 30
0.0
  3
*D8
  1

  0
LINE
  5
74B
100
AcDbEntity
  8
2
370
    25
100
AcDbLine
 10
208.129525
 20
-82.15124
 30
0.0
 11
208.129525
 21
-153.054108
 31
0.0
  0
LINE
  5
74C
100
AcDbEntity
  8
2
370
    25
100
AcDbLine
 10
208.129525
 20
-151.054108
 30
0.0
 11
211.993228
 21
-152.089384
 31
0.0
  0
LINE
  5
74D
100
AcDbEntity
  8
2
370
    25
100
AcDbLine
 10
208.129525
 20
-151.054108
 30
0.0
 11
211.993228
 21
-150.018831
 31
0.0
  0
LINE
  5
74E
100
AcDbEntity
  8
2
370
    25
100
AcDbLine
 10
211.993228
 20
-152.089384
 30
0.0
 11
211.993228
 21
-150.018831
 31
0.0
  0
LINE
  5
74F
100
AcDbEntity
  8
2
370
    25
100
AcDbLine
 10
208.129525
 20
-151.054108
 30
0.0
 11
269.429525
 21
-151.054108
 31
0.0
  0
LINE
  5
750
100
AcDbEntity
  8
2
370
    25
100
AcDbLine
 10
269.429525
 20
-151.054108
 30
0.0
 11
265.565821
 21
-150.018831
 31
0.0
  0
LINE
  5
751
100
AcDbEntity
  8
2
370
    25
100
AcDbLine
 10
269.429525
 20
-151.054108
 30
0.0
 11
265.565821
 21
-152.089384
 31
0.0
  0
LINE
  5
752
100
AcDbEntity
  8
2
370
    25
100
AcDbLine
 10
265.565821
 20
-150.018831
 30
0.0
 11
265.565821
 21
-152.089384
 31
0.0
  0
LINE
  5
753
100
AcDbEntity
  8
2
370
    25
100
AcDbLine
 10
269.429525
 20
-79.15124
 30
0.0
 11
269.429525
 21
-153.054108
 31
0.0
  0
ENDBLK
  5
754
100
AcDbEntity
  8
2
100
AcDbBlockEnd
  0
BLOCK
  5
755
100
AcDbEntity
  8
2
100
AcDbBlockBegin
  2
*D9
 70
     1
 10
0.0
 20
0.0
 30
0.0
  3
*D9
  1

  0
TEXT
  5
756
100
AcDbEntity
  8
2
370
    25
100
AcDbText
 10
131.679525
 20
-189.34993
 30
0.0
 40
7.0
  1
１７０
 72
     5
 11
151.279525
 21
-189.34993
 31
0.0
100
AcDbText
  0
LINE
  5
757
100
AcDbEntity
  8
2
370
    25
100
AcDbLine
 10
57.229525
 20
-156.94524
 30
0.0
 11
57.229525
 21
-192.34993
 31
0.0
  0
LINE
  5
758
100
AcDbEntity
  8
2
370
    25
100
AcDbLine
 10
57.229525
 20
-190.34993
 30
0.0
 11
61.093228
 21
-191.385206
 31
0.0
  0
LINE
  5
759
100
AcDbEntity
  8
2
370
    25
100
AcDbLine
 10
57.229525
 20
-190.34993
 30
0.0
 11
61.093228
 21
-189.314654
 31
0.0
  0
LINE
  5
75A
100
AcDbEntity
  8
2
370
    25
100
AcDbLine
 10
61.093228
 20
-191.385206
 30
0.0
 11
61.093228
 21
-189.314654
 31
0.0
  0
LINE
  5
75B
100
AcDbEntity
  8
2
370
    25
100
AcDbLine
 10
57.229525
 20
-190.34993
 30
0.0
 11
227.129525
 21
-190.34993
 31
0.0
  0
LINE
  5
75C
100
AcDbEntity
  8
2
370
    25
100
AcDbLine
 10
227.129525
 20
-190.34993
 30
0.0
 11
223.265821
 21
-189.314654
 31
0.0
  0
LINE
  5
75D
100
AcDbEntity
  8
2
370
    25
100
AcDbLine
 10
227.129525
 20
-190.34993
 30
0.0
 11
223.265821
 21
-191.385206
 31
0.0
  0
LINE
  5
75E
100
AcDbEntity
  8
2
370
    25
100
AcDbLine
 10
223.265821
 20
-189.314654
 30
0.0
 11
223.265821
 21
-191.385206
 31
0.0
  0
LINE
  5
75F
100
AcDbEntity
  8
2
370
    25
100
AcDbLine
 10
227.129525
 20
-106.827621
 30
0.0
 11
227.129525
 21
-192.34993
 31
0.0
  0
ENDBLK
  5
760
100
AcDbEntity
  8
2
100
AcDbBlockEnd
  0
BLOCK
  5
761
100
AcDbEntity
  8
2
100
AcDbBlockBegin
  2
*D10
 70
     1
 10
0.0
 20
0.0
 30
0.0
  3
*D10
  1

  0
TEXT
  5
762
100
AcDbEntity
  8
2
370
    25
100
AcDbText
 10
160.151035
 20
-67.727278
 30
0.0
 40
7.0
  1
９０゜
 50
300.0
 72
     5
 11
169.951035
 21
-84.701376
 31
0.0
100
AcDbText
  0
LINE
  5
763
100
AcDbEntity
  8
2
370
    25
100
AcDbLine
 10
158.094286
 20
-38.744338
 30
0.0
 11
157.574309
 21
-38.605011
 31
0.0
  0
LINE
  5
764
100
AcDbEntity
  8
2
370
    25
100
AcDbLine
 10
203.000128
 20
-71.294407
 30
0.0
 11
194.583296
 21
-102.706455
 31
0.0
  0
LINE
  5
765
100
AcDbEntity
  8
2
370
    25
100
AcDbLine
 10
159.506161
 20
-39.122649
 30
0.0
 11
157.640577
 21
-42.660953
 31
0.0
  0
LINE
  5
766
100
AcDbEntity
  8
2
370
    25
100
AcDbLine
 10
159.506161
 20
-39.122649
 30
0.0
 11
159.659669
 21
-43.119702
 31
0.0
  0
LINE
  5
767
100
AcDbEntity
  8
2
370
    25
100
AcDbLine
 10
157.640577
 20
-42.660953
 30
0.0
 11
159.659669
 21
-43.119702
 31
0.0
  0
LINE
  5
768
100
AcDbEntity
  8
2
370
    25
100
AcDbLine
 10
195.100934
 20
-100.774604
 30
0.0
 11
191.716138
 21
-98.643135
 31
0.0
  0
LINE
  5
769
100
AcDbEntity
  8
2
370
    25
100
AcDbLine
 10
195.100934
 20
-100.774604
 30
0.0
 11
191.10388
 21
-100.621095
 31
0.0
  0
LINE
  5
76A
100
AcDbEntity
  8
2
370
    25
100
AcDbLine
 10
191.716138
 20
-98.643135
 30
0.0
 11
191.10388
 21
-100.621095
 31
0.0
  0
ARC
  5
76B
100
AcDbEntity
  8
2
370
    25
100
AcDbCircle
 10
208.129525
 20
-52.15124
 30
0.0
 40
50.33861
100
AcDbArc
 50
165.0
 51
255.0
  0
ENDBLK
  5
76C
100
AcDbEntity
  8
2
100
AcDbBlockEnd
  0
BLOCK
  5
76D
100
AcDbEntity
  8
2
100
AcDbBlockBegin
  2
*D11
 70
     1
 10
0.0
 20
0.0
 30
0.0
  3
*D11
  1

  0
TEXT
  5
76E
100
AcDbEntity
  8
2
370
    25
100
AcDbText
 10
173.235411
 20
-12.712862
 30
0.0
 40
7.0
  1
９０゜
 50
30.0
 72
     5
 11
190.209509
 21
-2.912862
 31
0.0
100
AcDbText
  0
LINE
  5
76F
100
AcDbEntity
  8
2
370
    25
100
AcDbLine
 10
218.813445
 20
-12.278306
 30
0.0
 11
221.743845
 21
-1.341905
 31
0.0
  0
LINE
  5
770
100
AcDbEntity
  8
2
370
    25
100
AcDbLine
 10
158.094286
 20
-38.744338
 30
0.0
 11
157.32019
 21
-38.53692
 31
0.0
  0
LINE
  5
771
100
AcDbEntity
  8
2
370
    25
100
AcDbLine
 10
221.226207
 20
-3.273757
 30
0.0
 11
217.688275
 21
-1.407466
 31
0.0
  0
LINE
  5
772
100
AcDbEntity
  8
2
370
    25
100
AcDbLine
 10
221.226207
 20
-3.273757
 30
0.0
 11
217.229123
 21
-3.426467
 31
0.0
  0
LINE
  5
773
100
AcDbEntity
  8
2
370
    25
100
AcDbLine
 10
217.688275
 20
-1.407466
 30
0.0
 11
217.229123
 21
-3.426467
 31
0.0
  0
LINE
  5
774
100
AcDbEntity
  8
2
370
    25
100
AcDbLine
 10
159.252041
 20
-39.054558
 30
0.0
 11
161.382834
 21
-35.669337
 31
0.0
  0
LINE
  5
775
100
AcDbEntity
  8
2
370
    25
100
AcDbLine
 10
159.252041
 20
-39.054558
 30
0.0
 11
159.404752
 21
-35.057474
 31
0.0
  0
LINE
  5
776
100
AcDbEntity
  8
2
370
    25
100
AcDbLine
 10
161.382834
 20
-35.669337
 30
0.0
 11
159.404752
 21
-35.057474
 31
0.0
  0
ARC
  5
777
100
AcDbEntity
  8
2
370
    25
100
AcDbCircle
 10
208.129525
 20
-52.15124
 30
0.0
 40
50.601694
100
AcDbArc
 50
75.0
 51
165.0
  0
ENDBLK
  5
778
100
AcDbEntity
  8
2
100
AcDbBlockEnd
  0
BLOCK
  5
779
100
AcDbEntity
  8
2
100
AcDbBlockBegin
  2
*D12
 70
     1
 10
0.0
 20
0.0
 30
0.0
  3
*D12
  1

  0
TEXT
  5
77A
100
AcDbEntity
  8
2
370
    25
100
AcDbText
 10
113.614922
 20
-48.15124
 30
0.0
 40
7.0
  1
２２
 50
90.0
 72
     5
 11
113.614922
 21
-35.55124
 31
0.0
100
AcDbText
  0
LINE
  5
77B
100
AcDbEntity
  8
2
370
    25
100
AcDbLine
 10
206.129525
 20
-52.15124
 30
0.0
 11
112.614922
 21
-52.15124
 31
0.0
  0
LINE
  5
77C
100
AcDbEntity
  8
2
370
    25
100
AcDbLine
 10
114.614922
 20
-52.15124
 30
0.0
 11
115.650198
 21
-48.287537
 31
0.0
  0
LINE
  5
77D
100
AcDbEntity
  8
2
370
    25
100
AcDbLine
 10
114.614922
 20
-52.15124
 30
0.0
 11
113.579645
 21
-48.287537
 31
0.0
  0
LINE
  5
77E
100
AcDbEntity
  8
2
370
    25
100
AcDbLine
 10
115.650198
 20
-48.287537
 30
0.0
 11
113.579645
 21
-48.287537
 31
0.0
  0
LINE
  5
77F
100
AcDbEntity
  8
2
370
    25
100
AcDbLine
 10
114.614922
 20
-52.15124
 30
0.0
 11
114.614922
 21
-30.15124
 31
0.0
  0
LINE
  5
780
100
AcDbEntity
  8
2
370
    25
100
AcDbLine
 10
114.614922
 20
-30.15124
 30
0.0
 11
113.579645
 21
-34.014943
 31
0.0
  0
LINE
  5
781
100
AcDbEntity
  8
2
370
    25
100
AcDbLine
 10
114.614922
 20
-30.15124
 30
0.0
 11
115.650198
 21
-34.014943
 31
0.0
  0
LINE
  5
782
100
AcDbEntity
  8
2
370
    25
100
AcDbLine
 10
113.579645
 20
-34.014943
 30
0.0
 11
115.650198
 21
-34.014943
 31
0.0
  0
LINE
  5
783
100
AcDbEntity
  8
2
370
    25
100
AcDbLine
 10
206.129525
 20
-30.15124
 30
0.0
 11
112.614922
 21
-30.15124
 31
0.0
  0
ENDBLK
  5
784
100
AcDbEntity
  8
2
100
AcDbBlockEnd
  0
BLOCK
  5
785
100
AcDbEntity
  8
2
100
AcDbBlockBegin
  2
*D13
 70
     1
 10
0.0
 20
0.0
 30
0.0
  3
*D13
  1

  0
TEXT
  5
786
100
AcDbEntity
  8
2
370
    25
100
AcDbText
 10
41.12616
 20
-92.24824
 30
0.0
 40
7.0
  1
６６
 50
90.0
 72
     5
 11
41.12616
 21
-79.64824
 31
0.0
100
AcDbText
  0
LINE
  5
787
100
AcDbEntity
  8
2
370
    25
100
AcDbLine
 10
50.249533
 20
-118.34524
 30
0.0
 11
40.12616
 21
-118.34524
 31
0.0
  0
LINE
  5
788
100
AcDbEntity
  8
2
370
    25
100
AcDbLine
 10
42.12616
 20
-118.34524
 30
0.0
 11
43.161436
 21
-114.481537
 31
0.0
  0
LINE
  5
789
100
AcDbEntity
  8
2
370
    25
100
AcDbLine
 10
42.12616
 20
-118.34524
 30
0.0
 11
41.090883
 21
-114.481537
 31
0.0
  0
LINE
  5
78A
100
AcDbEntity
  8
2
370
    25
100
AcDbLine
 10
43.161436
 20
-114.481537
 30
0.0
 11
41.090883
 21
-114.481537
 31
0.0
  0
LINE
  5
78B
100
AcDbEntity
  8
2
370
    25
100
AcDbLine
 10
42.12616
 20
-118.34524
 30
0.0
 11
42.12616
 21
-52.15124
 31
0.0
  0
LINE
  5
78C
100
AcDbEntity
  8
2
370
    25
100
AcDbLine
 10
42.12616
 20
-52.15124
 30
0.0
 11
41.090883
 21
-56.014943
 31
0.0
  0
LINE
  5
78D
100
AcDbEntity
  8
2
370
    25
100
AcDbLine
 10
42.12616
 20
-52.15124
 30
0.0
 11
43.161436
 21
-56.014943
 31
0.0
  0
LINE
  5
78E
100
AcDbEntity
  8
2
370
    25
100
AcDbLine
 10
41.090883
 20
-56.014943
 30
0.0
 11
43.161436
 21
-56.014943
 31
0.0
  0
LINE
  5
78F
100
AcDbEntity
  8
2
370
    25
100
AcDbLine
 10
206.129525
 20
-52.15124
 30
0.0
 11
40.12616
 21
-52.15124
 31
0.0
  0
ENDBLK
  5
790
100
AcDbEntity
  8
2
100
AcDbBlockEnd
  0
BLOCK
  5
791
100
AcDbEntity
  8
2
100
AcDbBlockBegin
  2
*D14
 70
     1
 10
0.0
 20
0.0
 30
0.0
  3
*D14
  1

  0
TEXT
  5
792
100
AcDbEntity
  8
2
370
    25
100
AcDbText
 10
-248.673582
 20
235.799561
 30
0.0
 40
7.0
  1
φ４６
 72
     5
 11
-229.073582
 21
235.799561
 31
0.0
100
AcDbText
  0
LINE
  5
793
100
AcDbEntity
  8
2
370
    25
100
AcDbLine
 10
-261.173582
 20
199.818371
 30
0.0
 11
-261.173582
 21
236.799561
 31
0.0
  0
LINE
  5
794
100
AcDbEntity
  8
2
370
    25
100
AcDbLine
 10
-261.173582
 20
234.799561
 30
0.0
 11
-257.309879
 21
233.764285
 31
0.0
  0
LINE
  5
795
100
AcDbEntity
  8
2
370
    25
100
AcDbLine
 10
-261.173582
 20
234.799561
 30
0.0
 11
-257.309879
 21
235.834837
 31
0.0
  0
LINE
  5
796
100
AcDbEntity
  8
2
370
    25
100
AcDbLine
 10
-257.309879
 20
233.764285
 30
0.0
 11
-257.309879
 21
235.834837
 31
0.0
  0
LINE
  5
797
100
AcDbEntity
  8
2
370
    25
100
AcDbLine
 10
-261.173582
 20
234.799561
 30
0.0
 11
-215.173582
 21
234.799561
 31
0.0
  0
LINE
  5
798
100
AcDbEntity
  8
2
370
    25
100
AcDbLine
 10
-215.173582
 20
234.799561
 30
0.0
 11
-219.037285
 21
235.834837
 31
0.0
  0
LINE
  5
799
100
AcDbEntity
  8
2
370
    25
100
AcDbLine
 10
-215.173582
 20
234.799561
 30
0.0
 11
-219.037285
 21
233.764285
 31
0.0
  0
LINE
  5
79A
100
AcDbEntity
  8
2
370
    25
100
AcDbLine
 10
-219.037285
 20
235.834837
 30
0.0
 11
-219.037285
 21
233.764285
 31
0.0
  0
LINE
  5
79B
100
AcDbEntity
  8
2
370
    25
100
AcDbLine
 10
-215.173582
 20
199.818371
 30
0.0
 11
-215.173582
 21
236.799561
 31
0.0
  0
ENDBLK
  5
79C
100
AcDbEntity
  8
2
100
AcDbBlockEnd
  0
BLOCK
  5
79D
100
AcDbEntity
  8
2
100
AcDbBlockBegin
  2
*D15
 70
     1
 10
0.0
 20
0.0
 30
0.0
  3
*D15
  1

  0
LINE
  5
79E
100
AcDbEntity
  8
2
370
    25
100
AcDbLine
 10
44.59682
 20
-154.94524
 30
0.0
 11
21.671413
 21
-154.94524
 31
0.0
  0
LINE
  5
79F
100
AcDbEntity
  8
2
370
    25
100
AcDbLine
 10
23.671413
 20
-154.94524
 30
0.0
 11
24.70669
 21
-151.081537
 31
0.0
  0
LINE
  5
7A0
100
AcDbEntity
  8
2
370
    25
100
AcDbLine
 10
23.671413
 20
-154.94524
 30
0.0
 11
22.636137
 21
-151.081537
 31
0.0
  0
LINE
  5
7A1
100
AcDbEntity
  8
2
370
    25
100
AcDbLine
 10
24.70669
 20
-151.081537
 30
0.0
 11
22.636137
 21
-151.081537
 31
0.0
  0
LINE
  5
7A2
100
AcDbEntity
  8
2
370
    25
100
AcDbLine
 10
23.671413
 20
-154.94524
 30
0.0
 11
23.671413
 21
-52.15124
 31
0.0
  0
LINE
  5
7A3
100
AcDbEntity
  8
2
370
    25
100
AcDbLine
 10
23.671413
 20
-52.15124
 30
0.0
 11
22.636137
 21
-56.014943
 31
0.0
  0
LINE
  5
7A4
100
AcDbEntity
  8
2
370
    25
100
AcDbLine
 10
23.671413
 20
-52.15124
 30
0.0
 11
24.70669
 21
-56.014943
 31
0.0
  0
LINE
  5
7A5
100
AcDbEntity
  8
2
370
    25
100
AcDbLine
 10
22.636137
 20
-56.014943
 30
0.0
 11
24.70669
 21
-56.014943
 31
0.0
  0
LINE
  5
7A6
100
AcDbEntity
  8
2
370
    25
100
AcDbLine
 10
206.129525
 20
-52.15124
 30
0.0
 11
21.671413
 21
-52.15124
 31
0.0
  0
ENDBLK
  5
7A7
100
AcDbEntity
  8
2
100
AcDbBlockEnd
  0
ENDSEC
  0
SECTION
  2
ENTITIES
  0
LINE
  5
34
100
AcDbEntity
  8
1
370
   100
100
AcDbLine
 10
-373.02157
 20
275.028767
 30
0.0
 11
394.982385
 21
275.028767
 31
0.0
  0
LINE
  5
35
100
AcDbEntity
  8
1
370
   100
100
AcDbLine
 10
-373.02157
 20
275.028767
 30
0.0
 11
-373.02157
 21
-277.971881
 31
0.0
  0
LINE
  5
36
100
AcDbEntity
  8
1
370
   100
100
AcDbLine
 10
-373.02157
 20
-277.971881
 30
0.0
 11
394.982385
 21
-277.971881
 31
0.0
  0
LINE
  5
37
100
AcDbEntity
  8
1
370
   100
100
AcDbLine
 10
394.982385
 20
-277.971881
 30
0.0
 11
394.982385
 21
275.028767
 31
0.0
  0
TEXT
  5
38
100
AcDbEntity
  8
1
370
    50
100
AcDbText
 10
359.628442
 20
-226.252857
 30
0.0
 40
6.0
  1
設計
 72
     5
 11
370.428442
 21
-226.252857
 31
0.0
100
AcDbText
  0
TEXT
  5
39
100
AcDbEntity
  8
1
370
    50
100
AcDbText
 10
379.127478
 20
-226.099658
 30
0.0
 40
6.0
  1
製図
 72
     5
 11
389.927478
 21
-226.099658
 31
0.0
100
AcDbText
  0
TEXT
  5
3A
100
AcDbEntity
  8
1
370
    50
100
AcDbText
 10
319.005745
 20
-226.252857
 30
0.0
 40
6.0
  1
承認
 72
     5
 11
329.805745
 21
-226.252857
 31
0.0
100
AcDbText
  0
TEXT
  5
3B
100
AcDbEntity
  8
1
370
    50
100
AcDbText
 10
338.989679
 20
-226.19802
 30
0.0
 40
6.0
  1
検図
 72
     5
 11
349.789679
 21
-226.19802
 31
0.0
100
AcDbText
  0
LINE
  5
3C
100
AcDbEntity
  8
1
370
    25
100
AcDbLine
 10
284.982385
 20
-227.971881
 30
0.0
 11
394.982385
 21
-227.971881
 31
0.0
  0
LINE
  5
3D
100
AcDbEntity
  8
1
370
    25
100
AcDbLine
 10
342.482385
 20
-245.971881
 30
0.0
 11
342.482385
 21
-259.971881
 31
0.0
  0
TEXT
  5
3E
100
AcDbEntity
  8
1
370
    50
100
AcDbText
 10
319.55159
 20
-256.012528
 30
0.0
 40
6.0
  1
日　付
 72
     5
 11
336.35159
 21
-256.012528
 31
0.0
100
AcDbText
  0
LINE
  5
3F
100
AcDbEntity
  8
1
370
    50
100
AcDbLine
 10
40.982385
 20
-259.971881
 30
0.0
 11
394.982385
 21
-259.971881
 31
0.0
  0
TEXT
  5
40
100
AcDbEntity
  8
1
370
    50
100
AcDbText
 10
287.775011
 20
-256.322406
 30
0.0
 40
6.0
  1
第三角法
 72
     5
 11
310.575011
 21
-256.322406
 31
0.0
100
AcDbText
  0
TEXT
  5
41
100
AcDbEntity
  8
1
370
    50
100
AcDbText
 10
291.087419
 20
-225.99802
 30
0.0
 40
6.0
  1
尺　度
 72
     5
 11
307.887419
 21
-225.99802
 31
0.0
100
AcDbText
  0
LINE
  5
42
100
AcDbEntity
  8
1
370
   100
100
AcDbLine
 10
40.982385
 20
-217.971881
 30
0.0
 11
394.982385
 21
-217.971881
 31
0.0
  0
LINE
  5
43
100
AcDbEntity
  8
1
370
    50
100
AcDbLine
 10
211.982385
 20
-217.971881
 30
0.0
 11
211.982385
 21
-277.971881
 31
0.0
  0
LINE
  5
44
100
AcDbEntity
  8
1
370
    25
100
AcDbLine
 10
374.982385
 20
-245.971881
 30
0.0
 11
374.982385
 21
-217.971881
 31
0.0
  0
LINE
  5
45
100
AcDbEntity
  8
1
370
    25
100
AcDbLine
 10
354.982385
 20
-245.971881
 30
0.0
 11
354.982385
 21
-217.971881
 31
0.0
  0
LINE
  5
46
100
AcDbEntity
  8
1
370
    25
100
AcDbLine
 10
334.982385
 20
-245.971881
 30
0.0
 11
334.982385
 21
-217.971881
 31
0.0
  0
LINE
  5
47
100
AcDbEntity
  8
1
370
    50
100
AcDbLine
 10
284.982385
 20
-277.971881
 30
0.0
 11
284.982385
 21
-217.971881
 31
0.0
  0
LINE
  5
48
100
AcDbEntity
  8
1
370
    50
100
AcDbLine
 10
189.982385
 20
-217.971881
 30
0.0
 11
189.982385
 21
-277.971881
 31
0.0
  0
LINE
  5
49
100
AcDbEntity
  8
1
370
    50
100
AcDbLine
 10
62.982385
 20
-217.971881
 30
0.0
 11
62.982385
 21
-259.971881
 31
0.0
  0
LINE
  5
4A
100
AcDbEntity
  8
1
370
    50
100
AcDbLine
 10
284.982385
 20
-245.971881
 30
0.0
 11
394.982385
 21
-245.971881
 31
0.0
  0
TEXT
  5
4B
100
AcDbEntity
  8
1
370
    50
100
AcDbText
 10
287.101129
 20
-271.880939
 30
0.0
 40
6.0
  1
コードＮｏ
 41
0.9
 72
     5
 11
313.021129
 21
-271.880939
 31
0.0
100
AcDbText
  0
TEXT
  5
4C
100
AcDbEntity
  8
1
370
   100
100
AcDbText
 10
52.886774
 20
-272.875659
 30
0.0
 40
8.0
  1
ミズタニバルブ工業株式会社
 41
1.2
 72
     5
 11
175.766774
 21
-272.875659
 31
0.0
100
AcDbText
  0
LINE
  5
4D
100
AcDbEntity
  8
1
370
    50
100
AcDbLine
 10
40.982385
 20
-238.971881
 30
0.0
 11
284.982385
 21
-238.971881
 31
0.0
  0
LINE
  5
4E
100
AcDbEntity
  8
1
370
    50
100
AcDbLine
 10
115.482385
 20
-238.971881
 30
0.0
 11
115.482385
 21
-259.971881
 31
0.0
  0
LINE
  5
4F
100
AcDbEntity
  8
1
370
    50
100
AcDbLine
 10
137.482385
 20
-238.971881
 30
0.0
 11
137.482385
 21
-259.971881
 31
0.0
  0
LINE
  5
50
100
AcDbEntity
  8
1
370
    50
100
AcDbLine
 10
314.982385
 20
-277.971881
 30
0.0
 11
314.982385
 21
-217.971881
 31
0.0
  0
TEXT
  5
51
100
AcDbEntity
  8
1
370
    50
100
AcDbText
 10
345.098131
 20
-256.100293
 30
0.0
 40
6.0
  1
　　・　　・
 72
     5
 11
379.898131
 21
-256.100293
 31
0.0
100
AcDbText
  0
LINE
  5
52
100
AcDbEntity
  8
1
370
   100
100
AcDbLine
 10
40.982385
 20
-217.971881
 30
0.0
 11
40.982385
 21
-277.971881
 31
0.0
  0
TEXT
  5
53
100
AcDbEntity
  8
1
370
    50
100
AcDbText
 10
290.832582
 20
-240.013492
 30
0.0
 40
6.0
  1
　／ 
 72
     5
 11
301.632582
 21
-240.013492
 31
0.0
100
AcDbText
  0
TEXT
  5
54
100
AcDbEntity
  8
1
370
    50
100
AcDbText
 10
193.904123
 20
-272.024909
 30
0.0
 40
6.0
  1
備 考 
 72
     5
 11
207.704123
 21
-272.024909
 31
0.0
100
AcDbText
  0
TEXT
  5
55
100
AcDbEntity
  8
1
370
    50
100
AcDbText
 10
193.512534
 20
-230.89184
 30
0.0
 40
6.0
  1
仕 上
 72
     5
 11
207.312534
 21
-230.89184
 31
0.0
100
AcDbText
  0
TEXT
  5
56
100
AcDbEntity
  8
1
370
    50
100
AcDbText
 10
193.447176
 20
-248.891666
 30
0.0
 40
6.0
  1
表 面
 72
     5
 11
207.247176
 21
-248.891666
 31
0.0
100
AcDbText
  0
TEXT
  5
57
100
AcDbEntity
  8
1
370
    50
100
AcDbText
 10
193.447176
 20
-255.891666
 30
0.0
 40
6.0
  1
処 理
 72
     5
 11
207.247176
 21
-255.891666
 31
0.0
100
AcDbText
  0
TEXT
  5
58
100
AcDbEntity
  8
1
370
    50
100
AcDbText
 10
44.79335
 20
-231.693399
 30
0.0
 40
6.0
  1
品 名
 72
     5
 11
58.59335
 21
-231.693399
 31
0.0
100
AcDbText
  0
TEXT
  5
59
100
AcDbEntity
  8
1
370
    50
100
AcDbText
 10
44.397766
 20
-252.462534
 30
0.0
 40
6.0
  1
材 質
 72
     5
 11
58.197766
 21
-252.462534
 31
0.0
100
AcDbText
  0
TEXT
  5
5A
100
AcDbEntity
  8
1
370
    50
100
AcDbText
 10
118.897766
 20
-252.462534
 30
0.0
 40
6.0
  1
規 格
 72
     5
 11
132.697766
 21
-252.462534
 31
0.0
100
AcDbText
  0
DIMENSION
  5
5B
100
AcDbEntity
  8
2
370
    25
100
AcDbDimension
  2
*D0
 10
-78.173582
 20
234.799561
 30
0.0
 11
-128.173582
 21
239.299561
 31
0.0
 71
     0
 72
     0
 41
0.0
 42
0.0
  3
Standard
100
AcDbAlignedDimension
 13
-178.173582
 23
183.313228
 33
0.0
 14
-78.173582
 24
181.735366
 34
0.0
100
AcDbRotatedDimension
  0
DIMENSION
  5
5C
100
AcDbEntity
  8
2
370
    25
100
AcDbDimension
  2
*D1
 10
-18.173582
 20
234.799561
 30
0.0
 11
-48.173582
 21
239.299561
 31
0.0
 71
     0
 72
     0
 41
0.0
 42
0.0
  3
Standard
100
AcDbAlignedDimension
 13
-78.173582
 23
181.735366
 33
0.0
 14
-18.173582
 24
217.710816
 34
0.0
100
AcDbRotatedDimension
  0
TEXT
  5
5D
100
AcDbEntity
  8
2
370
    50
100
AcDbText
 10
-138.674002
 20
5.675066
 30
0.0
 40
7.0
  1
２２８
 72
     5
 11
-119.074002
 21
5.675066
 31
0.0
100
AcDbText
  0
DIMENSION
  5
5E
100
AcDbEntity
  8
2
370
    25
100
AcDbDimension
  2
*D2
 10
-14.873424
 20
4.675066
 30
0.0
 11
-128.174002
 21
6.675066
 31
0.0
 71
     0
 72
     0
 41
0.0
 42
0.0
  3
Standard
100
AcDbAlignedDimension
 13
-241.47458
 23
-41.150873
 33
0.0
 14
-14.873424
 24
-41.151607
 34
0.0
100
AcDbRotatedDimension
  0
TEXT
  5
5F
100
AcDbEntity
  8
2
370
    50
100
AcDbText
 10
-195.324081
 20
-11.394682
 30
0.0
 40
7.0
  1
１１４
 72
     5
 11
-175.724081
 21
-11.394682
 31
0.0
100
AcDbText
  0
DIMENSION
  5
60
100
AcDbEntity
  8
2
370
    25
100
AcDbDimension
  2
*D3
 10
-128.173582
 20
-12.394682
 30
0.0
 11
-184.824081
 21
-10.394682
 31
0.0
 71
     0
 72
     0
 41
0.0
 42
0.0
  3
Standard
100
AcDbAlignedDimension
 13
-241.47458
 23
-41.150873
 33
0.0
 14
-128.173582
 24
-20.22434
 34
0.0
100
AcDbRotatedDimension
  0
TEXT
  5
61
100
AcDbEntity
  8
2
370
    50
100
AcDbText
 10
-82.023503
 20
-11.394682
 30
0.0
 40
7.0
  1
１１４
 72
     5
 11
-62.423503
 21
-11.394682
 31
0.0
100
AcDbText
  0
DIMENSION
  5
62
100
AcDbEntity
  8
2
370
    25
100
AcDbDimension
  2
*D4
 10
-14.873424
 20
-12.394682
 30
0.0
 11
-71.523503
 21
-10.394682
 31
0.0
 71
     0
 72
     0
 41
0.0
 42
0.0
  3
Standard
100
AcDbAlignedDimension
 13
-128.173582
 23
-20.22434
 33
0.0
 14
-14.873424
 24
-41.151607
 34
0.0
100
AcDbRotatedDimension
  0
TEXT
  5
63
100
AcDbEntity
  8
2
370
    50
100
AcDbText
 10
-166.673582
 20
-194.943115
 30
0.0
 40
7.0
  1
１８５（ＭＡＸ２２０）
 72
     5
 11
-91.073582
 21
-194.943115
 31
0.0
100
AcDbText
  0
DIMENSION
  5
64
100
AcDbEntity
  8
2
370
    25
100
AcDbDimension
  2
*D5
 10
-35.747175
 20
-195.943115
 30
0.0
 11
-128.173582
 21
-193.943115
 31
0.0
 71
     0
 72
     0
 41
0.0
 42
0.0
  3
Standard
100
AcDbAlignedDimension
 13
-220.599989
 23
-94.577647
 33
0.0
 14
-35.747175
 24
-94.577647
 34
0.0
100
AcDbRotatedDimension
  0
TEXT
  5
65
100
AcDbEntity
  8
2
370
    50
100
AcDbText
 10
242.479651
 20
-170.200424
 30
0.0
 40
7.0
  1
（９７）
 72
     5
 11
269.079651
 21
-170.200424
 31
0.0
100
AcDbText
  0
DIMENSION
  5
66
100
AcDbEntity
  8
2
370
    25
100
AcDbDimension
  2
*D6
 10
304.829776
 20
-171.200424
 30
0.0
 11
256.479651
 21
-169.200424
 31
0.0
 71
     0
 72
     0
 41
0.0
 42
0.0
  3
Standard
100
AcDbAlignedDimension
 13
208.129525
 23
-80.15124
 33
0.0
 14
304.829776
 24
-135.15124
 34
0.0
100
AcDbRotatedDimension
  0
TEXT
  5
67
100
AcDbEntity
  8
2
370
    50
100
AcDbText
 10
329.829776
 20
-170.200424
 30
0.0
 40
7.0
  1
（１７）
 72
     5
 11
356.429776
 21
-170.200424
 31
0.0
100
AcDbText
  0
DIMENSION
  5
68
100
AcDbEntity
  8
2
370
    25
100
AcDbDimension
  2
*D7
 10
321.829776
 20
-171.200424
 30
0.0
 11
313.329776
 21
-169.200424
 31
0.0
 71
     0
 72
     0
 41
0.0
 42
0.0
  3
Standard
100
AcDbAlignedDimension
 13
304.829776
 23
-135.15124
 33
0.0
 14
321.829776
 24
-121.46674
 34
0.0
100
AcDbRotatedDimension
  0
TEXT
  5
69
100
AcDbEntity
  8
2
370
    50
100
AcDbText
 10
231.779525
 20
-150.054108
 30
0.0
 40
7.0
  1
６１
 72
     5
 11
244.379525
 21
-150.054108
 31
0.0
100
AcDbText
  0
DIMENSION
  5
6A
100
AcDbEntity
  8
2
370
    25
100
AcDbDimension
  2
*D8
 10
269.429525
 20
-151.054108
 30
0.0
 11
238.779525
 21
-149.054108
 31
0.0
 71
     0
 72
     0
 41
0.0
 42
0.0
  3
Standard
100
AcDbAlignedDimension
 13
208.129525
 23
-80.15124
 33
0.0
 14
269.429525
 24
-77.15124
 34
0.0
100
AcDbRotatedDimension
  0
DIMENSION
  5
6B
100
AcDbEntity
  8
2
370
    25
100
AcDbDimension
  2
*D9
 10
227.129525
 20
-190.34993
 30
0.0
 11
142.179525
 21
-185.84993
 31
0.0
 71
     0
 72
     0
 41
0.0
 42
0.0
  3
Standard
100
AcDbAlignedDimension
 13
57.229525
 23
-154.94524
 33
0.0
 14
227.129525
 24
-104.827621
 34
0.0
100
AcDbRotatedDimension
  0
LINE
  5
6C
100
AcDbEntity
  8
2
370
    25
  6
CENTER
100
AcDbLine
 10
160.026137
 20
-39.261976
 30
0.0
 11
208.129525
 21
-52.15124
 31
0.0
  0
LINE
  5
6D
100
AcDbEntity
  8
2
370
    25
  6
CENTER
100
AcDbLine
 10
197.449643
 20
-92.009102
 30
0.0
 11
203.517767
 21
-69.362556
 31
0.0
  0
LINE
  5
6E
100
AcDbEntity
  8
2
370
    25
  6
CENTER
100
AcDbLine
 10
218.295807
 20
-14.210158
 30
0.0
 11
212.992999
 21
-34.000508
 31
0.0
  0
DIMENSION
  5
6F
100
AcDbEntity
  8
2
370
    25
100
AcDbDimension
  2
*D10
 10
208.128222
 20
-52.156102
 30
0.0
 11
170.651035
 21
-85.913812
 31
0.0
 70
     2
 71
     0
 72
     0
 41
0.0
 42
0.0
  3
Standard
100
AcDb2LineAngularDimension
 13
160.546114
 23
-39.401303
 33
0.0
 14
208.129525
 24
-52.15124
 34
0.0
 15
208.129525
 25
-52.15124
 35
0.0
 16
164.535009
 26
-77.320545
 36
0.0
1001
ACAD
1000
DSTYLE
1002
{
1070
   275
1070
     0
1070
   179
1070
     0
1002
}
  0
DIMENSION
  5
70
100
AcDbEntity
  8
2
370
    25
100
AcDbDimension
  2
*D11
 10
160.800233
 20
-39.469394
 30
0.0
 11
191.421944
 21
-2.212862
 31
0.0
 70
     2
 71
     0
 72
     0
 41
0.0
 42
0.0
  3
Standard
100
AcDb2LineAngularDimension
 13
215.365407
 23
-25.146558
 33
0.0
 14
208.129525
 24
-52.15124
 34
0.0
 15
208.129525
 25
-52.15124
 35
0.0
 16
182.828678
 26
-8.328887
 36
0.0
1001
ACAD
1000
DSTYLE
1002
{
1070
   275
1070
     0
1070
   179
1070
     0
1002
}
  0
TEXT
  5
71
100
AcDbEntity
  8
2
370
    50
100
AcDbText
 10
135.00293
 20
-39.996449
 30
0.0
 40
7.0
  1
止水
 72
     5
 11
147.60293
 21
-39.996449
 31
0.0
100
AcDbText
  0
TEXT
  5
72
100
AcDbEntity
  8
2
370
    50
100
AcDbText
 10
201.409363
 20
4.537668
 30
0.0
 40
7.0
  1
シャワー吐水
 72
     5
 11
242.009363
 21
4.537668
 31
0.0
100
AcDbText
  0
TEXT
  5
73
100
AcDbEntity
  8
2
370
    50
100
AcDbText
 10
147.417511
 20
-103.930466
 30
0.0
 40
7.0
  1
パイプ吐水
 72
     5
 11
181.017511
 21
-103.930466
 31
0.0
100
AcDbText
  0
DIMENSION
  5
74
100
AcDbEntity
  8
2
370
    25
100
AcDbDimension
  2
*D12
 10
114.614922
 20
-30.15124
 30
0.0
 11
106.614922
 21
-41.15124
 31
0.0
 71
     0
 72
     0
 41
0.0
 42
0.0
  3
Standard
100
AcDbAlignedDimension
 13
208.129525
 23
-52.15124
 33
0.0
 14
208.129525
 24
-30.15124
 34
0.0
 50
90.0
100
AcDbRotatedDimension
  0
POINT
  5
75
100
AcDbEntity
  8
2
370
    50
100
AcDbPoint
 10
52.249533
 20
-118.34524
 30
0.0
  0
DIMENSION
  5
76
100
AcDbEntity
  8
2
370
    25
100
AcDbDimension
  2
*D13
 10
42.12616
 20
-52.15124
 30
0.0
 11
34.12616
 21
-85.24824
 31
0.0
 71
     0
 72
     0
 41
0.0
 42
0.0
  3
Standard
100
AcDbAlignedDimension
 13
52.249533
 23
-118.34524
 33
0.0
 14
208.129525
 24
-52.15124
 34
0.0
 50
90.0
100
AcDbRotatedDimension
  0
TEXT
  5
77
100
AcDbEntity
  8
2
370
    50
100
AcDbText
 10
-268.086252
 20
33.512315
 30
0.0
 40
7.0
  1
吐水温度表示
 72
     5
 11
-227.486252
 21
33.512315
 31
0.0
100
AcDbText
  0
LWPOLYLINE
  5
78
100
AcDbEntity
  8
2
370
    25
100
AcDbPolyline
 90
        3
 70
     0
 10
-203.656428
 20
79.900888
 10
-215.138926
 20
36.893045
 10
-224.941141
 20
36.893045
  0
LINE
  5
7D
100
AcDbEntity
  8
2
370
    25
100
AcDbLine
 10
-204.653073
 20
76.16794
 30
0.0
 11
-203.652833
 21
75.900889
 31
0.0
  0
LINE
  5
7E
100
AcDbEntity
  8
2
370
    25
100
AcDbLine
 10
-203.652833
 20
75.900889
 30
0.0
 11
-203.656428
 21
79.900888
 31
0.0
  0
LINE
  5
7F
100
AcDbEntity
  8
2
370
    25
100
AcDbLine
 10
-203.656428
 20
79.900888
 30
0.0
 11
-205.653313
 21
76.43499
 31
0.0
  0
LINE
  5
80
100
AcDbEntity
  8
2
370
    25
100
AcDbLine
 10
-205.653313
 20
76.43499
 30
0.0
 11
-204.653073
 21
76.16794
 31
0.0
  0
TEXT
  5
81
100
AcDbEntity
  8
2
370
    50
100
AcDbText
 10
-268.086252
 20
48.512315
 30
0.0
 40
7.0
  1
安全ボタン
 72
     5
 11
-234.486252
 21
48.512315
 31
0.0
100
AcDbText
  0
LWPOLYLINE
  5
82
100
AcDbEntity
  8
2
370
    25
100
AcDbPolyline
 90
        3
 70
     0
 10
-213.146708
 20
78.874017
 10
-220.547892
 20
51.984227
 10
-233.215342
 20
51.984227
  0
LINE
  5
87
100
AcDbEntity
  8
2
370
    25
100
AcDbLine
 10
-214.17203
 20
75.148843
 30
0.0
 11
-213.173873
 21
74.874109
 31
0.0
  0
LINE
  5
88
100
AcDbEntity
  8
2
370
    25
100
AcDbLine
 10
-213.173873
 20
74.874109
 30
0.0
 11
-213.146708
 21
78.874017
 31
0.0
  0
LINE
  5
89
100
AcDbEntity
  8
2
370
    25
100
AcDbLine
 10
-213.146708
 20
78.874017
 30
0.0
 11
-215.170187
 21
75.423578
 31
0.0
  0
LINE
  5
8A
100
AcDbEntity
  8
2
370
    25
100
AcDbLine
 10
-215.170187
 20
75.423578
 30
0.0
 11
-214.17203
 21
75.148843
 31
0.0
  0
POINT
  5
8B
100
AcDbEntity
  8
2
370
    50
100
AcDbPoint
 10
-128.173582
 20
131.118119
 30
0.0
  0
POINT
  5
8C
100
AcDbEntity
  8
2
370
    50
100
AcDbPoint
 10
-132.060766
 20
126.410854
 30
0.0
  0
POINT
  5
8D
100
AcDbEntity
  8
2
370
    50
100
AcDbPoint
 10
-128.173582
 20
126.118119
 30
0.0
  0
POINT
  5
8E
100
AcDbEntity
  8
2
370
    50
100
AcDbPoint
 10
-128.173582
 20
126.118119
 30
0.0
  0
TEXT
  5
8F
100
AcDbEntity
  8
2
370
    50
100
AcDbText
 10
-239.838894
 20
143.383294
 30
0.0
 40
7.0
  1
逆止弁内蔵
 72
     5
 11
-206.238894
 21
143.383294
 31
0.0
100
AcDbText
  0
TEXT
  5
90
100
AcDbEntity
  8
2
370
    50
100
AcDbText
 10
-51.477367
 20
143.757989
 30
0.0
 40
7.0
  1
逆止弁内蔵
 72
     5
 11
-17.877367
 21
143.757989
 31
0.0
100
AcDbText
  0
LWPOLYLINE
  5
91
100
AcDbEntity
  8
2
370
    25
100
AcDbPolyline
 90
        2
 70
     0
 10
-187.701122
 20
154.964761
 10
-203.342449
 20
148.015893
  0
LINE
  5
95
100
AcDbEntity
  8
2
370
    25
100
AcDbLine
 10
-191.232056
 20
153.396096
 30
0.0
 11
-190.811734
 21
152.449985
 31
0.0
  0
LINE
  5
96
100
AcDbEntity
  8
2
370
    25
100
AcDbLine
 10
-190.811734
 20
152.449985
 30
0.0
 11
-187.701122
 21
154.964761
 31
0.0
  0
LINE
  5
97
100
AcDbEntity
  8
2
370
    25
100
AcDbLine
 10
-187.701122
 20
154.964761
 30
0.0
 11
-191.652379
 21
154.342207
 31
0.0
  0
LINE
  5
98
100
AcDbEntity
  8
2
370
    25
100
AcDbLine
 10
-191.652379
 20
154.342207
 30
0.0
 11
-191.232056
 21
153.396096
 31
0.0
  0
LWPOLYLINE
  5
99
100
AcDbEntity
  8
2
370
    25
100
AcDbPolyline
 90
        2
 70
     0
 10
-67.205029
 20
154.385674
 10
-52.722332
 20
149.174081
  0
LINE
  5
9D
100
AcDbEntity
  8
2
370
    25
100
AcDbLine
 10
-63.569545
 20
153.077447
 30
0.0
 11
-63.219006
 21
154.051572
 31
0.0
  0
LINE
  5
9E
100
AcDbEntity
  8
2
370
    25
100
AcDbLine
 10
-63.219006
 20
154.051572
 30
0.0
 11
-67.205029
 21
154.385674
 31
0.0
  0
LINE
  5
9F
100
AcDbEntity
  8
2
370
    25
100
AcDbLine
 10
-67.205029
 20
154.385674
 30
0.0
 11
-63.920083
 21
152.103322
 31
0.0
  0
LINE
  5
A0
100
AcDbEntity
  8
2
370
    25
100
AcDbLine
 10
-63.920083
 20
152.103322
 30
0.0
 11
-63.569545
 21
153.077447
 31
0.0
  0
TEXT
  5
A1
100
AcDbEntity
  8
2
370
    50
100
AcDbText
 10
-44.976978
 20
28.396935
 30
0.0
 40
7.0
  1
シャワー、パイプ吐水
 72
     5
 11
23.623022
 21
28.396935
 31
0.0
100
AcDbText
  0
TEXT
  5
A2
100
AcDbEntity
  8
2
370
    50
100
AcDbText
 10
-44.976978
 20
20.396935
 30
0.0
 40
7.0
  1
及び止水位置の表示
 72
     5
 11
16.623022
 21
20.396935
 31
0.0
100
AcDbText
  0
LWPOLYLINE
  5
A3
100
AcDbEntity
  8
2
370
    25
100
AcDbPolyline
 90
        3
 70
     0
 10
-62.399764
 20
81.49726
 10
-55.682957
 20
31.263973
 10
-46.561947
 20
31.263973
  0
LINE
  5
A8
100
AcDbEntity
  8
2
370
    25
100
AcDbLine
 10
-61.887697
 20
77.66764
 30
0.0
 11
-60.861553
 21
77.804848
 31
0.0
  0
LINE
  5
A9
100
AcDbEntity
  8
2
370
    25
100
AcDbLine
 10
-60.861553
 20
77.804848
 30
0.0
 11
-62.399764
 21
81.49726
 31
0.0
  0
LINE
  5
AA
100
AcDbEntity
  8
2
370
    25
100
AcDbLine
 10
-62.399764
 20
81.49726
 30
0.0
 11
-62.91384
 21
77.530432
 31
0.0
  0
LINE
  5
AB
100
AcDbEntity
  8
2
370
    25
100
AcDbLine
 10
-62.91384
 20
77.530432
 30
0.0
 11
-61.887697
 21
77.66764
 31
0.0
  0
TEXT
  5
AC
100
AcDbEntity
  8
2
370
    50
100
AcDbText
 10
-272.527781
 20
20.2137
 30
0.0
 40
7.0
  1
４０度位置の表示
 72
     5
 11
-217.927781
 21
20.2137
 31
0.0
100
AcDbText
  0
LWPOLYLINE
  5
AD
100
AcDbEntity
  8
2
370
    25
100
AcDbPolyline
 90
        3
 70
     0
 10
-192.826385
 20
90.608315
 10
-207.424026
 20
23.57505
 10
-215.765488
 20
23.57505
  0
LINE
  5
B2
100
AcDbEntity
  8
2
370
    25
100
AcDbLine
 10
-193.648505
 20
86.83309
 30
0.0
 11
-192.636937
 21
86.612803
 31
0.0
  0
LINE
  5
B3
100
AcDbEntity
  8
2
370
    25
100
AcDbLine
 10
-192.636937
 20
86.612803
 30
0.0
 11
-192.826385
 21
90.608315
 31
0.0
  0
LINE
  5
B4
100
AcDbEntity
  8
2
370
    25
100
AcDbLine
 10
-192.826385
 20
90.608315
 30
0.0
 11
-194.660074
 21
87.053376
 31
0.0
  0
LINE
  5
B5
100
AcDbEntity
  8
2
370
    25
100
AcDbLine
 10
-194.660074
 20
87.053376
 30
0.0
 11
-193.648505
 21
86.83309
 31
0.0
  0
POINT
  5
B6
100
AcDbEntity
  8
2
370
    50
100
AcDbPoint
 10
-179.17416
 20
126.245921
 30
0.0
  0
TEXT
  5
B7
100
AcDbEntity
  8
2
370
    50
100
AcDbText
 10
67.755127
 20
-226.683212
 30
0.0
 40
6.0
  1
壁付きサーモスタット湯水混合水栓（シャワバス・共）
 41
0.8
 72
     5
 11
186.795127
 21
-226.683212
 31
0.0
100
AcDbText
  0
TEXT
  5
B8
100
AcDbEntity
  8
2
370
    50
100
AcDbText
 10
228.956802
 20
-272.482361
 30
0.0
 40
7.0
  1
外観寸法図
 72
     5
 11
262.556802
 21
-272.482361
 31
0.0
100
AcDbText
  0
DIMENSION
  5
B9
100
AcDbEntity
  8
2
370
    25
100
AcDbDimension
  2
*D14
 10
-215.173582
 20
234.799561
 30
0.0
 11
-238.173582
 21
239.299561
 31
0.0
 71
     0
 72
     0
 41
0.0
 42
0.0
  3
Standard
100
AcDbAlignedDimension
 13
-261.173582
 23
197.818371
 33
0.0
 14
-215.173582
 24
197.818371
 34
0.0
100
AcDbRotatedDimension
  0
TEXT
  5
BA
100
AcDbEntity
  8
2
370
    50
100
AcDbText
 10
4.065747
 20
223.898196
 30
0.0
 40
7.0
  1
ＰＪ１／２
 72
     5
 11
37.665747
 21
223.898196
 31
0.0
100
AcDbText
  0
LWPOLYLINE
  5
BB
100
AcDbEntity
  8
2
370
    25
100
AcDbPolyline
 90
        3
 70
     0
 10
-7.696082
 20
206.002361
 10
3.369202
 20
221.651729
 10
37.704482
 20
221.651729
  0
LINE
  5
C0
100
AcDbEntity
  8
2
370
    25
100
AcDbLine
 10
-5.465438
 20
209.157108
 30
0.0
 11
-6.31075
 21
209.754808
 31
0.0
  0
LINE
  5
C1
100
AcDbEntity
  8
2
370
    25
100
AcDbLine
 10
-6.31075
 20
209.754808
 30
0.0
 11
-7.696082
 21
206.002361
 31
0.0
  0
LINE
  5
C2
100
AcDbEntity
  8
2
370
    25
100
AcDbLine
 10
-7.696082
 20
206.002361
 30
0.0
 11
-4.620126
 21
208.559409
 31
0.0
  0
LINE
  5
C3
100
AcDbEntity
  8
2
370
    25
100
AcDbLine
 10
-4.620126
 20
208.559409
 30
0.0
 11
-5.465438
 21
209.157108
 31
0.0
  0
LINE
  5
C4
100
AcDbEntity
  8
2
370
    50
100
AcDbLine
 10
-63.473004
 20
-54.021335
 30
0.0
 11
-63.473004
 21
-57.021335
 31
0.0
  0
ARC
  5
C5
100
AcDbEntity
  8
2
370
    50
100
AcDbCircle
 10
-63.773004
 20
-57.021335
 30
0.0
 40
0.3
100
AcDbArc
 50
180.0
 51
360.0
  0
LINE
  5
C6
100
AcDbEntity
  8
2
370
    50
100
AcDbLine
 10
-64.073004
 20
-54.021335
 30
0.0
 11
-64.073004
 21
-57.021335
 31
0.0
  0
ARC
  5
C7
100
AcDbEntity
  8
2
370
    50
100
AcDbCircle
 10
-63.773004
 20
-54.021335
 30
0.0
 40
0.3
100
AcDbArc
 50
360.0
 51
180.0
  0
LINE
  5
C8
100
AcDbEntity
  8
2
370
    50
100
AcDbLine
 10
-65.673004
 20
-54.021335
 30
0.0
 11
-65.673004
 21
-57.021335
 31
0.0
  0
ARC
  5
C9
100
AcDbEntity
  8
2
370
    50
100
AcDbCircle
 10
-65.373004
 20
-57.021335
 30
0.0
 40
0.3
100
AcDbArc
 50
180.0
 51
360.0
  0
LINE
  5
CA
100
AcDbEntity
  8
2
370
    50
100
AcDbLine
 10
-65.073004
 20
-54.021335
 30
0.0
 11
-65.073004
 21
-57.021335
 31
0.0
  0
ARC
  5
CB
100
AcDbEntity
  8
2
370
    50
100
AcDbCircle
 10
-65.373004
 20
-54.021335
 30
0.0
 40
0.3
100
AcDbArc
 50
0.0
 51
180.0
  0
LINE
  5
CC
100
AcDbEntity
  8
2
370
    50
100
AcDbLine
 10
-62.073004
 20
-51.55124
 30
0.0
 11
-62.073004
 21
-52.75124
 31
0.0
  0
LINE
  5
CD
100
AcDbEntity
  8
2
370
    50
100
AcDbLine
 10
-67.073004
 20
-51.55124
 30
0.0
 11
-67.073004
 21
-52.75124
 31
0.0
  0
LINE
  5
CE
100
AcDbEntity
  8
2
370
    50
100
AcDbLine
 10
-61.840051
 20
-41.960803
 30
0.0
 11
-60.920798
 21
-41.189458
 31
0.0
  0
LINE
  5
CF
100
AcDbEntity
  8
2
370
    50
100
AcDbLine
 10
-64.657893
 20
-36.735761
 30
0.0
 11
-65.577146
 21
-37.507106
 31
0.0
  0
ARC
  5
D0
100
AcDbEntity
  8
2
370
    50
100
AcDbCircle
 10
-65.584171
 20
-39.210031
 30
0.0
 40
0.25
100
AcDbArc
 50
130.0
 51
310.0
  0
ARC
  5
D1
100
AcDbEntity
  8
2
370
    50
100
AcDbCircle
 10
-65.354358
 20
-39.017194
 30
0.0
 40
0.25
100
AcDbArc
 50
310.0
 51
130.0
  0
ARC
  5
D2
100
AcDbEntity
  8
2
370
    50
100
AcDbCircle
 10
-66.580029
 20
-40.045654
 30
0.0
 40
0.25
100
AcDbArc
 50
130.0
 51
310.0
  0
ARC
  5
D3
100
AcDbEntity
  8
2
370
    50
100
AcDbCircle
 10
-66.350215
 20
-39.852818
 30
0.0
 40
0.25
100
AcDbArc
 50
310.0
 51
130.0
  0
ARC
  5
D4
100
AcDbEntity
  8
2
370
    50
100
AcDbCircle
 10
-67.575886
 20
-40.881278
 30
0.0
 40
0.25
100
AcDbArc
 50
130.0
 51
310.0
  0
ARC
  5
D5
100
AcDbEntity
  8
2
370
    50
100
AcDbCircle
 10
-67.346073
 20
-40.688442
 30
0.0
 40
0.25
100
AcDbArc
 50
310.0
 51
130.0
  0
LINE
  5
D6
100
AcDbEntity
  8
2
370
    50
100
AcDbLine
 10
-65.744868
 20
-39.018519
 30
0.0
 11
-65.515054
 21
-38.825683
 31
0.0
  0
LINE
  5
D7
100
AcDbEntity
  8
2
370
    50
100
AcDbLine
 10
-65.423474
 20
-39.401542
 30
0.0
 11
-65.193661
 21
-39.208705
 31
0.0
  0
LINE
  5
D8
100
AcDbEntity
  8
2
370
    50
100
AcDbLine
 10
-66.740726
 20
-39.854143
 30
0.0
 11
-66.510912
 21
-39.661307
 31
0.0
  0
LINE
  5
D9
100
AcDbEntity
  8
2
370
    50
100
AcDbLine
 10
-66.419332
 20
-40.237166
 30
0.0
 11
-66.189518
 21
-40.044329
 31
0.0
  0
LINE
  5
DA
100
AcDbEntity
  8
2
370
    50
100
AcDbLine
 10
-67.185376
 20
-40.879953
 30
0.0
 11
-67.41519
 21
-41.072789
 31
0.0
  0
LINE
  5
DB
100
AcDbEntity
  8
2
370
    50
100
AcDbLine
 10
-67.736583
 20
-40.689767
 30
0.0
 11
-67.50677
 21
-40.496931
 31
0.0
  0
ARC
  5
DC
100
AcDbEntity
  8
2
370
    50
100
AcDbCircle
 10
-66.098401
 20
-38.597195
 30
0.0
 40
0.25
100
AcDbArc
 50
130.0
 51
310.0
  0
ARC
  5
DD
100
AcDbEntity
  8
2
370
    50
100
AcDbCircle
 10
-65.868588
 20
-38.404359
 30
0.0
 40
0.25
100
AcDbArc
 50
310.0
 51
130.0
  0
ARC
  5
DE
100
AcDbEntity
  8
2
370
    50
100
AcDbCircle
 10
-67.094259
 20
-39.432819
 30
0.0
 40
0.25
100
AcDbArc
 50
130.0
 51
310.0
  0
ARC
  5
DF
100
AcDbEntity
  8
2
370
    50
100
AcDbCircle
 10
-66.864445
 20
-39.239983
 30
0.0
 40
0.25
100
AcDbArc
 50
310.0
 51
130.0
  0
ARC
  5
E0
100
AcDbEntity
  8
2
370
    50
100
AcDbCircle
 10
-68.090117
 20
-40.268443
 30
0.0
 40
0.25
100
AcDbArc
 50
130.0
 51
310.0
  0
ARC
  5
E1
100
AcDbEntity
  8
2
370
    50
100
AcDbCircle
 10
-67.860303
 20
-40.075606
 30
0.0
 40
0.25
100
AcDbArc
 50
310.0
 51
130.0
  0
LINE
  5
E2
100
AcDbEntity
  8
2
370
    50
100
AcDbLine
 10
-66.259098
 20
-38.405684
 30
0.0
 11
-66.029285
 21
-38.212848
 31
0.0
  0
LINE
  5
E3
100
AcDbEntity
  8
2
370
    50
100
AcDbLine
 10
-65.937704
 20
-38.788706
 30
0.0
 11
-65.707891
 21
-38.59587
 31
0.0
  0
LINE
  5
E4
100
AcDbEntity
  8
2
370
    50
100
AcDbLine
 10
-67.254956
 20
-39.241308
 30
0.0
 11
-67.025142
 21
-39.048471
 31
0.0
  0
LINE
  5
E5
100
AcDbEntity
  8
2
370
    50
100
AcDbLine
 10
-66.933562
 20
-39.62433
 30
0.0
 11
-66.703749
 21
-39.431494
 31
0.0
  0
LINE
  5
E6
100
AcDbEntity
  8
2
370
    50
100
AcDbLine
 10
-67.699606
 20
-40.267118
 30
0.0
 11
-67.92942
 21
-40.459954
 31
0.0
  0
LINE
  5
E7
100
AcDbEntity
  8
2
370
    50
100
AcDbLine
 10
-68.250813
 20
-40.076932
 30
0.0
 11
-68.021
 21
-39.884095
 31
0.0
  0
ARC
  5
E8
100
AcDbEntity
  8
2
370
    50
100
AcDbCircle
 10
-65.069941
 20
-39.822866
 30
0.0
 40
0.25
100
AcDbArc
 50
130.0
 51
310.0
  0
ARC
  5
E9
100
AcDbEntity
  8
2
370
    50
100
AcDbCircle
 10
-64.840127
 20
-39.63003
 30
0.0
 40
0.25
100
AcDbArc
 50
310.0
 51
130.0
  0
ARC
  5
EA
100
AcDbEntity
  8
2
370
    50
100
AcDbCircle
 10
-66.065799
 20
-40.65849
 30
0.0
 40
0.25
100
AcDbArc
 50
130.0
 51
310.0
  0
ARC
  5
EB
100
AcDbEntity
  8
2
370
    50
100
AcDbCircle
 10
-65.835985
 20
-40.465654
 30
0.0
 40
0.25
100
AcDbArc
 50
310.0
 51
130.0
  0
ARC
  5
EC
100
AcDbEntity
  8
2
370
    50
100
AcDbCircle
 10
-67.061656
 20
-41.494114
 30
0.0
 40
0.25
100
AcDbArc
 50
130.0
 51
310.0
  0
ARC
  5
ED
100
AcDbEntity
  8
2
370
    50
100
AcDbCircle
 10
-66.831843
 20
-41.301278
 30
0.0
 40
0.25
100
AcDbArc
 50
310.0
 51
130.0
  0
LINE
  5
EE
100
AcDbEntity
  8
2
370
    50
100
AcDbLine
 10
-65.230638
 20
-39.631355
 30
0.0
 11
-65.000824
 21
-39.438519
 31
0.0
  0
LINE
  5
EF
100
AcDbEntity
  8
2
370
    50
100
AcDbLine
 10
-64.909244
 20
-40.014377
 30
0.0
 11
-64.679431
 21
-39.821541
 31
0.0
  0
LINE
  5
F0
100
AcDbEntity
  8
2
370
    50
100
AcDbLine
 10
-66.226495
 20
-40.466979
 30
0.0
 11
-65.996682
 21
-40.274143
 31
0.0
  0
LINE
  5
F1
100
AcDbEntity
  8
2
370
    50
100
AcDbLine
 10
-65.905102
 20
-40.850001
 30
0.0
 11
-65.675288
 21
-40.657165
 31
0.0
  0
LINE
  5
F2
100
AcDbEntity
  8
2
370
    50
100
AcDbLine
 10
-66.671146
 20
-41.492789
 30
0.0
 11
-66.900959
 21
-41.685625
 31
0.0
  0
LINE
  5
F3
100
AcDbEntity
  8
2
370
    50
100
AcDbLine
 10
-67.222353
 20
-41.302603
 30
0.0
 11
-66.99254
 21
-41.109766
 31
0.0
  0
LINE
  5
F4
100
AcDbEntity
  8
2
370
    50
100
AcDbLine
 10
-60.920798
 20
-41.189458
 30
0.0
 11
-64.657893
 21
-36.735761
 31
0.0
  0
LINE
  5
F5
100
AcDbEntity
  8
2
370
    50
100
AcDbLine
 10
-61.840051
 20
-41.960803
 30
0.0
 11
-65.577146
 21
-37.507106
 31
0.0
  0
LINE
  5
F6
100
AcDbEntity
  8
2
370
    50
100
AcDbLine
 10
-62.073004
 20
-51.55124
 30
0.0
 11
-67.073004
 21
-51.55124
 31
0.0
  0
LINE
  5
F7
100
AcDbEntity
  8
2
370
    50
100
AcDbLine
 10
-62.073004
 20
-52.75124
 30
0.0
 11
-67.073004
 21
-52.75124
 31
0.0
  0
CIRCLE
  5
F8
100
AcDbEntity
  8
2
370
    50
100
AcDbCircle
 10
-64.573004
 20
-46.457221
 30
0.0
 40
1.3
  0
CIRCLE
  5
F9
100
AcDbEntity
  8
2
370
    50
100
AcDbCircle
 10
-64.573004
 20
-46.457221
 30
0.0
 40
1.0
  0
HATCH
  5
FA
100
AcDbEntity
  8
2
370
    25
100
AcDbHatch
 10
0.0
 20
0.0
 30
0.0
210
0.0
220
0.0
230
1.0
  2
_U
 70
     0
 71
     1
 91
        1
 92
        1
 93
        4
 72
     1
 10
-61.840051000000003
 20
-41.960802999999999
 11
-65.577145999999999
 21
-37.507106
 72
     1
 10
-65.577145999999999
 20
-37.507106
 11
-64.657893000000001
 21
-36.735760999999997
 72
     1
 10
-64.657893000000001
 20
-36.735760999999997
 11
-60.920797999999998
 21
-41.189458000000002
 72
     1
 10
-60.920797999999998
 20
-41.189458000000002
 11
-61.840051000000003
 21
-41.960802999999999
 97
        4
330
0
330
0
330
0
330
0
 75
     0
 76
     0
 52
45.0
 41
1.0
 77
     0
 78
     1
 53
45.0
 43
0.0
 44
0.0
 45
-0.070711
 46
0.070711
 79
     0
 98
        1
 10
0.0
 20
0.0
  0
LINE
  5
FB
100
AcDbEntity
  8
2
370
    25
100
AcDbLine
 10
-66.238002
 20
-38.804587
 30
0.0
 11
-65.677077
 21
-38.243662
 31
0.0
  0
LINE
  5
FC
100
AcDbEntity
  8
2
370
    25
100
AcDbLine
 10
-66.136299
 20
-38.844306
 30
0.0
 11
-65.628088
 21
-38.336095
 31
0.0
  0
LINE
  5
FD
100
AcDbEntity
  8
2
370
    25
100
AcDbLine
 10
-65.945755
 20
-38.795183
 30
0.0
 11
-65.630182
 21
-38.47961
 31
0.0
  0
LINE
  5
FE
100
AcDbEntity
  8
2
370
    25
100
AcDbLine
 10
-66.308117
 20
-38.733281
 30
0.0
 11
-65.755988
 21
-38.181152
 31
0.0
  0
LINE
  5
FF
100
AcDbEntity
  8
2
370
    25
100
AcDbLine
 10
-66.346241
 20
-38.629984
 30
0.0
 11
-65.870624
 21
-38.154367
 31
0.0
  0
LINE
  5
100
100
AcDbEntity
  8
2
370
    25
100
AcDbLine
 10
-67.319495
 20
-39.324336
 30
0.0
 11
-67.140049
 21
-39.14489
 31
0.0
  0
LINE
  5
101
100
AcDbEntity
  8
2
370
    25
100
AcDbLine
 10
-67.33875
 20
-39.485012
 30
0.0
 11
-66.844516
 21
-38.990778
 31
0.0
  0
LINE
  5
102
100
AcDbEntity
  8
2
370
    25
100
AcDbLine
 10
-67.294634
 20
-39.582317
 30
0.0
 11
-66.73714
 21
-39.024824
 31
0.0
  0
LINE
  5
103
100
AcDbEntity
  8
2
370
    25
100
AcDbLine
 10
-67.219868
 20
-39.648972
 30
0.0
 11
-66.662926
 21
-39.09203
 31
0.0
  0
LINE
  5
104
100
AcDbEntity
  8
2
370
    25
100
AcDbLine
 10
-67.111685
 20
-39.682211
 30
0.0
 11
-66.61949
 21
-39.190016
 31
0.0
  0
LINE
  5
105
100
AcDbEntity
  8
2
370
    25
100
AcDbLine
 10
-66.801932
 20
-39.51388
 30
0.0
 11
-66.641862
 21
-39.353809
 31
0.0
  0
LINE
  5
106
100
AcDbEntity
  8
2
370
    25
100
AcDbLine
 10
-68.315353
 20
-40.15996
 30
0.0
 11
-68.135907
 21
-39.980514
 31
0.0
  0
LINE
  5
107
100
AcDbEntity
  8
2
370
    25
100
AcDbLine
 10
-68.334608
 20
-40.320636
 30
0.0
 11
-67.840374
 21
-39.826402
 31
0.0
  0
LINE
  5
108
100
AcDbEntity
  8
2
370
    25
100
AcDbLine
 10
-68.290492
 20
-40.417941
 30
0.0
 11
-67.732998
 21
-39.860448
 31
0.0
  0
LINE
  5
109
100
AcDbEntity
  8
2
370
    25
100
AcDbLine
 10
-68.215726
 20
-40.484596
 30
0.0
 11
-67.658784
 21
-39.927654
 31
0.0
  0
LINE
  5
10A
100
AcDbEntity
  8
2
370
    25
100
AcDbLine
 10
-68.107543
 20
-40.517835
 30
0.0
 11
-67.615347
 21
-40.02564
 31
0.0
  0
LINE
  5
10B
100
AcDbEntity
  8
2
370
    25
100
AcDbLine
 10
-67.79779
 20
-40.349503
 30
0.0
 11
-67.637719
 21
-40.189433
 31
0.0
  0
HATCH
  5
10C
100
AcDbEntity
  8
2
370
    25
100
AcDbHatch
 10
0.0
 20
0.0
 30
0.0
210
0.0
220
0.0
230
1.0
  2
_U
 70
     0
 71
     1
 91
        1
 92
        1
 93
        4
 72
     2
 10
-66.580028999999996
 20
-40.045653999999999
 40
0.25
 50
130.0
 51
310.0
 73
     1
 72
     1
 10
-66.419331999999997
 20
-40.237166000000002
 11
-66.189518000000007
 21
-40.044328999999998
 72
     2
 10
-66.350215000000006
 20
-39.852817999999999
 40
0.25
 50
310.0
 51
130.0
 73
     1
 72
     1
 10
-66.510912000000005
 20
-39.661307000000001
 11
-66.740725999999995
 21
-39.854143000000001
 97
        4
330
0
330
0
330
0
330
0
 75
     0
 76
     0
 52
45.0
 41
1.0
 77
     0
 78
     1
 53
45.0
 43
0.0
 44
0.0
 45
-0.070711
 46
0.070711
 79
     0
 98
        1
 10
0.0
 20
0.0
  0
LINE
  5
10D
100
AcDbEntity
  8
2
370
    25
100
AcDbLine
 10
-65.214757
 20
-38.809802
 30
0.0
 11
-65.775682
 21
-39.370727
 31
0.0
  0
LINE
  5
10E
100
AcDbEntity
  8
2
370
    25
100
AcDbLine
 10
-65.144642
 20
-38.881109
 30
0.0
 11
-65.696771
 21
-39.433237
 31
0.0
  0
LINE
  5
10F
100
AcDbEntity
  8
2
370
    25
100
AcDbLine
 10
-65.106517
 20
-38.984405
 30
0.0
 11
-65.582134
 21
-39.460022
 31
0.0
  0
LINE
  5
110
100
AcDbEntity
  8
2
370
    25
100
AcDbLine
 10
-65.316459
 20
-38.770084
 30
0.0
 11
-65.82467
 21
-39.278295
 31
0.0
  0
LINE
  5
111
100
AcDbEntity
  8
2
370
    25
100
AcDbLine
 10
-65.507004
 20
-38.819207
 30
0.0
 11
-65.822577
 21
-39.134779
 31
0.0
  0
HATCH
  5
112
100
AcDbEntity
  8
2
370
    25
100
AcDbHatch
 10
0.0
 20
0.0
 30
0.0
210
0.0
220
0.0
230
1.0
  2
_U
 70
     0
 71
     1
 91
        1
 92
        1
 93
        4
 72
     2
 10
-67.346073000000004
 20
-40.688442000000002
 40
0.25
 50
310.0
 51
130.0
 73
     1
 72
     1
 10
-67.506770000000003
 20
-40.496930999999996
 11
-67.736582999999996
 21
-40.689767000000003
 72
     2
 10
-67.575885999999997
 20
-40.881278000000002
 40
0.25
 50
130.0
 51
310.0
 73
     1
 72
     1
 10
-67.415189999999996
 20
-41.072789
 11
-67.185376000000005
 21
-40.879953
 97
        4
330
0
330
0
330
0
330
0
 75
     0
 76
     0
 52
45.0
 41
1.0
 77
     0
 78
     1
 53
45.0
 43
0.0
 44
0.0
 45
-0.070711
 46
0.070711
 79
     0
 98
        1
 10
0.0
 20
0.0
  0
LINE
  5
113
100
AcDbEntity
  8
2
370
    25
100
AcDbLine
 10
-66.692242
 20
-41.093885
 30
0.0
 11
-67.253167
 21
-41.654811
 31
0.0
  0
LINE
  5
114
100
AcDbEntity
  8
2
370
    25
100
AcDbLine
 10
-66.622127
 20
-41.165192
 30
0.0
 11
-67.174256
 21
-41.717321
 31
0.0
  0
LINE
  5
115
100
AcDbEntity
  8
2
370
    25
100
AcDbLine
 10
-66.584003
 20
-41.268489
 30
0.0
 11
-67.05962
 21
-41.744106
 31
0.0
  0
LINE
  5
116
100
AcDbEntity
  8
2
370
    25
100
AcDbLine
 10
-66.793945
 20
-41.054167
 30
0.0
 11
-67.302156
 21
-41.562378
 31
0.0
  0
LINE
  5
117
100
AcDbEntity
  8
2
370
    25
100
AcDbLine
 10
-66.984489
 20
-41.10329
 30
0.0
 11
-67.300062
 21
-41.418863
 31
0.0
  0
HATCH
  5
118
100
AcDbEntity
  8
2
370
    25
100
AcDbHatch
 10
0.0
 20
0.0
 30
0.0
210
0.0
220
0.0
230
1.0
  2
_U
 70
     0
 71
     1
 91
        1
 92
        1
 93
        4
 72
     2
 10
-65.835984999999994
 20
-40.465654000000001
 40
0.25
 50
310.0
 51
130.0
 73
     1
 72
     1
 10
-65.996682000000007
 20
-40.274143000000002
 11
-66.226495
 21
-40.466979000000002
 72
     2
 10
-66.065798999999998
 20
-40.65849
 40
0.25
 50
130.0
 51
310.0
 73
     1
 72
     1
 10
-65.905101999999999
 20
-40.850000999999999
 11
-65.675287999999995
 21
-40.657164999999999
 97
        4
330
0
330
0
330
0
330
0
 75
     0
 76
     0
 52
45.0
 41
1.0
 77
     0
 78
     1
 53
45.0
 43
0.0
 44
0.0
 45
-0.070711
 46
0.070711
 79
     0
 98
        1
 10
0.0
 20
0.0
  0
LINE
  5
119
100
AcDbEntity
  8
2
370
    25
100
AcDbLine
 10
-64.700526
 20
-39.422638
 30
0.0
 11
-65.261452
 21
-39.983563
 31
0.0
  0
LINE
  5
11A
100
AcDbEntity
  8
2
370
    25
100
AcDbLine
 10
-64.630412
 20
-39.493944
 30
0.0
 11
-65.182541
 21
-40.046073
 31
0.0
  0
LINE
  5
11B
100
AcDbEntity
  8
2
370
    25
100
AcDbLine
 10
-64.592287
 20
-39.597241
 30
0.0
 11
-65.067904
 21
-40.072858
 31
0.0
  0
LINE
  5
11C
100
AcDbEntity
  8
2
370
    25
100
AcDbLine
 10
-64.802229
 20
-39.382919
 30
0.0
 11
-65.31044
 21
-39.89113
 31
0.0
  0
LINE
  5
11D
100
AcDbEntity
  8
2
370
    25
100
AcDbLine
 10
-64.992774
 20
-39.432042
 30
0.0
 11
-65.308346
 21
-39.747615
 31
0.0
  0
HATCH
  5
11E
100
AcDbEntity
  8
2
370
    25
100
AcDbHatch
 10
0.0
 20
0.0
 30
0.0
210
0.0
220
0.0
230
1.0
  2
_U
 70
     0
 71
     1
 91
        2
 92
        1
 93
        1
 72
     2
 10
-64.573003999999997
 20
-46.457220999999997
 40
1.3
 50
0.0
 51
360.0
 73
     1
 97
        1
330
0
 92
        0
 93
        1
 72
     2
 10
-64.573003999999997
 20
-46.457220999999997
 40
1.0
 50
0.0
 51
360.0
 73
     1
 97
        1
330
0
 75
     0
 76
     0
 52
45.0
 41
1.0
 77
     0
 78
     1
 53
45.0
 43
0.0
 44
0.0
 45
-0.070711
 46
0.070711
 79
     0
 98
        1
 10
0.0
 20
0.0
  0
HATCH
  5
11F
100
AcDbEntity
  8
2
370
    25
100
AcDbHatch
 10
0.0
 20
0.0
 30
0.0
210
0.0
220
0.0
230
1.0
  2
_U
 70
     0
 71
     1
 91
        1
 92
        1
 93
        4
 72
     1
 10
-62.073003999999997
 20
-51.55124
 11
-67.073003999999997
 21
-51.55124
 72
     1
 10
-67.073003999999997
 20
-51.55124
 11
-67.073003999999997
 21
-52.751240000000003
 72
     1
 10
-67.073003999999997
 20
-52.751240000000003
 11
-62.073003999999997
 21
-52.751240000000003
 72
     1
 10
-62.073003999999997
 20
-52.751240000000003
 11
-62.073003999999997
 21
-51.55124
 97
        4
330
0
330
0
330
0
330
0
 75
     0
 76
     0
 52
45.0
 41
1.0
 77
     0
 78
     1
 53
45.0
 43
0.0
 44
0.0
 45
-0.070711
 46
0.070711
 79
     0
 98
        1
 10
0.0
 20
0.0
  0
LINE
  5
120
100
AcDbEntity
  8
2
370
    25
100
AcDbLine
 10
-65.673004
 20
-56.121335
 30
0.0
 11
-65.073004
 21
-55.521335
 31
0.0
  0
LINE
  5
121
100
AcDbEntity
  8
2
370
    25
100
AcDbLine
 10
-65.673004
 20
-56.262756
 30
0.0
 11
-65.073004
 21
-55.662756
 31
0.0
  0
LINE
  5
122
100
AcDbEntity
  8
2
370
    25
100
AcDbLine
 10
-65.673004
 20
-56.404178
 30
0.0
 11
-65.073004
 21
-55.804178
 31
0.0
  0
LINE
  5
123
100
AcDbEntity
  8
2
370
    25
100
AcDbLine
 10
-65.673004
 20
-56.545599
 30
0.0
 11
-65.073004
 21
-55.945599
 31
0.0
  0
LINE
  5
124
100
AcDbEntity
  8
2
370
    25
100
AcDbLine
 10
-65.673004
 20
-56.68702
 30
0.0
 11
-65.073004
 21
-56.08702
 31
0.0
  0
LINE
  5
125
100
AcDbEntity
  8
2
370
    25
100
AcDbLine
 10
-65.673004
 20
-56.828442
 30
0.0
 11
-65.073004
 21
-56.228442
 31
0.0
  0
LINE
  5
126
100
AcDbEntity
  8
2
370
    25
100
AcDbLine
 10
-65.673004
 20
-56.969863
 30
0.0
 11
-65.073004
 21
-56.369863
 31
0.0
  0
LINE
  5
127
100
AcDbEntity
  8
2
370
    25
100
AcDbLine
 10
-65.662338
 20
-57.100618
 30
0.0
 11
-65.073004
 21
-56.511284
 31
0.0
  0
LINE
  5
128
100
AcDbEntity
  8
2
370
    25
100
AcDbLine
 10
-65.616657
 20
-57.196359
 30
0.0
 11
-65.073004
 21
-56.652706
 31
0.0
  0
LINE
  5
129
100
AcDbEntity
  8
2
370
    25
100
AcDbLine
 10
-65.545594
 20
-57.266717
 30
0.0
 11
-65.073004
 21
-56.794127
 31
0.0
  0
LINE
  5
12A
100
AcDbEntity
  8
2
370
    25
100
AcDbLine
 10
-65.449004
 20
-57.311549
 30
0.0
 11
-65.073004
 21
-56.935548
 31
0.0
  0
LINE
  5
12B
100
AcDbEntity
  8
2
370
    25
100
AcDbLine
 10
-65.310862
 20
-57.314828
 30
0.0
 11
-65.07951
 21
-57.083476
 31
0.0
  0
LINE
  5
12C
100
AcDbEntity
  8
2
370
    25
100
AcDbLine
 10
-65.673004
 20
-55.979913
 30
0.0
 11
-65.073004
 21
-55.379913
 31
0.0
  0
LINE
  5
12D
100
AcDbEntity
  8
2
370
    25
100
AcDbLine
 10
-65.673004
 20
-55.838492
 30
0.0
 11
-65.073004
 21
-55.238492
 31
0.0
  0
LINE
  5
12E
100
AcDbEntity
  8
2
370
    25
100
AcDbLine
 10
-65.673004
 20
-55.697071
 30
0.0
 11
-65.073004
 21
-55.097071
 31
0.0
  0
LINE
  5
12F
100
AcDbEntity
  8
2
370
    25
100
AcDbLine
 10
-65.673004
 20
-55.555649
 30
0.0
 11
-65.073004
 21
-54.955649
 31
0.0
  0
LINE
  5
130
100
AcDbEntity
  8
2
370
    25
100
AcDbLine
 10
-65.673004
 20
-55.414228
 30
0.0
 11
-65.073004
 21
-54.814228
 31
0.0
  0
LINE
  5
131
100
AcDbEntity
  8
2
370
    25
100
AcDbLine
 10
-65.673004
 20
-55.272807
 30
0.0
 11
-65.073004
 21
-54.672807
 31
0.0
  0
LINE
  5
132
100
AcDbEntity
  8
2
370
    25
100
AcDbLine
 10
-65.673004
 20
-55.131385
 30
0.0
 11
-65.073004
 21
-54.531385
 31
0.0
  0
LINE
  5
133
100
AcDbEntity
  8
2
370
    25
100
AcDbLine
 10
-65.673004
 20
-54.989964
 30
0.0
 11
-65.073004
 21
-54.389964
 31
0.0
  0
LINE
  5
134
100
AcDbEntity
  8
2
370
    25
100
AcDbLine
 10
-65.673004
 20
-54.848543
 30
0.0
 11
-65.073004
 21
-54.248543
 31
0.0
  0
LINE
  5
135
100
AcDbEntity
  8
2
370
    25
100
AcDbLine
 10
-65.673004
 20
-54.707121
 30
0.0
 11
-65.073004
 21
-54.107121
 31
0.0
  0
LINE
  5
136
100
AcDbEntity
  8
2
370
    25
100
AcDbLine
 10
-65.07741
 20
-53.970106
 30
0.0
 11
-65.673004
 21
-54.5657
 31
0.0
  0
LINE
  5
137
100
AcDbEntity
  8
2
370
    25
100
AcDbLine
 10
-65.115739
 20
-53.867014
 30
0.0
 11
-65.673004
 21
-54.424279
 31
0.0
  0
LINE
  5
138
100
AcDbEntity
  8
2
370
    25
100
AcDbLine
 10
-65.180985
 20
-53.790838
 30
0.0
 11
-65.673004
 21
-54.282857
 31
0.0
  0
LINE
  5
139
100
AcDbEntity
  8
2
370
    25
100
AcDbLine
 10
-65.270836
 20
-53.739268
 30
0.0
 11
-65.673004
 21
-54.141436
 31
0.0
  0
LINE
  5
13A
100
AcDbEntity
  8
2
370
    25
100
AcDbLine
 10
-65.672186
 20
-53.999197
 30
0.0
 11
-65.395142
 21
-53.722153
 31
0.0
  0
HATCH
  5
13B
100
AcDbEntity
  8
2
370
    25
100
AcDbHatch
 10
0.0
 20
0.0
 30
0.0
210
0.0
220
0.0
230
1.0
  2
_U
 70
     0
 71
     1
 91
        1
 92
        1
 93
        4
 72
     1
 10
-64.073003999999997
 20
-54.021335000000001
 11
-64.073003999999997
 21
-57.021335000000001
 72
     2
 10
-63.773004
 20
-57.021335000000001
 40
0.3
 50
180.0
 51
0.0
 73
     1
 72
     1
 10
-63.473004000000003
 20
-57.021335000000001
 11
-63.473004000000003
 21
-54.021335000000001
 72
     2
 10
-63.773004
 20
-54.021335000000001
 40
0.3
 50
0.0
 51
180.0
 73
     1
 97
        4
330
0
330
0
330
0
330
0
 75
     0
 76
     0
 52
45.0
 41
1.0
 77
     0
 78
     1
 53
45.0
 43
0.0
 44
0.0
 45
-0.070711
 46
0.070711
 79
     0
 98
        1
 10
0.0
 20
0.0
  0
CIRCLE
  5
13C
100
AcDbEntity
  8
2
370
    50
100
AcDbCircle
 10
-192.67416
 20
-46.457221
 30
0.0
 40
1.3
  0
CIRCLE
  5
13D
100
AcDbEntity
  8
2
370
    50
100
AcDbCircle
 10
-192.67416
 20
-46.457221
 30
0.0
 40
1.0
  0
HATCH
  5
13E
100
AcDbEntity
  8
2
370
    25
100
AcDbHatch
 10
0.0
 20
0.0
 30
0.0
210
0.0
220
0.0
230
1.0
  2
_U
 70
     0
 71
     1
 91
        2
 92
        1
 93
        1
 72
     2
 10
-192.67416
 20
-46.457220999999997
 40
1.3
 50
0.0
 51
360.0
 73
     1
 97
        1
330
0
 92
        0
 93
        1
 72
     2
 10
-192.67416
 20
-46.457220999999997
 40
1.0
 50
0.0
 51
360.0
 73
     1
 97
        1
330
0
 75
     0
 76
     0
 52
45.0
 41
1.0
 77
     0
 78
     1
 53
45.0
 43
0.0
 44
0.0
 45
-0.070711
 46
0.070711
 79
     0
 98
        1
 10
0.0
 20
0.0
  0
CIRCLE
  5
13F
100
AcDbEntity
  8
2
370
    50
100
AcDbCircle
 10
-192.67416
 20
92.235043
 30
0.0
 40
1.3
  0
CIRCLE
  5
140
100
AcDbEntity
  8
2
370
    50
100
AcDbCircle
 10
-192.67416
 20
92.235043
 30
0.0
 40
1.0
  0
HATCH
  5
141
100
AcDbEntity
  8
2
370
    25
100
AcDbHatch
 10
0.0
 20
0.0
 30
0.0
210
0.0
220
0.0
230
1.0
  2
_U
 70
     0
 71
     1
 91
        2
 92
        1
 93
        1
 72
     2
 10
-192.67416
 20
92.235043000000005
 40
1.3
 50
0.0
 51
360.0
 73
     1
 97
        1
330
0
 92
        0
 93
        1
 72
     2
 10
-192.67416
 20
92.235043000000005
 40
1.0
 50
0.0
 51
360.0
 73
     1
 97
        1
330
0
 75
     0
 76
     0
 52
45.0
 41
1.0
 77
     0
 78
     1
 53
45.0
 43
0.0
 44
0.0
 45
-0.070711
 46
0.070711
 79
     0
 98
        1
 10
0.0
 20
0.0
  0
LINE
  5
142
100
AcDbEntity
  8
2
370
    50
100
AcDbLine
 10
-63.473004
 20
84.670929
 30
0.0
 11
-63.473004
 21
81.670929
 31
0.0
  0
ARC
  5
143
100
AcDbEntity
  8
2
370
    50
100
AcDbCircle
 10
-63.773004
 20
81.670929
 30
0.0
 40
0.3
100
AcDbArc
 50
180.0
 51
360.0
  0
LINE
  5
144
100
AcDbEntity
  8
2
370
    50
100
AcDbLine
 10
-64.073004
 20
84.670929
 30
0.0
 11
-64.073004
 21
81.670929
 31
0.0
  0
ARC
  5
145
100
AcDbEntity
  8
2
370
    50
100
AcDbCircle
 10
-63.773004
 20
84.670929
 30
0.0
 40
0.3
100
AcDbArc
 50
360.0
 51
180.0
  0
LINE
  5
146
100
AcDbEntity
  8
2
370
    50
100
AcDbLine
 10
-65.673004
 20
84.670929
 30
0.0
 11
-65.673004
 21
81.670929
 31
0.0
  0
ARC
  5
147
100
AcDbEntity
  8
2
370
    50
100
AcDbCircle
 10
-65.373004
 20
81.670929
 30
0.0
 40
0.3
100
AcDbArc
 50
180.0
 51
360.0
  0
LINE
  5
148
100
AcDbEntity
  8
2
370
    50
100
AcDbLine
 10
-65.073004
 20
84.670929
 30
0.0
 11
-65.073004
 21
81.670929
 31
0.0
  0
ARC
  5
149
100
AcDbEntity
  8
2
370
    50
100
AcDbCircle
 10
-65.373004
 20
84.670929
 30
0.0
 40
0.3
100
AcDbArc
 50
0.0
 51
180.0
  0
LINE
  5
14A
100
AcDbEntity
  8
2
370
    50
100
AcDbLine
 10
-62.073004
 20
87.141024
 30
0.0
 11
-62.073004
 21
85.941024
 31
0.0
  0
LINE
  5
14B
100
AcDbEntity
  8
2
370
    50
100
AcDbLine
 10
-67.073004
 20
87.141024
 30
0.0
 11
-67.073004
 21
85.941024
 31
0.0
  0
LINE
  5
14C
100
AcDbEntity
  8
2
370
    50
100
AcDbLine
 10
-61.840051
 20
96.731461
 30
0.0
 11
-60.920798
 21
97.502806
 31
0.0
  0
LINE
  5
14D
100
AcDbEntity
  8
2
370
    50
100
AcDbLine
 10
-64.657893
 20
101.956502
 30
0.0
 11
-65.577146
 21
101.185157
 31
0.0
  0
ARC
  5
14E
100
AcDbEntity
  8
2
370
    50
100
AcDbCircle
 10
-65.584171
 20
99.482233
 30
0.0
 40
0.25
100
AcDbArc
 50
130.0
 51
310.0
  0
ARC
  5
14F
100
AcDbEntity
  8
2
370
    50
100
AcDbCircle
 10
-65.354358
 20
99.675069
 30
0.0
 40
0.25
100
AcDbArc
 50
310.0
 51
130.0
  0
ARC
  5
150
100
AcDbEntity
  8
2
370
    50
100
AcDbCircle
 10
-66.580029
 20
98.646609
 30
0.0
 40
0.25
100
AcDbArc
 50
130.0
 51
310.0
  0
ARC
  5
151
100
AcDbEntity
  8
2
370
    50
100
AcDbCircle
 10
-66.350215
 20
98.839445
 30
0.0
 40
0.25
100
AcDbArc
 50
310.0
 51
130.0
  0
ARC
  5
152
100
AcDbEntity
  8
2
370
    50
100
AcDbCircle
 10
-67.575886
 20
97.810985
 30
0.0
 40
0.25
100
AcDbArc
 50
130.0
 51
310.0
  0
ARC
  5
153
100
AcDbEntity
  8
2
370
    50
100
AcDbCircle
 10
-67.346073
 20
98.003822
 30
0.0
 40
0.25
100
AcDbArc
 50
310.0
 51
130.0
  0
LINE
  5
154
100
AcDbEntity
  8
2
370
    50
100
AcDbLine
 10
-65.744868
 20
99.673744
 30
0.0
 11
-65.515054
 21
99.86658
 31
0.0
  0
LINE
  5
155
100
AcDbEntity
  8
2
370
    50
100
AcDbLine
 10
-65.423474
 20
99.290722
 30
0.0
 11
-65.193661
 21
99.483558
 31
0.0
  0
LINE
  5
156
100
AcDbEntity
  8
2
370
    50
100
AcDbLine
 10
-66.740726
 20
98.83812
 30
0.0
 11
-66.510912
 21
99.030957
 31
0.0
  0
LINE
  5
157
100
AcDbEntity
  8
2
370
    50
100
AcDbLine
 10
-66.419332
 20
98.455098
 30
0.0
 11
-66.189518
 21
98.647934
 31
0.0
  0
LINE
  5
158
100
AcDbEntity
  8
2
370
    50
100
AcDbLine
 10
-67.185376
 20
97.81231
 30
0.0
 11
-67.41519
 21
97.619474
 31
0.0
  0
LINE
  5
159
100
AcDbEntity
  8
2
370
    50
100
AcDbLine
 10
-67.736583
 20
98.002496
 30
0.0
 11
-67.50677
 21
98.195333
 31
0.0
  0
ARC
  5
15A
100
AcDbEntity
  8
2
370
    50
100
AcDbCircle
 10
-66.098401
 20
100.095069
 30
0.0
 40
0.25
100
AcDbArc
 50
130.0
 51
310.0
  0
ARC
  5
15B
100
AcDbEntity
  8
2
370
    50
100
AcDbCircle
 10
-65.868588
 20
100.287905
 30
0.0
 40
0.25
100
AcDbArc
 50
310.0
 51
130.0
  0
ARC
  5
15C
100
AcDbEntity
  8
2
370
    50
100
AcDbCircle
 10
-67.094259
 20
99.259445
 30
0.0
 40
0.25
100
AcDbArc
 50
130.0
 51
310.0
  0
ARC
  5
15D
100
AcDbEntity
  8
2
370
    50
100
AcDbCircle
 10
-66.864445
 20
99.452281
 30
0.0
 40
0.25
100
AcDbArc
 50
310.0
 51
130.0
  0
ARC
  5
15E
100
AcDbEntity
  8
2
370
    50
100
AcDbCircle
 10
-68.090117
 20
98.423821
 30
0.0
 40
0.25
100
AcDbArc
 50
130.0
 51
310.0
  0
ARC
  5
15F
100
AcDbEntity
  8
2
370
    50
100
AcDbCircle
 10
-67.860303
 20
98.616657
 30
0.0
 40
0.25
100
AcDbArc
 50
310.0
 51
130.0
  0
LINE
  5
160
100
AcDbEntity
  8
2
370
    50
100
AcDbLine
 10
-66.259098
 20
100.28658
 30
0.0
 11
-66.029285
 21
100.479416
 31
0.0
  0
LINE
  5
161
100
AcDbEntity
  8
2
370
    50
100
AcDbLine
 10
-65.937704
 20
99.903558
 30
0.0
 11
-65.707891
 21
100.096394
 31
0.0
  0
LINE
  5
162
100
AcDbEntity
  8
2
370
    50
100
AcDbLine
 10
-67.254956
 20
99.450956
 30
0.0
 11
-67.025142
 21
99.643792
 31
0.0
  0
LINE
  5
163
100
AcDbEntity
  8
2
370
    50
100
AcDbLine
 10
-66.933562
 20
99.067934
 30
0.0
 11
-66.703749
 21
99.26077
 31
0.0
  0
LINE
  5
164
100
AcDbEntity
  8
2
370
    50
100
AcDbLine
 10
-67.699606
 20
98.425146
 30
0.0
 11
-67.92942
 21
98.23231
 31
0.0
  0
LINE
  5
165
100
AcDbEntity
  8
2
370
    50
100
AcDbLine
 10
-68.250813
 20
98.615332
 30
0.0
 11
-68.021
 21
98.808168
 31
0.0
  0
ARC
  5
166
100
AcDbEntity
  8
2
370
    50
100
AcDbCircle
 10
-65.069941
 20
98.869398
 30
0.0
 40
0.25
100
AcDbArc
 50
130.0
 51
310.0
  0
ARC
  5
167
100
AcDbEntity
  8
2
370
    50
100
AcDbCircle
 10
-64.840127
 20
99.062234
 30
0.0
 40
0.25
100
AcDbArc
 50
310.0
 51
130.0
  0
ARC
  5
168
100
AcDbEntity
  8
2
370
    50
100
AcDbCircle
 10
-66.065799
 20
98.033774
 30
0.0
 40
0.25
100
AcDbArc
 50
130.0
 51
310.0
  0
ARC
  5
169
100
AcDbEntity
  8
2
370
    50
100
AcDbCircle
 10
-65.835985
 20
98.22661
 30
0.0
 40
0.25
100
AcDbArc
 50
310.0
 51
130.0
  0
ARC
  5
16A
100
AcDbEntity
  8
2
370
    50
100
AcDbCircle
 10
-67.061656
 20
97.19815
 30
0.0
 40
0.25
100
AcDbArc
 50
130.0
 51
310.0
  0
ARC
  5
16B
100
AcDbEntity
  8
2
370
    50
100
AcDbCircle
 10
-66.831843
 20
97.390986
 30
0.0
 40
0.25
100
AcDbArc
 50
310.0
 51
130.0
  0
LINE
  5
16C
100
AcDbEntity
  8
2
370
    50
100
AcDbLine
 10
-65.230638
 20
99.060909
 30
0.0
 11
-65.000824
 21
99.253745
 31
0.0
  0
LINE
  5
16D
100
AcDbEntity
  8
2
370
    50
100
AcDbLine
 10
-64.909244
 20
98.677886
 30
0.0
 11
-64.679431
 21
98.870723
 31
0.0
  0
LINE
  5
16E
100
AcDbEntity
  8
2
370
    50
100
AcDbLine
 10
-66.226495
 20
98.225285
 30
0.0
 11
-65.996682
 21
98.418121
 31
0.0
  0
LINE
  5
16F
100
AcDbEntity
  8
2
370
    50
100
AcDbLine
 10
-65.905102
 20
97.842263
 30
0.0
 11
-65.675288
 21
98.035099
 31
0.0
  0
LINE
  5
170
100
AcDbEntity
  8
2
370
    50
100
AcDbLine
 10
-66.671146
 20
97.199475
 30
0.0
 11
-66.900959
 21
97.006639
 31
0.0
  0
LINE
  5
171
100
AcDbEntity
  8
2
370
    50
100
AcDbLine
 10
-67.222353
 20
97.389661
 30
0.0
 11
-66.99254
 21
97.582497
 31
0.0
  0
LINE
  5
172
100
AcDbEntity
  8
2
370
    50
100
AcDbLine
 10
-60.920798
 20
97.502806
 30
0.0
 11
-64.657893
 21
101.956502
 31
0.0
  0
LINE
  5
173
100
AcDbEntity
  8
2
370
    50
100
AcDbLine
 10
-61.840051
 20
96.731461
 30
0.0
 11
-65.577146
 21
101.185157
 31
0.0
  0
LINE
  5
174
100
AcDbEntity
  8
2
370
    50
100
AcDbLine
 10
-62.073004
 20
87.141024
 30
0.0
 11
-67.073004
 21
87.141024
 31
0.0
  0
LINE
  5
175
100
AcDbEntity
  8
2
370
    50
100
AcDbLine
 10
-62.073004
 20
85.941024
 30
0.0
 11
-67.073004
 21
85.941024
 31
0.0
  0
CIRCLE
  5
176
100
AcDbEntity
  8
2
370
    50
100
AcDbCircle
 10
-64.573004
 20
92.235043
 30
0.0
 40
1.3
  0
CIRCLE
  5
177
100
AcDbEntity
  8
2
370
    50
100
AcDbCircle
 10
-64.573004
 20
92.235043
 30
0.0
 40
1.0
  0
HATCH
  5
178
100
AcDbEntity
  8
2
370
    25
100
AcDbHatch
 10
0.0
 20
0.0
 30
0.0
210
0.0
220
0.0
230
1.0
  2
_U
 70
     0
 71
     1
 91
        1
 92
        1
 93
        4
 72
     1
 10
-61.840051000000003
 20
96.731460999999996
 11
-65.577145999999999
 21
101.185157
 72
     1
 10
-65.577145999999999
 20
101.185157
 11
-64.657893000000001
 21
101.956502
 72
     1
 10
-64.657893000000001
 20
101.956502
 11
-60.920797999999998
 21
97.502806000000007
 72
     1
 10
-60.920797999999998
 20
97.502806000000007
 11
-61.840051000000003
 21
96.731460999999996
 97
        4
330
0
330
0
330
0
330
0
 75
     0
 76
     0
 52
45.0
 41
1.0
 77
     0
 78
     1
 53
45.0
 43
0.0
 44
0.0
 45
-0.070711
 46
0.070711
 79
     0
 98
        1
 10
0.0
 20
0.0
  0
LINE
  5
179
100
AcDbEntity
  8
2
370
    25
100
AcDbLine
 10
-66.238002
 20
99.887676
 30
0.0
 11
-65.677077
 21
100.448602
 31
0.0
  0
LINE
  5
17A
100
AcDbEntity
  8
2
370
    25
100
AcDbLine
 10
-66.136299
 20
99.847958
 30
0.0
 11
-65.628088
 21
100.356169
 31
0.0
  0
LINE
  5
17B
100
AcDbEntity
  8
2
370
    25
100
AcDbLine
 10
-65.945755
 20
99.897081
 30
0.0
 11
-65.630182
 21
100.212654
 31
0.0
  0
LINE
  5
17C
100
AcDbEntity
  8
2
370
    25
100
AcDbLine
 10
-66.308117
 20
99.958983
 30
0.0
 11
-65.755988
 21
100.511112
 31
0.0
  0
LINE
  5
17D
100
AcDbEntity
  8
2
370
    25
100
AcDbLine
 10
-66.346241
 20
100.06228
 30
0.0
 11
-65.870624
 21
100.537897
 31
0.0
  0
LINE
  5
17E
100
AcDbEntity
  8
2
370
    25
100
AcDbLine
 10
-67.319495
 20
99.367928
 30
0.0
 11
-67.140049
 21
99.547374
 31
0.0
  0
LINE
  5
17F
100
AcDbEntity
  8
2
370
    25
100
AcDbLine
 10
-67.33875
 20
99.207252
 30
0.0
 11
-66.844516
 21
99.701485
 31
0.0
  0
LINE
  5
180
100
AcDbEntity
  8
2
370
    25
100
AcDbLine
 10
-67.294634
 20
99.109946
 30
0.0
 11
-66.73714
 21
99.66744
 31
0.0
  0
LINE
  5
181
100
AcDbEntity
  8
2
370
    25
100
AcDbLine
 10
-67.219868
 20
99.043291
 30
0.0
 11
-66.662926
 21
99.600233
 31
0.0
  0
LINE
  5
182
100
AcDbEntity
  8
2
370
    25
100
AcDbLine
 10
-67.111685
 20
99.010053
 30
0.0
 11
-66.61949
 21
99.502248
 31
0.0
  0
LINE
  5
183
100
AcDbEntity
  8
2
370
    25
100
AcDbLine
 10
-66.801932
 20
99.178384
 30
0.0
 11
-66.641862
 21
99.338455
 31
0.0
  0
LINE
  5
184
100
AcDbEntity
  8
2
370
    25
100
AcDbLine
 10
-68.315353
 20
98.532304
 30
0.0
 11
-68.135907
 21
98.71175
 31
0.0
  0
LINE
  5
185
100
AcDbEntity
  8
2
370
    25
100
AcDbLine
 10
-68.334608
 20
98.371628
 30
0.0
 11
-67.840374
 21
98.865862
 31
0.0
  0
LINE
  5
186
100
AcDbEntity
  8
2
370
    25
100
AcDbLine
 10
-68.290492
 20
98.274322
 30
0.0
 11
-67.732998
 21
98.831816
 31
0.0
  0
LINE
  5
187
100
AcDbEntity
  8
2
370
    25
100
AcDbLine
 10
-68.215726
 20
98.207667
 30
0.0
 11
-67.658784
 21
98.764609
 31
0.0
  0
LINE
  5
188
100
AcDbEntity
  8
2
370
    25
100
AcDbLine
 10
-68.107543
 20
98.174429
 30
0.0
 11
-67.615347
 21
98.666624
 31
0.0
  0
LINE
  5
189
100
AcDbEntity
  8
2
370
    25
100
AcDbLine
 10
-67.79779
 20
98.34276
 30
0.0
 11
-67.637719
 21
98.502831
 31
0.0
  0
HATCH
  5
18A
100
AcDbEntity
  8
2
370
    25
100
AcDbHatch
 10
0.0
 20
0.0
 30
0.0
210
0.0
220
0.0
230
1.0
  2
_U
 70
     0
 71
     1
 91
        1
 92
        1
 93
        4
 72
     2
 10
-66.580028999999996
 20
98.646608999999998
 40
0.25
 50
130.0
 51
310.0
 73
     1
 72
     1
 10
-66.419331999999997
 20
98.455098000000007
 11
-66.189518000000007
 21
98.647934000000006
 72
     2
 10
-66.350215000000006
 20
98.839444999999998
 40
0.25
 50
310.0
 51
130.0
 73
     1
 72
     1
 10
-66.510912000000005
 20
99.030957000000001
 11
-66.740725999999995
 21
98.838120000000004
 97
        4
330
0
330
0
330
0
330
0
 75
     0
 76
     0
 52
45.0
 41
1.0
 77
     0
 78
     1
 53
45.0
 43
0.0
 44
0.0
 45
-0.070711
 46
0.070711
 79
     0
 98
        1
 10
0.0
 20
0.0
  0
LINE
  5
18B
100
AcDbEntity
  8
2
370
    25
100
AcDbLine
 10
-65.214757
 20
99.882462
 30
0.0
 11
-65.775682
 21
99.321536
 31
0.0
  0
LINE
  5
18C
100
AcDbEntity
  8
2
370
    25
100
AcDbLine
 10
-65.144642
 20
99.811155
 30
0.0
 11
-65.696771
 21
99.259026
 31
0.0
  0
LINE
  5
18D
100
AcDbEntity
  8
2
370
    25
100
AcDbLine
 10
-65.106517
 20
99.707858
 30
0.0
 11
-65.582134
 21
99.232241
 31
0.0
  0
LINE
  5
18E
100
AcDbEntity
  8
2
370
    25
100
AcDbLine
 10
-65.316459
 20
99.92218
 30
0.0
 11
-65.82467
 21
99.413969
 31
0.0
  0
LINE
  5
18F
100
AcDbEntity
  8
2
370
    25
100
AcDbLine
 10
-65.507004
 20
99.873057
 30
0.0
 11
-65.822577
 21
99.557484
 31
0.0
  0
HATCH
  5
190
100
AcDbEntity
  8
2
370
    25
100
AcDbHatch
 10
0.0
 20
0.0
 30
0.0
210
0.0
220
0.0
230
1.0
  2
_U
 70
     0
 71
     1
 91
        1
 92
        1
 93
        4
 72
     2
 10
-67.346073000000004
 20
98.003822
 40
0.25
 50
310.0
 51
130.0
 73
     1
 72
     1
 10
-67.506770000000003
 20
98.195333000000005
 11
-67.736582999999996
 21
98.002495999999994
 72
     2
 10
-67.575885999999997
 20
97.810985000000002
 40
0.25
 50
130.0
 51
310.0
 73
     1
 72
     1
 10
-67.415189999999996
 20
97.619473999999997
 11
-67.185376000000005
 21
97.812309999999997
 97
        4
330
0
330
0
330
0
330
0
 75
     0
 76
     0
 52
45.0
 41
1.0
 77
     0
 78
     1
 53
45.0
 43
0.0
 44
0.0
 45
-0.070711
 46
0.070711
 79
     0
 98
        1
 10
0.0
 20
0.0
  0
LINE
  5
191
100
AcDbEntity
  8
2
370
    25
100
AcDbLine
 10
-66.692242
 20
97.598378
 30
0.0
 11
-67.253167
 21
97.037453
 31
0.0
  0
LINE
  5
192
100
AcDbEntity
  8
2
370
    25
100
AcDbLine
 10
-66.622127
 20
97.527072
 30
0.0
 11
-67.174256
 21
96.974943
 31
0.0
  0
LINE
  5
193
100
AcDbEntity
  8
2
370
    25
100
AcDbLine
 10
-66.584003
 20
97.423775
 30
0.0
 11
-67.05962
 21
96.948158
 31
0.0
  0
LINE
  5
194
100
AcDbEntity
  8
2
370
    25
100
AcDbLine
 10
-66.793945
 20
97.638097
 30
0.0
 11
-67.302156
 21
97.129886
 31
0.0
  0
LINE
  5
195
100
AcDbEntity
  8
2
370
    25
100
AcDbLine
 10
-66.984489
 20
97.588974
 30
0.0
 11
-67.300062
 21
97.273401
 31
0.0
  0
HATCH
  5
196
100
AcDbEntity
  8
2
370
    25
100
AcDbHatch
 10
0.0
 20
0.0
 30
0.0
210
0.0
220
0.0
230
1.0
  2
_U
 70
     0
 71
     1
 91
        1
 92
        1
 93
        4
 72
     2
 10
-65.835984999999994
 20
98.226609999999994
 40
0.25
 50
310.0
 51
130.0
 73
     1
 72
     1
 10
-65.996682000000007
 20
98.418120999999999
 11
-66.226495
 21
98.225285
 72
     2
 10
-66.065798999999998
 20
98.033773999999994
 40
0.25
 50
130.0
 51
310.0
 73
     1
 72
     1
 10
-65.905101999999999
 20
97.842263000000003
 11
-65.675287999999995
 21
98.035099000000002
 97
        4
330
0
330
0
330
0
330
0
 75
     0
 76
     0
 52
45.0
 41
1.0
 77
     0
 78
     1
 53
45.0
 43
0.0
 44
0.0
 45
-0.070711
 46
0.070711
 79
     0
 98
        1
 10
0.0
 20
0.0
  0
LINE
  5
197
100
AcDbEntity
  8
2
370
    25
100
AcDbLine
 10
-64.700526
 20
99.269626
 30
0.0
 11
-65.261452
 21
98.708701
 31
0.0
  0
LINE
  5
198
100
AcDbEntity
  8
2
370
    25
100
AcDbLine
 10
-64.630412
 20
99.198319
 30
0.0
 11
-65.182541
 21
98.646191
 31
0.0
  0
LINE
  5
199
100
AcDbEntity
  8
2
370
    25
100
AcDbLine
 10
-64.592287
 20
99.095023
 30
0.0
 11
-65.067904
 21
98.619406
 31
0.0
  0
LINE
  5
19A
100
AcDbEntity
  8
2
370
    25
100
AcDbLine
 10
-64.802229
 20
99.309345
 30
0.0
 11
-65.31044
 21
98.801134
 31
0.0
  0
LINE
  5
19B
100
AcDbEntity
  8
2
370
    25
100
AcDbLine
 10
-64.992774
 20
99.260221
 30
0.0
 11
-65.308346
 21
98.944649
 31
0.0
  0
HATCH
  5
19C
100
AcDbEntity
  8
2
370
    25
100
AcDbHatch
 10
0.0
 20
0.0
 30
0.0
210
0.0
220
0.0
230
1.0
  2
_U
 70
     0
 71
     1
 91
        2
 92
        1
 93
        1
 72
     2
 10
-64.573003999999997
 20
92.235043000000005
 40
1.3
 50
0.0
 51
360.0
 73
     1
 97
        1
330
0
 92
        0
 93
        1
 72
     2
 10
-64.573003999999997
 20
92.235043000000005
 40
1.0
 50
0.0
 51
360.0
 73
     1
 97
        1
330
0
 75
     0
 76
     0
 52
45.0
 41
1.0
 77
     0
 78
     1
 53
45.0
 43
0.0
 44
0.0
 45
-0.070711
 46
0.070711
 79
     0
 98
        1
 10
0.0
 20
0.0
  0
HATCH
  5
19D
100
AcDbEntity
  8
2
370
    25
100
AcDbHatch
 10
0.0
 20
0.0
 30
0.0
210
0.0
220
0.0
230
1.0
  2
_U
 70
     0
 71
     1
 91
        1
 92
        1
 93
        4
 72
     1
 10
-62.073003999999997
 20
87.141024000000002
 11
-67.073003999999997
 21
87.141024000000002
 72
     1
 10
-67.073003999999997
 20
87.141024000000002
 11
-67.073003999999997
 21
85.941023999999999
 72
     1
 10
-67.073003999999997
 20
85.941023999999999
 11
-62.073003999999997
 21
85.941023999999999
 72
     1
 10
-62.073003999999997
 20
85.941023999999999
 11
-62.073003999999997
 21
87.141024000000002
 97
        4
330
0
330
0
330
0
330
0
 75
     0
 76
     0
 52
45.0
 41
1.0
 77
     0
 78
     1
 53
45.0
 43
0.0
 44
0.0
 45
-0.070711
 46
0.070711
 79
     0
 98
        1
 10
0.0
 20
0.0
  0
LINE
  5
19E
100
AcDbEntity
  8
2
370
    25
100
AcDbLine
 10
-65.673004
 20
82.570929
 30
0.0
 11
-65.073004
 21
83.170929
 31
0.0
  0
LINE
  5
19F
100
AcDbEntity
  8
2
370
    25
100
AcDbLine
 10
-65.673004
 20
82.429507
 30
0.0
 11
-65.073004
 21
83.029507
 31
0.0
  0
LINE
  5
1A0
100
AcDbEntity
  8
2
370
    25
100
AcDbLine
 10
-65.673004
 20
82.288086
 30
0.0
 11
-65.073004
 21
82.888086
 31
0.0
  0
LINE
  5
1A1
100
AcDbEntity
  8
2
370
    25
100
AcDbLine
 10
-65.673004
 20
82.146665
 30
0.0
 11
-65.073004
 21
82.746665
 31
0.0
  0
LINE
  5
1A2
100
AcDbEntity
  8
2
370
    25
100
AcDbLine
 10
-65.673004
 20
82.005243
 30
0.0
 11
-65.073004
 21
82.605243
 31
0.0
  0
LINE
  5
1A3
100
AcDbEntity
  8
2
370
    25
100
AcDbLine
 10
-65.673004
 20
81.863822
 30
0.0
 11
-65.073004
 21
82.463822
 31
0.0
  0
LINE
  5
1A4
100
AcDbEntity
  8
2
370
    25
100
AcDbLine
 10
-65.673004
 20
81.722401
 30
0.0
 11
-65.073004
 21
82.322401
 31
0.0
  0
LINE
  5
1A5
100
AcDbEntity
  8
2
370
    25
100
AcDbLine
 10
-65.662338
 20
81.591645
 30
0.0
 11
-65.073004
 21
82.180979
 31
0.0
  0
LINE
  5
1A6
100
AcDbEntity
  8
2
370
    25
100
AcDbLine
 10
-65.616657
 20
81.495905
 30
0.0
 11
-65.073004
 21
82.039558
 31
0.0
  0
LINE
  5
1A7
100
AcDbEntity
  8
2
370
    25
100
AcDbLine
 10
-65.545594
 20
81.425546
 30
0.0
 11
-65.073004
 21
81.898137
 31
0.0
  0
LINE
  5
1A8
100
AcDbEntity
  8
2
370
    25
100
AcDbLine
 10
-65.449004
 20
81.380715
 30
0.0
 11
-65.073004
 21
81.756715
 31
0.0
  0
LINE
  5
1A9
100
AcDbEntity
  8
2
370
    25
100
AcDbLine
 10
-65.310862
 20
81.377435
 30
0.0
 11
-65.07951
 21
81.608787
 31
0.0
  0
LINE
  5
1AA
100
AcDbEntity
  8
2
370
    25
100
AcDbLine
 10
-65.673004
 20
82.71235
 30
0.0
 11
-65.073004
 21
83.31235
 31
0.0
  0
LINE
  5
1AB
100
AcDbEntity
  8
2
370
    25
100
AcDbLine
 10
-65.673004
 20
82.853771
 30
0.0
 11
-65.073004
 21
83.453771
 31
0.0
  0
LINE
  5
1AC
100
AcDbEntity
  8
2
370
    25
100
AcDbLine
 10
-65.673004
 20
82.995193
 30
0.0
 11
-65.073004
 21
83.595193
 31
0.0
  0
LINE
  5
1AD
100
AcDbEntity
  8
2
370
    25
100
AcDbLine
 10
-65.673004
 20
83.136614
 30
0.0
 11
-65.073004
 21
83.736614
 31
0.0
  0
LINE
  5
1AE
100
AcDbEntity
  8
2
370
    25
100
AcDbLine
 10
-65.673004
 20
83.278036
 30
0.0
 11
-65.073004
 21
83.878036
 31
0.0
  0
LINE
  5
1AF
100
AcDbEntity
  8
2
370
    25
100
AcDbLine
 10
-65.673004
 20
83.419457
 30
0.0
 11
-65.073004
 21
84.019457
 31
0.0
  0
LINE
  5
1B0
100
AcDbEntity
  8
2
370
    25
100
AcDbLine
 10
-65.673004
 20
83.560878
 30
0.0
 11
-65.073004
 21
84.160878
 31
0.0
  0
LINE
  5
1B1
100
AcDbEntity
  8
2
370
    25
100
AcDbLine
 10
-65.673004
 20
83.7023
 30
0.0
 11
-65.073004
 21
84.3023
 31
0.0
  0
LINE
  5
1B2
100
AcDbEntity
  8
2
370
    25
100
AcDbLine
 10
-65.673004
 20
83.843721
 30
0.0
 11
-65.073004
 21
84.443721
 31
0.0
  0
LINE
  5
1B3
100
AcDbEntity
  8
2
370
    25
100
AcDbLine
 10
-65.673004
 20
83.985142
 30
0.0
 11
-65.073004
 21
84.585142
 31
0.0
  0
LINE
  5
1B4
100
AcDbEntity
  8
2
370
    25
100
AcDbLine
 10
-65.07741
 20
84.722157
 30
0.0
 11
-65.673004
 21
84.126564
 31
0.0
  0
LINE
  5
1B5
100
AcDbEntity
  8
2
370
    25
100
AcDbLine
 10
-65.115739
 20
84.82525
 30
0.0
 11
-65.673004
 21
84.267985
 31
0.0
  0
LINE
  5
1B6
100
AcDbEntity
  8
2
370
    25
100
AcDbLine
 10
-65.180985
 20
84.901425
 30
0.0
 11
-65.673004
 21
84.409406
 31
0.0
  0
LINE
  5
1B7
100
AcDbEntity
  8
2
370
    25
100
AcDbLine
 10
-65.270836
 20
84.952996
 30
0.0
 11
-65.673004
 21
84.550828
 31
0.0
  0
LINE
  5
1B8
100
AcDbEntity
  8
2
370
    25
100
AcDbLine
 10
-65.672186
 20
84.693067
 30
0.0
 11
-65.395142
 21
84.970111
 31
0.0
  0
HATCH
  5
1B9
100
AcDbEntity
  8
2
370
    25
100
AcDbHatch
 10
0.0
 20
0.0
 30
0.0
210
0.0
220
0.0
230
1.0
  2
_U
 70
     0
 71
     1
 91
        1
 92
        1
 93
        4
 72
     1
 10
-64.073003999999997
 20
84.670929000000001
 11
-64.073003999999997
 21
81.670929000000001
 72
     2
 10
-63.773004
 20
81.670929000000001
 40
0.3
 50
180.0
 51
0.0
 73
     1
 72
     1
 10
-63.473004000000003
 20
81.670929000000001
 11
-63.473004000000003
 21
84.670929000000001
 72
     2
 10
-63.773004
 20
84.670929000000001
 40
0.3
 50
0.0
 51
180.0
 73
     1
 97
        4
330
0
330
0
330
0
330
0
 75
     0
 76
     0
 52
45.0
 41
1.0
 77
     0
 78
     1
 53
45.0
 43
0.0
 44
0.0
 45
-0.070711
 46
0.070711
 79
     0
 98
        1
 10
0.0
 20
0.0
  0
TEXT
  5
1BA
100
AcDbEntity
  8
2
370
    50
100
AcDbText
 10
66.43969
 20
-236.202682
 30
0.0
 40
7.0
  1
ＭＢ７０２ＧＧ
 72
     5
 11
114.03969
 21
-236.202682
 31
0.0
100
AcDbText
  0
TEXT
  5
1BB
100
AcDbEntity
  8
2
370
    50
100
AcDbText
 10
22.671413
 20
-114.04824
 30
0.0
 40
7.0
  1
１０３
 50
90.0
 72
     5
 11
22.671413
 21
-94.44824
 31
0.0
100
AcDbText
  0
DIMENSION
  5
1BC
100
AcDbEntity
  8
2
370
    25
100
AcDbDimension
  2
*D15
 10
23.671413
 20
-52.15124
 30
0.0
 11
21.171413
 21
-103.54824
 31
0.0
 71
     0
 72
     0
 41
0.0
 42
0.0
  3
Standard
100
AcDbAlignedDimension
 13
46.59682
 23
-154.94524
 33
0.0
 14
208.129525
 24
-52.15124
 34
0.0
 50
90.0
100
AcDbRotatedDimension
  0
LINE
  5
1BD
100
AcDbEntity
  8
3
370
    50
100
AcDbLine
 10
-141.173582
 20
131.118119
 30
0.0
 11
-141.173582
 21
144.918119
 31
0.0
  0
LINE
  5
1BE
100
AcDbEntity
  8
3
370
    50
100
AcDbLine
 10
-115.173582
 20
131.118119
 30
0.0
 11
-115.173582
 21
144.918119
 31
0.0
  0
LINE
  5
1BF
100
AcDbEntity
  8
3
370
    50
100
AcDbLine
 10
-115.173582
 20
131.118119
 30
0.0
 11
-65.673582
 21
131.118119
 31
0.0
  0
LINE
  5
1C0
100
AcDbEntity
  8
3
370
    50
100
AcDbLine
 10
-198.17416
 20
131.118119
 30
0.0
 11
-190.673582
 21
131.118119
 31
0.0
  0
LINE
  5
1C1
100
AcDbEntity
  8
3
370
    50
100
AcDbLine
 10
-190.673582
 20
131.118119
 30
0.0
 11
-115.173582
 21
131.118119
 31
0.0
  0
LINE
  5
1C2
100
AcDbEntity
  8
3
370
    50
100
AcDbLine
 10
-178.173582
 20
137.118119
 30
0.0
 11
-190.373582
 21
137.118119
 31
0.0
  0
LINE
  5
1C3
100
AcDbEntity
  8
3
370
    50
100
AcDbLine
 10
-165.673582
 20
131.118119
 30
0.0
 11
-165.673582
 21
136.818119
 31
0.0
  0
LINE
  5
1C4
100
AcDbEntity
  8
3
370
    50
100
AcDbLine
 10
-190.673582
 20
131.118119
 30
0.0
 11
-190.673582
 21
136.818119
 31
0.0
  0
LINE
  5
1C5
100
AcDbEntity
  8
3
370
    50
100
AcDbLine
 10
-190.373582
 20
137.118119
 30
0.0
 11
-190.673582
 21
136.818119
 31
0.0
  0
LINE
  5
1C6
100
AcDbEntity
  8
3
370
    50
100
AcDbLine
 10
-165.673582
 20
136.818119
 30
0.0
 11
-165.973582
 21
137.118119
 31
0.0
  0
LINE
  5
1C7
100
AcDbEntity
  8
3
370
    50
100
AcDbLine
 10
-165.973582
 20
137.118119
 30
0.0
 11
-178.173582
 21
137.118119
 31
0.0
  0
LINE
  5
1C8
100
AcDbEntity
  8
3
370
    50
100
AcDbLine
 10
-141.173582
 20
144.918119
 30
0.0
 11
-140.673582
 21
145.418119
 31
0.0
  0
LINE
  5
1C9
100
AcDbEntity
  8
3
370
    50
100
AcDbLine
 10
-115.673582
 20
145.418119
 30
0.0
 11
-115.173582
 21
144.918119
 31
0.0
  0
LINE
  5
1CA
100
AcDbEntity
  8
3
370
    50
100
AcDbLine
 10
-140.673582
 20
145.418119
 30
0.0
 11
-139.673582
 21
145.418119
 31
0.0
  0
LINE
  5
1CB
100
AcDbEntity
  8
3
370
    50
100
AcDbLine
 10
-116.673582
 20
145.418119
 30
0.0
 11
-115.673582
 21
145.418119
 31
0.0
  0
LINE
  5
1CC
100
AcDbEntity
  8
3
370
    50
100
AcDbLine
 10
-198.17416
 20
79.118119
 30
0.0
 11
-58.173004
 21
79.118119
 31
0.0
  0
LINE
  5
1CD
100
AcDbEntity
  8
3
370
    50
100
AcDbLine
 10
-198.17416
 20
79.118119
 30
0.0
 11
-198.17416
 21
101.118119
 31
0.0
  0
LINE
  5
1CE
100
AcDbEntity
  8
3
370
    50
100
AcDbLine
 10
-198.17416
 20
101.118119
 30
0.0
 11
-198.17416
 21
131.118119
 31
0.0
  0
LINE
  5
1CF
100
AcDbEntity
  8
3
370
    50
100
AcDbLine
 10
-65.673582
 20
131.118119
 30
0.0
 11
-58.173004
 21
131.118119
 31
0.0
  0
LINE
  5
1D0
100
AcDbEntity
  8
3
370
    50
100
AcDbLine
 10
-90.673582
 20
131.118119
 30
0.0
 11
-90.673582
 21
136.818119
 31
0.0
  0
LINE
  5
1D1
100
AcDbEntity
  8
3
370
    50
100
AcDbLine
 10
-58.173004
 20
79.118119
 30
0.0
 11
-58.173004
 21
131.118119
 31
0.0
  0
LINE
  5
1D2
100
AcDbEntity
  8
3
370
    50
100
AcDbLine
 10
-65.973582
 20
137.118119
 30
0.0
 11
-78.173582
 21
137.118119
 31
0.0
  0
LINE
  5
1D3
100
AcDbEntity
  8
3
370
    50
100
AcDbLine
 10
-65.673582
 20
131.118119
 30
0.0
 11
-65.673582
 21
136.818119
 31
0.0
  0
LINE
  5
1D4
100
AcDbEntity
  8
3
370
    50
100
AcDbLine
 10
-65.973582
 20
137.118119
 30
0.0
 11
-65.673582
 21
136.818119
 31
0.0
  0
LINE
  5
1D5
100
AcDbEntity
  8
3
370
    50
100
AcDbLine
 10
-90.673582
 20
136.818119
 30
0.0
 11
-90.373582
 21
137.118119
 31
0.0
  0
LINE
  5
1D6
100
AcDbEntity
  8
3
370
    50
100
AcDbLine
 10
-78.173582
 20
137.118119
 30
0.0
 11
-90.373582
 21
137.118119
 31
0.0
  0
LINE
  5
1D7
100
AcDbEntity
  8
3
370
    50
100
AcDbLine
 10
-197.87416
 20
-30.15124
 30
0.0
 11
-58.473004
 21
-30.15124
 31
0.0
  0
LINE
  5
1D8
100
AcDbEntity
  8
3
370
    50
100
AcDbLine
 10
-197.87416
 20
-74.15124
 30
0.0
 11
-58.473004
 21
-74.15124
 31
0.0
  0
LINE
  5
1D9
100
AcDbEntity
  8
3
370
    50
100
AcDbLine
 10
-58.173004
 20
-73.85124
 30
0.0
 11
-58.173004
 21
-30.45124
 31
0.0
  0
LINE
  5
1DA
100
AcDbEntity
  8
3
370
    50
100
AcDbLine
 10
-198.17416
 20
-52.15124
 30
0.0
 11
-198.17416
 21
-73.85124
 31
0.0
  0
LINE
  5
1DB
100
AcDbEntity
  8
3
370
    50
100
AcDbLine
 10
-198.17416
 20
-52.15124
 30
0.0
 11
-198.17416
 21
-30.45124
 31
0.0
  0
LINE
  5
1DC
100
AcDbEntity
  8
3
370
    50
100
AcDbLine
 10
-139.673582
 20
145.418119
 30
0.0
 11
-128.173582
 21
145.418119
 31
0.0
  0
LINE
  5
1DD
100
AcDbEntity
  8
3
370
    50
100
AcDbLine
 10
-128.173582
 20
145.418119
 30
0.0
 11
-116.673582
 21
145.418119
 31
0.0
  0
LINE
  5
1DE
100
AcDbEntity
  8
3
370
    50
100
AcDbLine
 10
-198.17416
 20
-73.85124
 30
0.0
 11
-197.87416
 21
-74.15124
 31
0.0
  0
LINE
  5
1DF
100
AcDbEntity
  8
3
370
    50
100
AcDbLine
 10
-198.17416
 20
-30.45124
 30
0.0
 11
-197.87416
 21
-30.15124
 31
0.0
  0
LINE
  5
1E0
100
AcDbEntity
  8
3
370
    50
100
AcDbLine
 10
-58.473004
 20
-30.15124
 30
0.0
 11
-58.173004
 21
-30.45124
 31
0.0
  0
LINE
  5
1E1
100
AcDbEntity
  8
3
370
    50
100
AcDbLine
 10
-58.173004
 20
-73.85124
 30
0.0
 11
-58.473004
 21
-74.15124
 31
0.0
  0
LINE
  5
1E2
100
AcDbEntity
  8
3
370
    25
100
AcDbLine
 10
-165.673582
 20
136.818119
 30
0.0
 11
-190.673582
 21
136.818119
 31
0.0
  0
LINE
  5
1E3
100
AcDbEntity
  8
3
370
    25
100
AcDbLine
 10
-115.173582
 20
144.918119
 30
0.0
 11
-141.173582
 21
144.918119
 31
0.0
  0
LINE
  5
1E4
100
AcDbEntity
  8
3
370
    25
100
AcDbLine
 10
-65.673582
 20
136.818119
 30
0.0
 11
-90.673582
 21
136.818119
 31
0.0
  0
POINT
  5
1E5
100
AcDbEntity
  8
3
370
    50
100
AcDbPoint
 10
-57.374424
 20
101.118119
 30
0.0
  0
LINE
  5
1E6
100
AcDbEntity
  8
3
370
    50
100
AcDbLine
 10
-57.374424
 20
101.118119
 30
0.0
 11
-57.374424
 21
122.618119
 31
0.0
  0
LINE
  5
1E7
100
AcDbEntity
  8
3
370
    50
100
AcDbLine
 10
-56.874424
 20
79.118119
 30
0.0
 11
-55.908366
 21
79.118119
 31
0.0
  0
LINE
  5
1E8
100
AcDbEntity
  8
3
370
    50
100
AcDbLine
 10
-57.374424
 20
79.618119
 30
0.0
 11
-57.374424
 21
101.118119
 31
0.0
  0
ARC
  5
1E9
100
AcDbEntity
  8
3
370
    50
100
AcDbCircle
 10
-56.874424
 20
79.618119
 30
0.0
 40
0.5
100
AcDbArc
 50
180.0
 51
270.0
  0
LINE
  5
1EA
100
AcDbEntity
  8
3
370
    50
100
AcDbLine
 10
-14.873964
 20
112.118119
 30
0.0
 11
-14.873964
 21
90.118119
 31
0.0
  0
LINE
  5
1EB
100
AcDbEntity
  8
3
370
    50
100
AcDbLine
 10
-14.873424
 20
101.118119
 30
0.0
 11
-14.873424
 21
112.118486
 31
0.0
  0
LINE
  5
1EC
100
AcDbEntity
  8
3
370
    50
100
AcDbLine
 10
-14.873424
 20
101.118119
 30
0.0
 11
-14.873424
 21
90.118486
 31
0.0
  0
LINE
  5
1ED
100
AcDbEntity
  8
3
370
    50
100
AcDbLine
 10
-14.873964
 20
112.118119
 30
0.0
 11
-17.424208
 21
121.635757
 31
0.0
  0
LINE
  5
1EE
100
AcDbEntity
  8
3
370
    50
100
AcDbLine
 10
-14.873964
 20
90.118119
 30
0.0
 11
-17.424208
 21
80.600481
 31
0.0
  0
ARC
  5
1EF
100
AcDbEntity
  8
3
370
    50
100
AcDbCircle
 10
-19.356059
 20
81.118119
 30
0.0
 40
2.0
100
AcDbArc
 50
269.078976
 51
345.0
  0
LINE
  5
1F0
100
AcDbEntity
  8
3
370
    50
100
AcDbLine
 10
-56.874424
 20
123.118119
 30
0.0
 11
-19.356059
 21
123.118119
 31
0.0
  0
ARC
  5
1F1
100
AcDbEntity
  8
3
370
    50
100
AcDbCircle
 10
-56.874424
 20
122.618119
 30
0.0
 40
0.5
100
AcDbArc
 50
90.0
 51
180.0
  0
ARC
  5
1F2
100
AcDbEntity
  8
3
370
    50
100
AcDbCircle
 10
-19.356059
 20
121.118119
 30
0.0
 40
2.0
100
AcDbArc
 50
15.0
 51
90.0
  0
LINE
  5
1F3
100
AcDbEntity
  8
3
370
    50
100
AcDbLine
 10
-21.839978
 20
74.597885
 30
0.0
 11
-21.839978
 21
75.547632
 31
0.0
  0
LINE
  5
1F4
100
AcDbEntity
  8
3
370
    50
100
AcDbLine
 10
-54.729239
 20
74.597885
 30
0.0
 11
-54.729239
 21
75.547632
 31
0.0
  0
LINE
  5
1F5
100
AcDbEntity
  8
3
370
    50
100
AcDbLine
 10
-23.839978
 20
77.547632
 30
0.0
 11
-52.729239
 21
77.547632
 31
0.0
  0
LINE
  5
1F6
100
AcDbEntity
  8
3
370
    50
100
AcDbLine
 10
-23.839978
 20
72.597885
 30
0.0
 11
-52.729239
 21
72.597885
 31
0.0
  0
LINE
  5
1F7
100
AcDbEntity
  8
3
370
    50
100
AcDbLine
 10
-21.839978
 20
77.547632
 30
0.0
 11
-18.141315
 21
87.384241
 31
0.0
  0
LINE
  5
1F8
100
AcDbEntity
  8
3
370
    50
100
AcDbLine
 10
-54.729239
 20
77.547632
 30
0.0
 11
-57.374424
 21
88.235043
 31
0.0
  0
LINE
  5
1F9
100
AcDbEntity
  8
3
370
    50
100
AcDbLine
 10
-17.821406
 20
121.654187
 30
0.0
 11
-17.821406
 21
89.144001
 31
0.0
  0
LINE
  5
1FA
100
AcDbEntity
  8
3
370
    50
100
AcDbLine
 10
-17.821406
 20
84.921712
 30
0.0
 11
-17.821406
 21
80.622004
 31
0.0
  0
ARC
  5
1FB
100
AcDbEntity
  8
3
370
    50
100
AcDbCircle
 10
-23.839978
 20
74.597885
 30
0.0
 40
2.0
100
AcDbArc
 50
270.0
 51
360.0
  0
ARC
  5
1FC
100
AcDbEntity
  8
3
370
    50
100
AcDbCircle
 10
-23.839978
 20
75.547632
 30
0.0
 40
2.0
100
AcDbArc
 50
360.0
 51
90.0
  0
ARC
  5
1FD
100
AcDbEntity
  8
3
370
    50
100
AcDbCircle
 10
-52.729239
 20
74.597885
 30
0.0
 40
2.0
100
AcDbArc
 50
180.0
 51
270.0
  0
ARC
  5
1FE
100
AcDbEntity
  8
3
370
    50
100
AcDbCircle
 10
-52.729239
 20
75.547632
 30
0.0
 40
2.0
100
AcDbArc
 50
90.0
 51
180.0
  0
LINE
  5
1FF
100
AcDbEntity
  8
3
370
    50
100
AcDbLine
 10
-21.967942
 20
73.893981
 30
0.0
 11
-17.821406
 21
84.921712
 31
0.0
  0
LINE
  5
200
100
AcDbEntity
  8
3
370
    50
100
AcDbLine
 10
-54.670658
 20
74.117374
 30
0.0
 11
-57.374424
 21
85.041469
 31
0.0
  0
LINE
  5
201
100
AcDbEntity
  8
3
370
    50
100
AcDbLine
 10
-19.356059
 20
79.118119
 30
0.0
 11
-20.003614
 21
79.118119
 31
0.0
  0
ARC
  5
202
100
AcDbEntity
  8
3
370
    50
100
AcDbCircle
 10
-22.821406
 20
89.144001
 30
0.0
 40
5.0
100
AcDbArc
 50
339.393241
 51
0.0
  0
LINE
  5
203
100
AcDbEntity
  8
3
370
    25
100
AcDbLine
 10
-20.5012
 20
88.235043
 30
0.0
 11
-55.32328
 21
88.235043
 31
0.0
  0
POINT
  5
204
100
AcDbEntity
  8
3
370
    50
100
AcDbPoint
 10
-198.97458
 20
101.118119
 30
0.0
  0
LINE
  5
205
100
AcDbEntity
  8
3
370
    50
100
AcDbLine
 10
-202.47458
 20
87.065944
 30
0.0
 11
-203.47458
 21
87.065944
 31
0.0
  0
LINE
  5
206
100
AcDbEntity
  8
3
370
    50
100
AcDbLine
 10
-202.47458
 20
123.118119
 30
0.0
 11
-202.47458
 21
87.065944
 31
0.0
  0
LINE
  5
207
100
AcDbEntity
  8
3
370
    50
100
AcDbLine
 10
-203.47458
 20
123.118119
 30
0.0
 11
-203.47458
 21
87.065944
 31
0.0
  0
HATCH
  5
208
100
AcDbEntity
  8
3
370
    25
100
AcDbHatch
 10
0.0
 20
0.0
 30
0.0
210
0.0
220
0.0
230
1.0
  2
_U
 70
     0
 71
     1
 91
        1
 92
        1
 93
        4
 72
     1
 10
-202.47458
 20
123.11811899999999
 11
-202.47458
 21
87.065944000000002
 72
     1
 10
-202.47458
 20
87.065944000000002
 11
-203.47458
 21
87.065944000000002
 72
     1
 10
-203.47458
 20
87.065944000000002
 11
-203.47458
 21
123.11811899999999
 72
     1
 10
-203.47458
 20
123.11811899999999
 11
-202.47458
 21
123.11811899999999
 97
        4
330
0
330
0
330
0
330
0
 75
     0
 76
     0
 52
45.0
 41
1.0
 77
     0
 78
     1
 53
45.0
 43
0.0
 44
0.0
 45
-0.141421
 46
0.141421
 79
     0
 98
        1
 10
0.0
 20
0.0
  0
LINE
  5
209
100
AcDbEntity
  8
3
370
    50
100
AcDbLine
 10
-198.97458
 20
79.618119
 30
0.0
 11
-198.97458
 21
101.118119
 31
0.0
  0
LINE
  5
20A
100
AcDbEntity
  8
3
370
    50
100
AcDbLine
 10
-236.992583
 20
123.118119
 30
0.0
 11
-199.47458
 21
123.118119
 31
0.0
  0
LINE
  5
20B
100
AcDbEntity
  8
3
370
    50
100
AcDbLine
 10
-241.47458
 20
90.117753
 30
0.0
 11
-241.47458
 21
112.118486
 31
0.0
  0
LINE
  5
20C
100
AcDbEntity
  8
3
370
    50
100
AcDbLine
 10
-198.97458
 20
122.618119
 30
0.0
 11
-198.97458
 21
101.118119
 31
0.0
  0
LINE
  5
20D
100
AcDbEntity
  8
3
370
    50
100
AcDbLine
 10
-241.47458
 20
90.117753
 30
0.0
 11
-238.924435
 21
80.600481
 31
0.0
  0
LINE
  5
20E
100
AcDbEntity
  8
3
370
    50
100
AcDbLine
 10
-241.47458
 20
112.118486
 30
0.0
 11
-238.924435
 21
121.635757
 31
0.0
  0
ARC
  5
20F
100
AcDbEntity
  8
3
370
    50
100
AcDbCircle
 10
-236.992583
 20
81.118119
 30
0.0
 40
2.0
100
AcDbArc
 50
195.0
 51
235.596505
  0
ARC
  5
210
100
AcDbEntity
  8
3
370
    50
100
AcDbCircle
 10
-236.992583
 20
121.118119
 30
0.0
 40
2.0
100
AcDbArc
 50
90.0
 51
165.0
  0
ARC
  5
211
100
AcDbEntity
  8
3
370
    50
100
AcDbCircle
 10
-199.47458
 20
79.618119
 30
0.0
 40
0.5
100
AcDbArc
 50
270.0
 51
360.0
  0
ARC
  5
212
100
AcDbEntity
  8
3
370
    50
100
AcDbCircle
 10
-199.47458
 20
122.618119
 30
0.0
 40
0.5
100
AcDbArc
 50
360.0
 51
90.0
  0
ELLIPSE
  5
213
100
AcDbEntity
  8
3
370
    50
100
AcDbEllipse
 10
-211.97458
 20
81.319513
 30
0.0
 11
3.5
 21
0.0
 31
0.0
210
0.0
220
0.0
230
1.0
 40
0.763714
 41
0.0
 42
6.2831849999999996
  0
LINE
  5
214
100
AcDbEntity
  8
3
370
    50
100
AcDbLine
 10
-208.47458
 20
81.319513
 30
0.0
 11
-208.47458
 21
85.562154
 31
0.0
  0
LINE
  5
215
100
AcDbEntity
  8
3
370
    50
100
AcDbLine
 10
-215.47458
 20
81.319513
 30
0.0
 11
-215.47458
 21
85.562154
 31
0.0
  0
ELLIPSE
  5
216
100
AcDbEntity
  8
3
370
    50
100
AcDbEllipse
 10
-211.97458
 20
85.562154
 30
0.0
 11
3.5
 21
0.0
 31
0.0
210
0.0
220
0.0
230
1.0
 40
0.763714
 41
0.0
 42
3.1415929999999999
  0
LINE
  5
217
100
AcDbEntity
  8
3
370
    50
100
AcDbLine
 10
-222.004602
 20
79.118119
 30
0.0
 11
-213.959849
 21
79.118119
 31
0.0
  0
LINE
  5
218
100
AcDbEntity
  8
3
370
    50
100
AcDbLine
 10
-209.989312
 20
79.118119
 30
0.0
 11
-199.47458
 21
79.118119
 31
0.0
  0
LINE
  5
219
100
AcDbEntity
  8
3
370
    50
100
AcDbLine
 10
-235.124443
 20
81.101711
 30
0.0
 11
-225.641869
 21
81.101711
 31
0.0
  0
LINE
  5
21A
100
AcDbEntity
  8
3
370
    50
100
AcDbLine
 10
-235.971976
 20
76.151964
 30
0.0
 11
-224.303631
 21
76.151964
 31
0.0
  0
LINE
  5
21B
100
AcDbEntity
  8
3
370
    50
100
AcDbLine
 10
-222.737823
 20
81.101711
 30
0.0
 11
-221.913844
 21
84.435018
 31
0.0
  0
ARC
  5
21C
100
AcDbEntity
  8
3
370
    50
100
AcDbCircle
 10
-217.059945
 20
83.235154
 30
0.0
 40
5.0
100
AcDbArc
 50
90.0
 51
166.115067
  0
LINE
  5
21D
100
AcDbEntity
  8
3
370
    50
100
AcDbLine
 10
-237.771248
 20
81.101711
 30
0.0
 11
-238.527237
 21
88.236239
 31
0.0
  0
LINE
  5
21E
100
AcDbEntity
  8
3
370
    50
100
AcDbLine
 10
-222.362072
 20
77.672018
 30
0.0
 11
-221.913844
 21
79.48527
 31
0.0
  0
ARC
  5
21F
100
AcDbEntity
  8
3
370
    50
100
AcDbCircle
 10
-217.059945
 20
78.285407
 30
0.0
 40
5.0
100
AcDbArc
 50
90.0
 51
166.115067
  0
LINE
  5
220
100
AcDbEntity
  8
3
370
    50
100
AcDbLine
 10
-237.960841
 20
77.94122
 30
0.0
 11
-238.527237
 21
83.286491
 31
0.0
  0
ARC
  5
221
100
AcDbEntity
  8
3
370
    50
100
AcDbCircle
 10
-224.303631
 20
78.151964
 30
0.0
 40
2.0
100
AcDbArc
 50
270.0
 51
346.115067
  0
ARC
  5
222
100
AcDbEntity
  8
3
370
    50
100
AcDbCircle
 10
-235.971976
 20
78.151964
 30
0.0
 40
2.0
100
AcDbArc
 50
186.048608
 51
270.0
  0
ARC
  5
223
100
AcDbEntity
  8
3
370
    50
100
AcDbCircle
 10
-235.771248
 20
79.101711
 30
0.0
 40
2.0
100
AcDbArc
 50
116.452129
 51
171.882064
  0
ARC
  5
224
100
AcDbEntity
  8
3
370
    50
100
AcDbCircle
 10
-224.737823
 20
79.101711
 30
0.0
 40
2.0
100
AcDbArc
 50
22.532412
 51
90.0
  0
LINE
  5
225
100
AcDbEntity
  8
3
370
    50
100
AcDbLine
 10
-238.527237
 20
119.853064
 30
0.0
 11
-238.527237
 21
88.236239
 31
0.0
  0
LINE
  5
226
100
AcDbEntity
  8
3
370
    50
100
AcDbLine
 10
-238.527237
 20
83.286491
 30
0.0
 11
-238.527237
 21
80.087134
 31
0.0
  0
LINE
  5
227
100
AcDbEntity
  8
3
370
    25
100
AcDbLine
 10
-217.059945
 20
88.235154
 30
0.0
 11
-237.845131
 21
88.235154
 31
0.0
  0
LINE
  5
228
100
AcDbEntity
  8
3
370
    50
100
AcDbLine
 10
-204.28917
 20
84.565944
 30
0.0
 11
-203.77458
 21
84.565944
 31
0.0
  0
LINE
  5
229
100
AcDbEntity
  8
3
370
    50
100
AcDbLine
 10
-204.17458
 20
79.565944
 30
0.0
 11
-203.77458
 21
79.565944
 31
0.0
  0
LWPOLYLINE
  5
22A
100
AcDbEntity
  8
3
370
    50
100
AcDbPolyline
 90
      114
 70
     0
 10
-201.47458
 20
84.565944
 10
-201.541934
 20
84.563186
 10
-201.609019
 20
84.555118
 10
-201.675569
 20
84.542044
 10
-201.869322
 20
84.475855
 10
-201.931048
 20
84.445823
 10
-201.990899
 20
84.412317
 10
-202.048605
 20
84.375643
 10
-202.114981
 20
84.327667
 10
-202.177985
 20
84.275867
 10
-202.237743
 20
84.220571
 10
-202.398815
 20
84.036979
 10
-202.44686
 20
83.970973
 10
-202.492293
 20
83.903107
 10
-202.53524
 20
83.833711
 10
-202.571856
 20
83.770201
 10
-202.606602
 20
83.70577
 10
-202.639522
 20
83.640472
 10
-202.727732
 20
83.439914
 10
-202.800987
 20
83.23349
 10
-202.822274
 20
83.163629
 10
-202.842064
 20
83.093332
 10
-202.8604
 20
83.022653
 10
-202.878973
 20
82.944332
 10
-202.895844
 20
82.865646
 10
-202.911029
 20
82.786625
 10
-202.946635
 20
82.547898
 10
-202.967669
 20
82.307371
 10
-202.97152
 20
82.226951
 10
-202.973818
 20
82.146464
 10
-202.97458
 20
82.065944
 10
-202.973818
 20
81.985424
 10
-202.97152
 20
81.904937
 10
-202.967669
 20
81.824517
 10
-202.946635
 20
81.58399
 10
-202.911029
 20
81.345263
 10
-202.895844
 20
81.266242
 10
-202.878973
 20
81.187556
 10
-202.8604
 20
81.109235
 10
-202.842064
 20
81.038556
 10
-202.822274
 20
80.968258
 10
-202.800987
 20
80.898398
 10
-202.727732
 20
80.691974
 10
-202.639522
 20
80.491416
 10
-202.606602
 20
80.426118
 10
-202.571856
 20
80.361687
 10
-202.53524
 20
80.298177
 10
-202.492293
 20
80.228781
 10
-202.44686
 20
80.160915
 10
-202.398815
 20
80.094909
 10
-202.237743
 20
79.911317
 10
-202.177985
 20
79.856021
 10
-202.114981
 20
79.804221
 10
-202.048605
 20
79.756245
 10
-201.990899
 20
79.719571
 10
-201.931048
 20
79.686065
 10
-201.869322
 20
79.656033
 10
-201.675569
 20
79.589844
 10
-201.609019
 20
79.57677
 10
-201.541934
 20
79.568702
 10
-201.47458
 20
79.565944
 10
-201.407227
 20
79.568702
 10
-201.340141
 20
79.57677
 10
-201.273592
 20
79.589844
 10
-201.079839
 20
79.656033
 10
-201.018112
 20
79.686065
 10
-200.958262
 20
79.719571
 10
-200.900555
 20
79.756245
 10
-200.83418
 20
79.804221
 10
-200.771176
 20
79.856021
 10
-200.711417
 20
79.911317
 10
-200.550345
 20
80.094909
 10
-200.5023
 20
80.160915
 10
-200.456868
 20
80.228781
 10
-200.41392
 20
80.298177
 10
-200.365517
 20
80.383065
 10
-200.320411
 20
80.469557
 10
-200.278505
 20
80.557527
 10
-200.170999
 20
80.829028
 10
-200.14091
 20
80.921633
 10
-200.113529
 20
81.015078
 10
-200.088761
 20
81.109235
 10
-200.064376
 20
81.213745
 10
-200.043007
 20
81.318888
 10
-200.024616
 20
81.424583
 10
-199.986912
 20
81.744197
 10
-199.980035
 20
81.851314
 10
-199.975937
 20
81.95859
 10
-199.97458
 20
82.065944
 10
-199.975937
 20
82.173298
 10
-199.980035
 20
82.280574
 10
-199.986912
 20
82.387691
 10
-200.024616
 20
82.707305
 10
-200.043007
 20
82.813
 10
-200.064376
 20
82.918143
 10
-200.088761
 20
83.022653
 10
-200.113529
 20
83.11681
 10
-200.14091
 20
83.210255
 10
-200.170999
 20
83.30286
 10
-200.278505
 20
83.574361
 10
-200.320411
 20
83.662331
 10
-200.365517
 20
83.748823
 10
-200.41392
 20
83.833711
 10
-200.479265
 20
83.937252
 10
-200.550345
 20
84.036979
 10
-200.627587
 20
84.131787
 10
-200.711417
 20
84.220571
 10
-200.802264
 20
84.302224
 10
-200.900555
 20
84.375643
 10
-201.005984
 20
84.43939
 10
-201.117663
 20
84.492079
 10
-201.234031
 20
84.531925
 10
-201.353524
 20
84.557142
 10
-201.47458
 20
84.565944
  0
LWPOLYLINE
  5
29E
100
AcDbEntity
  8
3
370
    50
100
AcDbPolyline
 90
      114
 70
     0
 10
-201.47458
 20
83.565944
 10
-201.509183
 20
83.561643
 10
-201.54332
 20
83.549642
 10
-201.576528
 20
83.531299
 10
-201.60834
 20
83.507967
 10
-201.638293
 20
83.481004
 10
-201.665922
 20
83.451763
 10
-201.692931
 20
83.418699
 10
-201.716959
 20
83.384642
 10
-201.73832
 20
83.349691
 10
-201.789553
 20
83.240433
 10
-201.803399
 20
83.202869
 10
-201.816154
 20
83.164894
 10
-201.828134
 20
83.126604
 10
-201.839926
 20
83.086962
 10
-201.851227
 20
83.047105
 10
-201.862034
 20
83.007048
 10
-201.891459
 20
82.885821
 10
-201.916317
 20
82.763327
 10
-201.923573
 20
82.722284
 10
-201.930309
 20
82.68116
 10
-201.93652
 20
82.639969
 10
-201.941788
 20
82.601898
 10
-201.946618
 20
82.563786
 10
-201.951021
 20
82.525636
 10
-201.961778
 20
82.410989
 10
-201.96909
 20
82.296105
 10
-201.973258
 20
82.181064
 10
-201.974
 20
82.142695
 10
-201.974437
 20
82.104321
 10
-201.97458
 20
82.065944
 10
-201.974437
 20
82.027567
 10
-201.974
 20
81.989193
 10
-201.973258
 20
81.950824
 10
-201.96909
 20
81.835783
 10
-201.961778
 20
81.720899
 10
-201.951021
 20
81.606252
 10
-201.946618
 20
81.568102
 10
-201.941788
 20
81.52999
 10
-201.93652
 20
81.491919
 10
-201.930309
 20
81.450728
 10
-201.923573
 20
81.409604
 10
-201.916317
 20
81.368561
 10
-201.891459
 20
81.246067
 10
-201.862034
 20
81.12484
 10
-201.851227
 20
81.084783
 10
-201.839926
 20
81.044926
 10
-201.828134
 20
81.005284
 10
-201.816154
 20
80.966994
 10
-201.803399
 20
80.929019
 10
-201.789553
 20
80.891455
 10
-201.73832
 20
80.782197
 10
-201.716959
 20
80.747246
 10
-201.692931
 20
80.713189
 10
-201.665922
 20
80.680125
 10
-201.638293
 20
80.650884
 10
-201.60834
 20
80.623921
 10
-201.576528
 20
80.600589
 10
-201.54332
 20
80.582246
 10
-201.509183
 20
80.570245
 10
-201.47458
 20
80.565944
 10
-201.439978
 20
80.570245
 10
-201.405841
 20
80.582246
 10
-201.372633
 20
80.600589
 10
-201.34082
 20
80.623921
 10
-201.310867
 20
80.650884
 10
-201.283239
 20
80.680125
 10
-201.256229
 20
80.713189
 10
-201.232202
 20
80.747246
 10
-201.210841
 20
80.782197
 10
-201.159607
 20
80.891455
 10
-201.145762
 20
80.929019
 10
-201.133006
 20
80.966994
 10
-201.121027
 20
81.005284
 10
-201.105413
 20
81.058188
 10
-201.090674
 20
81.111466
 10
-201.076816
 20
81.165084
 10
-201.040617
 20
81.327613
 10
-201.030367
 20
81.382232
 10
-201.021039
 20
81.437012
 10
-201.012641
 20
81.491919
 10
-201.006124
 20
81.539514
 10
-201.000288
 20
81.587172
 10
-200.995111
 20
81.634887
 10
-200.983315
 20
81.778317
 10
-200.976666
 20
81.922053
 10
-200.975493
 20
81.970007
 10
-200.974805
 20
82.017973
 10
-200.97458
 20
82.065944
 10
-200.974805
 20
82.113915
 10
-200.975493
 20
82.161881
 10
-200.976666
 20
82.209835
 10
-200.983315
 20
82.353571
 10
-200.995111
 20
82.497001
 10
-201.000288
 20
82.544716
 10
-201.006124
 20
82.592374
 10
-201.012641
 20
82.639969
 10
-201.021039
 20
82.694876
 10
-201.030367
 20
82.749656
 10
-201.040617
 20
82.804275
 10
-201.076816
 20
82.966804
 10
-201.090674
 20
83.020421
 10
-201.105413
 20
83.0737
 10
-201.121027
 20
83.126604
 10
-201.139267
 20
83.183927
 10
-201.159607
 20
83.240433
 10
-201.18311
 20
83.295796
 10
-201.210841
 20
83.349691
 10
-201.243862
 20
83.401788
 10
-201.283239
 20
83.451763
 10
-201.325582
 20
83.494855
 10
-201.372633
 20
83.531299
 10
-201.422822
 20
83.55652
 10
-201.47458
 20
83.565944
  0
LINE
  5
312
100
AcDbEntity
  8
3
370
    50
100
AcDbLine
 10
-203.47458
 20
84.265944
 30
0.0
 11
-203.47458
 21
81.565944
 31
0.0
  0
LINE
  5
313
100
AcDbEntity
  8
3
370
    50
100
AcDbLine
 10
-204.47458
 20
83.44791
 30
0.0
 11
-204.47458
 21
81.665944
 31
0.0
  0
LINE
  5
314
100
AcDbEntity
  8
3
370
    50
100
AcDbLine
 10
-203.47458
 20
80.565944
 30
0.0
 11
-203.27458
 21
80.565944
 31
0.0
  0
LINE
  5
315
100
AcDbEntity
  8
3
370
    50
100
AcDbLine
 10
-205.25376
 20
81.565944
 30
0.0
 11
-204.57458
 21
81.565944
 31
0.0
  0
LINE
  5
316
100
AcDbEntity
  8
3
370
    50
100
AcDbLine
 10
-204.557498
 20
84.400108
 30
0.0
 11
-205.942908
 21
81.629288
 31
0.0
  0
LINE
  5
317
100
AcDbEntity
  8
3
370
    50
100
AcDbLine
 10
-204.47458
 20
83.44791
 30
0.0
 11
-205.343203
 21
81.710665
 31
0.0
  0
ARC
  5
318
100
AcDbEntity
  8
3
370
    50
100
AcDbCircle
 10
-205.25376
 20
81.665944
 30
0.0
 40
0.1
100
AcDbArc
 50
153.434949
 51
270.0
  0
ARC
  5
319
100
AcDbEntity
  8
3
370
    50
100
AcDbCircle
 10
-204.57458
 20
81.665944
 30
0.0
 40
0.1
100
AcDbArc
 50
270.0
 51
360.0
  0
LINE
  5
31A
100
AcDbEntity
  8
3
370
    50
100
AcDbLine
 10
-203.47458
 20
81.565944
 30
0.0
 11
-203.27458
 21
81.565944
 31
0.0
  0
LINE
  5
31B
100
AcDbEntity
  8
3
370
    50
100
AcDbLine
 10
-203.47458
 20
79.865944
 30
0.0
 11
-203.47458
 21
80.565944
 31
0.0
  0
LINE
  5
31C
100
AcDbEntity
  8
3
370
    50
100
AcDbLine
 10
-204.47458
 20
79.865944
 30
0.0
 11
-204.47458
 21
80.565944
 31
0.0
  0
LINE
  5
31D
100
AcDbEntity
  8
3
370
    50
100
AcDbLine
 10
-205.67458
 20
80.565944
 30
0.0
 11
-204.47458
 21
80.565944
 31
0.0
  0
LINE
  5
31E
100
AcDbEntity
  8
3
370
    50
100
AcDbLine
 10
-202.97458
 20
81.265944
 30
0.0
 11
-202.97458
 21
80.865944
 31
0.0
  0
ARC
  5
31F
100
AcDbEntity
  8
3
370
    50
100
AcDbCircle
 10
-204.28917
 20
84.265944
 30
0.0
 40
0.3
100
AcDbArc
 50
90.0
 51
153.434949
  0
ARC
  5
320
100
AcDbEntity
  8
3
370
    50
100
AcDbCircle
 10
-203.77458
 20
84.265944
 30
0.0
 40
0.3
100
AcDbArc
 50
0.0
 51
90.0
  0
ARC
  5
321
100
AcDbEntity
  8
3
370
    50
100
AcDbCircle
 10
-205.67458
 20
80.865944
 30
0.0
 40
0.3
100
AcDbArc
 50
180.0
 51
270.0
  0
ARC
  5
322
100
AcDbEntity
  8
3
370
    50
100
AcDbCircle
 10
-203.27458
 20
81.265944
 30
0.0
 40
0.3
100
AcDbArc
 50
0.0
 51
90.0
  0
ARC
  5
323
100
AcDbEntity
  8
3
370
    50
100
AcDbCircle
 10
-203.27458
 20
80.865944
 30
0.0
 40
0.3
100
AcDbArc
 50
270.0
 51
360.0
  0
ARC
  5
324
100
AcDbEntity
  8
3
370
    50
100
AcDbCircle
 10
-204.17458
 20
79.865944
 30
0.0
 40
0.3
100
AcDbArc
 50
180.0
 51
270.0
  0
ARC
  5
325
100
AcDbEntity
  8
3
370
    50
100
AcDbCircle
 10
-203.77458
 20
79.865944
 30
0.0
 40
0.3
100
AcDbArc
 50
270.0
 51
360.0
  0
LINE
  5
326
100
AcDbEntity
  8
3
370
    25
100
AcDbLine
 10
-205.798012
 20
80.592513
 30
0.0
 11
-204.82458
 21
81.565944
 31
0.0
  0
LINE
  5
327
100
AcDbEntity
  8
3
370
    25
100
AcDbLine
 10
-204.47458
 20
81.915944
 30
0.0
 11
-203.47458
 21
82.915944
 31
0.0
  0
LINE
  5
328
100
AcDbEntity
  8
3
370
    25
100
AcDbLine
 10
-205.541738
 20
80.565944
 30
0.0
 11
-204.532412
 21
81.57527
 31
0.0
  0
LINE
  5
329
100
AcDbEntity
  8
3
370
    25
100
AcDbLine
 10
-204.483906
 20
81.623776
 30
0.0
 11
-203.47458
 21
82.633101
 31
0.0
  0
LINE
  5
32A
100
AcDbEntity
  8
3
370
    25
100
AcDbLine
 10
-205.258895
 20
80.565944
 30
0.0
 11
-203.47458
 21
82.350259
 31
0.0
  0
LINE
  5
32B
100
AcDbEntity
  8
3
370
    25
100
AcDbLine
 10
-204.976052
 20
80.565944
 30
0.0
 11
-203.47458
 21
82.067416
 31
0.0
  0
LINE
  5
32C
100
AcDbEntity
  8
3
370
    25
100
AcDbLine
 10
-204.693209
 20
80.565944
 30
0.0
 11
-203.47458
 21
81.784573
 31
0.0
  0
LINE
  5
32D
100
AcDbEntity
  8
3
370
    25
100
AcDbLine
 10
-204.47458
 20
80.50173
 30
0.0
 11
-203.410367
 21
81.565944
 31
0.0
  0
LINE
  5
32E
100
AcDbEntity
  8
3
370
    25
100
AcDbLine
 10
-204.47458
 20
80.218888
 30
0.0
 11
-203.153183
 21
81.540285
 31
0.0
  0
LINE
  5
32F
100
AcDbEntity
  8
3
370
    25
100
AcDbLine
 10
-204.47458
 20
79.936045
 30
0.0
 11
-203.007686
 21
81.402939
 31
0.0
  0
LINE
  5
330
100
AcDbEntity
  8
3
370
    25
100
AcDbLine
 10
-204.425806
 20
79.701976
 30
0.0
 11
-202.97458
 21
81.153202
 31
0.0
  0
LINE
  5
331
100
AcDbEntity
  8
3
370
    25
100
AcDbLine
 10
-204.265034
 20
79.579905
 30
0.0
 11
-203.47458
 21
80.37036
 31
0.0
  0
LINE
  5
332
100
AcDbEntity
  8
3
370
    25
100
AcDbLine
 10
-203.278996
 20
80.565944
 30
0.0
 11
-202.97458
 21
80.87036
 31
0.0
  0
LINE
  5
333
100
AcDbEntity
  8
3
370
    25
100
AcDbLine
 10
-203.996153
 20
79.565944
 30
0.0
 11
-203.47458
 21
80.087517
 31
0.0
  0
LINE
  5
334
100
AcDbEntity
  8
3
370
    25
100
AcDbLine
 10
-203.70517
 20
79.574084
 30
0.0
 11
-203.48272
 21
79.796534
 31
0.0
  0
LINE
  5
335
100
AcDbEntity
  8
3
370
    25
100
AcDbLine
 10
-205.942467
 20
80.7309
 30
0.0
 11
-205.107423
 21
81.565944
 31
0.0
  0
LINE
  5
336
100
AcDbEntity
  8
3
370
    25
100
AcDbLine
 10
-204.47458
 20
82.198787
 30
0.0
 11
-203.47458
 21
83.198787
 31
0.0
  0
LINE
  5
337
100
AcDbEntity
  8
3
370
    25
100
AcDbLine
 10
-205.97458
 20
80.981629
 30
0.0
 11
-205.340327
 21
81.615883
 31
0.0
  0
LINE
  5
338
100
AcDbEntity
  8
3
370
    25
100
AcDbLine
 10
-204.47458
 20
82.481629
 30
0.0
 11
-203.47458
 21
83.481629
 31
0.0
  0
LINE
  5
339
100
AcDbEntity
  8
3
370
    25
100
AcDbLine
 10
-205.97458
 20
81.264472
 30
0.0
 11
-205.158018
 21
82.081034
 31
0.0
  0
LINE
  5
33A
100
AcDbEntity
  8
3
370
    25
100
AcDbLine
 10
-204.47458
 20
82.764472
 30
0.0
 11
-203.47458
 21
83.764472
 31
0.0
  0
LINE
  5
33B
100
AcDbEntity
  8
3
370
    25
100
AcDbLine
 10
-205.968957
 20
81.552938
 30
0.0
 11
-204.875175
 21
82.64672
 31
0.0
  0
LINE
  5
33C
100
AcDbEntity
  8
3
370
    25
100
AcDbLine
 10
-204.47458
 20
83.047315
 30
0.0
 11
-203.47458
 21
84.047315
 31
0.0
  0
LINE
  5
33D
100
AcDbEntity
  8
3
370
    25
100
AcDbLine
 10
-203.480332
 20
84.324406
 30
0.0
 11
-204.47458
 21
83.330158
 31
0.0
  0
LINE
  5
33E
100
AcDbEntity
  8
3
370
    25
100
AcDbLine
 10
-204.592333
 20
83.212405
 30
0.0
 11
-205.710367
 21
82.094371
 31
0.0
  0
LINE
  5
33F
100
AcDbEntity
  8
3
370
    25
100
AcDbLine
 10
-203.587285
 20
84.500295
 30
0.0
 11
-205.427524
 21
82.660057
 31
0.0
  0
LINE
  5
340
100
AcDbEntity
  8
3
370
    25
100
AcDbLine
 10
-203.804479
 20
84.565944
 30
0.0
 11
-205.144681
 21
83.225742
 31
0.0
  0
LINE
  5
341
100
AcDbEntity
  8
3
370
    25
100
AcDbLine
 10
-204.087322
 20
84.565944
 30
0.0
 11
-204.861839
 21
83.791427
 31
0.0
  0
LINE
  5
342
100
AcDbEntity
  8
3
370
    25
100
AcDbLine
 10
-204.386336
 20
84.549773
 30
0.0
 11
-204.578996
 21
84.357113
 31
0.0
  0
HATCH
  5
343
100
AcDbEntity
  8
3
370
    25
100
AcDbHatch
 10
0.0
 20
0.0
 30
0.0
210
0.0
220
0.0
230
1.0
  2
_U
 70
     0
 71
     1
 91
        2
 92
        1
 93
        8
 72
     1
 10
-201.47458
 20
84.565944000000002
 11
-202.53523999999999
 21
83.833710999999994
 72
     1
 10
-202.53523999999999
 20
83.833710999999994
 11
-202.97458
 21
82.065944000000002
 72
     1
 10
-202.97458
 20
82.065944000000002
 11
-202.53523999999999
 21
80.298176999999995
 72
     1
 10
-202.53523999999999
 20
80.298176999999995
 11
-201.47458
 21
79.565944000000002
 72
     1
 10
-201.47458
 20
79.565944000000002
 11
-200.41391999999999
 21
80.298176999999995
 72
     1
 10
-200.41391999999999
 20
80.298176999999995
 11
-199.97458
 21
82.065944000000002
 72
     1
 10
-199.97458
 20
82.065944000000002
 11
-200.41391999999999
 21
83.833710999999994
 72
     1
 10
-200.41391999999999
 20
83.833710999999994
 11
-201.47458
 21
84.565944000000002
 97
        8
330
0
330
0
330
0
330
0
330
0
330
0
330
0
330
0
 92
        0
 93
        9
 72
     1
 10
-201.47458
 20
83.565944000000002
 11
-201.82813400000001
 21
83.126604
 72
     1
 10
-201.82813400000001
 20
83.126604
 11
-201.97458
 21
82.065944000000002
 72
     1
 10
-201.97458
 20
82.065944000000002
 11
-201.93652
 21
81.491918999999996
 72
     1
 10
-201.93652
 20
81.491918999999996
 11
-201.66592199999999
 21
80.680125000000004
 72
     1
 10
-201.66592199999999
 20
80.680125000000004
 11
-201.121027
 21
81.005284000000003
 72
     1
 10
-201.121027
 20
81.005284000000003
 11
-200.97458
 21
82.065944000000002
 72
     1
 10
-200.97458
 20
82.065944000000002
 11
-201.012641
 21
82.639968999999994
 72
     1
 10
-201.012641
 20
82.639968999999994
 11
-201.28323900000001
 21
83.451763
 72
     1
 10
-201.28323900000001
 20
83.451763
 11
-201.47458
 21
83.565944000000002
 97
        9
330
0
330
0
330
0
330
0
330
0
330
0
330
0
330
0
330
0
 75
     0
 76
     0
 52
45.0
 41
1.0
 77
     0
 78
     1
 53
45.0
 43
0.0
 44
0.0
 45
-0.141421
 46
0.141421
 79
     0
 98
        1
 10
0.0
 20
0.0
  0
LINE
  5
344
100
AcDbEntity
  8
3
370
    50
100
AcDbLine
 10
-205.97458
 20
81.495124
 30
0.0
 11
-205.97458
 21
80.865944
 31
0.0
  0
ARC
  5
345
100
AcDbEntity
  8
3
370
    50
100
AcDbCircle
 10
-205.67458
 20
81.495124
 30
0.0
 40
0.3
100
AcDbArc
 50
153.434949
 51
180.0
  0
POINT
  5
346
100
AcDbEntity
  8
3
370
    50
100
AcDbPoint
 10
-57.374424
 20
-52.15124
 30
0.0
  0
POINT
  5
347
100
AcDbEntity
  8
3
370
    50
100
AcDbPoint
 10
-198.97458
 20
-52.15124
 30
0.0
  0
POINT
  5
348
100
AcDbEntity
  8
3
370
    50
100
AcDbPoint
 10
-55.323712
 20
-39.268163
 30
0.0
  0
POINT
  5
349
100
AcDbEntity
  8
3
370
    50
100
AcDbPoint
 10
-55.323712
 20
-39.268163
 30
0.0
  0
POINT
  5
34A
100
AcDbEntity
  8
3
370
    50
100
AcDbPoint
 10
-20.501631
 20
-39.268163
 30
0.0
  0
LINE
  5
34B
100
AcDbEntity
  8
3
370
    50
100
AcDbLine
 10
-57.374424
 20
-52.15124
 30
0.0
 11
-57.374424
 21
-73.65124
 31
0.0
  0
LINE
  5
34C
100
AcDbEntity
  8
3
370
    50
100
AcDbLine
 10
-56.874424
 20
-30.15124
 30
0.0
 11
-55.117942
 21
-30.15124
 31
0.0
  0
LINE
  5
34D
100
AcDbEntity
  8
3
370
    50
100
AcDbLine
 10
-57.374424
 20
-30.65124
 30
0.0
 11
-57.374424
 21
-52.15124
 31
0.0
  0
ARC
  5
34E
100
AcDbEntity
  8
3
370
    50
100
AcDbCircle
 10
-56.874424
 20
-30.65124
 30
0.0
 40
0.5
100
AcDbArc
 50
90.0
 51
180.0
  0
LINE
  5
34F
100
AcDbEntity
  8
3
370
    50
100
AcDbLine
 10
-14.873964
 20
-63.15124
 30
0.0
 11
-14.873964
 21
-41.15124
 31
0.0
  0
LINE
  5
350
100
AcDbEntity
  8
3
370
    50
100
AcDbLine
 10
-14.873424
 20
-52.15124
 30
0.0
 11
-14.873424
 21
-63.151607
 31
0.0
  0
LINE
  5
351
100
AcDbEntity
  8
3
370
    50
100
AcDbLine
 10
-14.873424
 20
-52.15124
 30
0.0
 11
-14.873424
 21
-41.151607
 31
0.0
  0
LINE
  5
352
100
AcDbEntity
  8
3
370
    50
100
AcDbLine
 10
-14.873964
 20
-63.15124
 30
0.0
 11
-17.424208
 21
-72.668878
 31
0.0
  0
LINE
  5
353
100
AcDbEntity
  8
3
370
    50
100
AcDbLine
 10
-14.873964
 20
-41.15124
 30
0.0
 11
-17.424208
 21
-31.633602
 31
0.0
  0
ARC
  5
354
100
AcDbEntity
  8
3
370
    50
100
AcDbCircle
 10
-19.356059
 20
-32.15124
 30
0.0
 40
2.0
100
AcDbArc
 50
15.0
 51
90.921024
  0
LINE
  5
355
100
AcDbEntity
  8
3
370
    50
100
AcDbLine
 10
-56.874424
 20
-74.15124
 30
0.0
 11
-19.356059
 21
-74.15124
 31
0.0
  0
ARC
  5
356
100
AcDbEntity
  8
3
370
    50
100
AcDbCircle
 10
-56.874424
 20
-73.65124
 30
0.0
 40
0.5
100
AcDbArc
 50
180.0
 51
270.0
  0
ARC
  5
357
100
AcDbEntity
  8
3
370
    50
100
AcDbCircle
 10
-19.356059
 20
-72.15124
 30
0.0
 40
2.0
100
AcDbArc
 50
270.0
 51
345.0
  0
LINE
  5
358
100
AcDbEntity
  8
3
370
    50
100
AcDbLine
 10
-21.839978
 20
-28.824579
 30
0.0
 11
-21.839978
 21
-29.774326
 31
0.0
  0
LINE
  5
359
100
AcDbEntity
  8
3
370
    50
100
AcDbLine
 10
-54.729239
 20
-28.824579
 30
0.0
 11
-54.729239
 21
-29.774326
 31
0.0
  0
LINE
  5
35A
100
AcDbEntity
  8
3
370
    50
100
AcDbLine
 10
-23.839978
 20
-31.774326
 30
0.0
 11
-52.729239
 21
-31.774326
 31
0.0
  0
LINE
  5
35B
100
AcDbEntity
  8
3
370
    50
100
AcDbLine
 10
-23.839978
 20
-26.824579
 30
0.0
 11
-52.729239
 21
-26.824579
 31
0.0
  0
LINE
  5
35C
100
AcDbEntity
  8
3
370
    50
100
AcDbLine
 10
-21.839978
 20
-31.774326
 30
0.0
 11
-18.141315
 21
-41.610935
 31
0.0
  0
LINE
  5
35D
100
AcDbEntity
  8
3
370
    50
100
AcDbLine
 10
-54.729239
 20
-31.774326
 30
0.0
 11
-57.374424
 21
-42.461737
 31
0.0
  0
LINE
  5
35E
100
AcDbEntity
  8
3
370
    50
100
AcDbLine
 10
-17.821406
 20
-72.556998
 30
0.0
 11
-17.821406
 21
-43.370696
 31
0.0
  0
LINE
  5
35F
100
AcDbEntity
  8
3
370
    50
100
AcDbLine
 10
-17.821406
 20
-39.148406
 30
0.0
 11
-17.821406
 21
-31.655125
 31
0.0
  0
ARC
  5
360
100
AcDbEntity
  8
3
370
    50
100
AcDbCircle
 10
-23.839978
 20
-28.824579
 30
0.0
 40
2.0
100
AcDbArc
 50
0.0
 51
90.0
  0
ARC
  5
361
100
AcDbEntity
  8
3
370
    50
100
AcDbCircle
 10
-23.839978
 20
-29.774326
 30
0.0
 40
2.0
100
AcDbArc
 50
270.0
 51
360.0
  0
ARC
  5
362
100
AcDbEntity
  8
3
370
    50
100
AcDbCircle
 10
-52.729239
 20
-28.824579
 30
0.0
 40
2.0
100
AcDbArc
 50
90.0
 51
180.0
  0
ARC
  5
363
100
AcDbEntity
  8
3
370
    50
100
AcDbCircle
 10
-52.729239
 20
-29.774326
 30
0.0
 40
2.0
100
AcDbArc
 50
180.0
 51
270.0
  0
LINE
  5
364
100
AcDbEntity
  8
3
370
    50
100
AcDbLine
 10
-21.967942
 20
-28.120675
 30
0.0
 11
-17.821406
 21
-39.148406
 31
0.0
  0
LINE
  5
365
100
AcDbEntity
  8
3
370
    50
100
AcDbLine
 10
-54.670658
 20
-28.344068
 30
0.0
 11
-57.374424
 21
-39.268163
 31
0.0
  0
LINE
  5
366
100
AcDbEntity
  8
3
370
    50
100
AcDbLine
 10
-19.356059
 20
-30.15124
 30
0.0
 11
-21.204429
 21
-30.15124
 31
0.0
  0
ARC
  5
367
100
AcDbEntity
  8
3
370
    50
100
AcDbCircle
 10
-22.821406
 20
-43.370696
 30
0.0
 40
5.0
100
AcDbArc
 50
360.0
 51
20.606759
  0
LINE
  5
368
100
AcDbEntity
  8
3
370
    25
100
AcDbLine
 10
-20.5012
 20
-39.268163
 30
0.0
 11
-55.32328
 21
-39.268163
 31
0.0
  0
LINE
  5
369
100
AcDbEntity
  8
3
370
    50
100
AcDbLine
 10
-204.28917
 20
-33.799064
 30
0.0
 11
-203.77458
 21
-33.799064
 31
0.0
  0
LINE
  5
36A
100
AcDbEntity
  8
3
370
    50
100
AcDbLine
 10
-204.17458
 20
-38.799064
 30
0.0
 11
-203.77458
 21
-38.799064
 31
0.0
  0
LWPOLYLINE
  5
36B
100
AcDbEntity
  8
3
370
    50
100
AcDbPolyline
 90
      114
 70
     0
 10
-201.47458
 20
-33.799064
 10
-201.541934
 20
-33.801822
 10
-201.609019
 20
-33.809891
 10
-201.675569
 20
-33.822964
 10
-201.869322
 20
-33.889154
 10
-201.931048
 20
-33.919186
 10
-201.990899
 20
-33.952692
 10
-202.048605
 20
-33.989366
 10
-202.114981
 20
-34.037342
 10
-202.177985
 20
-34.089142
 10
-202.237743
 20
-34.144438
 10
-202.398815
 20
-34.328029
 10
-202.44686
 20
-34.394036
 10
-202.492293
 20
-34.461901
 10
-202.53524
 20
-34.531298
 10
-202.571856
 20
-34.594808
 10
-202.606602
 20
-34.659239
 10
-202.639522
 20
-34.724537
 10
-202.727732
 20
-34.925095
 10
-202.800987
 20
-35.131518
 10
-202.822274
 20
-35.201379
 10
-202.842064
 20
-35.271676
 10
-202.8604
 20
-35.342356
 10
-202.878973
 20
-35.420676
 10
-202.895844
 20
-35.499363
 10
-202.911029
 20
-35.578383
 10
-202.946635
 20
-35.81711
 10
-202.967669
 20
-36.057637
 10
-202.97152
 20
-36.138057
 10
-202.973818
 20
-36.218544
 10
-202.97458
 20
-36.299064
 10
-202.973818
 20
-36.379585
 10
-202.97152
 20
-36.460071
 10
-202.967669
 20
-36.540492
 10
-202.946635
 20
-36.781019
 10
-202.911029
 20
-37.019746
 10
-202.895844
 20
-37.098766
 10
-202.878973
 20
-37.177453
 10
-202.8604
 20
-37.255773
 10
-202.842064
 20
-37.326453
 10
-202.822274
 20
-37.39675
 10
-202.800987
 20
-37.46661
 10
-202.727732
 20
-37.673034
 10
-202.639522
 20
-37.873592
 10
-202.606602
 20
-37.93889
 10
-202.571856
 20
-38.003321
 10
-202.53524
 20
-38.066831
 10
-202.492293
 20
-38.136228
 10
-202.44686
 20
-38.204093
 10
-202.398815
 20
-38.2701
 10
-202.237743
 20
-38.453691
 10
-202.177985
 20
-38.508987
 10
-202.114981
 20
-38.560787
 10
-202.048605
 20
-38.608763
 10
-201.990899
 20
-38.645437
 10
-201.931048
 20
-38.678943
 10
-201.869322
 20
-38.708975
 10
-201.675569
 20
-38.775164
 10
-201.609019
 20
-38.788238
 10
-201.541934
 20
-38.796307
 10
-201.47458
 20
-38.799064
 10
-201.407227
 20
-38.796307
 10
-201.340141
 20
-38.788238
 10
-201.273592
 20
-38.775164
 10
-201.079839
 20
-38.708975
 10
-201.018112
 20
-38.678943
 10
-200.958262
 20
-38.645437
 10
-200.900555
 20
-38.608763
 10
-200.83418
 20
-38.560787
 10
-200.771176
 20
-38.508987
 10
-200.711417
 20
-38.453691
 10
-200.550345
 20
-38.2701
 10
-200.5023
 20
-38.204093
 10
-200.456868
 20
-38.136228
 10
-200.41392
 20
-38.066831
 10
-200.365517
 20
-37.981944
 10
-200.320411
 20
-37.895451
 10
-200.278505
 20
-37.807481
 10
-200.170999
 20
-37.535981
 10
-200.14091
 20
-37.443375
 10
-200.113529
 20
-37.34993
 10
-200.088761
 20
-37.255773
 10
-200.064376
 20
-37.151263
 10
-200.043007
 20
-37.046121
 10
-200.024616
 20
-36.940426
 10
-199.986912
 20
-36.620812
 10
-199.980035
 20
-36.513694
 10
-199.975937
 20
-36.406419
 10
-199.97458
 20
-36.299064
 10
-199.975937
 20
-36.19171
 10
-199.980035
 20
-36.084435
 10
-199.986912
 20
-35.977317
 10
-200.024616
 20
-35.657703
 10
-200.043007
 20
-35.552008
 10
-200.064376
 20
-35.446866
 10
-200.088761
 20
-35.342356
 10
-200.113529
 20
-35.248198
 10
-200.14091
 20
-35.154753
 10
-200.170999
 20
-35.062148
 10
-200.278505
 20
-34.790648
 10
-200.320411
 20
-34.702678
 10
-200.365517
 20
-34.616185
 10
-200.41392
 20
-34.531298
 10
-200.479265
 20
-34.427757
 10
-200.550345
 20
-34.328029
 10
-200.627587
 20
-34.233221
 10
-200.711417
 20
-34.144438
 10
-200.802264
 20
-34.062784
 10
-200.900555
 20
-33.989366
 10
-201.005984
 20
-33.925619
 10
-201.117663
 20
-33.872929
 10
-201.234031
 20
-33.833084
 10
-201.353524
 20
-33.807867
 10
-201.47458
 20
-33.799064
  0
LWPOLYLINE
  5
3DF
100
AcDbEntity
  8
3
370
    50
100
AcDbPolyline
 90
      114
 70
     0
 10
-201.47458
 20
-34.799064
 10
-201.509183
 20
-34.803366
 10
-201.54332
 20
-34.815366
 10
-201.576528
 20
-34.83371
 10
-201.60834
 20
-34.857041
 10
-201.638293
 20
-34.884005
 10
-201.665922
 20
-34.913245
 10
-201.692931
 20
-34.94631
 10
-201.716959
 20
-34.980366
 10
-201.73832
 20
-35.015318
 10
-201.789553
 20
-35.124576
 10
-201.803399
 20
-35.16214
 10
-201.816154
 20
-35.200115
 10
-201.828134
 20
-35.238404
 10
-201.839926
 20
-35.278046
 10
-201.851227
 20
-35.317903
 10
-201.862034
 20
-35.357961
 10
-201.891459
 20
-35.479187
 10
-201.916317
 20
-35.601681
 10
-201.923573
 20
-35.642724
 10
-201.930309
 20
-35.683849
 10
-201.93652
 20
-35.725039
 10
-201.941788
 20
-35.76311
 10
-201.946618
 20
-35.801222
 10
-201.951021
 20
-35.839372
 10
-201.961778
 20
-35.95402
 10
-201.96909
 20
-36.068904
 10
-201.973258
 20
-36.183945
 10
-201.974
 20
-36.222313
 10
-201.974437
 20
-36.260687
 10
-201.97458
 20
-36.299064
 10
-201.974437
 20
-36.337442
 10
-201.974
 20
-36.375816
 10
-201.973258
 20
-36.414184
 10
-201.96909
 20
-36.529225
 10
-201.961778
 20
-36.644109
 10
-201.951021
 20
-36.758757
 10
-201.946618
 20
-36.796907
 10
-201.941788
 20
-36.835019
 10
-201.93652
 20
-36.87309
 10
-201.930309
 20
-36.91428
 10
-201.923573
 20
-36.955405
 10
-201.916317
 20
-36.996448
 10
-201.891459
 20
-37.118942
 10
-201.862034
 20
-37.240168
 10
-201.851227
 20
-37.280226
 10
-201.839926
 20
-37.320083
 10
-201.828134
 20
-37.359725
 10
-201.816154
 20
-37.398014
 10
-201.803399
 20
-37.435989
 10
-201.789553
 20
-37.473553
 10
-201.73832
 20
-37.582811
 10
-201.716959
 20
-37.617763
 10
-201.692931
 20
-37.651819
 10
-201.665922
 20
-37.684884
 10
-201.638293
 20
-37.714124
 10
-201.60834
 20
-37.741088
 10
-201.576528
 20
-37.764419
 10
-201.54332
 20
-37.782763
 10
-201.509183
 20
-37.794763
 10
-201.47458
 20
-37.799064
 10
-201.439978
 20
-37.794763
 10
-201.405841
 20
-37.782763
 10
-201.372633
 20
-37.764419
 10
-201.34082
 20
-37.741088
 10
-201.310867
 20
-37.714124
 10
-201.283239
 20
-37.684884
 10
-201.256229
 20
-37.651819
 10
-201.232202
 20
-37.617763
 10
-201.210841
 20
-37.582811
 10
-201.159607
 20
-37.473553
 10
-201.145762
 20
-37.435989
 10
-201.133006
 20
-37.398014
 10
-201.121027
 20
-37.359725
 10
-201.105413
 20
-37.30682
 10
-201.090674
 20
-37.253542
 10
-201.076816
 20
-37.199925
 10
-201.040617
 20
-37.037395
 10
-201.030367
 20
-36.982777
 10
-201.021039
 20
-36.927996
 10
-201.012641
 20
-36.87309
 10
-201.006124
 20
-36.825494
 10
-201.000288
 20
-36.777836
 10
-200.995111
 20
-36.730121
 10
-200.983315
 20
-36.586692
 10
-200.976666
 20
-36.442955
 10
-200.975493
 20
-36.395001
 10
-200.974805
 20
-36.347036
 10
-200.97458
 20
-36.299064
 10
-200.974805
 20
-36.251093
 10
-200.975493
 20
-36.203128
 10
-200.976666
 20
-36.155174
 10
-200.983315
 20
-36.011437
 10
-200.995111
 20
-35.868008
 10
-201.000288
 20
-35.820293
 10
-201.006124
 20
-35.772635
 10
-201.012641
 20
-35.725039
 10
-201.021039
 20
-35.670132
 10
-201.030367
 20
-35.615352
 10
-201.040617
 20
-35.560734
 10
-201.076816
 20
-35.398204
 10
-201.090674
 20
-35.344587
 10
-201.105413
 20
-35.291309
 10
-201.121027
 20
-35.238404
 10
-201.139267
 20
-35.181082
 10
-201.159607
 20
-35.124576
 10
-201.18311
 20
-35.069212
 10
-201.210841
 20
-35.015318
 10
-201.243862
 20
-34.96322
 10
-201.283239
 20
-34.913245
 10
-201.325582
 20
-34.870154
 10
-201.372633
 20
-34.83371
 10
-201.422822
 20
-34.808488
 10
-201.47458
 20
-34.799064
  0
LINE
  5
453
100
AcDbEntity
  8
3
370
    50
100
AcDbLine
 10
-203.47458
 20
-34.099064
 30
0.0
 11
-203.47458
 21
-36.799064
 31
0.0
  0
LINE
  5
454
100
AcDbEntity
  8
3
370
    50
100
AcDbLine
 10
-204.47458
 20
-34.917098
 30
0.0
 11
-204.47458
 21
-36.699064
 31
0.0
  0
LINE
  5
455
100
AcDbEntity
  8
3
370
    50
100
AcDbLine
 10
-203.47458
 20
-37.799064
 30
0.0
 11
-203.27458
 21
-37.799064
 31
0.0
  0
LINE
  5
456
100
AcDbEntity
  8
3
370
    50
100
AcDbLine
 10
-205.25376
 20
-36.799064
 30
0.0
 11
-204.57458
 21
-36.799064
 31
0.0
  0
LINE
  5
457
100
AcDbEntity
  8
3
370
    50
100
AcDbLine
 10
-204.557498
 20
-33.9649
 30
0.0
 11
-205.942908
 21
-36.735721
 31
0.0
  0
LINE
  5
458
100
AcDbEntity
  8
3
370
    50
100
AcDbLine
 10
-204.47458
 20
-34.917098
 30
0.0
 11
-205.343203
 21
-36.654343
 31
0.0
  0
ARC
  5
459
100
AcDbEntity
  8
3
370
    50
100
AcDbCircle
 10
-205.25376
 20
-36.699064
 30
0.0
 40
0.1
100
AcDbArc
 50
153.434949
 51
270.0
  0
ARC
  5
45A
100
AcDbEntity
  8
3
370
    50
100
AcDbCircle
 10
-204.57458
 20
-36.699064
 30
0.0
 40
0.1
100
AcDbArc
 50
270.0
 51
360.0
  0
LINE
  5
45B
100
AcDbEntity
  8
3
370
    50
100
AcDbLine
 10
-203.47458
 20
-36.799064
 30
0.0
 11
-203.27458
 21
-36.799064
 31
0.0
  0
LINE
  5
45C
100
AcDbEntity
  8
3
370
    50
100
AcDbLine
 10
-203.47458
 20
-38.499064
 30
0.0
 11
-203.47458
 21
-37.799064
 31
0.0
  0
LINE
  5
45D
100
AcDbEntity
  8
3
370
    50
100
AcDbLine
 10
-204.47458
 20
-38.499064
 30
0.0
 11
-204.47458
 21
-37.799064
 31
0.0
  0
LINE
  5
45E
100
AcDbEntity
  8
3
370
    50
100
AcDbLine
 10
-205.67458
 20
-37.799064
 30
0.0
 11
-204.47458
 21
-37.799064
 31
0.0
  0
LINE
  5
45F
100
AcDbEntity
  8
3
370
    50
100
AcDbLine
 10
-202.97458
 20
-37.099064
 30
0.0
 11
-202.97458
 21
-37.499064
 31
0.0
  0
ARC
  5
460
100
AcDbEntity
  8
3
370
    50
100
AcDbCircle
 10
-204.28917
 20
-34.099064
 30
0.0
 40
0.3
100
AcDbArc
 50
90.0
 51
153.434949
  0
ARC
  5
461
100
AcDbEntity
  8
3
370
    50
100
AcDbCircle
 10
-203.77458
 20
-34.099064
 30
0.0
 40
0.3
100
AcDbArc
 50
0.0
 51
90.0
  0
ARC
  5
462
100
AcDbEntity
  8
3
370
    50
100
AcDbCircle
 10
-205.67458
 20
-37.499064
 30
0.0
 40
0.3
100
AcDbArc
 50
180.0
 51
270.0
  0
ARC
  5
463
100
AcDbEntity
  8
3
370
    50
100
AcDbCircle
 10
-203.27458
 20
-37.099064
 30
0.0
 40
0.3
100
AcDbArc
 50
0.0
 51
90.0
  0
ARC
  5
464
100
AcDbEntity
  8
3
370
    50
100
AcDbCircle
 10
-203.27458
 20
-37.499064
 30
0.0
 40
0.3
100
AcDbArc
 50
270.0
 51
360.0
  0
ARC
  5
465
100
AcDbEntity
  8
3
370
    50
100
AcDbCircle
 10
-204.17458
 20
-38.499064
 30
0.0
 40
0.3
100
AcDbArc
 50
180.0
 51
270.0
  0
ARC
  5
466
100
AcDbEntity
  8
3
370
    50
100
AcDbCircle
 10
-203.77458
 20
-38.499064
 30
0.0
 40
0.3
100
AcDbArc
 50
270.0
 51
360.0
  0
LINE
  5
467
100
AcDbEntity
  8
3
370
    25
100
AcDbLine
 10
-205.798012
 20
-37.772496
 30
0.0
 11
-204.82458
 21
-36.799064
 31
0.0
  0
LINE
  5
468
100
AcDbEntity
  8
3
370
    25
100
AcDbLine
 10
-204.47458
 20
-36.449064
 30
0.0
 11
-203.47458
 21
-35.449064
 31
0.0
  0
LINE
  5
469
100
AcDbEntity
  8
3
370
    25
100
AcDbLine
 10
-205.541738
 20
-37.799064
 30
0.0
 11
-204.532412
 21
-36.789739
 31
0.0
  0
LINE
  5
46A
100
AcDbEntity
  8
3
370
    25
100
AcDbLine
 10
-204.483906
 20
-36.741233
 30
0.0
 11
-203.47458
 21
-35.731907
 31
0.0
  0
LINE
  5
46B
100
AcDbEntity
  8
3
370
    25
100
AcDbLine
 10
-205.258895
 20
-37.799064
 30
0.0
 11
-203.47458
 21
-36.01475
 31
0.0
  0
LINE
  5
46C
100
AcDbEntity
  8
3
370
    25
100
AcDbLine
 10
-204.976052
 20
-37.799064
 30
0.0
 11
-203.47458
 21
-36.297593
 31
0.0
  0
LINE
  5
46D
100
AcDbEntity
  8
3
370
    25
100
AcDbLine
 10
-204.693209
 20
-37.799064
 30
0.0
 11
-203.47458
 21
-36.580435
 31
0.0
  0
LINE
  5
46E
100
AcDbEntity
  8
3
370
    25
100
AcDbLine
 10
-204.47458
 20
-37.863278
 30
0.0
 11
-203.410367
 21
-36.799064
 31
0.0
  0
LINE
  5
46F
100
AcDbEntity
  8
3
370
    25
100
AcDbLine
 10
-204.47458
 20
-38.146121
 30
0.0
 11
-203.153183
 21
-36.824724
 31
0.0
  0
LINE
  5
470
100
AcDbEntity
  8
3
370
    25
100
AcDbLine
 10
-204.47458
 20
-38.428963
 30
0.0
 11
-203.007686
 21
-36.96207
 31
0.0
  0
LINE
  5
471
100
AcDbEntity
  8
3
370
    25
100
AcDbLine
 10
-204.425806
 20
-38.663032
 30
0.0
 11
-202.97458
 21
-37.211806
 31
0.0
  0
LINE
  5
472
100
AcDbEntity
  8
3
370
    25
100
AcDbLine
 10
-204.265034
 20
-38.785103
 30
0.0
 11
-203.47458
 21
-37.994649
 31
0.0
  0
LINE
  5
473
100
AcDbEntity
  8
3
370
    25
100
AcDbLine
 10
-203.278996
 20
-37.799064
 30
0.0
 11
-202.97458
 21
-37.494649
 31
0.0
  0
LINE
  5
474
100
AcDbEntity
  8
3
370
    25
100
AcDbLine
 10
-203.996153
 20
-38.799064
 30
0.0
 11
-203.47458
 21
-38.277492
 31
0.0
  0
LINE
  5
475
100
AcDbEntity
  8
3
370
    25
100
AcDbLine
 10
-203.70517
 20
-38.790925
 30
0.0
 11
-203.48272
 21
-38.568474
 31
0.0
  0
LINE
  5
476
100
AcDbEntity
  8
3
370
    25
100
AcDbLine
 10
-205.942467
 20
-37.634108
 30
0.0
 11
-205.107423
 21
-36.799064
 31
0.0
  0
LINE
  5
477
100
AcDbEntity
  8
3
370
    25
100
AcDbLine
 10
-204.47458
 20
-36.166222
 30
0.0
 11
-203.47458
 21
-35.166222
 31
0.0
  0
LINE
  5
478
100
AcDbEntity
  8
3
370
    25
100
AcDbLine
 10
-205.97458
 20
-37.383379
 30
0.0
 11
-205.340327
 21
-36.749126
 31
0.0
  0
LINE
  5
479
100
AcDbEntity
  8
3
370
    25
100
AcDbLine
 10
-204.47458
 20
-35.883379
 30
0.0
 11
-203.47458
 21
-34.883379
 31
0.0
  0
LINE
  5
47A
100
AcDbEntity
  8
3
370
    25
100
AcDbLine
 10
-205.97458
 20
-37.100536
 30
0.0
 11
-205.158018
 21
-36.283974
 31
0.0
  0
LINE
  5
47B
100
AcDbEntity
  8
3
370
    25
100
AcDbLine
 10
-204.47458
 20
-35.600536
 30
0.0
 11
-203.47458
 21
-34.600536
 31
0.0
  0
LINE
  5
47C
100
AcDbEntity
  8
3
370
    25
100
AcDbLine
 10
-205.968957
 20
-36.81207
 30
0.0
 11
-204.875175
 21
-35.718289
 31
0.0
  0
LINE
  5
47D
100
AcDbEntity
  8
3
370
    25
100
AcDbLine
 10
-204.47458
 20
-35.317694
 30
0.0
 11
-203.47458
 21
-34.317694
 31
0.0
  0
LINE
  5
47E
100
AcDbEntity
  8
3
370
    25
100
AcDbLine
 10
-203.480332
 20
-34.040602
 30
0.0
 11
-204.47458
 21
-35.034851
 31
0.0
  0
LINE
  5
47F
100
AcDbEntity
  8
3
370
    25
100
AcDbLine
 10
-204.592333
 20
-35.152603
 30
0.0
 11
-205.710367
 21
-36.270637
 31
0.0
  0
LINE
  5
480
100
AcDbEntity
  8
3
370
    25
100
AcDbLine
 10
-203.587285
 20
-33.864713
 30
0.0
 11
-205.427524
 21
-35.704952
 31
0.0
  0
LINE
  5
481
100
AcDbEntity
  8
3
370
    25
100
AcDbLine
 10
-203.804479
 20
-33.799064
 30
0.0
 11
-205.144681
 21
-35.139267
 31
0.0
  0
LINE
  5
482
100
AcDbEntity
  8
3
370
    25
100
AcDbLine
 10
-204.087322
 20
-33.799064
 30
0.0
 11
-204.861839
 21
-34.573581
 31
0.0
  0
LINE
  5
483
100
AcDbEntity
  8
3
370
    25
100
AcDbLine
 10
-204.386336
 20
-33.815236
 30
0.0
 11
-204.578996
 21
-34.007896
 31
0.0
  0
HATCH
  5
484
100
AcDbEntity
  8
3
370
    25
100
AcDbHatch
 10
0.0
 20
0.0
 30
0.0
210
0.0
220
0.0
230
1.0
  2
_U
 70
     0
 71
     1
 91
        2
 92
        1
 93
        8
 72
     1
 10
-201.47458
 20
-33.799064000000001
 11
-202.53523999999999
 21
-34.531298
 72
     1
 10
-202.53523999999999
 20
-34.531298
 11
-202.97458
 21
-36.299064000000001
 72
     1
 10
-202.97458
 20
-36.299064000000001
 11
-202.53523999999999
 21
-38.066831000000001
 72
     1
 10
-202.53523999999999
 20
-38.066831000000001
 11
-201.47458
 21
-38.799064000000001
 72
     1
 10
-201.47458
 20
-38.799064000000001
 11
-200.41391999999999
 21
-38.066831000000001
 72
     1
 10
-200.41391999999999
 20
-38.066831000000001
 11
-199.97458
 21
-36.299064000000001
 72
     1
 10
-199.97458
 20
-36.299064000000001
 11
-200.41391999999999
 21
-34.531298
 72
     1
 10
-200.41391999999999
 20
-34.531298
 11
-201.47458
 21
-33.799064000000001
 97
        8
330
0
330
0
330
0
330
0
330
0
330
0
330
0
330
0
 92
        0
 93
        9
 72
     1
 10
-201.47458
 20
-34.799064000000001
 11
-201.82813400000001
 21
-35.238404000000003
 72
     1
 10
-201.82813400000001
 20
-35.238404000000003
 11
-201.97458
 21
-36.299064000000001
 72
     1
 10
-201.97458
 20
-36.299064000000001
 11
-201.93652
 21
-36.873089999999998
 72
     1
 10
-201.93652
 20
-36.873089999999998
 11
-201.66592199999999
 21
-37.684883999999997
 72
     1
 10
-201.66592199999999
 20
-37.684883999999997
 11
-201.121027
 21
-37.359724999999997
 72
     1
 10
-201.121027
 20
-37.359724999999997
 11
-200.97458
 21
-36.299064000000001
 72
     1
 10
-200.97458
 20
-36.299064000000001
 11
-201.012641
 21
-35.725039000000002
 72
     1
 10
-201.012641
 20
-35.725039000000002
 11
-201.28323900000001
 21
-34.913245000000003
 72
     1
 10
-201.28323900000001
 20
-34.913245000000003
 11
-201.47458
 21
-34.799064000000001
 97
        9
330
0
330
0
330
0
330
0
330
0
330
0
330
0
330
0
330
0
 75
     0
 76
     0
 52
45.0
 41
1.0
 77
     0
 78
     1
 53
45.0
 43
0.0
 44
0.0
 45
-0.141421
 46
0.141421
 79
     0
 98
        1
 10
0.0
 20
0.0
  0
LINE
  5
485
100
AcDbEntity
  8
3
370
    50
100
AcDbLine
 10
-205.97458
 20
-36.869885
 30
0.0
 11
-205.97458
 21
-37.499064
 31
0.0
  0
ARC
  5
486
100
AcDbEntity
  8
3
370
    50
100
AcDbCircle
 10
-205.67458
 20
-36.869885
 30
0.0
 40
0.3
100
AcDbArc
 50
153.434949
 51
180.0
  0
LINE
  5
487
100
AcDbEntity
  8
3
370
    50
100
AcDbLine
 10
-202.47458
 20
-41.299064
 30
0.0
 11
-203.47458
 21
-41.299064
 31
0.0
  0
LINE
  5
488
100
AcDbEntity
  8
3
370
    50
100
AcDbLine
 10
-202.47458
 20
-74.15124
 30
0.0
 11
-202.47458
 21
-41.299064
 31
0.0
  0
LINE
  5
489
100
AcDbEntity
  8
3
370
    50
100
AcDbLine
 10
-203.47458
 20
-74.15124
 30
0.0
 11
-203.47458
 21
-41.299064
 31
0.0
  0
LINE
  5
48A
100
AcDbEntity
  8
3
370
    50
100
AcDbLine
 10
-198.97458
 20
-30.65124
 30
0.0
 11
-198.97458
 21
-52.15124
 31
0.0
  0
LINE
  5
48B
100
AcDbEntity
  8
3
370
    50
100
AcDbLine
 10
-236.992583
 20
-74.15124
 30
0.0
 11
-199.47458
 21
-74.15124
 31
0.0
  0
LINE
  5
48C
100
AcDbEntity
  8
3
370
    50
100
AcDbLine
 10
-241.47458
 20
-41.150873
 30
0.0
 11
-241.47458
 21
-63.151607
 31
0.0
  0
LINE
  5
48D
100
AcDbEntity
  8
3
370
    50
100
AcDbLine
 10
-198.97458
 20
-32.45124
 30
0.0
 11
-198.97458
 21
-52.15124
 31
0.0
  0
LINE
  5
48E
100
AcDbEntity
  8
3
370
    50
100
AcDbLine
 10
-198.97458
 20
-73.65124
 30
0.0
 11
-198.97458
 21
-52.15124
 31
0.0
  0
LINE
  5
48F
100
AcDbEntity
  8
3
370
    50
100
AcDbLine
 10
-198.97458
 20
-71.85124
 30
0.0
 11
-198.97458
 21
-52.15124
 31
0.0
  0
LINE
  5
490
100
AcDbEntity
  8
3
370
    50
100
AcDbLine
 10
-241.47458
 20
-41.150873
 30
0.0
 11
-238.924435
 21
-31.633602
 31
0.0
  0
LINE
  5
491
100
AcDbEntity
  8
3
370
    50
100
AcDbLine
 10
-241.47458
 20
-63.151607
 30
0.0
 11
-238.924435
 21
-72.668878
 31
0.0
  0
ARC
  5
492
100
AcDbEntity
  8
3
370
    50
100
AcDbCircle
 10
-236.992583
 20
-32.15124
 30
0.0
 40
2.0
100
AcDbArc
 50
90.0
 51
165.0
  0
ARC
  5
493
100
AcDbEntity
  8
3
370
    50
100
AcDbCircle
 10
-236.992583
 20
-72.15124
 30
0.0
 40
2.0
100
AcDbArc
 50
195.0
 51
270.0
  0
ARC
  5
494
100
AcDbEntity
  8
3
370
    50
100
AcDbCircle
 10
-199.47458
 20
-30.65124
 30
0.0
 40
0.5
100
AcDbArc
 50
0.0
 51
90.0
  0
ARC
  5
495
100
AcDbEntity
  8
3
370
    50
100
AcDbCircle
 10
-199.47458
 20
-73.65124
 30
0.0
 40
0.5
100
AcDbArc
 50
270.0
 51
360.0
  0
ELLIPSE
  5
496
100
AcDbEntity
  8
3
370
    50
100
AcDbEllipse
 10
-211.97458
 20
-35.552633
 30
0.0
 11
3.5
 21
0.0
 31
0.0
210
0.0
220
0.0
230
1.0
 40
0.763714
 41
0.0
 42
6.2831849999999996
  0
LINE
  5
497
100
AcDbEntity
  8
3
370
    50
100
AcDbLine
 10
-208.47458
 20
-35.552633
 30
0.0
 11
-208.47458
 21
-39.795274
 31
0.0
  0
LINE
  5
498
100
AcDbEntity
  8
3
370
    50
100
AcDbLine
 10
-215.47458
 20
-35.552633
 30
0.0
 11
-215.47458
 21
-39.795274
 31
0.0
  0
ELLIPSE
  5
499
100
AcDbEntity
  8
3
370
    50
100
AcDbEllipse
 10
-211.97458
 20
-39.795274
 30
0.0
 11
3.5
 21
0.0
 31
0.0
210
0.0
220
0.0
230
1.0
 40
0.763714
 41
3.1415929999999999
 42
0.0
  0
LINE
  5
49A
100
AcDbEntity
  8
3
370
    50
100
AcDbLine
 10
-236.992583
 20
-30.15124
 30
0.0
 11
-209.989312
 21
-30.15124
 31
0.0
  0
LINE
  5
49B
100
AcDbEntity
  8
3
370
    50
100
AcDbLine
 10
-209.989312
 20
-30.15124
 30
0.0
 11
-199.47458
 21
-30.15124
 31
0.0
  0
LINE
  5
49C
100
AcDbEntity
  8
3
370
    50
100
AcDbLine
 10
-235.124443
 20
-35.334832
 30
0.0
 11
-225.641869
 21
-35.334832
 31
0.0
  0
LINE
  5
49D
100
AcDbEntity
  8
3
370
    50
100
AcDbLine
 10
-235.971976
 20
-30.385085
 30
0.0
 11
-224.303631
 21
-30.385085
 31
0.0
  0
LINE
  5
49E
100
AcDbEntity
  8
3
370
    50
100
AcDbLine
 10
-222.737823
 20
-35.334832
 30
0.0
 11
-221.913844
 21
-38.668138
 31
0.0
  0
ARC
  5
49F
100
AcDbEntity
  8
3
370
    50
100
AcDbCircle
 10
-217.059945
 20
-37.468275
 30
0.0
 40
5.0
100
AcDbArc
 50
193.884933
 51
270.0
  0
LINE
  5
4A0
100
AcDbEntity
  8
3
370
    50
100
AcDbLine
 10
-237.771248
 20
-35.334832
 30
0.0
 11
-238.527237
 21
-42.469359
 31
0.0
  0
LINE
  5
4A1
100
AcDbEntity
  8
3
370
    50
100
AcDbLine
 10
-222.362072
 20
-31.905139
 30
0.0
 11
-221.913844
 21
-33.718391
 31
0.0
  0
ARC
  5
4A2
100
AcDbEntity
  8
3
370
    50
100
AcDbCircle
 10
-217.059945
 20
-32.518527
 30
0.0
 40
5.0
100
AcDbArc
 50
193.884933
 51
270.0
  0
LINE
  5
4A3
100
AcDbEntity
  8
3
370
    50
100
AcDbLine
 10
-237.960841
 20
-32.17434
 30
0.0
 11
-238.527237
 21
-37.519612
 31
0.0
  0
ARC
  5
4A4
100
AcDbEntity
  8
3
370
    50
100
AcDbCircle
 10
-224.303631
 20
-32.385085
 30
0.0
 40
2.0
100
AcDbArc
 50
13.884933
 51
90.0
  0
ARC
  5
4A5
100
AcDbEntity
  8
3
370
    50
100
AcDbCircle
 10
-235.971976
 20
-32.385085
 30
0.0
 40
2.0
100
AcDbArc
 50
90.0
 51
173.951392
  0
ARC
  5
4A6
100
AcDbEntity
  8
3
370
    50
100
AcDbCircle
 10
-235.771248
 20
-33.334832
 30
0.0
 40
2.0
100
AcDbArc
 50
188.117936
 51
243.547871
  0
ARC
  5
4A7
100
AcDbEntity
  8
3
370
    50
100
AcDbCircle
 10
-224.737823
 20
-33.334832
 30
0.0
 40
2.0
100
AcDbArc
 50
270.0
 51
337.467588
  0
LINE
  5
4A8
100
AcDbEntity
  8
3
370
    50
100
AcDbLine
 10
-238.527237
 20
-70.886185
 30
0.0
 11
-238.527237
 21
-42.468275
 31
0.0
  0
LINE
  5
4A9
100
AcDbEntity
  8
3
370
    50
100
AcDbLine
 10
-238.527237
 20
-37.519612
 30
0.0
 11
-238.527237
 21
-31.633602
 31
0.0
  0
LINE
  5
4AA
100
AcDbEntity
  8
3
370
    25
100
AcDbLine
 10
-217.059945
 20
-42.468275
 30
0.0
 11
-237.845131
 21
-42.468275
 31
0.0
  0
LINE
  5
4AB
100
AcDbEntity
  8
3
370
    50
100
AcDbLine
 10
-202.47458
 20
-30.803415
 30
0.0
 11
-203.47458
 21
-30.803415
 31
0.0
  0
LINE
  5
4AC
100
AcDbEntity
  8
3
370
    50
100
AcDbLine
 10
-202.47458
 20
-30.803415
 30
0.0
 11
-203.47458
 21
-30.803415
 31
0.0
  0
LINE
  5
4AD
100
AcDbEntity
  8
3
370
    50
100
AcDbLine
 10
-202.47458
 20
-30.15124
 30
0.0
 11
-202.47458
 21
-30.803415
 31
0.0
  0
LINE
  5
4AE
100
AcDbEntity
  8
3
370
    50
100
AcDbLine
 10
-203.47458
 20
-30.15124
 30
0.0
 11
-203.47458
 21
-30.803415
 31
0.0
  0
LINE
  5
4AF
100
AcDbEntity
  8
3
370
    50
100
AcDbLine
 10
-202.47458
 20
-74.15124
 30
0.0
 11
-203.47458
 21
-74.15124
 31
0.0
  0
LINE
  5
4B0
100
AcDbEntity
  8
3
370
    50
100
AcDbLine
 10
-202.47458
 20
-30.15124
 30
0.0
 11
-203.47458
 21
-30.15124
 31
0.0
  0
HATCH
  5
4B1
100
AcDbEntity
  8
3
370
    25
100
AcDbHatch
 10
0.0
 20
0.0
 30
0.0
210
0.0
220
0.0
230
1.0
  2
_U
 70
     0
 71
     1
 91
        1
 92
        1
 93
        4
 72
     1
 10
-203.47458
 20
-41.299064000000001
 11
-202.47458
 21
-41.299064000000001
 72
     1
 10
-202.47458
 20
-41.299064000000001
 11
-202.47458
 21
-74.151240000000001
 72
     1
 10
-202.47458
 20
-74.151240000000001
 11
-203.47458
 21
-74.151240000000001
 72
     1
 10
-203.47458
 20
-74.151240000000001
 11
-203.47458
 21
-41.299064000000001
 97
        4
330
0
330
0
330
0
330
0
 75
     0
 76
     0
 52
45.0
 41
1.0
 77
     0
 78
     1
 53
45.0
 43
0.0
 44
0.0
 45
-0.141421
 46
0.141421
 79
     0
 98
        1
 10
0.0
 20
0.0
  0
HATCH
  5
4B2
100
AcDbEntity
  8
3
370
    25
100
AcDbHatch
 10
0.0
 20
0.0
 30
0.0
210
0.0
220
0.0
230
1.0
  2
_U
 70
     0
 71
     1
 91
        1
 92
        1
 93
        6
 72
     1
 10
-203.47458
 20
-30.803415000000001
 11
-202.47458
 21
-30.803415000000001
 72
     1
 10
-202.47458
 20
-30.803415000000001
 11
-203.47458
 21
-30.803415000000001
 72
     1
 10
-203.47458
 20
-30.803415000000001
 11
-203.47458
 21
-30.151240000000001
 72
     1
 10
-203.47458
 20
-30.151240000000001
 11
-202.47458
 21
-30.151240000000001
 72
     1
 10
-202.47458
 20
-30.151240000000001
 11
-202.47458
 21
-30.803415000000001
 72
     1
 10
-202.47458
 20
-30.803415000000001
 11
-203.47458
 21
-30.803415000000001
 97
        6
330
0
330
0
330
0
330
0
330
0
330
0
 75
     0
 76
     0
 52
45.0
 41
1.0
 77
     0
 78
     1
 53
45.0
 43
0.0
 44
0.0
 45
-0.141421
 46
0.141421
 79
     0
 98
        1
 10
0.0
 20
0.0
  0
LINE
  5
4B3
100
AcDbEntity
  8
3
370
    50
100
AcDbLine
 10
-167.673582
 20
137.118119
 30
0.0
 11
-167.673582
 21
139.118119
 31
0.0
  0
LINE
  5
4B4
100
AcDbEntity
  8
3
370
    50
100
AcDbLine
 10
-188.673582
 20
137.118119
 30
0.0
 11
-188.673582
 21
139.118119
 31
0.0
  0
LINE
  5
4B5
100
AcDbEntity
  8
3
370
    50
100
AcDbLine
 10
-188.673582
 20
137.118119
 30
0.0
 11
-186.473582
 21
137.118119
 31
0.0
  0
LINE
  5
4B6
100
AcDbEntity
  8
3
370
    50
100
AcDbLine
 10
-169.873582
 20
137.118119
 30
0.0
 11
-167.673582
 21
137.118119
 31
0.0
  0
ARC
  5
4B7
100
AcDbEntity
  8
3
370
    50
100
AcDbCircle
 10
-176.173582
 20
145.368119
 30
0.0
 40
14.0
100
AcDbArc
 50
333.485225
 51
26.514775
  0
ARC
  5
4B8
100
AcDbEntity
  8
3
370
    50
100
AcDbCircle
 10
-180.173582
 20
145.368119
 30
0.0
 40
14.0
100
AcDbArc
 50
153.485225
 51
206.514775
  0
LINE
  5
4B9
100
AcDbEntity
  8
3
370
    50
100
AcDbLine
 10
-192.701052
 20
139.118119
 30
0.0
 11
-178.173582
 21
139.118119
 31
0.0
  0
LINE
  5
4BA
100
AcDbEntity
  8
3
370
    50
100
AcDbLine
 10
-189.223582
 20
139.118119
 30
0.0
 11
-188.673582
 21
139.118119
 31
0.0
  0
LINE
  5
4BB
100
AcDbEntity
  8
3
370
    50
100
AcDbLine
 10
-178.173582
 20
139.118119
 30
0.0
 11
-163.646112
 21
139.118119
 31
0.0
  0
LINE
  5
4BC
100
AcDbEntity
  8
3
370
    50
100
AcDbLine
 10
-192.701052
 20
151.618119
 30
0.0
 11
-178.173582
 21
151.618119
 31
0.0
  0
LINE
  5
4BD
100
AcDbEntity
  8
3
370
    50
100
AcDbLine
 10
-178.173582
 20
151.618119
 30
0.0
 11
-163.646112
 21
151.618119
 31
0.0
  0
ELLIPSE
  5
4BE
100
AcDbEntity
  8
3
370
    50
100
AcDbEllipse
 10
-178.173582
 20
145.368119
 30
0.0
 11
-5.5679999999999996
 21
0.0
 31
0.0
210
0.0
220
0.0
230
1.0
 40
0.76329
 41
4.7123889999999999
 42
1.5707960000000001
  0
ELLIPSE
  5
4BF
100
AcDbEntity
  8
3
370
    50
100
AcDbEllipse
 10
-191.163963
 20
145.368119
 30
0.0
 11
0.0
 21
-4.25
 31
0.0
210
0.0
220
0.0
230
1.0
 40
0.655059
 41
0.0
 42
6.2831849999999996
  0
ELLIPSE
  5
4C0
100
AcDbEntity
  8
3
370
    50
100
AcDbEllipse
 10
-178.173582
 20
145.368119
 30
0.0
 11
5.5679999999999996
 21
0.0
 31
0.0
210
0.0
220
0.0
230
1.0
 40
0.76329
 41
4.7123889999999999
 42
1.5707960000000001
  0
ELLIPSE
  5
4C1
100
AcDbEntity
  8
3
370
    50
100
AcDbEllipse
 10
-165.183201
 20
145.368119
 30
0.0
 11
0.0
 21
4.25
 31
0.0
210
0.0
220
0.0
230
1.0
 40
0.655059
 41
0.0
 42
6.2831849999999996
  0
LINE
  5
4C2
100
AcDbEntity
  8
3
370
    50
100
AcDbLine
 10
-88.673582
 20
137.118119
 30
0.0
 11
-88.673582
 21
139.118119
 31
0.0
  0
LINE
  5
4C3
100
AcDbEntity
  8
3
370
    50
100
AcDbLine
 10
-67.673582
 20
137.118119
 30
0.0
 11
-67.673582
 21
139.118119
 31
0.0
  0
LINE
  5
4C4
100
AcDbEntity
  8
3
370
    50
100
AcDbLine
 10
-67.673582
 20
137.118119
 30
0.0
 11
-69.873582
 21
137.118119
 31
0.0
  0
LINE
  5
4C5
100
AcDbEntity
  8
3
370
    50
100
AcDbLine
 10
-86.473582
 20
137.118119
 30
0.0
 11
-88.673582
 21
137.118119
 31
0.0
  0
ARC
  5
4C6
100
AcDbEntity
  8
3
370
    50
100
AcDbCircle
 10
-80.173582
 20
145.368119
 30
0.0
 40
14.0
100
AcDbArc
 50
153.485225
 51
206.514775
  0
ARC
  5
4C7
100
AcDbEntity
  8
3
370
    50
100
AcDbCircle
 10
-76.173582
 20
145.368119
 30
0.0
 40
14.0
100
AcDbArc
 50
333.485225
 51
26.514775
  0
LINE
  5
4C8
100
AcDbEntity
  8
3
370
    50
100
AcDbLine
 10
-63.646112
 20
139.118119
 30
0.0
 11
-78.173582
 21
139.118119
 31
0.0
  0
LINE
  5
4C9
100
AcDbEntity
  8
3
370
    50
100
AcDbLine
 10
-67.123582
 20
139.118119
 30
0.0
 11
-67.673582
 21
139.118119
 31
0.0
  0
LINE
  5
4CA
100
AcDbEntity
  8
3
370
    50
100
AcDbLine
 10
-78.173582
 20
139.118119
 30
0.0
 11
-92.701052
 21
139.118119
 31
0.0
  0
LINE
  5
4CB
100
AcDbEntity
  8
3
370
    50
100
AcDbLine
 10
-63.646112
 20
151.618119
 30
0.0
 11
-78.173582
 21
151.618119
 31
0.0
  0
LINE
  5
4CC
100
AcDbEntity
  8
3
370
    50
100
AcDbLine
 10
-78.173582
 20
151.618119
 30
0.0
 11
-92.701052
 21
151.618119
 31
0.0
  0
ELLIPSE
  5
4CD
100
AcDbEntity
  8
3
370
    50
100
AcDbEllipse
 10
-78.173582
 20
145.368119
 30
0.0
 11
5.5679999999999996
 21
0.0
 31
0.0
210
0.0
220
0.0
230
1.0
 40
0.76329
 41
4.7123889999999999
 42
1.5707960000000001
  0
ELLIPSE
  5
4CE
100
AcDbEntity
  8
3
370
    50
100
AcDbEllipse
 10
-65.183201
 20
145.368119
 30
0.0
 11
0.0
 21
4.25
 31
0.0
210
0.0
220
0.0
230
1.0
 40
0.655059
 41
0.0
 42
6.2831849999999996
  0
ELLIPSE
  5
4CF
100
AcDbEntity
  8
3
370
    50
100
AcDbEllipse
 10
-78.173582
 20
145.368119
 30
0.0
 11
-5.5679999999999996
 21
0.0
 31
0.0
210
0.0
220
0.0
230
1.0
 40
0.76329
 41
4.7123889999999999
 42
1.5707960000000001
  0
ELLIPSE
  5
4D0
100
AcDbEntity
  8
3
370
    50
100
AcDbEllipse
 10
-91.163963
 20
145.368119
 30
0.0
 11
0.0
 21
-4.25
 31
0.0
210
0.0
220
0.0
230
1.0
 40
0.655059
 41
0.0
 42
6.2831849999999996
  0
LINE
  5
4D1
100
AcDbEntity
  8
3
370
    50
100
AcDbLine
 10
-198.97458
 20
119.618119
 30
0.0
 11
-198.17416
 21
119.618119
 31
0.0
  0
LINE
  5
4D2
100
AcDbEntity
  8
3
370
    50
100
AcDbLine
 10
-198.97458
 20
82.618119
 30
0.0
 11
-198.17416
 21
82.618119
 31
0.0
  0
ELLIPSE
  5
4D3
100
AcDbEntity
  8
3
370
    50
100
AcDbEllipse
 10
-140.297938
 20
-89.122435
 30
0.0
 11
0.0
 21
-3.8641269999999999
 31
0.0
210
0.0
220
0.0
230
1.0
 40
0.790537
 41
0.0
 42
6.2831849999999996
  0
ARC
  5
4D4
100
AcDbEntity
  8
3
370
    50
100
AcDbCircle
 10
-138.448582
 20
-89.65124
 30
0.0
 40
5.0
100
AcDbArc
 50
180.0
 51
270.0
  0
LINE
  5
4D5
100
AcDbEntity
  8
3
370
    50
100
AcDbLine
 10
-138.448582
 20
-94.65124
 30
0.0
 11
-128.173582
 21
-94.65124
 31
0.0
  0
LINE
  5
4D6
100
AcDbEntity
  8
3
370
    50
100
AcDbLine
 10
-128.173582
 20
-94.65124
 30
0.0
 11
-117.898582
 21
-94.65124
 31
0.0
  0
ARC
  5
4D7
100
AcDbEntity
  8
3
370
    50
100
AcDbCircle
 10
-117.898582
 20
-89.65124
 30
0.0
 40
5.0
100
AcDbArc
 50
270.0
 51
360.0
  0
ELLIPSE
  5
4D8
100
AcDbEntity
  8
3
370
    50
100
AcDbEllipse
 10
-116.049226
 20
-89.122435
 30
0.0
 11
0.0
 21
3.8641269999999999
 31
0.0
210
0.0
220
0.0
230
1.0
 40
0.790537
 41
0.0
 42
6.2831849999999996
  0
ARC
  5
4D9
100
AcDbEntity
  8
3
370
    50
100
AcDbCircle
 10
-121.103868
 20
-89.65124
 30
0.0
 40
8.205286
100
AcDbArc
 50
0.0
 51
37.543478
  0
LINE
  5
4DA
100
AcDbEntity
  8
3
370
    50
100
AcDbLine
 10
-114.597969
 20
-84.65124
 30
0.0
 11
-128.173582
 21
-84.65124
 31
0.0
  0
LINE
  5
4DB
100
AcDbEntity
  8
3
370
    50
100
AcDbLine
 10
-141.749195
 20
-84.65124
 30
0.0
 11
-128.173582
 21
-84.65124
 31
0.0
  0
ELLIPSE
  5
4DC
100
AcDbEntity
  8
3
370
    50
100
AcDbEllipse
 10
-128.173582
 20
-89.122435
 30
0.0
 11
6.10947
 21
0.0
 31
0.0
210
0.0
220
0.0
230
1.0
 40
0.632482
 41
4.7123889999999999
 42
1.5707960000000001
  0
ELLIPSE
  5
4DD
100
AcDbEntity
  8
3
370
    50
100
AcDbEllipse
 10
-128.173582
 20
-89.122435
 30
0.0
 11
-6.10947
 21
0.0
 31
0.0
210
0.0
220
0.0
230
1.0
 40
0.632482
 41
4.7123889999999999
 42
1.5707960000000001
  0
ARC
  5
4DE
100
AcDbEntity
  8
3
370
    50
100
AcDbCircle
 10
-135.243296
 20
-89.65124
 30
0.0
 40
8.205286
100
AcDbArc
 50
142.456522
 51
180.0
  0
LINE
  5
4DF
100
AcDbEntity
  8
3
370
    50
100
AcDbLine
 10
-113.173582
 20
152.759516
 30
0.0
 11
-105.173582
 21
152.759516
 31
0.0
  0
LINE
  5
4E0
100
AcDbEntity
  8
3
370
    50
100
AcDbLine
 10
-113.173582
 20
173.759516
 30
0.0
 11
-105.173582
 21
173.759516
 31
0.0
  0
LINE
  5
4E1
100
AcDbEntity
  8
3
370
    50
100
AcDbLine
 10
-113.173582
 20
152.459516
 30
0.0
 11
-113.173582
 21
152.759516
 31
0.0
  0
LINE
  5
4E2
100
AcDbEntity
  8
3
370
    50
100
AcDbLine
 10
-113.173582
 20
173.759516
 30
0.0
 11
-113.173582
 21
174.059516
 31
0.0
  0
LINE
  5
4E3
100
AcDbEntity
  8
3
370
    25
100
AcDbLine
 10
-111.441531
 20
172.759516
 30
0.0
 11
-104.173582
 21
172.759516
 31
0.0
  0
LINE
  5
4E4
100
AcDbEntity
  8
3
370
    25
100
AcDbLine
 10
-111.441531
 20
153.759516
 30
0.0
 11
-104.173582
 21
153.759516
 31
0.0
  0
LINE
  5
4E5
100
AcDbEntity
  8
3
370
    50
100
AcDbLine
 10
-138.773582
 20
145.418119
 30
0.0
 11
-138.773582
 21
159.059516
 31
0.0
  0
LINE
  5
4E6
100
AcDbEntity
  8
3
370
    50
100
AcDbLine
 10
-117.573582
 20
145.418119
 30
0.0
 11
-117.573582
 21
150.959516
 31
0.0
  0
LINE
  5
4E7
100
AcDbEntity
  8
3
370
    50
100
AcDbLine
 10
-123.773582
 20
174.059516
 30
0.0
 11
-113.173582
 21
174.059516
 31
0.0
  0
LINE
  5
4E8
100
AcDbEntity
  8
3
370
    50
100
AcDbLine
 10
-116.073582
 20
152.459516
 30
0.0
 11
-113.173582
 21
152.459516
 31
0.0
  0
LINE
  5
4E9
100
AcDbEntity
  8
3
370
    50
100
AcDbLine
 10
-104.173582
 20
172.759516
 30
0.0
 11
-105.173582
 21
173.759516
 31
0.0
  0
LINE
  5
4EA
100
AcDbEntity
  8
3
370
    50
100
AcDbLine
 10
-104.173582
 20
153.759516
 30
0.0
 11
-105.173582
 21
152.759516
 31
0.0
  0
LINE
  5
4EB
100
AcDbEntity
  8
3
370
    50
100
AcDbLine
 10
-103.173582
 20
154.259516
 30
0.0
 11
-103.173582
 21
172.259516
 31
0.0
  0
ARC
  5
4EC
100
AcDbEntity
  8
3
370
    50
100
AcDbCircle
 10
-123.773582
 20
159.059516
 30
0.0
 40
15.0
100
AcDbArc
 50
90.0
 51
180.0
  0
ARC
  5
4ED
100
AcDbEntity
  8
3
370
    50
100
AcDbCircle
 10
-116.073582
 20
150.959516
 30
0.0
 40
1.5
100
AcDbArc
 50
90.0
 51
180.0
  0
LINE
  5
4EE
100
AcDbEntity
  8
3
370
    50
100
AcDbLine
 10
-104.173582
 20
172.259516
 30
0.0
 11
-103.173582
 21
172.259516
 31
0.0
  0
LINE
  5
4EF
100
AcDbEntity
  8
3
370
    50
100
AcDbLine
 10
-104.173582
 20
154.259516
 30
0.0
 11
-103.173582
 21
154.259516
 31
0.0
  0
LINE
  5
4F0
100
AcDbEntity
  8
3
370
    50
100
AcDbLine
 10
-104.173582
 20
153.759516
 30
0.0
 11
-104.173582
 21
154.259516
 31
0.0
  0
LINE
  5
4F1
100
AcDbEntity
  8
3
370
    50
100
AcDbLine
 10
-104.173582
 20
172.259516
 30
0.0
 11
-104.173582
 21
172.759516
 31
0.0
  0
LINE
  5
4F2
100
AcDbEntity
  8
3
370
    50
100
AcDbLine
 10
-113.173582
 20
173.759516
 30
0.0
 11
-111.441531
 21
172.759516
 31
0.0
  0
LINE
  5
4F3
100
AcDbEntity
  8
3
370
    50
100
AcDbLine
 10
-113.173582
 20
152.759516
 30
0.0
 11
-111.441531
 21
153.759516
 31
0.0
  0
LINE
  5
4F4
100
AcDbEntity
  8
3
370
    25
100
AcDbLine
 10
-105.173582
 20
173.759516
 30
0.0
 11
-105.173582
 21
152.759516
 31
0.0
  0
LINE
  5
4F5
100
AcDbEntity
  8
3
370
    25
100
AcDbLine
 10
-111.441531
 20
172.759516
 30
0.0
 11
-111.441531
 21
153.759516
 31
0.0
  0
LINE
  5
4F6
100
AcDbEntity
  8
3
370
    50
100
AcDbLine
 10
-113.173582
 20
173.759516
 30
0.0
 11
-113.173582
 21
152.759516
 31
0.0
  0
LINE
  5
4F7
100
AcDbEntity
  8
3
370
    50
100
AcDbLine
 10
-104.173582
 20
172.259516
 30
0.0
 11
-104.173582
 21
154.259516
 31
0.0
  0
LINE
  5
4F8
100
AcDbEntity
  8
3
370
    50
100
AcDbLine
 10
-58.173004
 20
-70.15124
 30
0.0
 11
-57.374424
 21
-70.15124
 31
0.0
  0
LINE
  5
4F9
100
AcDbEntity
  8
3
370
    50
100
AcDbLine
 10
-198.97458
 20
-70.65124
 30
0.0
 11
-198.17416
 21
-70.65124
 31
0.0
  0
LINE
  5
4FA
100
AcDbEntity
  8
3
370
    50
100
AcDbLine
 10
-198.97458
 20
-33.65124
 30
0.0
 11
-198.17416
 21
-33.65124
 31
0.0
  0
LINE
  5
4FB
100
AcDbEntity
  8
3
370
    25
100
AcDbLine
 10
-58.173004
 20
-34.65124
 30
0.0
 11
-57.374424
 21
-34.65124
 31
0.0
  0
LINE
  5
4FC
100
AcDbEntity
  8
3
370
    50
100
AcDbLine
 10
-135.173582
 20
-74.15124
 30
0.0
 11
-138.673582
 21
-74.15124
 31
0.0
  0
LINE
  5
4FD
100
AcDbEntity
  8
3
370
    50
100
AcDbLine
 10
-117.673582
 20
-74.15124
 30
0.0
 11
-121.173582
 21
-74.15124
 31
0.0
  0
LINE
  5
4FE
100
AcDbEntity
  8
3
370
    50
100
AcDbLine
 10
-121.173582
 20
-74.15124
 30
0.0
 11
-128.173582
 21
-74.15124
 31
0.0
  0
LINE
  5
4FF
100
AcDbEntity
  8
3
370
    50
100
AcDbLine
 10
-138.673582
 20
-74.15124
 30
0.0
 11
-141.119631
 21
-77.066327
 31
0.0
  0
LINE
  5
500
100
AcDbEntity
  8
3
370
    50
100
AcDbLine
 10
-117.673582
 20
-74.15124
 30
0.0
 11
-115.227534
 21
-77.066327
 31
0.0
  0
LINE
  5
501
100
AcDbEntity
  8
3
370
    50
100
AcDbLine
 10
-115.227534
 20
-77.066327
 30
0.0
 11
-115.227534
 21
-84.65124
 31
0.0
  0
LINE
  5
502
100
AcDbEntity
  8
3
370
    50
100
AcDbLine
 10
-141.119631
 20
-77.066327
 30
0.0
 11
-141.119631
 21
-84.65124
 31
0.0
  0
LINE
  5
503
100
AcDbEntity
  8
3
370
    25
100
AcDbLine
 10
-140.319631
 20
-76.112924
 30
0.0
 11
-140.319631
 21
-84.65124
 31
0.0
  0
LINE
  5
504
100
AcDbEntity
  8
3
370
    25
100
AcDbLine
 10
-116.027534
 20
-76.112924
 30
0.0
 11
-116.027534
 21
-84.65124
 31
0.0
  0
LINE
  5
505
100
AcDbEntity
  8
3
370
    25
100
AcDbLine
 10
-116.027534
 20
-76.112924
 30
0.0
 11
-128.173582
 21
-76.112924
 31
0.0
  0
LINE
  5
506
100
AcDbEntity
  8
3
370
    50
100
AcDbLine
 10
-123.93212
 20
-76.112924
 30
0.0
 11
-123.93212
 21
-82.265599
 31
0.0
  0
LINE
  5
507
100
AcDbEntity
  8
3
370
    50
100
AcDbLine
 10
-119.468996
 20
-76.112924
 30
0.0
 11
-119.468996
 21
-82.265599
 31
0.0
  0
LINE
  5
508
100
AcDbEntity
  8
3
370
    50
100
AcDbLine
 10
-115.227534
 20
-82.265599
 30
0.0
 11
-128.173582
 21
-82.265599
 31
0.0
  0
LINE
  5
509
100
AcDbEntity
  8
3
370
    25
100
AcDbLine
 10
-140.319631
 20
-76.112924
 30
0.0
 11
-128.173582
 21
-76.112924
 31
0.0
  0
LINE
  5
50A
100
AcDbEntity
  8
3
370
    50
100
AcDbLine
 10
-132.415044
 20
-76.112924
 30
0.0
 11
-132.415044
 21
-82.265599
 31
0.0
  0
LINE
  5
50B
100
AcDbEntity
  8
3
370
    50
100
AcDbLine
 10
-141.119631
 20
-82.265599
 30
0.0
 11
-128.173582
 21
-82.265599
 31
0.0
  0
LINE
  5
50C
100
AcDbEntity
  8
3
370
    50
100
AcDbLine
 10
-136.878169
 20
-76.112924
 30
0.0
 11
-136.878169
 21
-82.265599
 31
0.0
  0
LINE
  5
50D
100
AcDbEntity
  8
3
370
    25
  6
CENTER
100
AcDbLine
 10
-128.173582
 20
101.118119
 30
0.0
 11
-5.986553
 21
101.118119
 31
0.0
  0
LINE
  5
50E
100
AcDbEntity
  8
3
370
    25
  6
CENTER
100
AcDbLine
 10
-128.173582
 20
67.457444
 30
0.0
 11
-128.173582
 21
174.059516
 31
0.0
  0
LINE
  5
50F
100
AcDbEntity
  8
3
370
    25
  6
CENTER
100
AcDbLine
 10
-78.173582
 20
143.355271
 30
0.0
 11
-78.173582
 21
181.735366
 31
0.0
  0
LINE
  5
510
100
AcDbEntity
  8
3
370
    50
  6
CENTER
100
AcDbLine
 10
-78.173582
 20
146.118119
 30
0.0
 11
-78.173582
 21
143.51812
 31
0.0
  0
LINE
  5
511
100
AcDbEntity
  8
3
370
    50
100
AcDbLine
 10
-191.373582
 20
151.618119
 30
0.0
 11
-191.373582
 21
163.618371
 31
0.0
  0
LINE
  5
512
100
AcDbEntity
  8
3
370
    25
100
AcDbLine
 10
-190.273582
 20
151.618119
 30
0.0
 11
-190.273582
 21
154.118371
 31
0.0
  0
LINE
  5
513
100
AcDbEntity
  8
3
370
    50
100
AcDbLine
 10
-190.273582
 20
154.118371
 30
0.0
 11
-191.373582
 21
156.023627
 31
0.0
  0
LINE
  5
514
100
AcDbEntity
  8
3
370
    25
100
AcDbLine
 10
-228.858082
 20
214.818371
 30
0.0
 11
-228.858082
 21
197.818371
 31
0.0
  0
LINE
  5
515
100
AcDbEntity
  8
3
370
    50
100
AcDbLine
 10
-227.696082
 20
185.818371
 30
0.0
 11
-228.858082
 21
187.831014
 31
0.0
  0
LINE
  5
516
100
AcDbEntity
  8
3
370
    50
100
AcDbLine
 10
-164.173582
 20
178.818371
 30
0.0
 11
-214.513328
 21
178.818371
 31
0.0
  0
LINE
  5
517
100
AcDbEntity
  8
3
370
    50
100
AcDbLine
 10
-248.651082
 20
185.818371
 30
0.0
 11
-247.489082
 21
187.831014
 31
0.0
  0
LINE
  5
518
100
AcDbEntity
  8
3
370
    25
100
AcDbLine
 10
-247.489082
 20
214.818371
 30
0.0
 11
-247.489082
 21
197.818371
 31
0.0
  0
LINE
  5
519
100
AcDbEntity
  8
3
370
    50
100
AcDbLine
 10
-228.858082
 20
214.818371
 30
0.0
 11
-247.489082
 21
214.818371
 31
0.0
  0
LINE
  5
51A
100
AcDbEntity
  8
3
370
    50
100
AcDbLine
 10
-228.858082
 20
214.818371
 30
0.0
 11
-227.696082
 21
213.656371
 31
0.0
  0
LINE
  5
51B
100
AcDbEntity
  8
3
370
    50
100
AcDbLine
 10
-247.489082
 20
214.818371
 30
0.0
 11
-248.651082
 21
213.656371
 31
0.0
  0
LINE
  5
51C
100
AcDbEntity
  8
3
370
    50
100
AcDbLine
 10
-225.573582
 20
164.118371
 30
0.0
 11
-222.173582
 21
164.118371
 31
0.0
  0
LINE
  5
51D
100
AcDbEntity
  8
3
370
    50
100
AcDbLine
 10
-164.973582
 20
151.618119
 30
0.0
 11
-164.973582
 21
163.618371
 31
0.0
  0
LINE
  5
51E
100
AcDbEntity
  8
3
370
    50
100
AcDbLine
 10
-166.073582
 20
154.118371
 30
0.0
 11
-164.973582
 21
156.023627
 31
0.0
  0
LINE
  5
51F
100
AcDbEntity
  8
3
370
    25
100
AcDbLine
 10
-166.073582
 20
151.618119
 30
0.0
 11
-166.073582
 21
154.118371
 31
0.0
  0
LINE
  5
520
100
AcDbEntity
  8
3
370
    50
100
AcDbLine
 10
-253.173582
 20
184.818371
 30
0.0
 11
-253.173582
 21
164.118371
 31
0.0
  0
LINE
  5
521
100
AcDbEntity
  8
3
370
    50
100
AcDbLine
 10
-163.173582
 20
163.618371
 30
0.0
 11
-163.173582
 21
177.818371
 31
0.0
  0
ARC
  5
522
100
AcDbEntity
  8
3
370
    50
100
AcDbCircle
 10
-164.173582
 20
177.818371
 30
0.0
 40
1.0
100
AcDbArc
 50
0.0
 51
90.0
  0
LINE
  5
523
100
AcDbEntity
  8
3
370
    50
100
AcDbLine
 10
-222.173582
 20
164.118371
 30
0.0
 11
-222.173582
 21
163.618371
 31
0.0
  0
LINE
  5
524
100
AcDbEntity
  8
3
370
    50
100
AcDbLine
 10
-164.973582
 20
163.618371
 30
0.0
 11
-163.173582
 21
163.618371
 31
0.0
  0
LINE
  5
525
100
AcDbEntity
  8
3
370
    50
100
AcDbLine
 10
-253.173582
 20
184.818371
 30
0.0
 11
-252.173582
 21
185.818371
 31
0.0
  0
LINE
  5
526
100
AcDbEntity
  8
3
370
    50
100
AcDbLine
 10
-222.173582
 20
163.618371
 30
0.0
 11
-213.173582
 21
163.618371
 31
0.0
  0
LINE
  5
527
100
AcDbEntity
  8
3
370
    50
100
AcDbLine
 10
-213.173582
 20
163.618371
 30
0.0
 11
-191.373582
 21
163.618371
 31
0.0
  0
LINE
  5
528
100
AcDbEntity
  8
3
370
    50
100
AcDbLine
 10
-223.173582
 20
184.818371
 30
0.0
 11
-224.173582
 21
185.818371
 31
0.0
  0
LINE
  5
529
100
AcDbEntity
  8
3
370
    50
100
AcDbLine
 10
-227.696082
 20
185.818371
 30
0.0
 11
-224.173582
 21
185.818371
 31
0.0
  0
LINE
  5
52A
100
AcDbEntity
  8
3
370
    50
100
AcDbLine
 10
-248.651082
 20
185.818371
 30
0.0
 11
-252.173582
 21
185.818371
 31
0.0
  0
ARC
  5
52B
100
AcDbEntity
  8
3
370
    50
100
AcDbCircle
 10
-214.008431
 20
188.818371
 30
0.0
 40
10.0
100
AcDbArc
 50
203.578178
 51
270.0
  0
LINE
  5
52C
100
AcDbEntity
  8
3
370
    50
100
AcDbLine
 10
-237.123582
 20
158.918371
 30
0.0
 11
-225.173582
 21
158.918371
 31
0.0
  0
LINE
  5
52D
100
AcDbEntity
  8
3
370
    50
100
AcDbLine
 10
-222.673582
 20
161.418371
 30
0.0
 11
-222.673582
 21
163.618371
 31
0.0
  0
LINE
  5
52E
100
AcDbEntity
  8
3
370
    50
100
AcDbLine
 10
-238.173582
 20
164.118371
 30
0.0
 11
-223.173582
 21
164.118371
 31
0.0
  0
LINE
  5
52F
100
AcDbEntity
  8
3
370
    50
100
AcDbLine
 10
-225.173582
 20
158.918371
 30
0.0
 11
-222.673582
 21
161.418371
 31
0.0
  0
LINE
  5
530
100
AcDbEntity
  8
3
370
    50
100
AcDbLine
 10
-253.673582
 20
161.418371
 30
0.0
 11
-253.673582
 21
163.618371
 31
0.0
  0
LINE
  5
531
100
AcDbEntity
  8
3
370
    50
100
AcDbLine
 10
-238.173582
 20
164.118371
 30
0.0
 11
-253.173582
 21
164.118371
 31
0.0
  0
LINE
  5
532
100
AcDbEntity
  8
3
370
    50
100
AcDbLine
 10
-253.673582
 20
163.618371
 30
0.0
 11
-253.173582
 21
164.118371
 31
0.0
  0
LINE
  5
533
100
AcDbEntity
  8
3
370
    50
100
AcDbLine
 10
-223.173582
 20
164.118371
 30
0.0
 11
-222.673582
 21
163.618371
 31
0.0
  0
LINE
  5
534
100
AcDbEntity
  8
3
370
    50
100
AcDbLine
 10
-253.673582
 20
161.418371
 30
0.0
 11
-251.173582
 21
158.918371
 31
0.0
  0
LINE
  5
535
100
AcDbEntity
  8
3
370
    50
100
AcDbLine
 10
-251.173582
 20
158.918371
 30
0.0
 11
-239.223582
 21
158.918371
 31
0.0
  0
LINE
  5
536
100
AcDbEntity
  8
3
370
    50
100
AcDbLine
 10
-238.923582
 20
159.218371
 30
0.0
 11
-238.923582
 21
160.418371
 31
0.0
  0
LINE
  5
537
100
AcDbEntity
  8
3
370
    50
100
AcDbLine
 10
-239.223582
 20
158.918371
 30
0.0
 11
-238.923582
 21
159.218371
 31
0.0
  0
LINE
  5
538
100
AcDbEntity
  8
3
370
    50
100
AcDbLine
 10
-238.923582
 20
160.418371
 30
0.0
 11
-238.173582
 21
160.418371
 31
0.0
  0
LINE
  5
539
100
AcDbEntity
  8
3
370
    50
100
AcDbLine
 10
-191.373582
 20
163.618371
 30
0.0
 11
-164.973582
 21
163.618371
 31
0.0
  0
LINE
  5
53A
100
AcDbEntity
  8
3
370
    50
100
AcDbLine
 10
-237.423582
 20
160.418371
 30
0.0
 11
-238.173582
 21
160.418371
 31
0.0
  0
LINE
  5
53B
100
AcDbEntity
  8
3
370
    50
100
AcDbLine
 10
-237.423582
 20
159.218371
 30
0.0
 11
-237.423582
 21
160.418371
 31
0.0
  0
LINE
  5
53C
100
AcDbEntity
  8
3
370
    50
100
AcDbLine
 10
-237.123582
 20
158.918371
 30
0.0
 11
-237.423582
 21
159.218371
 31
0.0
  0
LINE
  5
53D
100
AcDbEntity
  8
3
370
    25
100
AcDbLine
 10
-222.673582
 20
161.418371
 30
0.0
 11
-253.673582
 21
161.418371
 31
0.0
  0
LINE
  5
53E
100
AcDbEntity
  8
3
370
    25
100
AcDbLine
 10
-253.673582
 20
163.618371
 30
0.0
 11
-222.673582
 21
163.618371
 31
0.0
  0
LINE
  5
53F
100
AcDbEntity
  8
3
370
    25
100
AcDbLine
 10
-227.696082
 20
213.656371
 30
0.0
 11
-248.651082
 21
213.656371
 31
0.0
  0
LINE
  5
540
100
AcDbEntity
  8
3
370
    50
100
AcDbLine
 10
-247.489082
 20
187.831014
 30
0.0
 11
-228.858082
 21
187.831014
 31
0.0
  0
LINE
  5
541
100
AcDbEntity
  8
3
370
    50
100
AcDbLine
 10
-227.696082
 20
185.818371
 30
0.0
 11
-248.651082
 21
185.818371
 31
0.0
  0
LINE
  5
542
100
AcDbEntity
  8
3
370
    25
100
AcDbLine
 10
-190.273582
 20
154.118371
 30
0.0
 11
-166.073582
 21
154.118371
 31
0.0
  0
LINE
  5
543
100
AcDbEntity
  8
3
370
    25
100
AcDbLine
 10
-164.973582
 20
156.023627
 30
0.0
 11
-191.373582
 21
156.023627
 31
0.0
  0
LINE
  5
544
100
AcDbEntity
  8
3
370
    25
  6
CENTER
100
AcDbLine
 10
-178.173582
 20
183.313228
 30
0.0
 11
-178.173582
 21
126.763446
 31
0.0
  0
LINE
  5
545
100
AcDbEntity
  8
3
370
    25
100
AcDbLine
 10
-27.489082
 20
214.818371
 30
0.0
 11
-27.489082
 21
197.818371
 31
0.0
  0
LINE
  5
546
100
AcDbEntity
  8
3
370
    50
100
AcDbLine
 10
-28.651082
 20
185.818371
 30
0.0
 11
-27.489082
 21
187.831014
 31
0.0
  0
LINE
  5
547
100
AcDbEntity
  8
3
370
    50
100
AcDbLine
 10
-92.173582
 20
178.818371
 30
0.0
 11
-41.833836
 21
178.818371
 31
0.0
  0
LINE
  5
548
100
AcDbEntity
  8
3
370
    50
100
AcDbLine
 10
-7.696082
 20
185.818371
 30
0.0
 11
-8.858082
 21
187.831014
 31
0.0
  0
LINE
  5
549
100
AcDbEntity
  8
3
370
    25
100
AcDbLine
 10
-8.858082
 20
214.818371
 30
0.0
 11
-8.858082
 21
197.818371
 31
0.0
  0
LINE
  5
54A
100
AcDbEntity
  8
3
370
    50
100
AcDbLine
 10
-27.489082
 20
214.818371
 30
0.0
 11
-8.858082
 21
214.818371
 31
0.0
  0
LINE
  5
54B
100
AcDbEntity
  8
3
370
    50
100
AcDbLine
 10
-27.489082
 20
214.818371
 30
0.0
 11
-28.651082
 21
213.656371
 31
0.0
  0
LINE
  5
54C
100
AcDbEntity
  8
3
370
    50
100
AcDbLine
 10
-8.858082
 20
214.818371
 30
0.0
 11
-7.696082
 21
213.656371
 31
0.0
  0
LINE
  5
54D
100
AcDbEntity
  8
3
370
    50
100
AcDbLine
 10
-30.773582
 20
164.118371
 30
0.0
 11
-34.173582
 21
164.118371
 31
0.0
  0
LINE
  5
54E
100
AcDbEntity
  8
3
370
    25
  6
CENTER
100
AcDbLine
 10
-18.173582
 20
217.710816
 30
0.0
 11
-18.173582
 21
153.82547
 31
0.0
  0
LINE
  5
54F
100
AcDbEntity
  8
3
370
    50
100
AcDbLine
 10
-3.173582
 20
184.818371
 30
0.0
 11
-3.173582
 21
164.118371
 31
0.0
  0
LINE
  5
550
100
AcDbEntity
  8
3
370
    50
100
AcDbLine
 10
-34.173582
 20
164.118371
 30
0.0
 11
-34.173582
 21
163.618371
 31
0.0
  0
LINE
  5
551
100
AcDbEntity
  8
3
370
    50
100
AcDbLine
 10
-3.173582
 20
184.818371
 30
0.0
 11
-4.173582
 21
185.818371
 31
0.0
  0
LINE
  5
552
100
AcDbEntity
  8
3
370
    50
100
AcDbLine
 10
-34.173582
 20
163.618371
 30
0.0
 11
-43.173582
 21
163.618371
 31
0.0
  0
LINE
  5
553
100
AcDbEntity
  8
3
370
    50
100
AcDbLine
 10
-43.173582
 20
163.618371
 30
0.0
 11
-64.973582
 21
163.618371
 31
0.0
  0
LINE
  5
554
100
AcDbEntity
  8
3
370
    50
100
AcDbLine
 10
-33.173582
 20
184.818371
 30
0.0
 11
-32.173582
 21
185.818371
 31
0.0
  0
LINE
  5
555
100
AcDbEntity
  8
3
370
    50
100
AcDbLine
 10
-28.651082
 20
185.818371
 30
0.0
 11
-32.173582
 21
185.818371
 31
0.0
  0
LINE
  5
556
100
AcDbEntity
  8
3
370
    50
100
AcDbLine
 10
-7.696082
 20
185.818371
 30
0.0
 11
-4.173582
 21
185.818371
 31
0.0
  0
ARC
  5
557
100
AcDbEntity
  8
3
370
    50
100
AcDbCircle
 10
-42.338733
 20
188.818371
 30
0.0
 40
10.0
100
AcDbArc
 50
270.0
 51
336.421822
  0
LINE
  5
558
100
AcDbEntity
  8
3
370
    50
100
AcDbLine
 10
-19.223582
 20
158.918371
 30
0.0
 11
-31.173582
 21
158.918371
 31
0.0
  0
LINE
  5
559
100
AcDbEntity
  8
3
370
    50
100
AcDbLine
 10
-33.673582
 20
161.418371
 30
0.0
 11
-33.673582
 21
163.618371
 31
0.0
  0
LINE
  5
55A
100
AcDbEntity
  8
3
370
    50
100
AcDbLine
 10
-18.173582
 20
164.118371
 30
0.0
 11
-33.173582
 21
164.118371
 31
0.0
  0
LINE
  5
55B
100
AcDbEntity
  8
3
370
    50
100
AcDbLine
 10
-31.173582
 20
158.918371
 30
0.0
 11
-33.673582
 21
161.418371
 31
0.0
  0
LINE
  5
55C
100
AcDbEntity
  8
3
370
    50
100
AcDbLine
 10
-2.673582
 20
161.418371
 30
0.0
 11
-2.673582
 21
163.618371
 31
0.0
  0
LINE
  5
55D
100
AcDbEntity
  8
3
370
    50
100
AcDbLine
 10
-18.173582
 20
164.118371
 30
0.0
 11
-3.173582
 21
164.118371
 31
0.0
  0
LINE
  5
55E
100
AcDbEntity
  8
3
370
    50
100
AcDbLine
 10
-2.673582
 20
163.618371
 30
0.0
 11
-3.173582
 21
164.118371
 31
0.0
  0
LINE
  5
55F
100
AcDbEntity
  8
3
370
    50
100
AcDbLine
 10
-33.173582
 20
164.118371
 30
0.0
 11
-33.673582
 21
163.618371
 31
0.0
  0
LINE
  5
560
100
AcDbEntity
  8
3
370
    50
100
AcDbLine
 10
-2.673582
 20
161.418371
 30
0.0
 11
-5.173582
 21
158.918371
 31
0.0
  0
LINE
  5
561
100
AcDbEntity
  8
3
370
    50
100
AcDbLine
 10
-5.173582
 20
158.918371
 30
0.0
 11
-17.123582
 21
158.918371
 31
0.0
  0
LINE
  5
562
100
AcDbEntity
  8
3
370
    50
100
AcDbLine
 10
-17.423582
 20
159.218371
 30
0.0
 11
-17.423582
 21
160.418371
 31
0.0
  0
LINE
  5
563
100
AcDbEntity
  8
3
370
    50
100
AcDbLine
 10
-17.123582
 20
158.918371
 30
0.0
 11
-17.423582
 21
159.218371
 31
0.0
  0
LINE
  5
564
100
AcDbEntity
  8
3
370
    50
100
AcDbLine
 10
-17.423582
 20
160.418371
 30
0.0
 11
-18.173582
 21
160.418371
 31
0.0
  0
LINE
  5
565
100
AcDbEntity
  8
3
370
    50
100
AcDbLine
 10
-18.923582
 20
160.418371
 30
0.0
 11
-18.173582
 21
160.418371
 31
0.0
  0
LINE
  5
566
100
AcDbEntity
  8
3
370
    50
100
AcDbLine
 10
-18.923582
 20
159.218371
 30
0.0
 11
-18.923582
 21
160.418371
 31
0.0
  0
LINE
  5
567
100
AcDbEntity
  8
3
370
    50
100
AcDbLine
 10
-19.223582
 20
158.918371
 30
0.0
 11
-18.923582
 21
159.218371
 31
0.0
  0
LINE
  5
568
100
AcDbEntity
  8
3
370
    25
100
AcDbLine
 10
-33.673582
 20
161.418371
 30
0.0
 11
-2.673582
 21
161.418371
 31
0.0
  0
LINE
  5
569
100
AcDbEntity
  8
3
370
    25
100
AcDbLine
 10
-2.673582
 20
163.618371
 30
0.0
 11
-33.673582
 21
163.618371
 31
0.0
  0
LINE
  5
56A
100
AcDbEntity
  8
3
370
    25
100
AcDbLine
 10
-28.651082
 20
213.656371
 30
0.0
 11
-7.696082
 21
213.656371
 31
0.0
  0
LINE
  5
56B
100
AcDbEntity
  8
3
370
    50
100
AcDbLine
 10
-8.858082
 20
187.831014
 30
0.0
 11
-27.489082
 21
187.831014
 31
0.0
  0
LINE
  5
56C
100
AcDbEntity
  8
3
370
    50
100
AcDbLine
 10
-28.651082
 20
185.818371
 30
0.0
 11
-7.696082
 21
185.818371
 31
0.0
  0
LINE
  5
56D
100
AcDbEntity
  8
3
370
    50
100
AcDbLine
 10
-92.173582
 20
178.818371
 30
0.0
 11
-41.833836
 21
178.818371
 31
0.0
  0
LINE
  5
56E
100
AcDbEntity
  8
3
370
    50
100
AcDbLine
 10
-93.173582
 20
163.618371
 30
0.0
 11
-93.173582
 21
177.818371
 31
0.0
  0
ARC
  5
56F
100
AcDbEntity
  8
3
370
    50
100
AcDbCircle
 10
-92.173582
 20
177.818371
 30
0.0
 40
1.0
100
AcDbArc
 50
90.0
 51
180.0
  0
LINE
  5
570
100
AcDbEntity
  8
3
370
    50
100
AcDbLine
 10
-64.973582
 20
163.618371
 30
0.0
 11
-91.373582
 21
163.618371
 31
0.0
  0
LINE
  5
571
100
AcDbEntity
  8
3
370
    50
100
AcDbLine
 10
-64.973582
 20
151.618119
 30
0.0
 11
-64.973582
 21
163.618371
 31
0.0
  0
LINE
  5
572
100
AcDbEntity
  8
3
370
    25
100
AcDbLine
 10
-66.073582
 20
151.618119
 30
0.0
 11
-66.073582
 21
154.118371
 31
0.0
  0
LINE
  5
573
100
AcDbEntity
  8
3
370
    50
100
AcDbLine
 10
-66.073582
 20
154.118371
 30
0.0
 11
-64.973582
 21
156.023627
 31
0.0
  0
LINE
  5
574
100
AcDbEntity
  8
3
370
    50
100
AcDbLine
 10
-91.373582
 20
151.618119
 30
0.0
 11
-91.373582
 21
163.618371
 31
0.0
  0
LINE
  5
575
100
AcDbEntity
  8
3
370
    50
100
AcDbLine
 10
-90.273582
 20
154.118371
 30
0.0
 11
-91.373582
 21
156.023627
 31
0.0
  0
LINE
  5
576
100
AcDbEntity
  8
3
370
    25
100
AcDbLine
 10
-90.273582
 20
151.618119
 30
0.0
 11
-90.273582
 21
154.118371
 31
0.0
  0
LINE
  5
577
100
AcDbEntity
  8
3
370
    50
100
AcDbLine
 10
-93.173582
 20
163.618371
 30
0.0
 11
-93.173582
 21
177.818371
 31
0.0
  0
LINE
  5
578
100
AcDbEntity
  8
3
370
    50
100
AcDbLine
 10
-91.373582
 20
163.618371
 30
0.0
 11
-93.173582
 21
163.618371
 31
0.0
  0
LINE
  5
579
100
AcDbEntity
  8
3
370
    50
100
AcDbLine
 10
-43.173582
 20
163.618371
 30
0.0
 11
-64.973582
 21
163.618371
 31
0.0
  0
LINE
  5
57A
100
AcDbEntity
  8
3
370
    50
100
AcDbLine
 10
-64.973582
 20
163.618371
 30
0.0
 11
-91.373582
 21
163.618371
 31
0.0
  0
LINE
  5
57B
100
AcDbEntity
  8
3
370
    25
100
AcDbLine
 10
-66.073582
 20
154.118371
 30
0.0
 11
-90.273582
 21
154.118371
 31
0.0
  0
LINE
  5
57C
100
AcDbEntity
  8
3
370
    25
100
AcDbLine
 10
-91.373582
 20
156.023627
 30
0.0
 11
-64.973582
 21
156.023627
 31
0.0
  0
LINE
  5
57D
100
AcDbEntity
  8
3
370
    25
  6
CENTER
100
AcDbLine
 10
-5.986553
 20
-52.15124
 30
0.0
 11
-128.173582
 21
-52.15124
 31
0.0
  0
LINE
  5
57E
100
AcDbEntity
  8
3
370
    25
  6
CENTER
100
AcDbLine
 10
-128.173582
 20
-170.776154
 30
0.0
 11
-128.173582
 21
-20.22434
 31
0.0
  0
POINT
  5
57F
100
AcDbEntity
  8
3
370
    50
100
AcDbPoint
 10
-220.599989
 20
-94.577647
 30
0.0
  0
LINE
  5
580
100
AcDbEntity
  8
3
370
    50
100
AcDbLine
 10
-207.232047
 20
-102.422908
 30
0.0
 11
-178.960379
 21
-74.15124
 31
0.0
  0
LINE
  5
581
100
AcDbEntity
  8
3
370
    50
100
AcDbLine
 10
-228.44525
 20
-81.209705
 30
0.0
 11
-221.386786
 21
-74.15124
 31
0.0
  0
POINT
  5
582
100
AcDbEntity
  8
3
370
    50
100
AcDbPoint
 10
-35.747175
 20
-94.577647
 30
0.0
  0
POINT
  5
583
100
AcDbEntity
  8
3
370
    50
100
AcDbPoint
 10
-26.201234
 20
-104.123588
 30
0.0
  0
LINE
  5
584
100
AcDbEntity
  8
3
370
    50
100
AcDbLine
 10
-27.901914
 20
-81.209705
 30
0.0
 11
-29.077577
 21
-80.034041
 31
0.0
  0
LINE
  5
585
100
AcDbEntity
  8
3
370
    50
100
AcDbLine
 10
-29.077577
 20
-80.034041
 30
0.0
 11
-34.960379
 21
-74.15124
 31
0.0
  0
LINE
  5
586
100
AcDbEntity
  8
3
370
    50
100
AcDbLine
 10
-49.115117
 20
-102.422908
 30
0.0
 11
-77.386786
 21
-74.15124
 31
0.0
  0
POINT
  5
587
100
AcDbEntity
  8
3
370
    50
100
AcDbPoint
 10
-220.599989
 20
-94.577647
 30
0.0
  0
CIRCLE
  5
588
100
AcDbEntity
  8
3
370
    50
100
AcDbCircle
 10
-220.599989
 20
-94.577647
 30
0.0
 40
15.5
  0
CIRCLE
  5
589
100
AcDbEntity
  8
3
370
    50
100
AcDbCircle
 10
-220.599989
 20
-94.577647
 30
0.0
 40
4.5
  0
LINE
  5
58A
100
AcDbEntity
  8
3
370
    25
  6
CENTER
100
AcDbLine
 10
-239.099989
 20
-94.577647
 30
0.0
 11
-202.099989
 21
-94.577647
 31
0.0
  0
LINE
  5
58B
100
AcDbEntity
  8
3
370
    25
  6
CENTER
100
AcDbLine
 10
-220.599989
 20
-113.077647
 30
0.0
 11
-220.599989
 21
-76.077647
 31
0.0
  0
ARC
  5
58C
100
AcDbEntity
  8
3
370
    50
100
AcDbCircle
 10
-220.599989
 20
-94.577647
 30
0.0
 40
13.0
100
AcDbArc
 50
94.411726
 51
265.588274
  0
ARC
  5
58D
100
AcDbEntity
  8
3
370
    50
100
AcDbCircle
 10
-220.599989
 20
-94.577647
 30
0.0
 40
13.0
100
AcDbArc
 50
274.411726
 51
85.588274
  0
ARC
  5
58E
100
AcDbEntity
  8
3
370
    25
100
AcDbCircle
 10
-220.599989
 20
-94.577647
 30
0.0
 40
5.5
100
AcDbArc
 50
100.475682
 51
259.524318
  0
ARC
  5
58F
100
AcDbEntity
  8
3
370
    25
100
AcDbCircle
 10
-220.599989
 20
-94.577647
 30
0.0
 40
5.5
100
AcDbArc
 50
280.475682
 51
79.524318
  0
LINE
  5
590
100
AcDbEntity
  8
3
370
    50
100
AcDbLine
 10
-221.599989
 20
-89.16932
 30
0.0
 11
-221.599989
 21
-81.616165
 31
0.0
  0
LINE
  5
591
100
AcDbEntity
  8
3
370
    50
100
AcDbLine
 10
-219.599989
 20
-89.16932
 30
0.0
 11
-219.599989
 21
-81.616165
 31
0.0
  0
LINE
  5
592
100
AcDbEntity
  8
3
370
    25
100
AcDbLine
 10
-221.899989
 20
-89.233491
 30
0.0
 11
-221.899989
 21
-81.64281
 31
0.0
  0
LINE
  5
593
100
AcDbEntity
  8
3
370
    25
100
AcDbLine
 10
-219.299989
 20
-89.233491
 30
0.0
 11
-219.299989
 21
-81.64281
 31
0.0
  0
LINE
  5
594
100
AcDbEntity
  8
3
370
    25
100
AcDbLine
 10
-219.299989
 20
-99.921802
 30
0.0
 11
-219.299989
 21
-107.512483
 31
0.0
  0
LINE
  5
595
100
AcDbEntity
  8
3
370
    50
100
AcDbLine
 10
-219.599989
 20
-99.985974
 30
0.0
 11
-219.599989
 21
-107.539128
 31
0.0
  0
LINE
  5
596
100
AcDbEntity
  8
3
370
    50
100
AcDbLine
 10
-221.599989
 20
-99.985974
 30
0.0
 11
-221.599989
 21
-107.539128
 31
0.0
  0
LINE
  5
597
100
AcDbEntity
  8
3
370
    25
100
AcDbLine
 10
-221.899989
 20
-99.921802
 30
0.0
 11
-221.899989
 21
-107.512483
 31
0.0
  0
POINT
  5
598
100
AcDbEntity
  8
3
370
    50
100
AcDbPoint
 10
-35.747175
 20
-94.577647
 30
0.0
  0
CIRCLE
  5
599
100
AcDbEntity
  8
3
370
    50
100
AcDbCircle
 10
-35.747175
 20
-94.577647
 30
0.0
 40
15.5
  0
CIRCLE
  5
59A
100
AcDbEntity
  8
3
370
    50
100
AcDbCircle
 10
-35.747175
 20
-94.577647
 30
0.0
 40
4.5
  0
LINE
  5
59B
100
AcDbEntity
  8
3
370
    25
  6
CENTER
100
AcDbLine
 10
-54.247175
 20
-94.577647
 30
0.0
 11
-17.247175
 21
-94.577647
 31
0.0
  0
LINE
  5
59C
100
AcDbEntity
  8
3
370
    25
  6
CENTER
100
AcDbLine
 10
-35.747175
 20
-113.077647
 30
0.0
 11
-35.747175
 21
-76.077647
 31
0.0
  0
ARC
  5
59D
100
AcDbEntity
  8
3
370
    50
100
AcDbCircle
 10
-35.747175
 20
-94.577647
 30
0.0
 40
13.0
100
AcDbArc
 50
94.411726
 51
265.588274
  0
ARC
  5
59E
100
AcDbEntity
  8
3
370
    50
100
AcDbCircle
 10
-35.747175
 20
-94.577647
 30
0.0
 40
13.0
100
AcDbArc
 50
274.411726
 51
85.588274
  0
ARC
  5
59F
100
AcDbEntity
  8
3
370
    25
100
AcDbCircle
 10
-35.747175
 20
-94.577647
 30
0.0
 40
5.5
100
AcDbArc
 50
100.475682
 51
259.524318
  0
ARC
  5
5A0
100
AcDbEntity
  8
3
370
    25
100
AcDbCircle
 10
-35.747175
 20
-94.577647
 30
0.0
 40
5.5
100
AcDbArc
 50
280.475682
 51
79.524318
  0
LINE
  5
5A1
100
AcDbEntity
  8
3
370
    50
100
AcDbLine
 10
-36.747175
 20
-89.16932
 30
0.0
 11
-36.747175
 21
-81.616165
 31
0.0
  0
LINE
  5
5A2
100
AcDbEntity
  8
3
370
    50
100
AcDbLine
 10
-34.747175
 20
-89.16932
 30
0.0
 11
-34.747175
 21
-81.616165
 31
0.0
  0
LINE
  5
5A3
100
AcDbEntity
  8
3
370
    25
100
AcDbLine
 10
-37.047175
 20
-89.233491
 30
0.0
 11
-37.047175
 21
-81.64281
 31
0.0
  0
LINE
  5
5A4
100
AcDbEntity
  8
3
370
    25
100
AcDbLine
 10
-34.447175
 20
-89.233491
 30
0.0
 11
-34.447175
 21
-81.64281
 31
0.0
  0
LINE
  5
5A5
100
AcDbEntity
  8
3
370
    25
100
AcDbLine
 10
-34.447175
 20
-99.921802
 30
0.0
 11
-34.447175
 21
-107.512483
 31
0.0
  0
LINE
  5
5A6
100
AcDbEntity
  8
3
370
    50
100
AcDbLine
 10
-34.747175
 20
-99.985974
 30
0.0
 11
-34.747175
 21
-107.539128
 31
0.0
  0
LINE
  5
5A7
100
AcDbEntity
  8
3
370
    50
100
AcDbLine
 10
-36.747175
 20
-99.985974
 30
0.0
 11
-36.747175
 21
-107.539128
 31
0.0
  0
LINE
  5
5A8
100
AcDbEntity
  8
3
370
    25
100
AcDbLine
 10
-37.047175
 20
-99.921802
 30
0.0
 11
-37.047175
 21
-107.512483
 31
0.0
  0
LINE
  5
5A9
100
AcDbEntity
  8
3
370
    50
100
AcDbLine
 10
-120.273582
 20
-94.65124
 30
0.0
 11
-120.273582
 21
-109.839161
 31
0.0
  0
LINE
  5
5AA
100
AcDbEntity
  8
3
370
    50
100
AcDbLine
 10
-136.073582
 20
-94.65124
 30
0.0
 11
-136.073582
 21
-109.839161
 31
0.0
  0
ARC
  5
5AB
100
AcDbEntity
  8
3
370
    50
100
AcDbCircle
 10
-115.923582
 20
-119.59024
 30
0.0
 40
25.0
100
AcDbArc
 50
166.204472
 51
180.0
  0
ARC
  5
5AC
100
AcDbEntity
  8
3
370
    50
100
AcDbCircle
 10
-128.173582
 20
-122.59024
 30
0.0
 40
15.0
100
AcDbArc
 50
36.686015
 51
143.313985
  0
ARC
  5
5AD
100
AcDbEntity
  8
3
370
    50
100
AcDbCircle
 10
-140.423582
 20
-119.59024
 30
0.0
 40
25.0
100
AcDbArc
 50
0.0
 51
13.795528
  0
LINE
  5
5AE
100
AcDbEntity
  8
3
370
    50
100
AcDbLine
 10
-115.423582
 20
-119.59024
 30
0.0
 11
-115.423582
 21
-141.09024
 31
0.0
  0
LINE
  5
5AF
100
AcDbEntity
  8
3
370
    50
100
AcDbLine
 10
-140.923582
 20
-119.59024
 30
0.0
 11
-140.923582
 21
-141.09024
 31
0.0
  0
LINE
  5
5B0
100
AcDbEntity
  8
3
370
    25
100
AcDbLine
 10
-140.173582
 20
-141.09024
 30
0.0
 11
-140.173582
 21
-113.59024
 31
0.0
  0
LINE
  5
5B1
100
AcDbEntity
  8
3
370
    50
100
AcDbLine
 10
-140.923582
 20
-141.09024
 30
0.0
 11
-140.268265
 21
-143.711508
 31
0.0
  0
LINE
  5
5B2
100
AcDbEntity
  8
3
370
    50
100
AcDbLine
 10
-115.423582
 20
-141.09024
 30
0.0
 11
-116.078899
 21
-143.711508
 31
0.0
  0
LINE
  5
5B3
100
AcDbEntity
  8
3
370
    25
100
AcDbLine
 10
-116.173582
 20
-141.09024
 30
0.0
 11
-116.173582
 21
-113.59024
 31
0.0
  0
LINE
  5
5B4
100
AcDbEntity
  8
3
370
    50
100
AcDbLine
 10
-138.806287
 20
-156.19024
 30
0.0
 11
-117.540877
 21
-156.19024
 31
0.0
  0
LINE
  5
5B5
100
AcDbEntity
  8
3
370
    50
100
AcDbLine
 10
-140.173582
 20
-144.89024
 30
0.0
 11
-140.173582
 21
-152.69024
 31
0.0
  0
LINE
  5
5B6
100
AcDbEntity
  8
3
370
    50
100
AcDbLine
 10
-116.173582
 20
-144.89024
 30
0.0
 11
-116.173582
 21
-152.69024
 31
0.0
  0
LINE
  5
5B7
100
AcDbEntity
  8
3
370
    50
100
AcDbLine
 10
-116.173582
 20
-152.69024
 30
0.0
 11
-116.550928
 21
-155.331661
 31
0.0
  0
LINE
  5
5B8
100
AcDbEntity
  8
3
370
    50
100
AcDbLine
 10
-140.173582
 20
-152.69024
 30
0.0
 11
-139.796236
 21
-155.331661
 31
0.0
  0
ARC
  5
5B9
100
AcDbEntity
  8
3
370
    50
100
AcDbCircle
 10
-117.540877
 20
-155.19024
 30
0.0
 40
1.0
100
AcDbArc
 50
270.0
 51
351.869898
  0
ARC
  5
5BA
100
AcDbEntity
  8
3
370
    50
100
AcDbCircle
 10
-138.806287
 20
-155.19024
 30
0.0
 40
1.0
100
AcDbArc
 50
188.130102
 51
270.0
  0
LINE
  5
5BB
100
AcDbEntity
  8
3
370
    25
100
AcDbLine
 10
-139.607298
 20
-152.69024
 30
0.0
 11
-117.005125
 21
-152.69024
 31
0.0
  0
LINE
  5
5BC
100
AcDbEntity
  8
3
370
    50
100
AcDbLine
 10
-139.973582
 20
-144.69024
 30
0.0
 11
-116.373582
 21
-144.69024
 31
0.0
  0
LINE
  5
5BD
100
AcDbEntity
  8
3
370
    50
100
AcDbLine
 10
-116.373582
 20
-144.69024
 30
0.0
 11
-116.173582
 21
-144.89024
 31
0.0
  0
LINE
  5
5BE
100
AcDbEntity
  8
3
370
    50
100
AcDbLine
 10
-139.973582
 20
-144.69024
 30
0.0
 11
-140.173582
 21
-144.89024
 31
0.0
  0
LINE
  5
5BF
100
AcDbEntity
  8
3
370
    50
100
AcDbLine
 10
-140.923582
 20
-141.09024
 30
0.0
 11
-140.268265
 21
-143.711508
 31
0.0
  0
LINE
  5
5C0
100
AcDbEntity
  8
3
370
    50
100
AcDbLine
 10
-117.423582
 20
-144.69024
 30
0.0
 11
-117.423582
 21
-144.09024
 31
0.0
  0
LINE
  5
5C1
100
AcDbEntity
  8
3
370
    50
100
AcDbLine
 10
-138.923582
 20
-144.69024
 30
0.0
 11
-138.923582
 21
-144.09024
 31
0.0
  0
LINE
  5
5C2
100
AcDbEntity
  8
3
370
    50
100
AcDbLine
 10
-116.56397
 20
-144.09024
 30
0.0
 11
-139.783194
 21
-144.09024
 31
0.0
  0
ARC
  5
5C3
100
AcDbEntity
  8
3
370
    50
100
AcDbCircle
 10
-139.783194
 20
-143.59024
 30
0.0
 40
0.5
100
AcDbArc
 50
194.036243
 51
270.0
  0
ARC
  5
5C4
100
AcDbEntity
  8
3
370
    50
100
AcDbCircle
 10
-116.56397
 20
-143.59024
 30
0.0
 40
0.5
100
AcDbArc
 50
270.0
 51
345.963757
  0
LINE
  5
5C5
100
AcDbEntity
  8
3
370
    50
100
AcDbLine
 10
238.129525
 20
-39.15124
 30
0.0
 11
246.129525
 21
-39.15124
 31
0.0
  0
LINE
  5
5C6
100
AcDbEntity
  8
3
370
    50
100
AcDbLine
 10
238.129525
 20
-65.15124
 30
0.0
 11
246.129525
 21
-65.15124
 31
0.0
  0
LINE
  5
5C7
100
AcDbEntity
  8
3
370
    50
100
AcDbLine
 10
208.129525
 20
-30.15124
 30
0.0
 11
238.129525
 21
-30.15124
 31
0.0
  0
LINE
  5
5C8
100
AcDbEntity
  8
3
370
    50
100
AcDbLine
 10
208.129525
 20
-74.15124
 30
0.0
 11
218.129525
 21
-74.15124
 31
0.0
  0
LINE
  5
5C9
100
AcDbEntity
  8
3
370
    50
100
AcDbLine
 10
235.629525
 20
-74.15124
 30
0.0
 11
238.129525
 21
-74.15124
 31
0.0
  0
LINE
  5
5CA
100
AcDbEntity
  8
3
370
    50
100
AcDbLine
 10
238.129525
 20
-30.15124
 30
0.0
 11
238.129525
 21
-74.15124
 31
0.0
  0
POINT
  5
5CB
100
AcDbEntity
  8
3
370
    50
100
AcDbPoint
 10
208.129525
 20
-52.15124
 30
0.0
  0
LINE
  5
5CC
100
AcDbEntity
  8
3
370
    50
100
AcDbLine
 10
184.281481
 20
-42.137709
 30
0.0
 11
175.259049
 21
-39.720156
 31
0.0
  0
LINE
  5
5CD
100
AcDbEntity
  8
3
370
    50
100
AcDbLine
 10
182.469747
 20
-48.89919
 30
0.0
 11
173.447316
 21
-46.481637
 31
0.0
  0
ARC
  5
5CE
100
AcDbEntity
  8
3
370
    50
100
AcDbCircle
 10
208.129525
 20
-52.15124
 30
0.0
 40
37.0
100
AcDbArc
 50
162.543714
 51
167.456286
  0
ARC
  5
5CF
100
AcDbEntity
  8
3
370
    50
100
AcDbCircle
 10
174.741411
 20
-41.652008
 30
0.0
 40
2.0
100
AcDbArc
 50
75.0
 51
162.543714
  0
ARC
  5
5D0
100
AcDbEntity
  8
3
370
    50
100
AcDbCircle
 10
173.964954
 20
-44.549785
 30
0.0
 40
2.0
100
AcDbArc
 50
167.456286
 51
255.0
  0
ARC
  5
5D1
100
AcDbEntity
  8
3
370
    50
100
AcDbCircle
 10
185.575576
 20
-37.30808
 30
0.0
 40
5.0
100
AcDbArc
 50
255.0
 51
326.650365
  0
ARC
  5
5D2
100
AcDbEntity
  8
3
370
    50
100
AcDbCircle
 10
181.175652
 20
-53.728819
 30
0.0
 40
5.0
100
AcDbArc
 50
3.349635
 51
75.0
  0
ARC
  5
5D3
100
AcDbEntity
  8
3
370
    50
100
AcDbCircle
 10
208.129525
 20
-52.15124
 30
0.0
 40
22.0
100
AcDbArc
 50
183.349635
 51
146.650365
  0
LINE
  5
5D4
100
AcDbEntity
  8
3
370
    50
100
AcDbLine
 10
217.238817
 20
-55.627344
 30
0.0
 11
219.944778
 21
-56.352404
 31
0.0
  0
LINE
  5
5D5
100
AcDbEntity
  8
3
370
    50
100
AcDbLine
 10
217.756455
 20
-53.695492
 30
0.0
 11
220.462417
 21
-54.420552
 31
0.0
  0
LINE
  5
5D6
100
AcDbEntity
  8
3
370
    50
100
AcDbLine
 10
220.462417
 20
-54.420552
 30
0.0
 11
219.944778
 21
-56.352404
 31
0.0
  0
ARC
  5
5D7
100
AcDbEntity
  8
3
370
    25
100
AcDbCircle
 10
208.129525
 20
-52.15124
 30
0.0
 40
10.5
100
AcDbArc
 50
350.465024
 51
339.534976
  0
CIRCLE
  5
5D8
100
AcDbEntity
  8
3
370
    50
100
AcDbCircle
 10
208.129525
 20
-52.15124
 30
0.0
 40
9.75
  0
CIRCLE
  5
5D9
100
AcDbEntity
  8
3
370
    25
100
AcDbCircle
 10
208.129525
 20
-52.15124
 30
0.0
 40
9.25
  0
ARC
  5
5DA
100
AcDbEntity
  8
3
370
    50
100
AcDbCircle
 10
208.129525
 20
-52.15124
 30
0.0
 40
10.0
100
AcDbArc
 50
350.73917
 51
339.26083
  0
POINT
  5
5DB
100
AcDbEntity
  8
3
370
    50
100
AcDbPoint
 10
208.129525
 20
-52.15124
 30
0.0
  0
LINE
  5
5DC
100
AcDbEntity
  8
3
370
    50
100
AcDbLine
 10
214.983476
 20
-76.112924
 30
0.0
 11
214.983476
 21
-84.65124
 31
0.0
  0
LINE
  5
5DD
100
AcDbEntity
  8
3
370
    50
100
AcDbLine
 10
238.129525
 20
-39.65124
 30
0.0
 11
243.829525
 21
-39.65124
 31
0.0
  0
LINE
  5
5DE
100
AcDbEntity
  8
3
370
    50
100
AcDbLine
 10
244.129525
 20
-64.35124
 30
0.0
 11
244.129525
 21
-52.15124
 31
0.0
  0
LINE
  5
5DF
100
AcDbEntity
  8
3
370
    50
100
AcDbLine
 10
238.129525
 20
-64.65124
 30
0.0
 11
243.829525
 21
-64.65124
 31
0.0
  0
LINE
  5
5E0
100
AcDbEntity
  8
3
370
    50
100
AcDbLine
 10
244.129525
 20
-64.35124
 30
0.0
 11
243.829525
 21
-64.65124
 31
0.0
  0
LINE
  5
5E1
100
AcDbEntity
  8
3
370
    50
100
AcDbLine
 10
243.829525
 20
-39.65124
 30
0.0
 11
244.129525
 21
-39.95124
 31
0.0
  0
LINE
  5
5E2
100
AcDbEntity
  8
3
370
    50
100
AcDbLine
 10
244.129525
 20
-52.15124
 30
0.0
 11
244.129525
 21
-39.95124
 31
0.0
  0
LINE
  5
5E3
100
AcDbEntity
  8
3
370
    25
100
AcDbLine
 10
243.829525
 20
-64.65124
 30
0.0
 11
243.829525
 21
-39.65124
 31
0.0
  0
LINE
  5
5E4
100
AcDbEntity
  8
3
370
    50
100
AcDbLine
 10
244.129525
 20
-41.65124
 30
0.0
 11
246.129525
 21
-41.65124
 31
0.0
  0
LINE
  5
5E5
100
AcDbEntity
  8
3
370
    50
100
AcDbLine
 10
244.129525
 20
-62.65124
 30
0.0
 11
246.129525
 21
-62.65124
 31
0.0
  0
LINE
  5
5E6
100
AcDbEntity
  8
3
370
    50
100
AcDbLine
 10
244.129525
 20
-62.65124
 30
0.0
 11
244.129525
 21
-60.45124
 31
0.0
  0
LINE
  5
5E7
100
AcDbEntity
  8
3
370
    50
100
AcDbLine
 10
244.129525
 20
-43.85124
 30
0.0
 11
244.129525
 21
-41.65124
 31
0.0
  0
ARC
  5
5E8
100
AcDbEntity
  8
3
370
    50
100
AcDbCircle
 10
252.379525
 20
-50.15124
 30
0.0
 40
14.0
100
AcDbArc
 50
63.485225
 51
116.514775
  0
ARC
  5
5E9
100
AcDbEntity
  8
3
370
    50
100
AcDbCircle
 10
252.379525
 20
-54.15124
 30
0.0
 40
14.0
100
AcDbArc
 50
243.485225
 51
296.514775
  0
LINE
  5
5EA
100
AcDbEntity
  8
3
370
    50
100
AcDbLine
 10
246.129525
 20
-66.67871
 30
0.0
 11
246.129525
 21
-52.15124
 31
0.0
  0
LINE
  5
5EB
100
AcDbEntity
  8
3
370
    50
100
AcDbLine
 10
246.129525
 20
-63.20124
 30
0.0
 11
246.129525
 21
-62.65124
 31
0.0
  0
LINE
  5
5EC
100
AcDbEntity
  8
3
370
    50
100
AcDbLine
 10
246.129525
 20
-52.15124
 30
0.0
 11
246.129525
 21
-37.62377
 31
0.0
  0
LINE
  5
5ED
100
AcDbEntity
  8
3
370
    50
100
AcDbLine
 10
258.629525
 20
-66.67871
 30
0.0
 11
258.629525
 21
-52.15124
 31
0.0
  0
LINE
  5
5EE
100
AcDbEntity
  8
3
370
    50
100
AcDbLine
 10
258.629525
 20
-52.15124
 30
0.0
 11
258.629525
 21
-37.62377
 31
0.0
  0
ELLIPSE
  5
5EF
100
AcDbEntity
  8
3
370
    50
100
AcDbEllipse
 10
252.379525
 20
-52.15124
 30
0.0
 11
0.0
 21
-5.5679999999999996
 31
0.0
210
0.0
220
0.0
230
1.0
 40
0.76329
 41
4.7123889999999999
 42
1.5707960000000001
  0
ELLIPSE
  5
5F0
100
AcDbEntity
  8
3
370
    50
100
AcDbEllipse
 10
252.379525
 20
-65.141621
 30
0.0
 11
4.25
 21
0.0
 31
0.0
210
0.0
220
0.0
230
1.0
 40
0.655059
 41
0.0
 42
6.2831849999999996
  0
ELLIPSE
  5
5F1
100
AcDbEntity
  8
3
370
    50
100
AcDbEllipse
 10
252.379525
 20
-52.15124
 30
0.0
 11
0.0
 21
5.5679999999999996
 31
0.0
210
0.0
220
0.0
230
1.0
 40
0.76329
 41
4.7123889999999999
 42
1.5707960000000001
  0
ELLIPSE
  5
5F2
100
AcDbEntity
  8
3
370
    50
100
AcDbEllipse
 10
252.379525
 20
-39.160859
 30
0.0
 11
-4.25
 21
0.0
 31
0.0
210
0.0
220
0.0
230
1.0
 40
0.655059
 41
0.0
 42
6.2831849999999996
  0
ARC
  5
5F3
100
AcDbEntity
  8
3
370
    50
100
AcDbCircle
 10
216.854525
 20
-89.65124
 30
0.0
 40
5.0
100
AcDbArc
 50
180.0
 51
270.0
  0
ARC
  5
5F4
100
AcDbEntity
  8
3
370
    50
100
AcDbCircle
 10
234.199239
 20
-89.65124
 30
0.0
 40
8.205286
100
AcDbArc
 50
0.0
 51
37.543478
  0
ARC
  5
5F5
100
AcDbEntity
  8
3
370
    50
100
AcDbCircle
 10
237.404525
 20
-89.65124
 30
0.0
 40
5.0
100
AcDbArc
 50
270.0
 51
360.0
  0
ARC
  5
5F6
100
AcDbEntity
  8
3
370
    50
100
AcDbCircle
 10
220.059811
 20
-89.65124
 30
0.0
 40
8.205286
100
AcDbArc
 50
142.456522
 51
180.0
  0
LINE
  5
5F7
100
AcDbEntity
  8
3
370
    50
100
AcDbLine
 10
213.553912
 20
-84.65124
 30
0.0
 11
227.129525
 21
-84.65124
 31
0.0
  0
LINE
  5
5F8
100
AcDbEntity
  8
3
370
    50
100
AcDbLine
 10
240.705137
 20
-84.65124
 30
0.0
 11
227.129525
 21
-84.65124
 31
0.0
  0
LINE
  5
5F9
100
AcDbEntity
  8
3
370
    50
100
AcDbLine
 10
216.854525
 20
-94.65124
 30
0.0
 11
227.129525
 21
-94.65124
 31
0.0
  0
LINE
  5
5FA
100
AcDbEntity
  8
3
370
    50
100
AcDbLine
 10
227.129525
 20
-94.65124
 30
0.0
 11
237.404525
 21
-94.65124
 31
0.0
  0
ELLIPSE
  5
5FB
100
AcDbEntity
  8
3
370
    50
100
AcDbEllipse
 10
227.129525
 20
-89.122435
 30
0.0
 11
-6.10947
 21
0.0
 31
0.0
210
0.0
220
0.0
230
1.0
 40
0.632482
 41
4.7123889999999999
 42
1.5707960000000001
  0
ELLIPSE
  5
5FC
100
AcDbEntity
  8
3
370
    50
100
AcDbEllipse
 10
215.005169
 20
-89.122435
 30
0.0
 11
0.0
 21
-3.8641269999999999
 31
0.0
210
0.0
220
0.0
230
1.0
 40
0.790537
 41
0.0
 42
6.2831849999999996
  0
ELLIPSE
  5
5FD
100
AcDbEntity
  8
3
370
    50
100
AcDbEllipse
 10
227.129525
 20
-89.122435
 30
0.0
 11
6.10947
 21
0.0
 31
0.0
210
0.0
220
0.0
230
1.0
 40
0.632482
 41
4.7123889999999999
 42
1.5707960000000001
  0
ELLIPSE
  5
5FE
100
AcDbEntity
  8
3
370
    50
100
AcDbEllipse
 10
239.25388
 20
-89.122435
 30
0.0
 11
0.0
 21
3.8641269999999999
 31
0.0
210
0.0
220
0.0
230
1.0
 40
0.790537
 41
0.0
 42
6.2831849999999996
  0
LINE
  5
5FF
100
AcDbEntity
  8
3
370
    50
100
AcDbLine
 10
258.929525
 20
-67.15124
 30
0.0
 11
258.929525
 21
-75.15124
 31
0.0
  0
LINE
  5
600
100
AcDbEntity
  8
3
370
    50
100
AcDbLine
 10
258.629525
 20
-67.15124
 30
0.0
 11
258.929525
 21
-67.15124
 31
0.0
  0
LINE
  5
601
100
AcDbEntity
  8
3
370
    25
100
AcDbLine
 10
259.929525
 20
-68.883291
 30
0.0
 11
259.929525
 21
-76.15124
 31
0.0
  0
LINE
  5
602
100
AcDbEntity
  8
3
370
    50
100
AcDbLine
 10
258.629525
 20
-64.25124
 30
0.0
 11
258.629525
 21
-67.15124
 31
0.0
  0
LINE
  5
603
100
AcDbEntity
  8
3
370
    50
100
AcDbLine
 10
259.929525
 20
-76.15124
 30
0.0
 11
258.929525
 21
-75.15124
 31
0.0
  0
LINE
  5
604
100
AcDbEntity
  8
3
370
    50
100
AcDbLine
 10
260.429525
 20
-77.15124
 30
0.0
 11
270.629776
 21
-77.15124
 31
0.0
  0
LINE
  5
605
100
AcDbEntity
  8
3
370
    50
100
AcDbLine
 10
260.429525
 20
-76.15124
 30
0.0
 11
260.429525
 21
-77.15124
 31
0.0
  0
LINE
  5
606
100
AcDbEntity
  8
3
370
    50
100
AcDbLine
 10
259.929525
 20
-76.15124
 30
0.0
 11
260.429525
 21
-76.15124
 31
0.0
  0
LINE
  5
607
100
AcDbEntity
  8
3
370
    50
100
AcDbLine
 10
258.929525
 20
-67.15124
 30
0.0
 11
259.929525
 21
-68.883291
 31
0.0
  0
LINE
  5
608
100
AcDbEntity
  8
3
370
    25
100
AcDbLine
 10
270.629776
 20
-68.883291
 30
0.0
 11
259.929525
 21
-68.883291
 31
0.0
  0
LINE
  5
609
100
AcDbEntity
  8
3
370
    50
100
AcDbLine
 10
258.929525
 20
-67.15124
 30
0.0
 11
270.629776
 21
-67.15124
 31
0.0
  0
LINE
  5
60A
100
AcDbEntity
  8
3
370
    25
100
AcDbLine
 10
258.929525
 20
-75.15124
 30
0.0
 11
270.629776
 21
-75.15124
 31
0.0
  0
LINE
  5
60B
100
AcDbEntity
  8
3
370
    50
100
AcDbLine
 10
270.629776
 20
-76.15124
 30
0.0
 11
260.429525
 21
-76.15124
 31
0.0
  0
LINE
  5
60C
100
AcDbEntity
  8
3
370
    50
100
AcDbLine
 10
227.129525
 20
-74.15124
 30
0.0
 11
216.629525
 21
-74.15124
 31
0.0
  0
LINE
  5
60D
100
AcDbEntity
  8
3
370
    50
100
AcDbLine
 10
237.629525
 20
-74.15124
 30
0.0
 11
234.129525
 21
-74.15124
 31
0.0
  0
LINE
  5
60E
100
AcDbEntity
  8
3
370
    50
100
AcDbLine
 10
239.275573
 20
-89.65124
 30
0.0
 11
239.129525
 21
-89.65124
 31
0.0
  0
LINE
  5
60F
100
AcDbEntity
  8
3
370
    50
100
AcDbLine
 10
234.129525
 20
-74.15124
 30
0.0
 11
227.129525
 21
-74.15124
 31
0.0
  0
LINE
  5
610
100
AcDbEntity
  8
3
370
    50
100
AcDbLine
 10
216.629525
 20
-74.15124
 30
0.0
 11
214.183476
 21
-77.066327
 31
0.0
  0
LINE
  5
611
100
AcDbEntity
  8
3
370
    50
100
AcDbLine
 10
240.075573
 20
-77.066327
 30
0.0
 11
240.075573
 21
-84.65124
 31
0.0
  0
LINE
  5
612
100
AcDbEntity
  8
3
370
    50
100
AcDbLine
 10
214.183476
 20
-77.066327
 30
0.0
 11
214.183476
 21
-84.65124
 31
0.0
  0
LINE
  5
613
100
AcDbEntity
  8
3
370
    25
100
AcDbLine
 10
239.275573
 20
-76.112924
 30
0.0
 11
239.275573
 21
-84.65124
 31
0.0
  0
LINE
  5
614
100
AcDbEntity
  8
3
370
    50
100
AcDbLine
 10
220.129525
 20
-74.15124
 30
0.0
 11
216.629525
 21
-74.15124
 31
0.0
  0
LINE
  5
615
100
AcDbEntity
  8
3
370
    50
100
AcDbLine
 10
237.629525
 20
-74.15124
 30
0.0
 11
234.129525
 21
-74.15124
 31
0.0
  0
LINE
  5
616
100
AcDbEntity
  8
3
370
    50
100
AcDbLine
 10
234.129525
 20
-74.15124
 30
0.0
 11
227.129525
 21
-74.15124
 31
0.0
  0
LINE
  5
617
100
AcDbEntity
  8
3
370
    50
100
AcDbLine
 10
216.629525
 20
-74.15124
 30
0.0
 11
214.183476
 21
-77.066327
 31
0.0
  0
LINE
  5
618
100
AcDbEntity
  8
3
370
    50
100
AcDbLine
 10
237.629525
 20
-74.15124
 30
0.0
 11
240.075573
 21
-77.066327
 31
0.0
  0
LINE
  5
619
100
AcDbEntity
  8
3
370
    25
100
AcDbLine
 10
239.275573
 20
-76.112924
 30
0.0
 11
234.129525
 21
-76.112924
 31
0.0
  0
LINE
  5
61A
100
AcDbEntity
  8
3
370
    50
100
AcDbLine
 10
240.075573
 20
-82.265599
 30
0.0
 11
236.286927
 21
-82.265599
 31
0.0
  0
LINE
  5
61B
100
AcDbEntity
  8
3
370
    25
100
AcDbLine
 10
214.983476
 20
-76.112924
 30
0.0
 11
227.129525
 21
-76.112924
 31
0.0
  0
LINE
  5
61C
100
AcDbEntity
  8
3
370
    50
100
AcDbLine
 10
222.888063
 20
-76.112924
 30
0.0
 11
222.888063
 21
-82.265599
 31
0.0
  0
LINE
  5
61D
100
AcDbEntity
  8
3
370
    50
100
AcDbLine
 10
214.183476
 20
-82.265599
 30
0.0
 11
224.972122
 21
-82.265599
 31
0.0
  0
LINE
  5
61E
100
AcDbEntity
  8
3
370
    50
100
AcDbLine
 10
218.424938
 20
-76.112924
 30
0.0
 11
218.424938
 21
-82.265599
 31
0.0
  0
LINE
  5
61F
100
AcDbEntity
  8
3
370
    50
100
AcDbLine
 10
69.229525
 20
-138.34524
 30
0.0
 11
69.229525
 21
-142.34524
 31
0.0
  0
ARC
  5
620
100
AcDbEntity
  8
3
370
    50
100
AcDbCircle
 10
68.479525
 20
-143.34524
 30
0.0
 40
0.5
100
AcDbArc
 50
90.0
 51
180.0
  0
LINE
  5
621
100
AcDbEntity
  8
3
370
    50
100
AcDbLine
 10
77.229525
 20
-130.34524
 30
0.0
 11
101.229525
 21
-130.34524
 31
0.0
  0
ARC
  5
622
100
AcDbEntity
  8
3
370
    50
100
AcDbCircle
 10
77.229525
 20
-138.34524
 30
0.0
 40
8.0
100
AcDbArc
 50
90.0
 51
180.0
  0
ARC
  5
623
100
AcDbEntity
  8
3
370
    50
100
AcDbCircle
 10
68.729525
 20
-142.34524
 30
0.0
 40
0.5
100
AcDbArc
 50
270.0
 51
360.0
  0
LINE
  5
624
100
AcDbEntity
  8
3
370
    50
100
AcDbLine
 10
67.979525
 20
-143.34524
 30
0.0
 11
67.979525
 21
-143.44524
 31
0.0
  0
LINE
  5
625
100
AcDbEntity
  8
3
370
    50
100
AcDbLine
 10
68.729525
 20
-142.84524
 30
0.0
 11
45.729525
 21
-142.84524
 31
0.0
  0
ARC
  5
626
100
AcDbEntity
  8
3
370
    50
100
AcDbCircle
 10
101.229525
 20
-121.84524
 30
0.0
 40
8.5
100
AcDbArc
 50
270.0
 51
298.072487
  0
LINE
  5
627
100
AcDbEntity
  8
3
370
    50
100
AcDbLine
 10
105.229525
 20
-107.34524
 30
0.0
 11
105.229525
 21
-129.34524
 31
0.0
  0
LINE
  5
628
100
AcDbEntity
  8
3
370
    50
100
AcDbLine
 10
77.229525
 20
-106.34524
 30
0.0
 11
101.229525
 21
-106.34524
 31
0.0
  0
ARC
  5
629
100
AcDbEntity
  8
3
370
    50
100
AcDbCircle
 10
77.229525
 20
-138.34524
 30
0.0
 40
32.0
100
AcDbArc
 50
90.0
 51
180.0
  0
LINE
  5
62A
100
AcDbEntity
  8
3
370
    50
100
AcDbLine
 10
45.229525
 20
-138.34524
 30
0.0
 11
45.229525
 21
-142.34524
 31
0.0
  0
ARC
  5
62B
100
AcDbEntity
  8
3
370
    50
100
AcDbCircle
 10
45.729525
 20
-142.34524
 30
0.0
 40
0.5
100
AcDbArc
 50
180.0
 51
270.0
  0
LINE
  5
62C
100
AcDbEntity
  8
3
370
    50
100
AcDbLine
 10
46.479525
 20
-143.34524
 30
0.0
 11
46.479525
 21
-143.44524
 31
0.0
  0
ARC
  5
62D
100
AcDbEntity
  8
3
370
    50
100
AcDbCircle
 10
45.979525
 20
-143.34524
 30
0.0
 40
0.5
100
AcDbArc
 50
0.0
 51
90.0
  0
ARC
  5
62E
100
AcDbEntity
  8
3
370
    50
100
AcDbCircle
 10
101.229525
 20
-114.84524
 30
0.0
 40
8.5
100
AcDbArc
 50
61.927513
 51
90.0
  0
LINE
  5
62F
100
AcDbEntity
  8
3
370
    50
100
AcDbLine
 10
105.229525
 20
-110.44524
 30
0.0
 11
207.229525
 21
-110.44524
 31
0.0
  0
LINE
  5
630
100
AcDbEntity
  8
3
370
    50
100
AcDbLine
 10
105.229525
 20
-126.24524
 30
0.0
 11
207.229525
 21
-126.24524
 31
0.0
  0
LINE
  5
631
100
AcDbEntity
  8
3
370
    50
100
AcDbLine
 10
235.129525
 20
-98.34524
 30
0.0
 11
235.129525
 21
-94.65124
 31
0.0
  0
LINE
  5
632
100
AcDbEntity
  8
3
370
    50
100
AcDbLine
 10
219.329525
 20
-98.34524
 30
0.0
 11
219.329525
 21
-94.65124
 31
0.0
  0
ARC
  5
633
100
AcDbEntity
  8
3
370
    50
100
AcDbCircle
 10
207.229525
 20
-98.34524
 30
0.0
 40
12.1
100
AcDbArc
 50
270.0
 51
360.0
  0
ARC
  5
634
100
AcDbEntity
  8
3
370
    50
100
AcDbCircle
 10
207.229525
 20
-98.34524
 30
0.0
 40
27.9
100
AcDbArc
 50
270.0
 51
360.0
  0
LINE
  5
635
100
AcDbEntity
  8
3
370
    50
100
AcDbLine
 10
69.029525
 20
-143.44524
 30
0.0
 11
45.429525
 21
-143.44524
 31
0.0
  0
LINE
  5
636
100
AcDbEntity
  8
3
370
    50
100
AcDbLine
 10
69.229525
 20
-143.64524
 30
0.0
 11
69.029525
 21
-143.44524
 31
0.0
  0
LINE
  5
637
100
AcDbEntity
  8
3
370
    50
100
AcDbLine
 10
69.229525
 20
-143.64524
 30
0.0
 11
69.229525
 21
-151.44524
 31
0.0
  0
LINE
  5
638
100
AcDbEntity
  8
3
370
    50
100
AcDbLine
 10
69.229525
 20
-151.44524
 30
0.0
 11
68.852179
 21
-154.086661
 31
0.0
  0
ARC
  5
639
100
AcDbEntity
  8
3
370
    50
100
AcDbCircle
 10
67.862229
 20
-153.94524
 30
0.0
 40
1.0
100
AcDbArc
 50
270.0
 51
351.869898
  0
LINE
  5
63A
100
AcDbEntity
  8
3
370
    50
100
AcDbLine
 10
46.59682
 20
-154.94524
 30
0.0
 11
67.862229
 21
-154.94524
 31
0.0
  0
ARC
  5
63B
100
AcDbEntity
  8
3
370
    50
100
AcDbCircle
 10
46.59682
 20
-153.94524
 30
0.0
 40
1.0
100
AcDbArc
 50
188.130102
 51
270.0
  0
LINE
  5
63C
100
AcDbEntity
  8
3
370
    50
100
AcDbLine
 10
45.229525
 20
-151.44524
 30
0.0
 11
45.606871
 21
-154.086661
 31
0.0
  0
LINE
  5
63D
100
AcDbEntity
  8
3
370
    50
100
AcDbLine
 10
45.229525
 20
-143.64524
 30
0.0
 11
45.229525
 21
-151.44524
 31
0.0
  0
LINE
  5
63E
100
AcDbEntity
  8
3
370
    50
100
AcDbLine
 10
45.229525
 20
-143.64524
 30
0.0
 11
45.429525
 21
-143.44524
 31
0.0
  0
LINE
  5
63F
100
AcDbEntity
  8
3
370
    25
100
AcDbLine
 10
77.229525
 20
-110.34524
 30
0.0
 11
101.229525
 21
-110.34524
 31
0.0
  0
ARC
  5
640
100
AcDbEntity
  8
3
370
    25
100
AcDbCircle
 10
77.229525
 20
-138.34524
 30
0.0
 40
28.0
100
AcDbArc
 50
90.0
 51
180.0
  0
LINE
  5
641
100
AcDbEntity
  8
3
370
    25
100
AcDbLine
 10
77.229525
 20
-126.34524
 30
0.0
 11
101.229525
 21
-126.34524
 31
0.0
  0
ARC
  5
642
100
AcDbEntity
  8
3
370
    25
100
AcDbCircle
 10
77.229525
 20
-138.34524
 30
0.0
 40
12.0
100
AcDbArc
 50
90.0
 51
180.0
  0
LINE
  5
643
100
AcDbEntity
  8
3
370
    50
100
AcDbLine
 10
46.59682
 20
-150.94524
 30
0.0
 11
67.862229
 21
-150.94524
 31
0.0
  0
POINT
  5
644
100
AcDbEntity
  8
3
370
    50
100
AcDbPoint
 10
57.229525
 20
-154.94524
 30
0.0
  0
LINE
  5
645
100
AcDbEntity
  8
3
370
    25
  6
CENTER
100
AcDbLine
 10
275.437866
 20
-52.15124
 30
0.0
 11
221.338715
 21
-52.15124
 31
0.0
  0
LINE
  5
646
100
AcDbEntity
  8
3
370
    25
100
AcDbLine
 10
321.829776
 20
-102.83574
 30
0.0
 11
304.829776
 21
-102.83574
 31
0.0
  0
LINE
  5
647
100
AcDbEntity
  8
3
370
    50
100
AcDbLine
 10
292.829776
 20
-101.67374
 30
0.0
 11
294.842419
 21
-102.83574
 31
0.0
  0
LINE
  5
648
100
AcDbEntity
  8
3
370
    50
100
AcDbLine
 10
285.829776
 20
-38.15124
 30
0.0
 11
285.829776
 21
-88.490986
 31
0.0
  0
LINE
  5
649
100
AcDbEntity
  8
3
370
    50
100
AcDbLine
 10
292.829776
 20
-122.62874
 30
0.0
 11
294.842419
 21
-121.46674
 31
0.0
  0
LINE
  5
64A
100
AcDbEntity
  8
3
370
    25
100
AcDbLine
 10
321.829776
 20
-121.46674
 30
0.0
 11
304.829776
 21
-121.46674
 31
0.0
  0
LINE
  5
64B
100
AcDbEntity
  8
3
370
    50
100
AcDbLine
 10
321.829776
 20
-102.83574
 30
0.0
 11
321.829776
 21
-121.46674
 31
0.0
  0
LINE
  5
64C
100
AcDbEntity
  8
3
370
    50
100
AcDbLine
 10
321.829776
 20
-102.83574
 30
0.0
 11
320.667776
 21
-101.67374
 31
0.0
  0
LINE
  5
64D
100
AcDbEntity
  8
3
370
    50
100
AcDbLine
 10
321.829776
 20
-121.46674
 30
0.0
 11
320.667776
 21
-122.62874
 31
0.0
  0
LINE
  5
64E
100
AcDbEntity
  8
3
370
    50
100
AcDbLine
 10
271.129776
 20
-99.55124
 30
0.0
 11
271.129776
 21
-96.15124
 31
0.0
  0
LINE
  5
64F
100
AcDbEntity
  8
3
370
    25
  6
CENTER
100
AcDbLine
 10
328.016042
 20
-112.15124
 30
0.0
 11
268.067894
 21
-112.15124
 31
0.0
  0
LINE
  5
650
100
AcDbEntity
  8
3
370
    50
100
AcDbLine
 10
291.829776
 20
-127.15124
 30
0.0
 11
271.129776
 21
-127.15124
 31
0.0
  0
LINE
  5
651
100
AcDbEntity
  8
3
370
    50
100
AcDbLine
 10
271.129776
 20
-96.15124
 30
0.0
 11
270.629776
 21
-96.15124
 31
0.0
  0
LINE
  5
652
100
AcDbEntity
  8
3
370
    50
100
AcDbLine
 10
291.829776
 20
-127.15124
 30
0.0
 11
292.829776
 21
-126.15124
 31
0.0
  0
LINE
  5
653
100
AcDbEntity
  8
3
370
    50
100
AcDbLine
 10
270.629776
 20
-96.15124
 30
0.0
 11
270.629776
 21
-87.15124
 31
0.0
  0
LINE
  5
654
100
AcDbEntity
  8
3
370
    50
100
AcDbLine
 10
270.629776
 20
-87.15124
 30
0.0
 11
270.629776
 21
-65.35124
 31
0.0
  0
LINE
  5
655
100
AcDbEntity
  8
3
370
    50
100
AcDbLine
 10
291.829776
 20
-97.15124
 30
0.0
 11
292.829776
 21
-98.15124
 31
0.0
  0
LINE
  5
656
100
AcDbEntity
  8
3
370
    50
100
AcDbLine
 10
292.829776
 20
-101.67374
 30
0.0
 11
292.829776
 21
-98.15124
 31
0.0
  0
LINE
  5
657
100
AcDbEntity
  8
3
370
    50
100
AcDbLine
 10
292.829776
 20
-122.62874
 30
0.0
 11
292.829776
 21
-126.15124
 31
0.0
  0
ARC
  5
658
100
AcDbEntity
  8
3
370
    50
100
AcDbCircle
 10
295.829776
 20
-87.986088
 30
0.0
 40
10.0
100
AcDbArc
 50
180.0
 51
246.421822
  0
LINE
  5
659
100
AcDbEntity
  8
3
370
    50
100
AcDbLine
 10
265.929776
 20
-112.15124
 30
0.0
 11
265.929776
 21
-99.15124
 31
0.0
  0
LINE
  5
65A
100
AcDbEntity
  8
3
370
    50
100
AcDbLine
 10
268.429776
 20
-96.65124
 30
0.0
 11
270.629776
 21
-96.65124
 31
0.0
  0
LINE
  5
65B
100
AcDbEntity
  8
3
370
    50
100
AcDbLine
 10
271.129776
 20
-112.15124
 30
0.0
 11
271.129776
 21
-97.15124
 31
0.0
  0
LINE
  5
65C
100
AcDbEntity
  8
3
370
    50
100
AcDbLine
 10
265.929776
 20
-99.15124
 30
0.0
 11
268.429776
 21
-96.65124
 31
0.0
  0
LINE
  5
65D
100
AcDbEntity
  8
3
370
    50
100
AcDbLine
 10
268.429776
 20
-127.65124
 30
0.0
 11
270.629776
 21
-127.65124
 31
0.0
  0
LINE
  5
65E
100
AcDbEntity
  8
3
370
    50
100
AcDbLine
 10
271.129776
 20
-112.15124
 30
0.0
 11
271.129776
 21
-127.15124
 31
0.0
  0
LINE
  5
65F
100
AcDbEntity
  8
3
370
    50
100
AcDbLine
 10
270.629776
 20
-127.65124
 30
0.0
 11
271.129776
 21
-127.15124
 31
0.0
  0
LINE
  5
660
100
AcDbEntity
  8
3
370
    50
100
AcDbLine
 10
271.129776
 20
-97.15124
 30
0.0
 11
270.629776
 21
-96.65124
 31
0.0
  0
LINE
  5
661
100
AcDbEntity
  8
3
370
    50
100
AcDbLine
 10
268.429776
 20
-127.65124
 30
0.0
 11
265.929776
 21
-125.15124
 31
0.0
  0
LINE
  5
662
100
AcDbEntity
  8
3
370
    50
100
AcDbLine
 10
265.929776
 20
-125.15124
 30
0.0
 11
265.929776
 21
-112.15124
 31
0.0
  0
LINE
  5
663
100
AcDbEntity
  8
3
370
    50
100
AcDbLine
 10
266.229776
 20
-112.90124
 30
0.0
 11
267.429776
 21
-112.90124
 31
0.0
  0
LINE
  5
664
100
AcDbEntity
  8
3
370
    50
100
AcDbLine
 10
265.929776
 20
-113.20124
 30
0.0
 11
266.229776
 21
-112.90124
 31
0.0
  0
LINE
  5
665
100
AcDbEntity
  8
3
370
    50
100
AcDbLine
 10
267.429776
 20
-112.90124
 30
0.0
 11
267.429776
 21
-112.15124
 31
0.0
  0
POINT
  5
666
100
AcDbEntity
  8
3
370
    50
100
AcDbPoint
 10
265.929776
 20
-112.15124
 30
0.0
  0
POINT
  5
667
100
AcDbEntity
  8
3
370
    50
100
AcDbPoint
 10
264.929776
 20
-112.15124
 30
0.0
  0
LINE
  5
668
100
AcDbEntity
  8
3
370
    50
100
AcDbLine
 10
266.229776
 20
-112.90124
 30
0.0
 11
266.229776
 21
-112.15124
 31
0.0
  0
LINE
  5
669
100
AcDbEntity
  8
3
370
    50
100
AcDbLine
 10
267.429776
 20
-111.40124
 30
0.0
 11
267.429776
 21
-112.15124
 31
0.0
  0
LINE
  5
66A
100
AcDbEntity
  8
3
370
    50
100
AcDbLine
 10
266.229776
 20
-111.40124
 30
0.0
 11
267.429776
 21
-111.40124
 31
0.0
  0
LINE
  5
66B
100
AcDbEntity
  8
3
370
    50
100
AcDbLine
 10
265.929776
 20
-111.10124
 30
0.0
 11
266.229776
 21
-111.40124
 31
0.0
  0
LINE
  5
66C
100
AcDbEntity
  8
3
370
    50
100
AcDbLine
 10
266.229776
 20
-111.40124
 30
0.0
 11
266.229776
 21
-112.15124
 31
0.0
  0
LINE
  5
66D
100
AcDbEntity
  8
3
370
    25
100
AcDbLine
 10
268.429776
 20
-96.65124
 30
0.0
 11
268.429776
 21
-127.65124
 31
0.0
  0
LINE
  5
66E
100
AcDbEntity
  8
3
370
    25
100
AcDbLine
 10
270.629776
 20
-127.65124
 30
0.0
 11
270.629776
 21
-96.65124
 31
0.0
  0
LINE
  5
66F
100
AcDbEntity
  8
3
370
    25
100
AcDbLine
 10
320.667776
 20
-101.67374
 30
0.0
 11
320.667776
 21
-122.62874
 31
0.0
  0
LINE
  5
670
100
AcDbEntity
  8
3
370
    50
100
AcDbLine
 10
294.842419
 20
-121.46674
 30
0.0
 11
294.842419
 21
-102.83574
 31
0.0
  0
LINE
  5
671
100
AcDbEntity
  8
3
370
    50
100
AcDbLine
 10
292.829776
 20
-101.67374
 30
0.0
 11
292.829776
 21
-122.62874
 31
0.0
  0
LINE
  5
672
100
AcDbEntity
  8
3
370
    50
100
AcDbLine
 10
285.829776
 20
-38.15124
 30
0.0
 11
285.829776
 21
-88.490986
 31
0.0
  0
LINE
  5
673
100
AcDbEntity
  8
3
370
    50
100
AcDbLine
 10
270.629776
 20
-37.15124
 30
0.0
 11
284.829776
 21
-37.15124
 31
0.0
  0
ARC
  5
674
100
AcDbEntity
  8
3
370
    50
100
AcDbCircle
 10
284.829776
 20
-38.15124
 30
0.0
 40
1.0
100
AcDbArc
 50
0.0
 51
90.0
  0
LINE
  5
675
100
AcDbEntity
  8
3
370
    50
100
AcDbLine
 10
270.629776
 20
-65.35124
 30
0.0
 11
270.629776
 21
-38.95124
 31
0.0
  0
LINE
  5
676
100
AcDbEntity
  8
3
370
    50
100
AcDbLine
 10
258.629525
 20
-65.35124
 30
0.0
 11
270.629776
 21
-65.35124
 31
0.0
  0
LINE
  5
677
100
AcDbEntity
  8
3
370
    25
100
AcDbLine
 10
258.629525
 20
-64.25124
 30
0.0
 11
261.129776
 21
-64.25124
 31
0.0
  0
LINE
  5
678
100
AcDbEntity
  8
3
370
    50
100
AcDbLine
 10
261.129776
 20
-64.25124
 30
0.0
 11
263.035032
 21
-65.35124
 31
0.0
  0
LINE
  5
679
100
AcDbEntity
  8
3
370
    50
100
AcDbLine
 10
258.629525
 20
-38.95124
 30
0.0
 11
270.629776
 21
-38.95124
 31
0.0
  0
LINE
  5
67A
100
AcDbEntity
  8
3
370
    50
100
AcDbLine
 10
261.129776
 20
-40.05124
 30
0.0
 11
263.035032
 21
-38.95124
 31
0.0
  0
LINE
  5
67B
100
AcDbEntity
  8
3
370
    25
100
AcDbLine
 10
258.629525
 20
-40.05124
 30
0.0
 11
261.129776
 21
-40.05124
 31
0.0
  0
LINE
  5
67C
100
AcDbEntity
  8
3
370
    50
100
AcDbLine
 10
270.629776
 20
-37.15124
 30
0.0
 11
284.829776
 21
-37.15124
 31
0.0
  0
LINE
  5
67D
100
AcDbEntity
  8
3
370
    50
100
AcDbLine
 10
270.629776
 20
-38.95124
 30
0.0
 11
270.629776
 21
-37.15124
 31
0.0
  0
LINE
  5
67E
100
AcDbEntity
  8
3
370
    50
100
AcDbLine
 10
270.629776
 20
-87.15124
 30
0.0
 11
270.629776
 21
-65.35124
 31
0.0
  0
LINE
  5
67F
100
AcDbEntity
  8
3
370
    50
100
AcDbLine
 10
270.629776
 20
-65.35124
 30
0.0
 11
270.629776
 21
-38.95124
 31
0.0
  0
LINE
  5
680
100
AcDbEntity
  8
3
370
    25
100
AcDbLine
 10
261.129776
 20
-64.25124
 30
0.0
 11
261.129776
 21
-40.05124
 31
0.0
  0
LINE
  5
681
100
AcDbEntity
  8
3
370
    25
100
AcDbLine
 10
263.035032
 20
-38.95124
 30
0.0
 11
263.035032
 21
-65.35124
 31
0.0
  0
LINE
  5
682
100
AcDbEntity
  8
3
370
    25
  6
CENTER
100
AcDbLine
 10
180.129525
 20
-52.15124
 30
0.0
 11
236.129525
 21
-52.15124
 31
0.0
  0
LINE
  5
683
100
AcDbEntity
  8
3
370
    25
  6
CENTER
100
AcDbLine
 10
208.129525
 20
-80.15124
 30
0.0
 11
208.129525
 21
-24.15124
 31
0.0
  0
LINE
  5
684
100
AcDbEntity
  8
3
370
    50
100
AcDbLine
 10
4.826418
 20
197.818371
 30
0.0
 11
4.826418
 21
194.459491
 31
0.0
  0
LINE
  5
685
100
AcDbEntity
  8
3
370
    50
100
AcDbLine
 10
-41.173582
 20
197.818371
 30
0.0
 11
4.826418
 21
197.818371
 31
0.0
  0
ARC
  5
686
100
AcDbEntity
  8
3
370
    50
100
AcDbCircle
 10
-4.673582
 20
189.818371
 30
0.0
 40
2.0
100
AcDbArc
 50
270.0
 51
294.670512
  0
LINE
  5
687
100
AcDbEntity
  8
3
370
    50
100
AcDbLine
 10
4.243817
 20
193.550768
 30
0.0
 11
-3.838783
 21
188.000925
 31
0.0
  0
LINE
  5
688
100
AcDbEntity
  8
3
370
    50
100
AcDbLine
 10
-40.590982
 20
193.550768
 30
0.0
 11
-32.754072
 21
188.169626
 31
0.0
  0
ARC
  5
689
100
AcDbEntity
  8
3
370
    50
100
AcDbCircle
 10
3.826418
 20
194.459491
 30
0.0
 40
1.0
100
AcDbArc
 50
294.670512
 51
360.0
  0
LINE
  5
68A
100
AcDbEntity
  8
3
370
    50
100
AcDbLine
 10
-41.173582
 20
194.459491
 30
0.0
 11
-41.173582
 21
197.818371
 31
0.0
  0
LINE
  5
68B
100
AcDbEntity
  8
3
370
    50
100
AcDbLine
 10
-40.590982
 20
193.550768
 30
0.0
 11
-32.508381
 21
188.000925
 31
0.0
  0
ARC
  5
68C
100
AcDbEntity
  8
3
370
    50
100
AcDbCircle
 10
-40.173582
 20
194.459491
 30
0.0
 40
1.0
100
AcDbArc
 50
180.0
 51
245.329488
  0
LINE
  5
68D
100
AcDbEntity
  8
3
370
    50
100
AcDbLine
 10
-31.621976
 20
187.818371
 30
0.0
 11
-4.673582
 21
187.818371
 31
0.0
  0
LINE
  5
68E
100
AcDbEntity
  8
3
370
    25
100
AcDbLine
 10
-40.4343
 20
193.950805
 30
0.0
 11
3.986308
 21
193.950805
 31
0.0
  0
ARC
  5
68F
100
AcDbEntity
  8
3
370
    50
100
AcDbCircle
 10
-31.621976
 20
189.818371
 30
0.0
 40
2.0
100
AcDbArc
 50
235.52492
 51
270.0
  0
LINE
  5
690
100
AcDbEntity
  8
3
370
    50
100
AcDbLine
 10
-215.173582
 20
197.818371
 30
0.0
 11
-215.173582
 21
194.459491
 31
0.0
  0
LINE
  5
691
100
AcDbEntity
  8
3
370
    50
100
AcDbLine
 10
-261.173582
 20
197.818371
 30
0.0
 11
-215.173582
 21
197.818371
 31
0.0
  0
ARC
  5
692
100
AcDbEntity
  8
3
370
    50
100
AcDbCircle
 10
-224.673582
 20
189.818371
 30
0.0
 40
2.0
100
AcDbArc
 50
270.0
 51
294.670512
  0
LINE
  5
693
100
AcDbEntity
  8
3
370
    50
100
AcDbLine
 10
-215.756183
 20
193.550768
 30
0.0
 11
-223.838783
 21
188.000925
 31
0.0
  0
LINE
  5
694
100
AcDbEntity
  8
3
370
    50
100
AcDbLine
 10
-260.590982
 20
193.550768
 30
0.0
 11
-252.754072
 21
188.169626
 31
0.0
  0
ARC
  5
695
100
AcDbEntity
  8
3
370
    50
100
AcDbCircle
 10
-216.173582
 20
194.459491
 30
0.0
 40
1.0
100
AcDbArc
 50
294.670512
 51
360.0
  0
LINE
  5
696
100
AcDbEntity
  8
3
370
    50
100
AcDbLine
 10
-261.173582
 20
194.459491
 30
0.0
 11
-261.173582
 21
197.818371
 31
0.0
  0
LINE
  5
697
100
AcDbEntity
  8
3
370
    50
100
AcDbLine
 10
-260.590982
 20
193.550768
 30
0.0
 11
-252.508381
 21
188.000925
 31
0.0
  0
ARC
  5
698
100
AcDbEntity
  8
3
370
    50
100
AcDbCircle
 10
-260.173582
 20
194.459491
 30
0.0
 40
1.0
100
AcDbArc
 50
180.0
 51
245.329488
  0
LINE
  5
699
100
AcDbEntity
  8
3
370
    50
100
AcDbLine
 10
-251.621976
 20
187.818371
 30
0.0
 11
-224.673582
 21
187.818371
 31
0.0
  0
LINE
  5
69A
100
AcDbEntity
  8
3
370
    25
100
AcDbLine
 10
-260.4343
 20
193.950805
 30
0.0
 11
-216.013692
 21
193.950805
 31
0.0
  0
ARC
  5
69B
100
AcDbEntity
  8
3
370
    50
100
AcDbCircle
 10
-251.621976
 20
189.818371
 30
0.0
 40
2.0
100
AcDbArc
 50
235.52492
 51
270.0
  0
LINE
  5
69C
100
AcDbEntity
  8
3
370
    50
100
AcDbLine
 10
-28.651082
 20
185.818371
 30
0.0
 11
-28.651082
 21
187.818371
 31
0.0
  0
LINE
  5
69D
100
AcDbEntity
  8
3
370
    50
100
AcDbLine
 10
-28.651082
 20
197.818371
 30
0.0
 11
-28.651082
 21
213.656371
 31
0.0
  0
LINE
  5
69E
100
AcDbEntity
  8
3
370
    50
100
AcDbLine
 10
-7.696082
 20
185.818371
 30
0.0
 11
-7.696082
 21
187.818371
 31
0.0
  0
LINE
  5
69F
100
AcDbEntity
  8
3
370
    50
100
AcDbLine
 10
-7.696082
 20
197.818371
 30
0.0
 11
-7.696082
 21
213.656371
 31
0.0
  0
LINE
  5
6A0
100
AcDbEntity
  8
3
370
    50
100
AcDbLine
 10
-227.696082
 20
185.818371
 30
0.0
 11
-227.696082
 21
187.831014
 31
0.0
  0
LINE
  5
6A1
100
AcDbEntity
  8
3
370
    50
100
AcDbLine
 10
-227.696082
 20
197.818371
 30
0.0
 11
-227.696082
 21
213.656371
 31
0.0
  0
LINE
  5
6A2
100
AcDbEntity
  8
3
370
    50
100
AcDbLine
 10
-248.651082
 20
185.818371
 30
0.0
 11
-248.651082
 21
187.831014
 31
0.0
  0
LINE
  5
6A3
100
AcDbEntity
  8
3
370
    50
100
AcDbLine
 10
-248.651082
 20
197.818371
 30
0.0
 11
-248.651082
 21
213.656371
 31
0.0
  0
LINE
  5
6A4
100
AcDbEntity
  8
3
370
    50
100
AcDbLine
 10
304.829776
 20
-135.15124
 30
0.0
 11
301.470896
 21
-135.15124
 31
0.0
  0
LINE
  5
6A5
100
AcDbEntity
  8
3
370
    50
100
AcDbLine
 10
304.829776
 20
-89.15124
 30
0.0
 11
304.829776
 21
-135.15124
 31
0.0
  0
ARC
  5
6A6
100
AcDbEntity
  8
3
370
    50
100
AcDbCircle
 10
296.829776
 20
-125.65124
 30
0.0
 40
2.0
100
AcDbArc
 50
180.0
 51
204.670512
  0
LINE
  5
6A7
100
AcDbEntity
  8
3
370
    50
100
AcDbLine
 10
300.562173
 20
-134.568639
 30
0.0
 11
295.01233
 21
-126.486039
 31
0.0
  0
LINE
  5
6A8
100
AcDbEntity
  8
3
370
    50
100
AcDbLine
 10
300.562173
 20
-89.73384
 30
0.0
 11
295.181032
 21
-97.57075
 31
0.0
  0
ARC
  5
6A9
100
AcDbEntity
  8
3
370
    50
100
AcDbCircle
 10
301.470896
 20
-134.15124
 30
0.0
 40
1.0
100
AcDbArc
 50
204.670512
 51
270.0
  0
LINE
  5
6AA
100
AcDbEntity
  8
3
370
    50
100
AcDbLine
 10
301.470896
 20
-89.15124
 30
0.0
 11
304.829776
 21
-89.15124
 31
0.0
  0
LINE
  5
6AB
100
AcDbEntity
  8
3
370
    50
100
AcDbLine
 10
300.562173
 20
-89.73384
 30
0.0
 11
295.01233
 21
-97.816441
 31
0.0
  0
ARC
  5
6AC
100
AcDbEntity
  8
3
370
    50
100
AcDbCircle
 10
301.470896
 20
-90.15124
 30
0.0
 40
1.0
100
AcDbArc
 50
90.0
 51
155.329488
  0
LINE
  5
6AD
100
AcDbEntity
  8
3
370
    50
100
AcDbLine
 10
294.829776
 20
-98.702846
 30
0.0
 11
294.829776
 21
-125.65124
 31
0.0
  0
LINE
  5
6AE
100
AcDbEntity
  8
3
370
    25
100
AcDbLine
 10
300.962211
 20
-89.890522
 30
0.0
 11
300.962211
 21
-134.31113
 31
0.0
  0
ARC
  5
6AF
100
AcDbEntity
  8
3
370
    50
100
AcDbCircle
 10
296.829776
 20
-98.702846
 30
0.0
 40
2.0
100
AcDbArc
 50
145.52492
 51
180.0
  0
LINE
  5
6B0
100
AcDbEntity
  8
3
370
    50
100
AcDbLine
 10
292.829776
 20
-101.67374
 30
0.0
 11
294.829776
 21
-101.67374
 31
0.0
  0
LINE
  5
6B1
100
AcDbEntity
  8
3
370
    50
100
AcDbLine
 10
304.829776
 20
-101.67374
 30
0.0
 11
320.667776
 21
-101.67374
 31
0.0
  0
LINE
  5
6B2
100
AcDbEntity
  8
3
370
    50
100
AcDbLine
 10
292.829776
 20
-122.62874
 30
0.0
 11
294.842419
 21
-122.62874
 31
0.0
  0
LINE
  5
6B3
100
AcDbEntity
  8
3
370
    50
100
AcDbLine
 10
304.829776
 20
-122.62874
 30
0.0
 11
320.667776
 21
-122.62874
 31
0.0
  0
LINE
  5
6B4
100
AcDbEntity
  8
3
370
    25
  6
CENTER
100
AcDbLine
 10
-238.173582
 20
217.710816
 30
0.0
 11
-238.173582
 21
153.443161
 31
0.0
  0
LINE
  5
6B5
100
AcDbEntity
  8
3
370
    50
100
AcDbLine
 10
-97.173582
 20
-77.15124
 30
0.0
 11
-82.173582
 21
-77.15124
 31
0.0
  0
LINE
  5
6B6
100
AcDbEntity
  8
3
370
    50
100
AcDbLine
 10
-97.173582
 20
-81.85124
 30
0.0
 11
-82.173582
 21
-81.85124
 31
0.0
  0
LINE
  5
6B7
100
AcDbEntity
  8
3
370
    50
100
AcDbLine
 10
-82.173582
 20
-77.15124
 30
0.0
 11
-82.173582
 21
-81.85124
 31
0.0
  0
ARC
  5
6B8
100
AcDbEntity
  8
3
370
    50
100
AcDbCircle
 10
-89.673582
 20
-52.803865
 30
0.0
 40
30.0
100
AcDbArc
 50
255.522488
 51
284.477512
  0
LINE
  5
6B9
100
AcDbEntity
  8
3
370
    50
100
AcDbLine
 10
-82.673582
 20
-77.15124
 30
0.0
 11
-82.673582
 21
-81.85124
 31
0.0
  0
LINE
  5
6BA
100
AcDbEntity
  8
3
370
    50
100
AcDbLine
 10
-83.273582
 20
-77.15124
 30
0.0
 11
-83.273582
 21
-81.85124
 31
0.0
  0
LINE
  5
6BB
100
AcDbEntity
  8
3
370
    50
100
AcDbLine
 10
-83.973582
 20
-77.15124
 30
0.0
 11
-83.973582
 21
-81.85124
 31
0.0
  0
LINE
  5
6BC
100
AcDbEntity
  8
3
370
    50
100
AcDbLine
 10
-84.973582
 20
-77.15124
 30
0.0
 11
-84.973582
 21
-81.85124
 31
0.0
  0
LINE
  5
6BD
100
AcDbEntity
  8
3
370
    50
100
AcDbLine
 10
-86.173582
 20
-77.15124
 30
0.0
 11
-86.173582
 21
-81.85124
 31
0.0
  0
LINE
  5
6BE
100
AcDbEntity
  8
3
370
    50
100
AcDbLine
 10
-87.373582
 20
-77.15124
 30
0.0
 11
-87.373582
 21
-81.85124
 31
0.0
  0
LINE
  5
6BF
100
AcDbEntity
  8
3
370
    50
100
AcDbLine
 10
-86.173582
 20
-74.15124
 30
0.0
 11
-86.173582
 21
-77.15124
 31
0.0
  0
LINE
  5
6C0
100
AcDbEntity
  8
3
370
    50
100
AcDbLine
 10
-93.173582
 20
-74.15124
 30
0.0
 11
-93.173582
 21
-77.15124
 31
0.0
  0
LINE
  5
6C1
100
AcDbEntity
  8
3
370
    50
100
AcDbLine
 10
-97.173582
 20
-77.15124
 30
0.0
 11
-97.173582
 21
-81.85124
 31
0.0
  0
LINE
  5
6C2
100
AcDbEntity
  8
3
370
    50
100
AcDbLine
 10
-88.573582
 20
-77.15124
 30
0.0
 11
-88.573582
 21
-81.85124
 31
0.0
  0
LINE
  5
6C3
100
AcDbEntity
  8
3
370
    50
100
AcDbLine
 10
-90.773582
 20
-77.15124
 30
0.0
 11
-90.773582
 21
-81.85124
 31
0.0
  0
LINE
  5
6C4
100
AcDbEntity
  8
3
370
    50
100
AcDbLine
 10
-91.973582
 20
-77.15124
 30
0.0
 11
-91.973582
 21
-81.85124
 31
0.0
  0
LINE
  5
6C5
100
AcDbEntity
  8
3
370
    50
100
AcDbLine
 10
-93.173582
 20
-77.15124
 30
0.0
 11
-93.173582
 21
-81.85124
 31
0.0
  0
LINE
  5
6C6
100
AcDbEntity
  8
3
370
    50
100
AcDbLine
 10
-94.373582
 20
-77.15124
 30
0.0
 11
-94.373582
 21
-81.85124
 31
0.0
  0
LINE
  5
6C7
100
AcDbEntity
  8
3
370
    50
100
AcDbLine
 10
-95.373582
 20
-77.15124
 30
0.0
 11
-95.373582
 21
-81.85124
 31
0.0
  0
LINE
  5
6C8
100
AcDbEntity
  8
3
370
    50
100
AcDbLine
 10
-96.073582
 20
-77.15124
 30
0.0
 11
-96.073582
 21
-81.85124
 31
0.0
  0
LINE
  5
6C9
100
AcDbEntity
  8
3
370
    50
100
AcDbLine
 10
-96.673582
 20
-77.15124
 30
0.0
 11
-96.673582
 21
-81.85124
 31
0.0
  0
POINT
  5
6CA
100
AcDbEntity
  8
3
370
    50
100
AcDbPoint
 10
269.429525
 20
-77.15124
 30
0.0
  0
LINE
  5
6CB
100
AcDbEntity
  8
3
370
    25
  6
DASHED
100
AcDbLine
 10
211.381575
 20
-26.491463
 30
0.0
 11
213.799128
 21
-17.469031
 31
0.0
  0
ARC
  5
6CC
100
AcDbEntity
  8
3
370
    25
  6
DASHED
100
AcDbCircle
 10
215.73098
 20
-17.986669
 30
0.0
 40
2.0
100
AcDbArc
 50
77.456286
 51
165.0
  0
ARC
  5
6CD
100
AcDbEntity
  8
3
370
    25
  6
DASHED
100
AcDbCircle
 10
208.129525
 20
-52.15124
 30
0.0
 40
37.0
100
AcDbArc
 50
72.543714
 51
77.456286
  0
ARC
  5
6CE
100
AcDbEntity
  8
3
370
    25
  6
DASHED
100
AcDbCircle
 10
218.628757
 20
-18.763126
 30
0.0
 40
2.0
100
AcDbArc
 50
345.0
 51
72.543714
  0
LINE
  5
6CF
100
AcDbEntity
  8
3
370
    25
  6
DASHED
100
AcDbLine
 10
218.143055
 20
-28.303196
 30
0.0
 11
220.560609
 21
-19.280764
 31
0.0
  0
ARC
  5
6D0
100
AcDbEntity
  8
3
370
    25
  6
DASHED
100
AcDbCircle
 10
222.972685
 20
-29.597291
 30
0.0
 40
5.0
100
AcDbArc
 50
165.0
 51
236.650365
  0
ARC
  5
6D1
100
AcDbEntity
  8
3
370
    25
  6
DASHED
100
AcDbCircle
 10
206.551946
 20
-25.197367
 30
0.0
 40
5.0
100
AcDbArc
 50
273.349635
 51
345.0
  0
ARC
  5
6D2
100
AcDbEntity
  8
3
370
    25
  6
DASHED
100
AcDbCircle
 10
209.707104
 20
-79.105112
 30
0.0
 40
5.0
100
AcDbArc
 50
93.349635
 51
165.0
  0
LINE
  5
6D3
100
AcDbEntity
  8
3
370
    25
  6
DASHED
100
AcDbLine
 10
204.877475
 20
-77.811017
 30
0.0
 11
202.459922
 21
-86.833449
 31
0.0
  0
ARC
  5
6D4
100
AcDbEntity
  8
3
370
    25
  6
DASHED
100
AcDbCircle
 10
200.52807
 20
-86.31581
 30
0.0
 40
2.0
100
AcDbArc
 50
257.456286
 51
345.0
  0
ARC
  5
6D5
100
AcDbEntity
  8
3
370
    25
  6
DASHED
100
AcDbCircle
 10
208.129525
 20
-52.15124
 30
0.0
 40
37.0
100
AcDbArc
 50
252.543714
 51
257.456286
  0
ARC
  5
6D6
100
AcDbEntity
  8
3
370
    25
  6
DASHED
100
AcDbCircle
 10
197.630292
 20
-85.539353
 30
0.0
 40
2.0
100
AcDbArc
 50
165.0
 51
252.543714
  0
LINE
  5
6D7
100
AcDbEntity
  8
3
370
    25
  6
DASHED
100
AcDbLine
 10
198.115994
 20
-75.999284
 30
0.0
 11
195.698441
 21
-85.021715
 31
0.0
  0
ARC
  5
6D8
100
AcDbEntity
  8
3
370
    25
  6
DASHED
100
AcDbCircle
 10
193.286365
 20
-74.705189
 30
0.0
 40
5.0
100
AcDbArc
 50
345.0
 51
56.650365
  0
LINE
  5
6D9
100
AcDbEntity
  8
3
370
    25
  6
CENTER
100
AcDbLine
 10
-128.173582
 20
101.118119
 30
0.0
 11
-250.360611
 21
101.118119
 31
0.0
  0
LINE
  5
6DA
100
AcDbEntity
  8
3
370
    25
  6
CENTER
100
AcDbLine
 10
-250.360611
 20
-52.15124
 30
0.0
 11
-128.173582
 21
-52.15124
 31
0.0
  0
CIRCLE
  5
6DB
100
AcDbEntity
  8
3
370
    50
100
AcDbCircle
 10
-35.747175
 20
-94.577647
 30
0.0
 40
4.4
  0
LINE
  5
6DC
100
AcDbEntity
  8
3
370
    25
100
AcDbLine
 10
-37.047175
 20
-98.781217
 30
0.0
 11
-37.047175
 21
-90.374077
 31
0.0
  0
LINE
  5
6DD
100
AcDbEntity
  8
3
370
    50
100
AcDbLine
 10
-36.747175
 20
-98.862504
 30
0.0
 11
-36.747175
 21
-90.29279
 31
0.0
  0
LINE
  5
6DE
100
AcDbEntity
  8
3
370
    50
100
AcDbLine
 10
-34.747175
 20
-98.862504
 30
0.0
 11
-34.747175
 21
-90.29279
 31
0.0
  0
LINE
  5
6DF
100
AcDbEntity
  8
3
370
    25
100
AcDbLine
 10
-34.447175
 20
-98.781217
 30
0.0
 11
-34.447175
 21
-90.374077
 31
0.0
  0
ARC
  5
6E0
100
AcDbEntity
  8
3
370
    25
100
AcDbCircle
 10
-35.747175
 20
-94.577647
 30
0.0
 40
3.9
100
AcDbArc
 50
289.471221
 51
70.528779
  0
ARC
  5
6E1
100
AcDbEntity
  8
3
370
    25
100
AcDbCircle
 10
-35.747175
 20
-94.577647
 30
0.0
 40
3.9
100
AcDbArc
 50
109.471221
 51
250.528779
  0
CIRCLE
  5
6E2
100
AcDbEntity
  8
3
370
    50
100
AcDbCircle
 10
-220.599989
 20
-94.577647
 30
0.0
 40
4.4
  0
LINE
  5
6E3
100
AcDbEntity
  8
3
370
    25
100
AcDbLine
 10
-221.899989
 20
-98.781217
 30
0.0
 11
-221.899989
 21
-90.374077
 31
0.0
  0
LINE
  5
6E4
100
AcDbEntity
  8
3
370
    50
100
AcDbLine
 10
-221.599989
 20
-98.862504
 30
0.0
 11
-221.599989
 21
-90.29279
 31
0.0
  0
LINE
  5
6E5
100
AcDbEntity
  8
3
370
    50
100
AcDbLine
 10
-219.599989
 20
-98.862504
 30
0.0
 11
-219.599989
 21
-90.29279
 31
0.0
  0
LINE
  5
6E6
100
AcDbEntity
  8
3
370
    25
100
AcDbLine
 10
-219.299989
 20
-98.781217
 30
0.0
 11
-219.299989
 21
-90.374077
 31
0.0
  0
ARC
  5
6E7
100
AcDbEntity
  8
3
370
    25
100
AcDbCircle
 10
-220.599989
 20
-94.577647
 30
0.0
 40
3.9
100
AcDbArc
 50
289.471221
 51
70.528779
  0
ARC
  5
6E8
100
AcDbEntity
  8
3
370
    25
100
AcDbCircle
 10
-220.599989
 20
-94.577647
 30
0.0
 40
3.9
100
AcDbArc
 50
109.471221
 51
250.528779
  0
TEXT
  5
6E9
100
AcDbEntity
  8
3
370
    50
100
AcDbText
 10
345.098131
 20
-256.100293
 30
0.0
 40
6.0
  1
１９　０７　２２
 72
     5
 11
391.898131
 21
-256.100293
 31
0.0
100
AcDbText
  0
TEXT
  5
6EA
100
AcDbEntity
  8
3
370
    50
100
AcDbText
 10
336.070276
 20
-271.880939
 30
0.0
 40
6.4
  1
００２３０４
 72
     5
 11
373.190276
 21
-271.880939
 31
0.0
100
AcDbText
  0
TEXT
  5
6EB
100
AcDbEntity
  8
3
370
    50
100
AcDbText
 10
290.832582
 20
-240.013492
 30
0.0
 40
6.0
  1
１　２
 72
     5
 11
307.632582
 21
-240.013492
 31
0.0
100
AcDbText
  0
LINE
  5
6EC
100
AcDbEntity
  8
3
370
    25
100
AcDbLine
 10
-115.227534
 20
-77.066327
 30
0.0
 11
-141.119631
 21
-77.066327
 31
0.0
  0
LINE
  5
6ED
100
AcDbEntity
  8
3
370
    25
  6
CENTER
100
AcDbLine
 10
-89.673582
 20
-64.134432
 30
0.0
 11
-89.673582
 21
-88.212321
 31
0.0
  0
LINE
  5
6EE
100
AcDbEntity
  8
3
370
    25
100
AcDbLine
 10
214.183476
 20
-77.066327
 30
0.0
 11
227.129525
 21
-77.066327
 31
0.0
  0
LINE
  5
6EF
100
AcDbEntity
  8
3
370
    25
100
AcDbLine
 10
234.129525
 20
-77.066327
 30
0.0
 11
240.075573
 21
-77.066327
 31
0.0
  0
ENDSEC
  0
SECTION
  2
OBJECTS
  0
DICTIONARY
  5
7A8
100
AcDbDictionary
280
     0
281
     1
  3
ACAD_GROUP
350
7A9
  3
ACAD_MLINESTYLE
350
7AA
  0
DICTIONARY
  5
7A9
102
{ACAD_REACTORS
330
7A8
102
}
100
AcDbDictionary
280
     0
281
     1
  0
DICTIONARY
  5
7AA
102
{ACAD_REACTORS
330
7A8
102
}
100
AcDbDictionary
280
     0
281
     1
  3
Standard
350
7AB
  0
MLINESTYLE
  5
7AB
102
{ACAD_REACTORS
330
7AA
102
}
100
AcDbMlineStyle
  2
Standard
 70
     0
  3

 62
     0
 51
90.0
 52
90.0
 71
     2
 49
0.5
 62
   256
  6
ByLayer
 49
-0.5
 62
   256
  6
ByLayer
  0
ENDSEC
  0
EOF
