  0
SECTION
  2
HEADER
  9
$ACADVER
  1
AC1015
  9
$ACADMAINTVER
 70
     6
  9
$DWGCODEPAGE
  3
ANSI_932
  9
$INSBASE
 10
0.0
 20
0.0
 30
0.0
  9
$EXTMIN
 10
-841.0
 20
-594.0
 30
1.000000E+20
  9
$EXTMAX
 10
841.0
 20
594.0
 30
-1.000000E+20
  9
$LIMMIN
 10
-841.0
 20
-594.0
  9
$LIMMAX
 10
841.0
 20
594.0
  9
$ORTHOMODE
 70
     0
  9
$REGENMODE
 70
     1
  9
$FILLMODE
 70
     1
  9
$QTEXTMODE
 70
     0
  9
$MIRRTEXT
 70
     1
  9
$LTSCALE
 40
1.0
  9
$ATTMODE
 70
     1
  9
$TEXTSIZE
 40
0.2
  9
$TRACEWID
 40
0.05
  9
$TEXTSTYLE
  7
STANDARD
  9
$CLAYER
  8
0
  9
$CELTYPE
  6
CONTINUOUS
  9
$CECOLOR
 62
   256
  9
$CELTSCALE
 40
1.0
  9
$DISPSILH
 70
     0
  9
$DIMSCALE
 40
2.0
  9
$DIMASZ
 40
2.0
  9
$DIMEXO
 40
1.0
  9
$DIMDLI
 40
0.38
  9
$DIMRND
 40
0.0
  9
$DIMDLE
 40
0.0
  9
$DIMEXE
 40
2.0
  9
$DIMTP
 40
0.0
  9
$DIMTM
 40
0.0
  9
$DIMTXT
 40
3.5
  9
$DIMCEN
 40
0.09
  9
$DIMTSZ
 40
0.0
  9
$DIMTOL
 70
     0
  9
$DIMLIM
 70
     0
  9
$DIMTIH
 70
     0
  9
$DIMTOH
 70
     0
  9
$DIMSE1
 70
     0
  9
$DIMSE2
 70
     0
  9
$DIMTAD
 70
     1
  9
$DIMZIN
 70
     0
  9
$DIMBLK
  1

  9
$DIMASO
 70
     1
  9
$DIMSHO
 70
     1
  9
$DIMPOST
  1

  9
$DIMAPOST
  1

  9
$DIMALT
 70
     0
  9
$DIMALTD
 70
     2
  9
$DIMALTF
 40
25.4
  9
$DIMLFAC
 40
1.0
  9
$DIMTOFL
 70
     0
  9
$DIMTVP
 40
0.0
  9
$DIMTIX
 70
     0
  9
$DIMSOXD
 70
     0
  9
$DIMSAH
 70
     0
  9
$DIMBLK1
  1

  9
$DIMBLK2
  1

  9
$DIMSTYLE
  2
Standard
  9
$DIMCLRD
 70
     0
  9
$DIMCLRE
 70
     0
  9
$DIMCLRT
 70
     0
  9
$DIMTFAC
 40
1.0
  9
$DIMGAP
 40
0.5
  9
$DIMJUST
 70
     0
  9
$DIMSD1
 70
     0
  9
$DIMSD2
 70
     0
  9
$DIMTOLJ
 70
     1
  9
$DIMTZIN
 70
     0
  9
$DIMALTZ
 70
     0
  9
$DIMALTTZ
 70
     0
  9
$DIMUPT
 70
     0
  9
$DIMDEC
 70
     3
  9
$DIMTDEC
 70
     4
  9
$DIMALTU
 70
     2
  9
$DIMALTTD
 70
     2
  9
$DIMTXSTY
  7
STANDARD
  9
$DIMAUNIT
 70
     0
  9
$DIMADEC
 70
     0
  9
$DIMALTRND
 40
0.0
  9
$DIMAZIN
 70
     0
  9
$DIMDSEP
 70
     0
  9
$DIMATFIT
 70
     3
  9
$DIMFRAC
 70
     0
  9
$DIMLDRBLK
  1

  9
$DIMLUNIT
 70
     2
  9
$DIMLWD
 70
     0
  9
$DIMLWE
 70
     0
  9
$DIMTMOVE
 70
     0
  9
$LUNITS
 70
     2
  9
$LUPREC
 70
     4
  9
$SKETCHINC
 40
0.1
  9
$FILLETRAD
 40
0.0
  9
$AUNITS
 70
     0
  9
$AUPREC
 70
     0
  9
$MENU
  1
acad
  9
$ELEVATION
 40
0.0
  9
$PELEVATION
 40
0.0
  9
$THICKNESS
 40
0.0
  9
$LIMCHECK
 70
     0
  9
$CHAMFERA
 40
0.0
  9
$CHAMFERB
 40
0.0
  9
$CHAMFERC
 40
0.0
  9
$CHAMFERD
 40
0.0
  9
$SKPOLY
 70
     0
  9
$TDCREATE
 40
2454541.000000000
  9
$TDUCREATE
 40
0.000000000
  9
$TDUPDATE
 40
0.000000000
  9
$TDUUPDATE
 40
2447892.625000000
  9
$TDINDWG
 40
0.0000000000
  9
$TDUSRTIMER
 40
0.0000000000
  9
$USRTIMER
 70
     1
  9
$ANGBASE
 50
0.0
  9
$ANGDIR
 70
     0
  9
$PDMODE
 70
     0
  9
$PDSIZE
 40
0.0
  9
$PLINEWID
 40
0.0
  9
$SPLFRAME
 70
     0
  9
$SPLINETYPE
 70
     6
  9
$SPLINESEGS
 70
     8
  9
$HANDSEED
  5
841
  9
$SURFTAB1
 70
     6
  9
$SURFTAB2
 70
     6
  9
$SURFTYPE
 70
     6
  9
$SURFU
 70
     6
  9
$SURFV
 70
     6
  9
$UCSBASE
  2

  9
$UCSNAME
  2

  9
$UCSORG
 10
0.0
 20
0.0
 30
0.0
  9
$UCSXDIR
 10
1.0
 20
0.0
 30
0.0
  9
$UCSYDIR
 10
0.0
 20
1.0
 30
0.0
  9
$UCSORTHOREF
  2

  9
$UCSORTHOVIEW
 70
     0
  9
$UCSORGTOP
 10
0.0
 20
0.0
 30
0.0
  9
$UCSORGBOTTOM
 10
0.0
 20
0.0
 30
0.0
  9
$UCSORGLEFT
 10
0.0
 20
0.0
 30
0.0
  9
$UCSORGRIGHT
 10
0.0
 20
0.0
 30
0.0
  9
$UCSORGFRONT
 10
0.0
 20
0.0
 30
0.0
  9
$UCSORGBACK
 10
0.0
 20
0.0
 30
0.0
  9
$PUCSBASE
  2

  9
$PUCSNAME
  2

  9
$PUCSORG
 10
0.0
 20
0.0
 30
0.0
  9
$PUCSXDIR
 10
1.0
 20
0.0
 30
0.0
  9
$PUCSYDIR
 10
0.0
 20
1.0
 30
0.0
  9
$PUCSORTHOREF
  2

  9
$PUCSORTHOVIEW
 70
     0
  9
$PUCSORGTOP
 10
0.0
 20
0.0
 30
0.0
  9
$PUCSORGBOTTOM
 10
0.0
 20
0.0
 30
0.0
  9
$PUCSORGLEFT
 10
0.0
 20
0.0
 30
0.0
  9
$PUCSORGRIGHT
 10
0.0
 20
0.0
 30
0.0
  9
$PUCSORGFRONT
 10
0.0
 20
0.0
 30
0.0
  9
$PUCSORGBACK
 10
0.0
 20
0.0
 30
0.0
  9
$USERI1
 70
     0
  9
$USERI2
 70
     0
  9
$USERI3
 70
     0
  9
$USERI4
 70
     0
  9
$USERI5
 70
     0
  9
$USERR1
 40
0.0
  9
$USERR2
 40
0.0
  9
$USERR3
 40
0.0
  9
$USERR4
 40
0.0
  9
$USERR5
 40
0.0
  9
$WORLDVIEW
 70
     1
  9
$SHADEDGE
 70
     3
  9
$SHADEDIF
 70
    70
  9
$TILEMODE
 70
     1
  9
$MAXACTVP
 70
    16
  9
$PINSBASE
 10
0.0
 20
0.0
 30
0.0
  9
$PLIMCHECK
 70
     0
  9
$PEXTMIN
 10
1.000000E+20
 20
1.000000E+20
 30
1.000000E+20
  9
$PEXTMAX
 10
-1.000000E+20
 20
-1.000000E+20
 30
-1.000000E+20
  9
$PLIMMIN
 10
0.0
 20
0.0
  9
$PLIMMAX
 10
12.0
 20
9.0
  9
$UNITMODE
 70
     0
  9
$VISRETAIN
 70
     0
  9
$PLINEGEN
 70
     1
  9
$PSLTSCALE
 70
     0
  9
$TREEDEPTH
 70
  3020
  9
$CMLSTYLE
  2
Standard
  9
$CMLJUST
 70
     0
  9
$CMLSCALE
 40
1.0
  9
$PROXYGRAPHICS
 70
     0
  9
$MEASUREMENT
 70
     0
  9
$CELWEIGHT
370
     0
  9
$ENDCAPS
280
     0
  9
$JOINSTYLE
280
     0
  9
$LWDISPLAY
290
     0
  9
$INSUNITS
 70
     0
  9
$HYPERLINKBASE
  1

  9
$STYLESHEET
  1

  9
$XEDIT
290
     1
  9
$CEPSNTYPE
380
     0
  9
$PSTYLEMODE
290
     1
  9
$FINGERPRINTGUID
  2

  9
$VERSIONGUID
  2

  9
$EXTNAMES
290
     1
  9
$PSVPSCALE
 40
0.0
  0
ENDSEC
  0
SECTION
  2
CLASSES
  0
CLASS
  1
LWPOLYLINE
  2
AcDbPolyline
  3
AutoCAD 2000
 90
        0
280
     0
281
     1
  0
CLASS
  1
IMAGE
  2
AcDbRasterImage
  3
ISM
 90
      127
280
     0
281
     1
  0
CLASS
  1
OLE2FRAME
  2
AcDbOle2Frame
  3
AutoCAD 2000
 90
        0
280
     0
281
     1
  0
CLASS
  1
HATCH
  2
AcDbHatch
  3
AutoCAD 2000
 90
        0
280
     0
281
     1
  0
CLASS
  1
DICTIONARYVAR
  2
AcDbDictionaryVar
  3
AutoCAD 2000
 90
        0
280
     0
281
     0
  0
CLASS
  1
RASTERVARIABLES
  2
AcDbRasterVariables
  3
ISM
 90
        0
280
     0
281
     0
  0
CLASS
  1
IMAGEDEF
  2
AcDbRasterImageDef
  3
ISM
 90
        0
280
     0
281
     0
  0
CLASS
  1
IMAGEDEF_REACTOR
  2
AcDbRasterImageDefReactor
  3
ISM
 90
        1
280
     0
281
     0
  0
CLASS
  1
IDBUFFER
  2
AcDbIdBuffer
  3
AutoCAD 2000
 90
        0
280
     0
281
     0
  0
CLASS
  1
SPATIAL_FILTER
  2
AcDbSpatialFilter
  3
AutoCAD 2000
 90
        0
280
     0
281
     0
  0
CLASS
  1
XRECORD
  2
AcDbXrecord
  3
AutoCAD 2000
 90
        0
280
     0
281
     0
  0
CLASS
  1
SORTENTSTABLE
  2
AcDbSortentsTable
  3
AutoCAD 2000
 90
        0
280
     0
281
     0
  0
CLASS
  1
LAYER_INDEX
  2
AcDbLayerIndex
  3
AutoCAD 2000
 90
        0
280
     0
281
     0
  0
CLASS
  1
SPATIAL_INDEX
  2
AcDbSpatialIndex
  3
AutoCAD 2000
 90
        0
280
     0
281
     0
  0
CLASS
  1
OBJECT_PTR
  2
CAseDLPNTableRecord
  3
"ASE-LPNTableRecord"
 90
        1
280
     0
281
     0
  0
CLASS
  1
LAYOUT
  2
AcDbLayout
  3
AutoCAD 2000
 90
        0
280
     0
281
     0
  0
CLASS
  1
PLOTSETTINGS
  2
AcDbPlotSettings
  3
AutoCAD 2000
 90
        0
280
     0
281
     0
  0
CLASS
  1
ACDBDICTIONARYWDFLT
  2
AcDbDictionaryWithDefault
  3
AutoCAD 2000
 90
        0
280
     0
281
     0
  0
CLASS
  1
ACDBPLACEHOLDER
  2
AcDbPlaceHolder
  3
AutoCAD 2000
 90
        0
280
     0
281
     0
  0
CLASS
  1
VBA_PROJECT
  2
AcDbVbaProject
  3
acadvba
 90
        0
280
     0
281
     0
  0
CLASS
  1
WIPEOUT
  2
AcDbWipeout
  3
WipeOut|AutoCAD Express Tool|expresstools@autodesk.com
 90
      127
280
     0
281
     1
  0
CLASS
  1
WIPEOUTVARIABLES
  2
AcDbWipeoutVariables
  3
WipeOut|AutoCAD Express Tool|expresstools@autodesk.com
 90
        0
280
     0
281
     0
  0
CLASS
  1
RTEXT
  2
RText
  3
RText|AutoCAD Express Tool|expresstools@autodesk.com
 90
        0
280
     0
281
     1
  0
CLASS
  1
ARCALIGNEDTEXT
  2
AcDbArcAlignedText
  3
ATEXT|AutoCAD Express Tool|expresstools@autodesk.com
 90
        0
280
     0
281
     1
  0
ENDSEC
  0
SECTION
  2
TABLES
  0
TABLE
  2
VPORT
  5
6
100
AcDbSymbolTable
 70
     1
  0
VPORT
  5
1B
100
AcDbSymbolTableRecord
100
AcDbViewportTableRecord
  2
*ACTIVE
 70
     0
 10
0.0
 20
0.0
 11
1.0
 21
1.0
 12
0.0
 22
0.0
 13
0.0
 23
0.0
 14
1.0
 24
1.0
 15
0.0
 25
0.0
 16
0.0
 26
0.0
 36
1.0
 17
0.0
 27
0.0
 37
0.0
 40
1188.0
 41
1.415825
 42
50.0
 43
0.0
 44
0.0
 50
0.0
 51
0.0
 71
     0
 72
   500
 73
     1
 74
     1
 75
     0
 76
     0
 77
     0
 78
     0
281
     0
 65
     0
110
0.0
120
0.0
130
0.0
111
1.0
121
0.0
131
0.0
112
0.0
122
1.0
132
0.0
345
0
346
0
 79
     0
146
0.0
  0
ENDTAB
  0
TABLE
  2
LTYPE
  5
3
100
AcDbSymbolTable
 70
     9
  0
LTYPE
  5
C
100
AcDbSymbolTableRecord
100
AcDbLinetypeTableRecord
  2
ByBlock
 70
    64
  3

 72
    65
 73
     0
 40
0.0
  0
LTYPE
  5
D
100
AcDbSymbolTableRecord
100
AcDbLinetypeTableRecord
  2
ByLayer
 70
    64
  3

 72
    65
 73
     0
 40
0.0
  0
LTYPE
  5
E
100
AcDbSymbolTableRecord
100
AcDbLinetypeTableRecord
  2
CONTINUOUS
 70
     0
  3
Solid line
 72
    65
 73
     0
 40
0.0
  0
LTYPE
  5
F
100
AcDbSymbolTableRecord
100
AcDbLinetypeTableRecord
  2
DASHED
 70
     0
  3
__ __ __ __ __ __ __ __ __ __ __ __ __ __ __
 72
    65
 73
     2
 40
2.0
 49
1.2
 74
     0
 49
-0.8
 74
     0
  0
LTYPE
  5
10
100
AcDbSymbolTableRecord
100
AcDbLinetypeTableRecord
  2
CENTER
 70
     0
  3
____ _ ____ _ ____ _ ____ _ ____ _ ____ _ ____
 72
    65
 73
     4
 40
12.0
 49
9.0
 74
     0
 49
-1.0
 74
     0
 49
1.0
 74
     0
 49
-1.0
 74
     0
  0
LTYPE
  5
11
100
AcDbSymbolTableRecord
100
AcDbLinetypeTableRecord
  2
HIDDEN
 70
     0
  3
_ _ _ _ _ _ _ _ _ _ _ _ _ _ _ _ _ _ _ _ _ _ _
 72
    65
 73
     2
 40
3.2
 49
2.4
 74
     0
 49
-0.8
 74
     0
  0
LTYPE
  5
12
100
AcDbSymbolTableRecord
100
AcDbLinetypeTableRecord
  2
PHANTOM
 70
     0
  3
_____ _ _ _____ _ _ _____ _ _ _____ _ _ _____
 72
    65
 73
     6
 40
13.5
 49
9.0
 74
     0
 49
-1.0
 74
     0
 49
1.0
 74
     0
 49
-0.5
 74
     0
 49
1.0
 74
     0
 49
-1.0
 74
     0
  0
LTYPE
  5
13
100
AcDbSymbolTableRecord
100
AcDbLinetypeTableRecord
  2
DOT
 70
     0
  3
...............................................
 72
    65
 73
     2
 40
1.0
 49
0.5
 74
     0
 49
-0.5
 74
     0
  0
LTYPE
  5
14
100
AcDbSymbolTableRecord
100
AcDbLinetypeTableRecord
  2
DASHDOT
 70
     0
  3
__ . __ . __ . __ . __ . __ . __ . __ . __ . __
 72
    65
 73
     4
 40
8.0
 49
5.0
 74
     0
 49
-1.0
 74
     0
 49
1.0
 74
     0
 49
-1.0
 74
     0
  0
ENDTAB
  0
TABLE
  2
LAYER
  5
1
100
AcDbSymbolTable
 70
     6
  0
LAYER
  5
15
100
AcDbSymbolTableRecord
100
AcDbLayerTableRecord
  2
0
 70
     0
 62
   225
  6
CONTINUOUS
290
     1
370
    -3
390
0
  0
LAYER
  5
16
100
AcDbSymbolTableRecord
100
AcDbLayerTableRecord
  2
1
 70
     0
 62
     2
  6
CONTINUOUS
290
     1
370
    -3
390
0
  0
LAYER
  5
17
100
AcDbSymbolTableRecord
100
AcDbLayerTableRecord
  2
2
 70
     0
 62
     3
  6
CONTINUOUS
290
     1
370
    -3
390
0
  0
LAYER
  5
18
100
AcDbSymbolTableRecord
100
AcDbLayerTableRecord
  2
3
 70
     0
 62
     4
  6
CONTINUOUS
290
     1
370
    -3
390
0
  0
LAYER
  5
19
100
AcDbSymbolTableRecord
100
AcDbLayerTableRecord
  2
4
 70
     0
 62
     1
  6
CONTINUOUS
290
     1
370
    -3
390
0
  0
LAYER
  5
1A
100
AcDbSymbolTableRecord
100
AcDbLayerTableRecord
  2
5
 70
     0
 62
     6
  6
CONTINUOUS
290
     1
370
    -3
390
0
  0
ENDTAB
  0
TABLE
  2
STYLE
  5
2
100
AcDbSymbolTable
 70
     1
  0
STYLE
  5
1D
100
AcDbSymbolTableRecord
100
AcDbTextStyleTableRecord
  2
STANDARD
 70
    64
 40
0.0
 41
1.0
 50
0.0
 71
     0
 42
1.0
  3
txt
  4
BIGFONT
  0
ENDTAB
  0
TABLE
  2
VIEW
  5
4
100
AcDbSymbolTable
 70
     0
  0
ENDTAB
  0
TABLE
  2
UCS
  5
5
100
AcDbSymbolTable
 70
     0
  0
ENDTAB
  0
TABLE
  2
APPID
  5
7
100
AcDbSymbolTable
 70
     1
  0
APPID
  5
1C
100
AcDbSymbolTableRecord
100
AcDbRegAppTableRecord
  2
ACAD
 70
     0
  0
ENDTAB
  0
TABLE
  2
DIMSTYLE
  5
8
100
AcDbSymbolTable
 70
     1
100
AcDbDimStyleTable
 71
     0
  0
DIMSTYLE
105
34
100
AcDbSymbolTableRecord
100
AcDbDimStyleTableRecord
  2
Standard
 70
     0
  3

  4

 40
2.0
 41
2.0
 42
1.0
 43
0.38
 44
2.0
 45
0.0
 46
0.0
 47
0.0
 48
0.0
 71
     0
 72
     0
 73
     0
 74
     0
 75
     0
 76
     0
 77
     1
 78
     0
 79
     0
140
3.5
141
0.09
142
0.0
143
25.4
144
1.0
145
0.0
146
1.0
147
0.5
148
0.0
170
     0
171
     2
172
     0
173
     0
174
     0
175
     0
176
     0
177
     0
178
     0
179
     0
271
     3
272
     4
273
     2
274
     2
275
     0
276
     0
277
     2
278
    46
279
     0
280
     0
281
     0
282
     0
283
     1
284
     0
285
     0
286
     0
288
     0
289
     3
340
1D
341
0
342
0
343
0
344
0
371
    -2
372
    -2
  0
ENDTAB
  0
TABLE
  2
BLOCK_RECORD
  5
2F
100
AcDbSymbolTable
 70
    15
  0
BLOCK_RECORD
  5
2D
100
AcDbSymbolTableRecord
100
AcDbBlockTableRecord
  2
*Model_Space
340
0
  0
BLOCK_RECORD
  5
2E
100
AcDbSymbolTableRecord
100
AcDbBlockTableRecord
  2
*Paper_Space
340
0
  0
BLOCK_RECORD
  5
1E
100
AcDbSymbolTableRecord
100
AcDbBlockTableRecord
  2
*D0
340
0
  0
BLOCK_RECORD
  5
1F
100
AcDbSymbolTableRecord
100
AcDbBlockTableRecord
  2
*D1
340
0
  0
BLOCK_RECORD
  5
20
100
AcDbSymbolTableRecord
100
AcDbBlockTableRecord
  2
*D2
340
0
  0
BLOCK_RECORD
  5
21
100
AcDbSymbolTableRecord
100
AcDbBlockTableRecord
  2
*D3
340
0
  0
BLOCK_RECORD
  5
22
100
AcDbSymbolTableRecord
100
AcDbBlockTableRecord
  2
*D4
340
0
  0
BLOCK_RECORD
  5
23
100
AcDbSymbolTableRecord
100
AcDbBlockTableRecord
  2
*D5
340
0
  0
BLOCK_RECORD
  5
24
100
AcDbSymbolTableRecord
100
AcDbBlockTableRecord
  2
*D6
340
0
  0
BLOCK_RECORD
  5
25
100
AcDbSymbolTableRecord
100
AcDbBlockTableRecord
  2
*D7
340
0
  0
BLOCK_RECORD
  5
26
100
AcDbSymbolTableRecord
100
AcDbBlockTableRecord
  2
*D8
340
0
  0
BLOCK_RECORD
  5
27
100
AcDbSymbolTableRecord
100
AcDbBlockTableRecord
  2
*D9
340
0
  0
BLOCK_RECORD
  5
28
100
AcDbSymbolTableRecord
100
AcDbBlockTableRecord
  2
*D10
340
0
  0
BLOCK_RECORD
  5
29
100
AcDbSymbolTableRecord
100
AcDbBlockTableRecord
  2
*D11
340
0
  0
BLOCK_RECORD
  5
2A
100
AcDbSymbolTableRecord
100
AcDbBlockTableRecord
  2
*D12
340
0
  0
BLOCK_RECORD
  5
2B
100
AcDbSymbolTableRecord
100
AcDbBlockTableRecord
  2
*D13
340
0
  0
BLOCK_RECORD
  5
2C
100
AcDbSymbolTableRecord
100
AcDbBlockTableRecord
  2
*D14
340
0
  0
ENDTAB
  0
ENDSEC
  0
SECTION
  2
BLOCKS
  0
BLOCK
  5
30
100
AcDbEntity
  8
0
390
0
100
AcDbBlockBegin
  2
*Model_Space
 70
     0
 10
0.0
 20
0.0
 30
0.0
  3
*Model_Space
  1

  0
ENDBLK
  5
31
100
AcDbEntity
  8
0
390
0
100
AcDbBlockEnd
  0
BLOCK
  5
32
100
AcDbEntity
 67
     1
  8
0
390
0
100
AcDbBlockBegin
  2
*Paper_Space
 70
     0
 10
0.0
 20
0.0
 30
0.0
  3
*Paper_Space
  1

  0
ENDBLK
  5
33
100
AcDbEntity
 67
     1
  8
0
390
0
100
AcDbBlockEnd
  0
BLOCK
  5
791
100
AcDbEntity
  8
3
100
AcDbBlockBegin
  2
*D0
 70
     1
 10
0.0
 20
0.0
 30
0.0
  3
*D0
  1

  0
LINE
  5
792
100
AcDbEntity
  8
3
370
    25
100
AcDbLine
 10
101.206195
 20
-66.501561
 30
0.0
 11
101.206195
 21
-194.434341
 31
0.0
  0
LINE
  5
793
100
AcDbEntity
  8
3
370
    25
100
AcDbLine
 10
101.206195
 20
-192.434341
 30
0.0
 11
105.069898
 21
-193.469618
 31
0.0
  0
LINE
  5
794
100
AcDbEntity
  8
3
370
    25
100
AcDbLine
 10
101.206195
 20
-192.434341
 30
0.0
 11
105.069898
 21
-191.399065
 31
0.0
  0
LINE
  5
795
100
AcDbEntity
  8
3
370
    25
100
AcDbLine
 10
105.069898
 20
-193.469618
 30
0.0
 11
105.069898
 21
-191.399065
 31
0.0
  0
LINE
  5
796
100
AcDbEntity
  8
3
370
    25
100
AcDbLine
 10
101.206195
 20
-192.434341
 30
0.0
 11
220.169572
 21
-192.434341
 31
0.0
  0
LINE
  5
797
100
AcDbEntity
  8
3
370
    25
100
AcDbLine
 10
220.169572
 20
-192.434341
 30
0.0
 11
216.305868
 21
-191.399065
 31
0.0
  0
LINE
  5
798
100
AcDbEntity
  8
3
370
    25
100
AcDbLine
 10
220.169572
 20
-192.434341
 30
0.0
 11
216.305868
 21
-193.469618
 31
0.0
  0
LINE
  5
799
100
AcDbEntity
  8
3
370
    25
100
AcDbLine
 10
216.305868
 20
-191.399065
 30
0.0
 11
216.305868
 21
-193.469618
 31
0.0
  0
LINE
  5
79A
100
AcDbEntity
  8
3
370
    25
100
AcDbLine
 10
220.169572
 20
-162.823227
 30
0.0
 11
220.169572
 21
-194.434341
 31
0.0
  0
ENDBLK
  5
79B
100
AcDbEntity
  8
3
100
AcDbBlockEnd
  0
BLOCK
  5
79C
100
AcDbEntity
  8
3
100
AcDbBlockBegin
  2
*D1
 70
     1
 10
0.0
 20
0.0
 30
0.0
  3
*D1
  1

  0
TEXT
  5
79D
100
AcDbEntity
  8
3
370
    25
100
AcDbText
 10
88.079671
 20
-94.06442
 30
0.0
 40
7.0
  1
１０゜
 50
355.0
 72
     5
 11
107.605088
 21
-95.772673
 31
0.0
100
AcDbText
  0
LINE
  5
79E
100
AcDbEntity
  8
3
370
    25
100
AcDbLine
 10
100.057342
 20
-71.01703
 30
0.0
 11
95.372586
 21
-97.585602
 31
0.0
  0
LINE
  5
79F
100
AcDbEntity
  8
3
370
    25
100
AcDbLine
 10
101.206195
 20
-66.501561
 30
0.0
 11
101.206195
 21
-98.095976
 31
0.0
  0
LINE
  5
7A0
100
AcDbEntity
  8
3
370
    25
100
AcDbLine
 10
95.719882
 20
-95.615986
 30
0.0
 11
92.204799
 21
-93.70701
 31
0.0
  0
LINE
  5
7A1
100
AcDbEntity
  8
3
370
    25
100
AcDbLine
 10
95.719882
 20
-95.615986
 30
0.0
 11
91.721243
 21
-95.720306
 31
0.0
  0
LINE
  5
7A2
100
AcDbEntity
  8
3
370
    25
100
AcDbLine
 10
92.204799
 20
-93.70701
 30
0.0
 11
91.721243
 21
-95.720306
 31
0.0
  0
LINE
  5
7A3
100
AcDbEntity
  8
3
370
    25
100
AcDbLine
 10
101.206195
 20
-96.095976
 30
0.0
 11
105.125971
 21
-96.893068
 31
0.0
  0
LINE
  5
7A4
100
AcDbEntity
  8
3
370
    25
100
AcDbLine
 10
101.206195
 20
-96.095976
 30
0.0
 11
104.999366
 21
-94.82639
 31
0.0
  0
LINE
  5
7A5
100
AcDbEntity
  8
3
370
    25
100
AcDbLine
 10
105.125971
 20
-96.893068
 30
0.0
 11
104.999366
 21
-94.82639
 31
0.0
  0
ARC
  5
7A6
100
AcDbEntity
  8
3
370
    25
100
AcDbCircle
 10
101.206195
 20
-64.501561
 30
0.0
 40
31.594415
100
AcDbArc
 50
242.436815
 51
287.563185
  0
ENDBLK
  5
7A7
100
AcDbEntity
  8
3
100
AcDbBlockEnd
  0
BLOCK
  5
7A8
100
AcDbEntity
  8
3
100
AcDbBlockBegin
  2
*D2
 70
     1
 10
0.0
 20
0.0
 30
0.0
  3
*D2
  1

  0
LINE
  5
7A9
100
AcDbEntity
  8
3
370
    25
100
AcDbLine
 10
192.443572
 20
-104.380543
 30
0.0
 11
66.974257
 21
-104.380543
 31
0.0
  0
LINE
  5
7AA
100
AcDbEntity
  8
3
370
    25
100
AcDbLine
 10
68.974257
 20
-104.380543
 30
0.0
 11
70.009533
 21
-100.51684
 31
0.0
  0
LINE
  5
7AB
100
AcDbEntity
  8
3
370
    25
100
AcDbLine
 10
68.974257
 20
-104.380543
 30
0.0
 11
67.93898
 21
-100.51684
 31
0.0
  0
LINE
  5
7AC
100
AcDbEntity
  8
3
370
    25
100
AcDbLine
 10
70.009533
 20
-100.51684
 30
0.0
 11
67.93898
 21
-100.51684
 31
0.0
  0
LINE
  5
7AD
100
AcDbEntity
  8
3
370
    25
100
AcDbLine
 10
68.974257
 20
-104.380543
 30
0.0
 11
68.974257
 21
-64.501561
 31
0.0
  0
LINE
  5
7AE
100
AcDbEntity
  8
3
370
    25
100
AcDbLine
 10
68.974257
 20
-64.501561
 30
0.0
 11
67.93898
 21
-68.365265
 31
0.0
  0
LINE
  5
7AF
100
AcDbEntity
  8
3
370
    25
100
AcDbLine
 10
68.974257
 20
-64.501561
 30
0.0
 11
70.009533
 21
-68.365265
 31
0.0
  0
LINE
  5
7B0
100
AcDbEntity
  8
3
370
    25
100
AcDbLine
 10
67.93898
 20
-68.365265
 30
0.0
 11
70.009533
 21
-68.365265
 31
0.0
  0
LINE
  5
7B1
100
AcDbEntity
  8
3
370
    25
100
AcDbLine
 10
99.206195
 20
-64.501561
 30
0.0
 11
66.974257
 21
-64.501561
 31
0.0
  0
ENDBLK
  5
7B2
100
AcDbEntity
  8
3
100
AcDbBlockEnd
  0
BLOCK
  5
7B3
100
AcDbEntity
  8
3
100
AcDbBlockBegin
  2
*D3
 70
     1
 10
0.0
 20
0.0
 30
0.0
  3
*D3
  1

  0
LINE
  5
7B4
100
AcDbEntity
  8
3
370
    25
100
AcDbLine
 10
-174.060736
 20
-170.699997
 30
0.0
 11
-174.060736
 21
-184.527405
 31
0.0
  0
LINE
  5
7B5
100
AcDbEntity
  8
3
370
    25
100
AcDbLine
 10
-174.060736
 20
-182.527405
 30
0.0
 11
-170.197033
 21
-183.562681
 31
0.0
  0
LINE
  5
7B6
100
AcDbEntity
  8
3
370
    25
100
AcDbLine
 10
-174.060736
 20
-182.527405
 30
0.0
 11
-170.197033
 21
-181.492129
 31
0.0
  0
LINE
  5
7B7
100
AcDbEntity
  8
3
370
    25
100
AcDbLine
 10
-170.197033
 20
-183.562681
 30
0.0
 11
-170.197033
 21
-181.492129
 31
0.0
  0
LINE
  5
7B8
100
AcDbEntity
  8
3
370
    25
100
AcDbLine
 10
-174.060736
 20
-182.527405
 30
0.0
 11
-72.062239
 21
-182.527405
 31
0.0
  0
LINE
  5
7B9
100
AcDbEntity
  8
3
370
    25
100
AcDbLine
 10
-72.062239
 20
-182.527405
 30
0.0
 11
-75.925942
 21
-181.492129
 31
0.0
  0
LINE
  5
7BA
100
AcDbEntity
  8
3
370
    25
100
AcDbLine
 10
-72.062239
 20
-182.527405
 30
0.0
 11
-75.925942
 21
-183.562681
 31
0.0
  0
LINE
  5
7BB
100
AcDbEntity
  8
3
370
    25
100
AcDbLine
 10
-75.925942
 20
-181.492129
 30
0.0
 11
-75.925942
 21
-183.562681
 31
0.0
  0
LINE
  5
7BC
100
AcDbEntity
  8
3
370
    25
100
AcDbLine
 10
-72.062239
 20
-170.699997
 30
0.0
 11
-72.062239
 21
-184.527405
 31
0.0
  0
ENDBLK
  5
7BD
100
AcDbEntity
  8
3
100
AcDbBlockEnd
  0
BLOCK
  5
7BE
100
AcDbEntity
  8
3
100
AcDbBlockBegin
  2
*D4
 70
     1
 10
0.0
 20
0.0
 30
0.0
  3
*D4
  1

  0
TEXT
  5
7BF
100
AcDbEntity
  8
3
370
    25
100
AcDbText
 10
-133.561373
 20
239.514114
 30
0.0
 40
7.0
  1
１４２
 72
     5
 11
-113.961373
 21
239.514114
 31
0.0
100
AcDbText
  0
LINE
  5
7C0
100
AcDbEntity
  8
3
370
    25
100
AcDbLine
 10
-194.061373
 20
203.724875
 30
0.0
 11
-194.061373
 21
240.514114
 31
0.0
  0
LINE
  5
7C1
100
AcDbEntity
  8
3
370
    25
100
AcDbLine
 10
-194.061373
 20
238.514114
 30
0.0
 11
-190.19767
 21
237.478838
 31
0.0
  0
LINE
  5
7C2
100
AcDbEntity
  8
3
370
    25
100
AcDbLine
 10
-194.061373
 20
238.514114
 30
0.0
 11
-190.19767
 21
239.549391
 31
0.0
  0
LINE
  5
7C3
100
AcDbEntity
  8
3
370
    25
100
AcDbLine
 10
-190.19767
 20
237.478838
 30
0.0
 11
-190.19767
 21
239.549391
 31
0.0
  0
LINE
  5
7C4
100
AcDbEntity
  8
3
370
    25
100
AcDbLine
 10
-194.061373
 20
238.514114
 30
0.0
 11
-52.061373
 21
238.514114
 31
0.0
  0
LINE
  5
7C5
100
AcDbEntity
  8
3
370
    25
100
AcDbLine
 10
-52.061373
 20
238.514114
 30
0.0
 11
-55.925077
 21
239.549391
 31
0.0
  0
LINE
  5
7C6
100
AcDbEntity
  8
3
370
    25
100
AcDbLine
 10
-52.061373
 20
238.514114
 30
0.0
 11
-55.925077
 21
237.478838
 31
0.0
  0
LINE
  5
7C7
100
AcDbEntity
  8
3
370
    25
100
AcDbLine
 10
-55.925077
 20
239.549391
 30
0.0
 11
-55.925077
 21
237.478838
 31
0.0
  0
LINE
  5
7C8
100
AcDbEntity
  8
3
370
    25
100
AcDbLine
 10
-52.061373
 20
203.724875
 30
0.0
 11
-52.061373
 21
240.514114
 31
0.0
  0
ENDBLK
  5
7C9
100
AcDbEntity
  8
3
100
AcDbBlockEnd
  0
BLOCK
  5
7CA
100
AcDbEntity
  8
3
100
AcDbBlockBegin
  2
*D5
 70
     1
 10
0.0
 20
0.0
 30
0.0
  3
*D5
  1

  0
LINE
  5
7CB
100
AcDbEntity
  8
3
370
    25
100
AcDbLine
 10
194.443572
 20
-106.380543
 30
0.0
 11
194.443572
 21
-183.043671
 31
0.0
  0
LINE
  5
7CC
100
AcDbEntity
  8
3
370
    25
100
AcDbLine
 10
194.443572
 20
-181.043671
 30
0.0
 11
198.307275
 21
-182.078947
 31
0.0
  0
LINE
  5
7CD
100
AcDbEntity
  8
3
370
    25
100
AcDbLine
 10
194.443572
 20
-181.043671
 30
0.0
 11
198.307275
 21
-180.008394
 31
0.0
  0
LINE
  5
7CE
100
AcDbEntity
  8
3
370
    25
100
AcDbLine
 10
198.307275
 20
-182.078947
 30
0.0
 11
198.307275
 21
-180.008394
 31
0.0
  0
LINE
  5
7CF
100
AcDbEntity
  8
3
370
    25
100
AcDbLine
 10
194.443572
 20
-181.043671
 30
0.0
 11
241.497037
 21
-181.043671
 31
0.0
  0
LINE
  5
7D0
100
AcDbEntity
  8
3
370
    25
100
AcDbLine
 10
241.497037
 20
-181.043671
 30
0.0
 11
237.633334
 21
-180.008394
 31
0.0
  0
LINE
  5
7D1
100
AcDbEntity
  8
3
370
    25
100
AcDbLine
 10
241.497037
 20
-181.043671
 30
0.0
 11
237.633334
 21
-182.078947
 31
0.0
  0
LINE
  5
7D2
100
AcDbEntity
  8
3
370
    25
100
AcDbLine
 10
237.633334
 20
-180.008394
 30
0.0
 11
237.633334
 21
-182.078947
 31
0.0
  0
LINE
  5
7D3
100
AcDbEntity
  8
3
370
    25
100
AcDbLine
 10
241.497037
 20
-106.380543
 30
0.0
 11
241.497037
 21
-183.043671
 31
0.0
  0
ENDBLK
  5
7D4
100
AcDbEntity
  8
3
100
AcDbBlockEnd
  0
BLOCK
  5
7D5
100
AcDbEntity
  8
3
100
AcDbBlockBegin
  2
*D6
 70
     1
 10
0.0
 20
0.0
 30
0.0
  3
*D6
  1

  0
LINE
  5
7D6
100
AcDbEntity
  8
3
370
    25
100
AcDbLine
 10
-55.741452
 20
-126.380051
 30
0.0
 11
-22.337643
 21
-126.380051
 31
0.0
  0
LINE
  5
7D7
100
AcDbEntity
  8
3
370
    25
100
AcDbLine
 10
-24.337643
 20
-126.380051
 30
0.0
 11
-25.372919
 21
-130.243755
 31
0.0
  0
LINE
  5
7D8
100
AcDbEntity
  8
3
370
    25
100
AcDbLine
 10
-24.337643
 20
-126.380051
 30
0.0
 11
-23.302366
 21
-130.243755
 31
0.0
  0
LINE
  5
7D9
100
AcDbEntity
  8
3
370
    25
100
AcDbLine
 10
-25.372919
 20
-130.243755
 30
0.0
 11
-23.302366
 21
-130.243755
 31
0.0
  0
LINE
  5
7DA
100
AcDbEntity
  8
3
370
    25
100
AcDbLine
 10
-24.337643
 20
-136.380051
 30
0.0
 11
-24.337643
 21
-19.380018
 31
0.0
  0
LINE
  5
7DB
100
AcDbEntity
  8
3
370
    25
100
AcDbLine
 10
-24.337643
 20
-104.380018
 30
0.0
 11
-23.302366
 21
-100.516314
 31
0.0
  0
LINE
  5
7DC
100
AcDbEntity
  8
3
370
    25
100
AcDbLine
 10
-24.337643
 20
-104.380018
 30
0.0
 11
-25.372919
 21
-100.516314
 31
0.0
  0
LINE
  5
7DD
100
AcDbEntity
  8
3
370
    25
100
AcDbLine
 10
-23.302366
 20
-100.516314
 30
0.0
 11
-25.372919
 21
-100.516314
 31
0.0
  0
LINE
  5
7DE
100
AcDbEntity
  8
3
370
    25
100
AcDbLine
 10
-50.061487
 20
-104.380018
 30
0.0
 11
-22.337643
 21
-104.380018
 31
0.0
  0
ENDBLK
  5
7DF
100
AcDbEntity
  8
3
100
AcDbBlockEnd
  0
BLOCK
  5
7E0
100
AcDbEntity
  8
3
100
AcDbBlockBegin
  2
*D7
 70
     1
 10
0.0
 20
0.0
 30
0.0
  3
*D7
  1

  0
LINE
  5
7E1
100
AcDbEntity
  8
3
370
    25
100
AcDbLine
 10
-176.060736
 20
-159.880018
 30
0.0
 11
-210.36937
 21
-159.880018
 31
0.0
  0
LINE
  5
7E2
100
AcDbEntity
  8
3
370
    25
100
AcDbLine
 10
-208.36937
 20
-159.880018
 30
0.0
 11
-207.334093
 21
-156.016314
 31
0.0
  0
LINE
  5
7E3
100
AcDbEntity
  8
3
370
    25
100
AcDbLine
 10
-208.36937
 20
-159.880018
 30
0.0
 11
-209.404646
 21
-156.016314
 31
0.0
  0
LINE
  5
7E4
100
AcDbEntity
  8
3
370
    25
100
AcDbLine
 10
-207.334093
 20
-156.016314
 30
0.0
 11
-209.404646
 21
-156.016314
 31
0.0
  0
LINE
  5
7E5
100
AcDbEntity
  8
3
370
    25
100
AcDbLine
 10
-208.36937
 20
-159.880018
 30
0.0
 11
-208.36937
 21
-104.380018
 31
0.0
  0
LINE
  5
7E6
100
AcDbEntity
  8
3
370
    25
100
AcDbLine
 10
-208.36937
 20
-104.380018
 30
0.0
 11
-209.404646
 21
-108.243721
 31
0.0
  0
LINE
  5
7E7
100
AcDbEntity
  8
3
370
    25
100
AcDbLine
 10
-208.36937
 20
-104.380018
 30
0.0
 11
-207.334093
 21
-108.243721
 31
0.0
  0
LINE
  5
7E8
100
AcDbEntity
  8
3
370
    25
100
AcDbLine
 10
-209.404646
 20
-108.243721
 30
0.0
 11
-207.334093
 21
-108.243721
 31
0.0
  0
LINE
  5
7E9
100
AcDbEntity
  8
3
370
    25
100
AcDbLine
 10
-196.061487
 20
-104.380018
 30
0.0
 11
-210.36937
 21
-104.380018
 31
0.0
  0
ENDBLK
  5
7EA
100
AcDbEntity
  8
3
100
AcDbBlockEnd
  0
BLOCK
  5
7EB
100
AcDbEntity
  8
3
100
AcDbBlockBegin
  2
*D8
 70
     1
 10
0.0
 20
0.0
 30
0.0
  3
*D8
  1

  0
TEXT
  5
7EC
100
AcDbEntity
  8
3
370
    25
100
AcDbText
 10
-180.722593
 20
79.863201
 30
0.0
 40
7.0
  1
６０゜
 50
330.0
 72
     5
 11
-163.748495
 21
70.063201
 31
0.0
100
AcDbText
  0
LINE
  5
7ED
100
AcDbEntity
  8
3
370
    25
100
AcDbLine
 10
-206.40206
 20
110.618595
 30
0.0
 11
-209.781611
 21
108.66741
 31
0.0
  0
LINE
  5
7EE
100
AcDbEntity
  8
3
370
    25
100
AcDbLine
 10
-123.061373
 20
64.698578
 30
0.0
 11
-123.061373
 21
58.599457
 31
0.0
  0
LINE
  5
7EF
100
AcDbEntity
  8
3
370
    25
100
AcDbLine
 10
-208.049561
 20
109.66741
 30
0.0
 11
-206.938426
 21
105.824835
 31
0.0
  0
LINE
  5
7F0
100
AcDbEntity
  8
3
370
    25
100
AcDbLine
 10
-208.049561
 20
109.66741
 30
0.0
 11
-205.166003
 21
106.89521
 31
0.0
  0
LINE
  5
7F1
100
AcDbEntity
  8
3
370
    25
100
AcDbLine
 10
-206.938426
 20
105.824835
 30
0.0
 11
-205.166003
 21
106.89521
 31
0.0
  0
LINE
  5
7F2
100
AcDbEntity
  8
3
370
    25
100
AcDbLine
 10
-123.061373
 20
60.599457
 30
0.0
 11
-126.903948
 21
61.710592
 31
0.0
  0
LINE
  5
7F3
100
AcDbEntity
  8
3
370
    25
100
AcDbLine
 10
-123.061373
 20
60.599457
 30
0.0
 11
-126.944708
 21
59.640441
 31
0.0
  0
LINE
  5
7F4
100
AcDbEntity
  8
3
370
    25
100
AcDbLine
 10
-126.903948
 20
61.710592
 30
0.0
 11
-126.944708
 21
59.640441
 31
0.0
  0
ARC
  5
7F5
100
AcDbEntity
  8
3
370
    25
100
AcDbCircle
 10
-123.061373
 20
158.735363
 30
0.0
 40
98.135906
100
AcDbArc
 50
210.0
 51
270.0
  0
ENDBLK
  5
7F6
100
AcDbEntity
  8
3
100
AcDbBlockEnd
  0
BLOCK
  5
7F7
100
AcDbEntity
  8
3
100
AcDbBlockBegin
  2
*D9
 70
     1
 10
0.0
 20
0.0
 30
0.0
  3
*D9
  1

  0
TEXT
  5
7F8
100
AcDbEntity
  8
3
370
    25
100
AcDbText
 10
-107.804153
 20
61.225757
 30
0.0
 40
7.0
  1
３０゜
 50
15.0
 72
     5
 11
-88.872007
 21
66.298611
 31
0.0
100
AcDbText
  0
LINE
  5
7F9
100
AcDbEntity
  8
3
370
    25
100
AcDbLine
 10
-123.061373
 20
64.698578
 30
0.0
 11
-123.061373
 21
58.599457
 31
0.0
  0
LINE
  5
7FA
100
AcDbEntity
  8
3
370
    25
100
AcDbLine
 10
-74.567219
 20
74.741023
 30
0.0
 11
-72.993421
 21
72.015125
 31
0.0
  0
LINE
  5
7FB
100
AcDbEntity
  8
3
370
    25
100
AcDbLine
 10
-123.061373
 20
60.599457
 30
0.0
 11
-119.178039
 21
59.640441
 31
0.0
  0
LINE
  5
7FC
100
AcDbEntity
  8
3
370
    25
100
AcDbLine
 10
-123.061373
 20
60.599457
 30
0.0
 11
-119.218799
 21
61.710592
 31
0.0
  0
LINE
  5
7FD
100
AcDbEntity
  8
3
370
    25
100
AcDbLine
 10
-119.178039
 20
59.640441
 30
0.0
 11
-119.218799
 21
61.710592
 31
0.0
  0
LINE
  5
7FE
100
AcDbEntity
  8
3
370
    25
100
AcDbLine
 10
-73.993421
 20
73.747176
 30
0.0
 11
-77.876755
 21
72.788159
 31
0.0
  0
LINE
  5
7FF
100
AcDbEntity
  8
3
370
    25
100
AcDbLine
 10
-73.993421
 20
73.747176
 30
0.0
 11
-76.876979
 21
70.974976
 31
0.0
  0
LINE
  5
800
100
AcDbEntity
  8
3
370
    25
100
AcDbLine
 10
-77.876755
 20
72.788159
 30
0.0
 11
-76.876979
 21
70.974976
 31
0.0
  0
ARC
  5
801
100
AcDbEntity
  8
3
370
    25
100
AcDbCircle
 10
-123.061373
 20
158.735363
 30
0.0
 40
98.135906
100
AcDbArc
 50
270.0
 51
300.0
  0
ENDBLK
  5
802
100
AcDbEntity
  8
3
100
AcDbBlockEnd
  0
BLOCK
  5
803
100
AcDbEntity
  8
3
100
AcDbBlockBegin
  2
*D10
 70
     1
 10
0.0
 20
0.0
 30
0.0
  3
*D10
  1

  0
TEXT
  5
804
100
AcDbEntity
  8
3
370
    25
100
AcDbText
 10
42.367935
 20
-57.380885
 30
0.0
 40
7.0
  1
１１５
 50
90.0
 72
     5
 11
42.367935
 21
-37.780885
 31
0.0
100
AcDbText
  0
LINE
  5
805
100
AcDbEntity
  8
3
370
    25
100
AcDbLine
 10
192.443572
 20
-104.380543
 30
0.0
 11
41.367935
 21
-104.380543
 31
0.0
  0
LINE
  5
806
100
AcDbEntity
  8
3
370
    25
100
AcDbLine
 10
43.367935
 20
-104.380543
 30
0.0
 11
44.403211
 21
-100.51684
 31
0.0
  0
LINE
  5
807
100
AcDbEntity
  8
3
370
    25
100
AcDbLine
 10
43.367935
 20
-104.380543
 30
0.0
 11
42.332659
 21
-100.51684
 31
0.0
  0
LINE
  5
808
100
AcDbEntity
  8
3
370
    25
100
AcDbLine
 10
44.403211
 20
-100.51684
 30
0.0
 11
42.332659
 21
-100.51684
 31
0.0
  0
LINE
  5
809
100
AcDbEntity
  8
3
370
    25
100
AcDbLine
 10
43.367935
 20
-104.380543
 30
0.0
 11
43.367935
 21
10.618774
 31
0.0
  0
LINE
  5
80A
100
AcDbEntity
  8
3
370
    25
100
AcDbLine
 10
43.367935
 20
10.618774
 30
0.0
 11
42.332659
 21
6.755071
 31
0.0
  0
LINE
  5
80B
100
AcDbEntity
  8
3
370
    25
100
AcDbLine
 10
43.367935
 20
10.618774
 30
0.0
 11
44.403211
 21
6.755071
 31
0.0
  0
LINE
  5
80C
100
AcDbEntity
  8
3
370
    25
100
AcDbLine
 10
42.332659
 20
6.755071
 30
0.0
 11
44.403211
 21
6.755071
 31
0.0
  0
LINE
  5
80D
100
AcDbEntity
  8
3
370
    25
100
AcDbLine
 10
91.852934
 20
10.618774
 30
0.0
 11
41.367935
 21
10.618774
 31
0.0
  0
ENDBLK
  5
80E
100
AcDbEntity
  8
3
100
AcDbBlockEnd
  0
BLOCK
  5
80F
100
AcDbEntity
  8
3
100
AcDbBlockBegin
  2
*D11
 70
     1
 10
0.0
 20
0.0
 30
0.0
  3
*D11
  1

  0
TEXT
  5
810
100
AcDbEntity
  8
3
370
    25
100
AcDbText
 10
24.887554
 20
-40.934788
 30
0.0
 40
7.0
  1
１４８
 50
90.0
 72
     5
 11
24.887554
 21
-21.334788
 31
0.0
100
AcDbText
  0
LINE
  5
811
100
AcDbEntity
  8
3
370
    25
100
AcDbLine
 10
192.443572
 20
-104.380543
 30
0.0
 11
23.887554
 21
-104.380543
 31
0.0
  0
LINE
  5
812
100
AcDbEntity
  8
3
370
    25
100
AcDbLine
 10
25.887554
 20
-104.380543
 30
0.0
 11
26.92283
 21
-100.51684
 31
0.0
  0
LINE
  5
813
100
AcDbEntity
  8
3
370
    25
100
AcDbLine
 10
25.887554
 20
-104.380543
 30
0.0
 11
24.852278
 21
-100.51684
 31
0.0
  0
LINE
  5
814
100
AcDbEntity
  8
3
370
    25
100
AcDbLine
 10
26.92283
 20
-100.51684
 30
0.0
 11
24.852278
 21
-100.51684
 31
0.0
  0
LINE
  5
815
100
AcDbEntity
  8
3
370
    25
100
AcDbLine
 10
25.887554
 20
-104.380543
 30
0.0
 11
25.887554
 21
43.510968
 31
0.0
  0
LINE
  5
816
100
AcDbEntity
  8
3
370
    25
100
AcDbLine
 10
25.887554
 20
43.510968
 30
0.0
 11
24.852278
 21
39.647265
 31
0.0
  0
LINE
  5
817
100
AcDbEntity
  8
3
370
    25
100
AcDbLine
 10
25.887554
 20
43.510968
 30
0.0
 11
26.92283
 21
39.647265
 31
0.0
  0
LINE
  5
818
100
AcDbEntity
  8
3
370
    25
100
AcDbLine
 10
24.852278
 20
39.647265
 30
0.0
 11
26.92283
 21
39.647265
 31
0.0
  0
LINE
  5
819
100
AcDbEntity
  8
3
370
    25
100
AcDbLine
 10
112.570595
 20
43.510968
 30
0.0
 11
23.887554
 21
43.510968
 31
0.0
  0
ENDBLK
  5
81A
100
AcDbEntity
  8
3
100
AcDbBlockEnd
  0
BLOCK
  5
81B
100
AcDbEntity
  8
3
100
AcDbBlockBegin
  2
*D12
 70
     1
 10
0.0
 20
0.0
 30
0.0
  3
*D12
  1

  0
TEXT
  5
81C
100
AcDbEntity
  8
3
370
    25
100
AcDbText
 10
64.487075
 20
26.604884
 30
0.0
 40
7.0
  1
２５゜
 50
77.5
 72
     5
 11
68.729291
 21
45.740286
 31
0.0
100
AcDbText
  0
LINE
  5
81D
100
AcDbEntity
  8
3
370
    25
100
AcDbLine
 10
110.480742
 20
45.418098
 30
0.0
 11
74.337487
 21
62.271974
 31
0.0
  0
LINE
  5
81E
100
AcDbEntity
  8
3
370
    25
100
AcDbLine
 10
91.852934
 20
10.618774
 30
0.0
 11
62.886248
 21
10.618774
 31
0.0
  0
LINE
  5
81F
100
AcDbEntity
  8
3
370
    25
100
AcDbLine
 10
76.150102
 20
61.426738
 30
0.0
 11
73.628522
 21
58.32164
 31
0.0
  0
LINE
  5
820
100
AcDbEntity
  8
3
370
    25
100
AcDbLine
 10
76.150102
 20
61.426738
 30
0.0
 11
75.518899
 21
57.476854
 31
0.0
  0
LINE
  5
821
100
AcDbEntity
  8
3
370
    25
100
AcDbLine
 10
73.628522
 20
58.32164
 30
0.0
 11
75.518899
 21
57.476854
 31
0.0
  0
LINE
  5
822
100
AcDbEntity
  8
3
370
    25
100
AcDbLine
 10
64.886248
 20
10.618774
 30
0.0
 11
65.983476
 21
14.465342
 31
0.0
  0
LINE
  5
823
100
AcDbEntity
  8
3
370
    25
100
AcDbLine
 10
64.886248
 20
10.618774
 30
0.0
 11
63.913191
 21
14.498614
 31
0.0
  0
LINE
  5
824
100
AcDbEntity
  8
3
370
    25
100
AcDbLine
 10
65.983476
 20
14.465342
 30
0.0
 11
63.913191
 21
14.498614
 31
0.0
  0
ARC
  5
825
100
AcDbEntity
  8
3
370
    25
100
AcDbCircle
 10
185.108133
 20
10.618774
 30
0.0
 40
120.221885
100
AcDbArc
 50
155.0
 51
180.0
  0
ENDBLK
  5
826
100
AcDbEntity
  8
3
100
AcDbBlockEnd
  0
BLOCK
  5
827
100
AcDbEntity
  8
3
100
AcDbBlockBegin
  2
*D13
 70
     1
 10
0.0
 20
0.0
 30
0.0
  3
*D13
  1

  0
LINE
  5
828
100
AcDbEntity
  8
3
370
    25
100
AcDbLine
 10
192.443572
 20
-104.380543
 30
0.0
 11
129.512558
 21
-104.380543
 31
0.0
  0
LINE
  5
829
100
AcDbEntity
  8
3
370
    25
100
AcDbLine
 10
131.512558
 20
-104.380543
 30
0.0
 11
132.547834
 21
-100.51684
 31
0.0
  0
LINE
  5
82A
100
AcDbEntity
  8
3
370
    25
100
AcDbLine
 10
131.512558
 20
-104.380543
 30
0.0
 11
130.477282
 21
-100.51684
 31
0.0
  0
LINE
  5
82B
100
AcDbEntity
  8
3
370
    25
100
AcDbLine
 10
132.547834
 20
-100.51684
 30
0.0
 11
130.477282
 21
-100.51684
 31
0.0
  0
LINE
  5
82C
100
AcDbEntity
  8
3
370
    25
100
AcDbLine
 10
131.512558
 20
-104.380543
 30
0.0
 11
131.512558
 21
-75.410494
 31
0.0
  0
LINE
  5
82D
100
AcDbEntity
  8
3
370
    25
100
AcDbLine
 10
131.512558
 20
-75.410494
 30
0.0
 11
130.477282
 21
-79.274197
 31
0.0
  0
LINE
  5
82E
100
AcDbEntity
  8
3
370
    25
100
AcDbLine
 10
131.512558
 20
-75.410494
 30
0.0
 11
132.547834
 21
-79.274197
 31
0.0
  0
LINE
  5
82F
100
AcDbEntity
  8
3
370
    25
100
AcDbLine
 10
130.477282
 20
-79.274197
 30
0.0
 11
132.547834
 21
-79.274197
 31
0.0
  0
LINE
  5
830
100
AcDbEntity
  8
3
370
    25
100
AcDbLine
 10
143.373352
 20
-75.410494
 30
0.0
 11
129.512558
 21
-75.410494
 31
0.0
  0
ENDBLK
  5
831
100
AcDbEntity
  8
3
100
AcDbBlockEnd
  0
BLOCK
  5
832
100
AcDbEntity
  8
3
100
AcDbBlockBegin
  2
*D14
 70
     1
 10
0.0
 20
0.0
 30
0.0
  3
*D14
  1

  0
LINE
  5
833
100
AcDbEntity
  8
3
370
    25
100
AcDbLine
 10
145.373352
 20
-77.410494
 30
0.0
 11
145.373352
 21
-123.119514
 31
0.0
  0
LINE
  5
834
100
AcDbEntity
  8
3
370
    25
100
AcDbLine
 10
145.373352
 20
-121.119514
 30
0.0
 11
149.237055
 21
-122.154791
 31
0.0
  0
LINE
  5
835
100
AcDbEntity
  8
3
370
    25
100
AcDbLine
 10
145.373352
 20
-121.119514
 30
0.0
 11
149.237055
 21
-120.084238
 31
0.0
  0
LINE
  5
836
100
AcDbEntity
  8
3
370
    25
100
AcDbLine
 10
149.237055
 20
-122.154791
 30
0.0
 11
149.237055
 21
-120.084238
 31
0.0
  0
LINE
  5
837
100
AcDbEntity
  8
3
370
    25
100
AcDbLine
 10
145.373352
 20
-121.119514
 30
0.0
 11
220.169572
 21
-121.119514
 31
0.0
  0
LINE
  5
838
100
AcDbEntity
  8
3
370
    25
100
AcDbLine
 10
220.169572
 20
-121.119514
 30
0.0
 11
216.305868
 21
-120.084238
 31
0.0
  0
LINE
  5
839
100
AcDbEntity
  8
3
370
    25
100
AcDbLine
 10
220.169572
 20
-121.119514
 30
0.0
 11
216.305868
 21
-122.154791
 31
0.0
  0
LINE
  5
83A
100
AcDbEntity
  8
3
370
    25
100
AcDbLine
 10
216.305868
 20
-120.084238
 30
0.0
 11
216.305868
 21
-122.154791
 31
0.0
  0
ENDBLK
  5
83B
100
AcDbEntity
  8
3
100
AcDbBlockEnd
  0
ENDSEC
  0
SECTION
  2
ENTITIES
  0
LINE
  5
35
100
AcDbEntity
  8
1
370
   100
100
AcDbLine
 10
-373.02157
 20
275.028767
 30
0.0
 11
394.982385
 21
275.028767
 31
0.0
  0
LINE
  5
36
100
AcDbEntity
  8
1
370
   100
100
AcDbLine
 10
-373.02157
 20
275.028767
 30
0.0
 11
-373.02157
 21
-277.971881
 31
0.0
  0
LINE
  5
37
100
AcDbEntity
  8
1
370
   100
100
AcDbLine
 10
-373.02157
 20
-277.971881
 30
0.0
 11
394.982385
 21
-277.971881
 31
0.0
  0
LINE
  5
38
100
AcDbEntity
  8
1
370
   100
100
AcDbLine
 10
394.982385
 20
-277.971881
 30
0.0
 11
394.982385
 21
275.028767
 31
0.0
  0
TEXT
  5
39
100
AcDbEntity
  8
1
370
    50
100
AcDbText
 10
359.628442
 20
-226.252857
 30
0.0
 40
6.0
  1
設計
 72
     5
 11
370.428442
 21
-226.252857
 31
0.0
100
AcDbText
  0
TEXT
  5
3A
100
AcDbEntity
  8
1
370
    50
100
AcDbText
 10
379.127478
 20
-226.099658
 30
0.0
 40
6.0
  1
製図
 72
     5
 11
389.927478
 21
-226.099658
 31
0.0
100
AcDbText
  0
TEXT
  5
3B
100
AcDbEntity
  8
1
370
    50
100
AcDbText
 10
319.005745
 20
-226.252857
 30
0.0
 40
6.0
  1
承認
 72
     5
 11
329.805745
 21
-226.252857
 31
0.0
100
AcDbText
  0
TEXT
  5
3C
100
AcDbEntity
  8
1
370
    50
100
AcDbText
 10
338.989679
 20
-226.19802
 30
0.0
 40
6.0
  1
検図
 72
     5
 11
349.789679
 21
-226.19802
 31
0.0
100
AcDbText
  0
LINE
  5
3D
100
AcDbEntity
  8
1
370
    25
100
AcDbLine
 10
284.982385
 20
-227.971881
 30
0.0
 11
394.982385
 21
-227.971881
 31
0.0
  0
LINE
  5
3E
100
AcDbEntity
  8
1
370
    25
100
AcDbLine
 10
342.482385
 20
-245.971881
 30
0.0
 11
342.482385
 21
-259.971881
 31
0.0
  0
TEXT
  5
3F
100
AcDbEntity
  8
1
370
    50
100
AcDbText
 10
319.55159
 20
-256.012528
 30
0.0
 40
6.0
  1
日　付
 72
     5
 11
336.35159
 21
-256.012528
 31
0.0
100
AcDbText
  0
LINE
  5
40
100
AcDbEntity
  8
1
370
    50
100
AcDbLine
 10
40.982385
 20
-259.971881
 30
0.0
 11
394.982385
 21
-259.971881
 31
0.0
  0
TEXT
  5
41
100
AcDbEntity
  8
1
370
    50
100
AcDbText
 10
287.775011
 20
-256.322406
 30
0.0
 40
6.0
  1
第三角法
 72
     5
 11
310.575011
 21
-256.322406
 31
0.0
100
AcDbText
  0
TEXT
  5
42
100
AcDbEntity
  8
1
370
    50
100
AcDbText
 10
291.087419
 20
-225.99802
 30
0.0
 40
6.0
  1
尺　度
 72
     5
 11
307.887419
 21
-225.99802
 31
0.0
100
AcDbText
  0
LINE
  5
43
100
AcDbEntity
  8
1
370
   100
100
AcDbLine
 10
40.982385
 20
-217.971881
 30
0.0
 11
394.982385
 21
-217.971881
 31
0.0
  0
LINE
  5
44
100
AcDbEntity
  8
1
370
    50
100
AcDbLine
 10
211.982385
 20
-217.971881
 30
0.0
 11
211.982385
 21
-277.971881
 31
0.0
  0
LINE
  5
45
100
AcDbEntity
  8
1
370
    25
100
AcDbLine
 10
374.982385
 20
-245.971881
 30
0.0
 11
374.982385
 21
-217.971881
 31
0.0
  0
LINE
  5
46
100
AcDbEntity
  8
1
370
    25
100
AcDbLine
 10
354.982385
 20
-245.971881
 30
0.0
 11
354.982385
 21
-217.971881
 31
0.0
  0
LINE
  5
47
100
AcDbEntity
  8
1
370
    25
100
AcDbLine
 10
334.982385
 20
-245.971881
 30
0.0
 11
334.982385
 21
-217.971881
 31
0.0
  0
LINE
  5
48
100
AcDbEntity
  8
1
370
    50
100
AcDbLine
 10
284.982385
 20
-277.971881
 30
0.0
 11
284.982385
 21
-217.971881
 31
0.0
  0
LINE
  5
49
100
AcDbEntity
  8
1
370
    50
100
AcDbLine
 10
189.982385
 20
-217.971881
 30
0.0
 11
189.982385
 21
-277.971881
 31
0.0
  0
LINE
  5
4A
100
AcDbEntity
  8
1
370
    50
100
AcDbLine
 10
62.982385
 20
-217.971881
 30
0.0
 11
62.982385
 21
-259.971881
 31
0.0
  0
LINE
  5
4B
100
AcDbEntity
  8
1
370
    50
100
AcDbLine
 10
284.982385
 20
-245.971881
 30
0.0
 11
394.982385
 21
-245.971881
 31
0.0
  0
TEXT
  5
4C
100
AcDbEntity
  8
1
370
    50
100
AcDbText
 10
287.101129
 20
-271.880939
 30
0.0
 40
6.0
  1
コードＮｏ
 41
0.9
 72
     5
 11
313.021129
 21
-271.880939
 31
0.0
100
AcDbText
  0
TEXT
  5
4D
100
AcDbEntity
  8
1
370
   100
100
AcDbText
 10
52.886774
 20
-272.875659
 30
0.0
 40
8.0
  1
ミズタニバルブ工業株式会社
 41
1.2
 72
     5
 11
175.766774
 21
-272.875659
 31
0.0
100
AcDbText
  0
LINE
  5
4E
100
AcDbEntity
  8
1
370
    50
100
AcDbLine
 10
40.982385
 20
-238.971881
 30
0.0
 11
284.982385
 21
-238.971881
 31
0.0
  0
LINE
  5
4F
100
AcDbEntity
  8
1
370
    50
100
AcDbLine
 10
115.482385
 20
-238.971881
 30
0.0
 11
115.482385
 21
-259.971881
 31
0.0
  0
LINE
  5
50
100
AcDbEntity
  8
1
370
    50
100
AcDbLine
 10
137.482385
 20
-238.971881
 30
0.0
 11
137.482385
 21
-259.971881
 31
0.0
  0
LINE
  5
51
100
AcDbEntity
  8
1
370
    50
100
AcDbLine
 10
314.982385
 20
-277.971881
 30
0.0
 11
314.982385
 21
-217.971881
 31
0.0
  0
TEXT
  5
52
100
AcDbEntity
  8
1
370
    50
100
AcDbText
 10
345.098131
 20
-256.100293
 30
0.0
 40
6.0
  1
　　・　　・
 72
     5
 11
379.898131
 21
-256.100293
 31
0.0
100
AcDbText
  0
LINE
  5
53
100
AcDbEntity
  8
1
370
   100
100
AcDbLine
 10
40.982385
 20
-217.971881
 30
0.0
 11
40.982385
 21
-277.971881
 31
0.0
  0
TEXT
  5
54
100
AcDbEntity
  8
1
370
    50
100
AcDbText
 10
290.832582
 20
-240.013492
 30
0.0
 40
6.0
  1
　／ 
 72
     5
 11
301.632582
 21
-240.013492
 31
0.0
100
AcDbText
  0
TEXT
  5
55
100
AcDbEntity
  8
1
370
    50
100
AcDbText
 10
193.904123
 20
-272.024909
 30
0.0
 40
6.0
  1
備 考 
 72
     5
 11
207.704123
 21
-272.024909
 31
0.0
100
AcDbText
  0
TEXT
  5
56
100
AcDbEntity
  8
1
370
    50
100
AcDbText
 10
193.512534
 20
-230.89184
 30
0.0
 40
6.0
  1
仕 上
 72
     5
 11
207.312534
 21
-230.89184
 31
0.0
100
AcDbText
  0
TEXT
  5
57
100
AcDbEntity
  8
1
370
    50
100
AcDbText
 10
193.447176
 20
-248.891666
 30
0.0
 40
6.0
  1
表 面
 72
     5
 11
207.247176
 21
-248.891666
 31
0.0
100
AcDbText
  0
TEXT
  5
58
100
AcDbEntity
  8
1
370
    50
100
AcDbText
 10
193.447176
 20
-255.891666
 30
0.0
 40
6.0
  1
処 理
 72
     5
 11
207.247176
 21
-255.891666
 31
0.0
100
AcDbText
  0
TEXT
  5
59
100
AcDbEntity
  8
1
370
    50
100
AcDbText
 10
44.79335
 20
-231.693399
 30
0.0
 40
6.0
  1
品 名
 72
     5
 11
58.59335
 21
-231.693399
 31
0.0
100
AcDbText
  0
TEXT
  5
5A
100
AcDbEntity
  8
1
370
    50
100
AcDbText
 10
44.397766
 20
-252.462534
 30
0.0
 40
6.0
  1
材 質
 72
     5
 11
58.197766
 21
-252.462534
 31
0.0
100
AcDbText
  0
TEXT
  5
5B
100
AcDbEntity
  8
1
370
    50
100
AcDbText
 10
118.897766
 20
-252.462534
 30
0.0
 40
6.0
  1
規 格
 72
     5
 11
132.697766
 21
-252.462534
 31
0.0
100
AcDbText
  0
LINE
  5
5C
100
AcDbEntity
  8
2
370
    25
  6
CENTER
100
AcDbLine
 10
-174.061373
 20
179.527496
 30
0.0
 11
-174.061373
 21
224.214417
 31
0.0
  0
LINE
  5
5D
100
AcDbEntity
  8
2
370
    25
  6
CENTER
100
AcDbLine
 10
-72.061373
 20
179.170013
 30
0.0
 11
-72.061373
 21
226.359329
 31
0.0
  0
LINE
  5
5E
100
AcDbEntity
  8
2
370
    25
  6
CENTER
100
AcDbLine
 10
-123.061373
 20
66.698578
 30
0.0
 11
-123.061373
 21
230.052816
 31
0.0
  0
ARC
  5
5F
100
AcDbEntity
  8
2
370
    50
100
AcDbCircle
 10
-174.061373
 20
201.724875
 30
0.0
 40
20.0
100
AcDbArc
 50
92.981359
 51
257.188799
  0
ARC
  5
60
100
AcDbEntity
  8
2
370
    50
100
AcDbCircle
 10
-72.061373
 20
201.724875
 30
0.0
 40
20.0
100
AcDbArc
 50
282.811201
 51
87.018641
  0
LINE
  5
61
100
AcDbEntity
  8
2
370
    25
  6
CENTER
100
AcDbLine
 10
-49.89183
 20
201.724875
 30
0.0
 11
-201.061373
 21
201.724875
 31
0.0
  0
ARC
  5
62
100
AcDbEntity
  8
2
370
    50
100
AcDbCircle
 10
-123.061373
 20
-777.508759
 30
0.0
 40
1000.560814
100
AcDbArc
 50
87.018641
 51
92.981359
  0
ARC
  5
63
100
AcDbEntity
  8
2
370
    50
100
AcDbCircle
 10
-123.061373
 20
425.972313
 30
0.0
 40
249.973724
100
AcDbArc
 50
257.18731
 51
262.203178
  0
ARC
  5
64
100
AcDbEntity
  8
2
370
    50
100
AcDbCircle
 10
-123.061373
 20
425.972313
 30
0.0
 40
249.973724
100
AcDbArc
 50
277.796822
 51
282.81269
  0
ARC
  5
65
100
AcDbEntity
  8
2
370
    50
100
AcDbCircle
 10
-123.061373
 20
84.827655
 30
0.0
 40
16.0
100
AcDbArc
 50
186.414462
 51
353.585538
  0
ELLIPSE
  5
66
100
AcDbEntity
  8
2
370
    25
100
AcDbEllipse
 10
-123.061373
 20
169.402173
 30
0.0
 11
23.446000000000002
 21
0.0
 31
0.0
210
0.0
220
0.0
230
1.0
 40
0.984816
 41
0.45368
 42
2.7630669999999999
  0
ARC
  5
67
100
AcDbEntity
  8
2
370
    50
100
AcDbCircle
 10
-2094.64104
 20
306.479675
 30
0.0
 40
2000.0
100
AcDbArc
 50
353.585538
 51
356.008301
  0
ARC
  5
68
100
AcDbEntity
  8
2
370
    50
100
AcDbCircle
 10
-87.521858
 20
166.420441
 30
0.0
 40
12.0
100
AcDbArc
 50
97.796822
 51
176.008301
  0
ARC
  5
69
100
AcDbEntity
  8
2
370
    50
100
AcDbCircle
 10
1848.518293
 20
306.479675
 30
0.0
 40
2000.0
100
AcDbArc
 50
183.991699
 51
186.414462
  0
ARC
  5
6A
100
AcDbEntity
  8
2
370
    50
100
AcDbCircle
 10
-158.600889
 20
166.420441
 30
0.0
 40
12.0
100
AcDbArc
 50
3.991699
 51
82.203178
  0
LINE
  5
6B
100
AcDbEntity
  8
2
370
    50
100
AcDbLine
 10
194.443572
 20
-104.380543
 30
0.0
 11
241.497037
 21
-104.380543
 31
0.0
  0
LINE
  5
6C
100
AcDbEntity
  8
2
370
    25
  6
CENTER
100
AcDbLine
 10
220.169572
 20
-169.005808
 30
0.0
 11
220.169572
 21
-79.184813
 31
0.0
  0
ARC
  5
6D
100
AcDbEntity
  8
2
370
    50
100
AcDbCircle
 10
192.506834
 20
-114.378544
 30
0.0
 40
50.0
100
AcDbArc
 50
11.534621
 51
29.177514
  0
ARC
  5
6E
100
AcDbEntity
  8
2
370
    50
100
AcDbCircle
 10
227.431373
 20
-94.877862
 30
0.0
 40
10.0
100
AcDbArc
 50
29.177514
 51
84.128942
  0
POINT
  5
6F
100
AcDbEntity
  8
2
370
    50
100
AcDbPoint
 10
220.169572
 20
-104.380543
 30
0.0
  0
LINE
  5
70
100
AcDbEntity
  8
2
370
    25
100
AcDbLine
 10
211.993598
 20
-88.464543
 30
0.0
 11
229.204853
 21
-88.464543
 31
0.0
  0
ARC
  5
71
100
AcDbEntity
  8
2
370
    25
100
AcDbCircle
 10
248.691617
 20
-114.378544
 30
0.0
 40
50.0
100
AcDbArc
 50
156.556159
 51
168.465379
  0
ARC
  5
72
100
AcDbEntity
  8
2
370
    25
100
AcDbCircle
 10
229.204853
 20
-98.464543
 30
0.0
 40
10.0
100
AcDbArc
 50
23.443841
 51
90.0
  0
ARC
  5
73
100
AcDbEntity
  8
2
370
    25
100
AcDbCircle
 10
211.993598
 20
-98.464543
 30
0.0
 40
10.0
100
AcDbArc
 50
90.0
 51
156.556159
  0
LINE
  5
74
100
AcDbEntity
  8
2
370
    25
100
AcDbLine
 10
205.931068
 20
-88.464543
 30
0.0
 11
196.449559
 21
-78.983034
 31
0.0
  0
LINE
  5
75
100
AcDbEntity
  8
2
370
    50
100
AcDbLine
 10
156.996205
 20
-22.113979
 30
0.0
 11
199.342938
 21
-14.647108
 31
0.0
  0
LINE
  5
76
100
AcDbEntity
  8
2
370
    50
100
AcDbLine
 10
199.342938
 20
-14.647108
 30
0.0
 11
210.937123
 21
-69.193458
 31
0.0
  0
ARC
  5
77
100
AcDbEntity
  8
2
370
    50
100
AcDbCircle
 10
230.500075
 20
-65.035224
 30
0.0
 40
20.0
100
AcDbArc
 50
192.0
 51
264.128942
  0
LINE
  5
78
100
AcDbEntity
  8
2
370
    50
100
AcDbLine
 10
88.512165
 20
-53.124422
 30
0.0
 11
117.670585
 21
-58.265838
 31
0.0
  0
ARC
  5
79
100
AcDbEntity
  8
2
370
    50
100
AcDbCircle
 10
136.252492
 20
-61.54233
 30
0.0
 40
50.0
100
AcDbArc
 50
158.885004
 51
168.227683
  0
ARC
  5
7A
100
AcDbEntity
  8
2
370
    50
100
AcDbCircle
 10
88.772637
 20
-51.64721
 30
0.0
 40
1.5
100
AcDbArc
 50
168.227683
 51
260.0
  0
ARC
  5
7B
100
AcDbEntity
  8
2
370
    50
100
AcDbCircle
 10
95.964563
 20
-181.366807
 30
0.0
 40
125.0
100
AcDbArc
 50
38.016627
 51
80.000001
  0
LINE
  5
7C
100
AcDbEntity
  8
2
370
    50
100
AcDbLine
 10
100.156814
 20
-37.207229
 30
0.0
 11
147.217614
 21
-42.985568
 31
0.0
  0
ARC
  5
7D
100
AcDbEntity
  8
2
370
    50
100
AcDbCircle
 10
98.938121
 20
-47.13269
 30
0.0
 40
10.0
100
AcDbArc
 50
83.0
 51
158.885004
  0
LINE
  5
7E
100
AcDbEntity
  8
2
370
    25
  6
CENTER
100
AcDbLine
 10
103.422594
 20
-51.931737
 30
0.0
 11
100.404638
 21
-69.047415
 31
0.0
  0
LINE
  5
7F
100
AcDbEntity
  8
2
370
    50
100
AcDbLine
 10
156.996205
 20
-22.113979
 30
0.0
 11
158.338988
 21
-31.668376
 31
0.0
  0
ARC
  5
80
100
AcDbEntity
  8
2
370
    50
100
AcDbCircle
 10
148.436307
 20
-33.060107
 30
0.0
 40
10.0
100
AcDbArc
 50
263.0
 51
8.0
  0
LINE
  5
81
100
AcDbEntity
  8
2
370
    50
100
AcDbLine
 10
-52.061487
 20
-104.380018
 30
0.0
 11
-123.061487
 21
-104.380018
 31
0.0
  0
LINE
  5
82
100
AcDbEntity
  8
2
370
    25
  6
CENTER
100
AcDbLine
 10
-123.061487
 20
20.879829
 30
0.0
 11
-123.061487
 21
-111.03712
 31
0.0
  0
POINT
  5
83
100
AcDbEntity
  8
2
370
    50
100
AcDbPoint
 10
-123.061487
 20
-104.380018
 30
0.0
  0
ARC
  5
84
100
AcDbEntity
  8
2
370
    50
100
AcDbCircle
 10
-101.05169
 20
-114.378018
 30
0.0
 40
50.0
100
AcDbArc
 50
11.534621
 51
22.021223
  0
ARC
  5
85
100
AcDbEntity
  8
2
370
    50
100
AcDbCircle
 10
-63.969889
 20
-99.380018
 30
0.0
 40
10.0
100
AcDbArc
 50
22.021223
 51
84.101526
  0
LINE
  5
86
100
AcDbEntity
  8
2
370
    25
100
AcDbLine
 10
-107.075727
 20
-50.186488
 30
0.0
 11
-107.075727
 21
-47.519913
 31
0.0
  0
ARC
  5
87
100
AcDbEntity
  8
2
370
    50
100
AcDbCircle
 10
-123.061487
 20
-67.132165
 30
0.0
 40
30.0
100
AcDbArc
 50
72.542397
 51
90.0
  0
ARC
  5
88
100
AcDbEntity
  8
2
370
    25
100
AcDbCircle
 10
-117.061487
 20
-48.053381
 30
0.0
 40
10.0
100
AcDbArc
 50
3.057995
 51
16.608543
  0
ARC
  5
89
100
AcDbEntity
  8
2
370
    50
100
AcDbCircle
 10
-117.061487
 20
-48.053381
 30
0.0
 40
10.0
100
AcDbArc
 50
33.493313
 51
72.542397
  0
LINE
  5
8A
100
AcDbEntity
  8
2
370
    50
100
AcDbLine
 10
-101.561487
 20
-18.380018
 30
0.0
 11
-99.808435
 21
-68.580861
 31
0.0
  0
LINE
  5
8B
100
AcDbEntity
  8
2
370
    50
100
AcDbLine
 10
-107.068809
 20
-55.553734
 30
0.0
 11
-99.713277
 21
-97.753721
 31
0.0
  0
ARC
  5
8C
100
AcDbEntity
  8
2
370
    50
100
AcDbCircle
 10
-91.8321
 20
-96.380018
 30
0.0
 40
8.0
100
AcDbArc
 50
189.887424
 51
270.0
  0
ELLIPSE
  5
8D
100
AcDbEntity
  8
2
370
    50
100
AcDbEllipse
 10
-123.061487
 20
-18.380018
 30
0.0
 11
21.5
 21
0.0
 31
0.0
210
0.0
220
0.0
230
1.0
 40
0.173651
 41
4.7123889999999999
 42
0.219269
  0
ELLIPSE
  5
8E
100
AcDbEntity
  8
2
370
    50
100
AcDbEllipse
 10
-123.061487
 20
-55.637766
 30
0.0
 11
16.0
 21
0.0
 31
0.0
210
0.0
220
0.0
230
1.0
 40
0.173625
 41
0.030254
 42
1.5707960000000001
  0
LINE
  5
8F
100
AcDbEntity
  8
2
370
    50
100
AcDbLine
 10
-108.721985
 20
-42.534984
 30
0.0
 11
-103.367238
 21
-50.627176
 31
0.0
  0
ELLIPSE
  5
90
100
AcDbEntity
  8
2
370
    50
100
AcDbEllipse
 10
-123.061487
 20
-55.637766
 30
0.0
 11
12.25
 21
0.0
 31
0.0
210
0.0
220
0.0
230
1.0
 40
0.173633
 41
6.0808099999999996
 42
1.5707960000000001
  0
LINE
  5
91
100
AcDbEntity
  8
2
370
    50
100
AcDbLine
 10
91.443739
 20
-53.641338
 30
0.0
 11
91.356915
 21
-54.133741
 31
0.0
  0
LINE
  5
92
100
AcDbEntity
  8
2
370
    50
100
AcDbLine
 10
90.864511
 20
-54.046917
 30
0.0
 11
102.682204
 21
-56.130696
 31
0.0
  0
LINE
  5
93
100
AcDbEntity
  8
2
370
    50
100
AcDbLine
 10
90.864511
 20
-54.046917
 30
0.0
 11
89.475326
 21
-61.925379
 31
0.0
  0
LINE
  5
94
100
AcDbEntity
  8
2
370
    50
100
AcDbLine
 10
89.475326
 20
-61.925379
 30
0.0
 11
89.880906
 21
-62.504607
 31
0.0
  0
LINE
  5
95
100
AcDbEntity
  8
2
370
    50
100
AcDbLine
 10
89.880906
 20
-62.504607
 30
0.0
 11
101.206195
 21
-64.501561
 31
0.0
  0
LINE
  5
96
100
AcDbEntity
  8
2
370
    50
100
AcDbLine
 10
112.531484
 20
-66.498515
 30
0.0
 11
101.206195
 21
-64.501561
 31
0.0
  0
LINE
  5
97
100
AcDbEntity
  8
2
370
    50
100
AcDbLine
 10
113.110712
 20
-66.092936
 30
0.0
 11
112.531484
 21
-66.498515
 31
0.0
  0
LINE
  5
98
100
AcDbEntity
  8
2
370
    50
100
AcDbLine
 10
114.499897
 20
-58.214474
 30
0.0
 11
113.110712
 21
-66.092936
 31
0.0
  0
LINE
  5
99
100
AcDbEntity
  8
2
370
    50
100
AcDbLine
 10
114.499897
 20
-58.214474
 30
0.0
 11
102.682204
 21
-56.130696
 31
0.0
  0
LINE
  5
9A
100
AcDbEntity
  8
2
370
    50
100
AcDbLine
 10
114.094318
 20
-57.635246
 30
0.0
 11
114.007493
 21
-58.12765
 31
0.0
  0
LINE
  5
9B
100
AcDbEntity
  8
2
370
    50
100
AcDbLine
 10
195.195254
 20
-107.379497
 30
0.0
 11
240.745419
 21
-107.379497
 31
0.0
  0
LINE
  5
9C
100
AcDbEntity
  8
2
370
    25
100
AcDbLine
 10
229.419435
 20
-154.379594
 30
0.0
 11
229.419435
 21
-135.060879
 31
0.0
  0
LINE
  5
9D
100
AcDbEntity
  8
2
370
    50
100
AcDbLine
 10
230.419421
 20
-154.379594
 30
0.0
 11
230.419421
 21
-135.060879
 31
0.0
  0
LINE
  5
9E
100
AcDbEntity
  8
2
370
    25
100
AcDbLine
 10
210.919708
 20
-154.379594
 30
0.0
 11
210.919708
 21
-135.060879
 31
0.0
  0
LINE
  5
9F
100
AcDbEntity
  8
2
370
    50
100
AcDbLine
 10
209.919723
 20
-154.379594
 30
0.0
 11
209.919723
 21
-135.060879
 31
0.0
  0
LINE
  5
A0
100
AcDbEntity
  8
2
370
    50
100
AcDbLine
 10
232.169395
 20
-135.060879
 30
0.0
 11
220.169572
 21
-135.060879
 31
0.0
  0
LINE
  5
A1
100
AcDbEntity
  8
2
370
    50
100
AcDbLine
 10
240.169277
 20
-128.060982
 30
0.0
 11
240.169277
 21
-126.861
 31
0.0
  0
LINE
  5
A2
100
AcDbEntity
  8
2
370
    50
100
AcDbLine
 10
234.489911
 20
-128.560975
 30
0.0
 11
205.849232
 21
-128.560975
 31
0.0
  0
LINE
  5
A3
100
AcDbEntity
  8
2
370
    50
100
AcDbLine
 10
240.169277
 20
-126.861
 30
0.0
 11
220.169572
 21
-126.861
 31
0.0
  0
LINE
  5
A4
100
AcDbEntity
  8
2
370
    50
100
AcDbLine
 10
240.169277
 20
-128.060982
 30
0.0
 11
220.169572
 21
-128.060982
 31
0.0
  0
ARC
  5
A5
100
AcDbEntity
  8
2
370
    50
100
AcDbCircle
 10
234.489911
 20
-123.561048
 30
0.0
 40
4.999926
100
AcDbArc
 50
270.0
 51
293.556464
  0
ARC
  5
A6
100
AcDbEntity
  8
2
370
    50
100
AcDbCircle
 10
234.489911
 20
-131.360934
 30
0.0
 40
4.999926
100
AcDbArc
 50
66.443536
 51
90.0
  0
ARC
  5
A7
100
AcDbEntity
  8
2
370
    50
100
AcDbCircle
 10
236.887792
 20
-129.060967
 30
0.0
 40
0.999985
100
AcDbArc
 50
90.0
 51
113.556464
  0
ARC
  5
A8
100
AcDbEntity
  8
2
370
    50
100
AcDbCircle
 10
236.887792
 20
-125.861015
 30
0.0
 40
0.999985
100
AcDbArc
 50
246.443536
 51
270.0
  0
ARC
  5
A9
100
AcDbEntity
  8
2
370
    50
100
AcDbCircle
 10
220.169572
 20
-112.311214
 30
0.0
 40
16.249761
100
AcDbArc
 50
270.0
 51
284.250033
  0
ARC
  5
AA
100
AcDbEntity
  8
2
370
    50
100
AcDbCircle
 10
228.41945
 20
-112.311214
 30
0.0
 40
16.249761
100
AcDbArc
 50
262.930286
 51
284.250033
  0
ARC
  5
AB
100
AcDbEntity
  8
2
370
    50
100
AcDbCircle
 10
224.419509
 20
-112.311214
 30
0.0
 40
16.249761
100
AcDbArc
 50
262.485955
 51
284.250033
  0
ARC
  5
AC
100
AcDbEntity
  8
2
370
    50
100
AcDbCircle
 10
232.419391
 20
-112.311214
 30
0.0
 40
16.249761
100
AcDbArc
 50
262.930286
 51
270.0
  0
ARC
  5
AD
100
AcDbEntity
  8
2
370
    50
100
AcDbCircle
 10
220.169572
 20
-142.610768
 30
0.0
 40
16.249761
100
AcDbArc
 50
75.749967
 51
90.0
  0
ARC
  5
AE
100
AcDbEntity
  8
2
370
    50
100
AcDbCircle
 10
224.419509
 20
-142.610768
 30
0.0
 40
16.249761
100
AcDbArc
 50
75.749967
 51
97.514045
  0
ARC
  5
AF
100
AcDbEntity
  8
2
370
    50
100
AcDbCircle
 10
228.41945
 20
-142.610768
 30
0.0
 40
16.249761
100
AcDbArc
 50
75.749967
 51
97.069714
  0
ARC
  5
B0
100
AcDbEntity
  8
2
370
    50
100
AcDbCircle
 10
232.419391
 20
-142.610768
 30
0.0
 40
16.249761
100
AcDbArc
 50
90.0
 51
97.069714
  0
LINE
  5
B1
100
AcDbEntity
  8
2
370
    50
100
AcDbLine
 10
208.169748
 20
-135.060879
 30
0.0
 11
220.169572
 21
-135.060879
 31
0.0
  0
LINE
  5
B2
100
AcDbEntity
  8
2
370
    50
100
AcDbLine
 10
200.169866
 20
-128.060982
 30
0.0
 11
200.169866
 21
-126.861
 31
0.0
  0
LINE
  5
B3
100
AcDbEntity
  8
2
370
    50
100
AcDbLine
 10
200.169866
 20
-126.861
 30
0.0
 11
220.169572
 21
-126.861
 31
0.0
  0
LINE
  5
B4
100
AcDbEntity
  8
2
370
    50
100
AcDbLine
 10
200.169866
 20
-128.060982
 30
0.0
 11
220.169572
 21
-128.060982
 31
0.0
  0
ARC
  5
B5
100
AcDbEntity
  8
2
370
    50
100
AcDbCircle
 10
205.849232
 20
-123.561048
 30
0.0
 40
4.999926
100
AcDbArc
 50
246.443536
 51
270.0
  0
ARC
  5
B6
100
AcDbEntity
  8
2
370
    50
100
AcDbCircle
 10
205.849232
 20
-131.360934
 30
0.0
 40
4.999926
100
AcDbArc
 50
90.0
 51
113.556464
  0
ARC
  5
B7
100
AcDbEntity
  8
2
370
    50
100
AcDbCircle
 10
203.451352
 20
-129.060967
 30
0.0
 40
0.999985
100
AcDbArc
 50
66.443536
 51
90.0
  0
ARC
  5
B8
100
AcDbEntity
  8
2
370
    50
100
AcDbCircle
 10
203.451352
 20
-125.861015
 30
0.0
 40
0.999985
100
AcDbArc
 50
270.0
 51
293.556464
  0
ARC
  5
B9
100
AcDbEntity
  8
2
370
    50
100
AcDbCircle
 10
220.169572
 20
-112.311214
 30
0.0
 40
16.249761
100
AcDbArc
 50
255.749967
 51
270.0
  0
ARC
  5
BA
100
AcDbEntity
  8
2
370
    50
100
AcDbCircle
 10
211.919693
 20
-112.311214
 30
0.0
 40
16.249761
100
AcDbArc
 50
255.749967
 51
277.069714
  0
ARC
  5
BB
100
AcDbEntity
  8
2
370
    50
100
AcDbCircle
 10
215.919634
 20
-112.311214
 30
0.0
 40
16.249761
100
AcDbArc
 50
255.749967
 51
277.514045
  0
ARC
  5
BC
100
AcDbEntity
  8
2
370
    50
100
AcDbCircle
 10
207.919752
 20
-112.311214
 30
0.0
 40
16.249761
100
AcDbArc
 50
270.0
 51
277.069714
  0
ARC
  5
BD
100
AcDbEntity
  8
2
370
    50
100
AcDbCircle
 10
220.169572
 20
-142.610768
 30
0.0
 40
16.249761
100
AcDbArc
 50
90.0
 51
104.250033
  0
ARC
  5
BE
100
AcDbEntity
  8
2
370
    50
100
AcDbCircle
 10
215.919634
 20
-142.610768
 30
0.0
 40
16.249761
100
AcDbArc
 50
82.485955
 51
104.250033
  0
ARC
  5
BF
100
AcDbEntity
  8
2
370
    50
100
AcDbCircle
 10
211.919693
 20
-142.610768
 30
0.0
 40
16.249761
100
AcDbArc
 50
82.930286
 51
104.250033
  0
ARC
  5
C0
100
AcDbEntity
  8
2
370
    50
100
AcDbCircle
 10
207.919752
 20
-142.610768
 30
0.0
 40
16.249761
100
AcDbArc
 50
82.930286
 51
90.0
  0
LINE
  5
C1
100
AcDbEntity
  8
2
370
    50
100
AcDbLine
 10
220.169572
 20
-134.050894
 30
0.0
 11
220.169572
 21
-128.560975
 31
0.0
  0
LINE
  5
C2
100
AcDbEntity
  8
2
370
    50
100
AcDbLine
 10
208.169748
 20
-135.060879
 30
0.0
 11
208.169748
 21
-128.560975
 31
0.0
  0
LINE
  5
C3
100
AcDbEntity
  8
2
370
    50
100
AcDbLine
 10
232.169395
 20
-135.060879
 30
0.0
 11
232.169395
 21
-128.559052
 31
0.0
  0
ARC
  5
C4
100
AcDbEntity
  8
2
370
    50
100
AcDbCircle
 10
226.169483
 20
-116.734367
 30
0.0
 40
18.326512
100
AcDbArc
 50
250.889582
 51
289.110418
  0
ARC
  5
C5
100
AcDbEntity
  8
2
370
    50
100
AcDbCircle
 10
214.16966
 20
-116.734367
 30
0.0
 40
18.326512
100
AcDbArc
 50
250.889582
 51
289.110418
  0
LINE
  5
C6
100
AcDbEntity
  8
2
370
    50
100
AcDbLine
 10
231.669402
 20
-166.379418
 30
0.0
 11
208.669741
 21
-166.379418
 31
0.0
  0
LINE
  5
C7
100
AcDbEntity
  8
2
370
    50
100
AcDbLine
 10
231.669402
 20
-154.379594
 30
0.0
 11
208.669741
 21
-154.379594
 31
0.0
  0
LINE
  5
C8
100
AcDbEntity
  8
2
370
    50
100
AcDbLine
 10
231.669402
 20
-166.379418
 30
0.0
 11
231.669402
 21
-154.379594
 31
0.0
  0
LINE
  5
C9
100
AcDbEntity
  8
2
370
    50
100
AcDbLine
 10
208.669741
 20
-166.379418
 30
0.0
 11
208.669741
 21
-154.379594
 31
0.0
  0
ELLIPSE
  5
CA
100
AcDbEntity
  8
2
370
    50
100
AcDbEllipse
 10
225.919487
 20
-160.379506
 30
0.0
 11
0.0
 21
5.9999120000000001
 31
0.0
210
0.0
220
0.0
230
1.0
 40
0.794667
 41
0.0
 42
6.2831849999999996
  0
ELLIPSE
  5
CB
100
AcDbEntity
  8
2
370
    50
100
AcDbEllipse
 10
214.419656
 20
-160.379506
 30
0.0
 11
0.0
 21
5.9999120000000001
 31
0.0
210
0.0
220
0.0
230
1.0
 40
0.794667
 41
0.0
 42
6.2831849999999996
  0
LINE
  5
CC
100
AcDbEntity
  8
2
370
    25
100
AcDbLine
 10
229.419435
 20
-126.391805
 30
0.0
 11
229.419435
 21
-107.379497
 31
0.0
  0
LINE
  5
CD
100
AcDbEntity
  8
2
370
    50
100
AcDbLine
 10
230.419421
 20
-126.484552
 30
0.0
 11
230.419421
 21
-107.379497
 31
0.0
  0
LINE
  5
CE
100
AcDbEntity
  8
2
370
    25
100
AcDbLine
 10
210.919708
 20
-126.391805
 30
0.0
 11
210.919708
 21
-107.379497
 31
0.0
  0
LINE
  5
CF
100
AcDbEntity
  8
2
370
    50
100
AcDbLine
 10
209.919723
 20
-126.484552
 30
0.0
 11
209.919723
 21
-107.379497
 31
0.0
  0
LINE
  5
D0
100
AcDbEntity
  8
2
370
    50
100
AcDbLine
 10
240.745419
 20
-104.380543
 30
0.0
 11
240.745419
 21
-107.379497
 31
0.0
  0
LINE
  5
D1
100
AcDbEntity
  8
2
370
    50
100
AcDbLine
 10
195.195254
 20
-104.380543
 30
0.0
 11
195.195254
 21
-107.379497
 31
0.0
  0
LINE
  5
D2
100
AcDbEntity
  8
2
370
    50
100
AcDbLine
 10
234.489911
 20
-126.361007
 30
0.0
 11
232.419391
 21
-126.361007
 31
0.0
  0
LINE
  5
D3
100
AcDbEntity
  8
2
370
    50
100
AcDbLine
 10
205.849232
 20
-126.361007
 30
0.0
 11
207.919752
 21
-126.361007
 31
0.0
  0
ELLIPSE
  5
D4
100
AcDbEntity
  8
2
370
    50
100
AcDbEllipse
 10
-123.061487
 20
-18.380018
 30
0.0
 11
-21.5
 21
0.0
 31
0.0
210
0.0
220
0.0
230
1.0
 40
0.173651
 41
6.063917
 42
1.5707960000000001
  0
ARC
  5
D5
100
AcDbEntity
  8
2
370
    50
100
AcDbCircle
 10
-129.061487
 20
-48.053381
 30
0.0
 40
10.0
100
AcDbArc
 50
107.457603
 51
146.506687
  0
LINE
  5
D6
100
AcDbEntity
  8
2
370
    25
100
AcDbLine
 10
-139.047248
 20
-50.186488
 30
0.0
 11
-139.047248
 21
-47.519913
 31
0.0
  0
LINE
  5
D7
100
AcDbEntity
  8
2
370
    50
100
AcDbLine
 10
-137.40099
 20
-42.534984
 30
0.0
 11
-142.755737
 21
-50.627176
 31
0.0
  0
ARC
  5
D8
100
AcDbEntity
  8
2
370
    50
100
AcDbCircle
 10
-123.061487
 20
-67.132165
 30
0.0
 40
30.0
100
AcDbArc
 50
90.0
 51
107.457603
  0
ELLIPSE
  5
D9
100
AcDbEntity
  8
2
370
    50
100
AcDbEllipse
 10
-123.061487
 20
-55.637766
 30
0.0
 11
-16.0
 21
0.0
 31
0.0
210
0.0
220
0.0
230
1.0
 40
0.173625
 41
4.7123889999999999
 42
6.2529310000000002
  0
ELLIPSE
  5
DA
100
AcDbEntity
  8
2
370
    50
100
AcDbEllipse
 10
-123.061487
 20
-55.637766
 30
0.0
 11
-12.25
 21
0.0
 31
0.0
210
0.0
220
0.0
230
1.0
 40
0.173633
 41
4.7123889999999999
 42
0.202376
  0
LINE
  5
DB
100
AcDbEntity
  8
2
370
    50
100
AcDbLine
 10
-139.054166
 20
-55.553734
 30
0.0
 11
-146.409698
 21
-97.753721
 31
0.0
  0
ARC
  5
DC
100
AcDbEntity
  8
2
370
    50
100
AcDbCircle
 10
-154.290875
 20
-96.380018
 30
0.0
 40
8.0
100
AcDbArc
 50
270.0
 51
350.112576
  0
LINE
  5
DD
100
AcDbEntity
  8
2
370
    50
100
AcDbLine
 10
-194.061487
 20
-104.380018
 30
0.0
 11
-123.061487
 21
-104.380018
 31
0.0
  0
ARC
  5
DE
100
AcDbEntity
  8
2
370
    50
100
AcDbCircle
 10
-166.302356
 20
-67.882871
 30
0.0
 40
20.0
100
AcDbArc
 50
274.098493
 51
358.0
  0
LINE
  5
DF
100
AcDbEntity
  8
2
370
    50
100
AcDbLine
 10
-144.561487
 20
-18.380018
 30
0.0
 11
-146.31454
 21
-68.580861
 31
0.0
  0
ARC
  5
E0
100
AcDbEntity
  8
2
370
    50
100
AcDbCircle
 10
-123.061487
 20
-671.3466
 30
0.0
 40
585.010946
100
AcDbArc
 50
94.098493
 51
95.898474
  0
ARC
  5
E1
100
AcDbEntity
  8
2
370
    50
100
AcDbCircle
 10
-182.153086
 20
-99.380018
 30
0.0
 40
10.0
100
AcDbArc
 50
95.898474
 51
157.978777
  0
ARC
  5
E2
100
AcDbEntity
  8
2
370
    50
100
AcDbCircle
 10
-145.071285
 20
-114.378018
 30
0.0
 40
50.0
100
AcDbArc
 50
157.978777
 51
168.465379
  0
LINE
  5
E3
100
AcDbEntity
  8
2
370
    25
  6
CENTER
100
AcDbLine
 10
-174.060736
 20
-102.615776
 30
0.0
 11
-174.060736
 21
-168.699997
 31
0.0
  0
LINE
  5
E4
100
AcDbEntity
  8
2
370
    25
100
AcDbLine
 10
-81.31255
 20
-154.379684
 30
0.0
 11
-81.31255
 21
-135.079923
 31
0.0
  0
LINE
  5
E5
100
AcDbEntity
  8
2
370
    50
100
AcDbLine
 10
-82.312535
 20
-154.379684
 30
0.0
 11
-82.312535
 21
-135.079923
 31
0.0
  0
LINE
  5
E6
100
AcDbEntity
  8
2
370
    50
100
AcDbLine
 10
-84.062509
 20
-135.079923
 30
0.0
 11
-72.062686
 21
-135.079923
 31
0.0
  0
LINE
  5
E7
100
AcDbEntity
  8
2
370
    50
100
AcDbLine
 10
-85.812483
 20
-134.069575
 30
0.0
 11
-85.812483
 21
-128.580019
 31
0.0
  0
LINE
  5
E8
100
AcDbEntity
  8
2
370
    50
100
AcDbLine
 10
-84.062509
 20
-135.079923
 30
0.0
 11
-85.812483
 21
-134.069575
 31
0.0
  0
LINE
  5
E9
100
AcDbEntity
  8
2
370
    50
100
AcDbLine
 10
-92.062391
 20
-128.080026
 30
0.0
 11
-92.062391
 21
-126.880044
 31
0.0
  0
LINE
  5
EA
100
AcDbEntity
  8
2
370
    50
100
AcDbLine
 10
-72.062686
 20
-128.580019
 30
0.0
 11
-86.383025
 21
-128.580019
 31
0.0
  0
LINE
  5
EB
100
AcDbEntity
  8
2
370
    50
100
AcDbLine
 10
-92.062391
 20
-126.880044
 30
0.0
 11
-72.062686
 21
-126.880044
 31
0.0
  0
LINE
  5
EC
100
AcDbEntity
  8
2
370
    50
100
AcDbLine
 10
-92.062391
 20
-128.080026
 30
0.0
 11
-72.062686
 21
-128.080026
 31
0.0
  0
ARC
  5
ED
100
AcDbEntity
  8
2
370
    50
100
AcDbCircle
 10
-86.383025
 20
-123.580093
 30
0.0
 40
4.999926
100
AcDbArc
 50
246.443536
 51
270.0
  0
ARC
  5
EE
100
AcDbEntity
  8
2
370
    50
100
AcDbCircle
 10
-86.383025
 20
-131.379978
 30
0.0
 40
4.999926
100
AcDbArc
 50
90.0
 51
113.556464
  0
ARC
  5
EF
100
AcDbEntity
  8
2
370
    50
100
AcDbCircle
 10
-88.780906
 20
-129.080012
 30
0.0
 40
0.999985
100
AcDbArc
 50
66.443536
 51
90.0
  0
ARC
  5
F0
100
AcDbEntity
  8
2
370
    50
100
AcDbCircle
 10
-88.780906
 20
-125.880059
 30
0.0
 40
0.999985
100
AcDbArc
 50
270.0
 51
293.556464
  0
LINE
  5
F1
100
AcDbEntity
  8
2
370
    50
100
AcDbLine
 10
-79.062583
 20
-134.069575
 30
0.0
 11
-79.062583
 21
-128.580019
 31
0.0
  0
ARC
  5
F2
100
AcDbEntity
  8
2
370
    50
100
AcDbCircle
 10
-72.062686
 20
-110.326395
 30
0.0
 40
24.753528
100
AcDbArc
 50
253.573579
 51
270.0
  0
ARC
  5
F3
100
AcDbEntity
  8
2
370
    50
100
AcDbCircle
 10
-82.437533
 20
-128.937935
 30
0.0
 40
6.141988
100
AcDbArc
 50
236.668091
 51
303.331909
  0
ARC
  5
F4
100
AcDbEntity
  8
2
370
    50
100
AcDbCircle
 10
-72.062686
 20
-112.330258
 30
0.0
 40
16.249761
100
AcDbArc
 50
255.749967
 51
270.0
  0
ARC
  5
F5
100
AcDbEntity
  8
2
370
    50
100
AcDbCircle
 10
-80.312564
 20
-112.330258
 30
0.0
 40
16.249761
100
AcDbArc
 50
255.749967
 51
277.069714
  0
ARC
  5
F6
100
AcDbEntity
  8
2
370
    50
100
AcDbCircle
 10
-76.312623
 20
-112.330258
 30
0.0
 40
16.249761
100
AcDbArc
 50
255.749967
 51
277.514045
  0
ARC
  5
F7
100
AcDbEntity
  8
2
370
    50
100
AcDbCircle
 10
-84.312505
 20
-112.330258
 30
0.0
 40
16.249761
100
AcDbArc
 50
270.0
 51
277.069714
  0
ARC
  5
F8
100
AcDbEntity
  8
2
370
    50
100
AcDbCircle
 10
-72.062686
 20
-142.629812
 30
0.0
 40
16.249761
100
AcDbArc
 50
90.0
 51
104.250033
  0
ARC
  5
F9
100
AcDbEntity
  8
2
370
    50
100
AcDbCircle
 10
-76.312623
 20
-142.629812
 30
0.0
 40
16.249761
100
AcDbArc
 50
82.485955
 51
104.250033
  0
ARC
  5
FA
100
AcDbEntity
  8
2
370
    50
100
AcDbCircle
 10
-80.312564
 20
-142.629812
 30
0.0
 40
16.249761
100
AcDbArc
 50
82.930286
 51
104.250033
  0
ARC
  5
FB
100
AcDbEntity
  8
2
370
    50
100
AcDbCircle
 10
-84.312505
 20
-142.629812
 30
0.0
 40
16.249761
100
AcDbArc
 50
82.930286
 51
90.0
  0
LINE
  5
FC
100
AcDbEntity
  8
2
370
    50
100
AcDbLine
 10
-83.562069
 20
-166.379507
 30
0.0
 11
-72.062239
 21
-166.379507
 31
0.0
  0
ARC
  5
FD
100
AcDbEntity
  8
2
370
    50
100
AcDbCircle
 10
-69.787272
 20
-160.379596
 30
0.0
 40
15.024779
100
AcDbArc
 50
156.463422
 51
203.536578
  0
LINE
  5
FE
100
AcDbEntity
  8
2
370
    50
100
AcDbLine
 10
-83.562069
 20
-154.379684
 30
0.0
 11
-72.062239
 21
-154.379684
 31
0.0
  0
ELLIPSE
  5
FF
100
AcDbEntity
  8
2
370
    50
100
AcDbEllipse
 10
-82.021384
 20
-160.379596
 30
0.0
 11
0.0
 21
5.9999120000000001
 31
0.0
210
0.0
220
0.0
230
1.0
 40
0.458833
 41
0.0
 42
6.2831849999999996
  0
ELLIPSE
  5
100
100
AcDbEntity
  8
2
370
    50
100
AcDbEllipse
 10
-72.062239
 20
-160.379596
 30
0.0
 11
0.0
 21
5.9999120000000001
 31
0.0
210
0.0
220
0.0
230
1.0
 40
0.926667
 41
0.0
 42
3.1415929999999999
  0
LINE
  5
101
100
AcDbEntity
  8
2
370
    25
100
AcDbLine
 10
-62.811928
 20
-154.379684
 30
0.0
 11
-62.811928
 21
-135.079923
 31
0.0
  0
LINE
  5
102
100
AcDbEntity
  8
2
370
    50
100
AcDbLine
 10
-61.811943
 20
-154.379684
 30
0.0
 11
-61.811943
 21
-135.079923
 31
0.0
  0
LINE
  5
103
100
AcDbEntity
  8
2
370
    50
100
AcDbLine
 10
-60.061968
 20
-135.079923
 30
0.0
 11
-72.061792
 21
-135.079923
 31
0.0
  0
LINE
  5
104
100
AcDbEntity
  8
2
370
    50
100
AcDbLine
 10
-58.311994
 20
-134.069575
 30
0.0
 11
-58.311994
 21
-128.580019
 31
0.0
  0
LINE
  5
105
100
AcDbEntity
  8
2
370
    50
100
AcDbLine
 10
-60.061968
 20
-135.079923
 30
0.0
 11
-58.311994
 21
-134.069575
 31
0.0
  0
LINE
  5
106
100
AcDbEntity
  8
2
370
    50
100
AcDbLine
 10
-52.062086
 20
-128.080026
 30
0.0
 11
-52.062086
 21
-126.880044
 31
0.0
  0
LINE
  5
107
100
AcDbEntity
  8
2
370
    50
100
AcDbLine
 10
-72.061792
 20
-128.580019
 30
0.0
 11
-57.741452
 21
-128.580019
 31
0.0
  0
LINE
  5
108
100
AcDbEntity
  8
2
370
    50
100
AcDbLine
 10
-52.062086
 20
-126.880044
 30
0.0
 11
-72.061792
 21
-126.880044
 31
0.0
  0
LINE
  5
109
100
AcDbEntity
  8
2
370
    50
100
AcDbLine
 10
-52.062086
 20
-128.080026
 30
0.0
 11
-72.061792
 21
-128.080026
 31
0.0
  0
ARC
  5
10A
100
AcDbEntity
  8
2
370
    50
100
AcDbCircle
 10
-57.741452
 20
-123.580093
 30
0.0
 40
4.999926
100
AcDbArc
 50
270.0
 51
293.556464
  0
ARC
  5
10B
100
AcDbEntity
  8
2
370
    50
100
AcDbCircle
 10
-57.741452
 20
-131.379978
 30
0.0
 40
4.999926
100
AcDbArc
 50
66.443536
 51
90.0
  0
ARC
  5
10C
100
AcDbEntity
  8
2
370
    50
100
AcDbCircle
 10
-55.343572
 20
-129.080012
 30
0.0
 40
0.999985
100
AcDbArc
 50
90.0
 51
113.556464
  0
ARC
  5
10D
100
AcDbEntity
  8
2
370
    50
100
AcDbCircle
 10
-55.343572
 20
-125.880059
 30
0.0
 40
0.999985
100
AcDbArc
 50
246.443536
 51
270.0
  0
LINE
  5
10E
100
AcDbEntity
  8
2
370
    50
100
AcDbLine
 10
-65.061895
 20
-134.069575
 30
0.0
 11
-65.061895
 21
-128.580019
 31
0.0
  0
ARC
  5
10F
100
AcDbEntity
  8
2
370
    50
100
AcDbCircle
 10
-72.061792
 20
-110.326395
 30
0.0
 40
24.753528
100
AcDbArc
 50
270.0
 51
286.426421
  0
ARC
  5
110
100
AcDbEntity
  8
2
370
    50
100
AcDbCircle
 10
-61.686944
 20
-128.937935
 30
0.0
 40
6.141988
100
AcDbArc
 50
236.668091
 51
303.331909
  0
ARC
  5
111
100
AcDbEntity
  8
2
370
    50
100
AcDbCircle
 10
-63.811913
 20
-112.330258
 30
0.0
 40
16.249761
100
AcDbArc
 50
262.930286
 51
284.250033
  0
ARC
  5
112
100
AcDbEntity
  8
2
370
    50
100
AcDbCircle
 10
-67.811854
 20
-112.330258
 30
0.0
 40
16.249761
100
AcDbArc
 50
262.485955
 51
284.250033
  0
ARC
  5
113
100
AcDbEntity
  8
2
370
    50
100
AcDbCircle
 10
-59.811972
 20
-112.330258
 30
0.0
 40
16.249761
100
AcDbArc
 50
262.930286
 51
270.0
  0
ARC
  5
114
100
AcDbEntity
  8
2
370
    50
100
AcDbCircle
 10
-67.811854
 20
-142.629812
 30
0.0
 40
16.249761
100
AcDbArc
 50
75.749967
 51
97.514045
  0
ARC
  5
115
100
AcDbEntity
  8
2
370
    50
100
AcDbCircle
 10
-63.811913
 20
-142.629812
 30
0.0
 40
16.249761
100
AcDbArc
 50
75.749967
 51
97.069714
  0
ARC
  5
116
100
AcDbEntity
  8
2
370
    50
100
AcDbCircle
 10
-59.811972
 20
-142.629812
 30
0.0
 40
16.249761
100
AcDbArc
 50
90.0
 51
97.069714
  0
LINE
  5
117
100
AcDbEntity
  8
2
370
    50
100
AcDbLine
 10
-60.562408
 20
-166.379507
 30
0.0
 11
-72.062239
 21
-166.379507
 31
0.0
  0
ARC
  5
118
100
AcDbEntity
  8
2
370
    50
100
AcDbCircle
 10
-74.337205
 20
-160.379596
 30
0.0
 40
15.024779
100
AcDbArc
 50
336.463422
 51
23.536578
  0
LINE
  5
119
100
AcDbEntity
  8
2
370
    50
100
AcDbLine
 10
-60.562408
 20
-154.379684
 30
0.0
 11
-72.062239
 21
-154.379684
 31
0.0
  0
ELLIPSE
  5
11A
100
AcDbEntity
  8
2
370
    50
100
AcDbEllipse
 10
-62.103093
 20
-160.379596
 30
0.0
 11
0.0
 21
5.9999120000000001
 31
0.0
210
0.0
220
0.0
230
1.0
 40
0.458833
 41
0.0
 42
6.2831849999999996
  0
ELLIPSE
  5
11B
100
AcDbEntity
  8
2
370
    50
100
AcDbEllipse
 10
-72.062239
 20
-160.379596
 30
0.0
 11
0.0
 21
5.9999120000000001
 31
0.0
210
0.0
220
0.0
230
1.0
 40
0.926667
 41
3.1415929999999999
 42
0.0
  0
LINE
  5
11C
100
AcDbEntity
  8
2
370
    50
100
AcDbLine
 10
-61.811943
 20
-126.503596
 30
0.0
 11
-61.811943
 21
-107.378971
 31
0.0
  0
LINE
  5
11D
100
AcDbEntity
  8
2
370
    25
100
AcDbLine
 10
-62.811928
 20
-126.410849
 30
0.0
 11
-62.811928
 21
-107.378971
 31
0.0
  0
LINE
  5
11E
100
AcDbEntity
  8
2
370
    25
100
AcDbLine
 10
-81.31255
 20
-126.410849
 30
0.0
 11
-81.31255
 21
-107.378971
 31
0.0
  0
LINE
  5
11F
100
AcDbEntity
  8
2
370
    50
100
AcDbLine
 10
-82.312535
 20
-126.503596
 30
0.0
 11
-82.312535
 21
-107.378971
 31
0.0
  0
LINE
  5
120
100
AcDbEntity
  8
2
370
    25
100
AcDbLine
 10
-164.810425
 20
-154.379684
 30
0.0
 11
-164.810425
 21
-135.079923
 31
0.0
  0
LINE
  5
121
100
AcDbEntity
  8
2
370
    50
100
AcDbLine
 10
-163.81044
 20
-154.379684
 30
0.0
 11
-163.81044
 21
-135.079923
 31
0.0
  0
LINE
  5
122
100
AcDbEntity
  8
2
370
    50
100
AcDbLine
 10
-162.060466
 20
-135.079923
 30
0.0
 11
-174.060289
 21
-135.079923
 31
0.0
  0
LINE
  5
123
100
AcDbEntity
  8
2
370
    50
100
AcDbLine
 10
-160.310492
 20
-134.069575
 30
0.0
 11
-160.310492
 21
-128.580019
 31
0.0
  0
LINE
  5
124
100
AcDbEntity
  8
2
370
    50
100
AcDbLine
 10
-162.060466
 20
-135.079923
 30
0.0
 11
-160.310492
 21
-134.069575
 31
0.0
  0
LINE
  5
125
100
AcDbEntity
  8
2
370
    50
100
AcDbLine
 10
-154.060584
 20
-128.080026
 30
0.0
 11
-154.060584
 21
-126.880044
 31
0.0
  0
LINE
  5
126
100
AcDbEntity
  8
2
370
    50
100
AcDbLine
 10
-174.060289
 20
-128.580019
 30
0.0
 11
-159.739949
 21
-128.580019
 31
0.0
  0
LINE
  5
127
100
AcDbEntity
  8
2
370
    50
100
AcDbLine
 10
-154.060584
 20
-126.880044
 30
0.0
 11
-174.060289
 21
-126.880044
 31
0.0
  0
LINE
  5
128
100
AcDbEntity
  8
2
370
    50
100
AcDbLine
 10
-154.060584
 20
-128.080026
 30
0.0
 11
-174.060289
 21
-128.080026
 31
0.0
  0
ARC
  5
129
100
AcDbEntity
  8
2
370
    50
100
AcDbCircle
 10
-159.739949
 20
-123.580093
 30
0.0
 40
4.999926
100
AcDbArc
 50
270.0
 51
293.556464
  0
ARC
  5
12A
100
AcDbEntity
  8
2
370
    50
100
AcDbCircle
 10
-159.739949
 20
-131.379978
 30
0.0
 40
4.999926
100
AcDbArc
 50
66.443536
 51
90.0
  0
ARC
  5
12B
100
AcDbEntity
  8
2
370
    50
100
AcDbCircle
 10
-157.342069
 20
-129.080012
 30
0.0
 40
0.999985
100
AcDbArc
 50
90.0
 51
113.556464
  0
ARC
  5
12C
100
AcDbEntity
  8
2
370
    50
100
AcDbCircle
 10
-157.342069
 20
-125.880059
 30
0.0
 40
0.999985
100
AcDbArc
 50
246.443536
 51
270.0
  0
LINE
  5
12D
100
AcDbEntity
  8
2
370
    50
100
AcDbLine
 10
-167.060392
 20
-134.069575
 30
0.0
 11
-167.060392
 21
-128.580019
 31
0.0
  0
ARC
  5
12E
100
AcDbEntity
  8
2
370
    50
100
AcDbCircle
 10
-174.060289
 20
-110.326395
 30
0.0
 40
24.753528
100
AcDbArc
 50
270.0
 51
286.426421
  0
ARC
  5
12F
100
AcDbEntity
  8
2
370
    50
100
AcDbCircle
 10
-163.685442
 20
-128.937935
 30
0.0
 40
6.141988
100
AcDbArc
 50
236.668091
 51
303.331909
  0
ARC
  5
130
100
AcDbEntity
  8
2
370
    50
100
AcDbCircle
 10
-174.060289
 20
-112.330258
 30
0.0
 40
16.249761
100
AcDbArc
 50
270.0
 51
284.250033
  0
ARC
  5
131
100
AcDbEntity
  8
2
370
    50
100
AcDbCircle
 10
-165.810411
 20
-112.330258
 30
0.0
 40
16.249761
100
AcDbArc
 50
262.930286
 51
284.250033
  0
ARC
  5
132
100
AcDbEntity
  8
2
370
    50
100
AcDbCircle
 10
-169.810352
 20
-112.330258
 30
0.0
 40
16.249761
100
AcDbArc
 50
262.485955
 51
284.250033
  0
ARC
  5
133
100
AcDbEntity
  8
2
370
    50
100
AcDbCircle
 10
-161.810469
 20
-112.330258
 30
0.0
 40
16.249761
100
AcDbArc
 50
262.930286
 51
270.0
  0
ARC
  5
134
100
AcDbEntity
  8
2
370
    50
100
AcDbCircle
 10
-174.060289
 20
-142.629812
 30
0.0
 40
16.249761
100
AcDbArc
 50
75.749967
 51
90.0
  0
ARC
  5
135
100
AcDbEntity
  8
2
370
    50
100
AcDbCircle
 10
-169.810352
 20
-142.629812
 30
0.0
 40
16.249761
100
AcDbArc
 50
75.749967
 51
97.514045
  0
ARC
  5
136
100
AcDbEntity
  8
2
370
    50
100
AcDbCircle
 10
-165.810411
 20
-142.629812
 30
0.0
 40
16.249761
100
AcDbArc
 50
75.749967
 51
97.069714
  0
ARC
  5
137
100
AcDbEntity
  8
2
370
    50
100
AcDbCircle
 10
-161.810469
 20
-142.629812
 30
0.0
 40
16.249761
100
AcDbArc
 50
90.0
 51
97.069714
  0
LINE
  5
138
100
AcDbEntity
  8
2
370
    50
100
AcDbLine
 10
-162.560906
 20
-166.379507
 30
0.0
 11
-174.060736
 21
-166.379507
 31
0.0
  0
ARC
  5
139
100
AcDbEntity
  8
2
370
    50
100
AcDbCircle
 10
-176.335703
 20
-160.379596
 30
0.0
 40
15.024779
100
AcDbArc
 50
336.463422
 51
23.536578
  0
LINE
  5
13A
100
AcDbEntity
  8
2
370
    50
100
AcDbLine
 10
-162.560906
 20
-154.379684
 30
0.0
 11
-174.060736
 21
-154.379684
 31
0.0
  0
ELLIPSE
  5
13B
100
AcDbEntity
  8
2
370
    50
100
AcDbEllipse
 10
-164.101591
 20
-160.379596
 30
0.0
 11
0.0
 21
5.9999120000000001
 31
0.0
210
0.0
220
0.0
230
1.0
 40
0.458833
 41
0.0
 42
6.2831849999999996
  0
ELLIPSE
  5
13C
100
AcDbEntity
  8
2
370
    50
100
AcDbEllipse
 10
-174.060736
 20
-160.379596
 30
0.0
 11
0.0
 21
5.9999120000000001
 31
0.0
210
0.0
220
0.0
230
1.0
 40
0.926667
 41
3.1415929999999999
 42
0.0
  0
LINE
  5
13D
100
AcDbEntity
  8
2
370
    25
100
AcDbLine
 10
-183.311047
 20
-154.379684
 30
0.0
 11
-183.311047
 21
-135.079923
 31
0.0
  0
LINE
  5
13E
100
AcDbEntity
  8
2
370
    50
100
AcDbLine
 10
-184.311032
 20
-154.379684
 30
0.0
 11
-184.311032
 21
-135.079923
 31
0.0
  0
LINE
  5
13F
100
AcDbEntity
  8
2
370
    50
100
AcDbLine
 10
-186.061006
 20
-135.079923
 30
0.0
 11
-174.061183
 21
-135.079923
 31
0.0
  0
LINE
  5
140
100
AcDbEntity
  8
2
370
    50
100
AcDbLine
 10
-187.810981
 20
-134.069575
 30
0.0
 11
-187.810981
 21
-128.580019
 31
0.0
  0
LINE
  5
141
100
AcDbEntity
  8
2
370
    50
100
AcDbLine
 10
-186.061006
 20
-135.079923
 30
0.0
 11
-187.810981
 21
-134.069575
 31
0.0
  0
LINE
  5
142
100
AcDbEntity
  8
2
370
    50
100
AcDbLine
 10
-194.060889
 20
-128.080026
 30
0.0
 11
-194.060889
 21
-126.880044
 31
0.0
  0
LINE
  5
143
100
AcDbEntity
  8
2
370
    50
100
AcDbLine
 10
-174.061183
 20
-128.580019
 30
0.0
 11
-188.381523
 21
-128.580019
 31
0.0
  0
LINE
  5
144
100
AcDbEntity
  8
2
370
    50
100
AcDbLine
 10
-194.060889
 20
-126.880044
 30
0.0
 11
-174.061183
 21
-126.880044
 31
0.0
  0
LINE
  5
145
100
AcDbEntity
  8
2
370
    50
100
AcDbLine
 10
-194.060889
 20
-128.080026
 30
0.0
 11
-174.061183
 21
-128.080026
 31
0.0
  0
ARC
  5
146
100
AcDbEntity
  8
2
370
    50
100
AcDbCircle
 10
-188.381523
 20
-123.580093
 30
0.0
 40
4.999926
100
AcDbArc
 50
246.443536
 51
270.0
  0
ARC
  5
147
100
AcDbEntity
  8
2
370
    50
100
AcDbCircle
 10
-188.381523
 20
-131.379978
 30
0.0
 40
4.999926
100
AcDbArc
 50
90.0
 51
113.556464
  0
ARC
  5
148
100
AcDbEntity
  8
2
370
    50
100
AcDbCircle
 10
-190.779403
 20
-129.080012
 30
0.0
 40
0.999985
100
AcDbArc
 50
66.443536
 51
90.0
  0
ARC
  5
149
100
AcDbEntity
  8
2
370
    50
100
AcDbCircle
 10
-190.779403
 20
-125.880059
 30
0.0
 40
0.999985
100
AcDbArc
 50
270.0
 51
293.556464
  0
LINE
  5
14A
100
AcDbEntity
  8
2
370
    50
100
AcDbLine
 10
-181.06108
 20
-134.069575
 30
0.0
 11
-181.06108
 21
-128.580019
 31
0.0
  0
ARC
  5
14B
100
AcDbEntity
  8
2
370
    50
100
AcDbCircle
 10
-174.061183
 20
-110.326395
 30
0.0
 40
24.753528
100
AcDbArc
 50
253.573579
 51
270.0
  0
ARC
  5
14C
100
AcDbEntity
  8
2
370
    50
100
AcDbCircle
 10
-184.43603
 20
-128.937935
 30
0.0
 40
6.141988
100
AcDbArc
 50
236.668091
 51
303.331909
  0
ARC
  5
14D
100
AcDbEntity
  8
2
370
    50
100
AcDbCircle
 10
-182.311062
 20
-112.330258
 30
0.0
 40
16.249761
100
AcDbArc
 50
255.749967
 51
277.069714
  0
ARC
  5
14E
100
AcDbEntity
  8
2
370
    50
100
AcDbCircle
 10
-178.311121
 20
-112.330258
 30
0.0
 40
16.249761
100
AcDbArc
 50
255.749967
 51
277.514045
  0
ARC
  5
14F
100
AcDbEntity
  8
2
370
    50
100
AcDbCircle
 10
-186.311003
 20
-112.330258
 30
0.0
 40
16.249761
100
AcDbArc
 50
270.0
 51
277.069714
  0
ARC
  5
150
100
AcDbEntity
  8
2
370
    50
100
AcDbCircle
 10
-178.311121
 20
-142.629812
 30
0.0
 40
16.249761
100
AcDbArc
 50
82.485955
 51
104.250033
  0
ARC
  5
151
100
AcDbEntity
  8
2
370
    50
100
AcDbCircle
 10
-182.311062
 20
-142.629812
 30
0.0
 40
16.249761
100
AcDbArc
 50
82.930286
 51
104.250033
  0
ARC
  5
152
100
AcDbEntity
  8
2
370
    50
100
AcDbCircle
 10
-186.311003
 20
-142.629812
 30
0.0
 40
16.249761
100
AcDbArc
 50
82.930286
 51
90.0
  0
LINE
  5
153
100
AcDbEntity
  8
2
370
    50
100
AcDbLine
 10
-185.560567
 20
-166.379507
 30
0.0
 11
-174.060736
 21
-166.379507
 31
0.0
  0
ARC
  5
154
100
AcDbEntity
  8
2
370
    50
100
AcDbCircle
 10
-171.78577
 20
-160.379596
 30
0.0
 40
15.024779
100
AcDbArc
 50
156.463422
 51
203.536578
  0
LINE
  5
155
100
AcDbEntity
  8
2
370
    50
100
AcDbLine
 10
-185.560567
 20
-154.379684
 30
0.0
 11
-174.060736
 21
-154.379684
 31
0.0
  0
ELLIPSE
  5
156
100
AcDbEntity
  8
2
370
    50
100
AcDbEllipse
 10
-184.019882
 20
-160.379596
 30
0.0
 11
0.0
 21
5.9999120000000001
 31
0.0
210
0.0
220
0.0
230
1.0
 40
0.458833
 41
0.0
 42
6.2831849999999996
  0
ELLIPSE
  5
157
100
AcDbEntity
  8
2
370
    50
100
AcDbEllipse
 10
-174.060736
 20
-160.379596
 30
0.0
 11
0.0
 21
5.9999120000000001
 31
0.0
210
0.0
220
0.0
230
1.0
 40
0.926667
 41
0.0
 42
3.1415929999999999
  0
LINE
  5
158
100
AcDbEntity
  8
2
370
    50
100
AcDbLine
 10
-184.311032
 20
-126.503596
 30
0.0
 11
-184.311032
 21
-107.378971
 31
0.0
  0
LINE
  5
159
100
AcDbEntity
  8
2
370
    25
100
AcDbLine
 10
-183.311047
 20
-126.410849
 30
0.0
 11
-183.311047
 21
-107.378971
 31
0.0
  0
LINE
  5
15A
100
AcDbEntity
  8
2
370
    25
100
AcDbLine
 10
-164.810425
 20
-126.410849
 30
0.0
 11
-164.810425
 21
-107.378971
 31
0.0
  0
LINE
  5
15B
100
AcDbEntity
  8
2
370
    50
100
AcDbLine
 10
-163.81044
 20
-126.503596
 30
0.0
 11
-163.81044
 21
-107.378971
 31
0.0
  0
LINE
  5
15C
100
AcDbEntity
  8
2
370
    50
100
AcDbLine
 10
-59.811972
 20
-126.380051
 30
0.0
 11
-57.741452
 21
-126.380051
 31
0.0
  0
ARC
  5
15D
100
AcDbEntity
  8
2
370
    50
100
AcDbCircle
 10
-72.061792
 20
-142.629812
 30
0.0
 40
16.249761
100
AcDbArc
 50
75.749967
 51
90.0
  0
LINE
  5
15E
100
AcDbEntity
  8
2
370
    50
100
AcDbLine
 10
-86.383025
 20
-126.380051
 30
0.0
 11
-84.312505
 21
-126.380051
 31
0.0
  0
LINE
  5
15F
100
AcDbEntity
  8
2
370
    50
100
AcDbLine
 10
-159.739949
 20
-126.380051
 30
0.0
 11
-161.810469
 21
-126.380051
 31
0.0
  0
ARC
  5
160
100
AcDbEntity
  8
2
370
    50
100
AcDbCircle
 10
-174.061183
 20
-142.629812
 30
0.0
 40
16.249761
100
AcDbArc
 50
90.0
 51
104.250033
  0
LINE
  5
161
100
AcDbEntity
  8
2
370
    50
100
AcDbLine
 10
-188.381523
 20
-126.380051
 30
0.0
 11
-186.311003
 21
-126.380051
 31
0.0
  0
LINE
  5
162
100
AcDbEntity
  8
2
370
    50
100
AcDbLine
 10
-193.561487
 20
-107.378971
 30
0.0
 11
-52.561487
 21
-107.378971
 31
0.0
  0
LINE
  5
163
100
AcDbEntity
  8
2
370
    50
100
AcDbLine
 10
-193.561487
 20
-104.380018
 30
0.0
 11
-193.561487
 21
-107.378971
 31
0.0
  0
LINE
  5
164
100
AcDbEntity
  8
2
370
    50
100
AcDbLine
 10
-52.561487
 20
-104.380018
 30
0.0
 11
-52.561487
 21
-107.378971
 31
0.0
  0
LINE
  5
165
100
AcDbEntity
  8
2
370
    50
100
AcDbLine
 10
-111.061487
 20
-61.054734
 30
0.0
 11
-111.061487
 21
-55.210245
 31
0.0
  0
LINE
  5
166
100
AcDbEntity
  8
2
370
    50
100
AcDbLine
 10
-135.061487
 20
-61.054734
 30
0.0
 11
-135.061487
 21
-55.210245
 31
0.0
  0
ELLIPSE
  5
167
100
AcDbEntity
  8
2
370
    50
100
AcDbEllipse
 10
-123.061487
 20
-64.501561
 30
0.0
 11
10.0
 21
0.0
 31
0.0
210
0.0
220
0.0
230
1.0
 40
0.17365
 41
0.0
 42
6.2831849999999996
  0
ARC
  5
168
100
AcDbEntity
  8
2
370
    50
100
AcDbCircle
 10
-124.061487
 20
-18.380543
 30
0.0
 40
20.0
100
AcDbArc
 50
178.037868
 51
180.0
  0
ARC
  5
169
100
AcDbEntity
  8
2
370
    50
100
AcDbCircle
 10
-122.061487
 20
-18.380543
 30
0.0
 40
20.0
100
AcDbArc
 50
0.0
 51
1.818471
  0
ELLIPSE
  5
16A
100
AcDbEntity
  8
2
370
    50
100
AcDbEllipse
 10
-123.061487
 20
-18.380543
 30
0.0
 11
21.0
 21
0.0
 31
0.0
210
0.0
220
0.0
230
1.0
 40
0.173643
 41
3.1415929999999999
 42
0.0
  0
ARC
  5
16B
100
AcDbEntity
  8
2
370
    25
100
AcDbCircle
 10
-129.061487
 20
-48.053381
 30
0.0
 40
10.0
100
AcDbArc
 50
163.391457
 51
176.942005
  0
ELLIPSE
  5
16C
100
AcDbEntity
  8
2
370
    50
100
AcDbEllipse
 10
-123.061487
 20
-6.333742
 30
0.0
 11
5.25
 21
0.0
 31
0.0
210
0.0
220
0.0
230
1.0
 40
0.984762
 41
0.0
 42
6.2831849999999996
  0
POINT
  5
16D
100
AcDbEntity
  8
2
370
    50
100
AcDbPoint
 10
101.206195
 20
-64.501561
 30
0.0
  0
LINE
  5
16E
100
AcDbEntity
  8
2
370
    50
100
AcDbLine
 10
106.536935
 20
-61.887522
 30
0.0
 11
97.090991
 21
-60.221947
 31
0.0
  0
LINE
  5
16F
100
AcDbEntity
  8
2
370
    50
100
AcDbLine
 10
105.929167
 20
-65.334349
 30
0.0
 11
106.536935
 21
-61.887522
 31
0.0
  0
LINE
  5
170
100
AcDbEntity
  8
2
370
    50
100
AcDbLine
 10
96.483223
 20
-63.668774
 30
0.0
 11
97.090991
 21
-60.221947
 31
0.0
  0
LINE
  5
171
100
AcDbEntity
  8
2
370
    25
100
AcDbLine
 10
89.475326
 20
-61.925379
 30
0.0
 11
96.570047
 21
-63.17637
 31
0.0
  0
LINE
  5
172
100
AcDbEntity
  8
2
370
    25
100
AcDbLine
 10
106.015991
 20
-64.841945
 30
0.0
 11
113.110712
 21
-66.092936
 31
0.0
  0
LINE
  5
173
100
AcDbEntity
  8
2
370
    50
100
AcDbLine
 10
-112.061487
 20
-65.334438
 30
0.0
 11
-112.061487
 21
-60.221858
 31
0.0
  0
ELLIPSE
  5
174
100
AcDbEntity
  8
2
370
    50
100
AcDbEllipse
 10
-123.061487
 20
-61.054734
 30
0.0
 11
12.0
 21
0.0
 31
0.0
210
0.0
220
0.0
230
1.0
 40
0.173667
 41
5.8720470000000002
 42
0.411138
  0
LINE
  5
175
100
AcDbEntity
  8
2
370
    50
100
AcDbLine
 10
-134.061487
 20
-65.334438
 30
0.0
 11
-134.061487
 21
-60.221858
 31
0.0
  0
ELLIPSE
  5
176
100
AcDbEntity
  8
2
370
    50
100
AcDbEllipse
 10
-123.061487
 20
-61.054734
 30
0.0
 11
-12.0
 21
0.0
 31
0.0
210
0.0
220
0.0
230
1.0
 40
0.173667
 41
5.8720470000000002
 42
0.411138
  0
ELLIPSE
  5
177
100
AcDbEntity
  8
2
370
    50
100
AcDbEllipse
 10
-123.061487
 20
-64.501561
 30
0.0
 11
12.0
 21
0.0
 31
0.0
210
0.0
220
0.0
230
1.0
 40
0.173667
 41
0.411138
 42
2.7304550000000001
  0
ELLIPSE
  5
178
100
AcDbEntity
  8
2
370
    50
100
AcDbEllipse
 10
-123.061487
 20
-64.501561
 30
0.0
 11
12.0
 21
0.0
 31
0.0
210
0.0
220
0.0
230
1.0
 40
0.173667
 41
3.5527310000000001
 42
5.8720470000000002
  0
ARC
  5
179
100
AcDbEntity
  8
2
370
    50
100
AcDbCircle
 10
-79.820619
 20
-67.882871
 30
0.0
 40
20.0
100
AcDbArc
 50
182.0
 51
265.901507
  0
ARC
  5
17A
100
AcDbEntity
  8
2
370
    50
100
AcDbCircle
 10
-123.061487
 20
-671.3466
 30
0.0
 40
585.010946
100
AcDbArc
 50
84.101526
 51
85.901507
  0
LINE
  5
17B
100
AcDbEntity
  8
2
370
    25
  6
CENTER
100
AcDbLine
 10
-72.062239
 20
-102.615776
 30
0.0
 11
-72.062239
 21
-168.699997
 31
0.0
  0
POINT
  5
17C
100
AcDbEntity
  8
2
370
    50
100
AcDbPoint
 10
-174.060736
 20
-159.880018
 30
0.0
  0
LINE
  5
17D
100
AcDbEntity
  8
2
370
    50
100
AcDbLine
 10
-113.099426
 20
89.863805
 30
0.0
 11
-109.717918
 21
128.514622
 31
0.0
  0
ARC
  5
17E
100
AcDbEntity
  8
2
370
    50
100
AcDbCircle
 10
-59.908183
 20
124.156835
 30
0.0
 40
50.0
100
AcDbArc
 50
151.29779
 51
175.0
  0
LINE
  5
17F
100
AcDbEntity
  8
2
370
    50
100
AcDbLine
 10
-133.02332
 20
89.863805
 30
0.0
 11
-136.404829
 21
128.514622
 31
0.0
  0
ARC
  5
180
100
AcDbEntity
  8
2
370
    50
100
AcDbCircle
 10
-186.214564
 20
124.156835
 30
0.0
 40
50.0
100
AcDbArc
 50
5.0
 51
28.70221
  0
ARC
  5
181
100
AcDbEntity
  8
2
370
    50
100
AcDbCircle
 10
-123.061373
 20
158.735363
 30
0.0
 40
22.0
100
AcDbArc
 50
331.29779
 51
208.70221
  0
ARC
  5
182
100
AcDbEntity
  8
2
370
    50
100
AcDbCircle
 10
-123.061373
 20
90.735363
 30
0.0
 40
10.0
100
AcDbArc
 50
185.0
 51
355.0
  0
LINE
  5
183
100
AcDbEntity
  8
2
370
    25
  6
CENTER
100
AcDbLine
 10
-148.061373
 20
158.735363
 30
0.0
 11
-98.061373
 21
158.735363
 31
0.0
  0
LINE
  5
184
100
AcDbEntity
  8
2
370
    50
  6
DASHED
100
AcDbLine
 10
-79.998295
 20
104.071818
 30
0.0
 11
-96.395232
 21
139.235162
 31
0.0
  0
ARC
  5
185
100
AcDbEntity
  8
2
370
    50
  6
DASHED
100
AcDbCircle
 10
-89.061373
 20
99.845635
 30
0.0
 40
10.0
100
AcDbArc
 50
215.0
 51
25.0
  0
LINE
  5
186
100
AcDbEntity
  8
2
370
    50
  6
DASHED
100
AcDbLine
 10
-97.252894
 20
94.109871
 30
0.0
 11
-104.823371
 21
104.921633
 31
0.0
  0
LINE
  5
187
100
AcDbEntity
  8
2
370
    50
  6
DASHED
100
AcDbLine
 10
-187.686865
 20
132.926883
 30
0.0
 11
-155.90503
 21
155.180764
 31
0.0
  0
ARC
  5
188
100
AcDbEntity
  8
2
370
    50
  6
DASHED
100
AcDbCircle
 10
-181.951101
 20
124.735363
 30
0.0
 40
10.0
100
AcDbArc
 50
125.0
 51
295.0
  0
LINE
  5
189
100
AcDbEntity
  8
2
370
    50
  6
DASHED
100
AcDbLine
 10
-177.724918
 20
115.672285
 30
0.0
 11
-143.81134
 21
131.486446
 31
0.0
  0
SPLINE
  5
18A
100
AcDbEntity
  8
2
370
    50
100
AcDbSpline
210
0.0
220
0.0
230
1.0
 70
     8
 71
     3
 72
     0
 73
     0
 74
    40
 44
0.0000000001
 11
-112.603432
 21
15.478994999999999
 31
0.0
 11
-113.125033
 21
15.628909
 31
0.0
 11
-113.649028
 21
15.769735000000001
 31
0.0
 11
-114.17634099999999
 21
15.897721000000001
 31
0.0
 11
-114.70645399999999
 21
16.014354000000001
 31
0.0
 11
-115.238789
 21
16.121344000000001
 31
0.0
 11
-115.772767
 21
16.220400000000001
 31
0.0
 11
-116.30782600000001
 21
16.313168000000001
 31
0.0
 11
-116.843715
 21
16.400172000000001
 31
0.0
 11
-117.380447
 21
16.480986999999999
 31
0.0
 11
-117.918042
 21
16.555153000000001
 31
0.0
 11
-118.456521
 21
16.622215000000001
 31
0.0
 11
-118.995904
 21
16.681719999999999
 31
0.0
 11
-119.536146
 21
16.733450999999999
 31
0.0
 11
-120.07711500000001
 21
16.777529000000001
 31
0.0
 11
-120.618673
 21
16.814095999999999
 31
0.0
 11
-121.160681
 21
16.843298000000001
 31
0.0
 11
-121.70300899999999
 21
16.865248000000001
 31
0.0
 11
-122.245564
 21
16.879944999999999
 31
0.0
 11
-122.78826100000001
 21
16.887367000000001
 31
0.0
 11
-123.331013
 21
16.887487
 31
0.0
 11
-123.873735
 21
16.880279999999999
 31
0.0
 11
-124.41632300000001
 21
16.865711000000001
 31
0.0
 11
-124.95866100000001
 21
16.843733
 31
0.0
 11
-125.500629
 21
16.814298999999998
 31
0.0
 11
-126.04210999999999
 21
16.777363999999999
 31
0.0
 11
-126.582993
 21
16.732911999999999
 31
0.0
 11
-127.12321900000001
 21
16.681103
 31
0.0
 11
-127.66274799999999
 21
16.622156
 31
0.0
 11
-128.201536
 21
16.556294000000001
 31
0.0
 11
-128.739543
 21
16.483736
 31
0.0
 11
-129.27667199999999
 21
16.404505
 31
0.0
 11
-129.81265500000001
 21
16.317972999999999
 31
0.0
 11
-130.34718699999999
 21
16.223386000000001
 31
0.0
 11
-130.879964
 21
16.119986999999998
 31
0.0
 11
-131.41068300000001
 21
16.007019
 31
0.0
 11
-131.93923100000001
 21
15.884444
 31
0.0
 11
-132.46607
 21
15.754364000000001
 31
0.0
 11
-132.99177
 21
15.619282
 31
0.0
 11
-133.516492
 21
15.481806000000001
 31
0.0
  0
LINE
  5
18B
100
AcDbEntity
  8
2
370
    25
100
AcDbLine
 10
-113.868845
 20
11.421863
 30
0.0
 11
-113.871776
 21
11.420791
 31
0.0
  0
SPLINE
  5
18C
100
AcDbEntity
  8
2
370
    50
100
AcDbSpline
210
0.0
220
0.0
230
1.0
 70
     8
 71
     3
 72
     0
 73
     0
 74
    37
 44
0.0000000001
 11
-133.65298899999999
 21
15.449557
 31
0.0
 11
-133.73974699999999
 21
15.422537
 31
0.0
 11
-133.82480899999999
 21
15.390065999999999
 31
0.0
 11
-133.90834599999999
 21
15.352918000000001
 31
0.0
 11
-133.99059199999999
 21
15.312082999999999
 31
0.0
 11
-134.07178200000001
 21
15.268552
 31
0.0
 11
-134.15214499999999
 21
15.223297000000001
 31
0.0
 11
-134.23178999999999
 21
15.176776
 31
0.0
 11
-134.31068300000001
 21
15.128841
 31
0.0
 11
-134.38878
 21
15.079309
 31
0.0
 11
-134.46603999999999
 21
15.027996999999999
 31
0.0
 11
-134.542418
 21
14.974722
 31
0.0
 11
-134.61789200000001
 21
14.919361
 31
0.0
 11
-134.69250099999999
 21
14.861967999999999
 31
0.0
 11
-134.76629399999999
 21
14.802633999999999
 31
0.0
 11
-134.83931999999999
 21
14.741448
 31
0.0
 11
-134.91163
 21
14.678497999999999
 31
0.0
 11
-134.983273
 21
14.613873
 31
0.0
 11
-135.054284
 21
14.547605000000001
 31
0.0
 11
-135.12468000000001
 21
14.479656
 31
0.0
 11
-135.194478
 21
14.409985000000001
 31
0.0
 11
-135.26369299999999
 21
14.338551000000001
 31
0.0
 11
-135.33234200000001
 21
14.265312
 31
0.0
 11
-135.400441
 21
14.190227999999999
 31
0.0
 11
-135.468017
 21
14.113334999999999
 31
0.0
 11
-135.535113
 21
14.034765
 31
0.0
 11
-135.60176999999999
 21
13.954658
 31
0.0
 11
-135.66803200000001
 21
13.873154
 31
0.0
 11
-135.73393999999999
 21
13.790392000000001
 31
0.0
 11
-135.79953800000001
 21
13.706512999999999
 31
0.0
 11
-135.864846
 21
13.621518
 31
0.0
 11
-135.92981800000001
 21
13.534995
 31
0.0
 11
-135.99439599999999
 21
13.446457000000001
 31
0.0
 11
-136.05852200000001
 21
13.355418999999999
 31
0.0
 11
-136.12213700000001
 21
13.261393
 31
0.0
 11
-136.18518499999999
 21
13.163892000000001
 31
0.0
 11
-136.24761000000001
 21
13.062823
 31
0.0
  0
SPLINE
  5
18D
100
AcDbEntity
  8
2
370
    50
100
AcDbSpline
210
0.0
220
0.0
230
1.0
 70
     8
 71
     3
 72
     0
 73
     0
 74
    34
 44
0.0000000001
 11
-109.876087
 21
13.059005000000001
 31
0.0
 11
-109.944594
 21
13.164052
 31
0.0
 11
-110.013229
 21
13.268419
 31
0.0
 11
-110.082121
 21
13.371425
 31
0.0
 11
-110.151399
 21
13.472390000000001
 31
0.0
 11
-110.221182
 21
13.570684
 31
0.0
 11
-110.29151
 21
13.6662
 31
0.0
 11
-110.362374
 21
13.759135000000001
 31
0.0
 11
-110.43376499999999
 21
13.849691
 31
0.0
 11
-110.505674
 21
13.938069
 31
0.0
 11
-110.578092
 21
14.024470000000001
 31
0.0
 11
-110.65101199999999
 21
14.109080000000001
 31
0.0
 11
-110.724457
 21
14.191936
 31
0.0
 11
-110.798464
 21
14.272986
 31
0.0
 11
-110.873071
 21
14.352179
 31
0.0
 11
-110.948317
 21
14.429463999999999
 31
0.0
 11
-111.02424000000001
 21
14.504791000000001
 31
0.0
 11
-111.100877
 21
14.578108
 31
0.0
 11
-111.178274
 21
14.649357
 31
0.0
 11
-111.25647600000001
 21
14.718479
 31
0.0
 11
-111.335532
 21
14.785415
 31
0.0
 11
-111.41548899999999
 21
14.850104
 31
0.0
 11
-111.496392
 21
14.912488
 31
0.0
 11
-111.578281
 21
14.972534
 31
0.0
 11
-111.66114899999999
 21
15.030362999999999
 31
0.0
 11
-111.74497599999999
 21
15.086149000000001
 31
0.0
 11
-111.829739
 21
15.140065
 31
0.0
 11
-111.91541700000001
 21
15.192285
 31
0.0
 11
-112.002022
 21
15.242832999999999
 31
0.0
 11
-112.089743
 21
15.290933000000001
 31
0.0
 11
-112.17883
 21
15.335542
 31
0.0
 11
-112.26953399999999
 21
15.375613
 31
0.0
 11
-112.362101
 21
15.410111000000001
 31
0.0
 11
-112.456154
 21
15.439806000000001
 31
0.0
  0
SPLINE
  5
18E
100
AcDbEntity
  8
2
370
    50
100
AcDbSpline
210
0.0
220
0.0
230
1.0
 70
     8
 71
     3
 72
     0
 73
     0
 74
    55
 44
0.0000000001
 11
-136.25000600000001
 21
13.065201999999999
 31
0.0
 11
-136.26852600000001
 21
13.036009
 31
0.0
 11
-136.29477800000001
 21
12.998533999999999
 31
0.0
 11
-136.32715400000001
 21
12.954874
 31
0.0
 11
-136.36373599999999
 21
12.907472
 31
0.0
 11
-136.40327300000001
 21
12.857957000000001
 31
0.0
 11
-136.445967
 21
12.806184
 31
0.0
 11
-136.49221499999999
 21
12.751777000000001
 31
0.0
 11
-136.542385
 21
12.694383999999999
 31
0.0
 11
-136.59652299999999
 21
12.633994
 31
0.0
 11
-136.65446
 21
12.570817999999999
 31
0.0
 11
-136.716025
 21
12.505072999999999
 31
0.0
 11
-136.78106099999999
 21
12.436951000000001
 31
0.0
 11
-136.849512
 21
12.366512999999999
 31
0.0
 11
-136.92135400000001
 21
12.293774000000001
 31
0.0
 11
-136.996567
 21
12.218745999999999
 31
0.0
 11
-137.07512199999999
 21
12.141448
 31
0.0
 11
-137.15697499999999
 21
12.061909
 31
0.0
 11
-137.242074
 21
11.980164
 31
0.0
 11
-137.330367
 21
11.896247000000001
 31
0.0
 11
-137.42180500000001
 21
11.810192000000001
 31
0.0
 11
-137.516347
 21
11.722015000000001
 31
0.0
 11
-137.613957
 21
11.631728000000001
 31
0.0
 11
-137.71459899999999
 21
11.539343000000001
 31
0.0
 11
-137.81823800000001
 21
11.44487
 31
0.0
 11
-137.92483200000001
 21
11.348324
 31
0.0
 11
-138.03433799999999
 21
11.249719000000001
 31
0.0
 11
-138.146716
 21
11.149069000000001
 31
0.0
 11
-138.261921
 21
11.046388
 31
0.0
 11
-138.379921
 21
10.941682
 31
0.0
 11
-138.50069999999999
 21
10.83494
 31
0.0
 11
-138.62424300000001
 21
10.726151
 31
0.0
 11
-138.75053399999999
 21
10.615301000000001
 31
0.0
 11
-138.879558
 21
10.502378
 31
0.0
 11
-139.011291
 21
10.387359
 31
0.0
 11
-139.14570800000001
 21
10.270219000000001
 31
0.0
 11
-139.28278399999999
 21
10.150933
 31
0.0
 11
-139.422494
 21
10.029477
 31
0.0
 11
-139.56479999999999
 21
9.9058349999999997
 31
0.0
 11
-139.70965200000001
 21
9.7800049999999992
 31
0.0
 11
-139.857001
 21
9.6519809999999993
 31
0.0
 11
-140.00679600000001
 21
9.5217589999999994
 31
0.0
 11
-140.15897799999999
 21
9.3893500000000003
 31
0.0
 11
-140.31346600000001
 21
9.2547929999999994
 31
0.0
 11
-140.47017299999999
 21
9.1181350000000005
 31
0.0
 11
-140.62901400000001
 21
8.9794199999999993
 31
0.0
 11
-140.78992
 21
8.8386750000000003
 31
0.0
 11
-140.952946
 21
8.6957740000000001
 31
0.0
 11
-141.118201
 21
8.5505189999999995
 31
0.0
 11
-141.285799
 21
8.4027119999999993
 31
0.0
 11
-141.45584600000001
 21
8.2521620000000002
 31
0.0
 11
-141.628199
 21
8.0989880000000003
 31
0.0
 11
-141.80230700000001
 21
7.9438120000000003
 31
0.0
 11
-141.977586
 21
7.7873029999999996
 31
0.0
 11
-142.15325999999999
 21
7.6302960000000004
 31
0.0
  0
SPLINE
  5
18F
100
AcDbEntity
  8
2
370
    50
100
AcDbSpline
210
0.0
220
0.0
230
1.0
 70
     8
 71
     3
 72
     0
 73
     0
 74
    55
 44
0.0000000001
 11
-103.96606300000001
 21
7.6259009999999998
 31
0.0
 11
-104.145016
 21
7.7869219999999997
 31
0.0
 11
-104.322553
 21
7.9462400000000004
 31
0.0
 11
-104.49736300000001
 21
8.1022890000000007
 31
0.0
 11
-104.66918800000001
 21
8.2548049999999993
 31
0.0
 11
-104.838351
 21
8.4042490000000001
 31
0.0
 11
-105.005183
 21
8.5510929999999998
 31
0.0
 11
-105.17001399999999
 21
8.6958059999999993
 31
0.0
 11
-105.33303600000001
 21
8.8386849999999999
 31
0.0
 11
-105.49414299999999
 21
8.9796619999999994
 31
0.0
 11
-105.65319100000001
 21
9.1186170000000004
 31
0.0
 11
-105.810036
 21
9.255433
 31
0.0
 11
-105.964541
 21
9.3900009999999998
 31
0.0
 11
-106.11664500000001
 21
9.5223069999999996
 31
0.0
 11
-106.266329
 21
9.6523869999999992
 31
0.0
 11
-106.413573
 21
9.7802769999999999
 31
0.0
 11
-106.558357
 21
9.9060159999999993
 31
0.0
 11
-106.700648
 21
10.029622
 31
0.0
 11
-106.840378
 21
10.151087
 31
0.0
 11
-106.977479
 21
10.270397000000001
 31
0.0
 11
-107.11188300000001
 21
10.387537999999999
 31
0.0
 11
-107.243528
 21
10.502501000000001
 31
0.0
 11
-107.37239599999999
 21
10.615311999999999
 31
0.0
 11
-107.49848799999999
 21
10.726005000000001
 31
0.0
 11
-107.621803
 21
10.834616
 31
0.0
 11
-107.742341
 21
10.941181
 31
0.0
 11
-107.860086
 21
11.045715
 31
0.0
 11
-107.97501099999999
 21
11.148210000000001
 31
0.0
 11
-108.087084
 21
11.248659999999999
 31
0.0
 11
-108.19627699999999
 21
11.347060000000001
 31
0.0
 11
-108.302561
 21
11.443402000000001
 31
0.0
 11
-108.405907
 21
11.537682999999999
 31
0.0
 11
-108.506287
 21
11.629899999999999
 31
0.0
 11
-108.603672
 21
11.720048
 31
0.0
 11
-108.69803400000001
 21
11.808123
 31
0.0
 11
-108.789331
 21
11.894104
 31
0.0
 11
-108.877521
 21
11.977967
 31
0.0
 11
-108.962557
 21
12.059685999999999
 31
0.0
 11
-109.04439600000001
 21
12.139234
 31
0.0
 11
-109.123001
 21
12.216592
 31
0.0
 11
-109.198345
 21
12.291746
 31
0.0
 11
-109.270399
 21
12.364680999999999
 31
0.0
 11
-109.33913800000001
 21
12.435383
 31
0.0
 11
-109.404498
 21
12.503793999999999
 31
0.0
 11
-109.466341
 21
12.569751
 31
0.0
 11
-109.524514
 21
12.633077
 31
0.0
 11
-109.578866
 21
12.693593999999999
 31
0.0
 11
-109.629327
 21
12.751208
 31
0.0
 11
-109.67614
 21
12.806139
 31
0.0
 11
-109.719617
 21
12.85868
 31
0.0
 11
-109.76004500000001
 21
12.909091999999999
 31
0.0
 11
-109.796809
 21
12.956559
 31
0.0
 11
-109.82823
 21
12.998993
 31
0.0
 11
-109.852566
 21
13.034233
 31
0.0
 11
-109.87015599999999
 21
13.062372999999999
 31
0.0
  0
LINE
  5
190
100
AcDbEntity
  8
2
370
    50
100
AcDbLine
 10
-101.061487
 20
-17.12479
 30
0.0
 11
-101.061487
 21
3.178506
 31
0.0
  0
LINE
  5
191
100
AcDbEntity
  8
2
370
    50
100
AcDbLine
 10
-145.061487
 20
3.182663
 30
0.0
 11
-145.061487
 21
-17.12479
 31
0.0
  0
SPLINE
  5
192
100
AcDbEntity
  8
2
370
    50
100
AcDbSpline
210
0.0
220
0.0
230
1.0
 70
     8
 71
     3
 72
     0
 73
     0
 74
    43
 44
0.0000000001
 11
-101.067723
 21
3.1740370000000002
 31
0.0
 11
-101.06968999999999
 21
3.284815
 31
0.0
 11
-101.074397
 21
3.3949750000000001
 31
0.0
 11
-101.084508
 21
3.5039189999999998
 31
0.0
 11
-101.1009
 21
3.6114489999999999
 31
0.0
 11
-101.122596
 21
3.7177820000000001
 31
0.0
 11
-101.148533
 21
3.8231579999999998
 31
0.0
 11
-101.177784
 21
3.9277950000000001
 31
0.0
 11
-101.21014599999999
 21
4.0318139999999998
 31
0.0
 11
-101.24566
 21
4.1353010000000001
 31
0.0
 11
-101.284367
 21
4.2383449999999998
 31
0.0
 11
-101.32629300000001
 21
4.3410330000000004
 31
0.0
 11
-101.371368
 21
4.4434589999999998
 31
0.0
 11
-101.419487
 21
4.5457200000000002
 31
0.0
 11
-101.470547
 21
4.6479109999999997
 31
0.0
 11
-101.52444199999999
 21
4.750127
 31
0.0
 11
-101.581104
 21
4.8524469999999997
 31
0.0
 11
-101.640514
 21
4.9549190000000003
 31
0.0
 11
-101.702656
 21
5.0575910000000004
 31
0.0
 11
-101.767515
 21
5.1605109999999996
 31
0.0
 11
-101.835075
 21
5.263725
 31
0.0
 11
-101.905314
 21
5.367267
 31
0.0
 11
-101.978206
 21
5.4711569999999998
 31
0.0
 11
-102.053725
 21
5.5754159999999997
 31
0.0
 11
-102.131844
 21
5.6800610000000002
 31
0.0
 11
-102.212537
 21
5.7851129999999999
 31
0.0
 11
-102.29580199999999
 21
5.8905849999999997
 31
0.0
 11
-102.381663
 21
5.9964839999999997
 31
0.0
 11
-102.470144
 21
6.1028159999999998
 31
0.0
 11
-102.56126999999999
 21
6.2095880000000001
 31
0.0
 11
-102.655063
 21
6.3168059999999997
 31
0.0
 11
-102.75147699999999
 21
6.4244640000000004
 31
0.0
 11
-102.850382
 21
6.5325410000000002
 31
0.0
 11
-102.951641
 21
6.6410130000000001
 31
0.0
 11
-103.055119
 21
6.7498589999999998
 31
0.0
 11
-103.160685
 21
6.859057
 31
0.0
 11
-103.26845299999999
 21
6.9686110000000001
 31
0.0
 11
-103.37886899999999
 21
7.0785609999999997
 31
0.0
 11
-103.49240500000001
 21
7.1889500000000002
 31
0.0
 11
-103.609533
 21
7.2998219999999998
 31
0.0
 11
-103.730707
 21
7.4112159999999996
 31
0.0
 11
-103.855495
 21
7.5230689999999996
 31
0.0
 11
-103.982035
 21
7.6350619999999996
 31
0.0
  0
SPLINE
  5
193
100
AcDbEntity
  8
2
370
    50
100
AcDbSpline
210
0.0
220
0.0
230
1.0
 70
     8
 71
     3
 72
     0
 73
     0
 74
    43
 44
0.0000000001
 11
-142.14403300000001
 21
7.6347940000000003
 31
0.0
 11
-142.27211299999999
 21
7.5230740000000003
 31
0.0
 11
-142.39563799999999
 21
7.411867
 31
0.0
 11
-142.51454200000001
 21
7.3011990000000004
 31
0.0
 11
-142.629581
 21
7.1910020000000001
 31
0.0
 11
-142.741514
 21
7.0812099999999996
 31
0.0
 11
-142.85109700000001
 21
6.9717580000000003
 31
0.0
 11
-142.95889700000001
 21
6.8625990000000003
 31
0.0
 11
-143.06483700000001
 21
6.7537500000000001
 31
0.0
 11
-143.168701
 21
6.6452429999999998
 31
0.0
 11
-143.270274
 21
6.5371100000000002
 31
0.0
 11
-143.369338
 21
6.4293829999999996
 31
0.0
 11
-143.46572
 21
6.3220869999999998
 31
0.0
 11
-143.55941799999999
 21
6.2152260000000004
 31
0.0
 11
-143.650474
 21
6.1087949999999998
 31
0.0
 11
-143.73893200000001
 21
6.0027889999999999
 31
0.0
 11
-143.82483500000001
 21
5.8972049999999996
 31
0.0
 11
-143.90821700000001
 21
5.7920379999999998
 31
0.0
 11
-143.98906299999999
 21
5.6872749999999996
 31
0.0
 11
-144.06733800000001
 21
5.5829060000000004
 31
0.0
 11
-144.143013
 21
5.4789180000000002
 31
0.0
 11
-144.21605400000001
 21
5.3752969999999998
 31
0.0
 11
-144.28643099999999
 21
5.27203
 31
0.0
 11
-144.354129
 21
5.1690839999999998
 31
0.0
 11
-144.41913600000001
 21
5.0664220000000002
 31
0.0
 11
-144.48144400000001
 21
4.9640050000000002
 31
0.0
 11
-144.54104100000001
 21
4.8617949999999999
 31
0.0
 11
-144.59791000000001
 21
4.7597509999999996
 31
0.0
 11
-144.65198799999999
 21
4.6578020000000002
 31
0.0
 11
-144.70318399999999
 21
4.5558630000000004
 31
0.0
 11
-144.751408
 21
4.4538500000000001
 31
0.0
 11
-144.796571
 21
4.3516769999999996
 31
0.0
 11
-144.83859200000001
 21
4.2492599999999996
 31
0.0
 11
-144.877464
 21
4.1465120000000004
 31
0.0
 11
-144.913228
 21
4.0433469999999998
 31
0.0
 11
-144.945922
 21
3.9396779999999998
 31
0.0
 11
-144.975572
 21
3.8354180000000002
 31
0.0
 11
-145.00176500000001
 21
3.7304210000000002
 31
0.0
 11
-145.023552
 21
3.6244710000000002
 31
0.0
 11
-145.039951
 21
3.51735
 31
0.0
 11
-145.05011999999999
 21
3.408868
 31
0.0
 11
-145.05516399999999
 21
3.2992659999999998
 31
0.0
 11
-145.057626
 21
3.1891919999999998
 31
0.0
  0
LINE
  5
194
100
AcDbEntity
  8
2
370
    50
100
AcDbLine
 10
-133.518868
 20
15.490482
 30
0.0
 11
-133.256539
 21
15.538402
 31
0.0
  0
LINE
  5
195
100
AcDbEntity
  8
2
370
    50
100
AcDbLine
 10
-112.877608
 20
15.553764
 30
0.0
 11
-112.603436
 21
15.470133
 31
0.0
  0
SPLINE
  5
196
100
AcDbEntity
  8
2
370
    25
100
AcDbSpline
210
0.0
220
0.0
230
1.0
 70
     8
 71
     3
 72
     0
 73
     0
 74
   139
 44
0.0000000001
 11
-132.25665799999999
 21
15.497941000000001
 31
0.0
 11
-132.23675
 21
15.492571999999999
 31
0.0
 11
-132.21251000000001
 21
15.488111999999999
 31
0.0
 11
-132.18395699999999
 21
15.484546
 31
0.0
 11
-132.15111300000001
 21
15.481859
 31
0.0
 11
-132.11399700000001
 21
15.480035000000001
 31
0.0
 11
-132.07263
 21
15.47906
 31
0.0
 11
-132.02703199999999
 21
15.478918
 31
0.0
 11
-131.97722400000001
 21
15.479595
 31
0.0
 11
-131.92321200000001
 21
15.481075000000001
 31
0.0
 11
-131.864878
 21
15.483358000000001
 31
0.0
 11
-131.80227400000001
 21
15.486421
 31
0.0
 11
-131.73549700000001
 21
15.490237
 31
0.0
 11
-131.66464400000001
 21
15.494778
 31
0.0
 11
-131.58981299999999
 21
15.500017
 31
0.0
 11
-131.5111
 21
15.505925
 31
0.0
 11
-131.42860400000001
 21
15.512475999999999
 31
0.0
 11
-131.342421
 21
15.519643
 31
0.0
 11
-131.25263200000001
 21
15.527393999999999
 31
0.0
 11
-131.15924899999999
 21
15.535698999999999
 31
0.0
 11
-131.06227200000001
 21
15.544532
 31
0.0
 11
-130.96170100000001
 21
15.553868
 31
0.0
 11
-130.85754
 21
15.563682
 31
0.0
 11
-130.74978899999999
 21
15.573947
 31
0.0
 11
-130.63845000000001
 21
15.584638
 31
0.0
 11
-130.52352500000001
 21
15.595731000000001
 31
0.0
 11
-130.405012
 21
15.607199
 31
0.0
 11
-130.282757
 21
15.61903
 31
0.0
 11
-130.15686099999999
 21
15.631188
 31
0.0
 11
-130.027593
 21
15.643618999999999
 31
0.0
 11
-129.89521999999999
 21
15.656269999999999
 31
0.0
 11
-129.76001400000001
 21
15.669086999999999
 31
0.0
 11
-129.622108
 21
15.682031
 31
0.0
 11
-129.48151899999999
 21
15.695074999999999
 31
0.0
 11
-129.33826500000001
 21
15.708190999999999
 31
0.0
 11
-129.19236100000001
 21
15.721351
 31
0.0
 11
-129.043826
 21
15.734529999999999
 31
0.0
 11
-128.892652
 21
15.747700999999999
 31
0.0
 11
-128.738831
 21
15.760840999999999
 31
0.0
 11
-128.58235400000001
 21
15.773923
 31
0.0
 11
-128.42321200000001
 21
15.786924000000001
 31
0.0
 11
-128.26139699999999
 21
15.799818
 31
0.0
 11
-128.09690000000001
 21
15.812580000000001
 31
0.0
 11
-127.929711
 21
15.825186
 31
0.0
 11
-127.759907
 21
15.837604000000001
 31
0.0
 11
-127.587816
 21
15.849785000000001
 31
0.0
 11
-127.41377799999999
 21
15.861685
 31
0.0
 11
-127.238131
 21
15.873262
 31
0.0
 11
-127.06114599999999
 21
15.884475999999999
 31
0.0
 11
-126.88269200000001
 21
15.895322999999999
 31
0.0
 11
-126.702742
 21
15.905786000000001
 31
0.0
 11
-126.521299
 21
15.915850000000001
 31
0.0
 11
-126.33836599999999
 21
15.925497
 31
0.0
 11
-126.153944
 21
15.934711
 31
0.0
 11
-125.96803
 21
15.943477
 31
0.0
 11
-125.78061599999999
 21
15.951777999999999
 31
0.0
 11
-125.59169900000001
 21
15.959599000000001
 31
0.0
 11
-125.401149
 21
15.966926000000001
 31
0.0
 11
-125.208979
 21
15.973744999999999
 31
0.0
 11
-125.015457
 21
15.980031
 31
0.0
 11
-124.820854
 21
15.985761999999999
 31
0.0
 11
-124.625539
 21
15.990914
 31
0.0
 11
-124.430037
 21
15.995468000000001
 31
0.0
 11
-124.234391
 21
15.999420000000001
 31
0.0
 11
-124.0386
 21
16.002769000000001
 31
0.0
 11
-123.84266599999999
 21
16.005510999999998
 31
0.0
 11
-123.64658799999999
 21
16.007646000000001
 31
0.0
 11
-123.450368
 21
16.009170000000001
 31
0.0
 11
-123.25400500000001
 21
16.010081
 31
0.0
 11
-123.057501
 21
16.010376999999998
 31
0.0
 11
-122.860855
 21
16.010055999999999
 31
0.0
 11
-122.66406600000001
 21
16.009117
 31
0.0
 11
-122.467134
 21
16.007560999999999
 31
0.0
 11
-122.27005699999999
 21
16.005385
 31
0.0
 11
-122.072805
 21
16.002587999999999
 31
0.0
 11
-121.875517
 21
15.999172
 31
0.0
 11
-121.67867
 21
15.995151999999999
 31
0.0
 11
-121.482754
 21
15.990546
 31
0.0
 11
-121.288223
 21
15.985372999999999
 31
0.0
 11
-121.09502999999999
 21
15.979645
 31
0.0
 11
-120.903104
 21
15.973376
 31
0.0
 11
-120.712442
 21
15.966578999999999
 31
0.0
 11
-120.523039
 21
15.959268
 31
0.0
 11
-120.33489400000001
 21
15.951456
 31
0.0
 11
-120.148004
 21
15.943158
 31
0.0
 11
-119.96236500000001
 21
15.934386999999999
 31
0.0
 11
-119.777973
 21
15.925155999999999
 31
0.0
 11
-119.59474400000001
 21
15.915471
 31
0.0
 11
-119.41258000000001
 21
15.905336999999999
 31
0.0
 11
-119.23169
 21
15.894786
 31
0.0
 11
-119.05229
 21
15.883851
 31
0.0
 11
-118.8746
 21
15.872566000000001
 31
0.0
 11
-118.698836
 21
15.860965
 31
0.0
 11
-118.525216
 21
15.849080000000001
 31
0.0
 11
-118.353959
 21
15.836945
 31
0.0
 11
-118.18527899999999
 21
15.824593
 31
0.0
 11
-118.01917
 21
15.812051
 31
0.0
 11
-117.855547
 21
15.799341999999999
 31
0.0
 11
-117.69440899999999
 21
15.786489
 31
0.0
 11
-117.535757
 21
15.773517999999999
 31
0.0
 11
-117.379589
 21
15.760453
 31
0.0
 11
-117.22590700000001
 21
15.747318999999999
 31
0.0
 11
-117.07471
 21
15.734139000000001
 31
0.0
 11
-116.925997
 21
15.720938
 31
0.0
 11
-116.779743
 21
15.707739
 31
0.0
 11
-116.635876
 21
15.694559
 31
0.0
 11
-116.494596
 21
15.681444000000001
 31
0.0
 11
-116.356139
 21
15.668443
 31
0.0
 11
-116.220748
 21
15.655602999999999
 31
0.0
 11
-116.088778
 21
15.642986000000001
 31
0.0
 11
-115.960329
 21
15.630630999999999
 31
0.0
 11
-115.83537800000001
 21
15.618563
 31
0.0
 11
-115.71390599999999
 21
15.606806000000001
 31
0.0
 11
-115.595888
 21
15.595386
 31
0.0
 11
-115.481313
 21
15.584327999999999
 31
0.0
 11
-115.370195
 21
15.573658999999999
 31
0.0
 11
-115.262546
 21
15.563406000000001
 31
0.0
 11
-115.158378
 21
15.553595
 31
0.0
 11
-115.057704
 21
15.544255
 31
0.0
 11
-114.960537
 21
15.535411
 31
0.0
 11
-114.86689
 21
15.527091
 31
0.0
 11
-114.776775
 21
15.519322000000001
 31
0.0
 11
-114.690262
 21
15.512136999999999
 31
0.0
 11
-114.60754
 21
15.505576
 31
0.0
 11
-114.52881499999999
 21
15.499675999999999
 31
0.0
 11
-114.454292
 21
15.494475
 31
0.0
 11
-114.38404199999999
 21
15.489998
 31
0.0
 11
-114.317965
 21
15.486253
 31
0.0
 11
-114.256049
 21
15.483257
 31
0.0
 11
-114.19828200000001
 21
15.481025000000001
 31
0.0
 11
-114.144648
 21
15.479571999999999
 31
0.0
 11
-114.09513699999999
 21
15.478914
 31
0.0
 11
-114.049774
 21
15.479067000000001
 31
0.0
 11
-114.008588
 21
15.480048
 31
0.0
 11
-113.971605
 21
15.481873999999999
 31
0.0
 11
-113.938855
 21
15.484562
 31
0.0
 11
-113.910363
 21
15.488127
 31
0.0
 11
-113.88615799999999
 21
15.492585999999999
 31
0.0
 11
-113.866317
 21
15.497941000000001
 31
0.0
  0
ARC
  5
197
100
AcDbEntity
  8
2
370
    50
100
AcDbCircle
 10
-114.101572
 20
14.523915
 30
0.0
 40
1.002048
100
AcDbArc
 50
359.677114
 51
76.420214
  0
ARC
  5
198
100
AcDbEntity
  8
2
370
    50
100
AcDbCircle
 10
-132.021403
 20
14.523915
 30
0.0
 40
1.002048
100
AcDbArc
 50
103.579786
 51
180.322886
  0
LINE
  5
199
100
AcDbEntity
  8
2
370
    50
100
AcDbLine
 10
-133.023434
 20
12.342981
 30
0.0
 11
-133.023434
 21
14.518268
 31
0.0
  0
LINE
  5
19A
100
AcDbEntity
  8
2
370
    50
100
AcDbLine
 10
-113.09954
 20
12.342981
 30
0.0
 11
-113.09954
 21
14.518268
 31
0.0
  0
SPLINE
  5
19B
100
AcDbEntity
  8
2
370
    25
100
AcDbSpline
210
0.0
220
0.0
230
1.0
 70
     8
 71
     3
 72
     0
 73
     0
 74
    64
 44
0.0000000001
 11
-120.950934
 21
9.4900040000000008
 31
0.0
 11
-120.789624
 21
9.4918139999999998
 31
0.0
 11
-120.62872299999999
 21
9.4938540000000007
 31
0.0
 11
-120.468338
 21
9.4961479999999998
 31
0.0
 11
-120.308576
 21
9.4987209999999997
 31
0.0
 11
-120.149547
 21
9.5015970000000003
 31
0.0
 11
-119.99135800000001
 21
9.5047990000000002
 31
0.0
 11
-119.83411700000001
 21
9.5083529999999996
 31
0.0
 11
-119.677932
 21
9.5122820000000008
 31
0.0
 11
-119.522768
 21
9.5166140000000006
 31
0.0
 11
-119.368589
 21
9.5213850000000004
 31
0.0
 11
-119.215425
 21
9.5266289999999998
 31
0.0
 11
-119.06330699999999
 21
9.5323840000000004
 31
0.0
 11
-118.912265
 21
9.5386839999999999
 31
0.0
 11
-118.76233000000001
 21
9.5455670000000001
 31
0.0
 11
-118.61353200000001
 21
9.5530679999999997
 31
0.0
 11
-118.46589299999999
 21
9.561223
 31
0.0
 11
-118.31935900000001
 21
9.5700900000000004
 31
0.0
 11
-118.17429300000001
 21
9.5796869999999998
 31
0.0
 11
-118.031187
 21
9.5900210000000001
 31
0.0
 11
-117.89051600000001
 21
9.6010980000000004
 31
0.0
 11
-117.75244600000001
 21
9.6129569999999998
 31
0.0
 11
-117.61696600000001
 21
9.6256170000000001
 31
0.0
 11
-117.48408999999999
 21
9.639087
 31
0.0
 11
-117.35383299999999
 21
9.653378
 31
0.0
 11
-117.226215
 21
9.6685110000000005
 31
0.0
 11
-117.101251
 21
9.6844929999999998
 31
0.0
 11
-116.978955
 21
9.7013259999999999
 31
0.0
 11
-116.85933799999999
 21
9.7190150000000006
 31
0.0
 11
-116.742413
 21
9.7375629999999997
 31
0.0
 11
-116.62819500000001
 21
9.7569730000000003
 31
0.0
 11
-116.516694
 21
9.7772489999999994
 31
0.0
 11
-116.40794
 21
9.7983960000000003
 31
0.0
 11
-116.30206699999999
 21
9.8203960000000006
 31
0.0
 11
-116.199197
 21
9.843178
 31
0.0
 11
-116.099441
 21
9.8666669999999996
 31
0.0
 11
-116.00290800000001
 21
9.8907860000000003
 31
0.0
 11
-115.909711
 21
9.9154599999999995
 31
0.0
 11
-115.81995999999999
 21
9.9406130000000008
 31
0.0
 11
-115.73376500000001
 21
9.9661679999999997
 31
0.0
 11
-115.651152
 21
9.9920639999999992
 31
0.0
 11
-115.57182
 21
10.018291
 31
0.0
 11
-115.495659
 21
10.044826
 31
0.0
 11
-115.422584
 21
10.071638
 31
0.0
 11
-115.35251100000001
 21
10.098699
 31
0.0
 11
-115.285354
 21
10.125978999999999
 31
0.0
 11
-115.22103
 21
10.153449
 31
0.0
 11
-115.159453
 21
10.181081000000001
 31
0.0
 11
-115.100538
 21
10.208843999999999
 31
0.0
 11
-115.044213
 21
10.236715
 31
0.0
 11
-114.99042799999999
 21
10.264664
 31
0.0
 11
-114.939132
 21
10.292666000000001
 31
0.0
 11
-114.890277
 21
10.320691999999999
 31
0.0
 11
-114.843811
 21
10.348716
 31
0.0
 11
-114.799685
 21
10.376709999999999
 31
0.0
 11
-114.757848
 21
10.404647000000001
 31
0.0
 11
-114.718307
 21
10.432461
 31
0.0
 11
-114.68109800000001
 21
10.46007
 31
0.0
 11
-114.646168
 21
10.487462000000001
 31
0.0
 11
-114.61346500000001
 21
10.514623
 31
0.0
 11
-114.58293500000001
 21
10.541541
 31
0.0
 11
-114.554526
 21
10.568204
 31
0.0
 11
-114.528184
 21
10.594599000000001
 31
0.0
 11
-114.50388599999999
 21
10.620680999999999
 31
0.0
  0
LINE
  5
19C
100
AcDbEntity
  8
2
370
    25
100
AcDbLine
 10
-125.171897
 20
9.490003
 30
0.0
 11
-120.951078
 21
9.490003
 31
0.0
  0
SPLINE
  5
19D
100
AcDbEntity
  8
2
370
    25
100
AcDbSpline
210
0.0
220
0.0
230
1.0
 70
     8
 71
     3
 72
     0
 73
     0
 74
    64
 44
0.0000000001
 11
-131.619089
 21
10.620680999999999
 31
0.0
 11
-131.594663
 21
10.594429
 31
0.0
 11
-131.56830299999999
 21
10.567931
 31
0.0
 11
-131.539953
 21
10.541207
 31
0.0
 11
-131.509556
 21
10.514274
 31
0.0
 11
-131.47705500000001
 21
10.487151000000001
 31
0.0
 11
-131.44239300000001
 21
10.459856
 31
0.0
 11
-131.40551300000001
 21
10.432408000000001
 31
0.0
 11
-131.36635899999999
 21
10.404824
 31
0.0
 11
-131.32487399999999
 21
10.377124
 31
0.0
 11
-131.281001
 21
10.349326
 31
0.0
 11
-131.23468399999999
 21
10.321446999999999
 31
0.0
 11
-131.18586500000001
 21
10.293507999999999
 31
0.0
 11
-131.134488
 21
10.265525
 31
0.0
 11
-131.08049500000001
 21
10.237517
 31
0.0
 11
-131.023831
 21
10.209503
 31
0.0
 11
-130.96443199999999
 21
10.181501000000001
 31
0.0
 11
-130.902098
 21
10.15354
 31
0.0
 11
-130.83677700000001
 21
10.125681
 31
0.0
 11
-130.768486
 21
10.097989999999999
 31
0.0
 11
-130.69724099999999
 21
10.070529000000001
 31
0.0
 11
-130.62306100000001
 21
10.043366000000001
 31
0.0
 11
-130.545964
 21
10.016563
 31
0.0
 11
-130.46596700000001
 21
9.9901870000000006
 31
0.0
 11
-130.38307900000001
 21
9.9642979999999994
 31
0.0
 11
-130.297211
 21
9.9389040000000008
 31
0.0
 11
-130.20828299999999
 21
9.9140280000000001
 31
0.0
 11
-130.11623299999999
 21
9.8896999999999995
 31
0.0
 11
-130.020996
 21
9.8659510000000008
 31
0.0
 11
-129.92251099999999
 21
9.8428129999999996
 31
0.0
 11
-129.82071400000001
 21
9.820316
 31
0.0
 11
-129.715543
 21
9.7984919999999995
 31
0.0
 11
-129.60689199999999
 21
9.7773649999999996
 31
0.0
 11
-129.49458100000001
 21
9.7569370000000006
 31
0.0
 11
-129.37884199999999
 21
9.7372680000000003
 31
0.0
 11
-129.259964
 21
9.7184259999999991
 31
0.0
 11
-129.138283
 21
9.7004809999999999
 31
0.0
 11
-129.01420999999999
 21
9.6834790000000002
 31
0.0
 11
-128.88781900000001
 21
9.6674050000000005
 31
0.0
 11
-128.75914499999999
 21
9.6522410000000001
 31
0.0
 11
-128.62822299999999
 21
9.6379699999999993
 31
0.0
 11
-128.49508499999999
 21
9.6245779999999996
 31
0.0
 11
-128.35977099999999
 21
9.6120339999999995
 31
0.0
 11
-128.222318
 21
9.6003059999999998
 31
0.0
 11
-128.08276599999999
 21
9.5893630000000005
 31
0.0
 11
-127.941154
 21
9.5791730000000008
 31
0.0
 11
-127.797522
 21
9.5697039999999998
 31
0.0
 11
-127.65190699999999
 21
9.5609249999999992
 31
0.0
 11
-127.50427000000001
 21
9.5527990000000003
 31
0.0
 11
-127.354623
 21
9.5452919999999999
 31
0.0
 11
-127.20333100000001
 21
9.5383849999999999
 31
0.0
 11
-127.050771
 21
9.5320560000000008
 31
0.0
 11
-126.89734300000001
 21
9.5262849999999997
 31
0.0
 11
-126.743278
 21
9.5210380000000008
 31
0.0
 11
-126.5886
 21
9.5162790000000008
 31
0.0
 11
-126.433328
 21
9.5119729999999993
 31
0.0
 11
-126.277486
 21
9.5080810000000007
 31
0.0
 11
-126.12109100000001
 21
9.5045699999999993
 31
0.0
 11
-125.964156
 21
9.5014120000000002
 31
0.0
 11
-125.80669399999999
 21
9.4985809999999997
 31
0.0
 11
-125.648718
 21
9.4960509999999996
 31
0.0
 11
-125.49024199999999
 21
9.4937959999999997
 31
0.0
 11
-125.331278
 21
9.4917879999999997
 31
0.0
 11
-125.17204
 21
9.4900040000000008
 31
0.0
  0
LINE
  5
19E
100
AcDbEntity
  8
2
370
    25
100
AcDbLine
 10
-136.404943
 20
9.35569
 30
0.0
 11
-136.404943
 21
12.51602
 31
0.0
  0
LINE
  5
19F
100
AcDbEntity
  8
2
370
    25
100
AcDbLine
 10
-109.718032
 20
9.35569
 30
0.0
 11
-109.718032
 21
12.51602
 31
0.0
  0
ELLIPSE
  5
1A0
100
AcDbEntity
  8
2
370
    50
100
AcDbEllipse
 10
-130.2953
 20
-228.646372
 30
0.0
 11
-1.851831
 21
239.999945
 31
0.0
210
0.0
220
0.0
230
1.0
 40
0.087514
 41
0.011574
 42
0.128947
  0
ELLIPSE
  5
1A1
100
AcDbEntity
  8
2
370
    50
100
AcDbEllipse
 10
-130.2953
 20
-228.646372
 30
0.0
 11
-1.851831
 21
239.999945
 31
0.0
210
0.0
220
0.0
230
1.0
 40
0.087514
 41
0.128947
 42
0.157019
  0
ELLIPSE
  5
1A2
100
AcDbEntity
  8
2
370
    50
100
AcDbEllipse
 10
-115.827675
 20
-228.646372
 30
0.0
 11
1.8518520000000001
 21
239.999945
 31
0.0
210
0.0
220
0.0
230
1.0
 40
0.087514
 41
6.1261659999999996
 42
6.1542389999999996
  0
ELLIPSE
  5
1A3
100
AcDbEntity
  8
2
370
    50
100
AcDbEllipse
 10
-115.827675
 20
-228.646372
 30
0.0
 11
1.8518520000000001
 21
239.999945
 31
0.0
210
0.0
220
0.0
230
1.0
 40
0.087514
 41
6.1542389999999996
 42
6.271611
  0
SPLINE
  5
1A4
100
AcDbEntity
  8
2
370
    25
100
AcDbSpline
210
0.0
220
0.0
230
1.0
 70
     8
 71
     3
 72
     0
 73
     0
 74
    76
 44
0.0000000001
 11
-111.290429
 21
9.340211
 31
0.0
 11
-111.325517
 21
9.3166609999999999
 31
0.0
 11
-111.36291900000001
 21
9.2930209999999995
 31
0.0
 11
-111.402665
 21
9.2692940000000004
 31
0.0
 11
-111.444784
 21
9.2454820000000009
 31
0.0
 11
-111.489305
 21
9.2215900000000008
 31
0.0
 11
-111.536258
 21
9.1976189999999995
 31
0.0
 11
-111.585672
 21
9.1735740000000003
 31
0.0
 11
-111.637575
 21
9.149457
 31
0.0
 11
-111.691997
 21
9.1252709999999997
 31
0.0
 11
-111.748923
 21
9.1010390000000001
 31
0.0
 11
-111.808211
 21
9.0768360000000001
 31
0.0
 11
-111.869861
 21
9.0526730000000004
 31
0.0
 11
-111.933894
 21
9.0285539999999997
 31
0.0
 11
-112.000327
 21
9.0044830000000005
 31
0.0
 11
-112.06917900000001
 21
8.9804630000000003
 31
0.0
 11
-112.140468
 21
8.9564990000000009
 31
0.0
 11
-112.214213
 21
8.9325949999999992
 31
0.0
 11
-112.290432
 21
8.9087549999999993
 31
0.0
 11
-112.36914400000001
 21
8.8849830000000001
 31
0.0
 11
-112.450372
 21
8.8612819999999992
 31
0.0
 11
-112.53415
 21
8.8376590000000004
 31
0.0
 11
-112.62051
 21
8.8141189999999998
 31
0.0
 11
-112.709487
 21
8.7906659999999999
 31
0.0
 11
-112.801114
 21
8.7673059999999996
 31
0.0
 11
-112.89542400000001
 21
8.7440440000000006
 31
0.0
 11
-112.99245000000001
 21
8.7208860000000001
 31
0.0
 11
-113.09222699999999
 21
8.6978369999999998
 31
0.0
 11
-113.19478700000001
 21
8.6749010000000002
 31
0.0
 11
-113.300239
 21
8.6520729999999997
 31
0.0
 11
-113.408644
 21
8.6293550000000003
 31
0.0
 11
-113.51987699999999
 21
8.6067859999999996
 31
0.0
 11
-113.633813
 21
8.5844050000000003
 31
0.0
 11
-113.75032299999999
 21
8.5622489999999996
 31
0.0
 11
-113.869136
 21
8.5403780000000005
 31
0.0
 11
-113.990143
 21
8.5188120000000005
 31
0.0
 11
-114.113337
 21
8.4975529999999999
 31
0.0
 11
-114.238713
 21
8.4766060000000003
 31
0.0
 11
-114.36626200000001
 21
8.4559730000000002
 31
0.0
 11
-114.49597799999999
 21
8.4356580000000001
 31
0.0
 11
-114.62785700000001
 21
8.4156630000000003
 31
0.0
 11
-114.76189599999999
 21
8.3959919999999997
 31
0.0
 11
-114.898093
 21
8.3766479999999994
 31
0.0
 11
-115.036445
 21
8.3576339999999991
 31
0.0
 11
-115.17694899999999
 21
8.3389550000000003
 31
0.0
 11
-115.319602
 21
8.3206120000000006
 31
0.0
 11
-115.464403
 21
8.3026090000000003
 31
0.0
 11
-115.61134699999999
 21
8.2849489999999992
 31
0.0
 11
-115.760435
 21
8.2676359999999995
 31
0.0
 11
-115.91167
 21
8.2506740000000001
 31
0.0
 11
-116.06505199999999
 21
8.2340649999999993
 31
0.0
 11
-116.22058199999999
 21
8.2178129999999996
 31
0.0
 11
-116.378281
 21
8.2019199999999994
 31
0.0
 11
-116.53819300000001
 21
8.1863880000000009
 31
0.0
 11
-116.70004400000001
 21
8.1712399999999992
 31
0.0
 11
-116.86350899999999
 21
8.1565060000000003
 31
0.0
 11
-117.02826399999999
 21
8.1422139999999992
 31
0.0
 11
-117.194073
 21
8.1283820000000002
 31
0.0
 11
-117.360983
 21
8.1149959999999997
 31
0.0
 11
-117.528988
 21
8.1020520000000005
 31
0.0
 11
-117.69807400000001
 21
8.0895469999999996
 31
0.0
 11
-117.868227
 21
8.0774779999999993
 31
0.0
 11
-118.03943599999999
 21
8.065842
 31
0.0
 11
-118.211686
 21
8.0546360000000004
 31
0.0
 11
-118.384964
 21
8.0438550000000006
 31
0.0
 11
-118.559257
 21
8.0334979999999998
 31
0.0
 11
-118.73455300000001
 21
8.0235599999999998
 31
0.0
 11
-118.910842
 21
8.0140399999999996
 31
0.0
 11
-119.08811900000001
 21
8.004937
 31
0.0
 11
-119.266375
 21
7.9962479999999996
 31
0.0
 11
-119.44560300000001
 21
7.9879720000000001
 31
0.0
 11
-119.625829
 21
7.9801070000000003
 31
0.0
 11
-119.80704299999999
 21
7.9726530000000002
 31
0.0
 11
-119.989017
 21
7.9656149999999997
 31
0.0
 11
-120.17151200000001
 21
7.9590009999999998
 31
0.0
 11
-120.354015
 21
7.9528239999999997
 31
0.0
  0
SPLINE
  5
1A5
100
AcDbEntity
  8
2
370
    25
100
AcDbSpline
210
0.0
220
0.0
230
1.0
 70
     8
 71
     3
 72
     0
 73
     0
 74
    70
 44
0.0000000001
 11
-125.768958
 21
7.9528239999999997
 31
0.0
 11
-125.965086
 21
7.9594769999999997
 31
0.0
 11
-126.16054
 21
7.9666090000000001
 31
0.0
 11
-126.355311
 21
7.9742259999999998
 31
0.0
 11
-126.54938900000001
 21
7.9823320000000004
 31
0.0
 11
-126.742766
 21
7.9909309999999998
 31
0.0
 11
-126.935433
 21
8.0000280000000004
 31
0.0
 11
-127.127381
 21
8.0096270000000001
 31
0.0
 11
-127.318601
 21
8.0197330000000004
 31
0.0
 11
-127.509085
 21
8.0303489999999993
 31
0.0
 11
-127.69881700000001
 21
8.0414849999999998
 31
0.0
 11
-127.887782
 21
8.0531469999999992
 31
0.0
 11
-128.07596599999999
 21
8.0653439999999996
 31
0.0
 11
-128.263353
 21
8.0780820000000002
 31
0.0
 11
-128.44967399999999
 21
8.0913540000000008
 31
0.0
 11
-128.63453200000001
 21
8.1051339999999996
 31
0.0
 11
-128.81765799999999
 21
8.1194039999999994
 31
0.0
 11
-128.99878000000001
 21
8.1341450000000002
 31
0.0
 11
-129.177739
 21
8.1493459999999995
 31
0.0
 11
-129.35466700000001
 21
8.1650139999999993
 31
0.0
 11
-129.52956
 21
8.1811500000000006
 31
0.0
 11
-129.702405
 21
8.1977539999999998
 31
0.0
 11
-129.873186
 21
8.2148249999999994
 31
0.0
 11
-130.041889
 21
8.2323620000000002
 31
0.0
 11
-130.20850100000001
 21
8.2503650000000004
 31
0.0
 11
-130.373007
 21
8.2688319999999997
 31
0.0
 11
-130.535392
 21
8.2877639999999992
 31
0.0
 11
-130.69564
 21
8.3071599999999997
 31
0.0
 11
-130.85373300000001
 21
8.3270180000000007
 31
0.0
 11
-131.00965099999999
 21
8.3473380000000006
 31
0.0
 11
-131.163376
 21
8.3681199999999993
 31
0.0
 11
-131.31482199999999
 21
8.3893540000000009
 31
0.0
 11
-131.46369799999999
 21
8.4109999999999996
 31
0.0
 11
-131.609737
 21
8.4330090000000002
 31
0.0
 11
-131.75267099999999
 21
8.4553309999999993
 31
0.0
 11
-131.89228299999999
 21
8.4779260000000001
 31
0.0
 11
-132.02871500000001
 21
8.5007990000000007
 31
0.0
 11
-132.16202799999999
 21
8.5239480000000007
 31
0.0
 11
-132.29224600000001
 21
8.5473660000000002
 31
0.0
 11
-132.41939199999999
 21
8.5710449999999998
 31
0.0
 11
-132.54348999999999
 21
8.5949790000000004
 31
0.0
 11
-132.66456400000001
 21
8.6191589999999998
 31
0.0
 11
-132.78263799999999
 21
8.6435790000000008
 31
0.0
 11
-132.89773400000001
 21
8.6682319999999997
 31
0.0
 11
-133.009873
 21
8.6931089999999998
 31
0.0
 11
-133.11906999999999
 21
8.7182060000000003
 31
0.0
 11
-133.225337
 21
8.7435150000000004
 31
0.0
 11
-133.32869099999999
 21
8.769031
 31
0.0
 11
-133.429136
 21
8.7947450000000007
 31
0.0
 11
-133.526588
 21
8.8206279999999992
 31
0.0
 11
-133.62091899999999
 21
8.8466240000000003
 31
0.0
 11
-133.71200400000001
 21
8.8726800000000008
 31
0.0
 11
-133.79972599999999
 21
8.8987429999999996
 31
0.0
 11
-133.884207
 21
8.9248069999999995
 31
0.0
 11
-133.965551
 21
8.9508779999999994
 31
0.0
 11
-134.043792
 21
8.976953
 31
0.0
 11
-134.11896400000001
 21
9.0030280000000005
 31
0.0
 11
-134.191102
 21
9.0290979999999994
 31
0.0
 11
-134.26024000000001
 21
9.055161
 31
0.0
 11
-134.326413
 21
9.0812120000000007
 31
0.0
 11
-134.38965400000001
 21
9.1072469999999992
 31
0.0
 11
-134.44999899999999
 21
9.1332640000000005
 31
0.0
 11
-134.50748100000001
 21
9.1592570000000002
 31
0.0
 11
-134.56213500000001
 21
9.1852230000000006
 31
0.0
 11
-134.61399599999999
 21
9.2111590000000003
 31
0.0
 11
-134.66309699999999
 21
9.2370610000000006
 31
0.0
 11
-134.709474
 21
9.2629239999999999
 31
0.0
 11
-134.75316000000001
 21
9.2887450000000005
 31
0.0
 11
-134.79418899999999
 21
9.3145199999999999
 31
0.0
 11
-134.83254600000001
 21
9.340211
 31
0.0
  0
SPLINE
  5
1A6
100
AcDbEntity
  8
2
370
    50
100
AcDbSpline
210
0.0
220
0.0
230
1.0
 70
     8
 71
     3
 72
     0
 73
     0
 74
    16
 44
0.0000000001
 11
-109.918087
 21
7.4100239999999999
 31
0.0
 11
-109.989681
 21
7.4777639999999996
 31
0.0
 11
-110.058666
 21
7.5450369999999998
 31
0.0
 11
-110.12503599999999
 21
7.6118379999999997
 31
0.0
 11
-110.18877999999999
 21
7.6781649999999999
 31
0.0
 11
-110.24988999999999
 21
7.7440150000000001
 31
0.0
 11
-110.308359
 21
7.8093870000000001
 31
0.0
 11
-110.364176
 21
7.8742760000000001
 31
0.0
 11
-110.417333
 21
7.9386799999999997
 31
0.0
 11
-110.467822
 21
8.0025960000000005
 31
0.0
 11
-110.51563400000001
 21
8.0660220000000002
 31
0.0
 11
-110.56076
 21
8.1289560000000005
 31
0.0
 11
-110.603191
 21
8.1913929999999997
 31
0.0
 11
-110.64292
 21
8.2533320000000003
 31
0.0
 11
-110.679936
 21
8.3147699999999993
 31
0.0
 11
-110.71422200000001
 21
8.3756850000000007
 31
0.0
  0
SPLINE
  5
1A7
100
AcDbEntity
  8
2
370
    25
100
AcDbSpline
210
0.0
220
0.0
230
1.0
 70
     8
 71
     3
 72
     0
 73
     0
 74
    28
 44
0.0000000001
 11
-120.354043
 21
7.9528179999999997
 31
0.0
 11
-119.94851199999999
 21
7.9457190000000004
 31
0.0
 11
-119.54294400000001
 21
7.9376069999999999
 31
0.0
 11
-119.137776
 21
7.92849
 31
0.0
 11
-118.73344299999999
 21
7.9183760000000003
 31
0.0
 11
-118.330381
 21
7.9072719999999999
 31
0.0
 11
-117.929024
 21
7.8951880000000001
 31
0.0
 11
-117.529786
 21
7.8821310000000002
 31
0.0
 11
-117.132497
 21
7.8681020000000004
 31
0.0
 11
-116.73699000000001
 21
7.853097
 31
0.0
 11
-116.343259
 21
7.8371130000000004
 31
0.0
 11
-115.951297
 21
7.8201470000000004
 31
0.0
 11
-115.561097
 21
7.8021960000000004
 31
0.0
 11
-115.172653
 21
7.783258
 31
0.0
 11
-114.785956
 21
7.7633299999999998
 31
0.0
 11
-114.400997
 21
7.742413
 31
0.0
 11
-114.017776
 21
7.7204959999999998
 31
0.0
 11
-113.636298
 21
7.6975670000000003
 31
0.0
 11
-113.256564
 21
7.6736149999999999
 31
0.0
 11
-112.878579
 21
7.6486270000000003
 31
0.0
 11
-112.50234399999999
 21
7.6225909999999999
 31
0.0
 11
-112.127863
 21
7.5954959999999998
 31
0.0
 11
-111.755139
 21
7.567329
 31
0.0
 11
-111.384175
 21
7.5380789999999998
 31
0.0
 11
-111.014974
 21
7.507733
 31
0.0
 11
-110.64753899999999
 21
7.47628
 31
0.0
 11
-110.281873
 21
7.443708
 31
0.0
 11
-109.91817399999999
 21
7.4100229999999998
 31
0.0
  0
SPLINE
  5
1A8
100
AcDbEntity
  8
2
370
    50
100
AcDbSpline
210
0.0
220
0.0
230
1.0
 70
     8
 71
     3
 72
     0
 73
     0
 74
    16
 44
0.0000000001
 11
-135.40875299999999
 21
8.3756850000000007
 31
0.0
 11
-135.44305
 21
8.3147509999999993
 31
0.0
 11
-135.48006699999999
 21
8.2533130000000003
 31
0.0
 11
-135.51979600000001
 21
8.1913739999999997
 31
0.0
 11
-135.562228
 21
8.1289370000000005
 31
0.0
 11
-135.60735500000001
 21
8.0660030000000003
 31
0.0
 11
-135.655168
 21
8.0025770000000005
 31
0.0
 11
-135.705657
 21
7.9386599999999996
 31
0.0
 11
-135.758815
 21
7.8742559999999999
 31
0.0
 11
-135.81463299999999
 21
7.8093669999999999
 31
0.0
 11
-135.87310199999999
 21
7.7439960000000001
 31
0.0
 11
-135.934214
 21
7.6781449999999998
 31
0.0
 11
-135.99795900000001
 21
7.6118180000000004
 31
0.0
 11
-136.06432899999999
 21
7.5450169999999996
 31
0.0
 11
-136.13331500000001
 21
7.4777440000000004
 31
0.0
 11
-136.20488800000001
 21
7.4100239999999999
 31
0.0
  0
SPLINE
  5
1A9
100
AcDbEntity
  8
2
370
    25
100
AcDbSpline
210
0.0
220
0.0
230
1.0
 70
     8
 71
     3
 72
     0
 73
     0
 74
    34
 44
0.0000000001
 11
-136.204801
 21
7.4100229999999998
 31
0.0
 11
-135.90793199999999
 21
7.4376150000000001
 31
0.0
 11
-135.609746
 21
7.4644649999999997
 31
0.0
 11
-135.31024500000001
 21
7.4905759999999999
 31
0.0
 11
-135.00942699999999
 21
7.5159560000000001
 31
0.0
 11
-134.707292
 21
7.5406089999999999
 31
0.0
 11
-134.403842
 21
7.5645410000000002
 31
0.0
 11
-134.099076
 21
7.587758
 31
0.0
 11
-133.792993
 21
7.6102650000000001
 31
0.0
 11
-133.48559399999999
 21
7.6320680000000003
 31
0.0
 11
-133.17688000000001
 21
7.6531729999999998
 31
0.0
 11
-132.86685
 21
7.673584
 31
0.0
 11
-132.55550299999999
 21
7.6933090000000002
 31
0.0
 11
-132.242841
 21
7.712351
 31
0.0
 11
-131.92886300000001
 21
7.7307180000000004
 31
0.0
 11
-131.61357000000001
 21
7.7484140000000004
 31
0.0
 11
-131.29696100000001
 21
7.7654449999999997
 31
0.0
 11
-130.97903500000001
 21
7.7818149999999999
 31
0.0
 11
-130.65978100000001
 21
7.797523
 31
0.0
 11
-130.33919499999999
 21
7.8125679999999997
 31
0.0
 11
-130.01727
 21
7.8269520000000004
 31
0.0
 11
-129.69397900000001
 21
7.8406779999999996
 31
0.0
 11
-129.36921000000001
 21
7.8537480000000004
 31
0.0
 11
-129.043295
 21
7.8661539999999999
 31
0.0
 11
-128.716656
 21
7.8778810000000004
 31
0.0
 11
-128.38970800000001
 21
7.888916
 31
0.0
 11
-128.062624
 21
7.8992630000000004
 31
0.0
 11
-127.735384
 21
7.9089260000000001
 31
0.0
 11
-127.407989
 21
7.9179120000000003
 31
0.0
 11
-127.08044
 21
7.9262230000000002
 31
0.0
 11
-126.75273799999999
 21
7.9338660000000001
 31
0.0
 11
-126.424882
 21
7.9408430000000001
 31
0.0
 11
-126.096874
 21
7.9471600000000002
 31
0.0
 11
-125.76893099999999
 21
7.9528179999999997
 31
0.0
  0
SPLINE
  5
1AA
100
AcDbEntity
  8
2
370
    25
100
AcDbSpline
210
0.0
220
0.0
230
1.0
 70
     8
 71
     3
 72
     0
 73
     0
 74
    19
 44
0.0000000001
 11
-120.354207
 21
7.9528189999999999
 31
0.0
 11
-120.655022
 21
7.9484979999999998
 31
0.0
 11
-120.955837
 21
7.9444710000000001
 31
0.0
 11
-121.256652
 21
7.9407959999999997
 31
0.0
 11
-121.557467
 21
7.9375299999999998
 31
0.0
 11
-121.858282
 21
7.9347289999999999
 31
0.0
 11
-122.159097
 21
7.9324519999999996
 31
0.0
 11
-122.459912
 21
7.9307540000000003
 31
0.0
 11
-122.760727
 21
7.9296939999999996
 31
0.0
 11
-123.061542
 21
7.9293279999999999
 31
0.0
 11
-123.362357
 21
7.9296939999999996
 31
0.0
 11
-123.663172
 21
7.9307550000000004
 31
0.0
 11
-123.963987
 21
7.9324529999999998
 31
0.0
 11
-124.264802
 21
7.9347300000000001
 31
0.0
 11
-124.565617
 21
7.9375309999999999
 31
0.0
 11
-124.86643100000001
 21
7.940798
 31
0.0
 11
-125.16724600000001
 21
7.9444730000000003
 31
0.0
 11
-125.46806100000001
 21
7.948499
 31
0.0
 11
-125.76876799999999
 21
7.9528189999999999
 31
0.0
  0
LINE
  5
1AB
100
AcDbEntity
  8
2
370
    50
100
AcDbLine
 10
-103.965588
 20
7.625988
 30
0.0
 11
-103.979227
 21
7.638302
 31
0.0
  0
SPLINE
  5
1AC
100
AcDbEntity
  8
2
370
    25
100
AcDbSpline
210
0.0
220
0.0
230
1.0
 70
     8
 71
     3
 72
     0
 73
     0
 74
    34
 44
0.0000000001
 11
-142.35819599999999
 21
5.1445809999999996
 31
0.0
 11
-142.05993699999999
 21
5.2891680000000001
 31
0.0
 11
-141.76867999999999
 21
5.433141
 31
0.0
 11
-141.484422
 21
5.5764750000000003
 31
0.0
 11
-141.20716100000001
 21
5.7191450000000001
 31
0.0
 11
-140.93697299999999
 21
5.8610889999999998
 31
0.0
 11
-140.674059
 21
6.0021740000000001
 31
0.0
 11
-140.418564
 21
6.1422889999999999
 31
0.0
 11
-140.17063099999999
 21
6.2813220000000003
 31
0.0
 11
-139.93032600000001
 21
6.4191989999999999
 31
0.0
 11
-139.697529
 21
6.5559500000000002
 31
0.0
 11
-139.472218
 21
6.6915589999999998
 31
0.0
 11
-139.254378
 21
6.8260139999999998
 31
0.0
 11
-139.043994
 21
6.9592970000000003
 31
0.0
 11
-138.84105099999999
 21
7.0913919999999999
 31
0.0
 11
-138.645534
 21
7.2222860000000004
 31
0.0
 11
-138.457427
 21
7.3519610000000002
 31
0.0
 11
-138.27670800000001
 21
7.4804019999999998
 31
0.0
 11
-138.10333600000001
 21
7.6075949999999999
 31
0.0
 11
-137.937333
 21
7.7335240000000001
 31
0.0
 11
-137.77873
 21
7.8581760000000003
 31
0.0
 11
-137.62756099999999
 21
7.981535
 31
0.0
 11
-137.483857
 21
8.1035869999999992
 31
0.0
 11
-137.34764899999999
 21
8.2243169999999992
 31
0.0
 11
-137.21897000000001
 21
8.3437110000000008
 31
0.0
 11
-137.09785199999999
 21
8.4617550000000001
 31
0.0
 11
-136.98432600000001
 21
8.5784330000000004
 31
0.0
 11
-136.87842499999999
 21
8.6937309999999997
 31
0.0
 11
-136.780181
 21
8.8076349999999994
 31
0.0
 11
-136.68962500000001
 21
8.9201300000000003
 31
0.0
 11
-136.60678899999999
 21
9.0312009999999994
 31
0.0
 11
-136.53170600000001
 21
9.1408330000000007
 31
0.0
 11
-136.46440699999999
 21
9.2490129999999997
 31
0.0
 11
-136.40496099999999
 21
9.3556550000000005
 31
0.0
  0
SPLINE
  5
1AD
100
AcDbEntity
  8
2
370
    25
100
AcDbSpline
210
0.0
220
0.0
230
1.0
 70
     8
 71
     3
 72
     0
 73
     0
 74
    34
 44
0.0000000001
 11
-109.718014
 21
9.3556550000000005
 31
0.0
 11
-109.65852599999999
 21
9.2489419999999996
 31
0.0
 11
-109.591222
 21
9.1407609999999995
 31
0.0
 11
-109.51613399999999
 21
9.0311280000000007
 31
0.0
 11
-109.43329300000001
 21
8.9200560000000007
 31
0.0
 11
-109.342732
 21
8.8075600000000005
 31
0.0
 11
-109.244482
 21
8.6936560000000007
 31
0.0
 11
-109.138576
 21
8.5783570000000005
 31
0.0
 11
-109.025046
 21
8.4616779999999991
 31
0.0
 11
-108.90392300000001
 21
8.3436330000000005
 31
0.0
 11
-108.775239
 21
8.2242379999999997
 31
0.0
 11
-108.639026
 21
8.1035070000000005
 31
0.0
 11
-108.495316
 21
7.9814540000000003
 31
0.0
 11
-108.34414200000001
 21
7.8580940000000004
 31
0.0
 11
-108.185535
 21
7.733441
 31
0.0
 11
-108.019527
 21
7.6075109999999997
 31
0.0
 11
-107.84614999999999
 21
7.4803179999999996
 31
0.0
 11
-107.665426
 21
7.3518759999999999
 31
0.0
 11
-107.47731400000001
 21
7.2222
 31
0.0
 11
-107.281792
 21
7.0913060000000003
 31
0.0
 11
-107.078844
 21
6.9592090000000004
 31
0.0
 11
-106.868455
 21
6.8259249999999998
 31
0.0
 11
-106.650611
 21
6.6914699999999998
 31
0.0
 11
-106.42529500000001
 21
6.55586
 31
0.0
 11
-106.192493
 21
6.4191089999999997
 31
0.0
 11
-105.95218300000001
 21
6.2812299999999999
 31
0.0
 11
-105.704244
 21
6.1421970000000004
 31
0.0
 11
-105.448745
 21
6.0020810000000004
 31
0.0
 11
-105.18582600000001
 21
5.8609960000000001
 31
0.0
 11
-104.915633
 21
5.7190510000000003
 31
0.0
 11
-104.638368
 21
5.5763800000000003
 31
0.0
 11
-104.354105
 21
5.433046
 31
0.0
 11
-104.062843
 21
5.2890730000000001
 31
0.0
 11
-103.764779
 21
5.1445809999999996
 31
0.0
  0
SPLINE
  5
1AE
100
AcDbEntity
  8
2
370
    50
100
AcDbSpline
210
0.0
220
0.0
230
1.0
 70
     8
 71
     3
 72
     0
 73
     0
 74
    28
 44
0.0000000001
 11
-109.918025
 21
7.409986
 31
0.0
 11
-109.72673899999999
 21
7.3111660000000001
 31
0.0
 11
-109.53424699999999
 21
7.2163579999999996
 31
0.0
 11
-109.340267
 21
7.1249669999999998
 31
0.0
 11
-109.14451800000001
 21
7.0363990000000003
 31
0.0
 11
-108.946719
 21
6.9500580000000003
 31
0.0
 11
-108.746588
 21
6.8653510000000004
 31
0.0
 11
-108.543846
 21
6.7816929999999997
 31
0.0
 11
-108.338294
 21
6.6988479999999999
 31
0.0
 11
-108.12980399999999
 21
6.6167259999999999
 31
0.0
 11
-107.91824200000001
 21
6.5351780000000002
 31
0.0
 11
-107.703474
 21
6.454053
 31
0.0
 11
-107.48536799999999
 21
6.3732040000000003
 31
0.0
 11
-107.26379
 21
6.2924819999999997
 31
0.0
 11
-107.0386
 21
6.2117399999999998
 31
0.0
 11
-106.809676
 21
6.1308910000000001
 31
0.0
 11
-106.57699
 21
6.0499130000000001
 31
0.0
 11
-106.340526
 21
5.9687830000000002
 31
0.0
 11
-106.100268
 21
5.8874810000000002
 31
0.0
 11
-105.856201
 21
5.8059849999999997
 31
0.0
 11
-105.60830799999999
 21
5.7242740000000003
 31
0.0
 11
-105.35657399999999
 21
5.642328
 31
0.0
 11
-105.100982
 21
5.5601240000000001
 31
0.0
 11
-104.841517
 21
5.4776420000000003
 31
0.0
 11
-104.578163
 21
5.3948609999999997
 31
0.0
 11
-104.310903
 21
5.3117599999999996
 31
0.0
 11
-104.039722
 21
5.2283169999999997
 31
0.0
 11
-103.764754
 21
5.1445559999999997
 31
0.0
  0
SPLINE
  5
1AF
100
AcDbEntity
  8
2
370
    50
100
AcDbSpline
210
0.0
220
0.0
230
1.0
 70
     8
 71
     3
 72
     0
 73
     0
 74
    28
 44
0.0000000001
 11
-136.20495
 21
7.409986
 31
0.0
 11
-136.39623599999999
 21
7.3111660000000001
 31
0.0
 11
-136.588728
 21
7.2163579999999996
 31
0.0
 11
-136.78270800000001
 21
7.1249669999999998
 31
0.0
 11
-136.97845699999999
 21
7.0363990000000003
 31
0.0
 11
-137.176256
 21
6.9500580000000003
 31
0.0
 11
-137.37638699999999
 21
6.8653510000000004
 31
0.0
 11
-137.57912899999999
 21
6.7816929999999997
 31
0.0
 11
-137.78468000000001
 21
6.6988479999999999
 31
0.0
 11
-137.99317099999999
 21
6.6167259999999999
 31
0.0
 11
-138.204733
 21
6.5351780000000002
 31
0.0
 11
-138.419501
 21
6.454053
 31
0.0
 11
-138.637607
 21
6.3732040000000003
 31
0.0
 11
-138.859185
 21
6.2924819999999997
 31
0.0
 11
-139.084374
 21
6.2117399999999998
 31
0.0
 11
-139.313299
 21
6.1308910000000001
 31
0.0
 11
-139.545985
 21
6.0499130000000001
 31
0.0
 11
-139.78244900000001
 21
5.9687830000000002
 31
0.0
 11
-140.022707
 21
5.8874810000000002
 31
0.0
 11
-140.266774
 21
5.8059849999999997
 31
0.0
 11
-140.514667
 21
5.7242740000000003
 31
0.0
 11
-140.766401
 21
5.642328
 31
0.0
 11
-141.02199300000001
 21
5.5601240000000001
 31
0.0
 11
-141.28145799999999
 21
5.4776420000000003
 31
0.0
 11
-141.54481200000001
 21
5.3948609999999997
 31
0.0
 11
-141.812072
 21
5.3117599999999996
 31
0.0
 11
-142.08325199999999
 21
5.2283169999999997
 31
0.0
 11
-142.35822099999999
 21
5.1445559999999997
 31
0.0
  0
LINE
  5
1B0
100
AcDbEntity
  8
2
370
    50
100
AcDbLine
 10
-145.061487
 20
-17.12479
 30
0.0
 11
-145.02135
 21
-17.240561
 31
0.0
  0
LINE
  5
1B1
100
AcDbEntity
  8
2
370
    50
100
AcDbLine
 10
-145.02135
 20
-17.240561
 30
0.0
 11
-144.901083
 21
-17.35591
 31
0.0
  0
LINE
  5
1B2
100
AcDbEntity
  8
2
370
    50
100
AcDbLine
 10
-144.901083
 20
-17.35591
 30
0.0
 11
-144.701125
 21
-17.470416
 31
0.0
  0
LINE
  5
1B3
100
AcDbEntity
  8
2
370
    50
100
AcDbLine
 10
-144.701125
 20
-17.470416
 30
0.0
 11
-144.422207
 21
-17.58366
 31
0.0
  0
LINE
  5
1B4
100
AcDbEntity
  8
2
370
    50
100
AcDbLine
 10
-144.422207
 20
-17.58366
 30
0.0
 11
-144.065347
 21
-17.69523
 31
0.0
  0
LINE
  5
1B5
100
AcDbEntity
  8
2
370
    50
100
AcDbLine
 10
-144.065347
 20
-17.69523
 30
0.0
 11
-143.631845
 21
-17.804719
 31
0.0
  0
LINE
  5
1B6
100
AcDbEntity
  8
2
370
    50
100
AcDbLine
 10
-143.631845
 20
-17.804719
 30
0.0
 11
-143.123284
 21
-17.911726
 31
0.0
  0
LINE
  5
1B7
100
AcDbEntity
  8
2
370
    50
100
AcDbLine
 10
-143.123284
 20
-17.911726
 30
0.0
 11
-142.54152
 21
-18.015862
 31
0.0
  0
LINE
  5
1B8
100
AcDbEntity
  8
2
370
    50
100
AcDbLine
 10
-142.54152
 20
-18.015862
 30
0.0
 11
-141.888675
 21
-18.116747
 31
0.0
  0
LINE
  5
1B9
100
AcDbEntity
  8
2
370
    50
100
AcDbLine
 10
-141.888675
 20
-18.116747
 30
0.0
 11
-141.167132
 21
-18.214012
 31
0.0
  0
LINE
  5
1BA
100
AcDbEntity
  8
2
370
    50
100
AcDbLine
 10
-141.167132
 20
-18.214012
 30
0.0
 11
-140.379524
 21
-18.307303
 31
0.0
  0
LINE
  5
1BB
100
AcDbEntity
  8
2
370
    50
100
AcDbLine
 10
-140.379524
 20
-18.307303
 30
0.0
 11
-139.528724
 21
-18.396279
 31
0.0
  0
LINE
  5
1BC
100
AcDbEntity
  8
2
370
    50
100
AcDbLine
 10
-139.528724
 20
-18.396279
 30
0.0
 11
-138.617837
 21
-18.480615
 31
0.0
  0
LINE
  5
1BD
100
AcDbEntity
  8
2
370
    50
100
AcDbLine
 10
-138.617837
 20
-18.480615
 30
0.0
 11
-137.650186
 21
-18.560004
 31
0.0
  0
LINE
  5
1BE
100
AcDbEntity
  8
2
370
    50
100
AcDbLine
 10
-137.650186
 20
-18.560004
 30
0.0
 11
-136.629303
 21
-18.634156
 31
0.0
  0
LINE
  5
1BF
100
AcDbEntity
  8
2
370
    50
100
AcDbLine
 10
-136.629303
 20
-18.634156
 30
0.0
 11
-135.558912
 21
-18.702801
 31
0.0
  0
LINE
  5
1C0
100
AcDbEntity
  8
2
370
    50
100
AcDbLine
 10
-135.558912
 20
-18.702801
 30
0.0
 11
-134.442919
 21
-18.765687
 31
0.0
  0
LINE
  5
1C1
100
AcDbEntity
  8
2
370
    50
100
AcDbLine
 10
-134.442919
 20
-18.765687
 30
0.0
 11
-133.285397
 21
-18.822587
 31
0.0
  0
LINE
  5
1C2
100
AcDbEntity
  8
2
370
    50
100
AcDbLine
 10
-133.285397
 20
-18.822587
 30
0.0
 11
-132.090569
 21
-18.873291
 31
0.0
  0
LINE
  5
1C3
100
AcDbEntity
  8
2
370
    50
100
AcDbLine
 10
-132.090569
 20
-18.873291
 30
0.0
 11
-130.862795
 21
-18.917615
 31
0.0
  0
LINE
  5
1C4
100
AcDbEntity
  8
2
370
    50
100
AcDbLine
 10
-130.862795
 20
-18.917615
 30
0.0
 11
-129.606555
 21
-18.955397
 31
0.0
  0
LINE
  5
1C5
100
AcDbEntity
  8
2
370
    50
100
AcDbLine
 10
-129.606555
 20
-18.955397
 30
0.0
 11
-128.326432
 21
-18.986499
 31
0.0
  0
LINE
  5
1C6
100
AcDbEntity
  8
2
370
    50
100
AcDbLine
 10
-128.326432
 20
-18.986499
 30
0.0
 11
-127.027098
 21
-19.010809
 31
0.0
  0
LINE
  5
1C7
100
AcDbEntity
  8
2
370
    50
100
AcDbLine
 10
-127.027098
 20
-19.010809
 30
0.0
 11
-125.713294
 21
-19.028236
 31
0.0
  0
LINE
  5
1C8
100
AcDbEntity
  8
2
370
    50
100
AcDbLine
 10
-125.713294
 20
-19.028236
 30
0.0
 11
-124.389814
 21
-19.038718
 31
0.0
  0
LINE
  5
1C9
100
AcDbEntity
  8
2
370
    50
100
AcDbLine
 10
-124.389814
 20
-19.038718
 30
0.0
 11
-123.061487
 21
-19.042216
 31
0.0
  0
LINE
  5
1CA
100
AcDbEntity
  8
2
370
    50
100
AcDbLine
 10
-123.061487
 20
-19.042216
 30
0.0
 11
-121.733161
 21
-19.038718
 31
0.0
  0
LINE
  5
1CB
100
AcDbEntity
  8
2
370
    50
100
AcDbLine
 10
-121.733161
 20
-19.038718
 30
0.0
 11
-120.40968
 21
-19.028236
 31
0.0
  0
LINE
  5
1CC
100
AcDbEntity
  8
2
370
    50
100
AcDbLine
 10
-120.40968
 20
-19.028236
 30
0.0
 11
-119.095877
 21
-19.010809
 31
0.0
  0
LINE
  5
1CD
100
AcDbEntity
  8
2
370
    50
100
AcDbLine
 10
-119.095877
 20
-19.010809
 30
0.0
 11
-117.796543
 21
-18.986499
 31
0.0
  0
LINE
  5
1CE
100
AcDbEntity
  8
2
370
    50
100
AcDbLine
 10
-117.796543
 20
-18.986499
 30
0.0
 11
-116.51642
 21
-18.955397
 31
0.0
  0
LINE
  5
1CF
100
AcDbEntity
  8
2
370
    50
100
AcDbLine
 10
-116.51642
 20
-18.955397
 30
0.0
 11
-115.26018
 21
-18.917615
 31
0.0
  0
LINE
  5
1D0
100
AcDbEntity
  8
2
370
    50
100
AcDbLine
 10
-115.26018
 20
-18.917615
 30
0.0
 11
-114.032406
 21
-18.873291
 31
0.0
  0
LINE
  5
1D1
100
AcDbEntity
  8
2
370
    50
100
AcDbLine
 10
-114.032406
 20
-18.873291
 30
0.0
 11
-112.837578
 21
-18.822587
 31
0.0
  0
LINE
  5
1D2
100
AcDbEntity
  8
2
370
    50
100
AcDbLine
 10
-112.837578
 20
-18.822587
 30
0.0
 11
-111.680056
 21
-18.765687
 31
0.0
  0
LINE
  5
1D3
100
AcDbEntity
  8
2
370
    50
100
AcDbLine
 10
-111.680056
 20
-18.765687
 30
0.0
 11
-110.564063
 21
-18.702801
 31
0.0
  0
LINE
  5
1D4
100
AcDbEntity
  8
2
370
    50
100
AcDbLine
 10
-110.564063
 20
-18.702801
 30
0.0
 11
-109.493672
 21
-18.634156
 31
0.0
  0
LINE
  5
1D5
100
AcDbEntity
  8
2
370
    50
100
AcDbLine
 10
-109.493672
 20
-18.634156
 30
0.0
 11
-108.472789
 21
-18.560004
 31
0.0
  0
LINE
  5
1D6
100
AcDbEntity
  8
2
370
    50
100
AcDbLine
 10
-108.472789
 20
-18.560004
 30
0.0
 11
-107.505138
 21
-18.480615
 31
0.0
  0
LINE
  5
1D7
100
AcDbEntity
  8
2
370
    50
100
AcDbLine
 10
-107.505138
 20
-18.480615
 30
0.0
 11
-106.594251
 21
-18.396279
 31
0.0
  0
LINE
  5
1D8
100
AcDbEntity
  8
2
370
    50
100
AcDbLine
 10
-106.594251
 20
-18.396279
 30
0.0
 11
-105.743451
 21
-18.307303
 31
0.0
  0
LINE
  5
1D9
100
AcDbEntity
  8
2
370
    50
100
AcDbLine
 10
-105.743451
 20
-18.307303
 30
0.0
 11
-104.955842
 21
-18.214012
 31
0.0
  0
LINE
  5
1DA
100
AcDbEntity
  8
2
370
    50
100
AcDbLine
 10
-104.955842
 20
-18.214012
 30
0.0
 11
-104.234299
 21
-18.116747
 31
0.0
  0
LINE
  5
1DB
100
AcDbEntity
  8
2
370
    50
100
AcDbLine
 10
-104.234299
 20
-18.116747
 30
0.0
 11
-103.581455
 21
-18.015862
 31
0.0
  0
LINE
  5
1DC
100
AcDbEntity
  8
2
370
    50
100
AcDbLine
 10
-103.581455
 20
-18.015862
 30
0.0
 11
-102.999691
 21
-17.911726
 31
0.0
  0
LINE
  5
1DD
100
AcDbEntity
  8
2
370
    50
100
AcDbLine
 10
-102.999691
 20
-17.911726
 30
0.0
 11
-102.49113
 21
-17.804719
 31
0.0
  0
LINE
  5
1DE
100
AcDbEntity
  8
2
370
    50
100
AcDbLine
 10
-102.49113
 20
-17.804719
 30
0.0
 11
-102.057628
 21
-17.69523
 31
0.0
  0
LINE
  5
1DF
100
AcDbEntity
  8
2
370
    50
100
AcDbLine
 10
-102.057628
 20
-17.69523
 30
0.0
 11
-101.700767
 21
-17.58366
 31
0.0
  0
LINE
  5
1E0
100
AcDbEntity
  8
2
370
    50
100
AcDbLine
 10
-101.700767
 20
-17.58366
 30
0.0
 11
-101.421849
 21
-17.470416
 31
0.0
  0
LINE
  5
1E1
100
AcDbEntity
  8
2
370
    50
100
AcDbLine
 10
-101.421849
 20
-17.470416
 30
0.0
 11
-101.221892
 21
-17.35591
 31
0.0
  0
LINE
  5
1E2
100
AcDbEntity
  8
2
370
    50
100
AcDbLine
 10
-101.221892
 20
-17.35591
 30
0.0
 11
-101.101625
 21
-17.240561
 31
0.0
  0
LINE
  5
1E3
100
AcDbEntity
  8
2
370
    50
100
AcDbLine
 10
-101.101625
 20
-17.240561
 30
0.0
 11
-101.061487
 21
-17.12479
 31
0.0
  0
SPLINE
  5
1E4
100
AcDbEntity
  8
2
370
    25
100
AcDbSpline
210
0.0
220
0.0
230
1.0
 70
     8
 71
     3
 72
     0
 73
     0
 74
    19
 44
0.0000000001
 11
-133.256529
 21
15.538404
 31
0.0
 11
-133.20111299999999
 21
15.551733
 31
0.0
 11
-133.14569299999999
 21
15.564556
 31
0.0
 11
-133.09026499999999
 21
15.576366999999999
 31
0.0
 11
-133.03482299999999
 21
15.58666
 31
0.0
 11
-132.979364
 21
15.594931000000001
 31
0.0
 11
-132.92388399999999
 21
15.600671999999999
 31
0.0
 11
-132.868379
 21
15.603434
 31
0.0
 11
-132.812849
 21
15.603244
 31
0.0
 11
-132.757296
 21
15.600368
 31
0.0
 11
-132.70172199999999
 21
15.595075
 31
0.0
 11
-132.646131
 21
15.587634
 31
0.0
 11
-132.59052399999999
 21
15.578313
 31
0.0
 11
-132.53490300000001
 21
15.56738
 31
0.0
 11
-132.47927000000001
 21
15.555104999999999
 31
0.0
 11
-132.42362900000001
 21
15.541755
 31
0.0
 11
-132.36797999999999
 21
15.5276
 31
0.0
 11
-132.31232800000001
 21
15.512907
 31
0.0
 11
-132.25669300000001
 21
15.497952
 31
0.0
  0
SPLINE
  5
1E5
100
AcDbEntity
  8
2
370
    50
100
AcDbSpline
210
0.0
220
0.0
230
1.0
 70
     8
 71
     3
 72
     0
 73
     0
 74
    22
 44
0.0000000001
 11
-113.866282
 21
15.497952
 31
0.0
 11
-113.819123
 21
15.511685
 31
0.0
 11
-113.771963
 21
15.525233
 31
0.0
 11
-113.724805
 21
15.538413
 31
0.0
 11
-113.677648
 21
15.551038999999999
 31
0.0
 11
-113.630492
 21
15.562944999999999
 31
0.0
 11
-113.58334000000001
 21
15.574001000000001
 31
0.0
 11
-113.536193
 21
15.584078
 31
0.0
 11
-113.489053
 21
15.593051000000001
 31
0.0
 11
-113.44192200000001
 21
15.600792999999999
 31
0.0
 11
-113.394801
 21
15.607177
 31
0.0
 11
-113.347692
 21
15.612076
 31
0.0
 11
-113.300596
 21
15.615365000000001
 31
0.0
 11
-113.25351499999999
 21
15.616915000000001
 31
0.0
 11
-113.206452
 21
15.616600999999999
 31
0.0
 11
-113.159407
 21
15.614296
 31
0.0
 11
-113.112382
 21
15.609873
 31
0.0
 11
-113.06537899999999
 21
15.603205000000001
 31
0.0
 11
-113.0184
 21
15.594166
 31
0.0
 11
-112.971446
 21
15.58263
 31
0.0
 11
-112.924516
 21
15.568803000000001
 31
0.0
 11
-112.877618
 21
15.553767000000001
 31
0.0
  0
ARC
  5
1E6
100
AcDbEntity
  8
2
370
    50
100
AcDbCircle
 10
-132.02539
 20
12.348377
 30
0.0
 40
0.998059
100
AcDbArc
 50
180.309793
 51
261.769092
  0
ARC
  5
1E7
100
AcDbEntity
  8
2
370
    50
100
AcDbCircle
 10
-114.097498
 20
12.348343
 30
0.0
 40
0.997972
100
AcDbArc
 50
276.686643
 51
359.692143
  0
SPLINE
  5
1E8
100
AcDbEntity
  8
2
370
    25
100
AcDbSpline
210
0.0
220
0.0
230
1.0
 70
     8
 71
     3
 72
     0
 73
     0
 74
    22
 44
0.0000000001
 11
-114.503866
 21
10.620703000000001
 31
0.0
 11
-114.479962
 21
10.649991
 31
0.0
 11
-114.456515
 21
10.679171
 31
0.0
 11
-114.433978
 21
10.708138
 31
0.0
 11
-114.412809
 21
10.736782
 31
0.0
 11
-114.393463
 21
10.764998
 31
0.0
 11
-114.376395
 21
10.792676999999999
 31
0.0
 11
-114.36206199999999
 21
10.819713999999999
 31
0.0
 11
-114.350838
 21
10.846022
 31
0.0
 11
-114.34272900000001
 21
10.871617000000001
 31
0.0
 11
-114.337642
 21
10.896540999999999
 31
0.0
 11
-114.33548399999999
 21
10.920837000000001
 31
0.0
 11
-114.336158
 21
10.944547
 31
0.0
 11
-114.339572
 21
10.967713
 31
0.0
 11
-114.34563
 21
10.990379000000001
 31
0.0
 11
-114.35420999999999
 21
11.012589
 31
0.0
 11
-114.365008
 21
11.034402999999999
 31
0.0
 11
-114.37765400000001
 21
11.055887999999999
 31
0.0
 11
-114.391779
 21
11.077109
 31
0.0
 11
-114.407014
 21
11.098133000000001
 31
0.0
 11
-114.42298700000001
 21
11.119024
 31
0.0
 11
-114.439323
 21
11.139841000000001
 31
0.0
  0
SPLINE
  5
1E9
100
AcDbEntity
  8
2
370
    25
100
AcDbSpline
210
0.0
220
0.0
230
1.0
 70
     8
 71
     3
 72
     0
 73
     0
 74
    22
 44
0.0000000001
 11
-131.67742999999999
 21
11.137465000000001
 31
0.0
 11
-131.69485299999999
 21
11.118024
 31
0.0
 11
-131.71185399999999
 21
11.098445
 31
0.0
 11
-131.72801200000001
 21
11.07859
 31
0.0
 11
-131.742906
 21
11.05832
 31
0.0
 11
-131.75611499999999
 21
11.037497999999999
 31
0.0
 11
-131.76723999999999
 21
11.015999000000001
 31
0.0
 11
-131.77605199999999
 21
10.993791
 31
0.0
 11
-131.782398
 21
10.970886999999999
 31
0.0
 11
-131.786123
 21
10.947298999999999
 31
0.0
 11
-131.78707399999999
 21
10.923037000000001
 31
0.0
 11
-131.78509700000001
 21
10.898114
 31
0.0
 11
-131.78003799999999
 21
10.872541
 31
0.0
 11
-131.77174299999999
 21
10.84633
 31
0.0
 11
-131.760142
 21
10.819502999999999
 31
0.0
 11
-131.74554900000001
 21
10.792123999999999
 31
0.0
 11
-131.72839200000001
 21
10.764274
 31
0.0
 11
-131.70909700000001
 21
10.736029
 31
0.0
 11
-131.68809300000001
 21
10.707470000000001
 31
0.0
 11
-131.665807
 21
10.678675
 31
0.0
 11
-131.64266699999999
 21
10.649722000000001
 31
0.0
 11
-131.61910900000001
 21
10.620703000000001
 31
0.0
  0
ARC
  5
1EA
100
AcDbEntity
  8
2
370
    50
100
AcDbCircle
 10
-135.426142
 20
12.535407
 30
0.0
 40
0.978993
100
AcDbArc
 50
147.312805
 51
181.134692
  0
ARC
  5
1EB
100
AcDbEntity
  8
2
370
    50
100
AcDbCircle
 10
-110.696847
 20
12.535405
 30
0.0
 40
0.979007
100
AcDbArc
 50
358.86543
 51
32.531833
  0
ELLIPSE
  5
1EC
100
AcDbEntity
  8
2
370
    25
100
AcDbEllipse
 10
-130.2953
 20
-228.646372
 30
0.0
 11
-1.851831
 21
239.999945
 31
0.0
210
0.0
220
0.0
230
1.0
 40
0.087514
 41
6.2814079999999999
 42
0.011574
  0
ELLIPSE
  5
1ED
100
AcDbEntity
  8
2
370
    50
100
AcDbEllipse
 10
-115.827675
 20
-228.646372
 30
0.0
 11
1.8518520000000001
 21
239.999945
 31
0.0
210
0.0
220
0.0
230
1.0
 40
0.087514
 41
6.271611
 42
0.000717
  0
ARC
  5
1EE
100
AcDbEntity
  8
2
370
    50
100
AcDbCircle
 10
-123.061487
 20
-6.333742
 30
0.0
 40
4.9
100
AcDbArc
 50
305.281262
 51
234.718738
  0
LINE
  5
1EF
100
AcDbEntity
  8
2
370
    50
100
AcDbLine
 10
-125.891682
 20
-10.333742
 30
0.0
 11
-120.231293
 21
-10.333742
 31
0.0
  0
LINE
  5
1F0
100
AcDbEntity
  8
2
370
    50
100
AcDbLine
 10
-124.510329
 20
-4.590223
 30
0.0
 11
-127.10566
 21
-6.073269
 31
0.0
  0
ARC
  5
1F1
100
AcDbEntity
  8
2
370
    50
100
AcDbCircle
 10
-124.361487
 20
-4.850696
 30
0.0
 40
0.3
100
AcDbArc
 50
0.0
 51
119.744881
  0
LINE
  5
1F2
100
AcDbEntity
  8
2
370
    50
100
AcDbLine
 10
-124.061487
 20
-4.850696
 30
0.0
 11
-124.061487
 21
-7.816788
 31
0.0
  0
ARC
  5
1F3
100
AcDbEntity
  8
2
370
    50
100
AcDbCircle
 10
-124.361487
 20
-7.816788
 30
0.0
 40
0.3
100
AcDbArc
 50
240.255119
 51
360.0
  0
LINE
  5
1F4
100
AcDbEntity
  8
2
370
    50
100
AcDbLine
 10
-124.510329
 20
-8.077261
 30
0.0
 11
-127.10566
 21
-6.594215
 31
0.0
  0
ARC
  5
1F5
100
AcDbEntity
  8
2
370
    50
100
AcDbCircle
 10
-126.956818
 20
-6.333742
 30
0.0
 40
0.3
100
AcDbArc
 50
119.744881
 51
240.255119
  0
ARC
  5
1F6
100
AcDbEntity
  8
2
370
    50
100
AcDbCircle
 10
-121.761487
 20
-4.850696
 30
0.0
 40
0.3
100
AcDbArc
 50
60.255119
 51
180.0
  0
LINE
  5
1F7
100
AcDbEntity
  8
2
370
    50
100
AcDbLine
 10
-122.061487
 20
-4.850696
 30
0.0
 11
-122.061487
 21
-7.816788
 31
0.0
  0
LINE
  5
1F8
100
AcDbEntity
  8
2
370
    50
100
AcDbLine
 10
-121.612646
 20
-4.590223
 30
0.0
 11
-119.017315
 21
-6.073269
 31
0.0
  0
ARC
  5
1F9
100
AcDbEntity
  8
2
370
    50
100
AcDbCircle
 10
-119.166157
 20
-6.333742
 30
0.0
 40
0.3
100
AcDbArc
 50
299.744881
 51
60.255119
  0
LINE
  5
1FA
100
AcDbEntity
  8
2
370
    50
100
AcDbLine
 10
-121.612646
 20
-8.077261
 30
0.0
 11
-119.017315
 21
-6.594215
 31
0.0
  0
ARC
  5
1FB
100
AcDbEntity
  8
2
370
    50
100
AcDbCircle
 10
-121.761487
 20
-7.816788
 30
0.0
 40
0.3
100
AcDbArc
 50
180.0
 51
299.744881
  0
POINT
  5
1FC
100
AcDbEntity
  8
2
370
    50
100
AcDbPoint
 10
178.395314
 20
-19.660793
 30
0.0
  0
LINE
  5
1FD
100
AcDbEntity
  8
2
370
    50
100
AcDbLine
 10
-133.256539
 20
15.538402
 30
0.0
 11
-133.518868
 21
15.490482
 31
0.0
  0
LINE
  5
1FE
100
AcDbEntity
  8
2
370
    50
100
AcDbLine
 10
-133.64389
 20
15.457571
 30
0.0
 11
-133.518868
 21
15.490482
 31
0.0
  0
LINE
  5
1FF
100
AcDbEntity
  8
2
370
    50
100
AcDbLine
 10
-112.460182
 20
15.447336
 30
0.0
 11
-112.603436
 21
15.470133
 31
0.0
  0
ARC
  5
200
100
AcDbEntity
  8
2
370
    50
100
AcDbCircle
 10
-123.055948
 20
110.944561
 30
0.0
 40
100.0
100
AcDbArc
 50
264.771769
 51
275.206556
  0
LINE
  5
201
100
AcDbEntity
  8
2
370
    50
100
AcDbLine
 10
140.11579
 20
-69.648719
 30
0.0
 11
139.970683
 21
-69.250041
 31
0.0
  0
LINE
  5
202
100
AcDbEntity
  8
2
370
    50
100
AcDbLine
 10
139.970683
 20
-69.250041
 30
0.0
 11
141.407585
 21
-66.168595
 31
0.0
  0
LINE
  5
203
100
AcDbEntity
  8
2
370
    50
100
AcDbLine
 10
141.806263
 20
-66.023488
 30
0.0
 11
141.407585
 21
-66.168595
 31
0.0
  0
LINE
  5
204
100
AcDbEntity
  8
2
370
    50
100
AcDbLine
 10
145.159602
 20
-67.587175
 30
0.0
 11
145.599512
 21
-66.643785
 31
0.0
  0
LINE
  5
205
100
AcDbEntity
  8
2
370
    50
100
AcDbLine
 10
148.331679
 20
-69.066339
 30
0.0
 11
141.806263
 21
-66.023488
 31
0.0
  0
LINE
  5
206
100
AcDbEntity
  8
2
370
    50
100
AcDbLine
 10
144.105497
 20
-78.129417
 30
0.0
 11
141.839727
 21
-77.072872
 31
0.0
  0
LINE
  5
207
100
AcDbEntity
  8
2
370
    50
100
AcDbLine
 10
141.597882
 20
-76.408409
 30
0.0
 11
141.839727
 21
-77.072872
 31
0.0
  0
LINE
  5
208
100
AcDbEntity
  8
2
370
    50
100
AcDbLine
 10
146.641206
 20
-72.69157
 30
0.0
 11
140.11579
 21
-69.648719
 31
0.0
  0
ARC
  5
209
100
AcDbEntity
  8
2
370
    50
100
AcDbCircle
 10
142.593357
 20
-71.907405
 30
0.0
 40
1.0
100
AcDbArc
 50
335.0
 51
65.0
  0
LINE
  5
20A
100
AcDbEntity
  8
2
370
    50
100
AcDbLine
 10
141.597882
 20
-76.408409
 30
0.0
 11
144.316806
 21
-77.676263
 31
0.0
  0
LINE
  5
20B
100
AcDbEntity
  8
2
370
    50
100
AcDbLine
 10
143.499665
 20
-72.330024
 30
0.0
 11
141.597882
 21
-76.408409
 31
0.0
  0
LINE
  5
20C
100
AcDbEntity
  8
2
370
    25
100
AcDbLine
 10
146.05748
 20
-72.088361
 30
0.0
 11
147.494382
 21
-69.006914
 31
0.0
  0
LINE
  5
20D
100
AcDbEntity
  8
2
370
    25
100
AcDbLine
 10
145.354752
 20
-71.760674
 30
0.0
 11
146.791654
 21
-68.679227
 31
0.0
  0
LINE
  5
20E
100
AcDbEntity
  8
2
370
    25
100
AcDbLine
 10
144.667508
 20
-71.440206
 30
0.0
 11
146.10441
 21
-68.35876
 31
0.0
  0
LINE
  5
20F
100
AcDbEntity
  8
2
370
    25
100
AcDbLine
 10
144.003277
 20
-71.130471
 30
0.0
 11
145.440179
 21
-68.049024
 31
0.0
  0
LINE
  5
210
100
AcDbEntity
  8
2
370
    25
100
AcDbLine
 10
143.369338
 20
-70.83486
 30
0.0
 11
144.80624
 21
-67.753413
 31
0.0
  0
LINE
  5
211
100
AcDbEntity
  8
2
370
    25
100
AcDbLine
 10
142.772634
 20
-70.556612
 30
0.0
 11
144.209536
 21
-67.475166
 31
0.0
  0
LINE
  5
212
100
AcDbEntity
  8
2
370
    25
100
AcDbLine
 10
142.092919
 20
-70.570669
 30
0.0
 11
143.656607
 21
-67.217331
 31
0.0
  0
LINE
  5
213
100
AcDbEntity
  8
2
370
    25
100
AcDbLine
 10
141.716607
 20
-70.064179
 30
0.0
 11
143.153509
 21
-66.982732
 31
0.0
  0
LINE
  5
214
100
AcDbEntity
  8
2
370
    25
100
AcDbLine
 10
141.268854
 20
-69.855388
 30
0.0
 11
142.705756
 21
-66.773942
 31
0.0
  0
LINE
  5
215
100
AcDbEntity
  8
2
370
    25
100
AcDbLine
 10
140.88135
 20
-69.674692
 30
0.0
 11
142.318252
 21
-66.593246
 31
0.0
  0
LINE
  5
216
100
AcDbEntity
  8
2
370
    25
100
AcDbLine
 10
140.558342
 20
-69.524071
 30
0.0
 11
141.995244
 21
-66.442624
 31
0.0
  0
LINE
  5
217
100
AcDbEntity
  8
2
370
    25
100
AcDbLine
 10
140.303367
 20
-69.405174
 30
0.0
 11
141.740269
 21
-66.323728
 31
0.0
  0
LINE
  5
218
100
AcDbEntity
  8
2
370
    25
100
AcDbLine
 10
140.119221
 20
-69.319305
 30
0.0
 11
141.556123
 21
-66.237859
 31
0.0
  0
LINE
  5
219
100
AcDbEntity
  8
2
370
    25
100
AcDbLine
 10
140.00792
 20
-69.267405
 30
0.0
 11
141.444822
 21
-66.185958
 31
0.0
  0
LINE
  5
21A
100
AcDbEntity
  8
2
370
    25
100
AcDbLine
 10
146.767992
 20
-72.419678
 30
0.0
 11
146.392111
 21
-72.575415
 31
0.0
  0
LINE
  5
21B
100
AcDbEntity
  8
2
370
    25
100
AcDbLine
 10
146.207343
 20
-72.489257
 30
0.0
 11
146.05748
 21
-72.088361
 31
0.0
  0
LINE
  5
21C
100
AcDbEntity
  8
2
370
    25
100
AcDbLine
 10
145.354752
 20
-71.760674
 30
0.0
 11
145.041833
 21
-71.94577
 31
0.0
  0
LINE
  5
21D
100
AcDbEntity
  8
2
370
    25
100
AcDbLine
 10
144.863115
 20
-71.862433
 30
0.0
 11
144.667508
 21
-71.440206
 31
0.0
  0
LINE
  5
21E
100
AcDbEntity
  8
2
370
    25
100
AcDbLine
 10
144.667508
 20
-71.440206
 30
0.0
 11
144.389308
 21
-71.641493
 31
0.0
  0
LINE
  5
21F
100
AcDbEntity
  8
2
370
    25
100
AcDbLine
 10
144.216575
 20
-71.560946
 30
0.0
 11
144.003277
 21
-71.130471
 31
0.0
  0
LINE
  5
220
100
AcDbEntity
  8
2
370
    25
100
AcDbLine
 10
144.003277
 20
-71.130471
 30
0.0
 11
143.761455
 21
-71.34872
 31
0.0
  0
LINE
  5
221
100
AcDbEntity
  8
2
370
    25
100
AcDbLine
 10
143.596599
 20
-71.271847
 30
0.0
 11
143.369338
 21
-70.83486
 31
0.0
  0
LINE
  5
222
100
AcDbEntity
  8
2
370
    25
100
AcDbLine
 10
143.369338
 20
-70.83486
 30
0.0
 11
143.165153
 21
-71.07066
 31
0.0
  0
LINE
  5
223
100
AcDbEntity
  8
2
370
    25
100
AcDbLine
 10
143.009981
 20
-70.998302
 30
0.0
 11
142.772634
 21
-70.556612
 31
0.0
  0
LINE
  5
224
100
AcDbEntity
  8
2
370
    25
100
AcDbLine
 10
142.772634
 20
-70.556612
 30
0.0
 11
142.606936
 21
-70.810359
 31
0.0
  0
LINE
  5
225
100
AcDbEntity
  8
2
370
    25
100
AcDbLine
 10
142.463147
 20
-70.743309
 30
0.0
 11
142.219705
 21
-70.298777
 31
0.0
  0
LINE
  5
226
100
AcDbEntity
  8
2
370
    25
100
AcDbLine
 10
141.716607
 20
-70.064179
 30
0.0
 11
141.962089
 21
-70.509662
 31
0.0
  0
LINE
  5
227
100
AcDbEntity
  8
2
370
    25
100
AcDbLine
 10
141.716607
 20
-70.064179
 30
0.0
 11
141.628734
 21
-70.354216
 31
0.0
  0
LINE
  5
228
100
AcDbEntity
  8
2
370
    25
100
AcDbLine
 10
141.512296
 20
-70.29992
 30
0.0
 11
141.268854
 21
-69.855388
 31
0.0
  0
LINE
  5
229
100
AcDbEntity
  8
2
370
    25
100
AcDbLine
 10
141.268854
 20
-69.855388
 30
0.0
 11
141.219467
 21
-70.163372
 31
0.0
  0
LINE
  5
22A
100
AcDbEntity
  8
2
370
    25
100
AcDbLine
 10
141.118697
 20
-70.116382
 30
0.0
 11
140.88135
 21
-69.674692
 31
0.0
  0
LINE
  5
22B
100
AcDbEntity
  8
2
370
    25
100
AcDbLine
 10
140.88135
 20
-69.674692
 30
0.0
 11
140.869601
 21
-70.000227
 31
0.0
  0
LINE
  5
22C
100
AcDbEntity
  8
2
370
    25
100
AcDbLine
 10
140.785603
 20
-69.961058
 30
0.0
 11
140.558342
 21
-69.524071
 31
0.0
  0
LINE
  5
22D
100
AcDbEntity
  8
2
370
    25
100
AcDbLine
 10
140.558342
 20
-69.524071
 30
0.0
 11
140.582971
 21
-69.866569
 31
0.0
  0
LINE
  5
22E
100
AcDbEntity
  8
2
370
    25
100
AcDbLine
 10
140.516665
 20
-69.83565
 30
0.0
 11
140.303367
 21
-69.405174
 31
0.0
  0
LINE
  5
22F
100
AcDbEntity
  8
2
370
    25
100
AcDbLine
 10
140.303367
 20
-69.405174
 30
0.0
 11
140.362715
 21
-69.763862
 31
0.0
  0
LINE
  5
230
100
AcDbEntity
  8
2
370
    25
100
AcDbLine
 10
140.314828
 20
-69.741532
 30
0.0
 11
140.119221
 21
-69.319305
 31
0.0
  0
LINE
  5
231
100
AcDbEntity
  8
2
370
    25
100
AcDbLine
 10
140.119221
 20
-69.319305
 30
0.0
 11
140.211249
 21
-69.693232
 31
0.0
  0
LINE
  5
232
100
AcDbEntity
  8
2
370
    25
100
AcDbLine
 10
140.182305
 20
-69.679735
 30
0.0
 11
140.00792
 21
-69.267405
 31
0.0
  0
LINE
  5
233
100
AcDbEntity
  8
2
370
    25
100
AcDbLine
 10
140.00792
 20
-69.267405
 30
0.0
 11
140.13023
 21
-69.655452
 31
0.0
  0
LINE
  5
234
100
AcDbEntity
  8
2
370
    25
100
AcDbLine
 10
140.120546
 20
-69.650937
 30
0.0
 11
139.970683
 21
-69.250041
 31
0.0
  0
LINE
  5
235
100
AcDbEntity
  8
2
370
    25
100
AcDbLine
 10
148.204894
 20
-69.338232
 30
0.0
 11
148.082584
 21
-68.950184
 31
0.0
  0
LINE
  5
236
100
AcDbEntity
  8
2
370
    25
100
AcDbLine
 10
147.897816
 20
-68.864025
 30
0.0
 11
147.494382
 21
-69.006914
 31
0.0
  0
LINE
  5
237
100
AcDbEntity
  8
2
370
    25
100
AcDbLine
 10
146.791654
 20
-68.679227
 30
0.0
 11
146.732306
 21
-68.320539
 31
0.0
  0
LINE
  5
238
100
AcDbEntity
  8
2
370
    25
100
AcDbLine
 10
146.553588
 20
-68.237202
 30
0.0
 11
146.10441
 21
-68.35876
 31
0.0
  0
LINE
  5
239
100
AcDbEntity
  8
2
370
    25
100
AcDbLine
 10
146.10441
 20
-68.35876
 30
0.0
 11
146.079781
 21
-68.016262
 31
0.0
  0
LINE
  5
23A
100
AcDbEntity
  8
2
370
    25
100
AcDbLine
 10
145.907048
 20
-67.935715
 30
0.0
 11
145.440179
 21
-68.049024
 31
0.0
  0
LINE
  5
23B
100
AcDbEntity
  8
2
370
    25
100
AcDbLine
 10
145.440179
 20
-68.049024
 30
0.0
 11
145.451928
 21
-67.723489
 31
0.0
  0
LINE
  5
23C
100
AcDbEntity
  8
2
370
    25
100
AcDbLine
 10
145.287072
 20
-67.646616
 30
0.0
 11
144.80624
 21
-67.753413
 31
0.0
  0
LINE
  5
23D
100
AcDbEntity
  8
2
370
    25
100
AcDbLine
 10
144.80624
 20
-67.753413
 30
0.0
 11
144.855626
 21
-67.445429
 31
0.0
  0
LINE
  5
23E
100
AcDbEntity
  8
2
370
    25
100
AcDbLine
 10
144.700454
 20
-67.373071
 30
0.0
 11
144.209536
 21
-67.475166
 31
0.0
  0
LINE
  5
23F
100
AcDbEntity
  8
2
370
    25
100
AcDbLine
 10
144.209536
 20
-67.475166
 30
0.0
 11
144.297409
 21
-67.185128
 31
0.0
  0
LINE
  5
240
100
AcDbEntity
  8
2
370
    25
100
AcDbLine
 10
144.15362
 20
-67.118078
 30
0.0
 11
143.656607
 21
-67.217331
 31
0.0
  0
LINE
  5
241
100
AcDbEntity
  8
2
370
    25
100
AcDbLine
 10
143.153509
 20
-66.982732
 30
0.0
 11
143.652562
 21
-66.884431
 31
0.0
  0
LINE
  5
242
100
AcDbEntity
  8
2
370
    25
100
AcDbLine
 10
143.153509
 20
-66.982732
 30
0.0
 11
143.319207
 21
-66.728985
 31
0.0
  0
LINE
  5
243
100
AcDbEntity
  8
2
370
    25
100
AcDbLine
 10
143.202769
 20
-66.674689
 30
0.0
 11
142.705756
 21
-66.773942
 31
0.0
  0
LINE
  5
244
100
AcDbEntity
  8
2
370
    25
100
AcDbLine
 10
142.705756
 20
-66.773942
 30
0.0
 11
142.90994
 21
-66.538141
 31
0.0
  0
LINE
  5
245
100
AcDbEntity
  8
2
370
    25
100
AcDbLine
 10
142.80917
 20
-66.491151
 30
0.0
 11
142.318252
 21
-66.593246
 31
0.0
  0
LINE
  5
246
100
AcDbEntity
  8
2
370
    25
100
AcDbLine
 10
142.318252
 20
-66.593246
 30
0.0
 11
142.560074
 21
-66.374996
 31
0.0
  0
LINE
  5
247
100
AcDbEntity
  8
2
370
    25
100
AcDbLine
 10
142.476076
 20
-66.335827
 30
0.0
 11
141.995244
 21
-66.442624
 31
0.0
  0
LINE
  5
248
100
AcDbEntity
  8
2
370
    25
100
AcDbLine
 10
141.995244
 20
-66.442624
 30
0.0
 11
142.273444
 21
-66.241338
 31
0.0
  0
LINE
  5
249
100
AcDbEntity
  8
2
370
    25
100
AcDbLine
 10
142.207138
 20
-66.210419
 30
0.0
 11
141.740269
 21
-66.323728
 31
0.0
  0
LINE
  5
24A
100
AcDbEntity
  8
2
370
    25
100
AcDbLine
 10
141.740269
 20
-66.323728
 30
0.0
 11
142.053188
 21
-66.138631
 31
0.0
  0
LINE
  5
24B
100
AcDbEntity
  8
2
370
    25
100
AcDbLine
 10
142.005301
 20
-66.116301
 30
0.0
 11
141.556123
 21
-66.237859
 31
0.0
  0
LINE
  5
24C
100
AcDbEntity
  8
2
370
    25
100
AcDbLine
 10
141.556123
 20
-66.237859
 30
0.0
 11
141.901722
 21
-66.068001
 31
0.0
  0
LINE
  5
24D
100
AcDbEntity
  8
2
370
    25
100
AcDbLine
 10
141.872778
 20
-66.054504
 30
0.0
 11
141.444822
 21
-66.185958
 31
0.0
  0
LINE
  5
24E
100
AcDbEntity
  8
2
370
    25
100
AcDbLine
 10
141.444822
 20
-66.185958
 30
0.0
 11
141.820703
 21
-66.030221
 31
0.0
  0
LINE
  5
24F
100
AcDbEntity
  8
2
370
    25
100
AcDbLine
 10
141.811019
 20
-66.025706
 30
0.0
 11
141.407585
 21
-66.168595
 31
0.0
  0
LINE
  5
250
100
AcDbEntity
  8
2
370
    25
100
AcDbLine
 10
146.304568
 20
-72.534594
 30
0.0
 11
147.995041
 21
-68.909363
 31
0.0
  0
LINE
  5
251
100
AcDbEntity
  8
2
370
    25
100
AcDbLine
 10
145.634981
 20
-72.22236
 30
0.0
 11
147.325454
 21
-68.597129
 31
0.0
  0
LINE
  5
252
100
AcDbEntity
  8
2
370
    25
100
AcDbLine
 10
144.976418
 20
-71.915267
 30
0.0
 11
146.666891
 21
-68.290036
 31
0.0
  0
LINE
  5
253
100
AcDbEntity
  8
2
370
    25
100
AcDbLine
 10
144.336094
 20
-71.616679
 30
0.0
 11
146.026567
 21
-67.991448
 31
0.0
  0
LINE
  5
254
100
AcDbEntity
  8
2
370
    25
100
AcDbLine
 10
143.721026
 20
-71.329868
 30
0.0
 11
145.411499
 21
-67.704637
 31
0.0
  0
LINE
  5
255
100
AcDbEntity
  8
2
370
    25
100
AcDbLine
 10
143.137952
 20
-71.057976
 30
0.0
 11
144.828425
 21
-67.432745
 31
0.0
  0
LINE
  5
256
100
AcDbEntity
  8
2
370
    25
100
AcDbLine
 10
142.593261
 20
-70.803982
 30
0.0
 11
144.283734
 21
-67.178751
 31
0.0
  0
LINE
  5
257
100
AcDbEntity
  8
2
370
    25
100
AcDbLine
 10
146.05748
 20
-72.088361
 30
0.0
 11
145.711881
 21
-72.258219
 31
0.0
  0
LINE
  5
258
100
AcDbEntity
  8
2
370
    25
100
AcDbLine
 10
145.529137
 20
-72.173004
 30
0.0
 11
145.354752
 21
-71.760674
 31
0.0
  0
LINE
  5
259
100
AcDbEntity
  8
2
370
    25
100
AcDbLine
 10
147.494382
 20
-69.006914
 30
0.0
 11
147.402354
 21
-68.632988
 31
0.0
  0
LINE
  5
25A
100
AcDbEntity
  8
2
370
    25
100
AcDbLine
 10
147.21961
 20
-68.547773
 30
0.0
 11
146.791654
 21
-68.679227
 31
0.0
  0
CIRCLE
  5
25B
100
AcDbEntity
  8
2
370
    50
100
AcDbCircle
 10
145.373352
 20
-75.410494
 30
0.0
 40
1.5
  0
ARC
  5
25C
100
AcDbEntity
  8
2
370
    50
100
AcDbCircle
 10
149.843819
 20
-75.288351
 30
0.0
 40
1.0
100
AcDbArc
 50
65.0
 51
155.0
  0
LINE
  5
25D
100
AcDbEntity
  8
2
370
    50
100
AcDbLine
 10
148.937511
 20
-74.865733
 30
0.0
 11
147.035729
 21
-78.944118
 31
0.0
  0
LINE
  5
25E
100
AcDbEntity
  8
2
370
    50
100
AcDbLine
 10
147.035729
 20
-78.944118
 30
0.0
 11
144.316806
 21
-77.676263
 31
0.0
  0
LINE
  5
25F
100
AcDbEntity
  8
2
370
    50
100
AcDbLine
 10
144.105497
 20
-78.129417
 30
0.0
 11
146.371266
 21
-79.185963
 31
0.0
  0
LINE
  5
260
100
AcDbEntity
  8
2
370
    50
100
AcDbLine
 10
147.035729
 20
-78.944118
 30
0.0
 11
146.371266
 21
-79.185963
 31
0.0
  0
LINE
  5
261
100
AcDbEntity
  8
2
370
    50
100
AcDbLine
 10
153.166622
 20
-75.734422
 30
0.0
 11
153.5653
 21
-75.589315
 31
0.0
  0
LINE
  5
262
100
AcDbEntity
  8
2
370
    50
100
AcDbLine
 10
153.5653
 20
-75.589315
 30
0.0
 11
155.002202
 21
-72.507869
 31
0.0
  0
LINE
  5
263
100
AcDbEntity
  8
2
370
    50
100
AcDbLine
 10
154.857095
 20
-72.109191
 30
0.0
 11
155.002202
 21
-72.507869
 31
0.0
  0
LINE
  5
264
100
AcDbEntity
  8
2
370
    50
100
AcDbLine
 10
151.503757
 20
-70.545503
 30
0.0
 11
151.943655
 21
-69.602138
 31
0.0
  0
LINE
  5
265
100
AcDbEntity
  8
2
370
    50
100
AcDbLine
 10
148.331679
 20
-69.066339
 30
0.0
 11
154.857095
 21
-72.109191
 31
0.0
  0
LINE
  5
266
100
AcDbEntity
  8
2
370
    50
100
AcDbLine
 10
146.641206
 20
-72.69157
 30
0.0
 11
153.166622
 21
-75.734422
 31
0.0
  0
ARC
  5
267
100
AcDbEntity
  8
2
370
    50
100
AcDbCircle
 10
149.843819
 20
-75.288351
 30
0.0
 40
1.0
100
AcDbArc
 50
65.0
 51
155.0
  0
LINE
  5
268
100
AcDbEntity
  8
2
370
    50
100
AcDbLine
 10
148.937511
 20
-74.865733
 30
0.0
 11
147.035729
 21
-78.944118
 31
0.0
  0
LINE
  5
269
100
AcDbEntity
  8
2
370
    25
100
AcDbLine
 10
147.478504
 20
-72.750995
 30
0.0
 11
148.915406
 21
-69.669549
 31
0.0
  0
LINE
  5
26A
100
AcDbEntity
  8
2
370
    25
100
AcDbLine
 10
148.181232
 20
-73.078683
 30
0.0
 11
149.618134
 21
-69.997236
 31
0.0
  0
LINE
  5
26B
100
AcDbEntity
  8
2
370
    25
100
AcDbLine
 10
148.868476
 20
-73.39915
 30
0.0
 11
150.305378
 21
-70.317703
 31
0.0
  0
LINE
  5
26C
100
AcDbEntity
  8
2
370
    25
100
AcDbLine
 10
149.532706
 20
-73.708886
 30
0.0
 11
150.969608
 21
-70.627439
 31
0.0
  0
LINE
  5
26D
100
AcDbEntity
  8
2
370
    25
100
AcDbLine
 10
150.166646
 20
-74.004497
 30
0.0
 11
151.603548
 21
-70.92305
 31
0.0
  0
LINE
  5
26E
100
AcDbEntity
  8
2
370
    25
100
AcDbLine
 10
150.763349
 20
-74.282744
 30
0.0
 11
152.200251
 21
-71.201298
 31
0.0
  0
LINE
  5
26F
100
AcDbEntity
  8
2
370
    25
100
AcDbLine
 10
151.189493
 20
-74.812472
 30
0.0
 11
152.753181
 21
-71.459133
 31
0.0
  0
LINE
  5
270
100
AcDbEntity
  8
2
370
    25
100
AcDbLine
 10
151.819376
 20
-74.775177
 30
0.0
 11
153.256278
 21
-71.693731
 31
0.0
  0
LINE
  5
271
100
AcDbEntity
  8
2
370
    25
100
AcDbLine
 10
152.26713
 20
-74.983968
 30
0.0
 11
153.704032
 21
-71.902522
 31
0.0
  0
LINE
  5
272
100
AcDbEntity
  8
2
370
    25
100
AcDbLine
 10
152.654634
 20
-75.164664
 30
0.0
 11
154.091536
 21
-72.083218
 31
0.0
  0
LINE
  5
273
100
AcDbEntity
  8
2
370
    25
100
AcDbLine
 10
152.977642
 20
-75.315286
 30
0.0
 11
154.414544
 21
-72.233839
 31
0.0
  0
LINE
  5
274
100
AcDbEntity
  8
2
370
    25
100
AcDbLine
 10
153.232616
 20
-75.434182
 30
0.0
 11
154.669518
 21
-72.352736
 31
0.0
  0
LINE
  5
275
100
AcDbEntity
  8
2
370
    25
100
AcDbLine
 10
153.416763
 20
-75.520051
 30
0.0
 11
154.853665
 21
-72.438604
 31
0.0
  0
LINE
  5
276
100
AcDbEntity
  8
2
370
    25
100
AcDbLine
 10
153.528064
 20
-75.571952
 30
0.0
 11
154.964966
 21
-72.490505
 31
0.0
  0
LINE
  5
277
100
AcDbEntity
  8
2
370
    25
100
AcDbLine
 10
146.767992
 20
-72.419678
 30
0.0
 11
146.890302
 21
-72.807726
 31
0.0
  0
LINE
  5
278
100
AcDbEntity
  8
2
370
    25
100
AcDbLine
 10
147.07507
 20
-72.893884
 30
0.0
 11
147.478504
 21
-72.750995
 31
0.0
  0
LINE
  5
279
100
AcDbEntity
  8
2
370
    25
100
AcDbLine
 10
148.181232
 20
-73.078683
 30
0.0
 11
148.24058
 21
-73.437371
 31
0.0
  0
LINE
  5
27A
100
AcDbEntity
  8
2
370
    25
100
AcDbLine
 10
148.419297
 20
-73.520708
 30
0.0
 11
148.868476
 21
-73.39915
 31
0.0
  0
LINE
  5
27B
100
AcDbEntity
  8
2
370
    25
100
AcDbLine
 10
148.868476
 20
-73.39915
 30
0.0
 11
148.893105
 21
-73.741648
 31
0.0
  0
LINE
  5
27C
100
AcDbEntity
  8
2
370
    25
100
AcDbLine
 10
149.065838
 20
-73.822195
 30
0.0
 11
149.532706
 21
-73.708886
 31
0.0
  0
LINE
  5
27D
100
AcDbEntity
  8
2
370
    25
100
AcDbLine
 10
149.532706
 20
-73.708886
 30
0.0
 11
149.520958
 21
-74.034421
 31
0.0
  0
LINE
  5
27E
100
AcDbEntity
  8
2
370
    25
100
AcDbLine
 10
149.685813
 20
-74.111294
 30
0.0
 11
150.166646
 21
-74.004497
 31
0.0
  0
LINE
  5
27F
100
AcDbEntity
  8
2
370
    25
100
AcDbLine
 10
150.166646
 20
-74.004497
 30
0.0
 11
150.117259
 21
-74.312481
 31
0.0
  0
LINE
  5
280
100
AcDbEntity
  8
2
370
    25
100
AcDbLine
 10
150.272432
 20
-74.384839
 30
0.0
 11
150.763349
 21
-74.282744
 31
0.0
  0
LINE
  5
281
100
AcDbEntity
  8
2
370
    25
100
AcDbLine
 10
150.763349
 20
-74.282744
 30
0.0
 11
150.675476
 21
-74.572782
 31
0.0
  0
LINE
  5
282
100
AcDbEntity
  8
2
370
    25
100
AcDbLine
 10
150.819266
 20
-74.639832
 30
0.0
 11
151.316279
 21
-74.540579
 31
0.0
  0
LINE
  5
283
100
AcDbEntity
  8
2
370
    25
100
AcDbLine
 10
151.819376
 20
-74.775177
 30
0.0
 11
151.320324
 21
-74.873479
 31
0.0
  0
LINE
  5
284
100
AcDbEntity
  8
2
370
    25
100
AcDbLine
 10
151.819376
 20
-74.775177
 30
0.0
 11
151.653678
 21
-75.028925
 31
0.0
  0
LINE
  5
285
100
AcDbEntity
  8
2
370
    25
100
AcDbLine
 10
151.770116
 20
-75.083221
 30
0.0
 11
152.26713
 21
-74.983968
 31
0.0
  0
LINE
  5
286
100
AcDbEntity
  8
2
370
    25
100
AcDbLine
 10
152.26713
 20
-74.983968
 30
0.0
 11
152.062946
 21
-75.219769
 31
0.0
  0
LINE
  5
287
100
AcDbEntity
  8
2
370
    25
100
AcDbLine
 10
152.163716
 20
-75.266759
 30
0.0
 11
152.654634
 21
-75.164664
 31
0.0
  0
LINE
  5
288
100
AcDbEntity
  8
2
370
    25
100
AcDbLine
 10
152.654634
 20
-75.164664
 30
0.0
 11
152.412811
 21
-75.382914
 31
0.0
  0
LINE
  5
289
100
AcDbEntity
  8
2
370
    25
100
AcDbLine
 10
152.496809
 20
-75.422083
 30
0.0
 11
152.977642
 21
-75.315286
 31
0.0
  0
LINE
  5
28A
100
AcDbEntity
  8
2
370
    25
100
AcDbLine
 10
152.977642
 20
-75.315286
 30
0.0
 11
152.699442
 21
-75.516572
 31
0.0
  0
LINE
  5
28B
100
AcDbEntity
  8
2
370
    25
100
AcDbLine
 10
152.765748
 20
-75.547491
 30
0.0
 11
153.232616
 21
-75.434182
 31
0.0
  0
LINE
  5
28C
100
AcDbEntity
  8
2
370
    25
100
AcDbLine
 10
153.232616
 20
-75.434182
 30
0.0
 11
152.919697
 21
-75.619279
 31
0.0
  0
LINE
  5
28D
100
AcDbEntity
  8
2
370
    25
100
AcDbLine
 10
152.967584
 20
-75.641609
 30
0.0
 11
153.416763
 21
-75.520051
 31
0.0
  0
LINE
  5
28E
100
AcDbEntity
  8
2
370
    25
100
AcDbLine
 10
153.416763
 20
-75.520051
 30
0.0
 11
153.071164
 21
-75.689909
 31
0.0
  0
LINE
  5
28F
100
AcDbEntity
  8
2
370
    25
100
AcDbLine
 10
153.100108
 20
-75.703406
 30
0.0
 11
153.528064
 21
-75.571952
 31
0.0
  0
LINE
  5
290
100
AcDbEntity
  8
2
370
    25
100
AcDbLine
 10
153.528064
 20
-75.571952
 30
0.0
 11
153.152183
 21
-75.727689
 31
0.0
  0
LINE
  5
291
100
AcDbEntity
  8
2
370
    25
100
AcDbLine
 10
153.161866
 20
-75.732204
 30
0.0
 11
153.5653
 21
-75.589315
 31
0.0
  0
LINE
  5
292
100
AcDbEntity
  8
2
370
    25
100
AcDbLine
 10
148.204894
 20
-69.338232
 30
0.0
 11
148.580775
 21
-69.182494
 31
0.0
  0
LINE
  5
293
100
AcDbEntity
  8
2
370
    25
100
AcDbLine
 10
148.765543
 20
-69.268653
 30
0.0
 11
148.915406
 21
-69.669549
 31
0.0
  0
LINE
  5
294
100
AcDbEntity
  8
2
370
    25
100
AcDbLine
 10
149.618134
 20
-69.997236
 30
0.0
 11
149.931053
 21
-69.812139
 31
0.0
  0
LINE
  5
295
100
AcDbEntity
  8
2
370
    25
100
AcDbLine
 10
150.10977
 20
-69.895477
 30
0.0
 11
150.305378
 21
-70.317703
 31
0.0
  0
LINE
  5
296
100
AcDbEntity
  8
2
370
    25
100
AcDbLine
 10
150.305378
 20
-70.317703
 30
0.0
 11
150.583578
 21
-70.116417
 31
0.0
  0
LINE
  5
297
100
AcDbEntity
  8
2
370
    25
100
AcDbLine
 10
150.756311
 20
-70.196964
 30
0.0
 11
150.969608
 21
-70.627439
 31
0.0
  0
LINE
  5
298
100
AcDbEntity
  8
2
370
    25
100
AcDbLine
 10
150.969608
 20
-70.627439
 30
0.0
 11
151.211431
 21
-70.409189
 31
0.0
  0
LINE
  5
299
100
AcDbEntity
  8
2
370
    25
100
AcDbLine
 10
151.376286
 20
-70.486063
 30
0.0
 11
151.603548
 21
-70.92305
 31
0.0
  0
LINE
  5
29A
100
AcDbEntity
  8
2
370
    25
100
AcDbLine
 10
151.603548
 20
-70.92305
 30
0.0
 11
151.807732
 21
-70.687249
 31
0.0
  0
LINE
  5
29B
100
AcDbEntity
  8
2
370
    25
100
AcDbLine
 10
151.962905
 20
-70.759608
 30
0.0
 11
152.200251
 21
-71.201298
 31
0.0
  0
LINE
  5
29C
100
AcDbEntity
  8
2
370
    25
100
AcDbLine
 10
152.200251
 20
-71.201298
 30
0.0
 11
152.365949
 21
-70.94755
 31
0.0
  0
LINE
  5
29D
100
AcDbEntity
  8
2
370
    25
100
AcDbLine
 10
152.509739
 20
-71.0146
 30
0.0
 11
152.753181
 21
-71.459133
 31
0.0
  0
LINE
  5
29E
100
AcDbEntity
  8
2
370
    25
100
AcDbLine
 10
153.256278
 20
-71.693731
 30
0.0
 11
153.010797
 21
-71.248248
 31
0.0
  0
LINE
  5
29F
100
AcDbEntity
  8
2
370
    25
100
AcDbLine
 10
153.256278
 20
-71.693731
 30
0.0
 11
153.344151
 21
-71.403693
 31
0.0
  0
LINE
  5
2A0
100
AcDbEntity
  8
2
370
    25
100
AcDbLine
 10
153.460589
 20
-71.457989
 30
0.0
 11
153.704032
 21
-71.902522
 31
0.0
  0
LINE
  5
2A1
100
AcDbEntity
  8
2
370
    25
100
AcDbLine
 10
153.704032
 20
-71.902522
 30
0.0
 11
153.753419
 21
-71.594538
 31
0.0
  0
LINE
  5
2A2
100
AcDbEntity
  8
2
370
    25
100
AcDbLine
 10
153.854189
 20
-71.641528
 30
0.0
 11
154.091536
 21
-72.083218
 31
0.0
  0
LINE
  5
2A3
100
AcDbEntity
  8
2
370
    25
100
AcDbLine
 10
154.091536
 20
-72.083218
 30
0.0
 11
154.103284
 21
-71.757683
 31
0.0
  0
LINE
  5
2A4
100
AcDbEntity
  8
2
370
    25
100
AcDbLine
 10
154.187282
 20
-71.796852
 30
0.0
 11
154.414544
 21
-72.233839
 31
0.0
  0
LINE
  5
2A5
100
AcDbEntity
  8
2
370
    25
100
AcDbLine
 10
154.414544
 20
-72.233839
 30
0.0
 11
154.389915
 21
-71.891341
 31
0.0
  0
LINE
  5
2A6
100
AcDbEntity
  8
2
370
    25
100
AcDbLine
 10
154.456221
 20
-71.92226
 30
0.0
 11
154.669518
 21
-72.352736
 31
0.0
  0
LINE
  5
2A7
100
AcDbEntity
  8
2
370
    25
100
AcDbLine
 10
154.669518
 20
-72.352736
 30
0.0
 11
154.61017
 21
-71.994048
 31
0.0
  0
LINE
  5
2A8
100
AcDbEntity
  8
2
370
    25
100
AcDbLine
 10
154.658057
 20
-72.016378
 30
0.0
 11
154.853665
 21
-72.438604
 31
0.0
  0
LINE
  5
2A9
100
AcDbEntity
  8
2
370
    25
100
AcDbLine
 10
154.853665
 20
-72.438604
 30
0.0
 11
154.761637
 21
-72.064678
 31
0.0
  0
LINE
  5
2AA
100
AcDbEntity
  8
2
370
    25
100
AcDbLine
 10
154.790581
 20
-72.078175
 30
0.0
 11
154.964966
 21
-72.490505
 31
0.0
  0
LINE
  5
2AB
100
AcDbEntity
  8
2
370
    25
100
AcDbLine
 10
154.964966
 20
-72.490505
 30
0.0
 11
154.842656
 21
-72.102458
 31
0.0
  0
LINE
  5
2AC
100
AcDbEntity
  8
2
370
    25
100
AcDbLine
 10
154.852339
 20
-72.106973
 30
0.0
 11
155.002202
 21
-72.507869
 31
0.0
  0
LINE
  5
2AD
100
AcDbEntity
  8
2
370
    25
100
AcDbLine
 10
146.977844
 20
-72.848547
 30
0.0
 11
148.668317
 21
-69.223316
 31
0.0
  0
LINE
  5
2AE
100
AcDbEntity
  8
2
370
    25
100
AcDbLine
 10
147.647432
 20
-73.160781
 30
0.0
 11
149.337905
 21
-69.53555
 31
0.0
  0
LINE
  5
2AF
100
AcDbEntity
  8
2
370
    25
100
AcDbLine
 10
148.305995
 20
-73.467874
 30
0.0
 11
149.996468
 21
-69.842643
 31
0.0
  0
LINE
  5
2B0
100
AcDbEntity
  8
2
370
    25
100
AcDbLine
 10
148.946318
 20
-73.766462
 30
0.0
 11
150.636791
 21
-70.141231
 31
0.0
  0
LINE
  5
2B1
100
AcDbEntity
  8
2
370
    25
100
AcDbLine
 10
149.561386
 20
-74.053273
 30
0.0
 11
151.251859
 21
-70.428042
 31
0.0
  0
LINE
  5
2B2
100
AcDbEntity
  8
2
370
    25
100
AcDbLine
 10
150.14446
 20
-74.325165
 30
0.0
 11
151.834933
 21
-70.699934
 31
0.0
  0
LINE
  5
2B3
100
AcDbEntity
  8
2
370
    25
100
AcDbLine
 10
150.689152
 20
-74.579159
 30
0.0
 11
152.379625
 21
-70.953927
 31
0.0
  0
LINE
  5
2B4
100
AcDbEntity
  8
2
370
    25
100
AcDbLine
 10
147.478504
 20
-72.750995
 30
0.0
 11
147.570532
 21
-73.124922
 31
0.0
  0
LINE
  5
2B5
100
AcDbEntity
  8
2
370
    25
100
AcDbLine
 10
147.753276
 20
-73.210137
 30
0.0
 11
148.181232
 21
-73.078683
 31
0.0
  0
LINE
  5
2B6
100
AcDbEntity
  8
2
370
    25
100
AcDbLine
 10
148.915406
 20
-69.669549
 30
0.0
 11
149.261005
 21
-69.499691
 31
0.0
  0
LINE
  5
2B7
100
AcDbEntity
  8
2
370
    25
100
AcDbLine
 10
149.443749
 20
-69.584906
 30
0.0
 11
149.618134
 21
-69.997236
 31
0.0
  0
POINT
  5
2B8
100
AcDbEntity
  8
2
370
    50
100
AcDbPoint
 10
145.373352
 20
-75.410494
 30
0.0
  0
POINT
  5
2B9
100
AcDbEntity
  8
2
370
    50
100
AcDbPoint
 10
-123.061487
 20
-78.129417
 30
0.0
  0
ELLIPSE
  5
2BA
100
AcDbEntity
  8
2
370
    50
100
AcDbEllipse
 10
-123.061487
 20
-78.129417
 30
0.0
 11
3.0
 21
0.0
 31
0.0
210
0.0
220
0.0
230
1.0
 40
0.422667
 41
0.0
 42
6.2831849999999996
  0
POINT
  5
2BB
100
AcDbEntity
  8
2
370
    50
100
AcDbPoint
 10
-123.061487
 20
-72.69157
 30
0.0
  0
POINT
  5
2BC
100
AcDbEntity
  8
2
370
    50
100
AcDbPoint
 10
-123.061487
 20
-69.066339
 30
0.0
  0
LINE
  5
2BD
100
AcDbEntity
  8
2
370
    50
100
AcDbLine
 10
-130.561487
 20
-72.69157
 30
0.0
 11
-130.561487
 21
-69.066339
 31
0.0
  0
LINE
  5
2BE
100
AcDbEntity
  8
2
370
    50
100
AcDbLine
 10
-115.561487
 20
-69.066339
 30
0.0
 11
-115.561487
 21
-72.69157
 31
0.0
  0
ELLIPSE
  5
2BF
100
AcDbEntity
  8
2
370
    50
100
AcDbEllipse
 10
-123.061487
 20
-69.066339
 30
0.0
 11
7.5
 21
0.0
 31
0.0
210
0.0
220
0.0
230
1.0
 40
0.4226
 41
0.0
 42
0.9703230000000001
  0
ELLIPSE
  5
2C0
100
AcDbEntity
  8
2
370
    50
100
AcDbEllipse
 10
-123.061487
 20
-69.066339
 30
0.0
 11
7.5
 21
0.0
 31
0.0
210
0.0
220
0.0
230
1.0
 40
0.4226
 41
2.1712699999999998
 42
3.1415929999999999
  0
LINE
  5
2C1
100
AcDbEntity
  8
2
370
    50
100
AcDbLine
 10
-120.061487
 20
-72.69157
 30
0.0
 11
-120.061487
 21
-78.129417
 31
0.0
  0
LINE
  5
2C2
100
AcDbEntity
  8
2
370
    50
100
AcDbLine
 10
-126.061487
 20
-72.69157
 30
0.0
 11
-126.061487
 21
-78.129417
 31
0.0
  0
ELLIPSE
  5
2C3
100
AcDbEntity
  8
2
370
    50
100
AcDbEllipse
 10
-123.061487
 20
-72.69157
 30
0.0
 11
3.0
 21
0.0
 31
0.0
210
0.0
220
0.0
230
1.0
 40
0.422667
 41
0.0
 42
3.1415929999999999
  0
ELLIPSE
  5
2C4
100
AcDbEntity
  8
2
370
    50
100
AcDbEllipse
 10
-123.061487
 20
-72.69157
 30
0.0
 11
7.5
 21
0.0
 31
0.0
210
0.0
220
0.0
230
1.0
 40
0.4226
 41
5.1239059999999998
 42
4.300872
  0
LINE
  5
2C5
100
AcDbEntity
  8
2
370
    25
100
AcDbLine
 10
-123.061487
 20
-66.585561
 30
0.0
 11
-123.061487
 21
-69.52207
 31
0.0
  0
LINE
  5
2C6
100
AcDbEntity
  8
2
370
    50
100
AcDbLine
 10
-124.061487
 20
-66.585561
 30
0.0
 11
-124.061487
 21
-69.55037
 31
0.0
  0
LINE
  5
2C7
100
AcDbEntity
  8
2
370
    50
100
AcDbLine
 10
-125.011487
 20
-66.557862
 30
0.0
 11
-125.011487
 21
-69.631074
 31
0.0
  0
LINE
  5
2C8
100
AcDbEntity
  8
2
370
    50
100
AcDbLine
 10
-125.911487
 20
-66.525933
 30
0.0
 11
-125.911487
 21
-69.759826
 31
0.0
  0
LINE
  5
2C9
100
AcDbEntity
  8
2
370
    50
100
AcDbLine
 10
-126.761487
 20
-66.484026
 30
0.0
 11
-126.761487
 21
-69.934612
 31
0.0
  0
LINE
  5
2CA
100
AcDbEntity
  8
2
370
    50
100
AcDbLine
 10
-127.561487
 20
-66.530739
 30
0.0
 11
-127.561487
 21
-70.15597
 31
0.0
  0
LINE
  5
2CB
100
AcDbEntity
  8
2
370
    50
100
AcDbLine
 10
-128.261487
 20
-66.782344
 30
0.0
 11
-128.261487
 21
-70.407575
 31
0.0
  0
LINE
  5
2CC
100
AcDbEntity
  8
2
370
    50
100
AcDbLine
 10
-128.861487
 20
-67.056877
 30
0.0
 11
-128.861487
 21
-70.682109
 31
0.0
  0
LINE
  5
2CD
100
AcDbEntity
  8
2
370
    50
100
AcDbLine
 10
-129.361487
 20
-67.346612
 30
0.0
 11
-129.361487
 21
-70.971843
 31
0.0
  0
LINE
  5
2CE
100
AcDbEntity
  8
2
370
    50
100
AcDbLine
 10
-129.761487
 20
-67.641983
 30
0.0
 11
-129.761487
 21
-71.267214
 31
0.0
  0
LINE
  5
2CF
100
AcDbEntity
  8
2
370
    50
100
AcDbLine
 10
-130.061487
 20
-67.928454
 30
0.0
 11
-130.061487
 21
-71.553685
 31
0.0
  0
LINE
  5
2D0
100
AcDbEntity
  8
2
370
    50
100
AcDbLine
 10
-130.311487
 20
-68.254826
 30
0.0
 11
-130.311487
 21
-71.880057
 31
0.0
  0
LINE
  5
2D1
100
AcDbEntity
  8
2
370
    50
100
AcDbLine
 10
-130.461487
 20
-68.55049
 30
0.0
 11
-130.461487
 21
-72.175721
 31
0.0
  0
LINE
  5
2D2
100
AcDbEntity
  8
2
370
    50
100
AcDbLine
 10
-122.061487
 20
-66.585561
 30
0.0
 11
-122.061487
 21
-69.55037
 31
0.0
  0
LINE
  5
2D3
100
AcDbEntity
  8
2
370
    50
100
AcDbLine
 10
-121.111487
 20
-66.557862
 30
0.0
 11
-121.111487
 21
-69.631074
 31
0.0
  0
LINE
  5
2D4
100
AcDbEntity
  8
2
370
    50
100
AcDbLine
 10
-120.211487
 20
-66.525933
 30
0.0
 11
-120.211487
 21
-69.759826
 31
0.0
  0
LINE
  5
2D5
100
AcDbEntity
  8
2
370
    50
100
AcDbLine
 10
-119.361487
 20
-66.484026
 30
0.0
 11
-119.361487
 21
-69.934612
 31
0.0
  0
LINE
  5
2D6
100
AcDbEntity
  8
2
370
    50
100
AcDbLine
 10
-118.561487
 20
-66.530739
 30
0.0
 11
-118.561487
 21
-70.15597
 31
0.0
  0
LINE
  5
2D7
100
AcDbEntity
  8
2
370
    50
100
AcDbLine
 10
-117.861487
 20
-66.782344
 30
0.0
 11
-117.861487
 21
-70.407575
 31
0.0
  0
LINE
  5
2D8
100
AcDbEntity
  8
2
370
    50
100
AcDbLine
 10
-117.261487
 20
-67.056877
 30
0.0
 11
-117.261487
 21
-70.682109
 31
0.0
  0
LINE
  5
2D9
100
AcDbEntity
  8
2
370
    50
100
AcDbLine
 10
-116.761487
 20
-67.346612
 30
0.0
 11
-116.761487
 21
-70.971843
 31
0.0
  0
LINE
  5
2DA
100
AcDbEntity
  8
2
370
    50
100
AcDbLine
 10
-116.361487
 20
-67.641983
 30
0.0
 11
-116.361487
 21
-71.267214
 31
0.0
  0
LINE
  5
2DB
100
AcDbEntity
  8
2
370
    50
100
AcDbLine
 10
-116.061487
 20
-67.928454
 30
0.0
 11
-116.061487
 21
-71.553685
 31
0.0
  0
LINE
  5
2DC
100
AcDbEntity
  8
2
370
    50
100
AcDbLine
 10
-115.811487
 20
-68.254826
 30
0.0
 11
-115.811487
 21
-71.880057
 31
0.0
  0
LINE
  5
2DD
100
AcDbEntity
  8
2
370
    50
100
AcDbLine
 10
-115.661487
 20
-68.55049
 30
0.0
 11
-115.661487
 21
-72.175721
 31
0.0
  0
TEXT
  5
2DE
100
AcDbEntity
  8
3
370
    50
100
AcDbText
 10
150.187883
 20
-191.434341
 30
0.0
 40
7.0
  1
１１９
 72
     5
 11
169.787883
 21
-191.434341
 31
0.0
100
AcDbText
  0
DIMENSION
  5
2DF
100
AcDbEntity
  8
3
370
    25
100
AcDbDimension
  2
*D0
 10
220.169572
 20
-192.434341
 30
0.0
 11
160.687883
 21
-190.434341
 31
0.0
 71
     0
 72
     0
 41
0.0
 42
0.0
  3
Standard
100
AcDbAlignedDimension
 13
101.206195
 23
-64.501561
 33
0.0
 14
220.169572
 24
-160.823227
 34
0.0
100
AcDbRotatedDimension
  0
DIMENSION
  5
2E0
100
AcDbEntity
  8
3
370
    25
100
AcDbDimension
  2
*D1
 10
101.206195
 20
-64.504721
 30
0.0
 11
108.99976
 21
-95.894691
 31
0.0
 70
     2
 71
     0
 72
     0
 41
0.0
 42
0.0
  3
Standard
100
AcDb2LineAngularDimension
 13
101.205646
 23
-64.504673
 33
0.0
 14
101.206195
 24
-64.501561
 34
0.0
 15
101.206195
 25
-64.501561
 35
0.0
 16
98.45256
 26
-95.97575
 36
0.0
1001
ACAD
1000
DSTYLE
1002
{
1070
   275
1070
     0
1070
   179
1070
     0
1002
}
  0
TEXT
  5
2E1
100
AcDbEntity
  8
3
370
    50
100
AcDbText
 10
67.974256
 20
-91.441052
 30
0.0
 40
7.0
  1
４０
 50
90.0
 72
     5
 11
67.974256
 21
-78.841052
 31
0.0
100
AcDbText
  0
DIMENSION
  5
2E2
100
AcDbEntity
  8
3
370
    25
100
AcDbDimension
  2
*D2
 10
68.974257
 20
-64.501561
 30
0.0
 11
66.474257
 21
-84.441052
 31
0.0
 71
     0
 72
     0
 41
0.0
 42
0.0
  3
Standard
100
AcDbAlignedDimension
 13
194.443572
 23
-104.380543
 33
0.0
 14
101.206195
 24
-64.501561
 34
0.0
 50
90.0
100
AcDbRotatedDimension
  0
TEXT
  5
2E3
100
AcDbEntity
  8
3
370
    50
100
AcDbText
 10
-133.561487
 20
-181.527405
 30
0.0
 40
7.0
  1
１０２
 72
     5
 11
-113.961487
 21
-181.527405
 31
0.0
100
AcDbText
  0
DIMENSION
  5
2E4
100
AcDbEntity
  8
3
370
    25
100
AcDbDimension
  2
*D3
 10
-72.062239
 20
-182.527405
 30
0.0
 11
-123.061487
 21
-180.527405
 31
0.0
 71
     0
 72
     0
 41
0.0
 42
0.0
  3
Standard
100
AcDbAlignedDimension
 13
-174.060736
 23
-168.699997
 33
0.0
 14
-72.062239
 24
-168.699997
 34
0.0
100
AcDbRotatedDimension
  0
TEXT
  5
2E5
100
AcDbEntity
  8
3
370
    50
100
AcDbText
 10
-44.842255
 20
-153.160309
 30
0.0
 40
7.0
  1
ＰＪ１／２
 72
     5
 11
-11.242255
 21
-153.160309
 31
0.0
100
AcDbText
  0
LWPOLYLINE
  5
2E6
100
AcDbEntity
  8
3
370
    25
100
AcDbPolyline
 90
        3
 70
     0
 10
-61.811943
 20
-144.775421
 10
-45.732067
 20
-154.303696
 10
-10.267303
 20
-154.303696
  0
LINE
  5
2EB
100
AcDbEntity
  8
3
370
    25
100
AcDbLine
 10
-58.487982
 20
-146.745064
 30
0.0
 11
-57.960218
 21
-145.854411
 31
0.0
  0
LINE
  5
2EC
100
AcDbEntity
  8
3
370
    25
100
AcDbLine
 10
-57.960218
 20
-145.854411
 30
0.0
 11
-61.811943
 21
-144.775421
 31
0.0
  0
LINE
  5
2ED
100
AcDbEntity
  8
3
370
    25
100
AcDbLine
 10
-61.811943
 20
-144.775421
 30
0.0
 11
-59.015746
 21
-147.635716
 31
0.0
  0
LINE
  5
2EE
100
AcDbEntity
  8
3
370
    25
100
AcDbLine
 10
-59.015746
 20
-147.635716
 30
0.0
 11
-58.487982
 21
-146.745064
 31
0.0
  0
POINT
  5
2EF
100
AcDbEntity
  8
3
370
    50
100
AcDbPoint
 10
-52.061373
 20
201.724875
 30
0.0
  0
POINT
  5
2F0
100
AcDbEntity
  8
3
370
    50
100
AcDbPoint
 10
-194.061373
 20
201.724875
 30
0.0
  0
DIMENSION
  5
2F1
100
AcDbEntity
  8
3
370
    25
100
AcDbDimension
  2
*D4
 10
-52.061373
 20
238.514114
 30
0.0
 11
-123.061373
 21
243.014114
 31
0.0
 71
     0
 72
     0
 41
0.0
 42
0.0
  3
Standard
100
AcDbAlignedDimension
 13
-194.061373
 23
201.724875
 33
0.0
 14
-52.061373
 24
201.724875
 34
0.0
100
AcDbRotatedDimension
  0
POINT
  5
2F2
100
AcDbEntity
  8
3
370
    50
100
AcDbPoint
 10
241.497037
 20
-104.380543
 30
0.0
  0
POINT
  5
2F3
100
AcDbEntity
  8
3
370
    50
100
AcDbPoint
 10
194.443572
 20
-104.380543
 30
0.0
  0
TEXT
  5
2F4
100
AcDbEntity
  8
3
370
    50
100
AcDbText
 10
210.970304
 20
-180.043671
 30
0.0
 40
7.0
  1
４７
 72
     5
 11
223.570304
 21
-180.043671
 31
0.0
100
AcDbText
  0
DIMENSION
  5
2F5
100
AcDbEntity
  8
3
370
    25
100
AcDbDimension
  2
*D5
 10
241.497037
 20
-181.043671
 30
0.0
 11
217.970304
 21
-179.043671
 31
0.0
 71
     0
 72
     0
 41
0.0
 42
0.0
  3
Standard
100
AcDbAlignedDimension
 13
194.443572
 23
-104.380543
 33
0.0
 14
241.497037
 24
-104.380543
 34
0.0
100
AcDbRotatedDimension
  0
TEXT
  5
2F6
100
AcDbEntity
  8
3
370
    50
100
AcDbText
 10
82.752968
 20
18.040421
 30
0.0
 40
7.0
  1
止水
 72
     5
 11
95.352968
 21
18.040421
 31
0.0
100
AcDbText
  0
TEXT
  5
2F7
100
AcDbEntity
  8
3
370
    50
100
AcDbText
 10
119.10231
 20
50.971275
 30
0.0
 40
7.0
  1
吐水
 72
     5
 11
131.70231
 21
50.971275
 31
0.0
100
AcDbText
  0
POINT
  5
2F8
100
AcDbEntity
  8
3
370
    50
100
AcDbPoint
 10
-123.061373
 20
158.735363
 30
0.0
  0
TEXT
  5
2F9
100
AcDbEntity
  8
3
370
    50
100
AcDbText
 10
-153.256927
 20
48.79911
 30
0.0
 40
7.0
  1
ハンドル回転角度
 72
     5
 11
-98.656927
 21
48.79911
 31
0.0
100
AcDbText
  0
TEXT
  5
2FA
100
AcDbEntity
  8
3
370
    50
100
AcDbText
 10
-122.176666
 20
-137.510208
 30
0.0
 40
7.0
  1
２４六角
 72
     5
 11
-95.576666
 21
-137.510208
 31
0.0
100
AcDbText
  0
TEXT
  5
2FB
100
AcDbEntity
  8
3
370
    50
100
AcDbText
 10
-119.417458
 20
-167.699387
 30
0.0
 40
7.0
  1
２３六角
 72
     5
 11
-92.817458
 21
-167.699387
 31
0.0
100
AcDbText
  0
LWPOLYLINE
  5
2FC
100
AcDbEntity
  8
3
370
    25
100
AcDbPolyline
 90
        3
 70
     0
 10
-83.061058
 20
-132.385956
 10
-93.375938
 20
-137.965027
 10
-120.922585
 20
-137.965027
  0
LINE
  5
301
100
AcDbEntity
  8
3
370
    25
100
AcDbLine
 10
-86.459506
 20
-134.224095
 30
0.0
 11
-85.966978
 21
-135.134706
 31
0.0
  0
LINE
  5
302
100
AcDbEntity
  8
3
370
    25
100
AcDbLine
 10
-85.966978
 20
-135.134706
 30
0.0
 11
-83.061058
 21
-132.385956
 31
0.0
  0
LINE
  5
303
100
AcDbEntity
  8
3
370
    25
100
AcDbLine
 10
-83.061058
 20
-132.385956
 30
0.0
 11
-86.952034
 21
-133.313483
 31
0.0
  0
LINE
  5
304
100
AcDbEntity
  8
3
370
    25
100
AcDbLine
 10
-86.952034
 20
-133.313483
 30
0.0
 11
-86.459506
 21
-134.224095
 31
0.0
  0
LWPOLYLINE
  5
305
100
AcDbEntity
  8
3
370
    25
100
AcDbPolyline
 90
        3
 70
     0
 10
-83.182449
 20
-162.585632
 10
-90.584862
 20
-168.771133
 10
-117.160736
 20
-168.771133
  0
LINE
  5
30A
100
AcDbEntity
  8
3
370
    25
100
AcDbLine
 10
-86.147312
 20
-165.06309
 30
0.0
 11
-85.483479
 21
-165.857522
 31
0.0
  0
LINE
  5
30B
100
AcDbEntity
  8
3
370
    25
100
AcDbLine
 10
-85.483479
 20
-165.857522
 30
0.0
 11
-83.182449
 21
-162.585632
 31
0.0
  0
LINE
  5
30C
100
AcDbEntity
  8
3
370
    25
100
AcDbLine
 10
-83.182449
 20
-162.585632
 30
0.0
 11
-86.811144
 21
-164.268657
 31
0.0
  0
LINE
  5
30D
100
AcDbEntity
  8
3
370
    25
100
AcDbLine
 10
-86.811144
 20
-164.268657
 30
0.0
 11
-86.147312
 21
-165.06309
 31
0.0
  0
TEXT
  5
30E
100
AcDbEntity
  8
3
370
    50
100
AcDbText
 10
-25.337643
 20
-96.380018
 30
0.0
 40
7.0
  1
天板厚サ　０～３０ｍｍ
 50
90.0
 72
     5
 11
-25.337643
 21
-20.780018
 31
0.0
100
AcDbText
  0
DIMENSION
  5
30F
100
AcDbEntity
  8
3
370
    25
100
AcDbDimension
  2
*D6
 10
-24.337643
 20
-104.380018
 30
0.0
 11
-26.837643
 21
-61.880018
 31
0.0
 71
     0
 72
     0
 41
0.0
 42
0.0
  3
Standard
100
AcDbAlignedDimension
 13
-57.741452
 23
-126.380051
 33
0.0
 14
-52.061487
 24
-104.380018
 34
0.0
 50
90.0
100
AcDbRotatedDimension
  0
TEXT
  5
310
100
AcDbEntity
  8
3
370
    50
100
AcDbText
 10
-14.975199
 20
-97.119492
 30
0.0
 40
7.0
  1
取付穴径　φ２２～２６
 50
90.0
 72
     5
 11
-14.975199
 21
-21.519492
 31
0.0
100
AcDbText
  0
TEXT
  5
311
100
AcDbEntity
  8
3
370
    50
100
AcDbText
 10
-209.36937
 20
-139.130018
 30
0.0
 40
7.0
  1
５５
 50
90.0
 72
     5
 11
-209.36937
 21
-126.530018
 31
0.0
100
AcDbText
  0
DIMENSION
  5
312
100
AcDbEntity
  8
3
370
    25
100
AcDbDimension
  2
*D7
 10
-208.36937
 20
-104.380018
 30
0.0
 11
-210.86937
 21
-132.130018
 31
0.0
 71
     0
 72
     0
 41
0.0
 42
0.0
  3
Standard
100
AcDbAlignedDimension
 13
-174.060736
 23
-159.880018
 33
0.0
 14
-194.061487
 24
-104.380018
 34
0.0
 50
90.0
100
AcDbRotatedDimension
  0
TEXT
  5
313
100
AcDbEntity
  8
3
370
    50
100
AcDbText
 10
230.278992
 20
-272.075134
 30
0.0
 40
6.0
  1
外観寸法図
 72
     5
 11
259.078992
 21
-272.075134
 31
0.0
100
AcDbText
  0
TEXT
  5
314
100
AcDbEntity
  8
3
370
    50
100
AcDbText
 10
288.320221
 20
-239.912292
 30
0.0
 40
6.0
  1
１
 72
     5
 11
293.120221
 21
-239.912292
 31
0.0
100
AcDbText
  0
TEXT
  5
315
100
AcDbEntity
  8
3
370
    50
100
AcDbText
 10
303.537354
 20
-240.199203
 30
0.0
 40
6.0
  1
２
 72
     5
 11
308.337354
 21
-240.199203
 31
0.0
100
AcDbText
  0
LINE
  5
316
100
AcDbEntity
  8
3
370
    25
  6
CENTER
100
AcDbLine
 10
-145.036732
 20
146.047883
 30
0.0
 11
-204.670009
 21
111.618595
 31
0.0
  0
LINE
  5
317
100
AcDbEntity
  8
3
370
    25
  6
CENTER
100
AcDbLine
 10
-102.9864
 20
123.964488
 30
0.0
 11
-75.567219
 21
76.473074
 31
0.0
  0
DIMENSION
  5
318
100
AcDbEntity
  8
3
370
    25
100
AcDbDimension
  2
*D8
 10
-123.061373
 20
72.797698
 30
0.0
 11
-162.536059
 21
69.363201
 31
0.0
 70
     2
 71
     0
 72
     0
 41
0.0
 42
0.0
  3
Standard
100
AcDb2LineAngularDimension
 13
-201.290457
 23
113.56978
 33
0.0
 14
-123.061373
 24
158.735363
 34
0.0
 15
-123.061373
 25
158.735363
 35
0.0
 16
-172.129326
 26
73.747176
 36
0.0
1001
ACAD
1000
DSTYLE
1002
{
1070
   275
1070
     0
1070
   179
1070
     0
1002
}
  0
DIMENSION
  5
319
100
AcDbEntity
  8
3
370
    25
100
AcDbDimension
  2
*D9
 10
-77.141016
 20
79.198972
 30
0.0
 11
-87.519711
 21
66.660957
 31
0.0
 70
     2
 71
     0
 72
     0
 41
0.0
 42
0.0
  3
Standard
100
AcDb2LineAngularDimension
 13
-123.061373
 23
72.797698
 33
0.0
 14
-123.061373
 24
158.735363
 34
0.0
 15
-123.061373
 25
158.735363
 35
0.0
 16
-97.661932
 26
63.943357
 36
0.0
1001
ACAD
1000
DSTYLE
1002
{
1070
   275
1070
     0
1070
   179
1070
     0
1002
}
  0
TEXT
  5
31A
100
AcDbEntity
  8
3
370
    50
100
AcDbText
 10
-70.917943
 20
13.976188
 30
0.0
 40
7.0
  1
青色
 72
     5
 11
-58.317943
 21
13.976188
 31
0.0
100
AcDbText
  0
TEXT
  5
31B
100
AcDbEntity
  8
3
370
    50
100
AcDbText
 10
-80.804677
 20
4.40084
 30
0.0
 40
7.0
  1
（水表示）
 72
     5
 11
-47.204677
 21
4.40084
 31
0.0
100
AcDbText
  0
TEXT
  5
31C
100
AcDbEntity
  8
3
370
    50
100
AcDbText
 10
-193.706399
 20
14.246228
 30
0.0
 40
7.0
  1
赤色
 72
     5
 11
-181.106399
 21
14.246228
 31
0.0
100
AcDbText
  0
TEXT
  5
31D
100
AcDbEntity
  8
3
370
    50
100
AcDbText
 10
-202.84414
 20
5.219875
 30
0.0
 40
7.0
  1
（湯表示）
 72
     5
 11
-169.24414
 21
5.219875
 31
0.0
100
AcDbText
  0
LWPOLYLINE
  5
31E
100
AcDbEntity
  8
3
370
    25
100
AcDbPolyline
 90
        3
 70
     0
 10
-120.656861
 20
-6.25109
 10
-94.314095
 20
12.970938
 10
-81.238843
 20
12.970938
  0
LINE
  5
323
100
AcDbEntity
  8
3
370
    25
100
AcDbLine
 10
-117.535736
 20
-3.973639
 30
0.0
 11
-118.145977
 21
-3.137337
 31
0.0
  0
LINE
  5
324
100
AcDbEntity
  8
3
370
    25
100
AcDbLine
 10
-118.145977
 20
-3.137337
 30
0.0
 11
-120.656861
 21
-6.25109
 31
0.0
  0
LINE
  5
325
100
AcDbEntity
  8
3
370
    25
100
AcDbLine
 10
-120.656861
 20
-6.25109
 30
0.0
 11
-116.925495
 21
-4.809942
 31
0.0
  0
LINE
  5
326
100
AcDbEntity
  8
3
370
    25
100
AcDbLine
 10
-116.925495
 20
-4.809942
 30
0.0
 11
-117.535736
 21
-3.973639
 31
0.0
  0
LWPOLYLINE
  5
327
100
AcDbEntity
  8
3
370
    25
100
AcDbPolyline
 90
        3
 70
     0
 10
-125.466114
 20
-6.25109
 10
-151.808879
 20
12.970938
 10
-164.884132
 20
12.970938
  0
LINE
  5
32C
100
AcDbEntity
  8
3
370
    25
100
AcDbLine
 10
-128.587239
 20
-3.973639
 30
0.0
 11
-129.19748
 21
-4.809942
 31
0.0
  0
LINE
  5
32D
100
AcDbEntity
  8
3
370
    25
100
AcDbLine
 10
-129.19748
 20
-4.809942
 30
0.0
 11
-125.466114
 21
-6.25109
 31
0.0
  0
LINE
  5
32E
100
AcDbEntity
  8
3
370
    25
100
AcDbLine
 10
-125.466114
 20
-6.25109
 30
0.0
 11
-127.976998
 21
-3.137337
 31
0.0
  0
LINE
  5
32F
100
AcDbEntity
  8
3
370
    25
100
AcDbLine
 10
-127.976998
 20
-3.137337
 30
0.0
 11
-128.587239
 21
-3.973639
 31
0.0
  0
TEXT
  5
330
100
AcDbEntity
  8
3
370
    50
100
AcDbText
 10
344.207123
 20
-255.810272
 30
0.0
 40
6.0
  1
２０　０５　１１
 72
     5
 11
391.007123
 21
-255.810272
 31
0.0
100
AcDbText
  0
DIMENSION
  5
331
100
AcDbEntity
  8
3
370
    25
100
AcDbDimension
  2
*D10
 10
43.367935
 20
10.618774
 30
0.0
 11
31.867935
 21
-50.380885
 31
0.0
 71
     0
 72
     0
 41
0.0
 42
0.0
  3
Standard
100
AcDbAlignedDimension
 13
194.443572
 23
-104.380543
 33
0.0
 14
93.852934
 24
10.618774
 34
0.0
 50
90.0
100
AcDbRotatedDimension
  0
DIMENSION
  5
332
100
AcDbEntity
  8
3
370
    25
100
AcDbDimension
  2
*D11
 10
25.887554
 20
43.510968
 30
0.0
 11
14.387554
 21
-33.934788
 31
0.0
 71
     0
 72
     0
 41
0.0
 42
0.0
  3
Standard
100
AcDbAlignedDimension
 13
194.443572
 23
-104.380543
 33
0.0
 14
114.570595
 24
43.510968
 34
0.0
 50
90.0
100
AcDbRotatedDimension
  0
DIMENSION
  5
333
100
AcDbEntity
  8
3
370
    25
100
AcDbDimension
  2
*D12
 10
122.81962
 20
10.618774
 30
0.0
 11
69.032306
 21
47.1071
 31
0.0
 70
     2
 71
     0
 72
     0
 41
0.0
 42
0.0
  3
Standard
100
AcDb2LineAngularDimension
 13
148.436613
 23
27.718984
 33
0.0
 14
185.108133
 24
10.618774
 34
0.0
 15
185.108133
 25
10.618774
 35
0.0
 16
67.735986
 26
36.639552
 36
0.0
1001
ACAD
1000
DSTYLE
1002
{
1070
   275
1070
     0
1070
   179
1070
     0
1002
}
  0
TEXT
  5
334
100
AcDbEntity
  8
3
370
    50
100
AcDbText
 10
130.512558
 20
-96.895519
 30
0.0
 40
7.0
  1
２９
 50
90.0
 72
     5
 11
130.512558
 21
-84.295519
 31
0.0
100
AcDbText
  0
DIMENSION
  5
335
100
AcDbEntity
  8
3
370
    25
100
AcDbDimension
  2
*D13
 10
131.512558
 20
-75.410494
 30
0.0
 11
129.012558
 21
-89.895519
 31
0.0
 71
     0
 72
     0
 41
0.0
 42
0.0
  3
Standard
100
AcDbAlignedDimension
 13
194.443572
 23
-104.380543
 33
0.0
 14
145.373352
 24
-75.410494
 34
0.0
 50
90.0
100
AcDbRotatedDimension
  0
TEXT
  5
336
100
AcDbEntity
  8
3
370
    50
100
AcDbText
 10
175.771462
 20
-120.119514
 30
0.0
 40
7.0
  1
７５
 72
     5
 11
188.371462
 21
-120.119514
 31
0.0
100
AcDbText
  0
DIMENSION
  5
337
100
AcDbEntity
  8
3
370
    25
100
AcDbDimension
  2
*D14
 10
220.169572
 20
-121.119514
 30
0.0
 11
182.771462
 21
-119.119514
 31
0.0
 71
     0
 72
     0
 41
0.0
 42
0.0
  3
Standard
100
AcDbAlignedDimension
 13
145.373352
 23
-75.410494
 33
0.0
 14
220.169572
 24
-121.119514
 34
0.0
100
AcDbRotatedDimension
  0
TEXT
  5
338
100
AcDbEntity
  8
3
370
    50
100
AcDbText
 10
63.982487
 20
-235.994034
 30
0.0
 40
6.0
  1
ＭＬ５６１ＨＤＡＨＥ
 72
     5
 11
122.782487
 21
-235.994034
 31
0.0
100
AcDbText
  0
TEXT
  5
339
100
AcDbEntity
  8
3
370
    50
100
AcDbText
 10
337.244659
 20
-272.339447
 30
0.0
 40
6.0
  1
１１０２４３
 72
     5
 11
372.044659
 21
-272.339447
 31
0.0
100
AcDbText
  0
TEXT
  5
33A
100
AcDbEntity
  8
3
370
    50
100
AcDbText
 10
63.982487
 20
-227.59259
 30
0.0
 40
6.0
  1
台付シングルレバー湯水混合水栓（寒・節湯）
 72
     5
 11
188.782487
 21
-227.59259
 31
0.0
100
AcDbText
  0
LINE
  5
33B
100
AcDbEntity
  8
4
370
    50
100
AcDbLine
 10
158.508632
 20
-21.847297
 30
0.0
 11
178.169572
 21
-18.380543
 31
0.0
  0
LINE
  5
33C
100
AcDbEntity
  8
4
370
    50
100
AcDbLine
 10
157.364101
 20
-20.622936
 30
0.0
 11
157.83446
 21
-18.716621
 31
0.0
  0
LINE
  5
33D
100
AcDbEntity
  8
4
370
    50
100
AcDbLine
 10
198.487262
 20
-13.371814
 30
0.0
 11
193.557205
 21
-6.024087
 31
0.0
  0
LINE
  5
33E
100
AcDbEntity
  8
4
370
    50
100
AcDbLine
 10
197.830511
 20
-14.913789
 30
0.0
 11
178.169572
 21
-18.380543
 31
0.0
  0
ARC
  5
33F
100
AcDbEntity
  8
4
370
    50
100
AcDbCircle
 10
197.656863
 20
-13.928982
 30
0.0
 40
1.0
100
AcDbArc
 50
280.0
 51
33.860175
  0
ARC
  5
340
100
AcDbEntity
  8
4
370
    50
100
AcDbCircle
 10
158.334984
 20
-20.86249
 30
0.0
 40
1.0
100
AcDbArc
 50
166.139825
 51
280.0
  0
ARC
  5
341
100
AcDbEntity
  8
5
370
    50
100
AcDbCircle
 10
137.98568
 20
-239.670464
 30
0.0
 40
254.150353
100
AcDbArc
 50
76.978785
 51
99.773668
  0
LINE
  5
342
100
AcDbEntity
  8
5
370
    50
100
AcDbLine
 10
152.761277
 20
-0.975897
 30
0.0
 11
155.948095
 21
-19.049238
 31
0.0
  0
LINE
  5
343
100
AcDbEntity
  8
5
370
    50
100
AcDbLine
 10
177.613866
 20
-15.228978
 30
0.0
 11
197.889175
 21
-3.523023
 31
0.0
  0
LINE
  5
344
100
AcDbEntity
  8
5
370
    50
100
AcDbLine
 10
155.948095
 20
-19.049238
 30
0.0
 11
177.613866
 21
-15.228978
 31
0.0
  0
LINE
  5
345
100
AcDbEntity
  8
5
370
    50
100
AcDbLine
 10
95.948946
 20
4.992379
 30
0.0
 11
102.651747
 21
6.788389
 31
0.0
  0
LINE
  5
346
100
AcDbEntity
  8
5
370
    50
100
AcDbLine
 10
196.008255
 20
7.144207
 30
0.0
 11
197.889175
 21
-3.523023
 31
0.0
  0
ARC
  5
347
100
AcDbEntity
  8
5
370
    50
100
AcDbCircle
 10
95.690127
 20
5.958305
 30
0.0
 40
1.0
100
AcDbArc
 50
190.0
 51
285.0
  0
LINE
  5
348
100
AcDbEntity
  8
5
370
    50
100
AcDbLine
 10
94.026925
 20
9.632021
 30
0.0
 11
94.705319
 21
5.784656
 31
0.0
  0
ARC
  5
349
100
AcDbEntity
  8
5
370
    50
100
AcDbCircle
 10
95.011733
 20
9.805669
 30
0.0
 40
1.0
100
AcDbArc
 50
99.773668
 51
190.0
  0
POINT
  5
34A
100
AcDbEntity
  8
5
370
    50
100
AcDbPoint
 10
93.852934
 20
10.618774
 30
0.0
  0
ARC
  5
34B
100
AcDbEntity
  8
5
370
    50
100
AcDbCircle
 10
142.9132
 20
-2.712379
 30
0.0
 40
10.0
100
AcDbArc
 50
10.0
 51
85.758916
  0
ARC
  5
34C
100
AcDbEntity
  8
5
370
    50
100
AcDbCircle
 10
195.023447
 20
6.970559
 30
0.0
 40
1.0
100
AcDbArc
 50
10.0
 51
76.978785
  0
POINT
  5
34D
100
AcDbEntity
  8
5
370
    50
100
AcDbPoint
 10
195.893529
 20
7.794853
 30
0.0
  0
POINT
  5
34E
100
AcDbEntity
  8
5
370
    50
100
AcDbPoint
 10
94.894823
 20
4.709927
 30
0.0
  0
ARC
  5
34F
100
AcDbEntity
  8
5
370
    50
100
AcDbCircle
 10
142.5034
 20
-7.711641
 30
0.0
 40
12.271687
100
AcDbArc
 50
346.078437
 51
34.044243
  0
ARC
  5
350
100
AcDbEntity
  8
5
370
    50
100
AcDbCircle
 10
125.903939
 20
-232.082571
 30
0.0
 40
240.0
100
AcDbArc
 50
85.758916
 51
95.559773
  0
SPLINE
  5
351
100
AcDbEntity
  8
5
370
    25
100
AcDbSpline
210
0.0
220
0.0
230
1.0
 70
     8
 71
     3
 72
     0
 73
     0
 74
    22
 44
0.0000000001
 11
103.090059
 21
10.803291
 31
0.0
 11
104.942401
 21
11.011279
 31
0.0
 11
106.79526
 21
11.204845000000001
 31
0.0
 11
108.64863800000001
 21
11.384008
 31
0.0
 11
110.502531
 21
11.548788999999999
 31
0.0
 11
112.35694100000001
 21
11.699206999999999
 31
0.0
 11
114.211866
 21
11.835281999999999
 31
0.0
 11
116.067306
 21
11.957034999999999
 31
0.0
 11
117.923259
 21
12.064484
 31
0.0
 11
119.779725
 21
12.157651
 31
0.0
 11
121.63670399999999
 21
12.236556
 31
0.0
 11
123.49419399999999
 21
12.301214999999999
 31
0.0
 11
125.35219600000001
 21
12.351626
 31
0.0
 11
127.210711
 21
12.387783000000001
 31
0.0
 11
129.069737
 21
12.409685
 31
0.0
 11
130.92927499999999
 21
12.417325999999999
 31
0.0
 11
132.78932599999999
 21
12.410705
 31
0.0
 11
134.64989
 21
12.389817000000001
 31
0.0
 11
136.510966
 21
12.354660000000001
 31
0.0
 11
138.37255400000001
 21
12.305229000000001
 31
0.0
 11
140.234656
 21
12.241522
 31
0.0
 11
142.09648799999999
 21
12.163572
 31
0.0
  0
SPLINE
  5
352
100
AcDbEntity
  8
5
370
    25
100
AcDbSpline
210
0.0
220
0.0
230
1.0
 70
     8
 71
     3
 72
     0
 73
     0
 74
    40
 44
0.0000000001
 11
142.09710000000001
 21
12.163544
 31
0.0
 11
142.66201899999999
 21
12.135999
 31
0.0
 11
143.22507899999999
 21
12.105076
 31
0.0
 11
143.78629000000001
 21
12.070765
 31
0.0
 11
144.345663
 21
12.033058
 31
0.0
 11
144.90320800000001
 21
11.991944999999999
 31
0.0
 11
145.45893599999999
 21
11.947418000000001
 31
0.0
 11
146.01285799999999
 21
11.899468000000001
 31
0.0
 11
146.56498400000001
 21
11.848086
 31
0.0
 11
147.11532500000001
 21
11.793263
 31
0.0
 11
147.66389100000001
 21
11.73499
 31
0.0
 11
148.210689
 21
11.673247
 31
0.0
 11
148.75572199999999
 21
11.607994
 31
0.0
 11
149.298991
 21
11.53919
 31
0.0
 11
149.84049999999999
 21
11.466794999999999
 31
0.0
 11
150.38024899999999
 21
11.390768
 31
0.0
 11
150.91824299999999
 21
11.311068000000001
 31
0.0
 11
151.45448200000001
 21
11.227653999999999
 31
0.0
 11
151.98896999999999
 21
11.140485999999999
 31
0.0
 11
152.52170899999999
 21
11.049523000000001
 31
0.0
 11
153.05269999999999
 21
10.954722
 31
0.0
 11
153.58194
 21
10.856016
 31
0.0
 11
154.10942600000001
 21
10.75334
 31
0.0
 11
154.63515599999999
 21
10.646630999999999
 31
0.0
 11
155.15912700000001
 21
10.535824
 31
0.0
 11
155.681399
 21
10.420839000000001
 31
0.0
 11
156.20209
 21
10.30157
 31
0.0
 11
156.72096300000001
 21
10.177998000000001
 31
0.0
 11
157.237754
 21
10.050114000000001
 31
0.0
 11
157.75219999999999
 21
9.9179080000000006
 31
0.0
 11
158.26390699999999
 21
9.7814130000000006
 31
0.0
 11
158.772437
 21
9.6407039999999995
 31
0.0
 11
159.27778000000001
 21
9.4957250000000002
 31
0.0
 11
159.779945
 21
9.3464159999999996
 31
0.0
 11
160.278941
 21
9.1927160000000008
 31
0.0
 11
160.77477500000001
 21
9.0345650000000006
 31
0.0
 11
161.267458
 21
8.8719020000000004
 31
0.0
 11
161.75699700000001
 21
8.7046670000000006
 31
0.0
 11
162.24340100000001
 21
8.5327990000000007
 31
0.0
 11
162.726302
 21
8.3563770000000002
 31
0.0
  0
LWPOLYLINE
  5
353
100
AcDbEntity
  8
5
370
    25
100
AcDbPolyline
 90
      609
 70
     0
 10
195.679536
 20
7.725243
 10
195.667895
 20
7.721467
 10
195.656264
 20
7.717697
 10
195.64464
 20
7.713932
 10
195.633017
 20
7.710169
 10
195.621394
 20
7.706408
 10
195.605132
 20
7.70115
 10
195.588862
 20
7.695894
 10
195.572586
 20
7.690639
 10
195.556306
 20
7.685388
 10
195.540026
 20
7.680139
 10
195.521436
 20
7.674151
 10
195.502848
 20
7.668168
 10
195.484259
 20
7.66219
 10
195.46567
 20
7.656216
 10
195.44708
 20
7.650247
 10
195.426196
 20
7.643547
 10
195.405309
 20
7.636853
 10
195.38442
 20
7.630165
 10
195.363529
 20
7.623482
 10
195.342636
 20
7.616805
 10
195.319528
 20
7.609427
 10
195.296419
 20
7.602057
 10
195.273306
 20
7.594694
 10
195.250192
 20
7.587338
 10
195.227076
 20
7.579988
 10
195.206031
 20
7.573304
 10
195.184983
 20
7.566626
 10
195.163934
 20
7.559953
 10
195.142883
 20
7.553287
 10
195.121831
 20
7.546626
 10
195.100776
 20
7.539971
 10
195.077983
 20
7.532774
 10
195.055187
 20
7.525584
 10
195.03239
 20
7.518401
 10
195.00959
 20
7.511225
 10
194.986788
 20
7.504057
 10
194.963983
 20
7.496895
 10
194.939444
 20
7.489198
 10
194.914901
 20
7.48151
 10
194.890356
 20
7.473831
 10
194.865808
 20
7.46616
 10
194.841257
 20
7.458498
 10
194.816703
 20
7.450845
 10
194.790413
 20
7.442662
 10
194.76412
 20
7.434488
 10
194.737823
 20
7.426325
 10
194.711524
 20
7.418172
 10
194.685221
 20
7.41003
 10
194.658915
 20
7.401898
 10
194.630872
 20
7.39324
 10
194.602825
 20
7.384595
 10
194.574774
 20
7.375962
 10
194.54672
 20
7.36734
 10
194.518662
 20
7.35873
 10
194.490601
 20
7.350131
 10
194.460812
 20
7.341018
 10
194.43102
 20
7.331919
 10
194.401223
 20
7.322832
 10
194.371422
 20
7.31376
 10
194.341617
 20
7.304701
 10
194.311807
 20
7.295656
 10
194.280291
 20
7.286109
 10
194.248769
 20
7.276577
 10
194.217243
 20
7.267061
 10
194.185713
 20
7.25756
 10
194.154177
 20
7.248075
 10
194.122637
 20
7.238605
 10
194.08941
 20
7.228647
 10
194.056177
 20
7.218706
 10
194.02294
 20
7.208782
 10
193.989697
 20
7.198876
 10
193.956449
 20
7.188987
 10
193.923196
 20
7.179115
 10
193.888275
 20
7.168769
 10
193.853348
 20
7.158441
 10
193.818416
 20
7.148133
 10
193.783478
 20
7.137844
 10
193.748534
 20
7.127574
 10
193.713585
 20
7.117324
 10
193.676985
 20
7.106612
 10
193.64038
 20
7.095922
 10
193.603768
 20
7.085254
 10
193.56715
 20
7.074606
 10
193.530526
 20
7.063981
 10
193.493895
 20
7.053376
 10
193.455632
 20
7.042325
 10
193.417362
 20
7.031296
 10
193.379085
 20
7.020292
 10
193.340802
 20
7.009311
 10
193.302512
 20
6.998353
 10
193.264215
 20
6.98742
 10
193.224302
 20
6.976052
 10
193.184383
 20
6.96471
 10
193.144456
 20
6.953394
 10
193.104521
 20
6.942104
 10
193.06458
 20
6.930839
 10
193.024631
 20
6.919601
 10
192.996935
 20
6.911826
 10
192.969235
 20
6.904063
 10
192.941532
 20
6.896313
 10
192.858401
 20
6.873139
 10
192.830684
 20
6.865439
 10
192.802963
 20
6.857753
 10
192.775239
 20
6.850079
 10
192.746466
 20
6.842129
 10
192.717689
 20
6.834193
 10
192.688909
 20
6.82627
 10
192.602544
 20
6.802587
 10
192.573748
 20
6.79472
 10
192.544949
 20
6.786867
 10
192.516146
 20
6.779028
 10
192.486308
 20
6.770923
 10
192.456466
 20
6.762833
 10
192.42662
 20
6.754758
 10
192.337057
 20
6.730624
 10
192.307195
 20
6.722609
 10
192.277329
 20
6.714609
 10
192.247459
 20
6.706625
 10
192.216568
 20
6.698385
 10
192.185673
 20
6.69016
 10
192.154773
 20
6.681953
 10
192.062049
 20
6.657427
 10
192.031133
 20
6.649284
 10
192.000212
 20
6.641158
 10
191.969286
 20
6.633048
 10
191.937356
 20
6.624693
 10
191.90542
 20
6.616355
 10
191.87348
 20
6.608035
 10
191.777633
 20
6.583181
 10
191.745674
 20
6.574932
 10
191.713711
 20
6.566701
 10
191.681744
 20
6.558487
 10
191.648786
 20
6.550039
 10
191.615824
 20
6.54161
 10
191.582857
 20
6.5332
 10
191.483926
 20
6.508085
 10
191.450939
 20
6.499752
 10
191.417947
 20
6.491438
 10
191.384951
 20
6.483143
 10
191.35098
 20
6.474624
 10
191.317003
 20
6.466126
 10
191.283022
 20
6.457648
 10
191.181047
 20
6.432339
 10
191.147046
 20
6.423944
 10
191.113039
 20
6.415569
 10
191.079027
 20
6.407215
 10
191.044056
 20
6.398648
 10
191.009079
 20
6.390103
 10
190.974097
 20
6.38158
 10
190.86912
 20
6.356144
 10
190.834116
 20
6.347709
 10
190.799108
 20
6.339296
 10
190.764094
 20
6.330906
 10
190.728137
 20
6.322315
 10
190.692175
 20
6.313747
 10
190.656207
 20
6.305202
 10
190.54827
 20
6.27971
 10
190.51228
 20
6.271261
 10
190.476284
 20
6.262835
 10
190.440283
 20
6.254433
 10
190.403355
 20
6.245841
 10
190.366422
 20
6.237274
 10
190.329483
 20
6.228732
 10
190.218632
 20
6.203259
 10
190.181669
 20
6.194819
 10
190.144701
 20
6.186404
 10
190.107728
 20
6.178014
 10
190.069844
 20
6.169446
 10
190.031955
 20
6.160905
 10
189.99406
 20
6.152391
 10
189.880338
 20
6.127009
 10
189.842419
 20
6.118603
 10
189.804494
 20
6.110223
 10
189.766563
 20
6.101871
 10
189.727739
 20
6.093352
 10
189.68891
 20
6.084861
 10
189.650074
 20
6.076399
 10
189.533529
 20
6.051184
 10
189.494669
 20
6.042837
 10
189.455802
 20
6.034518
 10
189.416929
 20
6.026229
 10
189.377182
 20
6.017784
 10
189.337429
 20
6.00937
 10
189.29767
 20
6.000986
 10
189.178353
 20
5.976017
 10
189.138568
 20
5.967755
 10
189.098777
 20
5.959524
 10
189.058979
 20
5.951324
 10
189.018326
 20
5.94298
 10
188.977666
 20
5.934669
 10
188.937
 20
5.92639
 10
188.814963
 20
5.901746
 10
188.77427
 20
5.893596
 10
188.733572
 20
5.885479
 10
188.692866
 20
5.877394
 10
188.651324
 20
5.869178
 10
188.609775
 20
5.860996
 10
188.56822
 20
5.852848
 10
188.443513
 20
5.828608
 10
188.401931
 20
5.820597
 10
188.360342
 20
5.81262
 10
188.318746
 20
5.804677
 10
188.286937
 20
5.798628
 10
188.255124
 20
5.792598
 10
188.223308
 20
5.786589
 10
188.127835
 20
5.768683
 10
188.032328
 20
5.75096
 10
188.000485
 20
5.745094
 10
187.968638
 20
5.739247
 10
187.936787
 20
5.733422
 10
187.904339
 20
5.727509
 10
187.871888
 20
5.721617
 10
187.839433
 20
5.715747
 10
187.742045
 20
5.698265
 10
187.644622
 20
5.680976
 10
187.61214
 20
5.675256
 10
187.579654
 20
5.669558
 10
187.547165
 20
5.663882
 10
187.514094
 20
5.658127
 10
187.481019
 20
5.652394
 10
187.447941
 20
5.646684
 10
187.348681
 20
5.62969
 10
187.249387
 20
5.612899
 10
187.216281
 20
5.607348
 10
187.183172
 20
5.601819
 10
187.150058
 20
5.596314
 10
187.116379
 20
5.590738
 10
187.082696
 20
5.585186
 10
187.049008
 20
5.579657
 10
186.947923
 20
5.563214
 10
186.846803
 20
5.546985
 10
186.813089
 20
5.541624
 10
186.779371
 20
5.536286
 10
186.745649
 20
5.530972
 10
186.711378
 20
5.525597
 10
186.677103
 20
5.520246
 10
186.642824
 20
5.514921
 10
186.539965
 20
5.499094
 10
186.437071
 20
5.483491
 10
186.402765
 20
5.478341
 10
186.368456
 20
5.473215
 10
186.334143
 20
5.468115
 10
186.299298
 20
5.462962
 10
186.264449
 20
5.457834
 10
186.229597
 20
5.452733
 10
186.125016
 20
5.437586
 10
186.020402
 20
5.422675
 10
185.985523
 20
5.417757
 10
185.95064
 20
5.412865
 10
185.915754
 20
5.408
 10
185.880353
 20
5.40309
 10
185.844948
 20
5.398208
 10
185.809539
 20
5.393353
 10
185.703291
 20
5.37895
 10
185.59701
 20
5.364795
 10
185.561575
 20
5.360131
 10
185.526137
 20
5.355495
 10
185.490696
 20
5.350886
 10
185.454756
 20
5.346241
 10
185.418814
 20
5.341625
 10
185.382867
 20
5.337037
 10
185.275007
 20
5.323443
 10
185.167114
 20
5.310107
 10
185.131143
 20
5.305718
 10
185.095168
 20
5.301358
 10
185.05919
 20
5.297027
 10
185.022732
 20
5.292668
 10
184.986272
 20
5.288338
 10
184.949808
 20
5.284038
 10
184.840394
 20
5.271315
 10
184.730951
 20
5.258859
 10
184.694462
 20
5.254766
 10
184.657971
 20
5.250703
 10
184.621476
 20
5.24667
 10
184.584521
 20
5.242617
 10
184.547563
 20
5.238594
 10
184.510601
 20
5.234602
 10
184.399697
 20
5.22281
 10
184.288763
 20
5.211296
 10
184.251778
 20
5.207519
 10
184.214791
 20
5.203774
 10
184.1778
 20
5.200059
 10
184.140368
 20
5.196332
 10
184.102932
 20
5.192637
 10
184.065493
 20
5.188973
 10
183.953158
 20
5.178174
 10
183.840795
 20
5.167662
 10
183.803335
 20
5.164222
 10
183.765872
 20
5.160814
 10
183.728406
 20
5.157438
 10
183.690518
 20
5.154056
 10
183.652627
 20
5.150708
 10
183.614733
 20
5.147392
 10
183.501033
 20
5.137643
 10
183.387309
 20
5.12819
 10
183.349396
 20
5.125105
 10
183.31148
 20
5.122053
 10
183.273561
 20
5.119034
 10
183.23524
 20
5.116017
 10
183.196917
 20
5.113034
 10
183.158592
 20
5.110084
 10
183.043599
 20
5.101439
 10
182.928584
 20
5.0931
 10
182.890241
 20
5.090388
 10
182.851896
 20
5.087711
 10
182.813548
 20
5.085067
 10
182.774818
 20
5.082432
 10
182.736087
 20
5.079832
 10
182.697353
 20
5.077266
 10
182.581138
 20
5.06978
 10
182.464903
 20
5.062609
 10
182.426154
 20
5.060288
 10
182.387403
 20
5.058003
 10
182.348649
 20
5.055753
 10
182.309535
 20
5.053518
 10
182.270419
 20
5.051319
 10
182.231301
 20
5.049155
 10
182.113936
 20
5.042881
 10
181.996553
 20
5.036929
 10
181.957422
 20
5.035017
 10
181.918289
 20
5.033141
 10
181.879155
 20
5.031301
 10
181.839682
 20
5.029482
 10
181.800207
 20
5.027699
 10
181.76073
 20
5.025953
 10
181.642291
 20
5.020934
 10
181.523839
 20
5.016246
 10
181.484352
 20
5.014757
 10
181.444864
 20
5.013304
 10
181.405374
 20
5.011889
 10
181.365567
 20
5.010499
 10
181.32576
 20
5.009147
 10
181.285951
 20
5.007832
 10
181.166516
 20
5.004112
 10
181.047072
 20
5.000731
 10
181.007255
 20
4.999679
 10
180.967438
 20
4.998664
 10
180.927619
 20
4.997688
 10
180.887505
 20
4.996742
 10
180.84739
 20
4.995835
 10
180.807275
 20
4.994966
 10
180.686924
 20
4.992589
 10
180.566566
 20
4.990556
 10
180.526446
 20
4.989956
 10
180.486325
 20
4.989394
 10
180.446203
 20
4.98887
 10
180.405809
 20
4.988381
 10
180.365414
 20
4.987932
 10
180.325019
 20
4.987521
 10
180.203832
 20
4.986523
 10
180.082643
 20
4.985875
 10
180.042246
 20
4.985737
 10
180.001849
 20
4.985638
 10
179.961452
 20
4.985578
 10
179.920805
 20
4.985557
 10
179.880159
 20
4.985575
 10
179.839512
 20
4.985632
 10
179.717573
 20
4.98604
 10
179.595636
 20
4.986804
 10
179.554991
 20
4.987137
 10
179.514346
 20
4.98751
 10
179.473702
 20
4.987922
 10
179.432831
 20
4.988376
 10
179.391961
 20
4.98887
 10
179.351091
 20
4.989405
 10
179.228486
 20
4.991246
 10
179.105886
 20
4.993448
 10
179.065021
 20
4.994262
 10
179.024157
 20
4.995116
 10
178.983293
 20
4.99601
 10
178.942227
 20
4.996949
 10
178.901161
 20
4.997929
 10
178.860096
 20
4.998949
 10
178.736908
 20
5.002251
 10
178.61373
 20
5.005917
 10
178.572673
 20
5.00722
 10
178.531618
 20
5.008563
 10
178.490563
 20
5.009946
 10
178.435583
 20
5.011862
 10
178.380606
 20
5.01385
 10
178.325631
 20
5.015911
 10
178.160723
 20
5.022526
 10
178.10576
 20
5.024876
 10
178.0508
 20
5.027297
 10
177.995843
 20
5.02979
 10
177.940674
 20
5.032366
 10
177.885509
 20
5.035014
 10
177.830347
 20
5.037735
 10
177.664885
 20
5.046333
 10
177.609738
 20
5.049344
 10
177.554596
 20
5.052427
 10
177.499458
 20
5.055584
 10
177.444137
 20
5.058823
 10
177.388821
 20
5.062136
 10
177.333509
 20
5.065521
 10
177.1676
 20
5.076115
 10
177.112307
 20
5.079792
 10
177.057018
 20
5.083542
 10
177.001735
 20
5.087365
 10
176.946298
 20
5.091271
 10
176.890866
 20
5.09525
 10
176.83544
 20
5.099303
 10
176.669193
 20
5.111897
 10
176.613788
 20
5.11624
 10
176.55839
 20
5.120656
 10
176.502997
 20
5.125144
 10
176.447479
 20
5.129715
 10
176.391967
 20
5.13436
 10
176.336462
 20
5.139076
 10
176.169982
 20
5.153662
 10
176.114502
 20
5.158669
 10
176.059028
 20
5.163748
 10
176.003561
 20
5.1689
 10
175.947998
 20
5.174133
 10
175.892441
 20
5.179439
 10
175.836892
 20
5.184818
 10
175.670286
 20
5.201388
 10
175.614765
 20
5.207056
 10
175.559252
 20
5.212796
 10
175.503746
 20
5.218608
 10
175.448171
 20
5.224501
 10
175.392605
 20
5.230466
 10
175.337046
 20
5.236503
 10
175.170416
 20
5.255045
 10
175.114889
 20
5.261369
 10
175.059371
 20
5.267765
 10
175.00386
 20
5.274232
 10
174.948307
 20
5.280777
 10
174.892763
 20
5.287393
 10
174.837227
 20
5.29408
 10
174.670671
 20
5.314568
 10
174.61517
 20
5.32154
 10
174.559678
 20
5.328582
 10
174.504194
 20
5.335695
 10
174.448695
 20
5.342882
 10
174.393204
 20
5.350139
 10
174.337723
 20
5.357468
 10
174.171336
 20
5.379875
 10
174.115892
 20
5.387484
 10
174.060459
 20
5.395164
 10
174.005035
 20
5.402914
 10
173.94962
 20
5.410734
 10
173.894215
 20
5.418625
 10
173.838821
 20
5.426584
 10
173.672697
 20
5.450882
 10
173.617342
 20
5.45912
 10
173.561999
 20
5.467428
 10
173.506665
 20
5.475804
 10
173.451365
 20
5.484246
 10
173.396074
 20
5.492757
 10
173.340795
 20
5.501337
 10
173.175021
 20
5.527487
 10
173.119784
 20
5.53634
 10
173.064559
 20
5.545261
 10
173.009344
 20
5.55425
 10
172.954185
 20
5.5633
 10
172.899037
 20
5.572417
 10
172.8439
 20
5.581602
 10
172.678558
 20
5.60956
 10
172.623466
 20
5.619014
 10
172.568386
 20
5.628535
 10
172.513318
 20
5.638122
 10
172.458328
 20
5.647765
 10
172.403349
 20
5.657474
 10
172.348383
 20
5.66725
 10
172.183554
 20
5.696973
 10
172.128634
 20
5.707013
 10
172.073727
 20
5.717119
 10
172.018832
 20
5.72729
 10
171.964037
 20
5.737511
 10
171.909254
 20
5.747796
 10
171.854483
 20
5.758147
 10
171.690245
 20
5.789589
 10
171.635523
 20
5.800199
 10
171.580815
 20
5.810873
 10
171.526118
 20
5.821612
 10
171.471541
 20
5.832393
 10
171.416977
 20
5.843238
 10
171.362425
 20
5.854147
 10
171.198847
 20
5.887252
 10
171.144347
 20
5.898414
 10
171.089859
 20
5.909639
 10
171.035385
 20
5.920926
 10
170.981049
 20
5.93225
 10
170.926727
 20
5.943636
 10
170.872417
 20
5.955084
 10
170.709568
 20
5.9898
 10
170.655311
 20
6.001495
 10
170.601068
 20
6.013252
 10
170.546838
 20
6.025071
 10
170.492766
 20
6.036919
 10
170.438708
 20
6.048828
 10
170.384663
 20
6.060797
 10
170.222609
 20
6.097069
 10
170.168619
 20
6.10928
 10
170.114641
 20
6.12155
 10
170.060678
 20
6.133881
 10
170.006889
 20
6.146234
 10
169.953114
 20
6.158646
 10
169.899353
 20
6.171118
 10
169.738151
 20
6.208884
 10
169.684445
 20
6.22159
 10
169.630753
 20
6.234354
 10
169.577074
 20
6.247176
 10
169.523586
 20
6.260013
 10
169.470112
 20
6.272908
 10
169.416652
 20
6.285861
 10
169.256355
 20
6.32506
 10
169.202951
 20
6.33824
 10
169.14956
 20
6.351477
 10
169.096184
 20
6.36477
 10
169.043014
 20
6.378071
 10
168.989859
 20
6.391428
 10
168.936718
 20
6.404841
 10
168.777378
 20
6.445411
 10
168.724293
 20
6.459045
 10
168.671222
 20
6.472734
 10
168.618166
 20
6.486478
 10
168.565333
 20
6.500222
 10
168.512514
 20
6.51402
 10
168.459709
 20
6.527872
 10
168.301381
 20
6.569753
 10
168.248633
 20
6.58382
 10
168.1959
 20
6.597941
 10
168.143181
 20
6.612116
 10
168.090702
 20
6.626282
 10
168.038239
 20
6.640501
 10
167.985789
 20
6.654772
 10
167.828527
 20
6.697902
 10
167.776135
 20
6.712383
 10
167.723757
 20
6.726916
 10
167.671394
 20
6.7415
 10
167.619289
 20
6.756069
 10
167.567199
 20
6.770688
 10
167.515123
 20
6.785359
 10
167.358981
 20
6.829676
 10
167.306963
 20
6.84455
 10
167.254959
 20
6.859475
 10
167.20297
 20
6.87445
 10
167.151255
 20
6.889401
 10
167.099554
 20
6.904401
 10
167.047868
 20
6.91945
 10
166.892895
 20
6.964894
 10
166.841266
 20
6.980139
 10
166.789651
 20
6.995433
 10
166.738051
 20
7.010775
 10
166.68673
 20
7.026086
 10
166.635423
 20
7.041444
 10
166.58413
 20
7.056848
 10
166.430336
 20
7.103343
 10
166.379099
 20
7.118934
 10
166.327877
 20
7.134571
 10
166.276668
 20
7.150254
 10
166.225742
 20
7.165899
 10
166.17483
 20
7.18159
 10
166.123931
 20
7.197324
 10
165.971318
 20
7.244794
 10
165.920474
 20
7.260704
 10
165.869644
 20
7.276658
 10
165.818827
 20
7.292655
 10
165.768296
 20
7.308608
 10
165.71778
 20
7.324603
 10
165.667276
 20
7.340641
 10
165.515846
 20
7.389006
 10
165.465397
 20
7.405212
 10
165.414961
 20
7.421461
 10
165.364539
 20
7.437751
 10
165.314431
 20
7.453987
 10
165.264337
 20
7.470264
 10
165.214257
 20
7.486583
 10
165.0641
 20
7.535797
 10
165.014077
 20
7.552289
 10
164.964067
 20
7.568823
 10
164.914072
 20
7.585402
 10
164.864446
 20
7.601907
 10
164.814835
 20
7.618456
 10
164.765238
 20
7.63505
 10
164.616539
 20
7.6851
 10
164.567004
 20
7.701874
 10
164.517484
 20
7.718695
 10
164.46798
 20
7.735562
 10
164.418899
 20
7.752336
 10
164.369834
 20
7.769157
 10
164.320784
 20
7.786024
 10
164.173732
 20
7.8369
 10
164.124746
 20
7.85395
 10
164.075776
 20
7.871046
 10
164.026822
 20
7.888188
 10
163.978284
 20
7.905235
 10
163.929761
 20
7.922325
 10
163.881253
 20
7.939457
 10
163.735811
 20
7.991084
 10
163.687355
 20
8.008364
 10
163.638911
 20
8.025677
 10
163.590479
 20
8.043022
 10
163.542331
 20
8.060297
 10
163.494192
 20
8.0776
 10
163.446063
 20
8.09493
 10
163.301727
 20
8.147057
 10
163.25363
 20
8.164474
 10
163.205539
 20
8.181909
 10
163.157455
 20
8.199361
 10
163.085675
 20
8.225443
 10
163.013906
 20
8.251554
 10
162.942145
 20
8.277686
 10
162.870391
 20
8.303835
 10
162.79864
 20
8.329995
 10
162.726891
 20
8.356161
  0
SPLINE
  5
5B6
100
AcDbEntity
  8
5
370
    25
100
AcDbSpline
210
0.0
220
0.0
230
1.0
 70
     8
 71
     3
 72
     0
 73
     0
 74
    64
 44
0.0000000001
 11
149.08851300000001
 21
6.7949609999999998
 31
0.0
 11
149.38296
 21
6.7631199999999998
 31
0.0
 11
149.67543699999999
 21
6.7250829999999997
 31
0.0
 11
149.96599900000001
 21
6.6810400000000003
 31
0.0
 11
150.254705
 21
6.6311819999999999
 31
0.0
 11
150.54161300000001
 21
6.5756969999999999
 31
0.0
 11
150.82678100000001
 21
6.5147779999999997
 31
0.0
 11
151.11026699999999
 21
6.4486129999999999
 31
0.0
 11
151.39212699999999
 21
6.3773939999999998
 31
0.0
 11
151.67241100000001
 21
6.301272
 31
0.0
 11
151.95115100000001
 21
6.2203609999999996
 31
0.0
 11
152.228386
 21
6.1347769999999997
 31
0.0
 11
152.50414900000001
 21
6.0446359999999997
 31
0.0
 11
152.77847800000001
 21
5.9500549999999999
 31
0.0
 11
153.05140800000001
 21
5.8511509999999998
 31
0.0
 11
153.32297600000001
 21
5.7480390000000003
 31
0.0
 11
153.59322700000001
 21
5.6408310000000004
 31
0.0
 11
153.862312
 21
5.5295579999999998
 31
0.0
 11
154.13000700000001
 21
5.4144220000000001
 31
0.0
 11
154.39596800000001
 21
5.295693
 31
0.0
 11
154.65985800000001
 21
5.1736389999999997
 31
0.0
 11
154.92154199999999
 21
5.0484629999999999
 31
0.0
 11
155.18108699999999
 21
4.9202690000000002
 31
0.0
 11
155.43856099999999
 21
4.7891570000000003
 31
0.0
 11
155.694031
 21
4.6552249999999997
 31
0.0
 11
155.947564
 21
4.5185680000000001
 31
0.0
 11
156.19921400000001
 21
4.3792660000000003
 31
0.0
 11
156.44903199999999
 21
4.2373950000000002
 31
0.0
 11
156.69707099999999
 21
4.0930289999999996
 31
0.0
 11
156.94338099999999
 21
3.9462449999999998
 31
0.0
 11
157.18801500000001
 21
3.7971189999999999
 31
0.0
 11
157.43102400000001
 21
3.6457250000000001
 31
0.0
 11
157.672461
 21
3.4921419999999999
 31
0.0
 11
157.91237699999999
 21
3.3364440000000002
 31
0.0
 11
158.15081000000001
 21
3.1786859999999999
 31
0.0
 11
158.38779500000001
 21
3.0189219999999999
 31
0.0
 11
158.623366
 21
2.857205
 31
0.0
 11
158.85755900000001
 21
2.6935899999999999
 31
0.0
 11
159.09040999999999
 21
2.52813
 31
0.0
 11
159.32195200000001
 21
2.360878
 31
0.0
 11
159.552222
 21
2.1918880000000001
 31
0.0
 11
159.78125399999999
 21
2.0212140000000001
 31
0.0
 11
160.009084
 21
1.8489089999999999
 31
0.0
 11
160.235747
 21
1.675027
 31
0.0
 11
160.461277
 21
1.4996210000000001
 31
0.0
 11
160.685711
 21
1.3227450000000001
 31
0.0
 11
160.90908200000001
 21
1.144452
 31
0.0
 11
161.131427
 21
0.964797
 31
0.0
 11
161.35278299999999
 21
0.783819
 31
0.0
 11
161.57317499999999
 21
0.6015470000000001
 31
0.0
 11
161.79260600000001
 21
0.418046
 31
0.0
 11
162.011076
 21
0.233385
 31
0.0
 11
162.228587
 21
0.047633
 31
0.0
 11
162.44513900000001
 21
-0.139143
 31
0.0
 11
162.66073399999999
 21
-0.326875
 31
0.0
 11
162.875373
 21
-0.515494
 31
0.0
 11
163.08907600000001
 21
-0.7049490000000001
 31
0.0
 11
163.30189200000001
 21
-0.895216
 31
0.0
 11
163.51385200000001
 21
-1.0862560000000001
 31
0.0
 11
163.724987
 21
-1.2780290000000001
 31
0.0
 11
163.93545800000001
 21
-1.470626
 31
0.0
 11
164.14526900000001
 21
-1.6639820000000001
 31
0.0
 11
164.354141
 21
-1.8577600000000001
 31
0.0
 11
164.56153699999999
 21
-2.0513759999999999
 31
0.0
  0
LWPOLYLINE
  5
5B7
100
AcDbEntity
  8
5
370
    25
100
AcDbPolyline
 90
      232
 70
     0
 10
94.384534
 20
10.584527
 10
94.402486
 20
10.583463
 10
94.420438
 20
10.582405
 10
94.438391
 20
10.581352
 10
94.456345
 20
10.580306
 10
94.474299
 20
10.579264
 10
94.492253
 20
10.578229
 10
94.514059
 20
10.576978
 10
94.535864
 20
10.575736
 10
94.557671
 20
10.574502
 10
94.579477
 20
10.573276
 10
94.601284
 20
10.572058
 10
94.623092
 20
10.570848
 10
94.646998
 20
10.569532
 10
94.670905
 20
10.568225
 10
94.694812
 20
10.566928
 10
94.71872
 20
10.565642
 10
94.742629
 20
10.564365
 10
94.766538
 20
10.563099
 10
94.792455
 20
10.561738
 10
94.818373
 20
10.560388
 10
94.844292
 20
10.559051
 10
94.870211
 20
10.557726
 10
94.896131
 20
10.556413
 10
94.922051
 20
10.555111
 10
94.949889
 20
10.553727
 10
94.977727
 20
10.552357
 10
95.005566
 20
10.551001
 10
95.033406
 20
10.549659
 10
95.061247
 20
10.54833
 10
95.089088
 20
10.547016
 10
95.108866
 20
10.546091
 10
95.128645
 20
10.545173
 10
95.148424
 20
10.544262
 10
95.207763
 20
10.541571
 10
95.227543
 20
10.540688
 10
95.247324
 20
10.539812
 10
95.267105
 20
10.538944
 10
95.288053
 20
10.538032
 10
95.309002
 20
10.537127
 10
95.32995
 20
10.536231
 10
95.392799
 20
10.533591
 10
95.413749
 20
10.532728
 10
95.434699
 20
10.531872
 10
95.45565
 20
10.531024
 10
95.477742
 20
10.530139
 10
95.499835
 20
10.529263
 10
95.521928
 20
10.528396
 10
95.588209
 20
10.52585
 10
95.610303
 20
10.52502
 10
95.632398
 20
10.524199
 10
95.654493
 20
10.523386
 10
95.677708
 20
10.522543
 10
95.700923
 20
10.521709
 10
95.724138
 20
10.520886
 10
95.793786
 20
10.518477
 10
95.817003
 20
10.517694
 10
95.84022
 20
10.516921
 10
95.863438
 20
10.516159
 10
95.887753
 20
10.515371
 10
95.912069
 20
10.514595
 10
95.936385
 20
10.513829
 10
96.009335
 20
10.5116
 10
96.033652
 20
10.510879
 10
96.05797
 20
10.510169
 10
96.082288
 20
10.50947
 10
96.107682
 20
10.508753
 10
96.133076
 20
10.508047
 10
96.15847
 20
10.507354
 10
96.234656
 20
10.505347
 10
96.260051
 20
10.504702
 10
96.285447
 20
10.50407
 10
96.310844
 20
10.503449
 10
96.337286
 20
10.502816
 10
96.363728
 20
10.502197
 10
96.39017
 20
10.50159
 10
96.469499
 20
10.499851
 10
96.495943
 20
10.499297
 10
96.522386
 20
10.498757
 10
96.548831
 20
10.498231
 10
96.576282
 20
10.497698
 10
96.603734
 20
10.49718
 10
96.631186
 20
10.496676
 10
96.713544
 20
10.49525
 10
96.740997
 20
10.494804
 10
96.768451
 20
10.494372
 10
96.795904
 20
10.493954
 10
96.824327
 20
10.493537
 10
96.852751
 20
10.493135
 10
96.881174
 20
10.492749
 10
96.966446
 20
10.491684
 10
96.99487
 20
10.491361
 10
97.023294
 20
10.491052
 10
97.051719
 20
10.49076
 10
97.073736
 20
10.490544
 10
97.095753
 20
10.490337
 10
97.11777
 20
10.49014
 10
97.183822
 20
10.489604
 10
97.249874
 20
10.489153
 10
97.271892
 20
10.489022
 10
97.29391
 20
10.4889
 10
97.315927
 20
10.488787
 10
97.338615
 20
10.488681
 10
97.361303
 20
10.488585
 10
97.383991
 20
10.488499
 10
97.452056
 20
10.488301
 10
97.52012
 20
10.488194
 10
97.542808
 20
10.488178
 10
97.565496
 20
10.488173
 10
97.588185
 20
10.488177
 10
97.611515
 20
10.488193
 10
97.634846
 20
10.488219
 10
97.658176
 20
10.488256
 10
97.728167
 20
10.488432
 10
97.798158
 20
10.488705
 10
97.821488
 20
10.488818
 10
97.844819
 20
10.488941
 10
97.868149
 20
10.489075
 10
97.900075
 20
10.489277
 10
97.932001
 20
10.489499
 10
97.963927
 20
10.489742
 10
98.059705
 20
10.490592
 10
98.09163
 20
10.490917
 10
98.123555
 20
10.491262
 10
98.15548
 20
10.491628
 10
98.188188
 20
10.492025
 10
98.220896
 20
10.492443
 10
98.253603
 20
10.492883
 10
98.351723
 20
10.494334
 10
98.384429
 20
10.494862
 10
98.417135
 20
10.495412
 10
98.44984
 20
10.495983
 10
98.483292
 20
10.496591
 10
98.516743
 20
10.497222
 10
98.550194
 20
10.497876
 10
98.650544
 20
10.499977
 10
98.683993
 20
10.500724
 10
98.717441
 20
10.501494
 10
98.750889
 20
10.502288
 10
98.785045
 20
10.503123
 10
98.8192
 20
10.503982
 10
98.853355
 20
10.504865
 10
98.955816
 20
10.507661
 10
98.989968
 20
10.508641
 10
99.02412
 20
10.509644
 10
99.058271
 20
10.510672
 10
99.093085
 20
10.511744
 10
99.127899
 20
10.512841
 10
99.162712
 20
10.513963
 10
99.267147
 20
10.517474
 10
99.301956
 20
10.518694
 10
99.336765
 20
10.519938
 10
99.371573
 20
10.521206
 10
99.406999
 20
10.522521
 10
99.442424
 20
10.523862
 10
99.477848
 20
10.525227
 10
99.584114
 20
10.529474
 10
99.619534
 20
10.530939
 10
99.654953
 20
10.532429
 10
99.690371
 20
10.533944
 10
99.726361
 20
10.535509
 10
99.76235
 20
10.5371
 10
99.798337
 20
10.538716
 10
99.906293
 20
10.543716
 10
99.942276
 20
10.545434
 10
99.978258
 20
10.547176
 10
100.014238
 20
10.548944
 10
100.050745
 20
10.550764
 10
100.08725
 20
10.55261
 10
100.123754
 20
10.554482
 10
100.233258
 20
10.560254
 10
100.269756
 20
10.562231
 10
100.306254
 20
10.564233
 10
100.342749
 20
10.566262
 10
100.379728
 20
10.568344
 10
100.416705
 20
10.570454
 10
100.453681
 20
10.572591
 10
100.564597
 20
10.579172
 10
100.601566
 20
10.581423
 10
100.638533
 20
10.583704
 10
100.675498
 20
10.586014
 10
100.71291
 20
10.588383
 10
100.75032
 20
10.590783
 10
100.787727
 20
10.593214
 10
100.899938
 20
10.600698
 10
100.937337
 20
10.603258
 10
100.974734
 20
10.60585
 10
101.012129
 20
10.608476
 10
101.049935
 20
10.611164
 10
101.087739
 20
10.613887
 10
101.12554
 20
10.616645
 10
101.238928
 20
10.625131
 10
101.276719
 20
10.628032
 10
101.314507
 20
10.63097
 10
101.352292
 20
10.633945
 10
101.390454
 20
10.636987
 10
101.428614
 20
10.640068
 10
101.46677
 20
10.643187
 10
101.58122
 20
10.652777
 10
101.619363
 20
10.656051
 10
101.657503
 20
10.659366
 10
101.695639
 20
10.662719
 10
101.734108
 20
10.666142
 10
101.772573
 20
10.669604
 10
101.811035
 20
10.673104
 10
101.926401
 20
10.683817
 10
101.964851
 20
10.687456
 10
102.003297
 20
10.691125
 10
102.04174
 20
10.694825
 10
102.070764
 20
10.697637
 10
102.099787
 20
10.700466
 10
102.128808
 20
10.70331
 10
102.215862
 20
10.711931
 10
102.302904
 20
10.720674
 10
102.331916
 20
10.723614
 10
102.360926
 20
10.726565
 10
102.389935
 20
10.729528
 10
102.419073
 20
10.732515
 10
102.44821
 20
10.735512
 10
102.477345
 20
10.73852
 10
102.564747
 20
10.747597
 10
102.65214
 20
10.756749
 10
102.68127
 20
10.759814
 10
102.710399
 20
10.762885
 10
102.739527
 20
10.765962
 10
102.778418
 20
10.770079
 10
102.817308
 20
10.774204
 10
102.856198
 20
10.778336
 10
102.972862
 20
10.790769
 10
103.011749
 20
10.794921
 10
103.050636
 20
10.799075
 10
103.089523
 20
10.80323
  0
ARC
  5
6A1
100
AcDbEntity
  8
5
370
    50
100
AcDbCircle
 10
48.791643
 20
-201.979422
 30
0.0
 40
254.150353
100
AcDbArc
 50
58.934229
 51
74.773668
  0
ARC
  5
6A2
100
AcDbEntity
  8
5
370
    50
100
AcDbCircle
 10
41.04865
 20
-189.996491
 30
0.0
 40
240.0
100
AcDbArc
 50
60.758916
 51
70.559773
  0
LINE
  5
6A3
100
AcDbEntity
  8
5
370
    50
100
AcDbLine
 10
114.092409
 20
37.525909
 30
0.0
 11
120.926237
 21
36.320921
 31
0.0
  0
ARC
  5
6A4
100
AcDbEntity
  8
5
370
    50
100
AcDbCircle
 10
114.266058
 20
38.510717
 30
0.0
 40
1.0
100
AcDbArc
 50
165.0
 51
260.0
  0
LINE
  5
6A5
100
AcDbEntity
  8
5
370
    50
100
AcDbLine
 10
114.311264
 20
42.543134
 30
0.0
 11
113.300132
 21
38.769536
 31
0.0
  0
ARC
  5
6A6
100
AcDbEntity
  8
5
370
    50
100
AcDbCircle
 10
115.27719
 20
42.284315
 30
0.0
 40
1.0
100
AcDbArc
 50
74.773668
 51
165.0
  0
POINT
  5
6A7
100
AcDbEntity
  8
5
370
    50
100
AcDbPoint
 10
114.570595
 20
43.510968
 30
0.0
  0
POINT
  5
6A8
100
AcDbEntity
  8
5
370
    50
100
AcDbPoint
 10
113.01768
 20
37.715413
 30
0.0
  0
ARC
  5
6A9
100
AcDbEntity
  8
5
370
    50
100
AcDbCircle
 10
41.04865
 20
-189.996491
 30
0.0
 40
240.0
100
AcDbArc
 50
59.456321
 51
70.559773
  0
SPLINE
  5
6AA
100
AcDbEntity
  8
5
370
    25
100
AcDbSpline
210
0.0
220
0.0
230
1.0
 70
     8
 71
     3
 72
     0
 73
     0
 74
    22
 44
0.0000000001
 11
123.020253
 21
39.774419999999999
 31
0.0
 11
124.786945
 21
39.180087999999998
 31
0.0
 11
126.54801
 21
38.572465000000001
 31
0.0
 11
128.30345800000001
 21
37.951571000000001
 31
0.0
 11
130.05329599999999
 21
37.317424000000003
 31
0.0
 11
131.79753099999999
 21
36.670040999999998
 31
0.0
 11
133.53617199999999
 21
36.009442
 31
0.0
 11
135.269226
 21
35.335645
 31
0.0
 11
136.996701
 21
34.648668000000001
 31
0.0
 11
138.718605
 21
33.948529000000001
 31
0.0
 11
140.434946
 21
33.235247999999999
 31
0.0
 11
142.14572999999999
 21
32.508839999999999
 31
0.0
 11
143.850956
 21
31.769302
 31
0.0
 11
145.550623
 21
31.016628999999998
 31
0.0
 11
147.24472900000001
 21
30.250820000000001
 31
0.0
 11
148.93327300000001
 21
29.471871
 31
0.0
 11
150.616253
 21
28.679777999999999
 31
0.0
 11
152.29366899999999
 21
27.87454
 31
0.0
 11
153.965518
 21
27.056152000000001
 31
0.0
 11
155.6318
 21
26.224610999999999
 31
0.0
 11
157.29251400000001
 21
25.379915
 31
0.0
 11
158.94696300000001
 21
24.522424000000001
 31
0.0
  0
LWPOLYLINE
  5
6AB
100
AcDbEntity
  8
5
370
    25
100
AcDbPolyline
 90
      226
 70
     0
 10
115.13288
 20
43.204034
 10
115.152114
 20
43.193685
 10
115.171351
 20
43.183344
 10
115.190593
 20
43.173009
 10
115.209838
 20
43.162682
 10
115.229087
 20
43.152362
 10
115.24834
 20
43.14205
 10
115.26945
 20
43.130753
 10
115.290565
 20
43.119466
 10
115.311685
 20
43.108187
 10
115.332809
 20
43.096917
 10
115.353938
 20
43.085656
 10
115.375072
 20
43.074404
 10
115.397986
 20
43.062217
 10
115.420905
 20
43.05004
 10
115.44383
 20
43.037875
 10
115.466761
 20
43.02572
 10
115.489697
 20
43.013575
 10
115.512639
 20
43.001442
 10
115.537284
 20
42.988423
 10
115.561935
 20
42.975416
 10
115.586592
 20
42.962421
 10
115.611257
 20
42.949439
 10
115.635927
 20
42.93647
 10
115.660604
 20
42.923512
 10
115.678139
 20
42.914315
 10
115.695676
 20
42.905124
 10
115.713217
 20
42.895939
 10
115.76586
 20
42.868423
 10
115.783414
 20
42.859263
 10
115.800971
 20
42.85011
 10
115.818531
 20
42.840963
 10
115.837131
 20
42.831283
 10
115.855735
 20
42.82161
 10
115.874342
 20
42.811945
 10
115.930187
 20
42.782991
 10
115.948809
 20
42.773355
 10
115.967435
 20
42.763725
 10
115.986064
 20
42.754103
 10
116.005713
 20
42.743964
 10
116.025365
 20
42.733833
 10
116.045022
 20
42.723711
 10
116.104017
 20
42.693392
 10
116.12369
 20
42.683302
 10
116.143368
 20
42.67322
 10
116.163049
 20
42.663146
 10
116.183732
 20
42.65257
 10
116.20442
 20
42.642004
 10
116.225113
 20
42.631447
 10
116.287217
 20
42.599828
 10
116.307928
 20
42.589307
 10
116.328643
 20
42.578795
 10
116.349363
 20
42.568292
 10
116.371067
 20
42.557302
 10
116.392776
 20
42.546322
 10
116.414491
 20
42.535351
 10
116.479664
 20
42.502501
 10
116.501398
 20
42.49157
 10
116.523137
 20
42.48065
 10
116.544882
 20
42.46974
 10
116.567593
 20
42.458357
 10
116.59031
 20
42.446986
 10
116.613032
 20
42.435625
 10
116.681231
 20
42.401609
 10
116.703975
 20
42.390292
 10
116.726725
 20
42.378986
 10
116.749479
 20
42.367691
 10
116.773176
 20
42.355942
 10
116.796879
 20
42.344206
 10
116.820588
 20
42.332481
 10
116.891749
 20
42.297379
 10
116.915481
 20
42.285702
 10
116.939219
 20
42.274037
 10
116.962963
 20
42.262384
 10
116.987618
 20
42.250299
 10
117.012278
 20
42.238228
 10
117.036945
 20
42.226169
 10
117.110985
 20
42.190071
 10
117.135677
 20
42.178064
 10
117.160376
 20
42.166071
 10
117.185081
 20
42.15409
 10
117.210664
 20
42.1417
 10
117.236255
 20
42.129324
 10
117.261852
 20
42.116961
 10
117.338684
 20
42.079959
 10
117.364309
 20
42.067653
 10
117.389939
 20
42.055361
 10
117.415577
 20
42.043083
 10
117.43544
 20
42.033582
 10
117.455307
 20
42.02409
 10
117.475178
 20
42.014607
 10
117.534815
 20
41.986207
 10
117.594488
 20
41.957883
 10
117.614387
 20
41.948459
 10
117.634291
 20
41.939043
 10
117.654198
 20
41.929636
 10
117.674715
 20
41.919951
 10
117.695237
 20
41.910276
 10
117.715763
 20
41.900609
 10
117.777366
 20
41.871665
 10
117.839008
 20
41.842802
 10
117.859564
 20
41.8332
 10
117.880125
 20
41.823606
 10
117.900689
 20
41.814022
 10
117.92184
 20
41.804177
 10
117.942996
 20
41.79434
 10
117.964156
 20
41.784514
 10
118.027664
 20
41.755094
 10
118.091213
 20
41.725762
 10
118.112405
 20
41.716004
 10
118.133601
 20
41.706256
 10
118.154802
 20
41.696518
 10
118.176567
 20
41.686534
 10
118.198336
 20
41.67656
 10
118.22011
 20
41.666597
 10
118.285461
 20
41.63677
 10
118.350855
 20
41.607038
 10
118.372663
 20
41.597148
 10
118.394475
 20
41.587269
 10
118.416292
 20
41.5774
 10
118.446103
 20
41.563937
 10
118.475923
 20
41.550493
 10
118.505752
 20
41.537069
 10
118.595292
 20
41.496917
 10
118.625157
 20
41.483573
 10
118.655031
 20
41.470249
 10
118.684913
 20
41.456946
 10
118.715488
 20
41.443359
 10
118.746071
 20
41.429793
 10
118.776664
 20
41.416249
 10
118.8685
 20
41.375744
 10
118.899131
 20
41.362285
 10
118.929771
 20
41.348847
 10
118.96042
 20
41.335431
 10
118.991729
 20
41.321752
 10
119.023047
 20
41.308096
 10
119.054376
 20
41.294462
 10
119.148418
 20
41.253694
 10
119.179785
 20
41.240149
 10
119.211161
 20
41.226626
 10
119.242546
 20
41.213124
 10
119.274552
 20
41.199383
 10
119.306568
 20
41.185664
 10
119.338593
 20
41.171968
 10
119.434727
 20
41.131014
 10
119.466791
 20
41.117408
 10
119.498864
 20
41.103825
 10
119.530946
 20
41.090263
 10
119.563609
 20
41.076484
 10
119.596282
 20
41.062728
 10
119.628964
 20
41.048995
 10
119.727068
 20
41.007933
 10
119.759789
 20
40.994292
 10
119.792519
 20
40.980674
 10
119.825259
 20
40.967079
 10
119.858538
 20
40.953287
 10
119.891827
 20
40.939519
 10
119.925126
 20
40.925775
 10
120.02508
 20
40.884682
 10
120.058418
 20
40.871032
 10
120.091765
 20
40.857405
 10
120.125122
 20
40.843801
 10
120.158977
 20
40.830022
 10
120.192842
 20
40.816267
 10
120.226717
 20
40.802537
 10
120.328401
 20
40.76149
 10
120.362315
 20
40.747856
 10
120.396239
 20
40.734247
 10
120.430172
 20
40.720661
 10
120.464566
 20
40.706921
 10
120.498971
 20
40.693206
 10
120.533385
 20
40.679516
 10
120.636691
 20
40.638605
 10
120.671148
 20
40.625022
 10
120.705615
 20
40.611466
 10
120.740093
 20
40.597937
 10
120.775001
 20
40.584273
 10
120.809919
 20
40.570638
 10
120.84485
 20
40.557032
 10
120.94971
 20
40.516393
 10
120.984687
 20
40.502908
 10
121.019676
 20
40.489452
 10
121.054676
 20
40.476028
 10
121.090077
 20
40.462487
 10
121.125489
 20
40.448978
 10
121.160915
 20
40.435502
 10
121.267266
 20
40.395274
 10
121.302742
 20
40.381932
 10
121.338231
 20
40.368624
 10
121.373733
 20
40.355352
 10
121.409605
 20
40.341981
 10
121.445491
 20
40.328646
 10
121.481391
 20
40.315348
 10
121.589171
 20
40.27567
 10
121.625124
 20
40.262518
 10
121.661091
 20
40.249403
 10
121.697072
 20
40.236325
 10
121.733383
 20
40.22317
 10
121.769707
 20
40.210052
 10
121.806045
 20
40.196969
 10
121.91513
 20
40.157923
 10
121.951514
 20
40.144971
 10
121.987909
 20
40.132048
 10
122.024314
 20
40.119155
 10
122.060973
 20
40.106202
 10
122.097642
 20
40.093276
 10
122.134319
 20
40.080375
 10
122.244402
 20
40.041817
 10
122.281112
 20
40.029009
 10
122.317829
 20
40.016221
 10
122.354552
 20
40.003452
 10
122.382222
 20
39.993845
 10
122.409896
 20
39.984248
 10
122.437573
 20
39.974661
 10
122.520622
 20
39.945951
 10
122.603695
 20
39.917311
 10
122.63139
 20
39.907778
 10
122.659088
 20
39.898251
 10
122.686788
 20
39.888729
 10
122.723775
 20
39.876024
 10
122.760765
 20
39.863327
 10
122.797757
 20
39.850637
 10
122.908745
 20
39.8126
 10
122.945743
 20
39.799929
 10
122.982742
 20
39.787259
 10
123.019742
 20
39.774591
  0
ARC
  5
78F
100
AcDbEntity
  8
5
370
    25
100
AcDbCircle
 10
125.903939
 20
-232.082571
 30
0.0
 40
240.0
100
AcDbArc
 50
84.323451
 51
85.758916
  0
ARC
  5
790
100
AcDbEntity
  8
5
370
    50
100
AcDbCircle
 10
125.903939
 20
-232.082571
 30
0.0
 40
240.0
100
AcDbArc
 50
85.758916
 51
95.559773
  0
ENDSEC
  0
SECTION
  2
OBJECTS
  0
DICTIONARY
  5
83C
100
AcDbDictionary
280
     0
281
     1
  3
ACAD_GROUP
350
83D
  3
ACAD_MLINESTYLE
350
83E
  0
DICTIONARY
  5
83D
102
{ACAD_REACTORS
330
83C
102
}
100
AcDbDictionary
280
     0
281
     1
  0
DICTIONARY
  5
83E
102
{ACAD_REACTORS
330
83C
102
}
100
AcDbDictionary
280
     0
281
     1
  3
Standard
350
83F
  0
MLINESTYLE
  5
83F
102
{ACAD_REACTORS
330
83E
102
}
100
AcDbMlineStyle
  2
Standard
 70
     0
  3

 62
     0
 51
90.0
 52
90.0
 71
     2
 49
0.5
 62
   256
  6
ByLayer
 49
-0.5
 62
   256
  6
ByLayer
  0
ENDSEC
  0
EOF
