  0
SECTION
  2
HEADER
  9
$ACADVER
  1
AC1015
  9
$ACADMAINTVER
 70
     6
  9
$DWGCODEPAGE
  3
ANSI_932
  9
$INSBASE
 10
0.0
 20
0.0
 30
0.0
  9
$EXTMIN
 10
-841.0
 20
-594.0
 30
1.000000E+20
  9
$EXTMAX
 10
841.0
 20
594.0
 30
-1.000000E+20
  9
$LIMMIN
 10
-841.0
 20
-594.0
  9
$LIMMAX
 10
841.0
 20
594.0
  9
$ORTHOMODE
 70
     0
  9
$REGENMODE
 70
     1
  9
$FILLMODE
 70
     1
  9
$QTEXTMODE
 70
     0
  9
$MIRRTEXT
 70
     1
  9
$LTSCALE
 40
1.0
  9
$ATTMODE
 70
     1
  9
$TEXTSIZE
 40
0.2
  9
$TRACEWID
 40
0.05
  9
$TEXTSTYLE
  7
STANDARD
  9
$CLAYER
  8
0
  9
$CELTYPE
  6
CONTINUOUS
  9
$CECOLOR
 62
   256
  9
$CELTSCALE
 40
1.0
  9
$DISPSILH
 70
     0
  9
$DIMSCALE
 40
2.0
  9
$DIMASZ
 40
2.0
  9
$DIMEXO
 40
1.0
  9
$DIMDLI
 40
0.38
  9
$DIMRND
 40
0.0
  9
$DIMDLE
 40
0.0
  9
$DIMEXE
 40
2.0
  9
$DIMTP
 40
0.0
  9
$DIMTM
 40
0.0
  9
$DIMTXT
 40
3.5
  9
$DIMCEN
 40
0.09
  9
$DIMTSZ
 40
0.0
  9
$DIMTOL
 70
     0
  9
$DIMLIM
 70
     0
  9
$DIMTIH
 70
     0
  9
$DIMTOH
 70
     0
  9
$DIMSE1
 70
     0
  9
$DIMSE2
 70
     0
  9
$DIMTAD
 70
     1
  9
$DIMZIN
 70
     0
  9
$DIMBLK
  1

  9
$DIMASO
 70
     1
  9
$DIMSHO
 70
     1
  9
$DIMPOST
  1

  9
$DIMAPOST
  1

  9
$DIMALT
 70
     0
  9
$DIMALTD
 70
     2
  9
$DIMALTF
 40
25.4
  9
$DIMLFAC
 40
1.0
  9
$DIMTOFL
 70
     0
  9
$DIMTVP
 40
0.0
  9
$DIMTIX
 70
     0
  9
$DIMSOXD
 70
     0
  9
$DIMSAH
 70
     0
  9
$DIMBLK1
  1

  9
$DIMBLK2
  1

  9
$DIMSTYLE
  2
Standard
  9
$DIMCLRD
 70
     0
  9
$DIMCLRE
 70
     0
  9
$DIMCLRT
 70
     0
  9
$DIMTFAC
 40
1.0
  9
$DIMGAP
 40
0.5
  9
$DIMJUST
 70
     0
  9
$DIMSD1
 70
     0
  9
$DIMSD2
 70
     0
  9
$DIMTOLJ
 70
     1
  9
$DIMTZIN
 70
     0
  9
$DIMALTZ
 70
     0
  9
$DIMALTTZ
 70
     0
  9
$DIMUPT
 70
     0
  9
$DIMDEC
 70
     3
  9
$DIMTDEC
 70
     4
  9
$DIMALTU
 70
     2
  9
$DIMALTTD
 70
     2
  9
$DIMTXSTY
  7
STANDARD
  9
$DIMAUNIT
 70
     0
  9
$DIMADEC
 70
     2
  9
$DIMALTRND
 40
0.0
  9
$DIMAZIN
 70
     0
  9
$DIMDSEP
 70
     0
  9
$DIMATFIT
 70
     3
  9
$DIMFRAC
 70
     0
  9
$DIMLDRBLK
  1

  9
$DIMLUNIT
 70
     2
  9
$DIMLWD
 70
     0
  9
$DIMLWE
 70
     0
  9
$DIMTMOVE
 70
     0
  9
$LUNITS
 70
     2
  9
$LUPREC
 70
     4
  9
$SKETCHINC
 40
0.1
  9
$FILLETRAD
 40
0.0
  9
$AUNITS
 70
     0
  9
$AUPREC
 70
     0
  9
$MENU
  1
acad
  9
$ELEVATION
 40
0.0
  9
$PELEVATION
 40
0.0
  9
$THICKNESS
 40
0.0
  9
$LIMCHECK
 70
     0
  9
$CHAMFERA
 40
0.0
  9
$CHAMFERB
 40
0.0
  9
$CHAMFERC
 40
0.0
  9
$CHAMFERD
 40
0.0
  9
$SKPOLY
 70
     0
  9
$TDCREATE
 40
2456574.000000000
  9
$TDUCREATE
 40
0.000000000
  9
$TDUPDATE
 40
0.000000000
  9
$TDUUPDATE
 40
2447892.625000000
  9
$TDINDWG
 40
0.0000000000
  9
$TDUSRTIMER
 40
0.0000000000
  9
$USRTIMER
 70
     1
  9
$ANGBASE
 50
0.0
  9
$ANGDIR
 70
     0
  9
$PDMODE
 70
     0
  9
$PDSIZE
 40
0.0
  9
$PLINEWID
 40
0.0
  9
$SPLFRAME
 70
     0
  9
$SPLINETYPE
 70
     6
  9
$SPLINESEGS
 70
     8
  9
$HANDSEED
  5
843
  9
$SURFTAB1
 70
     6
  9
$SURFTAB2
 70
     6
  9
$SURFTYPE
 70
     6
  9
$SURFU
 70
     6
  9
$SURFV
 70
     6
  9
$UCSBASE
  2

  9
$UCSNAME
  2

  9
$UCSORG
 10
0.0
 20
0.0
 30
0.0
  9
$UCSXDIR
 10
1.0
 20
0.0
 30
0.0
  9
$UCSYDIR
 10
0.0
 20
1.0
 30
0.0
  9
$UCSORTHOREF
  2

  9
$UCSORTHOVIEW
 70
     0
  9
$UCSORGTOP
 10
0.0
 20
0.0
 30
0.0
  9
$UCSORGBOTTOM
 10
0.0
 20
0.0
 30
0.0
  9
$UCSORGLEFT
 10
0.0
 20
0.0
 30
0.0
  9
$UCSORGRIGHT
 10
0.0
 20
0.0
 30
0.0
  9
$UCSORGFRONT
 10
0.0
 20
0.0
 30
0.0
  9
$UCSORGBACK
 10
0.0
 20
0.0
 30
0.0
  9
$PUCSBASE
  2

  9
$PUCSNAME
  2

  9
$PUCSORG
 10
0.0
 20
0.0
 30
0.0
  9
$PUCSXDIR
 10
1.0
 20
0.0
 30
0.0
  9
$PUCSYDIR
 10
0.0
 20
1.0
 30
0.0
  9
$PUCSORTHOREF
  2

  9
$PUCSORTHOVIEW
 70
     0
  9
$PUCSORGTOP
 10
0.0
 20
0.0
 30
0.0
  9
$PUCSORGBOTTOM
 10
0.0
 20
0.0
 30
0.0
  9
$PUCSORGLEFT
 10
0.0
 20
0.0
 30
0.0
  9
$PUCSORGRIGHT
 10
0.0
 20
0.0
 30
0.0
  9
$PUCSORGFRONT
 10
0.0
 20
0.0
 30
0.0
  9
$PUCSORGBACK
 10
0.0
 20
0.0
 30
0.0
  9
$USERI1
 70
     0
  9
$USERI2
 70
     0
  9
$USERI3
 70
     0
  9
$USERI4
 70
     0
  9
$USERI5
 70
     0
  9
$USERR1
 40
0.0
  9
$USERR2
 40
0.0
  9
$USERR3
 40
0.0
  9
$USERR4
 40
0.0
  9
$USERR5
 40
0.0
  9
$WORLDVIEW
 70
     1
  9
$SHADEDGE
 70
     3
  9
$SHADEDIF
 70
    70
  9
$TILEMODE
 70
     1
  9
$MAXACTVP
 70
    16
  9
$PINSBASE
 10
0.0
 20
0.0
 30
0.0
  9
$PLIMCHECK
 70
     0
  9
$PEXTMIN
 10
1.000000E+20
 20
1.000000E+20
 30
1.000000E+20
  9
$PEXTMAX
 10
-1.000000E+20
 20
-1.000000E+20
 30
-1.000000E+20
  9
$PLIMMIN
 10
0.0
 20
0.0
  9
$PLIMMAX
 10
12.0
 20
9.0
  9
$UNITMODE
 70
     0
  9
$VISRETAIN
 70
     0
  9
$PLINEGEN
 70
     1
  9
$PSLTSCALE
 70
     0
  9
$TREEDEPTH
 70
  3020
  9
$CMLSTYLE
  2
Standard
  9
$CMLJUST
 70
     0
  9
$CMLSCALE
 40
1.0
  9
$PROXYGRAPHICS
 70
     0
  9
$MEASUREMENT
 70
     0
  9
$CELWEIGHT
370
     0
  9
$ENDCAPS
280
     0
  9
$JOINSTYLE
280
     0
  9
$LWDISPLAY
290
     0
  9
$INSUNITS
 70
     0
  9
$HYPERLINKBASE
  1

  9
$STYLESHEET
  1

  9
$XEDIT
290
     1
  9
$CEPSNTYPE
380
     0
  9
$PSTYLEMODE
290
     1
  9
$FINGERPRINTGUID
  2

  9
$VERSIONGUID
  2

  9
$EXTNAMES
290
     1
  9
$PSVPSCALE
 40
0.0
  0
ENDSEC
  0
SECTION
  2
CLASSES
  0
CLASS
  1
LWPOLYLINE
  2
AcDbPolyline
  3
AutoCAD 2000
 90
        0
280
     0
281
     1
  0
CLASS
  1
IMAGE
  2
AcDbRasterImage
  3
ISM
 90
      127
280
     0
281
     1
  0
CLASS
  1
OLE2FRAME
  2
AcDbOle2Frame
  3
AutoCAD 2000
 90
        0
280
     0
281
     1
  0
CLASS
  1
HATCH
  2
AcDbHatch
  3
AutoCAD 2000
 90
        0
280
     0
281
     1
  0
CLASS
  1
DICTIONARYVAR
  2
AcDbDictionaryVar
  3
AutoCAD 2000
 90
        0
280
     0
281
     0
  0
CLASS
  1
RASTERVARIABLES
  2
AcDbRasterVariables
  3
ISM
 90
        0
280
     0
281
     0
  0
CLASS
  1
IMAGEDEF
  2
AcDbRasterImageDef
  3
ISM
 90
        0
280
     0
281
     0
  0
CLASS
  1
IMAGEDEF_REACTOR
  2
AcDbRasterImageDefReactor
  3
ISM
 90
        1
280
     0
281
     0
  0
CLASS
  1
IDBUFFER
  2
AcDbIdBuffer
  3
AutoCAD 2000
 90
        0
280
     0
281
     0
  0
CLASS
  1
SPATIAL_FILTER
  2
AcDbSpatialFilter
  3
AutoCAD 2000
 90
        0
280
     0
281
     0
  0
CLASS
  1
XRECORD
  2
AcDbXrecord
  3
AutoCAD 2000
 90
        0
280
     0
281
     0
  0
CLASS
  1
SORTENTSTABLE
  2
AcDbSortentsTable
  3
AutoCAD 2000
 90
        0
280
     0
281
     0
  0
CLASS
  1
LAYER_INDEX
  2
AcDbLayerIndex
  3
AutoCAD 2000
 90
        0
280
     0
281
     0
  0
CLASS
  1
SPATIAL_INDEX
  2
AcDbSpatialIndex
  3
AutoCAD 2000
 90
        0
280
     0
281
     0
  0
CLASS
  1
OBJECT_PTR
  2
CAseDLPNTableRecord
  3
"ASE-LPNTableRecord"
 90
        1
280
     0
281
     0
  0
CLASS
  1
LAYOUT
  2
AcDbLayout
  3
AutoCAD 2000
 90
        0
280
     0
281
     0
  0
CLASS
  1
PLOTSETTINGS
  2
AcDbPlotSettings
  3
AutoCAD 2000
 90
        0
280
     0
281
     0
  0
CLASS
  1
ACDBDICTIONARYWDFLT
  2
AcDbDictionaryWithDefault
  3
AutoCAD 2000
 90
        0
280
     0
281
     0
  0
CLASS
  1
ACDBPLACEHOLDER
  2
AcDbPlaceHolder
  3
AutoCAD 2000
 90
        0
280
     0
281
     0
  0
CLASS
  1
VBA_PROJECT
  2
AcDbVbaProject
  3
acadvba
 90
        0
280
     0
281
     0
  0
CLASS
  1
WIPEOUT
  2
AcDbWipeout
  3
WipeOut|AutoCAD Express Tool|expresstools@autodesk.com
 90
      127
280
     0
281
     1
  0
CLASS
  1
WIPEOUTVARIABLES
  2
AcDbWipeoutVariables
  3
WipeOut|AutoCAD Express Tool|expresstools@autodesk.com
 90
        0
280
     0
281
     0
  0
CLASS
  1
RTEXT
  2
RText
  3
RText|AutoCAD Express Tool|expresstools@autodesk.com
 90
        0
280
     0
281
     1
  0
CLASS
  1
ARCALIGNEDTEXT
  2
AcDbArcAlignedText
  3
ATEXT|AutoCAD Express Tool|expresstools@autodesk.com
 90
        0
280
     0
281
     1
  0
ENDSEC
  0
SECTION
  2
TABLES
  0
TABLE
  2
VPORT
  5
6
100
AcDbSymbolTable
 70
     1
  0
VPORT
  5
19
100
AcDbSymbolTableRecord
100
AcDbViewportTableRecord
  2
*ACTIVE
 70
     0
 10
0.0
 20
0.0
 11
1.0
 21
1.0
 12
0.0
 22
0.0
 13
0.0
 23
0.0
 14
1.0
 24
1.0
 15
0.0
 25
0.0
 16
0.0
 26
0.0
 36
1.0
 17
0.0
 27
0.0
 37
0.0
 40
1188.0
 41
1.415825
 42
50.0
 43
0.0
 44
0.0
 50
0.0
 51
0.0
 71
     0
 72
   500
 73
     1
 74
     1
 75
     0
 76
     0
 77
     0
 78
     0
281
     0
 65
     0
110
0.0
120
0.0
130
0.0
111
1.0
121
0.0
131
0.0
112
0.0
122
1.0
132
0.0
345
0
346
0
 79
     0
146
0.0
  0
ENDTAB
  0
TABLE
  2
LTYPE
  5
3
100
AcDbSymbolTable
 70
     9
  0
LTYPE
  5
C
100
AcDbSymbolTableRecord
100
AcDbLinetypeTableRecord
  2
ByBlock
 70
    64
  3

 72
    65
 73
     0
 40
0.0
  0
LTYPE
  5
D
100
AcDbSymbolTableRecord
100
AcDbLinetypeTableRecord
  2
ByLayer
 70
    64
  3

 72
    65
 73
     0
 40
0.0
  0
LTYPE
  5
E
100
AcDbSymbolTableRecord
100
AcDbLinetypeTableRecord
  2
CONTINUOUS
 70
     0
  3
Solid line
 72
    65
 73
     0
 40
0.0
  0
LTYPE
  5
F
100
AcDbSymbolTableRecord
100
AcDbLinetypeTableRecord
  2
DASHED
 70
     0
  3
__ __ __ __ __ __ __ __ __ __ __ __ __ __ __
 72
    65
 73
     2
 40
2.0
 49
1.2
 74
     0
 49
-0.8
 74
     0
  0
LTYPE
  5
10
100
AcDbSymbolTableRecord
100
AcDbLinetypeTableRecord
  2
CENTER
 70
     0
  3
____ _ ____ _ ____ _ ____ _ ____ _ ____ _ ____
 72
    65
 73
     4
 40
12.0
 49
9.0
 74
     0
 49
-1.0
 74
     0
 49
1.0
 74
     0
 49
-1.0
 74
     0
  0
LTYPE
  5
11
100
AcDbSymbolTableRecord
100
AcDbLinetypeTableRecord
  2
HIDDEN
 70
     0
  3
_ _ _ _ _ _ _ _ _ _ _ _ _ _ _ _ _ _ _ _ _ _ _
 72
    65
 73
     2
 40
3.2
 49
2.4
 74
     0
 49
-0.8
 74
     0
  0
LTYPE
  5
12
100
AcDbSymbolTableRecord
100
AcDbLinetypeTableRecord
  2
PHANTOM
 70
     0
  3
_____ _ _ _____ _ _ _____ _ _ _____ _ _ _____
 72
    65
 73
     6
 40
13.5
 49
9.0
 74
     0
 49
-1.0
 74
     0
 49
1.0
 74
     0
 49
-0.5
 74
     0
 49
1.0
 74
     0
 49
-1.0
 74
     0
  0
LTYPE
  5
13
100
AcDbSymbolTableRecord
100
AcDbLinetypeTableRecord
  2
DOT
 70
     0
  3
...............................................
 72
    65
 73
     2
 40
1.0
 49
0.5
 74
     0
 49
-0.5
 74
     0
  0
LTYPE
  5
14
100
AcDbSymbolTableRecord
100
AcDbLinetypeTableRecord
  2
DASHDOT
 70
     0
  3
__ . __ . __ . __ . __ . __ . __ . __ . __ . __
 72
    65
 73
     4
 40
8.0
 49
5.0
 74
     0
 49
-1.0
 74
     0
 49
1.0
 74
     0
 49
-1.0
 74
     0
  0
ENDTAB
  0
TABLE
  2
LAYER
  5
1
100
AcDbSymbolTable
 70
     4
  0
LAYER
  5
15
100
AcDbSymbolTableRecord
100
AcDbLayerTableRecord
  2
0
 70
     0
 62
   225
  6
CONTINUOUS
290
     1
370
    -3
390
0
  0
LAYER
  5
16
100
AcDbSymbolTableRecord
100
AcDbLayerTableRecord
  2
1
 70
     0
 62
     2
  6
CONTINUOUS
290
     1
370
    -3
390
0
  0
LAYER
  5
17
100
AcDbSymbolTableRecord
100
AcDbLayerTableRecord
  2
2
 70
     0
 62
     3
  6
CONTINUOUS
290
     1
370
    -3
390
0
  0
LAYER
  5
18
100
AcDbSymbolTableRecord
100
AcDbLayerTableRecord
  2
3
 70
     0
 62
     4
  6
CONTINUOUS
290
     1
370
    -3
390
0
  0
ENDTAB
  0
TABLE
  2
STYLE
  5
2
100
AcDbSymbolTable
 70
     1
  0
STYLE
  5
1B
100
AcDbSymbolTableRecord
100
AcDbTextStyleTableRecord
  2
STANDARD
 70
    64
 40
0.0
 41
1.0
 50
0.0
 71
     0
 42
1.0
  3
txt
  4
BIGFONT
  0
ENDTAB
  0
TABLE
  2
VIEW
  5
4
100
AcDbSymbolTable
 70
     0
  0
ENDTAB
  0
TABLE
  2
UCS
  5
5
100
AcDbSymbolTable
 70
     0
  0
ENDTAB
  0
TABLE
  2
APPID
  5
7
100
AcDbSymbolTable
 70
     1
  0
APPID
  5
1A
100
AcDbSymbolTableRecord
100
AcDbRegAppTableRecord
  2
ACAD
 70
     0
  0
ENDTAB
  0
TABLE
  2
DIMSTYLE
  5
8
100
AcDbSymbolTable
 70
     1
100
AcDbDimStyleTable
 71
     0
  0
DIMSTYLE
105
30
100
AcDbSymbolTableRecord
100
AcDbDimStyleTableRecord
  2
Standard
 70
     0
  3

  4

 40
2.0
 41
2.0
 42
1.0
 43
0.38
 44
2.0
 45
0.0
 46
0.0
 47
0.0
 48
0.0
 71
     0
 72
     0
 73
     0
 74
     0
 75
     0
 76
     0
 77
     1
 78
     0
 79
     0
140
3.5
141
0.09
142
0.0
143
25.4
144
1.0
145
0.0
146
1.0
147
0.5
148
0.0
170
     0
171
     2
172
     0
173
     0
174
     0
175
     0
176
     0
177
     0
178
     0
179
     0
271
     3
272
     4
273
     2
274
     2
275
     0
276
     0
277
     2
278
    46
279
     0
280
     0
281
     0
282
     0
283
     1
284
     0
285
     0
286
     0
288
     0
289
     3
340
1B
341
0
342
0
343
0
344
0
371
    -2
372
    -2
  0
ENDTAB
  0
TABLE
  2
BLOCK_RECORD
  5
2B
100
AcDbSymbolTable
 70
    13
  0
BLOCK_RECORD
  5
29
100
AcDbSymbolTableRecord
100
AcDbBlockTableRecord
  2
*Model_Space
340
0
  0
BLOCK_RECORD
  5
2A
100
AcDbSymbolTableRecord
100
AcDbBlockTableRecord
  2
*Paper_Space
340
0
  0
BLOCK_RECORD
  5
1C
100
AcDbSymbolTableRecord
100
AcDbBlockTableRecord
  2
*D0
340
0
  0
BLOCK_RECORD
  5
1D
100
AcDbSymbolTableRecord
100
AcDbBlockTableRecord
  2
*D1
340
0
  0
BLOCK_RECORD
  5
1E
100
AcDbSymbolTableRecord
100
AcDbBlockTableRecord
  2
*D2
340
0
  0
BLOCK_RECORD
  5
1F
100
AcDbSymbolTableRecord
100
AcDbBlockTableRecord
  2
*D3
340
0
  0
BLOCK_RECORD
  5
20
100
AcDbSymbolTableRecord
100
AcDbBlockTableRecord
  2
*D4
340
0
  0
BLOCK_RECORD
  5
21
100
AcDbSymbolTableRecord
100
AcDbBlockTableRecord
  2
*D5
340
0
  0
BLOCK_RECORD
  5
22
100
AcDbSymbolTableRecord
100
AcDbBlockTableRecord
  2
*D6
340
0
  0
BLOCK_RECORD
  5
23
100
AcDbSymbolTableRecord
100
AcDbBlockTableRecord
  2
*D7
340
0
  0
BLOCK_RECORD
  5
24
100
AcDbSymbolTableRecord
100
AcDbBlockTableRecord
  2
*D8
340
0
  0
BLOCK_RECORD
  5
25
100
AcDbSymbolTableRecord
100
AcDbBlockTableRecord
  2
*D9
340
0
  0
BLOCK_RECORD
  5
26
100
AcDbSymbolTableRecord
100
AcDbBlockTableRecord
  2
*D10
340
0
  0
BLOCK_RECORD
  5
27
100
AcDbSymbolTableRecord
100
AcDbBlockTableRecord
  2
*D11
340
0
  0
BLOCK_RECORD
  5
28
100
AcDbSymbolTableRecord
100
AcDbBlockTableRecord
  2
*D12
340
0
  0
ENDTAB
  0
ENDSEC
  0
SECTION
  2
BLOCKS
  0
BLOCK
  5
2C
100
AcDbEntity
  8
0
390
0
100
AcDbBlockBegin
  2
*Model_Space
 70
     0
 10
0.0
 20
0.0
 30
0.0
  3
*Model_Space
  1

  0
ENDBLK
  5
2D
100
AcDbEntity
  8
0
390
0
100
AcDbBlockEnd
  0
BLOCK
  5
2E
100
AcDbEntity
 67
     1
  8
0
390
0
100
AcDbBlockBegin
  2
*Paper_Space
 70
     0
 10
0.0
 20
0.0
 30
0.0
  3
*Paper_Space
  1

  0
ENDBLK
  5
2F
100
AcDbEntity
 67
     1
  8
0
390
0
100
AcDbBlockEnd
  0
BLOCK
  5
7A7
100
AcDbEntity
  8
3
100
AcDbBlockBegin
  2
*D0
 70
     1
 10
0.0
 20
0.0
 30
0.0
  3
*D0
  1

  0
LINE
  5
7A8
100
AcDbEntity
  8
3
370
    25
100
AcDbLine
 10
150.398505
 20
22.781398
 30
0.0
 11
9.528389
 21
22.781398
 31
0.0
  0
LINE
  5
7A9
100
AcDbEntity
  8
3
370
    25
100
AcDbLine
 10
11.528389
 20
22.781398
 30
0.0
 11
12.563665
 21
26.645101
 31
0.0
  0
LINE
  5
7AA
100
AcDbEntity
  8
3
370
    25
100
AcDbLine
 10
11.528389
 20
22.781398
 30
0.0
 11
10.493113
 21
26.645101
 31
0.0
  0
LINE
  5
7AB
100
AcDbEntity
  8
3
370
    25
100
AcDbLine
 10
12.563665
 20
26.645101
 30
0.0
 11
10.493113
 21
26.645101
 31
0.0
  0
LINE
  5
7AC
100
AcDbEntity
  8
3
370
    25
100
AcDbLine
 10
11.528389
 20
22.781398
 30
0.0
 11
11.528389
 21
172.981398
 31
0.0
  0
LINE
  5
7AD
100
AcDbEntity
  8
3
370
    25
100
AcDbLine
 10
11.528389
 20
172.981398
 30
0.0
 11
10.493113
 21
169.117695
 31
0.0
  0
LINE
  5
7AE
100
AcDbEntity
  8
3
370
    25
100
AcDbLine
 10
11.528389
 20
172.981398
 30
0.0
 11
12.563665
 21
169.117695
 31
0.0
  0
LINE
  5
7AF
100
AcDbEntity
  8
3
370
    25
100
AcDbLine
 10
10.493113
 20
169.117695
 30
0.0
 11
12.563665
 21
169.117695
 31
0.0
  0
LINE
  5
7B0
100
AcDbEntity
  8
3
370
    25
100
AcDbLine
 10
173.898505
 20
172.981398
 30
0.0
 11
9.528389
 21
172.981398
 31
0.0
  0
ENDBLK
  5
7B1
100
AcDbEntity
  8
3
100
AcDbBlockEnd
  0
BLOCK
  5
7B2
100
AcDbEntity
  8
3
100
AcDbBlockBegin
  2
*D1
 70
     1
 10
0.0
 20
0.0
 30
0.0
  3
*D1
  1

  0
LINE
  5
7B3
100
AcDbEntity
  8
3
370
    25
100
AcDbLine
 10
149.598505
 20
22.781398
 30
0.0
 11
-4.325867
 21
22.781398
 31
0.0
  0
LINE
  5
7B4
100
AcDbEntity
  8
3
370
    25
100
AcDbLine
 10
-2.325867
 20
22.781398
 30
0.0
 11
-1.290591
 21
26.645101
 31
0.0
  0
LINE
  5
7B5
100
AcDbEntity
  8
3
370
    25
100
AcDbLine
 10
-2.325867
 20
22.781398
 30
0.0
 11
-3.361143
 21
26.645101
 31
0.0
  0
LINE
  5
7B6
100
AcDbEntity
  8
3
370
    25
100
AcDbLine
 10
-1.290591
 20
26.645101
 30
0.0
 11
-3.361143
 21
26.645101
 31
0.0
  0
LINE
  5
7B7
100
AcDbEntity
  8
3
370
    25
100
AcDbLine
 10
-2.325867
 20
22.781398
 30
0.0
 11
-2.325867
 21
203.202183
 31
0.0
  0
LINE
  5
7B8
100
AcDbEntity
  8
3
370
    25
100
AcDbLine
 10
-2.325867
 20
203.202183
 30
0.0
 11
-3.361143
 21
199.33848
 31
0.0
  0
LINE
  5
7B9
100
AcDbEntity
  8
3
370
    25
100
AcDbLine
 10
-2.325867
 20
203.202183
 30
0.0
 11
-1.290591
 21
199.33848
 31
0.0
  0
LINE
  5
7BA
100
AcDbEntity
  8
3
370
    25
100
AcDbLine
 10
-3.361143
 20
199.33848
 30
0.0
 11
-1.290591
 21
199.33848
 31
0.0
  0
LINE
  5
7BB
100
AcDbEntity
  8
3
370
    25
100
AcDbLine
 10
106.793872
 20
203.202183
 30
0.0
 11
-4.325867
 21
203.202183
 31
0.0
  0
ENDBLK
  5
7BC
100
AcDbEntity
  8
3
100
AcDbBlockEnd
  0
BLOCK
  5
7BD
100
AcDbEntity
  8
3
100
AcDbBlockBegin
  2
*D2
 70
     1
 10
0.0
 20
0.0
 30
0.0
  3
*D2
  1

  0
TEXT
  5
7BE
100
AcDbEntity
  8
3
370
    25
100
AcDbText
 10
75.241097
 20
182.196663
 30
0.0
 40
7.0
  1
２５゜
 50
77.5
 72
     5
 11
79.483314
 21
201.332065
 31
0.0
100
AcDbText
  0
LINE
  5
7BF
100
AcDbEntity
  8
3
370
    25
100
AcDbLine
 10
107.434411
 20
203.83611
 30
0.0
 11
84.033845
 21
214.747974
 31
0.0
  0
LINE
  5
7C0
100
AcDbEntity
  8
3
370
    25
100
AcDbLine
 10
89.398505
 20
169.481398
 30
0.0
 11
73.998486
 21
169.481398
 31
0.0
  0
LINE
  5
7C1
100
AcDbEntity
  8
3
370
    25
100
AcDbLine
 10
85.84646
 20
213.902737
 30
0.0
 11
83.332062
 21
210.791821
 31
0.0
  0
LINE
  5
7C2
100
AcDbEntity
  8
3
370
    25
100
AcDbLine
 10
85.84646
 20
213.902737
 30
0.0
 11
85.224385
 21
209.951405
 31
0.0
  0
LINE
  5
7C3
100
AcDbEntity
  8
3
370
    25
100
AcDbLine
 10
83.332062
 20
210.791821
 30
0.0
 11
85.224385
 21
209.951405
 31
0.0
  0
LINE
  5
7C4
100
AcDbEntity
  8
3
370
    25
100
AcDbLine
 10
75.998486
 20
169.481398
 30
0.0
 11
77.1046
 21
173.325421
 31
0.0
  0
LINE
  5
7C5
100
AcDbEntity
  8
3
370
    25
100
AcDbLine
 10
75.998486
 20
169.481398
 30
0.0
 11
75.034397
 21
173.363476
 31
0.0
  0
LINE
  5
7C6
100
AcDbEntity
  8
3
370
    25
100
AcDbLine
 10
77.1046
 20
173.325421
 30
0.0
 11
75.034397
 21
173.363476
 31
0.0
  0
ARC
  5
7C7
100
AcDbEntity
  8
3
370
    25
100
AcDbCircle
 10
181.10833
 20
169.481398
 30
0.0
 40
105.109844
100
AcDbArc
 50
155.0
 51
180.0
  0
ENDBLK
  5
7C8
100
AcDbEntity
  8
3
100
AcDbBlockEnd
  0
BLOCK
  5
7C9
100
AcDbEntity
  8
3
100
AcDbBlockBegin
  2
*D3
 70
     1
 10
0.0
 20
0.0
 30
0.0
  3
*D3
  1

  0
LINE
  5
7CA
100
AcDbEntity
  8
3
370
    25
100
AcDbLine
 10
108.265361
 20
-165.126515
 30
0.0
 11
23.093758
 21
-165.126515
 31
0.0
  0
LINE
  5
7CB
100
AcDbEntity
  8
3
370
    25
100
AcDbLine
 10
25.093758
 20
-165.126515
 30
0.0
 11
26.129034
 21
-161.262812
 31
0.0
  0
LINE
  5
7CC
100
AcDbEntity
  8
3
370
    25
100
AcDbLine
 10
25.093758
 20
-165.126515
 30
0.0
 11
24.058481
 21
-161.262812
 31
0.0
  0
LINE
  5
7CD
100
AcDbEntity
  8
3
370
    25
100
AcDbLine
 10
26.129034
 20
-161.262812
 30
0.0
 11
24.058481
 21
-161.262812
 31
0.0
  0
LINE
  5
7CE
100
AcDbEntity
  8
3
370
    25
100
AcDbLine
 10
25.093758
 20
-165.126515
 30
0.0
 11
25.093758
 21
22.781398
 31
0.0
  0
LINE
  5
7CF
100
AcDbEntity
  8
3
370
    25
100
AcDbLine
 10
25.093758
 20
22.781398
 30
0.0
 11
24.058481
 21
18.917695
 31
0.0
  0
LINE
  5
7D0
100
AcDbEntity
  8
3
370
    25
100
AcDbLine
 10
25.093758
 20
22.781398
 30
0.0
 11
26.129034
 21
18.917695
 31
0.0
  0
LINE
  5
7D1
100
AcDbEntity
  8
3
370
    25
100
AcDbLine
 10
24.058481
 20
18.917695
 30
0.0
 11
26.129034
 21
18.917695
 31
0.0
  0
LINE
  5
7D2
100
AcDbEntity
  8
3
370
    25
100
AcDbLine
 10
149.598505
 20
22.781398
 30
0.0
 11
23.093758
 21
22.781398
 31
0.0
  0
ENDBLK
  5
7D3
100
AcDbEntity
  8
3
100
AcDbBlockEnd
  0
BLOCK
  5
7D4
100
AcDbEntity
  8
3
100
AcDbBlockBegin
  2
*D4
 70
     1
 10
0.0
 20
0.0
 30
0.0
  3
*D4
  1

  0
LINE
  5
7D5
100
AcDbEntity
  8
3
370
    25
100
AcDbLine
 10
-166.138101
 20
6.481506
 30
0.0
 11
-186.109497
 21
6.481506
 31
0.0
  0
LINE
  5
7D6
100
AcDbEntity
  8
3
370
    25
100
AcDbLine
 10
-184.109497
 20
6.481506
 30
0.0
 11
-185.144773
 21
2.617802
 31
0.0
  0
LINE
  5
7D7
100
AcDbEntity
  8
3
370
    25
100
AcDbLine
 10
-184.109497
 20
6.481506
 30
0.0
 11
-183.074221
 21
2.617802
 31
0.0
  0
LINE
  5
7D8
100
AcDbEntity
  8
3
370
    25
100
AcDbLine
 10
-185.144773
 20
2.617802
 30
0.0
 11
-183.074221
 21
2.617802
 31
0.0
  0
LINE
  5
7D9
100
AcDbEntity
  8
3
370
    25
100
AcDbLine
 10
-184.109497
 20
-3.518494
 30
0.0
 11
-184.109497
 21
93.781506
 31
0.0
  0
LINE
  5
7DA
100
AcDbEntity
  8
3
370
    25
100
AcDbLine
 10
-184.109497
 20
22.781506
 30
0.0
 11
-183.074221
 21
26.645209
 31
0.0
  0
LINE
  5
7DB
100
AcDbEntity
  8
3
370
    25
100
AcDbLine
 10
-184.109497
 20
22.781506
 30
0.0
 11
-185.144773
 21
26.645209
 31
0.0
  0
LINE
  5
7DC
100
AcDbEntity
  8
3
370
    25
100
AcDbLine
 10
-183.074221
 20
26.645209
 30
0.0
 11
-185.144773
 21
26.645209
 31
0.0
  0
LINE
  5
7DD
100
AcDbEntity
  8
3
370
    25
100
AcDbLine
 10
-165.386101
 20
22.781506
 30
0.0
 11
-186.109497
 21
22.781506
 31
0.0
  0
ENDBLK
  5
7DE
100
AcDbEntity
  8
3
100
AcDbBlockEnd
  0
BLOCK
  5
7DF
100
AcDbEntity
  8
3
100
AcDbBlockBegin
  2
*D5
 70
     1
 10
0.0
 20
0.0
 30
0.0
  3
*D5
  1

  0
TEXT
  5
7E0
100
AcDbEntity
  8
3
370
    25
100
AcDbText
 10
-149.586101
 20
189.042847
 30
0.0
 40
7.0
  1
φ５２
 72
     5
 11
-129.986101
 21
189.042847
 31
0.0
100
AcDbText
  0
LINE
  5
7E1
100
AcDbEntity
  8
3
370
    25
100
AcDbLine
 10
-113.086101
 20
173.354752
 30
0.0
 11
-113.086101
 21
190.042847
 31
0.0
  0
LINE
  5
7E2
100
AcDbEntity
  8
3
370
    25
100
AcDbLine
 10
-113.086101
 20
188.042847
 30
0.0
 11
-116.949804
 21
189.078123
 31
0.0
  0
LINE
  5
7E3
100
AcDbEntity
  8
3
370
    25
100
AcDbLine
 10
-113.086101
 20
188.042847
 30
0.0
 11
-116.949804
 21
187.007571
 31
0.0
  0
LINE
  5
7E4
100
AcDbEntity
  8
3
370
    25
100
AcDbLine
 10
-116.949804
 20
189.078123
 30
0.0
 11
-116.949804
 21
187.007571
 31
0.0
  0
LINE
  5
7E5
100
AcDbEntity
  8
3
370
    25
100
AcDbLine
 10
-113.086101
 20
188.042847
 30
0.0
 11
-165.086101
 21
188.042847
 31
0.0
  0
LINE
  5
7E6
100
AcDbEntity
  8
3
370
    25
100
AcDbLine
 10
-165.086101
 20
188.042847
 30
0.0
 11
-161.222397
 21
187.007571
 31
0.0
  0
LINE
  5
7E7
100
AcDbEntity
  8
3
370
    25
100
AcDbLine
 10
-165.086101
 20
188.042847
 30
0.0
 11
-161.222397
 21
189.078123
 31
0.0
  0
LINE
  5
7E8
100
AcDbEntity
  8
3
370
    25
100
AcDbLine
 10
-161.222397
 20
187.007571
 30
0.0
 11
-161.222397
 21
189.078123
 31
0.0
  0
LINE
  5
7E9
100
AcDbEntity
  8
3
370
    25
100
AcDbLine
 10
-165.086101
 20
173.354752
 30
0.0
 11
-165.086101
 21
190.042847
 31
0.0
  0
ENDBLK
  5
7EA
100
AcDbEntity
  8
3
100
AcDbBlockEnd
  0
BLOCK
  5
7EB
100
AcDbEntity
  8
3
100
AcDbBlockBegin
  2
*D6
 70
     1
 10
0.0
 20
0.0
 30
0.0
  3
*D6
  1

  0
TEXT
  5
7EC
100
AcDbEntity
  8
3
370
    25
100
AcDbText
 10
-295.000336
 20
77.62713
 30
0.0
 40
7.0
  1
３０゜
 72
     5
 11
-275.400336
 21
77.62713
 31
0.0
100
AcDbText
  0
LINE
  5
7ED
100
AcDbEntity
  8
3
370
    25
100
AcDbLine
 10
-320.339793
 20
93.272446
 30
0.0
 11
-323.944356
 21
79.820034
 31
0.0
  0
LINE
  5
7EE
100
AcDbEntity
  8
3
370
    25
100
AcDbLine
 10
-248.660879
 20
93.272446
 30
0.0
 11
-245.056315
 21
79.820034
 31
0.0
  0
LINE
  5
7EF
100
AcDbEntity
  8
3
370
    25
100
AcDbLine
 10
-323.426718
 20
81.751885
 30
0.0
 11
-319.937213
 21
79.796546
 31
0.0
  0
LINE
  5
7F0
100
AcDbEntity
  8
3
370
    25
100
AcDbLine
 10
-323.426718
 20
81.751885
 30
0.0
 11
-319.427048
 21
81.803264
 31
0.0
  0
LINE
  5
7F1
100
AcDbEntity
  8
3
370
    25
100
AcDbLine
 10
-319.937213
 20
79.796546
 30
0.0
 11
-319.427048
 21
81.803264
 31
0.0
  0
LINE
  5
7F2
100
AcDbEntity
  8
3
370
    25
100
AcDbLine
 10
-245.573954
 20
81.751885
 30
0.0
 11
-249.573624
 21
81.803264
 31
0.0
  0
LINE
  5
7F3
100
AcDbEntity
  8
3
370
    25
100
AcDbLine
 10
-245.573954
 20
81.751885
 30
0.0
 11
-249.063459
 21
79.796546
 31
0.0
  0
LINE
  5
7F4
100
AcDbEntity
  8
3
370
    25
100
AcDbLine
 10
-249.573624
 20
81.803264
 30
0.0
 11
-249.063459
 21
79.796546
 31
0.0
  0
ARC
  5
7F5
100
AcDbEntity
  8
3
370
    25
100
AcDbCircle
 10
-284.500336
 20
227.027122
 30
0.0
 40
150.399992
100
AcDbArc
 50
255.0
 51
285.0
  0
ENDBLK
  5
7F6
100
AcDbEntity
  8
3
100
AcDbBlockEnd
  0
BLOCK
  5
7F7
100
AcDbEntity
  8
3
100
AcDbBlockBegin
  2
*D7
 70
     1
 10
0.0
 20
0.0
 30
0.0
  3
*D7
  1

  0
TEXT
  5
7F8
100
AcDbEntity
  8
3
370
    25
100
AcDbText
 10
-270.071414
 20
132.608768
 30
0.0
 40
7.0
  1
３０゜
 50
15.0
 72
     5
 11
-251.139268
 21
137.681621
 31
0.0
100
AcDbText
  0
LINE
  5
7F9
100
AcDbEntity
  8
3
370
    25
100
AcDbLine
 10
-284.500336
 20
148.89601
 30
0.0
 11
-284.500336
 21
130.091515
 31
0.0
  0
LINE
  5
7FA
100
AcDbEntity
  8
3
370
    25
100
AcDbLine
 10
-245.43478
 20
159.363594
 30
0.0
 11
-236.032533
 21
143.078424
 31
0.0
  0
LINE
  5
7FB
100
AcDbEntity
  8
3
370
    25
100
AcDbLine
 10
-284.500336
 20
132.091515
 30
0.0
 11
-280.616366
 21
131.135076
 31
0.0
  0
LINE
  5
7FC
100
AcDbEntity
  8
3
370
    25
100
AcDbLine
 10
-284.500336
 20
132.091515
 30
0.0
 11
-280.658499
 21
133.2052
 31
0.0
  0
LINE
  5
7FD
100
AcDbEntity
  8
3
370
    25
100
AcDbLine
 10
-280.616366
 20
131.135076
 30
0.0
 11
-280.658499
 21
133.2052
 31
0.0
  0
LINE
  5
7FE
100
AcDbEntity
  8
3
370
    25
100
AcDbLine
 10
-237.032533
 20
144.810475
 30
0.0
 11
-240.916503
 21
143.854036
 31
0.0
  0
LINE
  5
7FF
100
AcDbEntity
  8
3
370
    25
100
AcDbLine
 10
-237.032533
 20
144.810475
 30
0.0
 11
-239.91793
 21
142.040189
 31
0.0
  0
LINE
  5
800
100
AcDbEntity
  8
3
370
    25
100
AcDbLine
 10
-240.916503
 20
143.854036
 30
0.0
 11
-239.91793
 21
142.040189
 31
0.0
  0
ARC
  5
801
100
AcDbEntity
  8
3
370
    25
100
AcDbCircle
 10
-284.500336
 20
227.027122
 30
0.0
 40
94.935606
100
AcDbArc
 50
270.0
 51
300.0
  0
ENDBLK
  5
802
100
AcDbEntity
  8
3
100
AcDbBlockEnd
  0
BLOCK
  5
803
100
AcDbEntity
  8
3
100
AcDbBlockBegin
  2
*D8
 70
     1
 10
0.0
 20
0.0
 30
0.0
  3
*D8
  1

  0
TEXT
  5
804
100
AcDbEntity
  8
3
370
    25
100
AcDbText
 10
-341.068826
 20
150.047622
 30
0.0
 40
7.0
  1
６０゜
 50
330.0
 72
     5
 11
-324.094728
 21
140.247622
 31
0.0
100
AcDbText
  0
LINE
  5
805
100
AcDbEntity
  8
3
370
    25
100
AcDbLine
 10
-352.264292
 20
187.903583
 30
0.0
 11
-368.461886
 21
178.551898
 31
0.0
  0
LINE
  5
806
100
AcDbEntity
  8
3
370
    25
100
AcDbLine
 10
-284.500336
 20
148.780045
 30
0.0
 11
-284.500336
 21
130.076674
 31
0.0
  0
LINE
  5
807
100
AcDbEntity
  8
3
370
    25
100
AcDbLine
 10
-366.729836
 20
179.551898
 30
0.0
 11
-365.616163
 21
175.710058
 31
0.0
  0
LINE
  5
808
100
AcDbEntity
  8
3
370
    25
100
AcDbLine
 10
-366.729836
 20
179.551898
 30
0.0
 11
-363.844447
 21
176.781603
 31
0.0
  0
LINE
  5
809
100
AcDbEntity
  8
3
370
    25
100
AcDbLine
 10
-365.616163
 20
175.710058
 30
0.0
 11
-363.844447
 21
176.781603
 31
0.0
  0
LINE
  5
80A
100
AcDbEntity
  8
3
370
    25
100
AcDbLine
 10
-284.500336
 20
132.076674
 30
0.0
 11
-288.342176
 21
133.190346
 31
0.0
  0
LINE
  5
80B
100
AcDbEntity
  8
3
370
    25
100
AcDbLine
 10
-284.500336
 20
132.076674
 30
0.0
 11
-288.384303
 21
131.120222
 31
0.0
  0
LINE
  5
80C
100
AcDbEntity
  8
3
370
    25
100
AcDbLine
 10
-288.342176
 20
133.190346
 30
0.0
 11
-288.384303
 21
131.120222
 31
0.0
  0
ARC
  5
80D
100
AcDbEntity
  8
3
370
    25
100
AcDbCircle
 10
-284.500336
 20
227.027122
 30
0.0
 40
94.950448
100
AcDbArc
 50
210.0
 51
270.0
  0
ENDBLK
  5
80E
100
AcDbEntity
  8
3
100
AcDbBlockEnd
  0
BLOCK
  5
80F
100
AcDbEntity
  8
3
100
AcDbBlockBegin
  2
*D9
 70
     1
 10
0.0
 20
0.0
 30
0.0
  3
*D9
  1

  0
LINE
  5
810
100
AcDbEntity
  8
3
370
    25
100
AcDbLine
 10
269.776547
 20
-117.444551
 30
0.0
 11
299.881317
 21
-117.444551
 31
0.0
  0
LINE
  5
811
100
AcDbEntity
  8
3
370
    25
100
AcDbLine
 10
297.881317
 20
-117.444551
 30
0.0
 11
298.916593
 21
-113.580848
 31
0.0
  0
LINE
  5
812
100
AcDbEntity
  8
3
370
    25
100
AcDbLine
 10
297.881317
 20
-117.444551
 30
0.0
 11
296.846041
 21
-113.580848
 31
0.0
  0
LINE
  5
813
100
AcDbEntity
  8
3
370
    25
100
AcDbLine
 10
298.916593
 20
-113.580848
 30
0.0
 11
296.846041
 21
-113.580848
 31
0.0
  0
LINE
  5
814
100
AcDbEntity
  8
3
370
    25
100
AcDbLine
 10
297.881317
 20
-117.444551
 30
0.0
 11
297.881317
 21
22.781398
 31
0.0
  0
LINE
  5
815
100
AcDbEntity
  8
3
370
    25
100
AcDbLine
 10
297.881317
 20
22.781398
 30
0.0
 11
296.846041
 21
18.917695
 31
0.0
  0
LINE
  5
816
100
AcDbEntity
  8
3
370
    25
100
AcDbLine
 10
297.881317
 20
22.781398
 30
0.0
 11
298.916593
 21
18.917695
 31
0.0
  0
LINE
  5
817
100
AcDbEntity
  8
3
370
    25
100
AcDbLine
 10
296.846041
 20
18.917695
 30
0.0
 11
298.916593
 21
18.917695
 31
0.0
  0
LINE
  5
818
100
AcDbEntity
  8
3
370
    25
100
AcDbLine
 10
202.198505
 20
22.781398
 30
0.0
 11
299.881317
 21
22.781398
 31
0.0
  0
ENDBLK
  5
819
100
AcDbEntity
  8
3
100
AcDbBlockEnd
  0
BLOCK
  5
81A
100
AcDbEntity
  8
3
100
AcDbBlockBegin
  2
*D10
 70
     1
 10
0.0
 20
0.0
 30
0.0
  3
*D10
  1

  0
TEXT
  5
81B
100
AcDbEntity
  8
3
370
    25
100
AcDbText
 10
102.763642
 20
13.278966
 30
0.0
 40
7.0
  1
１２５
 72
     5
 11
122.363642
 21
13.278966
 31
0.0
100
AcDbText
  0
LINE
  5
81C
100
AcDbEntity
  8
3
370
    25
100
AcDbLine
 10
50.628778
 20
89.781398
 30
0.0
 11
50.628778
 21
10.278966
 31
0.0
  0
LINE
  5
81D
100
AcDbEntity
  8
3
370
    25
100
AcDbLine
 10
50.628778
 20
12.278966
 30
0.0
 11
54.492481
 21
11.24369
 31
0.0
  0
LINE
  5
81E
100
AcDbEntity
  8
3
370
    25
100
AcDbLine
 10
50.628778
 20
12.278966
 30
0.0
 11
54.492481
 21
13.314242
 31
0.0
  0
LINE
  5
81F
100
AcDbEntity
  8
3
370
    25
100
AcDbLine
 10
54.492481
 20
11.24369
 30
0.0
 11
54.492481
 21
13.314242
 31
0.0
  0
LINE
  5
820
100
AcDbEntity
  8
3
370
    25
100
AcDbLine
 10
50.628778
 20
12.278966
 30
0.0
 11
175.898505
 21
12.278966
 31
0.0
  0
LINE
  5
821
100
AcDbEntity
  8
3
370
    25
100
AcDbLine
 10
175.898505
 20
12.278966
 30
0.0
 11
172.034802
 21
13.314242
 31
0.0
  0
LINE
  5
822
100
AcDbEntity
  8
3
370
    25
100
AcDbLine
 10
175.898505
 20
12.278966
 30
0.0
 11
172.034802
 21
11.24369
 31
0.0
  0
LINE
  5
823
100
AcDbEntity
  8
3
370
    25
100
AcDbLine
 10
172.034802
 20
13.314242
 30
0.0
 11
172.034802
 21
11.24369
 31
0.0
  0
LINE
  5
824
100
AcDbEntity
  8
3
370
    25
100
AcDbLine
 10
175.898505
 20
13.744103
 30
0.0
 11
175.898505
 21
10.278966
 31
0.0
  0
ENDBLK
  5
825
100
AcDbEntity
  8
3
100
AcDbBlockEnd
  0
BLOCK
  5
826
100
AcDbEntity
  8
3
100
AcDbBlockBegin
  2
*D11
 70
     1
 10
0.0
 20
0.0
 30
0.0
  3
*D11
  1

  0
TEXT
  5
827
100
AcDbEntity
  8
3
370
    25
100
AcDbText
 10
24.093758
 20
50.281398
 30
0.0
 40
7.0
  1
６９
 50
90.0
 72
     5
 11
24.093758
 21
62.881398
 31
0.0
100
AcDbText
  0
LINE
  5
828
100
AcDbEntity
  8
3
370
    25
100
AcDbLine
 10
149.598505
 20
22.781398
 30
0.0
 11
23.093758
 21
22.781398
 31
0.0
  0
LINE
  5
829
100
AcDbEntity
  8
3
370
    25
100
AcDbLine
 10
25.093758
 20
22.781398
 30
0.0
 11
26.129034
 21
26.645101
 31
0.0
  0
LINE
  5
82A
100
AcDbEntity
  8
3
370
    25
100
AcDbLine
 10
25.093758
 20
22.781398
 30
0.0
 11
24.058481
 21
26.645101
 31
0.0
  0
LINE
  5
82B
100
AcDbEntity
  8
3
370
    25
100
AcDbLine
 10
26.129034
 20
26.645101
 30
0.0
 11
24.058481
 21
26.645101
 31
0.0
  0
LINE
  5
82C
100
AcDbEntity
  8
3
370
    25
100
AcDbLine
 10
25.093758
 20
22.781398
 30
0.0
 11
25.093758
 21
91.781398
 31
0.0
  0
LINE
  5
82D
100
AcDbEntity
  8
3
370
    25
100
AcDbLine
 10
25.093758
 20
91.781398
 30
0.0
 11
24.058481
 21
87.917695
 31
0.0
  0
LINE
  5
82E
100
AcDbEntity
  8
3
370
    25
100
AcDbLine
 10
25.093758
 20
91.781398
 30
0.0
 11
26.129034
 21
87.917695
 31
0.0
  0
LINE
  5
82F
100
AcDbEntity
  8
3
370
    25
100
AcDbLine
 10
24.058481
 20
87.917695
 30
0.0
 11
26.129034
 21
87.917695
 31
0.0
  0
LINE
  5
830
100
AcDbEntity
  8
3
370
    25
100
AcDbLine
 10
48.628778
 20
91.781398
 30
0.0
 11
23.093758
 21
91.781398
 31
0.0
  0
ENDBLK
  5
831
100
AcDbEntity
  8
3
100
AcDbBlockEnd
  0
BLOCK
  5
832
100
AcDbEntity
  8
3
100
AcDbBlockBegin
  2
*D12
 70
     1
 10
0.0
 20
0.0
 30
0.0
  3
*D12
  1

  0
TEXT
  5
833
100
AcDbEntity
  8
3
370
    25
100
AcDbText
 10
32.234724
 20
57.31509
 30
0.0
 40
7.0
  1
２５゜
 50
347.5
 72
     5
 11
51.370126
 21
53.072874
 31
0.0
100
AcDbText
  0
LINE
  5
834
100
AcDbEntity
  8
3
370
    25
100
AcDbLine
 10
48.586911
 20
87.402599
 30
0.0
 11
33.457663
 21
54.957823
 31
0.0
  0
LINE
  5
835
100
AcDbEntity
  8
3
370
    25
100
AcDbLine
 10
50.632357
 20
89.789074
 30
0.0
 11
50.632357
 21
51.150285
 31
0.0
  0
LINE
  5
836
100
AcDbEntity
  8
3
370
    25
100
AcDbLine
 10
34.302899
 20
56.770438
 30
0.0
 11
37.491797
 21
54.355706
 31
0.0
  0
LINE
  5
837
100
AcDbEntity
  8
3
370
    25
100
AcDbLine
 10
34.302899
 20
56.770438
 30
0.0
 11
38.271932
 21
56.273667
 31
0.0
  0
LINE
  5
838
100
AcDbEntity
  8
3
370
    25
100
AcDbLine
 10
37.491797
 20
54.355706
 30
0.0
 11
38.271932
 21
56.273667
 31
0.0
  0
LINE
  5
839
100
AcDbEntity
  8
3
370
    25
100
AcDbLine
 10
50.632357
 20
53.150285
 30
0.0
 11
46.825248
 21
54.377443
 31
0.0
  0
LINE
  5
83A
100
AcDbEntity
  8
3
370
    25
100
AcDbLine
 10
50.632357
 20
53.150285
 30
0.0
 11
46.721725
 21
52.30948
 31
0.0
  0
LINE
  5
83B
100
AcDbEntity
  8
3
370
    25
100
AcDbLine
 10
46.825248
 20
54.377443
 30
0.0
 11
46.721725
 21
52.30948
 31
0.0
  0
ARC
  5
83C
100
AcDbEntity
  8
3
370
    25
100
AcDbCircle
 10
50.632357
 20
91.789074
 30
0.0
 40
38.638789
100
AcDbArc
 50
245.0
 51
270.0
  0
ENDBLK
  5
83D
100
AcDbEntity
  8
3
100
AcDbBlockEnd
  0
ENDSEC
  0
SECTION
  2
ENTITIES
  0
LINE
  5
31
100
AcDbEntity
  8
1
370
   100
100
AcDbLine
 10
-373.02157
 20
275.028767
 30
0.0
 11
394.982385
 21
275.028767
 31
0.0
  0
LINE
  5
32
100
AcDbEntity
  8
1
370
   100
100
AcDbLine
 10
-373.02157
 20
275.028767
 30
0.0
 11
-373.02157
 21
-277.971881
 31
0.0
  0
LINE
  5
33
100
AcDbEntity
  8
1
370
   100
100
AcDbLine
 10
-373.02157
 20
-277.971881
 30
0.0
 11
394.982385
 21
-277.971881
 31
0.0
  0
LINE
  5
34
100
AcDbEntity
  8
1
370
   100
100
AcDbLine
 10
394.982385
 20
-277.971881
 30
0.0
 11
394.982385
 21
275.028767
 31
0.0
  0
TEXT
  5
35
100
AcDbEntity
  8
1
370
    50
100
AcDbText
 10
359.628442
 20
-226.252857
 30
0.0
 40
6.0
  1
設計
 72
     5
 11
370.428442
 21
-226.252857
 31
0.0
100
AcDbText
  0
TEXT
  5
36
100
AcDbEntity
  8
1
370
    50
100
AcDbText
 10
379.127478
 20
-226.099658
 30
0.0
 40
6.0
  1
製図
 72
     5
 11
389.927478
 21
-226.099658
 31
0.0
100
AcDbText
  0
TEXT
  5
37
100
AcDbEntity
  8
1
370
    50
100
AcDbText
 10
319.005745
 20
-226.252857
 30
0.0
 40
6.0
  1
承認
 72
     5
 11
329.805745
 21
-226.252857
 31
0.0
100
AcDbText
  0
TEXT
  5
38
100
AcDbEntity
  8
1
370
    50
100
AcDbText
 10
338.989679
 20
-226.19802
 30
0.0
 40
6.0
  1
検図
 72
     5
 11
349.789679
 21
-226.19802
 31
0.0
100
AcDbText
  0
LINE
  5
39
100
AcDbEntity
  8
1
370
    25
100
AcDbLine
 10
284.982385
 20
-227.971881
 30
0.0
 11
394.982385
 21
-227.971881
 31
0.0
  0
LINE
  5
3A
100
AcDbEntity
  8
1
370
    25
100
AcDbLine
 10
342.482385
 20
-245.971881
 30
0.0
 11
342.482385
 21
-259.971881
 31
0.0
  0
TEXT
  5
3B
100
AcDbEntity
  8
1
370
    50
100
AcDbText
 10
319.55159
 20
-256.012528
 30
0.0
 40
6.0
  1
日　付
 72
     5
 11
336.35159
 21
-256.012528
 31
0.0
100
AcDbText
  0
LINE
  5
3C
100
AcDbEntity
  8
1
370
    50
100
AcDbLine
 10
40.982385
 20
-259.971881
 30
0.0
 11
394.982385
 21
-259.971881
 31
0.0
  0
TEXT
  5
3D
100
AcDbEntity
  8
1
370
    50
100
AcDbText
 10
287.775011
 20
-256.322406
 30
0.0
 40
6.0
  1
第三角法
 72
     5
 11
310.575011
 21
-256.322406
 31
0.0
100
AcDbText
  0
TEXT
  5
3E
100
AcDbEntity
  8
1
370
    50
100
AcDbText
 10
291.087419
 20
-225.99802
 30
0.0
 40
6.0
  1
尺　度
 72
     5
 11
307.887419
 21
-225.99802
 31
0.0
100
AcDbText
  0
LINE
  5
3F
100
AcDbEntity
  8
1
370
   100
100
AcDbLine
 10
40.982385
 20
-217.971881
 30
0.0
 11
394.982385
 21
-217.971881
 31
0.0
  0
LINE
  5
40
100
AcDbEntity
  8
1
370
    50
100
AcDbLine
 10
211.982385
 20
-217.971881
 30
0.0
 11
211.982385
 21
-277.971881
 31
0.0
  0
LINE
  5
41
100
AcDbEntity
  8
1
370
    25
100
AcDbLine
 10
374.982385
 20
-245.971881
 30
0.0
 11
374.982385
 21
-217.971881
 31
0.0
  0
LINE
  5
42
100
AcDbEntity
  8
1
370
    25
100
AcDbLine
 10
354.982385
 20
-245.971881
 30
0.0
 11
354.982385
 21
-217.971881
 31
0.0
  0
LINE
  5
43
100
AcDbEntity
  8
1
370
    25
100
AcDbLine
 10
334.982385
 20
-245.971881
 30
0.0
 11
334.982385
 21
-217.971881
 31
0.0
  0
LINE
  5
44
100
AcDbEntity
  8
1
370
    50
100
AcDbLine
 10
284.982385
 20
-277.971881
 30
0.0
 11
284.982385
 21
-217.971881
 31
0.0
  0
LINE
  5
45
100
AcDbEntity
  8
1
370
    50
100
AcDbLine
 10
189.982385
 20
-217.971881
 30
0.0
 11
189.982385
 21
-277.971881
 31
0.0
  0
LINE
  5
46
100
AcDbEntity
  8
1
370
    50
100
AcDbLine
 10
62.982385
 20
-217.971881
 30
0.0
 11
62.982385
 21
-259.971881
 31
0.0
  0
LINE
  5
47
100
AcDbEntity
  8
1
370
    50
100
AcDbLine
 10
284.982385
 20
-245.971881
 30
0.0
 11
394.982385
 21
-245.971881
 31
0.0
  0
TEXT
  5
48
100
AcDbEntity
  8
1
370
    50
100
AcDbText
 10
287.101129
 20
-271.880939
 30
0.0
 40
6.0
  1
コードＮｏ
 41
0.9
 72
     5
 11
313.021129
 21
-271.880939
 31
0.0
100
AcDbText
  0
TEXT
  5
49
100
AcDbEntity
  8
1
370
   100
100
AcDbText
 10
52.886774
 20
-272.875659
 30
0.0
 40
8.0
  1
ミズタニバルブ工業株式会社
 41
1.2
 72
     5
 11
175.766774
 21
-272.875659
 31
0.0
100
AcDbText
  0
LINE
  5
4A
100
AcDbEntity
  8
1
370
    50
100
AcDbLine
 10
40.982385
 20
-238.971881
 30
0.0
 11
284.982385
 21
-238.971881
 31
0.0
  0
LINE
  5
4B
100
AcDbEntity
  8
1
370
    50
100
AcDbLine
 10
115.482385
 20
-238.971881
 30
0.0
 11
115.482385
 21
-259.971881
 31
0.0
  0
LINE
  5
4C
100
AcDbEntity
  8
1
370
    50
100
AcDbLine
 10
137.482385
 20
-238.971881
 30
0.0
 11
137.482385
 21
-259.971881
 31
0.0
  0
LINE
  5
4D
100
AcDbEntity
  8
1
370
    50
100
AcDbLine
 10
314.982385
 20
-277.971881
 30
0.0
 11
314.982385
 21
-217.971881
 31
0.0
  0
TEXT
  5
4E
100
AcDbEntity
  8
1
370
    50
100
AcDbText
 10
345.098131
 20
-256.100293
 30
0.0
 40
6.0
  1
　　・　　・
 72
     5
 11
379.898131
 21
-256.100293
 31
0.0
100
AcDbText
  0
LINE
  5
4F
100
AcDbEntity
  8
1
370
   100
100
AcDbLine
 10
40.982385
 20
-217.971881
 30
0.0
 11
40.982385
 21
-277.971881
 31
0.0
  0
TEXT
  5
50
100
AcDbEntity
  8
1
370
    50
100
AcDbText
 10
290.832582
 20
-240.013492
 30
0.0
 40
6.0
  1
　／ 
 72
     5
 11
301.632582
 21
-240.013492
 31
0.0
100
AcDbText
  0
TEXT
  5
51
100
AcDbEntity
  8
1
370
    50
100
AcDbText
 10
193.904123
 20
-272.024909
 30
0.0
 40
6.0
  1
備 考 
 72
     5
 11
207.704123
 21
-272.024909
 31
0.0
100
AcDbText
  0
TEXT
  5
52
100
AcDbEntity
  8
1
370
    50
100
AcDbText
 10
193.512534
 20
-230.89184
 30
0.0
 40
6.0
  1
仕 上
 72
     5
 11
207.312534
 21
-230.89184
 31
0.0
100
AcDbText
  0
TEXT
  5
53
100
AcDbEntity
  8
1
370
    50
100
AcDbText
 10
193.447176
 20
-248.891666
 30
0.0
 40
6.0
  1
表 面
 72
     5
 11
207.247176
 21
-248.891666
 31
0.0
100
AcDbText
  0
TEXT
  5
54
100
AcDbEntity
  8
1
370
    50
100
AcDbText
 10
193.447176
 20
-255.891666
 30
0.0
 40
6.0
  1
処 理
 72
     5
 11
207.247176
 21
-255.891666
 31
0.0
100
AcDbText
  0
TEXT
  5
55
100
AcDbEntity
  8
1
370
    50
100
AcDbText
 10
44.79335
 20
-231.693399
 30
0.0
 40
6.0
  1
品 名
 72
     5
 11
58.59335
 21
-231.693399
 31
0.0
100
AcDbText
  0
TEXT
  5
56
100
AcDbEntity
  8
1
370
    50
100
AcDbText
 10
44.397766
 20
-252.462534
 30
0.0
 40
6.0
  1
材 質
 72
     5
 11
58.197766
 21
-252.462534
 31
0.0
100
AcDbText
  0
TEXT
  5
57
100
AcDbEntity
  8
1
370
    50
100
AcDbText
 10
118.897766
 20
-252.462534
 30
0.0
 40
6.0
  1
規 格
 72
     5
 11
132.697766
 21
-252.462534
 31
0.0
100
AcDbText
  0
LINE
  5
58
100
AcDbEntity
  8
2
370
    50
100
AcDbLine
 10
151.598505
 20
22.781398
 30
0.0
 11
175.898505
 21
22.781398
 31
0.0
  0
LINE
  5
59
100
AcDbEntity
  8
2
370
    50
100
AcDbLine
 10
151.398505
 20
23.281398
 30
0.0
 11
151.398505
 21
22.981398
 31
0.0
  0
LINE
  5
5A
100
AcDbEntity
  8
2
370
    50
100
AcDbLine
 10
151.398505
 20
22.981398
 30
0.0
 11
151.598505
 21
22.781398
 31
0.0
  0
LINE
  5
5B
100
AcDbEntity
  8
2
370
    50
100
AcDbLine
 10
200.198505
 20
22.781398
 30
0.0
 11
175.898505
 21
22.781398
 31
0.0
  0
LINE
  5
5C
100
AcDbEntity
  8
2
370
    50
100
AcDbLine
 10
200.398505
 20
23.281398
 30
0.0
 11
200.398505
 21
22.981398
 31
0.0
  0
LINE
  5
5D
100
AcDbEntity
  8
2
370
    50
100
AcDbLine
 10
200.398505
 20
22.981398
 30
0.0
 11
200.198505
 21
22.781398
 31
0.0
  0
LINE
  5
5E
100
AcDbEntity
  8
2
370
    50
100
AcDbLine
 10
159.192255
 20
-19.718602
 30
0.0
 11
175.898505
 21
-19.718602
 31
0.0
  0
LINE
  5
5F
100
AcDbEntity
  8
2
370
    50
100
AcDbLine
 10
158.398505
 20
-18.924602
 30
0.0
 11
159.192505
 21
-19.718602
 31
0.0
  0
LINE
  5
60
100
AcDbEntity
  8
2
370
    50
100
AcDbLine
 10
153.898505
 20
22.781398
 30
0.0
 11
158.398505
 21
22.781398
 31
0.0
  0
LINE
  5
61
100
AcDbEntity
  8
2
370
    50
100
AcDbLine
 10
193.398505
 20
-18.924602
 30
0.0
 11
192.604505
 21
-19.718602
 31
0.0
  0
LINE
  5
62
100
AcDbEntity
  8
2
370
    50
100
AcDbLine
 10
175.898505
 20
-19.718602
 30
0.0
 11
186.398505
 21
-19.718602
 31
0.0
  0
LINE
  5
63
100
AcDbEntity
  8
2
370
    50
100
AcDbLine
 10
186.398505
 20
-19.718602
 30
0.0
 11
192.604755
 21
-19.718602
 31
0.0
  0
LINE
  5
64
100
AcDbEntity
  8
2
370
    50
100
AcDbLine
 10
-163.386101
 20
22.781506
 30
0.0
 11
-139.086101
 21
22.781506
 31
0.0
  0
LINE
  5
65
100
AcDbEntity
  8
2
370
    50
100
AcDbLine
 10
-163.586101
 20
23.281506
 30
0.0
 11
-163.586101
 21
22.981506
 31
0.0
  0
LINE
  5
66
100
AcDbEntity
  8
2
370
    50
100
AcDbLine
 10
-163.586101
 20
22.981506
 30
0.0
 11
-163.386101
 21
22.781506
 31
0.0
  0
LINE
  5
67
100
AcDbEntity
  8
2
370
    50
100
AcDbLine
 10
-161.086101
 20
22.781506
 30
0.0
 11
-156.586101
 21
22.781506
 31
0.0
  0
LINE
  5
68
100
AcDbEntity
  8
2
370
    25
100
AcDbLine
 10
-163.586101
 20
22.981506
 30
0.0
 11
-139.086101
 21
22.981506
 31
0.0
  0
LINE
  5
69
100
AcDbEntity
  8
2
370
    50
100
AcDbLine
 10
-114.786101
 20
22.781506
 30
0.0
 11
-139.086101
 21
22.781506
 31
0.0
  0
LINE
  5
6A
100
AcDbEntity
  8
2
370
    50
100
AcDbLine
 10
-114.586101
 20
23.281506
 30
0.0
 11
-114.586101
 21
22.981506
 31
0.0
  0
LINE
  5
6B
100
AcDbEntity
  8
2
370
    50
100
AcDbLine
 10
-114.586101
 20
22.981506
 30
0.0
 11
-114.786101
 21
22.781506
 31
0.0
  0
LINE
  5
6C
100
AcDbEntity
  8
2
370
    50
100
AcDbLine
 10
-117.086101
 20
22.781506
 30
0.0
 11
-121.586101
 21
22.781506
 31
0.0
  0
LINE
  5
6D
100
AcDbEntity
  8
2
370
    25
100
AcDbLine
 10
-114.586101
 20
22.981506
 30
0.0
 11
-139.086101
 21
22.981506
 31
0.0
  0
LINE
  5
6E
100
AcDbEntity
  8
2
370
    50
100
AcDbLine
 10
-122.379851
 20
-19.718494
 30
0.0
 11
-139.086101
 21
-19.718494
 31
0.0
  0
LINE
  5
6F
100
AcDbEntity
  8
2
370
    50
100
AcDbLine
 10
-121.586101
 20
-18.924494
 30
0.0
 11
-122.380101
 21
-19.718494
 31
0.0
  0
LINE
  5
70
100
AcDbEntity
  8
2
370
    25
100
AcDbLine
 10
-121.586101
 20
-18.924494
 30
0.0
 11
-139.086101
 21
-18.924494
 31
0.0
  0
LINE
  5
71
100
AcDbEntity
  8
2
370
    50
100
AcDbLine
 10
-155.792351
 20
-19.718494
 30
0.0
 11
-139.086101
 21
-19.718494
 31
0.0
  0
LINE
  5
72
100
AcDbEntity
  8
2
370
    50
100
AcDbLine
 10
-156.586101
 20
-18.924494
 30
0.0
 11
-155.792101
 21
-19.718494
 31
0.0
  0
LINE
  5
73
100
AcDbEntity
  8
2
370
    25
100
AcDbLine
 10
-156.586101
 20
-18.924494
 30
0.0
 11
-139.086101
 21
-18.924494
 31
0.0
  0
LINE
  5
74
100
AcDbEntity
  8
2
370
    25
  6
CENTER
100
AcDbLine
 10
186.398505
 20
-33.299438
 30
0.0
 11
186.398505
 21
-69.737935
 31
0.0
  0
LINE
  5
75
100
AcDbEntity
  8
2
370
    50
100
AcDbLine
 10
190.398505
 20
-19.718602
 30
0.0
 11
190.398505
 21
-36.759026
 31
0.0
  0
LINE
  5
76
100
AcDbEntity
  8
2
370
    50
100
AcDbLine
 10
182.398505
 20
-19.718602
 30
0.0
 11
182.398505
 21
-36.812881
 31
0.0
  0
POINT
  5
77
100
AcDbEntity
  8
2
370
    50
100
AcDbPoint
 10
175.898505
 20
145.981398
 30
0.0
  0
LINE
  5
78
100
AcDbEntity
  8
2
370
    50
100
AcDbLine
 10
159.398505
 20
142.981398
 30
0.0
 11
155.398505
 21
142.981398
 31
0.0
  0
LINE
  5
79
100
AcDbEntity
  8
2
370
    50
100
AcDbLine
 10
157.898505
 20
142.981398
 30
0.0
 11
153.995604
 21
142.981398
 31
0.0
  0
ARC
  5
7A
100
AcDbEntity
  8
2
370
    50
100
AcDbCircle
 10
153.432732
 20
142.899059
 30
0.0
 40
1.0
100
AcDbArc
 50
175.27696
 51
179.5
  0
LINE
  5
7B
100
AcDbEntity
  8
2
370
    50
100
AcDbLine
 10
152.40985
 20
140.281398
 30
0.0
 11
152.43277
 21
142.907785
 31
0.0
  0
ARC
  5
7C
100
AcDbEntity
  8
2
370
    50
100
AcDbCircle
 10
105.38406
 20
108.903779
 30
0.0
 40
100.0
100
AcDbArc
 50
20.083343
 51
25.621167
  0
ARC
  5
7D
100
AcDbEntity
  8
2
370
    50
100
AcDbCircle
 10
198.364278
 20
142.899059
 30
0.0
 40
1.0
100
AcDbArc
 50
0.5
 51
20.083343
  0
LINE
  5
7E
100
AcDbEntity
  8
2
370
    50
100
AcDbLine
 10
199.38716
 20
140.281398
 30
0.0
 11
199.36424
 21
142.907785
 31
0.0
  0
LINE
  5
7F
100
AcDbEntity
  8
2
370
    50
100
AcDbLine
 10
143.898505
 20
89.077309
 30
0.0
 11
126.500444
 21
99.122085
 31
0.0
  0
LINE
  5
80
100
AcDbEntity
  8
2
370
    50
100
AcDbLine
 10
111.390718
 20
73.550827
 30
0.0
 11
126.09094
 21
99.012358
 31
0.0
  0
LINE
  5
81
100
AcDbEntity
  8
2
370
    50
100
AcDbLine
 10
126.500747
 20
99.122166
 30
0.0
 11
126.09094
 21
99.012358
 31
0.0
  0
LINE
  5
82
100
AcDbEntity
  8
2
370
    50
100
AcDbLine
 10
111.500444
 20
73.141322
 30
0.0
 11
123.105432
 21
66.44118
 31
0.0
  0
LINE
  5
83
100
AcDbEntity
  8
2
370
    50
100
AcDbLine
 10
128.301832
 20
63.441037
 30
0.0
 11
144.898505
 21
53.858943
 31
0.0
  0
LINE
  5
84
100
AcDbEntity
  8
2
370
    50
100
AcDbLine
 10
111.390718
 20
73.550827
 30
0.0
 11
111.500525
 21
73.141019
 31
0.0
  0
ELLIPSE
  5
85
100
AcDbEntity
  8
2
370
    50
100
AcDbEllipse
 10
125.704125
 20
64.940631
 30
0.0
 11
2.5987770000000001
 21
-1.500405
 31
0.0
210
0.0
220
0.0
230
1.0
 40
0.066649
 41
0.032847
 42
3.1415929999999999
  0
LINE
  5
86
100
AcDbEntity
  8
2
370
    50
100
AcDbLine
 10
201.898505
 20
23.581398
 30
0.0
 11
201.898505
 21
140.081398
 31
0.0
  0
LINE
  5
87
100
AcDbEntity
  8
2
370
    50
100
AcDbLine
 10
201.898505
 20
23.581398
 30
0.0
 11
201.598505
 21
23.281398
 31
0.0
  0
LINE
  5
88
100
AcDbEntity
  8
2
370
    50
100
AcDbLine
 10
175.898505
 20
140.281398
 30
0.0
 11
201.698505
 21
140.281398
 31
0.0
  0
LINE
  5
89
100
AcDbEntity
  8
2
370
    50
100
AcDbLine
 10
201.598505
 20
23.281398
 30
0.0
 11
175.898505
 21
23.281398
 31
0.0
  0
LINE
  5
8A
100
AcDbEntity
  8
2
370
    50
100
AcDbLine
 10
201.698505
 20
140.281398
 30
0.0
 11
201.898505
 21
140.081398
 31
0.0
  0
LINE
  5
8B
100
AcDbEntity
  8
2
370
    50
100
AcDbLine
 10
175.898505
 20
140.281398
 30
0.0
 11
150.098505
 21
140.281398
 31
0.0
  0
LINE
  5
8C
100
AcDbEntity
  8
2
370
    50
100
AcDbLine
 10
150.098505
 20
140.281398
 30
0.0
 11
149.898505
 21
140.081398
 31
0.0
  0
LINE
  5
8D
100
AcDbEntity
  8
2
370
    50
100
AcDbLine
 10
149.898505
 20
92.541411
 30
0.0
 11
149.898505
 21
140.081398
 31
0.0
  0
LINE
  5
8E
100
AcDbEntity
  8
2
370
    50
100
AcDbLine
 10
149.898505
 20
23.581398
 30
0.0
 11
149.898505
 21
45.198689
 31
0.0
  0
LINE
  5
8F
100
AcDbEntity
  8
2
370
    50
100
AcDbLine
 10
149.898505
 20
23.581398
 30
0.0
 11
149.898505
 21
44.240141
 31
0.0
  0
LINE
  5
90
100
AcDbEntity
  8
2
370
    50
100
AcDbLine
 10
149.898505
 20
23.581398
 30
0.0
 11
150.198505
 21
23.281398
 31
0.0
  0
LINE
  5
91
100
AcDbEntity
  8
2
370
    50
100
AcDbLine
 10
150.198505
 20
23.281398
 30
0.0
 11
175.898505
 21
23.281398
 31
0.0
  0
ARC
  5
92
100
AcDbEntity
  8
2
370
    50
100
AcDbCircle
 10
139.898505
 20
45.198689
 30
0.0
 40
10.0
100
AcDbArc
 50
0.0
 51
60.0
  0
ARC
  5
93
100
AcDbEntity
  8
2
370
    50
100
AcDbCircle
 10
145.898505
 20
92.541411
 30
0.0
 40
4.0
100
AcDbArc
 50
240.0
 51
360.0
  0
LINE
  5
94
100
AcDbEntity
  8
2
370
    50
100
AcDbLine
 10
-113.086101
 20
23.581506
 30
0.0
 11
-113.086101
 21
140.081506
 31
0.0
  0
LINE
  5
95
100
AcDbEntity
  8
2
370
    50
100
AcDbLine
 10
-113.286101
 20
140.281506
 30
0.0
 11
-113.086101
 21
140.081506
 31
0.0
  0
LINE
  5
96
100
AcDbEntity
  8
2
370
    50
100
AcDbLine
 10
-139.086101
 20
140.281506
 30
0.0
 11
-113.286101
 21
140.281506
 31
0.0
  0
LINE
  5
97
100
AcDbEntity
  8
2
370
    25
100
AcDbLine
 10
-139.086101
 20
140.081506
 30
0.0
 11
-113.086101
 21
140.081506
 31
0.0
  0
LINE
  5
98
100
AcDbEntity
  8
2
370
    50
100
AcDbLine
 10
-165.086101
 20
23.581506
 30
0.0
 11
-165.086101
 21
140.081506
 31
0.0
  0
LINE
  5
99
100
AcDbEntity
  8
2
370
    50
100
AcDbLine
 10
-165.086101
 20
140.081506
 30
0.0
 11
-164.886101
 21
140.281506
 31
0.0
  0
LINE
  5
9A
100
AcDbEntity
  8
2
370
    50
100
AcDbLine
 10
-164.886101
 20
140.281506
 30
0.0
 11
-139.086101
 21
140.281506
 31
0.0
  0
LINE
  5
9B
100
AcDbEntity
  8
2
370
    25
100
AcDbLine
 10
-165.086101
 20
140.081506
 30
0.0
 11
-139.086101
 21
140.081506
 31
0.0
  0
LINE
  5
9C
100
AcDbEntity
  8
2
370
    50
100
AcDbLine
 10
-113.086101
 20
23.581506
 30
0.0
 11
-113.386101
 21
23.281506
 31
0.0
  0
LINE
  5
9D
100
AcDbEntity
  8
2
370
    50
100
AcDbLine
 10
-113.386101
 20
23.281506
 30
0.0
 11
-139.086101
 21
23.281506
 31
0.0
  0
LINE
  5
9E
100
AcDbEntity
  8
2
370
    25
100
AcDbLine
 10
-113.086101
 20
23.581506
 30
0.0
 11
-139.086101
 21
23.581506
 31
0.0
  0
LINE
  5
9F
100
AcDbEntity
  8
2
370
    50
100
AcDbLine
 10
-165.086101
 20
23.581506
 30
0.0
 11
-164.786101
 21
23.281506
 31
0.0
  0
LINE
  5
A0
100
AcDbEntity
  8
2
370
    50
100
AcDbLine
 10
-164.786101
 20
23.281506
 30
0.0
 11
-139.086101
 21
23.281506
 31
0.0
  0
LINE
  5
A1
100
AcDbEntity
  8
2
370
    25
100
AcDbLine
 10
-165.086101
 20
23.581506
 30
0.0
 11
-139.086101
 21
23.581506
 31
0.0
  0
POINT
  5
A2
100
AcDbEntity
  8
2
370
    50
100
AcDbPoint
 10
-139.086101
 20
86.281593
 30
0.0
  0
LINE
  5
A3
100
AcDbEntity
  8
2
370
    50
100
AcDbLine
 10
-124.086101
 20
125.915354
 30
0.0
 11
-124.086101
 21
58.189189
 31
0.0
  0
LINE
  5
A4
100
AcDbEntity
  8
2
370
    50
100
AcDbLine
 10
-154.086101
 20
125.915354
 30
0.0
 11
-154.086101
 21
58.189189
 31
0.0
  0
LINE
  5
A5
100
AcDbEntity
  8
2
370
    50
100
AcDbLine
 10
-141.136101
 20
71.041212
 30
0.0
 11
-141.136101
 21
73.412981
 31
0.0
  0
LINE
  5
A6
100
AcDbEntity
  8
2
370
    50
100
AcDbLine
 10
-137.036101
 20
71.041212
 30
0.0
 11
-137.036101
 21
73.412981
 31
0.0
  0
LINE
  5
A7
100
AcDbEntity
  8
2
370
    50
100
AcDbLine
 10
-137.036101
 20
71.041212
 30
0.0
 11
-141.136101
 21
71.041212
 31
0.0
  0
LINE
  5
A8
100
AcDbEntity
  8
2
370
    50
100
AcDbLine
 10
-137.036101
 20
73.33369
 30
0.0
 11
-141.136101
 21
73.33369
 31
0.0
  0
ELLIPSE
  5
A9
100
AcDbEntity
  8
2
370
    50
100
AcDbEllipse
 10
-139.086101
 20
64.941124
 30
0.0
 11
3.0
 21
0.0
 31
0.0
210
0.0
220
0.0
230
1.0
 40
0.5
 41
0.0
 42
6.2831849999999996
  0
POINT
  5
AA
100
AcDbEntity
  8
2
370
    50
100
AcDbPoint
 10
-139.086101
 20
73.291093
 30
0.0
  0
ELLIPSE
  5
AB
100
AcDbEntity
  8
2
370
    50
100
AcDbEllipse
 10
-139.086101
 20
66.281712
 30
0.0
 11
15.0
 21
0.0
 31
0.0
210
0.0
220
0.0
230
1.0
 40
0.866033
 41
4.442456
 42
4.9823219999999999
  0
ELLIPSE
  5
AC
100
AcDbEntity
  8
2
370
    50
100
AcDbEllipse
 10
-139.086101
 20
68.281712
 30
0.0
 11
15.0
 21
0.0
 31
0.0
210
0.0
220
0.0
230
1.0
 40
0.866033
 41
4.442456
 42
4.9823219999999999
  0
LINE
  5
AD
100
AcDbEntity
  8
2
370
    50
100
AcDbLine
 10
-143.086101
 20
53.761613
 30
0.0
 11
-143.086101
 21
55.761613
 31
0.0
  0
LINE
  5
AE
100
AcDbEntity
  8
2
370
    50
100
AcDbLine
 10
-135.086101
 20
53.761613
 30
0.0
 11
-135.086101
 21
55.761613
 31
0.0
  0
ELLIPSE
  5
AF
100
AcDbEntity
  8
2
370
    25
100
AcDbEllipse
 10
-139.086101
 20
58.189189
 30
0.0
 11
15.0
 21
0.0
 31
0.0
210
0.0
220
0.0
230
1.0
 40
0.866033
 41
3.4961850000000001
 42
6.0077850000000002
  0
LINE
  5
B0
100
AcDbEntity
  8
2
370
    50
100
AcDbLine
 10
175.898505
 20
142.981398
 30
0.0
 11
150.398505
 21
142.981398
 31
0.0
  0
LINE
  5
B1
100
AcDbEntity
  8
2
370
    50
100
AcDbLine
 10
149.898505
 20
143.481398
 30
0.0
 11
149.898505
 21
161.381398
 31
0.0
  0
LINE
  5
B2
100
AcDbEntity
  8
2
370
    50
100
AcDbLine
 10
149.898505
 20
169.581398
 30
0.0
 11
149.898505
 21
171.354752
 31
0.0
  0
ARC
  5
B3
100
AcDbEntity
  8
2
370
    50
100
AcDbCircle
 10
150.398505
 20
143.481398
 30
0.0
 40
0.5
100
AcDbArc
 50
180.0
 51
270.0
  0
LINE
  5
B4
100
AcDbEntity
  8
2
370
    50
100
AcDbLine
 10
175.898505
 20
142.981398
 30
0.0
 11
201.898505
 21
155.105397
 31
0.0
  0
ARC
  5
B5
100
AcDbEntity
  8
2
370
    50
100
AcDbCircle
 10
175.898505
 20
-327.018602
 30
0.0
 40
500.0
100
AcDbArc
 50
87.128268
 51
92.871732
  0
ARC
  5
B6
100
AcDbEntity
  8
2
370
    50
100
AcDbCircle
 10
200.898505
 20
171.354752
 30
0.0
 40
1.0
100
AcDbArc
 50
0.0
 51
87.128268
  0
ARC
  5
B7
100
AcDbEntity
  8
2
370
    50
100
AcDbCircle
 10
150.898505
 20
171.354752
 30
0.0
 40
1.0
100
AcDbArc
 50
92.871732
 51
180.0
  0
ARC
  5
B8
100
AcDbEntity
  8
2
370
    50
100
AcDbCircle
 10
125.236997
 20
165.481398
 30
0.0
 40
25.0
100
AcDbArc
 50
350.560853
 51
360.0
  0
ARC
  5
B9
100
AcDbEntity
  8
2
370
    50
100
AcDbCircle
 10
125.236997
 20
165.481398
 30
0.0
 40
25.0
100
AcDbArc
 50
360.0
 51
9.439147
  0
LINE
  5
BA
100
AcDbEntity
  8
2
370
    50
100
AcDbLine
 10
201.898505
 20
155.105397
 30
0.0
 11
201.898505
 21
162.011247
 31
0.0
  0
LINE
  5
BB
100
AcDbEntity
  8
2
370
    50
100
AcDbLine
 10
201.898505
 20
162.011247
 30
0.0
 11
201.898505
 21
171.354752
 31
0.0
  0
LINE
  5
BC
100
AcDbEntity
  8
2
370
    50
100
AcDbLine
 10
-113.586101
 20
142.981398
 30
0.0
 11
-164.586101
 21
142.981398
 31
0.0
  0
LINE
  5
BD
100
AcDbEntity
  8
2
370
    25
  6
CENTER
100
AcDbLine
 10
-132.337982
 20
165.481398
 30
0.0
 11
-145.980408
 21
165.481398
 31
0.0
  0
CIRCLE
  5
BE
100
AcDbEntity
  8
2
370
    50
100
AcDbCircle
 10
-139.086101
 20
165.481398
 30
0.0
 40
4.1
  0
LINE
  5
BF
100
AcDbEntity
  8
2
370
    50
100
AcDbLine
 10
-165.086101
 20
171.354752
 30
0.0
 11
-165.086101
 21
143.481398
 31
0.0
  0
LINE
  5
C0
100
AcDbEntity
  8
2
370
    50
100
AcDbLine
 10
-113.086101
 20
171.354752
 30
0.0
 11
-113.086101
 21
143.481398
 31
0.0
  0
ARC
  5
C1
100
AcDbEntity
  8
2
370
    50
100
AcDbCircle
 10
-164.586101
 20
143.481398
 30
0.0
 40
0.5
100
AcDbArc
 50
180.0
 51
270.0
  0
ARC
  5
C2
100
AcDbEntity
  8
2
370
    50
100
AcDbCircle
 10
-113.586101
 20
143.481398
 30
0.0
 40
0.5
100
AcDbArc
 50
270.0
 51
360.0
  0
ARC
  5
C3
100
AcDbEntity
  8
2
370
    50
100
AcDbCircle
 10
-139.086101
 20
-327.018602
 30
0.0
 40
500.0
100
AcDbArc
 50
87.128268
 51
92.871732
  0
ARC
  5
C4
100
AcDbEntity
  8
2
370
    50
100
AcDbCircle
 10
-114.086101
 20
171.354752
 30
0.0
 40
1.0
100
AcDbArc
 50
0.0
 51
87.128268
  0
ARC
  5
C5
100
AcDbEntity
  8
2
370
    50
100
AcDbCircle
 10
-164.086101
 20
171.354752
 30
0.0
 40
1.0
100
AcDbArc
 50
92.871732
 51
180.0
  0
LINE
  5
C6
100
AcDbEntity
  8
2
370
    25
100
AcDbLine
 10
-162.894356
 20
172.30494
 30
0.0
 11
-115.668442
 21
172.30494
 31
0.0
  0
POINT
  5
C7
100
AcDbEntity
  8
2
370
    50
100
AcDbPoint
 10
-139.086101
 20
142.831506
 30
0.0
  0
LINE
  5
C8
100
AcDbEntity
  8
2
370
    25
  6
CENTER
100
AcDbLine
 10
171.398505
 20
-66.438927
 30
0.0
 11
171.398505
 21
-178.944727
 31
0.0
  0
LINE
  5
C9
100
AcDbEntity
  8
2
370
    50
100
AcDbLine
 10
90.898505
 20
161.981398
 30
0.0
 11
90.898505
 21
168.981398
 31
0.0
  0
LINE
  5
CA
100
AcDbEntity
  8
2
370
    50
100
AcDbLine
 10
91.398505
 20
161.481398
 30
0.0
 11
149.914922
 21
161.481398
 31
0.0
  0
LINE
  5
CB
100
AcDbEntity
  8
2
370
    50
100
AcDbLine
 10
91.398505
 20
169.481398
 30
0.0
 11
149.914922
 21
169.481398
 31
0.0
  0
LINE
  5
CC
100
AcDbEntity
  8
2
370
    50
100
AcDbLine
 10
90.898505
 20
161.981398
 30
0.0
 11
91.398505
 21
161.481398
 31
0.0
  0
LINE
  5
CD
100
AcDbEntity
  8
2
370
    50
100
AcDbLine
 10
90.898505
 20
168.981398
 30
0.0
 11
91.398505
 21
169.481398
 31
0.0
  0
CIRCLE
  5
CE
100
AcDbEntity
  8
2
370
    50
100
AcDbCircle
 10
-139.086101
 20
165.481398
 30
0.0
 40
4.0
  0
CIRCLE
  5
CF
100
AcDbEntity
  8
2
370
    25
100
AcDbCircle
 10
-139.086101
 20
165.481398
 30
0.0
 40
3.5
  0
ARC
  5
D0
100
AcDbEntity
  8
2
370
    50
100
AcDbCircle
 10
194.470302
 20
164.981398
 30
0.0
 40
8.0
100
AcDbArc
 50
338.206107
 51
21.793893
  0
LINE
  5
D1
100
AcDbEntity
  8
2
370
    25
100
AcDbLine
 10
91.398505
 20
169.481398
 30
0.0
 11
91.398505
 21
161.481398
 31
0.0
  0
LINE
  5
D2
100
AcDbEntity
  8
2
370
    25
100
AcDbLine
 10
194.015419
 20
172.30494
 30
0.0
 11
156.013708
 21
172.30494
 31
0.0
  0
LINE
  5
D3
100
AcDbEntity
  8
2
370
    25
100
AcDbLine
 10
198.827583
 20
143.079912
 30
0.0
 11
176.10977
 21
143.079912
 31
0.0
  0
LINE
  5
D4
100
AcDbEntity
  8
2
370
    25
100
AcDbLine
 10
149.898505
 20
140.081398
 30
0.0
 11
201.898505
 21
140.081398
 31
0.0
  0
LINE
  5
D5
100
AcDbEntity
  8
2
370
    25
100
AcDbLine
 10
149.898505
 20
23.581398
 30
0.0
 11
201.898505
 21
23.581398
 31
0.0
  0
LINE
  5
D6
100
AcDbEntity
  8
2
370
    25
100
AcDbLine
 10
200.398505
 20
22.981398
 30
0.0
 11
151.398505
 21
22.981398
 31
0.0
  0
LINE
  5
D7
100
AcDbEntity
  8
2
370
    25
100
AcDbLine
 10
126.500444
 20
99.122085
 30
0.0
 11
111.500444
 21
73.141322
 31
0.0
  0
ARC
  5
D8
100
AcDbEntity
  8
2
370
    25
100
AcDbCircle
 10
120.788951
 20
68.2927
 30
0.0
 40
33.872793
100
AcDbArc
 50
334.896666
 51
30.567732
  0
LINE
  5
D9
100
AcDbEntity
  8
2
370
    50
100
AcDbLine
 10
105.624236
 20
196.404875
 30
0.0
 11
108.582563
 21
202.749029
 31
0.0
  0
LINE
  5
DA
100
AcDbEntity
  8
2
370
    50
100
AcDbLine
 10
105.86608
 20
195.740412
 30
0.0
 11
145.933244
 21
177.056786
 31
0.0
  0
LINE
  5
DB
100
AcDbEntity
  8
2
370
    50
100
AcDbLine
 10
109.247026
 20
202.990874
 30
0.0
 11
156.165621
 21
181.112374
 31
0.0
  0
LINE
  5
DC
100
AcDbEntity
  8
2
370
    50
100
AcDbLine
 10
105.624236
 20
196.404875
 30
0.0
 11
105.86608
 21
195.740412
 31
0.0
  0
LINE
  5
DD
100
AcDbEntity
  8
2
370
    50
100
AcDbLine
 10
108.582563
 20
202.749029
 30
0.0
 11
109.247026
 21
202.990874
 31
0.0
  0
LINE
  5
DE
100
AcDbEntity
  8
2
370
    25
100
AcDbLine
 10
109.247026
 20
202.990874
 30
0.0
 11
105.86608
 21
195.740412
 31
0.0
  0
LINE
  5
DF
100
AcDbEntity
  8
2
370
    50
100
AcDbLine
 10
98.776691
 20
87.901717
 30
0.0
 11
95.916191
 21
82.947185
 31
0.0
  0
LINE
  5
E0
100
AcDbEntity
  8
2
370
    50
100
AcDbLine
 10
95.31259
 20
89.901717
 30
0.0
 11
92.45209
 21
84.947185
 31
0.0
  0
LINE
  5
E1
100
AcDbEntity
  8
2
370
    50
100
AcDbLine
 10
92.635103
 20
84.264173
 30
0.0
 11
95.233179
 21
82.764173
 31
0.0
  0
ARC
  5
E2
100
AcDbEntity
  8
2
370
    50
100
AcDbCircle
 10
95.483179
 20
83.197185
 30
0.0
 40
0.5
100
AcDbArc
 50
240.0
 51
330.0
  0
ARC
  5
E3
100
AcDbEntity
  8
2
370
    50
100
AcDbCircle
 10
92.885103
 20
84.697185
 30
0.0
 40
0.5
100
AcDbArc
 50
150.0
 51
240.0
  0
LINE
  5
E4
100
AcDbEntity
  8
2
370
    50
100
AcDbLine
 10
46.278409
 20
110.797364
 30
0.0
 11
42.82528
 21
112.791029
 31
0.0
  0
LINE
  5
E5
100
AcDbEntity
  8
2
370
    50
100
AcDbLine
 10
57.825244
 20
138.77173
 30
0.0
 11
125.807816
 21
99.521974
 31
0.0
  0
LINE
  5
E6
100
AcDbEntity
  8
2
370
    50
100
AcDbLine
 10
56.459219
 20
138.405704
 30
0.0
 11
42.459219
 21
114.156993
 31
0.0
  0
ARC
  5
E7
100
AcDbEntity
  8
2
370
    50
100
AcDbCircle
 10
43.325244
 20
113.656993
 30
0.0
 40
1.0
100
AcDbArc
 50
150.0
 51
240.0
  0
LINE
  5
E8
100
AcDbEntity
  8
2
370
    50
100
AcDbLine
 10
67.070539
 20
98.79294
 30
0.0
 11
91.842282
 21
84.490967
 31
0.0
  0
LINE
  5
E9
100
AcDbEntity
  8
2
370
    50
100
AcDbLine
 10
95.825999
 20
82.190967
 30
0.0
 11
110.807816
 21
73.541212
 31
0.0
  0
ARC
  5
EA
100
AcDbEntity
  8
2
370
    50
100
AcDbCircle
 10
91.942282
 20
84.664173
 30
0.0
 40
0.2
100
AcDbArc
 50
240.0
 51
330.0
  0
LINE
  5
EB
100
AcDbEntity
  8
2
370
    50
100
AcDbLine
 10
95.225987
 20
89.951717
 30
0.0
 11
92.115487
 21
84.564173
 31
0.0
  0
LINE
  5
EC
100
AcDbEntity
  8
2
370
    50
100
AcDbLine
 10
98.863294
 20
87.851717
 30
0.0
 11
95.752794
 21
82.464173
 31
0.0
  0
ARC
  5
ED
100
AcDbEntity
  8
2
370
    50
100
AcDbCircle
 10
95.925999
 20
82.364173
 30
0.0
 40
0.2
100
AcDbArc
 50
150.0
 51
240.0
  0
ARC
  5
EE
100
AcDbEntity
  8
2
370
    50
100
AcDbCircle
 10
125.557601
 20
99.088588
 30
0.0
 40
0.5
100
AcDbArc
 50
330.0
 51
60.0
  0
ARC
  5
EF
100
AcDbEntity
  8
2
370
    50
100
AcDbCircle
 10
57.325244
 20
137.905704
 30
0.0
 40
1.0
100
AcDbArc
 50
60.0
 51
150.0
  0
ARC
  5
F0
100
AcDbEntity
  8
2
370
    50
100
AcDbCircle
 10
111.057816
 20
73.974224
 30
0.0
 40
0.5
100
AcDbArc
 50
240.0
 51
330.0
  0
LINE
  5
F1
100
AcDbEntity
  8
2
370
    25
  6
CENTER
100
AcDbLine
 10
54.325991
 20
99.710174
 30
0.0
 11
54.303942
 21
99.66289
 31
0.0
  0
LINE
  5
F2
100
AcDbEntity
  8
2
370
    50
100
AcDbLine
 10
95.225987
 20
89.951717
 30
0.0
 11
98.863294
 21
87.851717
 31
0.0
  0
ARC
  5
F3
100
AcDbEntity
  8
2
370
    50
100
AcDbCircle
 10
51.858386
 20
97.409538
 30
0.0
 40
14.504138
100
AcDbArc
 50
60.0
 51
112.626124
  0
ARC
  5
F4
100
AcDbEntity
  8
2
370
    50
100
AcDbCircle
 10
50.851659
 20
95.665836
 30
0.0
 40
16.517592
100
AcDbArc
 50
10.913082
 51
60.0
  0
LINE
  5
F5
100
AcDbEntity
  8
2
370
    50
100
AcDbLine
 10
-157.086101
 20
142.981398
 30
0.0
 11
-160.989002
 21
142.981398
 31
0.0
  0
ARC
  5
F6
100
AcDbEntity
  8
2
370
    50
100
AcDbCircle
 10
-161.551874
 20
142.899059
 30
0.0
 40
1.0
100
AcDbArc
 50
175.27696
 51
179.5
  0
LINE
  5
F7
100
AcDbEntity
  8
2
370
    50
100
AcDbLine
 10
-162.574756
 20
140.281398
 30
0.0
 11
-162.551836
 21
142.907785
 31
0.0
  0
LINE
  5
F8
100
AcDbEntity
  8
2
370
    50
100
AcDbLine
 10
-121.086101
 20
142.981398
 30
0.0
 11
-117.1832
 21
142.981398
 31
0.0
  0
ARC
  5
F9
100
AcDbEntity
  8
2
370
    50
100
AcDbCircle
 10
-116.620328
 20
142.899059
 30
0.0
 40
1.0
100
AcDbArc
 50
0.5
 51
4.72304
  0
LINE
  5
FA
100
AcDbEntity
  8
2
370
    50
100
AcDbLine
 10
-115.597446
 20
140.281398
 30
0.0
 11
-115.620366
 21
142.907785
 31
0.0
  0
ELLIPSE
  5
FB
100
AcDbEntity
  8
2
370
    50
100
AcDbEllipse
 10
-139.086101
 20
125.915354
 30
0.0
 11
15.0
 21
0.0
 31
0.0
210
0.0
220
0.0
230
1.0
 40
0.866023
 41
0.0
 42
6.2831849999999996
  0
ELLIPSE
  5
FC
100
AcDbEntity
  8
2
370
    50
100
AcDbEllipse
 10
-139.086101
 20
104.418777
 30
0.0
 11
11.800000000000001
 21
0.0
 31
0.0
210
0.0
220
0.0
230
1.0
 40
0.50191
 41
6.0572109999999997
 42
3.3675670000000002
  0
ELLIPSE
  5
FD
100
AcDbEntity
  8
2
370
    50
100
AcDbEllipse
 10
-139.086101
 20
94.915323
 30
0.0
 11
15.0
 21
0.0
 31
0.0
210
0.0
220
0.0
230
1.0
 40
0.866025
 41
3.785094
 42
5.6396839999999999
  0
ELLIPSE
  5
FE
100
AcDbEntity
  8
2
370
    50
100
AcDbEllipse
 10
-139.086101
 20
97.015363
 30
0.0
 11
15.0
 21
0.0
 31
0.0
210
0.0
220
0.0
230
1.0
 40
0.866028
 41
3.785094
 42
5.6396839999999999
  0
LINE
  5
FF
100
AcDbEntity
  8
2
370
    50
100
AcDbLine
 10
-151.086101
 20
87.121095
 30
0.0
 11
-151.086101
 21
89.221111
 31
0.0
  0
LINE
  5
100
100
AcDbEntity
  8
2
370
    50
100
AcDbLine
 10
-127.186101
 20
89.106957
 30
0.0
 11
-127.186101
 21
87.344792
 31
0.0
  0
LINE
  5
101
100
AcDbEntity
  8
2
370
    50
100
AcDbLine
 10
-150.986101
 20
89.106957
 30
0.0
 11
-150.986101
 21
87.344792
 31
0.0
  0
ELLIPSE
  5
102
100
AcDbEntity
  8
2
370
    50
100
AcDbEllipse
 10
-139.086101
 20
94.965323
 30
0.0
 11
14.800000000000001
 21
0.0
 31
0.0
210
0.0
220
0.0
230
1.0
 40
0.866025
 41
3.7783060000000002
 42
5.6464720000000002
  0
LINE
  5
103
100
AcDbEntity
  8
2
370
    50
100
AcDbLine
 10
-137.136101
 20
71.053167
 30
0.0
 11
-141.036101
 21
71.053167
 31
0.0
  0
LINE
  5
104
100
AcDbEntity
  8
2
370
    50
100
AcDbLine
 10
-137.136101
 20
73.035603
 30
0.0
 11
-137.136101
 21
71.053167
 31
0.0
  0
LINE
  5
105
100
AcDbEntity
  8
2
370
    50
100
AcDbLine
 10
-141.036101
 20
73.035603
 30
0.0
 11
-141.036101
 21
71.053167
 31
0.0
  0
ELLIPSE
  5
106
100
AcDbEntity
  8
2
370
    50
100
AcDbEllipse
 10
-139.086101
 20
86.281593
 30
0.0
 11
15.0
 21
0.0
 31
0.0
210
0.0
220
0.0
230
1.0
 40
0.866033
 41
4.8494849999999996
 42
0.0
  0
ELLIPSE
  5
107
100
AcDbEntity
  8
2
370
    50
100
AcDbEllipse
 10
-139.086101
 20
86.281593
 30
0.0
 11
15.0
 21
0.0
 31
0.0
210
0.0
220
0.0
230
1.0
 40
0.866033
 41
3.1415929999999999
 42
4.5752930000000003
  0
LINE
  5
108
100
AcDbEntity
  8
2
370
    50
100
AcDbLine
 10
-127.086101
 20
87.121095
 30
0.0
 11
-127.086101
 21
89.221111
 31
0.0
  0
LINE
  5
109
100
AcDbEntity
  8
2
370
    50
100
AcDbLine
 10
150.898505
 20
4.481398
 30
0.0
 11
150.898505
 21
6.481398
 31
0.0
  0
LINE
  5
10A
100
AcDbEntity
  8
2
370
    50
100
AcDbLine
 10
200.898505
 20
4.481398
 30
0.0
 11
200.898505
 21
6.481398
 31
0.0
  0
LINE
  5
10B
100
AcDbEntity
  8
2
370
    50
100
AcDbLine
 10
150.898505
 20
4.981398
 30
0.0
 11
200.898505
 21
4.981398
 31
0.0
  0
LINE
  5
10C
100
AcDbEntity
  8
2
370
    50
100
AcDbLine
 10
200.898505
 20
6.481398
 30
0.0
 11
150.898505
 21
6.481398
 31
0.0
  0
LINE
  5
10D
100
AcDbEntity
  8
2
370
    50
100
AcDbLine
 10
149.898505
 20
4.481398
 30
0.0
 11
201.898505
 21
4.481398
 31
0.0
  0
LINE
  5
10E
100
AcDbEntity
  8
2
370
    50
100
AcDbLine
 10
152.398505
 20
22.781398
 30
0.0
 11
199.398505
 21
22.781398
 31
0.0
  0
LINE
  5
10F
100
AcDbEntity
  8
2
370
    50
100
AcDbLine
 10
199.398505
 20
22.781398
 30
0.0
 11
199.398505
 21
19.781398
 31
0.0
  0
LINE
  5
110
100
AcDbEntity
  8
2
370
    50
100
AcDbLine
 10
152.398505
 20
22.781398
 30
0.0
 11
152.398505
 21
19.781398
 31
0.0
  0
LINE
  5
111
100
AcDbEntity
  8
2
370
    50
100
AcDbLine
 10
193.648505
 20
22.781398
 30
0.0
 11
199.398505
 21
22.781398
 31
0.0
  0
LINE
  5
112
100
AcDbEntity
  8
2
370
    50
100
AcDbLine
 10
152.398505
 20
19.781398
 30
0.0
 11
199.398505
 21
19.781398
 31
0.0
  0
LINE
  5
113
100
AcDbEntity
  8
2
370
    50
100
AcDbLine
 10
193.398505
 20
4.481398
 30
0.0
 11
201.898505
 21
4.481398
 31
0.0
  0
HATCH
  5
114
100
AcDbEntity
  8
2
370
    25
100
AcDbHatch
 10
0.0
 20
0.0
 30
0.0
210
0.0
220
0.0
230
1.0
  2
_U
 70
     0
 71
     1
 91
        1
 92
        1
 93
        4
 72
     1
 10
200.898505
 20
6.4813980000000004
 11
150.898505
 21
6.4813980000000004
 72
     1
 10
150.898505
 20
6.4813980000000004
 11
150.898505
 21
4.9813980000000004
 72
     1
 10
150.898505
 20
4.9813980000000004
 11
200.898505
 21
4.9813980000000004
 72
     1
 10
200.898505
 20
4.9813980000000004
 11
200.898505
 21
6.4813980000000004
 97
        4
330
0
330
0
330
0
330
0
 75
     0
 76
     0
 52
45.0
 41
1.0
 77
     0
 78
     1
 53
45.0
 43
0.0
 44
0.0
 45
-0.282843
 46
0.282843
 79
     0
 98
        1
 10
0.0
 20
0.0
  0
HATCH
  5
115
100
AcDbEntity
  8
2
370
    25
100
AcDbHatch
 10
0.0
 20
0.0
 30
0.0
210
0.0
220
0.0
230
1.0
  2
_U
 70
     0
 71
     1
 91
        1
 92
        1
 93
        6
 72
     1
 10
199.398505
 20
22.781397999999999
 11
199.398505
 21
19.781397999999999
 72
     1
 10
199.398505
 20
19.781397999999999
 11
152.398505
 21
19.781397999999999
 72
     1
 10
152.398505
 20
19.781397999999999
 11
152.398505
 21
22.781397999999999
 72
     1
 10
152.398505
 20
22.781397999999999
 11
199.448656
 21
22.781397999999999
 72
     1
 10
199.448656
 20
22.781397999999999
 11
193.648505
 21
22.781397999999999
 72
     1
 10
193.648505
 20
22.781397999999999
 11
199.398505
 21
22.781397999999999
 97
        6
330
0
330
0
330
0
330
0
330
0
330
0
 75
     0
 76
     0
 52
45.0
 41
1.0
 77
     0
 78
     1
 53
45.0
 43
0.0
 44
0.0
 45
-0.707107
 46
0.707107
 79
     0
 98
        1
 10
0.0
 20
0.0
  0
LINE
  5
116
100
AcDbEntity
  8
2
370
    50
100
AcDbLine
 10
204.590176
 20
4.481398
 30
0.0
 11
147.207136
 21
4.481398
 31
0.0
  0
LINE
  5
117
100
AcDbEntity
  8
2
370
    50
100
AcDbLine
 10
147.207136
 20
-7.555897
 30
0.0
 11
147.207136
 21
4.481398
 31
0.0
  0
LINE
  5
118
100
AcDbEntity
  8
2
370
    50
100
AcDbLine
 10
160.607835
 20
2.274358
 30
0.0
 11
147.207136
 21
2.274358
 31
0.0
  0
LINE
  5
119
100
AcDbEntity
  8
2
370
    50
100
AcDbLine
 10
160.607835
 20
-7.555897
 30
0.0
 11
160.607835
 21
2.274358
 31
0.0
  0
LINE
  5
11A
100
AcDbEntity
  8
2
370
    50
100
AcDbLine
 10
162.519187
 20
-7.555897
 30
0.0
 11
162.519187
 21
2.274358
 31
0.0
  0
LINE
  5
11B
100
AcDbEntity
  8
2
370
    50
100
AcDbLine
 10
189.278125
 20
2.274358
 30
0.0
 11
162.519187
 21
2.274358
 31
0.0
  0
LINE
  5
11C
100
AcDbEntity
  8
2
370
    50
100
AcDbLine
 10
191.189478
 20
-7.555897
 30
0.0
 11
191.189478
 21
2.274358
 31
0.0
  0
LINE
  5
11D
100
AcDbEntity
  8
2
370
    50
100
AcDbLine
 10
189.278125
 20
-7.555897
 30
0.0
 11
189.278125
 21
2.274358
 31
0.0
  0
LINE
  5
11E
100
AcDbEntity
  8
2
370
    50
100
AcDbLine
 10
204.590176
 20
2.274358
 30
0.0
 11
191.189478
 21
2.274358
 31
0.0
  0
LINE
  5
11F
100
AcDbEntity
  8
2
370
    50
100
AcDbLine
 10
204.590176
 20
-7.555897
 30
0.0
 11
204.590176
 21
4.481398
 31
0.0
  0
ARC
  5
120
100
AcDbEntity
  8
2
370
    50
100
AcDbCircle
 10
197.889827
 20
10.470974
 30
0.0
 40
19.231816
100
AcDbArc
 50
249.610566
 51
290.389434
  0
ARC
  5
121
100
AcDbEntity
  8
2
370
    50
100
AcDbCircle
 10
175.898656
 20
66.123089
 30
0.0
 40
74.883932
100
AcDbArc
 50
259.707733
 51
280.292267
  0
LINE
  5
122
100
AcDbEntity
  8
2
370
    50
100
AcDbLine
 10
191.189478
 20
-7.555897
 30
0.0
 11
189.278125
 21
-7.555897
 31
0.0
  0
LINE
  5
123
100
AcDbEntity
  8
2
370
    50
100
AcDbLine
 10
162.519187
 20
-7.555897
 30
0.0
 11
160.607835
 21
-7.555897
 31
0.0
  0
ARC
  5
124
100
AcDbEntity
  8
2
370
    50
100
AcDbCircle
 10
175.898656
 20
66.123089
 30
0.0
 40
74.883932
100
AcDbArc
 50
259.707733
 51
280.292267
  0
ARC
  5
125
100
AcDbEntity
  8
2
370
    50
100
AcDbCircle
 10
153.907486
 20
10.470974
 30
0.0
 40
19.231816
100
AcDbArc
 50
249.610566
 51
290.389434
  0
LINE
  5
126
100
AcDbEntity
  8
2
370
    50
100
AcDbLine
 10
201.279616
 20
-8.760842
 30
0.0
 11
150.517696
 21
-8.760842
 31
0.0
  0
LINE
  5
127
100
AcDbEntity
  8
2
370
    50
100
AcDbLine
 10
150.517696
 20
-8.760842
 30
0.0
 11
147.207136
 21
-7.555897
 31
0.0
  0
LINE
  5
128
100
AcDbEntity
  8
2
370
    50
100
AcDbLine
 10
201.279616
 20
-8.760842
 30
0.0
 11
204.590176
 21
-7.555897
 31
0.0
  0
LINE
  5
129
100
AcDbEntity
  8
2
370
    50
100
AcDbLine
 10
193.398505
 20
-18.924602
 30
0.0
 11
193.398505
 21
-8.760842
 31
0.0
  0
LINE
  5
12A
100
AcDbEntity
  8
2
370
    50
100
AcDbLine
 10
193.398505
 20
6.481398
 30
0.0
 11
193.398505
 21
19.781398
 31
0.0
  0
LINE
  5
12B
100
AcDbEntity
  8
2
370
    25
100
AcDbLine
 10
192.604755
 20
-19.718352
 30
0.0
 11
192.604755
 21
-8.760842
 31
0.0
  0
LINE
  5
12C
100
AcDbEntity
  8
2
370
    25
100
AcDbLine
 10
192.604755
 20
6.481398
 30
0.0
 11
192.604755
 21
19.781398
 31
0.0
  0
LINE
  5
12D
100
AcDbEntity
  8
2
370
    25
100
AcDbLine
 10
159.192255
 20
-19.718352
 30
0.0
 11
159.192255
 21
-8.760842
 31
0.0
  0
LINE
  5
12E
100
AcDbEntity
  8
2
370
    25
100
AcDbLine
 10
159.192255
 20
6.481398
 30
0.0
 11
159.192255
 21
19.781398
 31
0.0
  0
LINE
  5
12F
100
AcDbEntity
  8
2
370
    50
100
AcDbLine
 10
158.398505
 20
-18.924602
 30
0.0
 11
158.398505
 21
-8.760842
 31
0.0
  0
LINE
  5
130
100
AcDbEntity
  8
2
370
    50
100
AcDbLine
 10
158.398505
 20
6.481398
 30
0.0
 11
158.398505
 21
19.781398
 31
0.0
  0
LINE
  5
131
100
AcDbEntity
  8
2
370
    25
100
AcDbLine
 10
158.398505
 20
-18.924602
 30
0.0
 11
193.398505
 21
-18.924602
 31
0.0
  0
LINE
  5
132
100
AcDbEntity
  8
2
370
    25
  6
CENTER
100
AcDbLine
 10
267.776259
 20
14.705917
 30
0.0
 11
267.776259
 21
-14.814289
 31
0.0
  0
ARC
  5
133
100
AcDbEntity
  8
2
370
    50
100
AcDbCircle
 10
184.398505
 20
-34.112829
 30
0.0
 40
3.333333
100
AcDbArc
 50
233.130102
 51
306.869898
  0
ARC
  5
134
100
AcDbEntity
  8
2
370
    50
100
AcDbCircle
 10
188.398505
 20
-39.446162
 30
0.0
 40
3.333333
100
AcDbArc
 50
53.130102
 51
126.869898
  0
ARC
  5
135
100
AcDbEntity
  8
2
370
    50
100
AcDbCircle
 10
184.398505
 20
-39.446162
 30
0.0
 40
3.333333
100
AcDbArc
 50
53.130102
 51
126.869898
  0
ARC
  5
136
100
AcDbEntity
  8
2
370
    50
100
AcDbCircle
 10
265.776259
 20
-5.820001
 30
0.0
 40
3.333333
100
AcDbArc
 50
233.130102
 51
306.869898
  0
ARC
  5
137
100
AcDbEntity
  8
2
370
    50
100
AcDbCircle
 10
269.776259
 20
-11.153334
 30
0.0
 40
3.333333
100
AcDbArc
 50
53.130102
 51
126.869898
  0
ARC
  5
138
100
AcDbEntity
  8
2
370
    50
100
AcDbCircle
 10
269.776259
 20
-5.820001
 30
0.0
 40
3.333333
100
AcDbArc
 50
233.130102
 51
306.869898
  0
LINE
  5
139
100
AcDbEntity
  8
2
370
    50
100
AcDbLine
 10
164.398505
 20
-66.913037
 30
0.0
 11
164.398505
 21
-64.276884
 31
0.0
  0
ARC
  5
13A
100
AcDbEntity
  8
2
370
    50
100
AcDbCircle
 10
164.598505
 20
-64.276884
 30
0.0
 40
0.2
100
AcDbArc
 50
99.5
 51
180.0
  0
LINE
  5
13B
100
AcDbEntity
  8
2
370
    50
100
AcDbLine
 10
165.198505
 20
-63.973318
 30
0.0
 11
165.198505
 21
-62.959413
 31
0.0
  0
LINE
  5
13C
100
AcDbEntity
  8
2
370
    50
100
AcDbLine
 10
178.16549
 20
-61.803389
 30
0.0
 11
164.565493
 21
-64.079646
 31
0.0
  0
LINE
  5
13D
100
AcDbEntity
  8
2
370
    50
100
AcDbLine
 10
164.398505
 20
-62.857037
 30
0.0
 11
164.398505
 21
-60.220884
 31
0.0
  0
ARC
  5
13E
100
AcDbEntity
  8
2
370
    50
100
AcDbCircle
 10
164.598505
 20
-60.220884
 30
0.0
 40
0.2
100
AcDbArc
 50
99.5
 51
180.0
  0
LINE
  5
13F
100
AcDbEntity
  8
2
370
    50
100
AcDbLine
 10
164.631515
 20
-63.054295
 30
0.0
 11
178.231515
 21
-60.778435
 31
0.0
  0
ARC
  5
140
100
AcDbEntity
  8
2
370
    50
100
AcDbCircle
 10
164.598505
 20
-62.857037
 30
0.0
 40
0.2
100
AcDbArc
 50
180.0
 51
279.5
  0
LINE
  5
141
100
AcDbEntity
  8
2
370
    50
100
AcDbLine
 10
165.198505
 20
-59.917318
 30
0.0
 11
165.198505
 21
-58.903413
 31
0.0
  0
LINE
  5
142
100
AcDbEntity
  8
2
370
    50
100
AcDbLine
 10
178.16549
 20
-57.747389
 30
0.0
 11
164.565493
 21
-60.023646
 31
0.0
  0
LINE
  5
143
100
AcDbEntity
  8
2
370
    50
100
AcDbLine
 10
164.398505
 20
-58.801037
 30
0.0
 11
164.398505
 21
-56.164884
 31
0.0
  0
ARC
  5
144
100
AcDbEntity
  8
2
370
    50
100
AcDbCircle
 10
164.598505
 20
-56.164884
 30
0.0
 40
0.2
100
AcDbArc
 50
99.5
 51
180.0
  0
LINE
  5
145
100
AcDbEntity
  8
2
370
    50
100
AcDbLine
 10
164.631515
 20
-58.998295
 30
0.0
 11
178.231515
 21
-56.722435
 31
0.0
  0
ARC
  5
146
100
AcDbEntity
  8
2
370
    50
100
AcDbCircle
 10
164.598505
 20
-58.801037
 30
0.0
 40
0.2
100
AcDbArc
 50
180.0
 51
279.5
  0
LINE
  5
147
100
AcDbEntity
  8
2
370
    50
100
AcDbLine
 10
165.198505
 20
-55.861318
 30
0.0
 11
165.198505
 21
-54.847413
 31
0.0
  0
LINE
  5
148
100
AcDbEntity
  8
2
370
    50
100
AcDbLine
 10
178.16549
 20
-53.691389
 30
0.0
 11
164.565493
 21
-55.967646
 31
0.0
  0
LINE
  5
149
100
AcDbEntity
  8
2
370
    50
100
AcDbLine
 10
164.398505
 20
-54.745037
 30
0.0
 11
164.398505
 21
-52.108884
 31
0.0
  0
ARC
  5
14A
100
AcDbEntity
  8
2
370
    50
100
AcDbCircle
 10
164.598505
 20
-52.108884
 30
0.0
 40
0.2
100
AcDbArc
 50
99.5
 51
180.0
  0
LINE
  5
14B
100
AcDbEntity
  8
2
370
    50
100
AcDbLine
 10
164.631515
 20
-54.942295
 30
0.0
 11
178.231515
 21
-52.666435
 31
0.0
  0
ARC
  5
14C
100
AcDbEntity
  8
2
370
    50
100
AcDbCircle
 10
164.598505
 20
-54.745037
 30
0.0
 40
0.2
100
AcDbArc
 50
180.0
 51
279.5
  0
LINE
  5
14D
100
AcDbEntity
  8
2
370
    50
100
AcDbLine
 10
165.198505
 20
-51.805318
 30
0.0
 11
165.198505
 21
-50.791413
 31
0.0
  0
LINE
  5
14E
100
AcDbEntity
  8
2
370
    50
100
AcDbLine
 10
178.16549
 20
-49.635389
 30
0.0
 11
164.565493
 21
-51.911646
 31
0.0
  0
LINE
  5
14F
100
AcDbEntity
  8
2
370
    50
100
AcDbLine
 10
164.398505
 20
-50.689037
 30
0.0
 11
164.398505
 21
-48.052884
 31
0.0
  0
ARC
  5
150
100
AcDbEntity
  8
2
370
    50
100
AcDbCircle
 10
164.598505
 20
-48.052884
 30
0.0
 40
0.2
100
AcDbArc
 50
99.5
 51
180.0
  0
LINE
  5
151
100
AcDbEntity
  8
2
370
    50
100
AcDbLine
 10
164.631515
 20
-50.886295
 30
0.0
 11
178.231515
 21
-48.610435
 31
0.0
  0
ARC
  5
152
100
AcDbEntity
  8
2
370
    50
100
AcDbCircle
 10
164.598505
 20
-50.689037
 30
0.0
 40
0.2
100
AcDbArc
 50
180.0
 51
279.5
  0
LINE
  5
153
100
AcDbEntity
  8
2
370
    50
100
AcDbLine
 10
165.198505
 20
-47.749318
 30
0.0
 11
165.198505
 21
-46.735413
 31
0.0
  0
LINE
  5
154
100
AcDbEntity
  8
2
370
    50
100
AcDbLine
 10
178.16549
 20
-45.579389
 30
0.0
 11
164.565493
 21
-47.855646
 31
0.0
  0
LINE
  5
155
100
AcDbEntity
  8
2
370
    50
100
AcDbLine
 10
164.398505
 20
-46.633037
 30
0.0
 11
164.398505
 21
-43.996884
 31
0.0
  0
ARC
  5
156
100
AcDbEntity
  8
2
370
    50
100
AcDbCircle
 10
164.598505
 20
-43.996884
 30
0.0
 40
0.2
100
AcDbArc
 50
99.5
 51
180.0
  0
LINE
  5
157
100
AcDbEntity
  8
2
370
    50
100
AcDbLine
 10
164.631515
 20
-46.830295
 30
0.0
 11
178.231515
 21
-44.554435
 31
0.0
  0
ARC
  5
158
100
AcDbEntity
  8
2
370
    50
100
AcDbCircle
 10
164.598505
 20
-46.633037
 30
0.0
 40
0.2
100
AcDbArc
 50
180.0
 51
279.5
  0
LINE
  5
159
100
AcDbEntity
  8
2
370
    50
100
AcDbLine
 10
165.198505
 20
-43.693318
 30
0.0
 11
165.198505
 21
-42.679413
 31
0.0
  0
LINE
  5
15A
100
AcDbEntity
  8
2
370
    50
100
AcDbLine
 10
178.16549
 20
-41.523389
 30
0.0
 11
164.565493
 21
-43.799646
 31
0.0
  0
LINE
  5
15B
100
AcDbEntity
  8
2
370
    50
100
AcDbLine
 10
164.398505
 20
-42.577037
 30
0.0
 11
164.398505
 21
-39.940884
 31
0.0
  0
ARC
  5
15C
100
AcDbEntity
  8
2
370
    50
100
AcDbCircle
 10
164.598505
 20
-39.940884
 30
0.0
 40
0.2
100
AcDbArc
 50
99.5
 51
180.0
  0
LINE
  5
15D
100
AcDbEntity
  8
2
370
    50
100
AcDbLine
 10
164.631515
 20
-42.774295
 30
0.0
 11
178.231515
 21
-40.498435
 31
0.0
  0
ARC
  5
15E
100
AcDbEntity
  8
2
370
    50
100
AcDbCircle
 10
164.598505
 20
-42.577037
 30
0.0
 40
0.2
100
AcDbArc
 50
180.0
 51
279.5
  0
LINE
  5
15F
100
AcDbEntity
  8
2
370
    50
100
AcDbLine
 10
165.198505
 20
-39.637318
 30
0.0
 11
165.198505
 21
-38.623413
 31
0.0
  0
LINE
  5
160
100
AcDbEntity
  8
2
370
    50
100
AcDbLine
 10
178.16549
 20
-37.467389
 30
0.0
 11
164.565493
 21
-39.743646
 31
0.0
  0
LINE
  5
161
100
AcDbEntity
  8
2
370
    50
100
AcDbLine
 10
164.398505
 20
-38.521037
 30
0.0
 11
164.398505
 21
-35.884884
 31
0.0
  0
ARC
  5
162
100
AcDbEntity
  8
2
370
    50
100
AcDbCircle
 10
164.598505
 20
-35.884884
 30
0.0
 40
0.2
100
AcDbArc
 50
99.5
 51
180.0
  0
LINE
  5
163
100
AcDbEntity
  8
2
370
    50
100
AcDbLine
 10
164.631515
 20
-38.718295
 30
0.0
 11
178.231515
 21
-36.442435
 31
0.0
  0
ARC
  5
164
100
AcDbEntity
  8
2
370
    50
100
AcDbCircle
 10
164.598505
 20
-38.521037
 30
0.0
 40
0.2
100
AcDbArc
 50
180.0
 51
279.5
  0
LINE
  5
165
100
AcDbEntity
  8
2
370
    50
100
AcDbLine
 10
165.198505
 20
-35.581318
 30
0.0
 11
165.198505
 21
-34.567413
 31
0.0
  0
LINE
  5
166
100
AcDbEntity
  8
2
370
    50
100
AcDbLine
 10
178.16549
 20
-33.411389
 30
0.0
 11
164.565493
 21
-35.687646
 31
0.0
  0
LINE
  5
167
100
AcDbEntity
  8
2
370
    50
100
AcDbLine
 10
164.631515
 20
-34.662295
 30
0.0
 11
178.231515
 21
-32.386435
 31
0.0
  0
LINE
  5
168
100
AcDbEntity
  8
2
370
    50
100
AcDbLine
 10
164.398505
 20
-34.465037
 30
0.0
 11
164.398505
 21
-31.828884
 31
0.0
  0
ARC
  5
169
100
AcDbEntity
  8
2
370
    50
100
AcDbCircle
 10
164.598505
 20
-34.465037
 30
0.0
 40
0.2
100
AcDbArc
 50
180.0
 51
279.5
  0
LINE
  5
16A
100
AcDbEntity
  8
2
370
    50
100
AcDbLine
 10
178.16549
 20
-29.355389
 30
0.0
 11
164.565493
 21
-31.631646
 31
0.0
  0
ARC
  5
16B
100
AcDbEntity
  8
2
370
    50
100
AcDbCircle
 10
164.598505
 20
-31.828884
 30
0.0
 40
0.2
100
AcDbArc
 50
99.5
 51
180.0
  0
LINE
  5
16C
100
AcDbEntity
  8
2
370
    50
100
AcDbLine
 10
165.198505
 20
-31.525318
 30
0.0
 11
165.198505
 21
-30.511413
 31
0.0
  0
LINE
  5
16D
100
AcDbEntity
  8
2
370
    50
100
AcDbLine
 10
165.198505
 20
-27.469318
 30
0.0
 11
165.198505
 21
-26.455413
 31
0.0
  0
ARC
  5
16E
100
AcDbEntity
  8
2
370
    50
100
AcDbCircle
 10
164.598505
 20
-27.772884
 30
0.0
 40
0.2
100
AcDbArc
 50
99.5
 51
180.0
  0
LINE
  5
16F
100
AcDbEntity
  8
2
370
    50
100
AcDbLine
 10
164.398505
 20
-30.409037
 30
0.0
 11
164.398505
 21
-27.772884
 31
0.0
  0
ARC
  5
170
100
AcDbEntity
  8
2
370
    50
100
AcDbCircle
 10
164.598505
 20
-30.409037
 30
0.0
 40
0.2
100
AcDbArc
 50
180.0
 51
279.5
  0
LINE
  5
171
100
AcDbEntity
  8
2
370
    50
100
AcDbLine
 10
164.631515
 20
-30.606295
 30
0.0
 11
178.231515
 21
-28.330435
 31
0.0
  0
LINE
  5
172
100
AcDbEntity
  8
2
370
    50
100
AcDbLine
 10
164.398505
 20
-26.353037
 30
0.0
 11
164.398505
 21
-23.716884
 31
0.0
  0
ARC
  5
173
100
AcDbEntity
  8
2
370
    50
100
AcDbCircle
 10
164.598505
 20
-26.353037
 30
0.0
 40
0.2
100
AcDbArc
 50
180.0
 51
279.5
  0
ARC
  5
174
100
AcDbEntity
  8
2
370
    50
100
AcDbCircle
 10
164.598505
 20
-23.716884
 30
0.0
 40
0.2
100
AcDbArc
 50
99.5
 51
180.0
  0
LINE
  5
175
100
AcDbEntity
  8
2
370
    50
100
AcDbLine
 10
165.198505
 20
-23.413318
 30
0.0
 11
165.198505
 21
-22.399413
 31
0.0
  0
LINE
  5
176
100
AcDbEntity
  8
2
370
    50
100
AcDbLine
 10
178.16549
 20
-25.299389
 30
0.0
 11
164.565493
 21
-27.575646
 31
0.0
  0
LINE
  5
177
100
AcDbEntity
  8
2
370
    50
100
AcDbLine
 10
164.631515
 20
-26.550295
 30
0.0
 11
178.231515
 21
-24.274435
 31
0.0
  0
LINE
  5
178
100
AcDbEntity
  8
2
370
    50
100
AcDbLine
 10
164.565493
 20
-23.519646
 30
0.0
 11
178.16549
 21
-21.243389
 31
0.0
  0
ARC
  5
179
100
AcDbEntity
  8
2
370
    50
100
AcDbCircle
 10
164.598505
 20
-22.297037
 30
0.0
 40
0.2
100
AcDbArc
 50
180.0
 51
279.5
  0
LINE
  5
17A
100
AcDbEntity
  8
2
370
    50
100
AcDbLine
 10
164.631515
 20
-22.494295
 30
0.0
 11
178.231515
 21
-20.218435
 31
0.0
  0
LINE
  5
17B
100
AcDbEntity
  8
2
370
    50
100
AcDbLine
 10
164.398505
 20
-66.913037
 30
0.0
 11
164.398505
 21
-74.634125
 31
0.0
  0
LINE
  5
17C
100
AcDbEntity
  8
2
370
    50
100
AcDbLine
 10
164.398505
 20
-22.353037
 30
0.0
 11
164.398505
 21
-19.718602
 31
0.0
  0
LINE
  5
17D
100
AcDbEntity
  8
2
370
    50
100
AcDbLine
 10
178.398505
 20
-60.581178
 30
0.0
 11
178.398505
 21
-57.944645
 31
0.0
  0
LINE
  5
17E
100
AcDbEntity
  8
2
370
    50
100
AcDbLine
 10
178.398505
 20
-56.525178
 30
0.0
 11
178.398505
 21
-53.888645
 31
0.0
  0
LINE
  5
17F
100
AcDbEntity
  8
2
370
    50
100
AcDbLine
 10
178.398505
 20
-52.469178
 30
0.0
 11
178.398505
 21
-49.832645
 31
0.0
  0
LINE
  5
180
100
AcDbEntity
  8
2
370
    50
100
AcDbLine
 10
178.398505
 20
-48.413178
 30
0.0
 11
178.398505
 21
-45.776645
 31
0.0
  0
LINE
  5
181
100
AcDbEntity
  8
2
370
    50
100
AcDbLine
 10
178.398505
 20
-44.357178
 30
0.0
 11
178.398505
 21
-41.720645
 31
0.0
  0
LINE
  5
182
100
AcDbEntity
  8
2
370
    50
100
AcDbLine
 10
178.398505
 20
-40.301178
 30
0.0
 11
178.398505
 21
-37.664645
 31
0.0
  0
LINE
  5
183
100
AcDbEntity
  8
2
370
    50
100
AcDbLine
 10
178.398505
 20
-36.245178
 30
0.0
 11
178.398505
 21
-33.608645
 31
0.0
  0
LINE
  5
184
100
AcDbEntity
  8
2
370
    50
100
AcDbLine
 10
178.398505
 20
-32.189178
 30
0.0
 11
178.398505
 21
-29.552645
 31
0.0
  0
LINE
  5
185
100
AcDbEntity
  8
2
370
    50
100
AcDbLine
 10
178.398505
 20
-28.133178
 30
0.0
 11
178.398505
 21
-25.496645
 31
0.0
  0
LINE
  5
186
100
AcDbEntity
  8
2
370
    50
100
AcDbLine
 10
178.398505
 20
-24.077178
 30
0.0
 11
178.398505
 21
-21.440645
 31
0.0
  0
LINE
  5
187
100
AcDbEntity
  8
2
370
    50
100
AcDbLine
 10
178.398505
 20
-20.021178
 30
0.0
 11
178.398505
 21
-19.718602
 31
0.0
  0
LINE
  5
188
100
AcDbEntity
  8
2
370
    50
100
AcDbLine
 10
177.598505
 20
-21.338286
 30
0.0
 11
177.598505
 21
-20.324365
 31
0.0
  0
LINE
  5
189
100
AcDbEntity
  8
2
370
    50
100
AcDbLine
 10
177.598505
 20
-25.394286
 30
0.0
 11
177.598505
 21
-24.380365
 31
0.0
  0
LINE
  5
18A
100
AcDbEntity
  8
2
370
    50
100
AcDbLine
 10
177.598505
 20
-29.450286
 30
0.0
 11
177.598505
 21
-28.436365
 31
0.0
  0
LINE
  5
18B
100
AcDbEntity
  8
2
370
    50
100
AcDbLine
 10
177.598505
 20
-33.506286
 30
0.0
 11
177.598505
 21
-32.492365
 31
0.0
  0
LINE
  5
18C
100
AcDbEntity
  8
2
370
    50
100
AcDbLine
 10
177.598505
 20
-37.562286
 30
0.0
 11
177.598505
 21
-36.548365
 31
0.0
  0
LINE
  5
18D
100
AcDbEntity
  8
2
370
    50
100
AcDbLine
 10
177.598505
 20
-41.618286
 30
0.0
 11
177.598505
 21
-40.604365
 31
0.0
  0
LINE
  5
18E
100
AcDbEntity
  8
2
370
    50
100
AcDbLine
 10
177.598505
 20
-45.674286
 30
0.0
 11
177.598505
 21
-44.660365
 31
0.0
  0
LINE
  5
18F
100
AcDbEntity
  8
2
370
    50
100
AcDbLine
 10
177.598505
 20
-49.730286
 30
0.0
 11
177.598505
 21
-48.716365
 31
0.0
  0
LINE
  5
190
100
AcDbEntity
  8
2
370
    50
100
AcDbLine
 10
177.598505
 20
-53.786286
 30
0.0
 11
177.598505
 21
-52.772365
 31
0.0
  0
LINE
  5
191
100
AcDbEntity
  8
2
370
    50
100
AcDbLine
 10
177.598505
 20
-61.898286
 30
0.0
 11
177.598505
 21
-60.884365
 31
0.0
  0
LINE
  5
192
100
AcDbEntity
  8
2
370
    50
100
AcDbLine
 10
177.598505
 20
-57.842286
 30
0.0
 11
177.598505
 21
-56.828365
 31
0.0
  0
ARC
  5
193
100
AcDbEntity
  8
2
370
    50
100
AcDbCircle
 10
178.198505
 20
-20.021178
 30
0.0
 40
0.2
100
AcDbArc
 50
279.5
 51
360.0
  0
ARC
  5
194
100
AcDbEntity
  8
2
370
    50
100
AcDbCircle
 10
178.198505
 20
-21.440645
 30
0.0
 40
0.2
100
AcDbArc
 50
0.0
 51
99.501632
  0
ARC
  5
195
100
AcDbEntity
  8
2
370
    50
100
AcDbCircle
 10
178.198505
 20
-24.077178
 30
0.0
 40
0.2
100
AcDbArc
 50
279.5
 51
360.0
  0
ARC
  5
196
100
AcDbEntity
  8
2
370
    50
100
AcDbCircle
 10
178.198505
 20
-25.496645
 30
0.0
 40
0.2
100
AcDbArc
 50
360.0
 51
99.501632
  0
ARC
  5
197
100
AcDbEntity
  8
2
370
    50
100
AcDbCircle
 10
178.198505
 20
-28.133178
 30
0.0
 40
0.2
100
AcDbArc
 50
279.5
 51
0.0
  0
ARC
  5
198
100
AcDbEntity
  8
2
370
    50
100
AcDbCircle
 10
178.198505
 20
-29.552645
 30
0.0
 40
0.2
100
AcDbArc
 50
0.0
 51
99.501632
  0
ARC
  5
199
100
AcDbEntity
  8
2
370
    50
100
AcDbCircle
 10
178.198505
 20
-32.189178
 30
0.0
 40
0.2
100
AcDbArc
 50
279.5
 51
360.0
  0
ARC
  5
19A
100
AcDbEntity
  8
2
370
    50
100
AcDbCircle
 10
178.198505
 20
-33.608645
 30
0.0
 40
0.2
100
AcDbArc
 50
0.0
 51
99.501632
  0
ARC
  5
19B
100
AcDbEntity
  8
2
370
    50
100
AcDbCircle
 10
178.198505
 20
-36.245178
 30
0.0
 40
0.2
100
AcDbArc
 50
279.5
 51
360.0
  0
ARC
  5
19C
100
AcDbEntity
  8
2
370
    50
100
AcDbCircle
 10
178.198505
 20
-37.664645
 30
0.0
 40
0.2
100
AcDbArc
 50
360.0
 51
99.501632
  0
ARC
  5
19D
100
AcDbEntity
  8
2
370
    50
100
AcDbCircle
 10
178.198505
 20
-40.301178
 30
0.0
 40
0.2
100
AcDbArc
 50
279.5
 51
360.0
  0
ARC
  5
19E
100
AcDbEntity
  8
2
370
    50
100
AcDbCircle
 10
178.198505
 20
-41.720645
 30
0.0
 40
0.2
100
AcDbArc
 50
360.0
 51
99.501632
  0
ARC
  5
19F
100
AcDbEntity
  8
2
370
    50
100
AcDbCircle
 10
178.198505
 20
-44.357178
 30
0.0
 40
0.2
100
AcDbArc
 50
279.5
 51
0.0
  0
ARC
  5
1A0
100
AcDbEntity
  8
2
370
    50
100
AcDbCircle
 10
178.198505
 20
-45.776645
 30
0.0
 40
0.2
100
AcDbArc
 50
0.0
 51
99.501632
  0
ARC
  5
1A1
100
AcDbEntity
  8
2
370
    50
100
AcDbCircle
 10
178.198505
 20
-48.413178
 30
0.0
 40
0.2
100
AcDbArc
 50
279.5
 51
360.0
  0
ARC
  5
1A2
100
AcDbEntity
  8
2
370
    50
100
AcDbCircle
 10
178.198505
 20
-49.832645
 30
0.0
 40
0.2
100
AcDbArc
 50
0.0
 51
99.501632
  0
ARC
  5
1A3
100
AcDbEntity
  8
2
370
    50
100
AcDbCircle
 10
178.198505
 20
-52.469178
 30
0.0
 40
0.2
100
AcDbArc
 50
279.5
 51
360.0
  0
ARC
  5
1A4
100
AcDbEntity
  8
2
370
    50
100
AcDbCircle
 10
178.198505
 20
-53.888645
 30
0.0
 40
0.2
100
AcDbArc
 50
0.0
 51
99.501632
  0
ARC
  5
1A5
100
AcDbEntity
  8
2
370
    50
100
AcDbCircle
 10
178.198505
 20
-56.525178
 30
0.0
 40
0.2
100
AcDbArc
 50
279.5
 51
360.0
  0
ARC
  5
1A6
100
AcDbEntity
  8
2
370
    50
100
AcDbCircle
 10
178.198505
 20
-57.944645
 30
0.0
 40
0.2
100
AcDbArc
 50
0.0
 51
99.501632
  0
ARC
  5
1A7
100
AcDbEntity
  8
2
370
    50
100
AcDbCircle
 10
178.198505
 20
-60.581178
 30
0.0
 40
0.2
100
AcDbArc
 50
279.5
 51
360.0
  0
ARC
  5
1A8
100
AcDbEntity
  8
2
370
    50
100
AcDbCircle
 10
178.198505
 20
-62.000645
 30
0.0
 40
0.2
100
AcDbArc
 50
0.0
 51
99.501632
  0
LINE
  5
1A9
100
AcDbEntity
  8
2
370
    50
100
AcDbLine
 10
178.398505
 20
-74.743309
 30
0.0
 11
178.398505
 21
-65.474998
 31
0.0
  0
LINE
  5
1AA
100
AcDbEntity
  8
2
370
    50
100
AcDbLine
 10
178.398505
 20
-65.474998
 30
0.0
 11
178.398505
 21
-62.000645
 31
0.0
  0
LINE
  5
1AB
100
AcDbEntity
  8
2
370
    50
100
AcDbLine
 10
-115.586101
 20
19.781506
 30
0.0
 11
-162.586101
 21
19.781506
 31
0.0
  0
LINE
  5
1AC
100
AcDbEntity
  8
2
370
    50
100
AcDbLine
 10
-115.586101
 20
22.781506
 30
0.0
 11
-115.586101
 21
19.781506
 31
0.0
  0
LINE
  5
1AD
100
AcDbEntity
  8
2
370
    50
100
AcDbLine
 10
-162.586101
 20
22.781506
 30
0.0
 11
-162.586101
 21
19.781506
 31
0.0
  0
HATCH
  5
1AE
100
AcDbEntity
  8
2
370
    25
100
AcDbHatch
 10
0.0
 20
0.0
 30
0.0
210
0.0
220
0.0
230
1.0
  2
_U
 70
     0
 71
     1
 91
        1
 92
        1
 93
        4
 72
     1
 10
-115.586101
 20
19.781506
 11
-162.58610100000001
 21
19.781506
 72
     1
 10
-162.58610100000001
 20
19.781506
 11
-162.58610100000001
 21
22.781506
 72
     1
 10
-162.58610100000001
 20
22.781506
 11
-115.586101
 21
22.781506
 72
     1
 10
-115.586101
 20
22.781506
 11
-115.586101
 21
19.781506
 97
        4
330
0
330
0
330
0
330
0
 75
     0
 76
     0
 52
45.0
 41
1.0
 77
     0
 78
     1
 53
45.0
 43
0.0
 44
0.0
 45
-0.707107
 46
0.707107
 79
     0
 98
        1
 10
0.0
 20
0.0
  0
LINE
  5
1AF
100
AcDbEntity
  8
2
370
    50
100
AcDbLine
 10
-164.138101
 20
6.481506
 30
0.0
 11
-164.138101
 21
4.481506
 31
0.0
  0
LINE
  5
1B0
100
AcDbEntity
  8
2
370
    50
100
AcDbLine
 10
-114.138101
 20
6.481506
 30
0.0
 11
-114.138101
 21
4.481506
 31
0.0
  0
LINE
  5
1B1
100
AcDbEntity
  8
2
370
    50
100
AcDbLine
 10
-114.138101
 20
6.481506
 30
0.0
 11
-164.138101
 21
6.481506
 31
0.0
  0
LINE
  5
1B2
100
AcDbEntity
  8
2
370
    50
100
AcDbLine
 10
-164.138101
 20
4.981506
 30
0.0
 11
-114.138101
 21
4.981506
 31
0.0
  0
HATCH
  5
1B3
100
AcDbEntity
  8
2
370
    25
100
AcDbHatch
 10
0.0
 20
0.0
 30
0.0
210
0.0
220
0.0
230
1.0
  2
_U
 70
     0
 71
     1
 91
        1
 92
        1
 93
        4
 72
     1
 10
-114.13810100000001
 20
6.4815060000000004
 11
-164.13810100000001
 21
6.4815060000000004
 72
     1
 10
-164.13810100000001
 20
6.4815060000000004
 11
-164.13810100000001
 21
4.9815060000000004
 72
     1
 10
-164.13810100000001
 20
4.9815060000000004
 11
-114.13810100000001
 21
4.9815060000000004
 72
     1
 10
-114.13810100000001
 20
4.9815060000000004
 11
-114.13810100000001
 21
6.4815060000000004
 97
        4
330
0
330
0
330
0
330
0
 75
     0
 76
     0
 52
45.0
 41
1.0
 77
     0
 78
     1
 53
45.0
 43
0.0
 44
0.0
 45
-0.282843
 46
0.282843
 79
     0
 98
        1
 10
0.0
 20
0.0
  0
LINE
  5
1B4
100
AcDbEntity
  8
2
370
    50
100
AcDbLine
 10
-162.586101
 20
22.781506
 30
0.0
 11
-115.586101
 21
22.781506
 31
0.0
  0
LINE
  5
1B5
100
AcDbEntity
  8
2
370
    50
100
AcDbLine
 10
-113.138769
 20
4.481506
 30
0.0
 11
-165.138769
 21
4.481506
 31
0.0
  0
LINE
  5
1B6
100
AcDbEntity
  8
2
370
    50
100
AcDbLine
 10
-116.138769
 20
-7.518494
 30
0.0
 11
-162.138769
 21
-7.518494
 31
0.0
  0
LINE
  5
1B7
100
AcDbEntity
  8
2
370
    50
100
AcDbLine
 10
-165.138769
 20
2.481506
 30
0.0
 11
-165.138769
 21
4.481506
 31
0.0
  0
LINE
  5
1B8
100
AcDbEntity
  8
2
370
    50
100
AcDbLine
 10
-113.138769
 20
2.481506
 30
0.0
 11
-113.138769
 21
4.481506
 31
0.0
  0
LINE
  5
1B9
100
AcDbEntity
  8
2
370
    50
100
AcDbLine
 10
-162.138769
 20
-7.518494
 30
0.0
 11
-162.138769
 21
0.481506
 31
0.0
  0
LINE
  5
1BA
100
AcDbEntity
  8
2
370
    50
100
AcDbLine
 10
-116.138769
 20
-7.518494
 30
0.0
 11
-116.138769
 21
0.481506
 31
0.0
  0
LINE
  5
1BB
100
AcDbEntity
  8
2
370
    50
100
AcDbLine
 10
-114.138769
 20
1.481506
 30
0.0
 11
-164.138769
 21
1.481506
 31
0.0
  0
LINE
  5
1BC
100
AcDbEntity
  8
2
370
    50
100
AcDbLine
 10
-161.138769
 20
-6.426494
 30
0.0
 11
-161.138769
 21
1.481506
 31
0.0
  0
LINE
  5
1BD
100
AcDbEntity
  8
2
370
    50
100
AcDbLine
 10
-117.138769
 20
-6.426494
 30
0.0
 11
-117.138769
 21
1.481506
 31
0.0
  0
LINE
  5
1BE
100
AcDbEntity
  8
2
370
    50
100
AcDbLine
 10
-138.138769
 20
-6.426494
 30
0.0
 11
-138.138769
 21
1.481506
 31
0.0
  0
LINE
  5
1BF
100
AcDbEntity
  8
2
370
    50
100
AcDbLine
 10
-140.138769
 20
-6.426494
 30
0.0
 11
-140.138769
 21
1.481506
 31
0.0
  0
LINE
  5
1C0
100
AcDbEntity
  8
2
370
    50
100
AcDbLine
 10
-161.138769
 20
-6.426494
 30
0.0
 11
-162.138769
 21
-6.426494
 31
0.0
  0
LINE
  5
1C1
100
AcDbEntity
  8
2
370
    50
100
AcDbLine
 10
-116.138769
 20
-6.426494
 30
0.0
 11
-117.138769
 21
-6.426494
 31
0.0
  0
LINE
  5
1C2
100
AcDbEntity
  8
2
370
    50
100
AcDbLine
 10
-138.138769
 20
-6.426494
 30
0.0
 11
-140.138769
 21
-6.426494
 31
0.0
  0
ARC
  5
1C3
100
AcDbEntity
  8
2
370
    50
100
AcDbCircle
 10
-150.638769
 20
43.508275
 30
0.0
 40
51.026769
100
AcDbArc
 50
258.125168
 51
281.874832
  0
ARC
  5
1C4
100
AcDbEntity
  8
2
370
    50
100
AcDbCircle
 10
-127.638769
 20
43.508275
 30
0.0
 40
51.026769
100
AcDbArc
 50
258.125168
 51
281.874832
  0
ARC
  5
1C5
100
AcDbEntity
  8
2
370
    50
100
AcDbCircle
 10
-163.138769
 20
0.481506
 30
0.0
 40
1.0
100
AcDbArc
 50
0.0
 51
90.0
  0
ARC
  5
1C6
100
AcDbEntity
  8
2
370
    50
100
AcDbCircle
 10
-115.138769
 20
0.481506
 30
0.0
 40
1.0
100
AcDbArc
 50
90.0
 51
180.0
  0
ARC
  5
1C7
100
AcDbEntity
  8
2
370
    50
100
AcDbCircle
 10
-164.138769
 20
2.481506
 30
0.0
 40
1.0
100
AcDbArc
 50
180.0
 51
270.0
  0
ARC
  5
1C8
100
AcDbEntity
  8
2
370
    50
100
AcDbCircle
 10
-114.138769
 20
2.481506
 30
0.0
 40
1.0
100
AcDbArc
 50
270.0
 51
360.0
  0
POINT
  5
1C9
100
AcDbEntity
  8
2
370
    50
100
AcDbPoint
 10
-139.086101
 20
22.781506
 30
0.0
  0
LINE
  5
1CA
100
AcDbEntity
  8
2
370
    50
100
AcDbLine
 10
-121.586101
 20
-18.924494
 30
0.0
 11
-121.586101
 21
-7.518494
 31
0.0
  0
LINE
  5
1CB
100
AcDbEntity
  8
2
370
    50
100
AcDbLine
 10
-121.586101
 20
6.481506
 30
0.0
 11
-121.586101
 21
19.781506
 31
0.0
  0
LINE
  5
1CC
100
AcDbEntity
  8
2
370
    25
100
AcDbLine
 10
-122.379851
 20
-19.718244
 30
0.0
 11
-122.379851
 21
-7.518494
 31
0.0
  0
LINE
  5
1CD
100
AcDbEntity
  8
2
370
    25
100
AcDbLine
 10
-122.379851
 20
6.481506
 30
0.0
 11
-122.379851
 21
19.781506
 31
0.0
  0
LINE
  5
1CE
100
AcDbEntity
  8
2
370
    25
100
AcDbLine
 10
-155.792351
 20
-19.718244
 30
0.0
 11
-155.792351
 21
-7.518494
 31
0.0
  0
LINE
  5
1CF
100
AcDbEntity
  8
2
370
    25
100
AcDbLine
 10
-155.792351
 20
6.481506
 30
0.0
 11
-155.792351
 21
19.781506
 31
0.0
  0
LINE
  5
1D0
100
AcDbEntity
  8
2
370
    50
100
AcDbLine
 10
-156.586101
 20
-18.924494
 30
0.0
 11
-156.586101
 21
-7.518494
 31
0.0
  0
LINE
  5
1D1
100
AcDbEntity
  8
2
370
    50
100
AcDbLine
 10
-156.586101
 20
6.481506
 30
0.0
 11
-156.586101
 21
19.781506
 31
0.0
  0
LINE
  5
1D2
100
AcDbEntity
  8
2
370
    50
100
AcDbLine
 10
-145.33855
 20
-27.166634
 30
0.0
 11
-145.33855
 21
-26.152729
 31
0.0
  0
LINE
  5
1D3
100
AcDbEntity
  8
2
370
    50
100
AcDbLine
 10
-132.93855
 20
-25.091603
 30
0.0
 11
-132.93855
 21
-24.077681
 31
0.0
  0
LINE
  5
1D4
100
AcDbEntity
  8
2
370
    50
100
AcDbLine
 10
-146.13855
 20
-26.050354
 30
0.0
 11
-146.13855
 21
-23.414201
 31
0.0
  0
LINE
  5
1D5
100
AcDbEntity
  8
2
370
    50
100
AcDbLine
 10
-145.905541
 20
-26.247611
 30
0.0
 11
-132.305541
 21
-23.971752
 31
0.0
  0
ARC
  5
1D6
100
AcDbEntity
  8
2
370
    50
100
AcDbCircle
 10
-145.93855
 20
-26.050354
 30
0.0
 40
0.2
100
AcDbArc
 50
180.0
 51
279.5
  0
LINE
  5
1D7
100
AcDbEntity
  8
2
370
    50
100
AcDbLine
 10
-132.13855
 20
-23.774494
 30
0.0
 11
-132.13855
 21
-21.138341
 31
0.0
  0
ARC
  5
1D8
100
AcDbEntity
  8
2
370
    50
100
AcDbCircle
 10
-132.33855
 20
-23.774494
 30
0.0
 40
0.2
100
AcDbArc
 50
279.5
 51
360.0
  0
ARC
  5
1D9
100
AcDbEntity
  8
2
370
    50
100
AcDbCircle
 10
-132.33855
 20
-21.138341
 30
0.0
 40
0.2
100
AcDbArc
 50
0.0
 51
99.5
  0
LINE
  5
1DA
100
AcDbEntity
  8
2
370
    50
100
AcDbLine
 10
-132.37156
 20
-20.940704
 30
0.0
 11
-145.971562
 21
-23.216962
 31
0.0
  0
LINE
  5
1DB
100
AcDbEntity
  8
2
370
    50
100
AcDbLine
 10
-145.33855
 20
-31.222634
 30
0.0
 11
-145.33855
 21
-30.208729
 31
0.0
  0
LINE
  5
1DC
100
AcDbEntity
  8
2
370
    50
100
AcDbLine
 10
-132.93855
 20
-29.147603
 30
0.0
 11
-132.93855
 21
-28.133681
 31
0.0
  0
LINE
  5
1DD
100
AcDbEntity
  8
2
370
    50
100
AcDbLine
 10
-146.13855
 20
-30.106354
 30
0.0
 11
-146.13855
 21
-27.470201
 31
0.0
  0
LINE
  5
1DE
100
AcDbEntity
  8
2
370
    50
100
AcDbLine
 10
-145.905541
 20
-30.303611
 30
0.0
 11
-132.305541
 21
-28.027752
 31
0.0
  0
ARC
  5
1DF
100
AcDbEntity
  8
2
370
    50
100
AcDbCircle
 10
-145.93855
 20
-30.106354
 30
0.0
 40
0.2
100
AcDbArc
 50
180.0
 51
279.5
  0
LINE
  5
1E0
100
AcDbEntity
  8
2
370
    50
100
AcDbLine
 10
-132.13855
 20
-27.830494
 30
0.0
 11
-132.13855
 21
-25.194341
 31
0.0
  0
ARC
  5
1E1
100
AcDbEntity
  8
2
370
    50
100
AcDbCircle
 10
-132.33855
 20
-27.830494
 30
0.0
 40
0.2
100
AcDbArc
 50
279.5
 51
360.0
  0
ARC
  5
1E2
100
AcDbEntity
  8
2
370
    50
100
AcDbCircle
 10
-132.33855
 20
-25.194341
 30
0.0
 40
0.2
100
AcDbArc
 50
0.0
 51
99.5
  0
LINE
  5
1E3
100
AcDbEntity
  8
2
370
    50
100
AcDbLine
 10
-132.37156
 20
-24.996704
 30
0.0
 11
-145.971562
 21
-27.272962
 31
0.0
  0
LINE
  5
1E4
100
AcDbEntity
  8
2
370
    50
100
AcDbLine
 10
-145.33855
 20
-35.278634
 30
0.0
 11
-145.33855
 21
-34.264729
 31
0.0
  0
LINE
  5
1E5
100
AcDbEntity
  8
2
370
    50
100
AcDbLine
 10
-132.93855
 20
-33.203603
 30
0.0
 11
-132.93855
 21
-32.189681
 31
0.0
  0
LINE
  5
1E6
100
AcDbEntity
  8
2
370
    50
100
AcDbLine
 10
-146.13855
 20
-34.162354
 30
0.0
 11
-146.13855
 21
-31.526201
 31
0.0
  0
LINE
  5
1E7
100
AcDbEntity
  8
2
370
    50
100
AcDbLine
 10
-145.905541
 20
-34.359611
 30
0.0
 11
-132.305541
 21
-32.083752
 31
0.0
  0
ARC
  5
1E8
100
AcDbEntity
  8
2
370
    50
100
AcDbCircle
 10
-145.93855
 20
-34.162354
 30
0.0
 40
0.2
100
AcDbArc
 50
180.0
 51
279.5
  0
LINE
  5
1E9
100
AcDbEntity
  8
2
370
    50
100
AcDbLine
 10
-132.13855
 20
-31.886494
 30
0.0
 11
-132.13855
 21
-29.250341
 31
0.0
  0
ARC
  5
1EA
100
AcDbEntity
  8
2
370
    50
100
AcDbCircle
 10
-132.33855
 20
-31.886494
 30
0.0
 40
0.2
100
AcDbArc
 50
279.5
 51
360.0
  0
ARC
  5
1EB
100
AcDbEntity
  8
2
370
    50
100
AcDbCircle
 10
-132.33855
 20
-29.250341
 30
0.0
 40
0.2
100
AcDbArc
 50
0.0
 51
99.5
  0
LINE
  5
1EC
100
AcDbEntity
  8
2
370
    50
100
AcDbLine
 10
-132.37156
 20
-29.052704
 30
0.0
 11
-145.971562
 21
-31.328962
 31
0.0
  0
LINE
  5
1ED
100
AcDbEntity
  8
2
370
    50
100
AcDbLine
 10
-145.33855
 20
-39.334634
 30
0.0
 11
-145.33855
 21
-38.320729
 31
0.0
  0
LINE
  5
1EE
100
AcDbEntity
  8
2
370
    50
100
AcDbLine
 10
-132.93855
 20
-37.259603
 30
0.0
 11
-132.93855
 21
-36.245681
 31
0.0
  0
LINE
  5
1EF
100
AcDbEntity
  8
2
370
    50
100
AcDbLine
 10
-146.13855
 20
-38.218354
 30
0.0
 11
-146.13855
 21
-35.582201
 31
0.0
  0
LINE
  5
1F0
100
AcDbEntity
  8
2
370
    50
100
AcDbLine
 10
-145.905541
 20
-38.415611
 30
0.0
 11
-132.305541
 21
-36.139752
 31
0.0
  0
ARC
  5
1F1
100
AcDbEntity
  8
2
370
    50
100
AcDbCircle
 10
-145.93855
 20
-38.218354
 30
0.0
 40
0.2
100
AcDbArc
 50
180.0
 51
279.5
  0
LINE
  5
1F2
100
AcDbEntity
  8
2
370
    50
100
AcDbLine
 10
-132.13855
 20
-35.942494
 30
0.0
 11
-132.13855
 21
-33.306341
 31
0.0
  0
ARC
  5
1F3
100
AcDbEntity
  8
2
370
    50
100
AcDbCircle
 10
-132.33855
 20
-35.942494
 30
0.0
 40
0.2
100
AcDbArc
 50
279.5
 51
360.0
  0
ARC
  5
1F4
100
AcDbEntity
  8
2
370
    50
100
AcDbCircle
 10
-132.33855
 20
-33.306341
 30
0.0
 40
0.2
100
AcDbArc
 50
0.0
 51
99.5
  0
LINE
  5
1F5
100
AcDbEntity
  8
2
370
    50
100
AcDbLine
 10
-132.37156
 20
-33.108704
 30
0.0
 11
-145.971562
 21
-35.384962
 31
0.0
  0
LINE
  5
1F6
100
AcDbEntity
  8
2
370
    50
100
AcDbLine
 10
-145.33855
 20
-43.390634
 30
0.0
 11
-145.33855
 21
-42.376729
 31
0.0
  0
LINE
  5
1F7
100
AcDbEntity
  8
2
370
    50
100
AcDbLine
 10
-132.93855
 20
-41.315603
 30
0.0
 11
-132.93855
 21
-40.301681
 31
0.0
  0
LINE
  5
1F8
100
AcDbEntity
  8
2
370
    50
100
AcDbLine
 10
-146.13855
 20
-42.274354
 30
0.0
 11
-146.13855
 21
-39.638201
 31
0.0
  0
LINE
  5
1F9
100
AcDbEntity
  8
2
370
    50
100
AcDbLine
 10
-145.905541
 20
-42.471611
 30
0.0
 11
-132.305541
 21
-40.195752
 31
0.0
  0
ARC
  5
1FA
100
AcDbEntity
  8
2
370
    50
100
AcDbCircle
 10
-145.93855
 20
-42.274354
 30
0.0
 40
0.2
100
AcDbArc
 50
180.0
 51
279.5
  0
LINE
  5
1FB
100
AcDbEntity
  8
2
370
    50
100
AcDbLine
 10
-132.13855
 20
-39.998494
 30
0.0
 11
-132.13855
 21
-37.362341
 31
0.0
  0
ARC
  5
1FC
100
AcDbEntity
  8
2
370
    50
100
AcDbCircle
 10
-132.33855
 20
-39.998494
 30
0.0
 40
0.2
100
AcDbArc
 50
279.5
 51
360.0
  0
ARC
  5
1FD
100
AcDbEntity
  8
2
370
    50
100
AcDbCircle
 10
-132.33855
 20
-37.362341
 30
0.0
 40
0.2
100
AcDbArc
 50
0.0
 51
99.5
  0
LINE
  5
1FE
100
AcDbEntity
  8
2
370
    50
100
AcDbLine
 10
-132.37156
 20
-37.164704
 30
0.0
 11
-145.971562
 21
-39.440962
 31
0.0
  0
ARC
  5
1FF
100
AcDbEntity
  8
2
370
    50
100
AcDbCircle
 10
-145.93855
 20
-39.638201
 30
0.0
 40
0.2
100
AcDbArc
 50
99.5
 51
180.0
  0
ARC
  5
200
100
AcDbEntity
  8
2
370
    50
100
AcDbCircle
 10
-145.93855
 20
-35.582201
 30
0.0
 40
0.2
100
AcDbArc
 50
99.5
 51
180.0
  0
ARC
  5
201
100
AcDbEntity
  8
2
370
    50
100
AcDbCircle
 10
-145.93855
 20
-31.526201
 30
0.0
 40
0.2
100
AcDbArc
 50
99.5
 51
180.0
  0
ARC
  5
202
100
AcDbEntity
  8
2
370
    50
100
AcDbCircle
 10
-145.93855
 20
-27.470201
 30
0.0
 40
0.2
100
AcDbArc
 50
99.5
 51
180.0
  0
ARC
  5
203
100
AcDbEntity
  8
2
370
    50
100
AcDbCircle
 10
-145.93855
 20
-23.414201
 30
0.0
 40
0.2
100
AcDbArc
 50
99.5
 51
180.0
  0
LINE
  5
204
100
AcDbEntity
  8
2
370
    50
100
AcDbLine
 10
-145.33855
 20
-23.110634
 30
0.0
 11
-145.33855
 21
-22.096729
 31
0.0
  0
LINE
  5
205
100
AcDbEntity
  8
2
370
    50
100
AcDbLine
 10
-132.93855
 20
-21.035603
 30
0.0
 11
-132.93855
 21
-20.021681
 31
0.0
  0
LINE
  5
206
100
AcDbEntity
  8
2
370
    50
100
AcDbLine
 10
-146.13855
 20
-21.994354
 30
0.0
 11
-146.13855
 21
-19.718494
 31
0.0
  0
LINE
  5
207
100
AcDbEntity
  8
2
370
    50
100
AcDbLine
 10
-145.905541
 20
-22.191611
 30
0.0
 11
-132.305541
 21
-19.915752
 31
0.0
  0
ARC
  5
208
100
AcDbEntity
  8
2
370
    50
100
AcDbCircle
 10
-145.93855
 20
-21.994354
 30
0.0
 40
0.2
100
AcDbArc
 50
180.0
 51
279.5
  0
LINE
  5
209
100
AcDbEntity
  8
2
370
    50
100
AcDbLine
 10
-146.13855
 20
-46.888519
 30
0.0
 11
-146.13855
 21
-43.694201
 31
0.0
  0
ARC
  5
20A
100
AcDbEntity
  8
2
370
    50
100
AcDbCircle
 10
-132.33855
 20
-41.418341
 30
0.0
 40
0.2
100
AcDbArc
 50
0.0
 51
99.5
  0
LINE
  5
20B
100
AcDbEntity
  8
2
370
    50
100
AcDbLine
 10
-132.37156
 20
-41.220704
 30
0.0
 11
-145.971562
 21
-43.496962
 31
0.0
  0
ARC
  5
20C
100
AcDbEntity
  8
2
370
    50
100
AcDbCircle
 10
-145.93855
 20
-43.694201
 30
0.0
 40
0.2
100
AcDbArc
 50
99.5
 51
180.0
  0
ARC
  5
20D
100
AcDbEntity
  8
2
370
    50
100
AcDbCircle
 10
-132.33855
 20
-19.718494
 30
0.0
 40
0.2
100
AcDbArc
 50
279.5
 51
360.0
  0
LINE
  5
20E
100
AcDbEntity
  8
2
370
    25
  6
CENTER
100
AcDbLine
 10
267.776259
 20
14.705917
 30
0.0
 11
186.398505
 21
-69.737935
 31
0.0
  0
LINE
  5
20F
100
AcDbEntity
  8
2
370
    25
  6
CENTER
100
AcDbLine
 10
-257.005508
 20
227.027122
 30
0.0
 11
-312.638672
 21
227.027122
 31
0.0
  0
LINE
  5
210
100
AcDbEntity
  8
2
370
    25
  6
CENTER
100
AcDbLine
 10
-284.500336
 20
254.342178
 30
0.0
 11
-284.500336
 21
90.554092
 31
0.0
  0
CIRCLE
  5
211
100
AcDbEntity
  8
2
370
    50
100
AcDbCircle
 10
-284.500336
 20
227.027122
 30
0.0
 40
26.0
  0
LINE
  5
212
100
AcDbEntity
  8
2
370
    50
100
AcDbLine
 10
-299.500336
 20
205.790361
 30
0.0
 11
-299.500336
 21
100.587835
 31
0.0
  0
LINE
  5
213
100
AcDbEntity
  8
2
370
    50
100
AcDbLine
 10
-269.500336
 20
193.046359
 30
0.0
 11
-269.500336
 21
100.587835
 31
0.0
  0
POINT
  5
214
100
AcDbEntity
  8
2
370
    50
100
AcDbPoint
 10
-284.500336
 20
169.869445
 30
0.0
  0
POINT
  5
215
100
AcDbEntity
  8
2
370
    50
100
AcDbPoint
 10
56.959219
 20
139.27173
 30
0.0
  0
POINT
  5
216
100
AcDbEntity
  8
2
370
    50
100
AcDbPoint
 10
41.959254
 20
113.291029
 30
0.0
  0
ELLIPSE
  5
217
100
AcDbEntity
  8
2
370
    50
100
AcDbEllipse
 10
-284.500336
 20
100.587835
 30
0.0
 11
-15.0
 21
0.0
 31
0.0
210
0.0
220
0.0
230
1.0
 40
0.5
 41
0.0
 42
6.2831849999999996
  0
LINE
  5
218
100
AcDbEntity
  8
2
370
    50
100
AcDbLine
 10
-288.500336
 20
201.336656
 30
0.0
 11
-288.500336
 21
142.527122
 31
0.0
  0
LINE
  5
219
100
AcDbEntity
  8
2
370
    50
100
AcDbLine
 10
-280.500336
 20
201.336656
 30
0.0
 11
-280.500336
 21
142.527122
 31
0.0
  0
ELLIPSE
  5
21A
100
AcDbEntity
  8
2
370
    50
100
AcDbEllipse
 10
-284.500336
 20
169.869445
 30
0.0
 11
-15.0
 21
0.0
 31
0.0
210
0.0
220
0.0
230
1.0
 40
0.5
 41
3.1415929999999999
 42
4.442456
  0
ELLIPSE
  5
21B
100
AcDbEntity
  8
2
370
    50
100
AcDbEllipse
 10
-284.500336
 20
169.869445
 30
0.0
 11
-15.0
 21
0.0
 31
0.0
210
0.0
220
0.0
230
1.0
 40
0.5
 41
4.9823219999999999
 42
0.0
  0
LINE
  5
21C
100
AcDbEntity
  8
2
370
    50
100
AcDbLine
 10
-281.000336
 20
142.027122
 30
0.0
 11
-288.000336
 21
142.027122
 31
0.0
  0
LINE
  5
21D
100
AcDbEntity
  8
2
370
    50
100
AcDbLine
 10
-288.500336
 20
142.527122
 30
0.0
 11
-288.000336
 21
142.027122
 31
0.0
  0
LINE
  5
21E
100
AcDbEntity
  8
2
370
    50
100
AcDbLine
 10
-280.500336
 20
142.527122
 30
0.0
 11
-281.000336
 21
142.027122
 31
0.0
  0
LINE
  5
21F
100
AcDbEntity
  8
2
370
    25
100
AcDbLine
 10
-288.500336
 20
142.527122
 30
0.0
 11
-280.500336
 21
142.527122
 31
0.0
  0
POINT
  5
220
100
AcDbEntity
  8
2
370
    50
100
AcDbPoint
 10
-284.500336
 20
227.027122
 30
0.0
  0
ELLIPSE
  5
221
100
AcDbEntity
  8
2
370
    25
  6
DASHED
100
AcDbEllipse
 10
-317.225231
 20
104.896149
 30
0.0
 11
-14.488887
 21
3.8822860000000001
 31
0.0
210
0.0
220
0.0
230
1.0
 40
0.5
 41
0.0
 42
6.2831849999999996
  0
LINE
  5
222
100
AcDbEntity
  8
2
370
    25
  6
DASHED
100
AcDbLine
 10
-324.92642
 20
134.110469
 30
0.0
 11
-331.714118
 21
108.778435
 31
0.0
  0
LINE
  5
223
100
AcDbEntity
  8
2
370
    25
  6
DASHED
100
AcDbLine
 10
-300.687157
 20
108.661531
 30
0.0
 11
-302.736344
 21
101.013864
 31
0.0
  0
LINE
  5
224
100
AcDbEntity
  8
2
370
    25
  6
CENTER
100
AcDbLine
 10
-310.20601
 20
131.09224
 30
0.0
 11
-319.822155
 21
95.204298
 31
0.0
  0
LINE
  5
225
100
AcDbEntity
  8
2
370
    25
  6
CENTER
100
AcDbLine
 10
-258.89318
 20
131.459914
 30
0.0
 11
-249.178517
 21
95.204298
 31
0.0
  0
ELLIPSE
  5
226
100
AcDbEntity
  8
2
370
    25
  6
DASHED
100
AcDbEllipse
 10
-251.77544
 20
104.896149
 30
0.0
 11
-14.488887
 21
-3.8822860000000001
 31
0.0
210
0.0
220
0.0
230
1.0
 40
0.5
 41
0.0
 42
6.2831849999999996
  0
LINE
  5
227
100
AcDbEntity
  8
2
370
    25
  6
DASHED
100
AcDbLine
 10
-268.313514
 20
108.661531
 30
0.0
 11
-266.264328
 21
101.013864
 31
0.0
  0
LINE
  5
228
100
AcDbEntity
  8
2
370
    25
  6
DASHED
100
AcDbLine
 10
-244.074251
 20
134.110469
 30
0.0
 11
-237.286553
 21
108.778435
 31
0.0
  0
LINE
  5
229
100
AcDbEntity
  8
2
370
    50
100
AcDbLine
 10
-308.748931
 20
217.645991
 30
0.0
 11
-359.679482
 21
188.241223
 31
0.0
  0
LINE
  5
22A
100
AcDbEntity
  8
2
370
    50
100
AcDbLine
 10
-304.748931
 20
210.717787
 30
0.0
 11
-355.679482
 21
181.31302
 31
0.0
  0
LINE
  5
22B
100
AcDbEntity
  8
2
370
    50
100
AcDbLine
 10
-356.362495
 20
181.496033
 30
0.0
 11
-359.862495
 21
187.55821
 31
0.0
  0
LINE
  5
22C
100
AcDbEntity
  8
2
370
    50
100
AcDbLine
 10
-359.679482
 20
188.241223
 30
0.0
 11
-359.862495
 21
187.55821
 31
0.0
  0
LINE
  5
22D
100
AcDbEntity
  8
2
370
    50
100
AcDbLine
 10
-355.679482
 20
181.31302
 30
0.0
 11
-356.362495
 21
181.496033
 31
0.0
  0
LINE
  5
22E
100
AcDbEntity
  8
2
370
    25
100
AcDbLine
 10
-359.679482
 20
188.241223
 30
0.0
 11
-355.679482
 21
181.31302
 31
0.0
  0
LINE
  5
22F
100
AcDbEntity
  8
2
370
    25
  6
CENTER
100
AcDbLine
 10
-308.421601
 20
213.216172
 30
0.0
 11
-360.922998
 21
182.904477
 31
0.0
  0
LINE
  5
230
100
AcDbEntity
  8
2
370
    50
100
AcDbLine
 10
-268.191002
 20
206.778526
 30
0.0
 11
-238.786234
 21
155.847975
 31
0.0
  0
LINE
  5
231
100
AcDbEntity
  8
2
370
    50
100
AcDbLine
 10
-275.119205
 20
202.778526
 30
0.0
 11
-245.714437
 21
151.847975
 31
0.0
  0
LINE
  5
232
100
AcDbEntity
  8
2
370
    50
100
AcDbLine
 10
-245.031425
 20
151.664962
 30
0.0
 11
-238.969247
 21
155.164962
 31
0.0
  0
LINE
  5
233
100
AcDbEntity
  8
2
370
    50
100
AcDbLine
 10
-238.786234
 20
155.847975
 30
0.0
 11
-238.969247
 21
155.164962
 31
0.0
  0
LINE
  5
234
100
AcDbEntity
  8
2
370
    50
100
AcDbLine
 10
-245.714437
 20
151.847975
 30
0.0
 11
-245.031425
 21
151.664962
 31
0.0
  0
LINE
  5
235
100
AcDbEntity
  8
2
370
    25
100
AcDbLine
 10
-238.786234
 20
155.847975
 30
0.0
 11
-245.714437
 21
151.847975
 31
0.0
  0
LINE
  5
236
100
AcDbEntity
  8
2
370
    25
  6
CENTER
100
AcDbLine
 10
-270.689387
 20
203.105856
 30
0.0
 11
-240.377691
 21
150.60446
 31
0.0
  0
POINT
  5
237
100
AcDbEntity
  8
2
370
    50
100
AcDbPoint
 10
-304.500336
 20
227.027122
 30
0.0
  0
POINT
  5
238
100
AcDbEntity
  8
2
370
    50
100
AcDbPoint
 10
-264.500336
 20
227.027122
 30
0.0
  0
ELLIPSE
  5
239
100
AcDbEntity
  8
2
370
    50
100
AcDbEllipse
 10
-264.500336
 20
227.027122
 30
0.0
 11
-3.0
 21
0.0
 31
0.0
210
0.0
220
0.0
230
1.0
 40
0.833333
 41
3.7324769999999998
 42
2.6852770000000001
  0
LINE
  5
23A
100
AcDbEntity
  8
2
370
    50
100
AcDbLine
 10
-306.500336
 20
224.527122
 30
0.0
 11
-306.500336
 21
229.527122
 31
0.0
  0
LINE
  5
23B
100
AcDbEntity
  8
2
370
    50
100
AcDbLine
 10
-302.500336
 20
224.527122
 30
0.0
 11
-302.500336
 21
229.527122
 31
0.0
  0
LINE
  5
23C
100
AcDbEntity
  8
2
370
    50
100
AcDbLine
 10
-306.500336
 20
227.027122
 30
0.0
 11
-302.500336
 21
227.027122
 31
0.0
  0
LINE
  5
23D
100
AcDbEntity
  8
2
370
    25
  6
CENTER
100
AcDbLine
 10
-139.086101
 20
-192.231171
 30
0.0
 11
77.245911
 21
-192.231171
 31
0.0
  0
LINE
  5
23E
100
AcDbEntity
  8
2
370
    50
100
AcDbLine
 10
318.022926
 20
22.78106
 30
0.0
 11
342.322926
 21
22.78106
 31
0.0
  0
LINE
  5
23F
100
AcDbEntity
  8
2
370
    50
100
AcDbLine
 10
317.822926
 20
23.28106
 30
0.0
 11
317.822926
 21
22.98106
 31
0.0
  0
LINE
  5
240
100
AcDbEntity
  8
2
370
    50
100
AcDbLine
 10
317.822926
 20
22.98106
 30
0.0
 11
318.022926
 21
22.78106
 31
0.0
  0
LINE
  5
241
100
AcDbEntity
  8
2
370
    50
100
AcDbLine
 10
320.322926
 20
22.78106
 30
0.0
 11
324.822926
 21
22.78106
 31
0.0
  0
LINE
  5
242
100
AcDbEntity
  8
2
370
    25
100
AcDbLine
 10
317.822926
 20
22.98106
 30
0.0
 11
342.322926
 21
22.98106
 31
0.0
  0
LINE
  5
243
100
AcDbEntity
  8
2
370
    50
100
AcDbLine
 10
366.622926
 20
22.78106
 30
0.0
 11
342.322926
 21
22.78106
 31
0.0
  0
LINE
  5
244
100
AcDbEntity
  8
2
370
    50
100
AcDbLine
 10
366.822926
 20
23.28106
 30
0.0
 11
366.822926
 21
22.98106
 31
0.0
  0
LINE
  5
245
100
AcDbEntity
  8
2
370
    50
100
AcDbLine
 10
366.822926
 20
22.98106
 30
0.0
 11
366.622926
 21
22.78106
 31
0.0
  0
LINE
  5
246
100
AcDbEntity
  8
2
370
    50
100
AcDbLine
 10
364.322926
 20
22.78106
 30
0.0
 11
359.822926
 21
22.78106
 31
0.0
  0
LINE
  5
247
100
AcDbEntity
  8
2
370
    25
100
AcDbLine
 10
366.822926
 20
22.98106
 30
0.0
 11
342.322926
 21
22.98106
 31
0.0
  0
LINE
  5
248
100
AcDbEntity
  8
2
370
    50
100
AcDbLine
 10
359.029176
 20
-19.71894
 30
0.0
 11
342.322926
 21
-19.71894
 31
0.0
  0
LINE
  5
249
100
AcDbEntity
  8
2
370
    50
100
AcDbLine
 10
359.822926
 20
-18.92494
 30
0.0
 11
359.028926
 21
-19.71894
 31
0.0
  0
LINE
  5
24A
100
AcDbEntity
  8
2
370
    25
100
AcDbLine
 10
359.822926
 20
-18.92494
 30
0.0
 11
342.322926
 21
-18.92494
 31
0.0
  0
LINE
  5
24B
100
AcDbEntity
  8
2
370
    50
100
AcDbLine
 10
325.616676
 20
-19.71894
 30
0.0
 11
342.322926
 21
-19.71894
 31
0.0
  0
LINE
  5
24C
100
AcDbEntity
  8
2
370
    50
100
AcDbLine
 10
324.822926
 20
-18.92494
 30
0.0
 11
325.616926
 21
-19.71894
 31
0.0
  0
LINE
  5
24D
100
AcDbEntity
  8
2
370
    25
100
AcDbLine
 10
324.822926
 20
-18.92494
 30
0.0
 11
342.322926
 21
-18.92494
 31
0.0
  0
LINE
  5
24E
100
AcDbEntity
  8
2
370
    50
100
AcDbLine
 10
368.322926
 20
23.58106
 30
0.0
 11
368.322926
 21
140.08106
 31
0.0
  0
LINE
  5
24F
100
AcDbEntity
  8
2
370
    50
100
AcDbLine
 10
368.122926
 20
140.28106
 30
0.0
 11
368.322926
 21
140.08106
 31
0.0
  0
LINE
  5
250
100
AcDbEntity
  8
2
370
    50
100
AcDbLine
 10
342.322926
 20
140.28106
 30
0.0
 11
368.122926
 21
140.28106
 31
0.0
  0
LINE
  5
251
100
AcDbEntity
  8
2
370
    25
100
AcDbLine
 10
342.322926
 20
140.08106
 30
0.0
 11
368.322926
 21
140.08106
 31
0.0
  0
LINE
  5
252
100
AcDbEntity
  8
2
370
    50
100
AcDbLine
 10
316.322926
 20
23.58106
 30
0.0
 11
316.322926
 21
140.08106
 31
0.0
  0
LINE
  5
253
100
AcDbEntity
  8
2
370
    50
100
AcDbLine
 10
316.322926
 20
140.08106
 30
0.0
 11
316.522926
 21
140.28106
 31
0.0
  0
LINE
  5
254
100
AcDbEntity
  8
2
370
    50
100
AcDbLine
 10
316.522926
 20
140.28106
 30
0.0
 11
342.322926
 21
140.28106
 31
0.0
  0
LINE
  5
255
100
AcDbEntity
  8
2
370
    25
100
AcDbLine
 10
316.322926
 20
140.08106
 30
0.0
 11
342.322926
 21
140.08106
 31
0.0
  0
LINE
  5
256
100
AcDbEntity
  8
2
370
    50
100
AcDbLine
 10
368.322926
 20
23.58106
 30
0.0
 11
368.022926
 21
23.28106
 31
0.0
  0
LINE
  5
257
100
AcDbEntity
  8
2
370
    50
100
AcDbLine
 10
368.022926
 20
23.28106
 30
0.0
 11
342.322926
 21
23.28106
 31
0.0
  0
LINE
  5
258
100
AcDbEntity
  8
2
370
    25
100
AcDbLine
 10
368.322926
 20
23.58106
 30
0.0
 11
342.322926
 21
23.58106
 31
0.0
  0
LINE
  5
259
100
AcDbEntity
  8
2
370
    50
100
AcDbLine
 10
316.322926
 20
23.58106
 30
0.0
 11
316.622926
 21
23.28106
 31
0.0
  0
LINE
  5
25A
100
AcDbEntity
  8
2
370
    50
100
AcDbLine
 10
316.622926
 20
23.28106
 30
0.0
 11
342.322926
 21
23.28106
 31
0.0
  0
LINE
  5
25B
100
AcDbEntity
  8
2
370
    25
100
AcDbLine
 10
316.322926
 20
23.58106
 30
0.0
 11
342.322926
 21
23.58106
 31
0.0
  0
LINE
  5
25C
100
AcDbEntity
  8
2
370
    50
100
AcDbLine
 10
316.322926
 20
171.354307
 30
0.0
 11
316.322926
 21
143.480952
 31
0.0
  0
LINE
  5
25D
100
AcDbEntity
  8
2
370
    50
100
AcDbLine
 10
368.322926
 20
171.354307
 30
0.0
 11
368.322926
 21
143.480952
 31
0.0
  0
ARC
  5
25E
100
AcDbEntity
  8
2
370
    50
100
AcDbCircle
 10
316.822926
 20
143.480952
 30
0.0
 40
0.5
100
AcDbArc
 50
180.0
 51
270.0
  0
ARC
  5
25F
100
AcDbEntity
  8
2
370
    50
100
AcDbCircle
 10
342.322926
 20
-327.019048
 30
0.0
 40
500.0
100
AcDbArc
 50
87.128268
 51
92.871732
  0
ARC
  5
260
100
AcDbEntity
  8
2
370
    50
100
AcDbCircle
 10
367.322926
 20
171.354307
 30
0.0
 40
1.0
100
AcDbArc
 50
0.0
 51
87.128268
  0
ARC
  5
261
100
AcDbEntity
  8
2
370
    50
100
AcDbCircle
 10
317.322926
 20
171.354307
 30
0.0
 40
1.0
100
AcDbArc
 50
92.871732
 51
180.0
  0
LINE
  5
262
100
AcDbEntity
  8
2
370
    25
100
AcDbLine
 10
318.514671
 20
172.304495
 30
0.0
 11
365.740585
 21
172.304495
 31
0.0
  0
POINT
  5
263
100
AcDbEntity
  8
2
370
    50
100
AcDbPoint
 10
342.322926
 20
142.83106
 30
0.0
  0
ARC
  5
264
100
AcDbEntity
  8
2
370
    50
100
AcDbCircle
 10
319.857153
 20
142.898613
 30
0.0
 40
1.0
100
AcDbArc
 50
159.916716
 51
179.5
  0
LINE
  5
265
100
AcDbEntity
  8
2
370
    50
100
AcDbLine
 10
318.834271
 20
140.280952
 30
0.0
 11
318.857191
 21
142.90734
 31
0.0
  0
ARC
  5
266
100
AcDbEntity
  8
2
370
    50
100
AcDbCircle
 10
364.788699
 20
142.898613
 30
0.0
 40
1.0
100
AcDbArc
 50
0.5
 51
20.083284
  0
LINE
  5
267
100
AcDbEntity
  8
2
370
    50
100
AcDbLine
 10
365.811581
 20
140.280952
 30
0.0
 11
365.788661
 21
142.90734
 31
0.0
  0
LINE
  5
268
100
AcDbEntity
  8
2
370
    50
100
AcDbLine
 10
365.822926
 20
19.78106
 30
0.0
 11
318.822926
 21
19.78106
 31
0.0
  0
LINE
  5
269
100
AcDbEntity
  8
2
370
    50
100
AcDbLine
 10
365.822926
 20
22.78106
 30
0.0
 11
365.822926
 21
19.78106
 31
0.0
  0
LINE
  5
26A
100
AcDbEntity
  8
2
370
    50
100
AcDbLine
 10
318.822926
 20
22.78106
 30
0.0
 11
318.822926
 21
19.78106
 31
0.0
  0
HATCH
  5
26B
100
AcDbEntity
  8
2
370
    25
100
AcDbHatch
 10
0.0
 20
0.0
 30
0.0
210
0.0
220
0.0
230
1.0
  2
_U
 70
     0
 71
     1
 91
        1
 92
        1
 93
        4
 72
     1
 10
365.822926
 20
19.78106
 11
318.822926
 21
19.78106
 72
     1
 10
318.822926
 20
19.78106
 11
318.822926
 21
22.78106
 72
     1
 10
318.822926
 20
22.78106
 11
365.822926
 21
22.78106
 72
     1
 10
365.822926
 20
22.78106
 11
365.822926
 21
19.78106
 97
        4
330
0
330
0
330
0
330
0
 75
     0
 76
     0
 52
45.0
 41
1.0
 77
     0
 78
     1
 53
45.0
 43
0.0
 44
0.0
 45
-0.707107
 46
0.707107
 79
     0
 98
        1
 10
0.0
 20
0.0
  0
LINE
  5
26C
100
AcDbEntity
  8
2
370
    50
100
AcDbLine
 10
317.270926
 20
6.48106
 30
0.0
 11
317.270926
 21
4.48106
 31
0.0
  0
LINE
  5
26D
100
AcDbEntity
  8
2
370
    50
100
AcDbLine
 10
367.270926
 20
6.48106
 30
0.0
 11
367.270926
 21
4.48106
 31
0.0
  0
LINE
  5
26E
100
AcDbEntity
  8
2
370
    50
100
AcDbLine
 10
367.270926
 20
6.48106
 30
0.0
 11
317.270926
 21
6.48106
 31
0.0
  0
LINE
  5
26F
100
AcDbEntity
  8
2
370
    50
100
AcDbLine
 10
317.270926
 20
4.98106
 30
0.0
 11
367.270926
 21
4.98106
 31
0.0
  0
HATCH
  5
270
100
AcDbEntity
  8
2
370
    25
100
AcDbHatch
 10
0.0
 20
0.0
 30
0.0
210
0.0
220
0.0
230
1.0
  2
_U
 70
     0
 71
     1
 91
        1
 92
        1
 93
        4
 72
     1
 10
367.27092599999997
 20
6.4810600000000003
 11
317.27092599999997
 21
6.4810600000000003
 72
     1
 10
317.27092599999997
 20
6.4810600000000003
 11
317.27092599999997
 21
4.9810600000000003
 72
     1
 10
317.27092599999997
 20
4.9810600000000003
 11
367.27092599999997
 21
4.9810600000000003
 72
     1
 10
367.27092599999997
 20
4.9810600000000003
 11
367.27092599999997
 21
6.4810600000000003
 97
        4
330
0
330
0
330
0
330
0
 75
     0
 76
     0
 52
45.0
 41
1.0
 77
     0
 78
     1
 53
45.0
 43
0.0
 44
0.0
 45
-0.282843
 46
0.282843
 79
     0
 98
        1
 10
0.0
 20
0.0
  0
LINE
  5
271
100
AcDbEntity
  8
2
370
    50
100
AcDbLine
 10
318.822926
 20
22.78106
 30
0.0
 11
365.822926
 21
22.78106
 31
0.0
  0
LINE
  5
272
100
AcDbEntity
  8
2
370
    50
100
AcDbLine
 10
368.270258
 20
4.48106
 30
0.0
 11
316.270258
 21
4.48106
 31
0.0
  0
LINE
  5
273
100
AcDbEntity
  8
2
370
    50
100
AcDbLine
 10
365.270258
 20
-7.51894
 30
0.0
 11
319.270258
 21
-7.51894
 31
0.0
  0
LINE
  5
274
100
AcDbEntity
  8
2
370
    50
100
AcDbLine
 10
316.270258
 20
2.48106
 30
0.0
 11
316.270258
 21
4.48106
 31
0.0
  0
LINE
  5
275
100
AcDbEntity
  8
2
370
    50
100
AcDbLine
 10
368.270258
 20
2.48106
 30
0.0
 11
368.270258
 21
4.48106
 31
0.0
  0
LINE
  5
276
100
AcDbEntity
  8
2
370
    50
100
AcDbLine
 10
319.270258
 20
-7.51894
 30
0.0
 11
319.270258
 21
0.48106
 31
0.0
  0
LINE
  5
277
100
AcDbEntity
  8
2
370
    50
100
AcDbLine
 10
365.270258
 20
-7.51894
 30
0.0
 11
365.270258
 21
0.48106
 31
0.0
  0
LINE
  5
278
100
AcDbEntity
  8
2
370
    50
100
AcDbLine
 10
367.270258
 20
1.48106
 30
0.0
 11
317.270258
 21
1.48106
 31
0.0
  0
LINE
  5
279
100
AcDbEntity
  8
2
370
    50
100
AcDbLine
 10
320.270258
 20
-6.42694
 30
0.0
 11
320.270258
 21
1.48106
 31
0.0
  0
LINE
  5
27A
100
AcDbEntity
  8
2
370
    50
100
AcDbLine
 10
364.270258
 20
-6.42694
 30
0.0
 11
364.270258
 21
1.48106
 31
0.0
  0
LINE
  5
27B
100
AcDbEntity
  8
2
370
    50
100
AcDbLine
 10
343.270258
 20
-6.42694
 30
0.0
 11
343.270258
 21
1.48106
 31
0.0
  0
LINE
  5
27C
100
AcDbEntity
  8
2
370
    50
100
AcDbLine
 10
341.270258
 20
-6.42694
 30
0.0
 11
341.270258
 21
1.48106
 31
0.0
  0
LINE
  5
27D
100
AcDbEntity
  8
2
370
    50
100
AcDbLine
 10
320.270258
 20
-6.42694
 30
0.0
 11
319.270258
 21
-6.42694
 31
0.0
  0
LINE
  5
27E
100
AcDbEntity
  8
2
370
    50
100
AcDbLine
 10
365.270258
 20
-6.42694
 30
0.0
 11
364.270258
 21
-6.42694
 31
0.0
  0
LINE
  5
27F
100
AcDbEntity
  8
2
370
    50
100
AcDbLine
 10
343.270258
 20
-6.42694
 30
0.0
 11
341.270258
 21
-6.42694
 31
0.0
  0
ARC
  5
280
100
AcDbEntity
  8
2
370
    50
100
AcDbCircle
 10
330.770258
 20
43.507829
 30
0.0
 40
51.026769
100
AcDbArc
 50
258.125168
 51
281.874832
  0
ARC
  5
281
100
AcDbEntity
  8
2
370
    50
100
AcDbCircle
 10
353.770258
 20
43.507829
 30
0.0
 40
51.026769
100
AcDbArc
 50
258.125168
 51
281.874832
  0
ARC
  5
282
100
AcDbEntity
  8
2
370
    50
100
AcDbCircle
 10
318.270258
 20
0.48106
 30
0.0
 40
1.0
100
AcDbArc
 50
0.0
 51
90.0
  0
ARC
  5
283
100
AcDbEntity
  8
2
370
    50
100
AcDbCircle
 10
366.270258
 20
0.48106
 30
0.0
 40
1.0
100
AcDbArc
 50
90.0
 51
180.0
  0
ARC
  5
284
100
AcDbEntity
  8
2
370
    50
100
AcDbCircle
 10
317.270258
 20
2.48106
 30
0.0
 40
1.0
100
AcDbArc
 50
180.0
 51
270.0
  0
ARC
  5
285
100
AcDbEntity
  8
2
370
    50
100
AcDbCircle
 10
367.270258
 20
2.48106
 30
0.0
 40
1.0
100
AcDbArc
 50
270.0
 51
360.0
  0
POINT
  5
286
100
AcDbEntity
  8
2
370
    50
100
AcDbPoint
 10
342.322926
 20
22.78106
 30
0.0
  0
LINE
  5
287
100
AcDbEntity
  8
2
370
    50
100
AcDbLine
 10
359.822926
 20
-18.92494
 30
0.0
 11
359.822926
 21
-7.51894
 31
0.0
  0
LINE
  5
288
100
AcDbEntity
  8
2
370
    50
100
AcDbLine
 10
359.822926
 20
6.48106
 30
0.0
 11
359.822926
 21
19.78106
 31
0.0
  0
LINE
  5
289
100
AcDbEntity
  8
2
370
    25
100
AcDbLine
 10
359.029176
 20
-19.71869
 30
0.0
 11
359.029176
 21
-7.51894
 31
0.0
  0
LINE
  5
28A
100
AcDbEntity
  8
2
370
    25
100
AcDbLine
 10
359.029176
 20
6.48106
 30
0.0
 11
359.029176
 21
19.78106
 31
0.0
  0
LINE
  5
28B
100
AcDbEntity
  8
2
370
    25
100
AcDbLine
 10
325.616676
 20
-19.71869
 30
0.0
 11
325.616676
 21
-7.51894
 31
0.0
  0
LINE
  5
28C
100
AcDbEntity
  8
2
370
    25
100
AcDbLine
 10
325.616676
 20
6.48106
 30
0.0
 11
325.616676
 21
19.78106
 31
0.0
  0
LINE
  5
28D
100
AcDbEntity
  8
2
370
    50
100
AcDbLine
 10
324.822926
 20
-18.92494
 30
0.0
 11
324.822926
 21
-7.51894
 31
0.0
  0
LINE
  5
28E
100
AcDbEntity
  8
2
370
    50
100
AcDbLine
 10
324.822926
 20
6.48106
 30
0.0
 11
324.822926
 21
19.78106
 31
0.0
  0
LINE
  5
28F
100
AcDbEntity
  8
2
370
    25
  6
CENTER
100
AcDbLine
 10
342.322926
 20
176.396065
 30
0.0
 11
342.322926
 21
-26.168686
 31
0.0
  0
ARC
  5
290
100
AcDbEntity
  8
2
370
    50
100
AcDbCircle
 10
342.322926
 20
121.165609
 30
0.0
 40
33.939788
100
AcDbArc
 50
40.349781
 51
139.650219
  0
ARC
  5
291
100
AcDbEntity
  8
2
370
    50
100
AcDbCircle
 10
412.837371
 20
108.903441
 30
0.0
 40
100.0
100
AcDbArc
 50
158.522374
 51
159.916657
  0
ARC
  5
292
100
AcDbEntity
  8
2
370
    50
100
AcDbCircle
 10
271.808481
 20
108.903441
 30
0.0
 40
100.0
100
AcDbArc
 50
20.083343
 51
21.477626
  0
LINE
  5
293
100
AcDbEntity
  8
2
370
    25
100
AcDbLine
 10
319.640427
 20
143.079577
 30
0.0
 11
365.047577
 21
143.079577
 31
0.0
  0
LINE
  5
294
100
AcDbEntity
  8
2
370
    50
100
AcDbLine
 10
316.822926
 20
142.980952
 30
0.0
 11
318.857834
 21
142.980952
 31
0.0
  0
LINE
  5
295
100
AcDbEntity
  8
2
370
    50
100
AcDbLine
 10
367.822926
 20
142.980952
 30
0.0
 11
365.788019
 21
142.980952
 31
0.0
  0
ARC
  5
296
100
AcDbEntity
  8
2
370
    50
100
AcDbCircle
 10
367.822926
 20
143.480952
 30
0.0
 40
0.5
100
AcDbArc
 50
270.0
 51
360.0
  0
ARC
  5
297
100
AcDbEntity
  8
2
370
    50
100
AcDbCircle
 10
342.322926
 20
121.208314
 30
0.0
 40
33.15189
100
AcDbArc
 50
41.052788
 51
138.947212
  0
CIRCLE
  5
298
100
AcDbEntity
  8
2
370
    50
100
AcDbCircle
 10
342.322926
 20
164.980608
 30
0.0
 40
4.0
  0
CIRCLE
  5
299
100
AcDbEntity
  8
2
370
    50
100
AcDbCircle
 10
342.322926
 20
164.980608
 30
0.0
 40
4.25
  0
LINE
  5
29A
100
AcDbEntity
  8
2
370
    50
100
AcDbLine
 10
338.322926
 20
91.781201
 30
0.0
 11
346.322926
 21
91.781201
 31
0.0
  0
CIRCLE
  5
29B
100
AcDbEntity
  8
2
370
    50
100
AcDbCircle
 10
342.322926
 20
32.781201
 30
0.0
 40
3.0
  0
LINE
  5
29C
100
AcDbEntity
  8
2
370
    50
100
AcDbLine
 10
338.322926
 20
93.781201
 30
0.0
 11
346.322926
 21
93.781201
 31
0.0
  0
ARC
  5
29D
100
AcDbEntity
  8
2
370
    50
100
AcDbCircle
 10
346.322926
 20
92.781201
 30
0.0
 40
1.0
100
AcDbArc
 50
270.0
 51
90.0
  0
ARC
  5
29E
100
AcDbEntity
  8
2
370
    50
100
AcDbCircle
 10
338.322926
 20
92.781201
 30
0.0
 40
1.0
100
AcDbArc
 50
90.0
 51
270.0
  0
LINE
  5
29F
100
AcDbEntity
  8
2
370
    25
  6
CENTER
100
AcDbLine
 10
-139.086101
 20
-46.154148
 30
0.0
 11
-139.086101
 21
-192.231171
 31
0.0
  0
LINE
  5
2A0
100
AcDbEntity
  8
2
370
    50
100
AcDbLine
 10
-132.13855
 20
-41.418341
 30
0.0
 11
-132.13855
 21
-44.550125
 31
0.0
  0
LINE
  5
2A1
100
AcDbEntity
  8
2
370
    50
100
AcDbLine
 10
-132.13855
 20
-44.550125
 30
0.0
 11
-132.13855
 21
-52.396755
 31
0.0
  0
LINE
  5
2A2
100
AcDbEntity
  8
2
370
    50
100
AcDbLine
 10
-146.13855
 20
-46.940502
 30
0.0
 11
-146.13855
 21
-52.396755
 31
0.0
  0
ARC
  5
2A3
100
AcDbEntity
  8
2
370
    50
100
AcDbCircle
 10
-142.612325
 20
-47.765446
 30
0.0
 40
5.877041
100
AcDbArc
 50
233.130102
 51
306.869898
  0
ARC
  5
2A4
100
AcDbEntity
  8
2
370
    50
100
AcDbCircle
 10
-135.559876
 20
-57.168712
 30
0.0
 40
5.877041
100
AcDbArc
 50
53.130102
 51
126.869898
  0
ARC
  5
2A5
100
AcDbEntity
  8
2
370
    50
100
AcDbCircle
 10
-142.612325
 20
-57.168712
 30
0.0
 40
5.877041
100
AcDbArc
 50
53.130102
 51
126.869898
  0
ARC
  5
2A6
100
AcDbEntity
  8
2
370
    50
100
AcDbCircle
 10
167.898505
 20
-70.076642
 30
0.0
 40
5.833333
100
AcDbArc
 50
233.130102
 51
306.869898
  0
ARC
  5
2A7
100
AcDbEntity
  8
2
370
    50
100
AcDbCircle
 10
174.898505
 20
-79.409976
 30
0.0
 40
5.833333
100
AcDbArc
 50
53.130102
 51
126.869898
  0
ARC
  5
2A8
100
AcDbEntity
  8
2
370
    50
100
AcDbCircle
 10
167.898505
 20
-79.409976
 30
0.0
 40
5.833333
100
AcDbArc
 50
53.130102
 51
126.869898
  0
LINE
  5
2A9
100
AcDbEntity
  8
2
370
    50
100
AcDbLine
 10
271.775425
 20
-91.952104
 30
0.0
 11
271.775425
 21
-8.290445
 31
0.0
  0
LINE
  5
2AA
100
AcDbEntity
  8
2
370
    50
100
AcDbLine
 10
263.77767
 20
-91.977104
 30
0.0
 11
263.77767
 21
-8.087435
 31
0.0
  0
LINE
  5
2AB
100
AcDbEntity
  8
2
370
    50
100
AcDbLine
 10
267.777014
 20
-144.944551
 30
0.0
 11
256.776701
 21
-144.944551
 31
0.0
  0
LINE
  5
2AC
100
AcDbEntity
  8
2
370
    50
100
AcDbLine
 10
267.77608
 20
-144.944551
 30
0.0
 11
278.776394
 21
-144.944551
 31
0.0
  0
LINE
  5
2AD
100
AcDbEntity
  8
2
370
    50
100
AcDbLine
 10
216.327315
 20
-170.944727
 30
0.0
 11
222.427315
 21
-170.944727
 31
0.0
  0
LINE
  5
2AE
100
AcDbEntity
  8
2
370
    50
100
AcDbLine
 10
216.327315
 20
-186.944727
 30
0.0
 11
222.427315
 21
-186.944727
 31
0.0
  0
LINE
  5
2AF
100
AcDbEntity
  8
2
370
    50
100
AcDbLine
 10
216.127315
 20
-171.144727
 30
0.0
 11
216.127315
 21
-186.744727
 31
0.0
  0
LINE
  5
2B0
100
AcDbEntity
  8
2
370
    50
100
AcDbLine
 10
222.627315
 20
-171.144727
 30
0.0
 11
222.627315
 21
-186.744727
 31
0.0
  0
LINE
  5
2B1
100
AcDbEntity
  8
2
370
    50
100
AcDbLine
 10
216.127315
 20
-171.144727
 30
0.0
 11
216.327315
 21
-170.944727
 31
0.0
  0
LINE
  5
2B2
100
AcDbEntity
  8
2
370
    50
100
AcDbLine
 10
222.427315
 20
-170.944727
 30
0.0
 11
222.627315
 21
-171.144727
 31
0.0
  0
LINE
  5
2B3
100
AcDbEntity
  8
2
370
    25
100
AcDbLine
 10
216.327315
 20
-170.944727
 30
0.0
 11
216.327315
 21
-186.944727
 31
0.0
  0
LINE
  5
2B4
100
AcDbEntity
  8
2
370
    25
100
AcDbLine
 10
222.427315
 20
-170.944727
 30
0.0
 11
222.427315
 21
-186.944727
 31
0.0
  0
LINE
  5
2B5
100
AcDbEntity
  8
2
370
    50
100
AcDbLine
 10
222.627315
 20
-186.744727
 30
0.0
 11
222.427315
 21
-186.944727
 31
0.0
  0
LINE
  5
2B6
100
AcDbEntity
  8
2
370
    50
100
AcDbLine
 10
222.927315
 20
-186.944727
 30
0.0
 11
229.776848
 21
-186.944727
 31
0.0
  0
LINE
  5
2B7
100
AcDbEntity
  8
2
370
    50
100
AcDbLine
 10
222.927315
 20
-170.944727
 30
0.0
 11
229.776848
 21
-170.944727
 31
0.0
  0
LINE
  5
2B8
100
AcDbEntity
  8
2
370
    50
100
AcDbLine
 10
222.927315
 20
-186.944727
 30
0.0
 11
222.627315
 21
-186.644727
 31
0.0
  0
LINE
  5
2B9
100
AcDbEntity
  8
2
370
    50
100
AcDbLine
 10
222.927315
 20
-170.944727
 30
0.0
 11
222.627315
 21
-171.244727
 31
0.0
  0
LINE
  5
2BA
100
AcDbEntity
  8
2
370
    25
100
AcDbLine
 10
222.927315
 20
-177.944727
 30
0.0
 11
229.776848
 21
-177.944727
 31
0.0
  0
LINE
  5
2BB
100
AcDbEntity
  8
2
370
    25
100
AcDbLine
 10
222.927315
 20
-175.944727
 30
0.0
 11
229.776848
 21
-175.944727
 31
0.0
  0
LINE
  5
2BC
100
AcDbEntity
  8
2
370
    25
100
AcDbLine
 10
222.927315
 20
-174.444727
 30
0.0
 11
229.776848
 21
-174.444727
 31
0.0
  0
LINE
  5
2BD
100
AcDbEntity
  8
2
370
    25
100
AcDbLine
 10
222.927315
 20
-173.444727
 30
0.0
 11
229.776848
 21
-173.444727
 31
0.0
  0
LINE
  5
2BE
100
AcDbEntity
  8
2
370
    25
100
AcDbLine
 10
222.927315
 20
-172.444727
 30
0.0
 11
229.776848
 21
-172.444727
 31
0.0
  0
LINE
  5
2BF
100
AcDbEntity
  8
2
370
    25
100
AcDbLine
 10
222.927315
 20
-171.444727
 30
0.0
 11
229.776848
 21
-171.444727
 31
0.0
  0
LINE
  5
2C0
100
AcDbEntity
  8
2
370
    50
100
AcDbLine
 10
222.927315
 20
-170.944727
 30
0.0
 11
222.927315
 21
-186.944727
 31
0.0
  0
LINE
  5
2C1
100
AcDbEntity
  8
2
370
    25
100
AcDbLine
 10
222.927315
 20
-179.944727
 30
0.0
 11
229.776848
 21
-179.944727
 31
0.0
  0
LINE
  5
2C2
100
AcDbEntity
  8
2
370
    25
100
AcDbLine
 10
222.927315
 20
-181.944727
 30
0.0
 11
229.776848
 21
-181.944727
 31
0.0
  0
LINE
  5
2C3
100
AcDbEntity
  8
2
370
    25
100
AcDbLine
 10
222.927315
 20
-183.444727
 30
0.0
 11
229.776848
 21
-183.444727
 31
0.0
  0
LINE
  5
2C4
100
AcDbEntity
  8
2
370
    25
100
AcDbLine
 10
222.927315
 20
-184.444727
 30
0.0
 11
229.776848
 21
-184.444727
 31
0.0
  0
LINE
  5
2C5
100
AcDbEntity
  8
2
370
    25
100
AcDbLine
 10
222.927315
 20
-185.444727
 30
0.0
 11
229.776848
 21
-185.444727
 31
0.0
  0
LINE
  5
2C6
100
AcDbEntity
  8
2
370
    25
100
AcDbLine
 10
222.927315
 20
-186.444727
 30
0.0
 11
229.776848
 21
-186.444727
 31
0.0
  0
LINE
  5
2C7
100
AcDbEntity
  8
2
370
    50
100
AcDbLine
 10
280.777344
 20
-195.444551
 30
0.0
 11
280.777344
 21
-166.444551
 31
0.0
  0
LINE
  5
2C8
100
AcDbEntity
  8
2
370
    50
100
AcDbLine
 10
267.776992
 20
-195.944551
 30
0.0
 11
255.277344
 21
-195.944551
 31
0.0
  0
LINE
  5
2C9
100
AcDbEntity
  8
2
370
    50
100
AcDbLine
 10
267.776992
 20
-195.944551
 30
0.0
 11
280.277344
 21
-195.944551
 31
0.0
  0
LINE
  5
2CA
100
AcDbEntity
  8
2
370
    50
100
AcDbLine
 10
279.776992
 20
-204.444551
 30
0.0
 11
279.776992
 21
-196.444551
 31
0.0
  0
LINE
  5
2CB
100
AcDbEntity
  8
2
370
    50
100
AcDbLine
 10
255.776992
 20
-204.444551
 30
0.0
 11
255.776992
 21
-196.444551
 31
0.0
  0
LINE
  5
2CC
100
AcDbEntity
  8
2
370
    50
100
AcDbLine
 10
278.276992
 20
-205.944551
 30
0.0
 11
257.276992
 21
-205.944551
 31
0.0
  0
LINE
  5
2CD
100
AcDbEntity
  8
2
370
    50
100
AcDbLine
 10
257.276992
 20
-205.944551
 30
0.0
 11
255.776992
 21
-204.444551
 31
0.0
  0
LINE
  5
2CE
100
AcDbEntity
  8
2
370
    50
100
AcDbLine
 10
278.276992
 20
-205.944551
 30
0.0
 11
279.776992
 21
-204.444551
 31
0.0
  0
LINE
  5
2CF
100
AcDbEntity
  8
2
370
    50
100
AcDbLine
 10
254.777344
 20
-195.444551
 30
0.0
 11
254.777344
 21
-190.444551
 31
0.0
  0
LINE
  5
2D0
100
AcDbEntity
  8
2
370
    50
100
AcDbLine
 10
254.777344
 20
-167.444551
 30
0.0
 11
254.777344
 21
-166.444551
 31
0.0
  0
LINE
  5
2D1
100
AcDbEntity
  8
2
370
    50
100
AcDbLine
 10
250.776848
 20
-167.444551
 30
0.0
 11
254.777344
 21
-167.444551
 31
0.0
  0
LINE
  5
2D2
100
AcDbEntity
  8
2
370
    50
100
AcDbLine
 10
255.277344
 20
-165.944551
 30
0.0
 11
267.776992
 21
-165.944551
 31
0.0
  0
LINE
  5
2D3
100
AcDbEntity
  8
2
370
    50
100
AcDbLine
 10
267.776992
 20
-165.944551
 30
0.0
 11
280.277344
 21
-165.944551
 31
0.0
  0
LINE
  5
2D4
100
AcDbEntity
  8
2
370
    50
100
AcDbLine
 10
255.277344
 20
-165.944551
 30
0.0
 11
254.777344
 21
-166.444551
 31
0.0
  0
LINE
  5
2D5
100
AcDbEntity
  8
2
370
    50
100
AcDbLine
 10
280.277344
 20
-165.944551
 30
0.0
 11
280.777344
 21
-166.444551
 31
0.0
  0
LINE
  5
2D6
100
AcDbEntity
  8
2
370
    50
100
AcDbLine
 10
255.277344
 20
-195.944551
 30
0.0
 11
254.777344
 21
-195.444551
 31
0.0
  0
LINE
  5
2D7
100
AcDbEntity
  8
2
370
    50
100
AcDbLine
 10
280.777344
 20
-195.444551
 30
0.0
 11
280.277344
 21
-195.944551
 31
0.0
  0
LINE
  5
2D8
100
AcDbEntity
  8
2
370
    50
100
AcDbLine
 10
250.776848
 20
-168.194551
 30
0.0
 11
251.777344
 21
-168.194551
 31
0.0
  0
LINE
  5
2D9
100
AcDbEntity
  8
2
370
    50
100
AcDbLine
 10
276.776992
 20
-165.944551
 30
0.0
 11
276.776992
 21
-164.944436
 31
0.0
  0
LINE
  5
2DA
100
AcDbEntity
  8
2
370
    50
100
AcDbLine
 10
258.776992
 20
-165.944551
 30
0.0
 11
258.776992
 21
-164.944436
 31
0.0
  0
LINE
  5
2DB
100
AcDbEntity
  8
2
370
    50
100
AcDbLine
 10
251.777344
 20
-168.194551
 30
0.0
 11
253.076382
 21
-167.444551
 31
0.0
  0
LINE
  5
2DC
100
AcDbEntity
  8
2
370
    50
100
AcDbLine
 10
250.776848
 20
-189.694551
 30
0.0
 11
251.777344
 21
-189.694551
 31
0.0
  0
LINE
  5
2DD
100
AcDbEntity
  8
2
370
    50
100
AcDbLine
 10
251.777344
 20
-189.694551
 30
0.0
 11
253.076382
 21
-190.444551
 31
0.0
  0
LINE
  5
2DE
100
AcDbEntity
  8
2
370
    50
100
AcDbLine
 10
250.776848
 20
-190.444551
 30
0.0
 11
254.777344
 21
-190.444551
 31
0.0
  0
LINE
  5
2DF
100
AcDbEntity
  8
2
370
    50
100
AcDbLine
 10
254.276547
 20
-150.944436
 30
0.0
 11
254.276547
 21
-162.944436
 31
0.0
  0
LINE
  5
2E0
100
AcDbEntity
  8
2
370
    50
100
AcDbLine
 10
281.276547
 20
-150.944436
 30
0.0
 11
281.276547
 21
-162.944436
 31
0.0
  0
ARC
  5
2E1
100
AcDbEntity
  8
2
370
    50
100
AcDbCircle
 10
256.276547
 20
-150.944436
 30
0.0
 40
2.0
100
AcDbArc
 50
90.0
 51
180.0
  0
ARC
  5
2E2
100
AcDbEntity
  8
2
370
    50
100
AcDbCircle
 10
256.276547
 20
-162.944436
 30
0.0
 40
2.0
100
AcDbArc
 50
180.0
 51
270.0
  0
ARC
  5
2E3
100
AcDbEntity
  8
2
370
    50
100
AcDbCircle
 10
279.276547
 20
-162.944436
 30
0.0
 40
2.0
100
AcDbArc
 50
270.0
 51
360.0
  0
ARC
  5
2E4
100
AcDbEntity
  8
2
370
    50
100
AcDbCircle
 10
279.276547
 20
-150.944436
 30
0.0
 40
2.0
100
AcDbArc
 50
360.0
 51
90.0
  0
LINE
  5
2E5
100
AcDbEntity
  8
2
370
    50
100
AcDbLine
 10
279.276547
 20
-164.944436
 30
0.0
 11
267.776992
 21
-164.944436
 31
0.0
  0
LINE
  5
2E6
100
AcDbEntity
  8
2
370
    50
100
AcDbLine
 10
267.776992
 20
-164.944436
 30
0.0
 11
256.276547
 21
-164.944436
 31
0.0
  0
LINE
  5
2E7
100
AcDbEntity
  8
2
370
    50
100
AcDbLine
 10
255.776992
 20
-196.444551
 30
0.0
 11
256.276992
 21
-195.944551
 31
0.0
  0
LINE
  5
2E8
100
AcDbEntity
  8
2
370
    50
100
AcDbLine
 10
279.776992
 20
-196.444551
 30
0.0
 11
279.276992
 21
-195.944551
 31
0.0
  0
LINE
  5
2E9
100
AcDbEntity
  8
2
370
    50
100
AcDbLine
 10
279.276547
 20
-148.944436
 30
0.0
 11
256.276547
 21
-148.944436
 31
0.0
  0
LINE
  5
2EA
100
AcDbEntity
  8
2
370
    50
100
AcDbLine
 10
277.526992
 20
-150.243589
 30
0.0
 11
274.526992
 21
-150.243589
 31
0.0
  0
ARC
  5
2EB
100
AcDbEntity
  8
2
370
    50
100
AcDbCircle
 10
279.526992
 20
-151.133671
 30
0.0
 40
2.18912
100
AcDbArc
 50
90.396924
 51
156.008986
  0
LINE
  5
2EC
100
AcDbEntity
  8
2
370
    50
100
AcDbLine
 10
274.526992
 20
-154.944551
 30
0.0
 11
274.526992
 21
-150.243589
 31
0.0
  0
LINE
  5
2ED
100
AcDbEntity
  8
2
370
    50
100
AcDbLine
 10
277.527
 20
-154.944551
 30
0.0
 11
277.526992
 21
-150.243589
 31
0.0
  0
ARC
  5
2EE
100
AcDbEntity
  8
2
370
    50
100
AcDbCircle
 10
267.776992
 20
-167.131085
 30
0.0
 40
18.186533
100
AcDbArc
 50
68.213211
 51
90.0
  0
LINE
  5
2EF
100
AcDbEntity
  8
2
370
    50
100
AcDbLine
 10
277.526992
 20
-163.645513
 30
0.0
 11
274.526992
 21
-163.645513
 31
0.0
  0
ARC
  5
2F0
100
AcDbEntity
  8
2
370
    50
100
AcDbCircle
 10
279.526992
 20
-162.755432
 30
0.0
 40
2.18912
100
AcDbArc
 50
203.991014
 51
266.621413
  0
LINE
  5
2F1
100
AcDbEntity
  8
2
370
    50
100
AcDbLine
 10
274.526992
 20
-154.944551
 30
0.0
 11
274.526992
 21
-163.645513
 31
0.0
  0
LINE
  5
2F2
100
AcDbEntity
  8
2
370
    50
100
AcDbLine
 10
277.527
 20
-154.944551
 30
0.0
 11
277.527
 21
-163.645513
 31
0.0
  0
ARC
  5
2F3
100
AcDbEntity
  8
2
370
    50
100
AcDbCircle
 10
267.776992
 20
-146.758018
 30
0.0
 40
18.186533
100
AcDbArc
 50
270.0
 51
291.786789
  0
LINE
  5
2F4
100
AcDbEntity
  8
2
370
    50
100
AcDbLine
 10
258.027344
 20
-150.243589
 30
0.0
 11
261.027344
 21
-150.243589
 31
0.0
  0
ARC
  5
2F5
100
AcDbEntity
  8
2
370
    50
100
AcDbCircle
 10
256.027344
 20
-151.133671
 30
0.0
 40
2.18912
100
AcDbArc
 50
23.991014
 51
89.304196
  0
LINE
  5
2F6
100
AcDbEntity
  8
2
370
    50
100
AcDbLine
 10
261.027344
 20
-154.944551
 30
0.0
 11
261.027344
 21
-150.243589
 31
0.0
  0
LINE
  5
2F7
100
AcDbEntity
  8
2
370
    50
100
AcDbLine
 10
258.027336
 20
-154.944551
 30
0.0
 11
258.027344
 21
-150.243589
 31
0.0
  0
ARC
  5
2F8
100
AcDbEntity
  8
2
370
    50
100
AcDbCircle
 10
267.777344
 20
-167.131085
 30
0.0
 40
18.186533
100
AcDbArc
 50
90.0
 51
111.786789
  0
LINE
  5
2F9
100
AcDbEntity
  8
2
370
    50
100
AcDbLine
 10
258.027344
 20
-163.645513
 30
0.0
 11
261.027344
 21
-163.645513
 31
0.0
  0
ARC
  5
2FA
100
AcDbEntity
  8
2
370
    50
100
AcDbCircle
 10
256.027344
 20
-162.755432
 30
0.0
 40
2.18912
100
AcDbArc
 50
273.362072
 51
336.008986
  0
LINE
  5
2FB
100
AcDbEntity
  8
2
370
    50
100
AcDbLine
 10
261.027344
 20
-154.944551
 30
0.0
 11
261.027344
 21
-163.645513
 31
0.0
  0
LINE
  5
2FC
100
AcDbEntity
  8
2
370
    50
100
AcDbLine
 10
258.027336
 20
-154.944551
 30
0.0
 11
258.027336
 21
-163.645513
 31
0.0
  0
ARC
  5
2FD
100
AcDbEntity
  8
2
370
    50
100
AcDbCircle
 10
267.777344
 20
-146.758018
 30
0.0
 40
18.186533
100
AcDbArc
 50
248.213211
 51
270.0
  0
LINE
  5
2FE
100
AcDbEntity
  8
2
370
    50
100
AcDbLine
 10
279.776992
 20
-196.444551
 30
0.0
 11
255.776992
 21
-196.444551
 31
0.0
  0
LINE
  5
2FF
100
AcDbEntity
  8
2
370
    50
100
AcDbLine
 10
255.776992
 20
-204.444551
 30
0.0
 11
279.776992
 21
-204.444551
 31
0.0
  0
LINE
  5
300
100
AcDbEntity
  8
2
370
    50
100
AcDbLine
 10
278.776992
 20
-204.444551
 30
0.0
 11
278.776992
 21
-196.444551
 31
0.0
  0
LINE
  5
301
100
AcDbEntity
  8
2
370
    50
100
AcDbLine
 10
277.776992
 20
-204.444551
 30
0.0
 11
277.776992
 21
-196.444551
 31
0.0
  0
LINE
  5
302
100
AcDbEntity
  8
2
370
    50
100
AcDbLine
 10
276.776992
 20
-204.444551
 30
0.0
 11
276.776992
 21
-196.444551
 31
0.0
  0
LINE
  5
303
100
AcDbEntity
  8
2
370
    50
100
AcDbLine
 10
275.776992
 20
-204.444551
 30
0.0
 11
275.776992
 21
-196.444551
 31
0.0
  0
LINE
  5
304
100
AcDbEntity
  8
2
370
    50
100
AcDbLine
 10
274.776992
 20
-204.444551
 30
0.0
 11
274.776992
 21
-196.444551
 31
0.0
  0
LINE
  5
305
100
AcDbEntity
  8
2
370
    50
100
AcDbLine
 10
273.776992
 20
-204.444551
 30
0.0
 11
273.776992
 21
-196.444551
 31
0.0
  0
LINE
  5
306
100
AcDbEntity
  8
2
370
    50
100
AcDbLine
 10
272.776992
 20
-204.444551
 30
0.0
 11
272.776992
 21
-196.444551
 31
0.0
  0
LINE
  5
307
100
AcDbEntity
  8
2
370
    50
100
AcDbLine
 10
271.776992
 20
-204.444551
 30
0.0
 11
271.776992
 21
-196.444551
 31
0.0
  0
LINE
  5
308
100
AcDbEntity
  8
2
370
    50
100
AcDbLine
 10
270.776992
 20
-204.444551
 30
0.0
 11
270.776992
 21
-196.444551
 31
0.0
  0
LINE
  5
309
100
AcDbEntity
  8
2
370
    50
100
AcDbLine
 10
269.776992
 20
-204.444551
 30
0.0
 11
269.776992
 21
-196.444551
 31
0.0
  0
LINE
  5
30A
100
AcDbEntity
  8
2
370
    50
100
AcDbLine
 10
268.776992
 20
-204.444551
 30
0.0
 11
268.776992
 21
-196.444551
 31
0.0
  0
LINE
  5
30B
100
AcDbEntity
  8
2
370
    50
100
AcDbLine
 10
267.776992
 20
-204.444551
 30
0.0
 11
267.776992
 21
-196.444551
 31
0.0
  0
LINE
  5
30C
100
AcDbEntity
  8
2
370
    50
100
AcDbLine
 10
266.776992
 20
-204.444551
 30
0.0
 11
266.776992
 21
-196.444551
 31
0.0
  0
LINE
  5
30D
100
AcDbEntity
  8
2
370
    50
100
AcDbLine
 10
265.776992
 20
-204.444551
 30
0.0
 11
265.776992
 21
-196.444551
 31
0.0
  0
LINE
  5
30E
100
AcDbEntity
  8
2
370
    50
100
AcDbLine
 10
264.776992
 20
-204.444551
 30
0.0
 11
264.776992
 21
-196.444551
 31
0.0
  0
LINE
  5
30F
100
AcDbEntity
  8
2
370
    50
100
AcDbLine
 10
263.776992
 20
-204.444551
 30
0.0
 11
263.776992
 21
-196.444551
 31
0.0
  0
LINE
  5
310
100
AcDbEntity
  8
2
370
    50
100
AcDbLine
 10
262.776992
 20
-204.444551
 30
0.0
 11
262.776992
 21
-196.444551
 31
0.0
  0
LINE
  5
311
100
AcDbEntity
  8
2
370
    50
100
AcDbLine
 10
261.776992
 20
-204.444551
 30
0.0
 11
261.776992
 21
-196.444551
 31
0.0
  0
LINE
  5
312
100
AcDbEntity
  8
2
370
    50
100
AcDbLine
 10
260.776992
 20
-204.444551
 30
0.0
 11
260.776992
 21
-196.444551
 31
0.0
  0
LINE
  5
313
100
AcDbEntity
  8
2
370
    50
100
AcDbLine
 10
259.776992
 20
-204.444551
 30
0.0
 11
259.776992
 21
-196.444551
 31
0.0
  0
LINE
  5
314
100
AcDbEntity
  8
2
370
    50
100
AcDbLine
 10
258.776992
 20
-204.444551
 30
0.0
 11
258.776992
 21
-196.444551
 31
0.0
  0
LINE
  5
315
100
AcDbEntity
  8
2
370
    50
100
AcDbLine
 10
257.776992
 20
-204.444551
 30
0.0
 11
257.776992
 21
-196.444551
 31
0.0
  0
LINE
  5
316
100
AcDbEntity
  8
2
370
    50
100
AcDbLine
 10
256.776992
 20
-204.444551
 30
0.0
 11
256.776992
 21
-196.444551
 31
0.0
  0
LINE
  5
317
100
AcDbEntity
  8
2
370
    50
100
AcDbLine
 10
254.276547
 20
-150.944436
 30
0.0
 11
254.276547
 21
-162.944436
 31
0.0
  0
LINE
  5
318
100
AcDbEntity
  8
2
370
    50
100
AcDbLine
 10
281.276547
 20
-150.944436
 30
0.0
 11
281.276547
 21
-162.944436
 31
0.0
  0
ARC
  5
319
100
AcDbEntity
  8
2
370
    50
100
AcDbCircle
 10
256.276547
 20
-150.944436
 30
0.0
 40
2.0
100
AcDbArc
 50
90.0
 51
180.0
  0
ARC
  5
31A
100
AcDbEntity
  8
2
370
    50
100
AcDbCircle
 10
279.276547
 20
-150.944436
 30
0.0
 40
2.0
100
AcDbArc
 50
360.0
 51
90.0
  0
LINE
  5
31B
100
AcDbEntity
  8
2
370
    50
100
AcDbLine
 10
279.276547
 20
-148.944436
 30
0.0
 11
256.276547
 21
-148.944436
 31
0.0
  0
LINE
  5
31C
100
AcDbEntity
  8
2
370
    50
100
AcDbLine
 10
277.526992
 20
-150.243589
 30
0.0
 11
274.526992
 21
-150.243589
 31
0.0
  0
ARC
  5
31D
100
AcDbEntity
  8
2
370
    50
100
AcDbCircle
 10
279.526992
 20
-151.133671
 30
0.0
 40
2.18912
100
AcDbArc
 50
90.396924
 51
156.008986
  0
LINE
  5
31E
100
AcDbEntity
  8
2
370
    50
100
AcDbLine
 10
274.526992
 20
-154.944551
 30
0.0
 11
274.526992
 21
-150.243589
 31
0.0
  0
LINE
  5
31F
100
AcDbEntity
  8
2
370
    50
100
AcDbLine
 10
277.527
 20
-154.944551
 30
0.0
 11
277.526992
 21
-150.243589
 31
0.0
  0
ARC
  5
320
100
AcDbEntity
  8
2
370
    50
100
AcDbCircle
 10
267.776992
 20
-167.131085
 30
0.0
 40
18.186533
100
AcDbArc
 50
68.213211
 51
90.0
  0
LINE
  5
321
100
AcDbEntity
  8
2
370
    50
100
AcDbLine
 10
258.027344
 20
-150.243589
 30
0.0
 11
261.027344
 21
-150.243589
 31
0.0
  0
ARC
  5
322
100
AcDbEntity
  8
2
370
    50
100
AcDbCircle
 10
256.027344
 20
-151.133671
 30
0.0
 40
2.18912
100
AcDbArc
 50
23.991014
 51
89.304196
  0
LINE
  5
323
100
AcDbEntity
  8
2
370
    50
100
AcDbLine
 10
261.027344
 20
-154.944551
 30
0.0
 11
261.027344
 21
-150.243589
 31
0.0
  0
LINE
  5
324
100
AcDbEntity
  8
2
370
    50
100
AcDbLine
 10
258.027336
 20
-154.944551
 30
0.0
 11
258.027344
 21
-150.243589
 31
0.0
  0
ARC
  5
325
100
AcDbEntity
  8
2
370
    50
100
AcDbCircle
 10
267.777344
 20
-167.131085
 30
0.0
 40
18.186533
100
AcDbArc
 50
90.0
 51
111.786789
  0
LINE
  5
326
100
AcDbEntity
  8
2
370
    50
100
AcDbLine
 10
239.776848
 20
-191.694727
 30
0.0
 11
239.776848
 21
-166.194727
 31
0.0
  0
LINE
  5
327
100
AcDbEntity
  8
2
370
    50
100
AcDbLine
 10
241.508899
 20
-165.194727
 30
0.0
 11
249.044797
 21
-165.194727
 31
0.0
  0
LINE
  5
328
100
AcDbEntity
  8
2
370
    50
100
AcDbLine
 10
241.508899
 20
-165.446838
 30
0.0
 11
249.044797
 21
-165.446838
 31
0.0
  0
LINE
  5
329
100
AcDbEntity
  8
2
370
    50
100
AcDbLine
 10
241.508899
 20
-169.925956
 30
0.0
 11
249.044797
 21
-169.925956
 31
0.0
  0
LINE
  5
32A
100
AcDbEntity
  8
2
370
    50
100
AcDbLine
 10
241.508899
 20
-174.465609
 30
0.0
 11
249.044797
 21
-174.465609
 31
0.0
  0
LINE
  5
32B
100
AcDbEntity
  8
2
370
    50
100
AcDbLine
 10
239.776848
 20
-166.194727
 30
0.0
 11
241.508899
 21
-165.194727
 31
0.0
  0
LINE
  5
32C
100
AcDbEntity
  8
2
370
    50
100
AcDbLine
 10
250.776848
 20
-166.194727
 30
0.0
 11
249.044797
 21
-165.194727
 31
0.0
  0
LINE
  5
32D
100
AcDbEntity
  8
2
370
    50
100
AcDbLine
 10
249.044797
 20
-165.194727
 30
0.0
 11
249.044797
 21
-165.446838
 31
0.0
  0
LINE
  5
32E
100
AcDbEntity
  8
2
370
    50
100
AcDbLine
 10
241.508899
 20
-165.194727
 30
0.0
 11
241.508899
 21
-165.446838
 31
0.0
  0
LINE
  5
32F
100
AcDbEntity
  8
2
370
    50
100
AcDbLine
 10
241.508899
 20
-169.925956
 30
0.0
 11
241.508899
 21
-174.465609
 31
0.0
  0
LINE
  5
330
100
AcDbEntity
  8
2
370
    50
100
AcDbLine
 10
249.044797
 20
-169.925956
 30
0.0
 11
249.044797
 21
-174.465609
 31
0.0
  0
ARC
  5
331
100
AcDbEntity
  8
2
370
    50
100
AcDbCircle
 10
248.581439
 20
-178.944727
 30
0.0
 40
8.371579
100
AcDbArc
 50
147.653468
 51
212.346532
  0
ARC
  5
332
100
AcDbEntity
  8
2
370
    50
100
AcDbCircle
 10
241.972256
 20
-178.944727
 30
0.0
 40
8.371579
100
AcDbArc
 50
327.653468
 51
32.346532
  0
ARC
  5
333
100
AcDbEntity
  8
2
370
    50
100
AcDbCircle
 10
242.789894
 20
-167.686397
 30
0.0
 40
2.580034
100
AcDbArc
 50
119.768942
 51
240.231058
  0
ARC
  5
334
100
AcDbEntity
  8
2
370
    50
100
AcDbCircle
 10
247.763801
 20
-167.686397
 30
0.0
 40
2.580034
100
AcDbArc
 50
299.768942
 51
60.231058
  0
LINE
  5
335
100
AcDbEntity
  8
2
370
    50
100
AcDbLine
 10
230.276848
 20
-168.444727
 30
0.0
 11
229.776848
 21
-168.944727
 31
0.0
  0
LINE
  5
336
100
AcDbEntity
  8
2
370
    50
100
AcDbLine
 10
230.276848
 20
-168.444727
 30
0.0
 11
230.276848
 21
-189.444727
 31
0.0
  0
LINE
  5
337
100
AcDbEntity
  8
2
370
    25
100
AcDbLine
 10
234.776848
 20
-188.944727
 30
0.0
 11
234.776848
 21
-168.944727
 31
0.0
  0
LINE
  5
338
100
AcDbEntity
  8
2
370
    50
100
AcDbLine
 10
239.776848
 20
-168.444727
 30
0.0
 11
235.276848
 21
-168.444727
 31
0.0
  0
LINE
  5
339
100
AcDbEntity
  8
2
370
    50
100
AcDbLine
 10
234.276848
 20
-168.444727
 30
0.0
 11
230.276848
 21
-168.444727
 31
0.0
  0
LINE
  5
33A
100
AcDbEntity
  8
2
370
    50
100
AcDbLine
 10
234.776848
 20
-168.944727
 30
0.0
 11
234.276848
 21
-168.444727
 31
0.0
  0
LINE
  5
33B
100
AcDbEntity
  8
2
370
    50
100
AcDbLine
 10
234.776848
 20
-168.944727
 30
0.0
 11
235.276848
 21
-168.444727
 31
0.0
  0
LINE
  5
33C
100
AcDbEntity
  8
2
370
    50
100
AcDbLine
 10
234.276848
 20
-168.444727
 30
0.0
 11
234.276848
 21
-189.444727
 31
0.0
  0
LINE
  5
33D
100
AcDbEntity
  8
2
370
    50
100
AcDbLine
 10
235.276848
 20
-168.444727
 30
0.0
 11
235.276848
 21
-189.444727
 31
0.0
  0
LINE
  5
33E
100
AcDbEntity
  8
2
370
    50
100
AcDbLine
 10
279.276547
 20
-146.944551
 30
0.0
 11
256.276547
 21
-146.944551
 31
0.0
  0
LINE
  5
33F
100
AcDbEntity
  8
2
370
    50
100
AcDbLine
 10
256.276547
 20
-145.144551
 30
0.0
 11
256.276547
 21
-148.944436
 31
0.0
  0
LINE
  5
340
100
AcDbEntity
  8
2
370
    25
100
AcDbLine
 10
256.976547
 20
-146.944551
 30
0.0
 11
256.976547
 21
-148.944436
 31
0.0
  0
LINE
  5
341
100
AcDbEntity
  8
2
370
    50
100
AcDbLine
 10
256.476547
 20
-144.944551
 30
0.0
 11
256.276547
 21
-145.144551
 31
0.0
  0
LINE
  5
342
100
AcDbEntity
  8
2
370
    50
100
AcDbLine
 10
256.976547
 20
-146.944551
 30
0.0
 11
256.276547
 21
-146.244551
 31
0.0
  0
LINE
  5
343
100
AcDbEntity
  8
2
370
    25
100
AcDbLine
 10
279.276547
 20
-145.144551
 30
0.0
 11
256.276547
 21
-145.144551
 31
0.0
  0
LINE
  5
344
100
AcDbEntity
  8
2
370
    50
100
AcDbLine
 10
250.776848
 20
-191.694727
 30
0.0
 11
250.776848
 21
-166.194727
 31
0.0
  0
LINE
  5
345
100
AcDbEntity
  8
2
370
    50
100
AcDbLine
 10
229.776848
 20
-188.944727
 30
0.0
 11
229.776848
 21
-168.944727
 31
0.0
  0
LINE
  5
346
100
AcDbEntity
  8
2
370
    50
100
AcDbLine
 10
279.076547
 20
-144.944551
 30
0.0
 11
279.276547
 21
-145.144551
 31
0.0
  0
LINE
  5
347
100
AcDbEntity
  8
2
370
    50
100
AcDbLine
 10
279.276547
 20
-145.144551
 30
0.0
 11
279.276547
 21
-148.944436
 31
0.0
  0
LINE
  5
348
100
AcDbEntity
  8
2
370
    50
100
AcDbLine
 10
278.576547
 20
-146.944551
 30
0.0
 11
279.276547
 21
-146.244551
 31
0.0
  0
LINE
  5
349
100
AcDbEntity
  8
2
370
    25
100
AcDbLine
 10
278.576547
 20
-146.944551
 30
0.0
 11
278.576547
 21
-148.944436
 31
0.0
  0
LINE
  5
34A
100
AcDbEntity
  8
2
370
    50
100
AcDbLine
 10
256.476547
 20
-144.944551
 30
0.0
 11
279.076547
 21
-144.944551
 31
0.0
  0
LINE
  5
34B
100
AcDbEntity
  8
2
370
    50
100
AcDbLine
 10
230.276848
 20
-189.444727
 30
0.0
 11
229.776848
 21
-188.944727
 31
0.0
  0
LINE
  5
34C
100
AcDbEntity
  8
2
370
    50
100
AcDbLine
 10
234.276848
 20
-189.444727
 30
0.0
 11
230.276848
 21
-189.444727
 31
0.0
  0
LINE
  5
34D
100
AcDbEntity
  8
2
370
    50
100
AcDbLine
 10
234.776848
 20
-188.944727
 30
0.0
 11
234.276848
 21
-189.444727
 31
0.0
  0
LINE
  5
34E
100
AcDbEntity
  8
2
370
    50
100
AcDbLine
 10
234.776848
 20
-188.944727
 30
0.0
 11
235.276848
 21
-189.444727
 31
0.0
  0
LINE
  5
34F
100
AcDbEntity
  8
2
370
    50
100
AcDbLine
 10
239.776848
 20
-189.444727
 30
0.0
 11
235.276848
 21
-189.444727
 31
0.0
  0
LINE
  5
350
100
AcDbEntity
  8
2
370
    50
100
AcDbLine
 10
239.776848
 20
-191.694727
 30
0.0
 11
241.508899
 21
-192.694727
 31
0.0
  0
LINE
  5
351
100
AcDbEntity
  8
2
370
    50
100
AcDbLine
 10
239.776848
 20
-191.694727
 30
0.0
 11
241.508899
 21
-192.694727
 31
0.0
  0
LINE
  5
352
100
AcDbEntity
  8
2
370
    50
100
AcDbLine
 10
241.508899
 20
-192.694727
 30
0.0
 11
249.044797
 21
-192.694727
 31
0.0
  0
LINE
  5
353
100
AcDbEntity
  8
2
370
    50
100
AcDbLine
 10
241.508899
 20
-192.442617
 30
0.0
 11
249.044797
 21
-192.442617
 31
0.0
  0
LINE
  5
354
100
AcDbEntity
  8
2
370
    50
100
AcDbLine
 10
241.508899
 20
-192.694727
 30
0.0
 11
241.508899
 21
-192.442617
 31
0.0
  0
ARC
  5
355
100
AcDbEntity
  8
2
370
    50
100
AcDbCircle
 10
242.789894
 20
-190.203058
 30
0.0
 40
2.580034
100
AcDbArc
 50
119.768942
 51
240.231058
  0
LINE
  5
356
100
AcDbEntity
  8
2
370
    50
100
AcDbLine
 10
241.508899
 20
-192.442617
 30
0.0
 11
249.044797
 21
-192.442617
 31
0.0
  0
LINE
  5
357
100
AcDbEntity
  8
2
370
    50
100
AcDbLine
 10
249.044797
 20
-192.694727
 30
0.0
 11
249.044797
 21
-192.442617
 31
0.0
  0
ARC
  5
358
100
AcDbEntity
  8
2
370
    50
100
AcDbCircle
 10
247.763801
 20
-190.203058
 30
0.0
 40
2.580034
100
AcDbArc
 50
299.768942
 51
60.231058
  0
LINE
  5
359
100
AcDbEntity
  8
2
370
    50
100
AcDbLine
 10
250.776848
 20
-191.694727
 30
0.0
 11
249.044797
 21
-192.694727
 31
0.0
  0
LINE
  5
35A
100
AcDbEntity
  8
2
370
    50
100
AcDbLine
 10
241.508899
 20
-187.963499
 30
0.0
 11
249.044797
 21
-187.963499
 31
0.0
  0
LINE
  5
35B
100
AcDbEntity
  8
2
370
    50
100
AcDbLine
 10
241.508899
 20
-187.963499
 30
0.0
 11
241.508899
 21
-183.423846
 31
0.0
  0
LINE
  5
35C
100
AcDbEntity
  8
2
370
    50
100
AcDbLine
 10
249.044797
 20
-187.963499
 30
0.0
 11
249.044797
 21
-183.423846
 31
0.0
  0
LINE
  5
35D
100
AcDbEntity
  8
2
370
    50
100
AcDbLine
 10
241.508899
 20
-183.423846
 30
0.0
 11
249.044797
 21
-183.423846
 31
0.0
  0
LINE
  5
35E
100
AcDbEntity
  8
2
370
    50
100
AcDbLine
 10
251.777344
 20
-167.444551
 30
0.0
 11
251.777344
 21
-190.444551
 31
0.0
  0
LINE
  5
35F
100
AcDbEntity
  8
2
370
    50
100
AcDbLine
 10
216.127315
 20
-186.744727
 30
0.0
 11
216.327315
 21
-186.944727
 31
0.0
  0
LINE
  5
360
100
AcDbEntity
  8
2
370
    50
100
AcDbLine
 10
276.777117
 20
-100.144551
 30
0.0
 11
276.777117
 21
-101.944551
 31
0.0
  0
LINE
  5
361
100
AcDbEntity
  8
2
370
    50
100
AcDbLine
 10
267.776547
 20
-102.144551
 30
0.0
 11
276.577117
 21
-102.144551
 31
0.0
  0
LINE
  5
362
100
AcDbEntity
  8
2
370
    50
100
AcDbLine
 10
267.776547
 20
-106.144551
 30
0.0
 11
277.176547
 21
-106.144551
 31
0.0
  0
LINE
  5
363
100
AcDbEntity
  8
2
370
    50
100
AcDbLine
 10
276.577117
 20
-99.944551
 30
0.0
 11
276.777117
 21
-100.144551
 31
0.0
  0
LINE
  5
364
100
AcDbEntity
  8
2
370
    50
100
AcDbLine
 10
267.776547
 20
-99.944551
 30
0.0
 11
276.577117
 21
-99.944551
 31
0.0
  0
LINE
  5
365
100
AcDbEntity
  8
2
370
    50
100
AcDbLine
 10
277.676547
 20
-106.644551
 30
0.0
 11
277.676547
 21
-144.444551
 31
0.0
  0
LINE
  5
366
100
AcDbEntity
  8
2
370
    50
100
AcDbLine
 10
277.176547
 20
-144.944551
 30
0.0
 11
267.776547
 21
-144.944551
 31
0.0
  0
LINE
  5
367
100
AcDbEntity
  8
2
370
    50
100
AcDbLine
 10
277.176547
 20
-144.944551
 30
0.0
 11
277.676547
 21
-144.444551
 31
0.0
  0
LINE
  5
368
100
AcDbEntity
  8
2
370
    25
100
AcDbLine
 10
276.777117
 20
-100.144551
 30
0.0
 11
267.776547
 21
-100.144551
 31
0.0
  0
LINE
  5
369
100
AcDbEntity
  8
2
370
    50
100
AcDbLine
 10
276.777117
 20
-101.944551
 30
0.0
 11
276.577117
 21
-102.144551
 31
0.0
  0
LINE
  5
36A
100
AcDbEntity
  8
2
370
    25
100
AcDbLine
 10
276.777117
 20
-101.944551
 30
0.0
 11
267.776547
 21
-101.944551
 31
0.0
  0
LINE
  5
36B
100
AcDbEntity
  8
2
370
    50
100
AcDbLine
 10
277.176547
 20
-106.144551
 30
0.0
 11
277.676547
 21
-106.644551
 31
0.0
  0
LINE
  5
36C
100
AcDbEntity
  8
2
370
    25
100
AcDbLine
 10
277.676547
 20
-106.644551
 30
0.0
 11
271.900865
 21
-106.644551
 31
0.0
  0
LINE
  5
36D
100
AcDbEntity
  8
2
370
    25
100
AcDbLine
 10
277.676547
 20
-144.444551
 30
0.0
 11
267.776547
 21
-144.444551
 31
0.0
  0
LINE
  5
36E
100
AcDbEntity
  8
2
370
    50
100
AcDbLine
 10
267.776547
 20
-116.144551
 30
0.0
 11
271.900865
 21
-116.144551
 31
0.0
  0
LINE
  5
36F
100
AcDbEntity
  8
2
370
    50
100
AcDbLine
 10
271.900865
 20
-106.144551
 30
0.0
 11
271.900865
 21
-116.144551
 31
0.0
  0
LINE
  5
370
100
AcDbEntity
  8
2
370
    50
100
AcDbLine
 10
258.775978
 20
-100.144551
 30
0.0
 11
258.775978
 21
-101.944551
 31
0.0
  0
LINE
  5
371
100
AcDbEntity
  8
2
370
    50
100
AcDbLine
 10
267.776547
 20
-102.144551
 30
0.0
 11
258.975978
 21
-102.144551
 31
0.0
  0
LINE
  5
372
100
AcDbEntity
  8
2
370
    50
100
AcDbLine
 10
267.776547
 20
-106.144551
 30
0.0
 11
258.376547
 21
-106.144551
 31
0.0
  0
LINE
  5
373
100
AcDbEntity
  8
2
370
    50
100
AcDbLine
 10
258.975978
 20
-99.944551
 30
0.0
 11
258.775978
 21
-100.144551
 31
0.0
  0
LINE
  5
374
100
AcDbEntity
  8
2
370
    50
100
AcDbLine
 10
267.776547
 20
-99.944551
 30
0.0
 11
258.975978
 21
-99.944551
 31
0.0
  0
LINE
  5
375
100
AcDbEntity
  8
2
370
    50
100
AcDbLine
 10
257.876547
 20
-106.644551
 30
0.0
 11
257.876547
 21
-144.444551
 31
0.0
  0
LINE
  5
376
100
AcDbEntity
  8
2
370
    50
100
AcDbLine
 10
258.376547
 20
-144.944551
 30
0.0
 11
267.776547
 21
-144.944551
 31
0.0
  0
LINE
  5
377
100
AcDbEntity
  8
2
370
    50
100
AcDbLine
 10
258.376547
 20
-144.944551
 30
0.0
 11
257.876547
 21
-144.444551
 31
0.0
  0
LINE
  5
378
100
AcDbEntity
  8
2
370
    25
100
AcDbLine
 10
258.775978
 20
-100.144551
 30
0.0
 11
267.776547
 21
-100.144551
 31
0.0
  0
LINE
  5
379
100
AcDbEntity
  8
2
370
    50
100
AcDbLine
 10
258.775978
 20
-101.944551
 30
0.0
 11
258.975978
 21
-102.144551
 31
0.0
  0
LINE
  5
37A
100
AcDbEntity
  8
2
370
    25
100
AcDbLine
 10
258.775978
 20
-101.944551
 30
0.0
 11
267.776547
 21
-101.944551
 31
0.0
  0
LINE
  5
37B
100
AcDbEntity
  8
2
370
    50
100
AcDbLine
 10
258.376547
 20
-106.144551
 30
0.0
 11
257.876547
 21
-106.644551
 31
0.0
  0
LINE
  5
37C
100
AcDbEntity
  8
2
370
    25
100
AcDbLine
 10
257.876547
 20
-106.644551
 30
0.0
 11
263.652229
 21
-106.644551
 31
0.0
  0
LINE
  5
37D
100
AcDbEntity
  8
2
370
    25
100
AcDbLine
 10
257.876547
 20
-144.444551
 30
0.0
 11
267.776547
 21
-144.444551
 31
0.0
  0
LINE
  5
37E
100
AcDbEntity
  8
2
370
    50
100
AcDbLine
 10
267.776547
 20
-116.144551
 30
0.0
 11
263.652229
 21
-116.144551
 31
0.0
  0
LINE
  5
37F
100
AcDbEntity
  8
2
370
    50
100
AcDbLine
 10
263.652229
 20
-106.144551
 30
0.0
 11
263.652229
 21
-116.144551
 31
0.0
  0
LINE
  5
380
100
AcDbEntity
  8
2
370
    50
100
AcDbLine
 10
259.176547
 20
-99.744551
 30
0.0
 11
259.176547
 21
-97.344551
 31
0.0
  0
LINE
  5
381
100
AcDbEntity
  8
2
370
    50
100
AcDbLine
 10
274.776547
 20
-91.944551
 30
0.0
 11
260.776547
 21
-91.944551
 31
0.0
  0
LINE
  5
382
100
AcDbEntity
  8
2
370
    50
100
AcDbLine
 10
260.776547
 20
-91.944551
 30
0.0
 11
260.276547
 21
-92.444551
 31
0.0
  0
LINE
  5
383
100
AcDbEntity
  8
2
370
    50
100
AcDbLine
 10
275.276547
 20
-92.444551
 30
0.0
 11
274.776547
 21
-91.944551
 31
0.0
  0
LINE
  5
384
100
AcDbEntity
  8
2
370
    50
100
AcDbLine
 10
260.276547
 20
-97.144551
 30
0.0
 11
259.376547
 21
-97.144551
 31
0.0
  0
LINE
  5
385
100
AcDbEntity
  8
2
370
    50
100
AcDbLine
 10
276.376079
 20
-99.744551
 30
0.0
 11
276.376079
 21
-97.344551
 31
0.0
  0
LINE
  5
386
100
AcDbEntity
  8
2
370
    50
100
AcDbLine
 10
267.776547
 20
-97.144551
 30
0.0
 11
276.176079
 21
-97.144551
 31
0.0
  0
LINE
  5
387
100
AcDbEntity
  8
2
370
    50
100
AcDbLine
 10
259.376547
 20
-99.944551
 30
0.0
 11
262.776547
 21
-99.944551
 31
0.0
  0
LINE
  5
388
100
AcDbEntity
  8
2
370
    50
100
AcDbLine
 10
267.776547
 20
-99.944551
 30
0.0
 11
276.176079
 21
-99.944551
 31
0.0
  0
LINE
  5
389
100
AcDbEntity
  8
2
370
    50
100
AcDbLine
 10
276.176079
 20
-97.144551
 30
0.0
 11
276.376079
 21
-97.344551
 31
0.0
  0
LINE
  5
38A
100
AcDbEntity
  8
2
370
    50
100
AcDbLine
 10
276.376079
 20
-99.744551
 30
0.0
 11
276.176079
 21
-99.944551
 31
0.0
  0
LINE
  5
38B
100
AcDbEntity
  8
2
370
    50
100
AcDbLine
 10
259.176547
 20
-97.344551
 30
0.0
 11
259.376547
 21
-97.144551
 31
0.0
  0
LINE
  5
38C
100
AcDbEntity
  8
2
370
    50
100
AcDbLine
 10
259.176547
 20
-99.744551
 30
0.0
 11
259.376547
 21
-99.944551
 31
0.0
  0
LINE
  5
38D
100
AcDbEntity
  8
2
370
    25
100
AcDbLine
 10
275.276547
 20
-92.444551
 30
0.0
 11
267.776547
 21
-92.444551
 31
0.0
  0
LINE
  5
38E
100
AcDbEntity
  8
2
370
    25
100
AcDbLine
 10
276.376079
 20
-97.344551
 30
0.0
 11
267.776547
 21
-97.344551
 31
0.0
  0
LINE
  5
38F
100
AcDbEntity
  8
2
370
    25
100
AcDbLine
 10
276.376079
 20
-99.744551
 30
0.0
 11
267.776547
 21
-99.744551
 31
0.0
  0
LINE
  5
390
100
AcDbEntity
  8
2
370
    25
100
AcDbLine
 10
260.276547
 20
-92.444551
 30
0.0
 11
267.776547
 21
-92.444551
 31
0.0
  0
LINE
  5
391
100
AcDbEntity
  8
2
370
    50
100
AcDbLine
 10
267.776547
 20
-97.144551
 30
0.0
 11
259.377015
 21
-97.144551
 31
0.0
  0
LINE
  5
392
100
AcDbEntity
  8
2
370
    25
100
AcDbLine
 10
259.177015
 20
-97.344551
 30
0.0
 11
267.776547
 21
-97.344551
 31
0.0
  0
LINE
  5
393
100
AcDbEntity
  8
2
370
    25
100
AcDbLine
 10
259.177015
 20
-99.744551
 30
0.0
 11
267.776547
 21
-99.744551
 31
0.0
  0
LINE
  5
394
100
AcDbEntity
  8
2
370
    50
100
AcDbLine
 10
267.776547
 20
-99.944551
 30
0.0
 11
259.377015
 21
-99.944551
 31
0.0
  0
LINE
  5
395
100
AcDbEntity
  8
2
370
    50
100
AcDbLine
 10
253.277433
 20
-105.244551
 30
0.0
 11
253.277433
 21
-94.244551
 31
0.0
  0
LINE
  5
396
100
AcDbEntity
  8
2
370
    50
100
AcDbLine
 10
256.777433
 20
-97.744551
 30
0.0
 11
256.777433
 21
-101.744551
 31
0.0
  0
LINE
  5
397
100
AcDbEntity
  8
2
370
    50
100
AcDbLine
 10
283.277433
 20
-104.744551
 30
0.0
 11
283.277433
 21
-92.744551
 31
0.0
  0
ARC
  5
398
100
AcDbEntity
  8
2
370
    50
100
AcDbCircle
 10
257.777433
 20
-97.744551
 30
0.0
 40
1.0
100
AcDbArc
 50
90.0
 51
180.0
  0
ARC
  5
399
100
AcDbEntity
  8
2
370
    50
100
AcDbCircle
 10
257.777433
 20
-101.744551
 30
0.0
 40
1.0
100
AcDbArc
 50
180.0
 51
270.0
  0
ARC
  5
39A
100
AcDbEntity
  8
2
370
    50
100
AcDbCircle
 10
282.277433
 20
-104.744551
 30
0.0
 40
1.0
100
AcDbArc
 50
270.0
 51
360.0
  0
ARC
  5
39B
100
AcDbEntity
  8
2
370
    50
100
AcDbCircle
 10
253.777433
 20
-94.244551
 30
0.0
 40
0.5
100
AcDbArc
 50
90.0
 51
180.0
  0
ARC
  5
39C
100
AcDbEntity
  8
2
370
    50
100
AcDbCircle
 10
253.777433
 20
-105.244551
 30
0.0
 40
0.5
100
AcDbArc
 50
180.0
 51
270.0
  0
LINE
  5
39D
100
AcDbEntity
  8
2
370
    50
100
AcDbLine
 10
277.277
 20
-93.744551
 30
0.0
 11
253.777433
 21
-93.744551
 31
0.0
  0
LINE
  5
39E
100
AcDbEntity
  8
2
370
    50
100
AcDbLine
 10
282.277433
 20
-105.744551
 30
0.0
 11
253.777433
 21
-105.744551
 31
0.0
  0
LINE
  5
39F
100
AcDbEntity
  8
2
370
    50
100
AcDbLine
 10
277.277
 20
-96.744551
 30
0.0
 11
257.777433
 21
-96.744551
 31
0.0
  0
LINE
  5
3A0
100
AcDbEntity
  8
2
370
    50
100
AcDbLine
 10
277.277
 20
-102.744551
 30
0.0
 11
257.777433
 21
-102.744551
 31
0.0
  0
LINE
  5
3A1
100
AcDbEntity
  8
2
370
    50
100
AcDbLine
 10
275.276547
 20
-97.144551
 30
0.0
 11
275.276547
 21
-96.744551
 31
0.0
  0
LINE
  5
3A2
100
AcDbEntity
  8
2
370
    50
100
AcDbLine
 10
275.276547
 20
-93.744551
 30
0.0
 11
275.276547
 21
-92.444551
 31
0.0
  0
LINE
  5
3A3
100
AcDbEntity
  8
2
370
    50
100
AcDbLine
 10
260.276547
 20
-97.144551
 30
0.0
 11
260.276547
 21
-96.744551
 31
0.0
  0
LINE
  5
3A4
100
AcDbEntity
  8
2
370
    50
100
AcDbLine
 10
260.276547
 20
-93.744551
 30
0.0
 11
260.276547
 21
-92.444551
 31
0.0
  0
LINE
  5
3A5
100
AcDbEntity
  8
2
370
    50
100
AcDbLine
 10
260.275978
 20
-106.144551
 30
0.0
 11
260.275978
 21
-105.744551
 31
0.0
  0
LINE
  5
3A6
100
AcDbEntity
  8
2
370
    50
100
AcDbLine
 10
260.275978
 20
-102.744551
 30
0.0
 11
260.275978
 21
-102.144551
 31
0.0
  0
LINE
  5
3A7
100
AcDbEntity
  8
2
370
    50
100
AcDbLine
 10
275.277117
 20
-106.144551
 30
0.0
 11
275.277117
 21
-105.744551
 31
0.0
  0
LINE
  5
3A8
100
AcDbEntity
  8
2
370
    50
100
AcDbLine
 10
275.277117
 20
-102.744551
 30
0.0
 11
275.277117
 21
-102.144551
 31
0.0
  0
LINE
  5
3A9
100
AcDbEntity
  8
2
370
    50
100
AcDbLine
 10
276.276313
 20
-105.744551
 30
0.0
 11
276.276313
 21
-102.744551
 31
0.0
  0
LINE
  5
3AA
100
AcDbEntity
  8
2
370
    50
100
AcDbLine
 10
276.276313
 20
-96.744551
 30
0.0
 11
276.276313
 21
-93.744551
 31
0.0
  0
LINE
  5
3AB
100
AcDbEntity
  8
2
370
    50
100
AcDbLine
 10
259.276313
 20
-105.744551
 30
0.0
 11
259.276313
 21
-102.744551
 31
0.0
  0
LINE
  5
3AC
100
AcDbEntity
  8
2
370
    50
100
AcDbLine
 10
259.276313
 20
-96.744551
 30
0.0
 11
259.276313
 21
-93.744551
 31
0.0
  0
POINT
  5
3AD
100
AcDbEntity
  8
2
370
    50
100
AcDbPoint
 10
267.776547
 20
-91.944551
 30
0.0
  0
POINT
  5
3AE
100
AcDbEntity
  8
2
370
    50
100
AcDbPoint
 10
267.776547
 20
-91.944551
 30
0.0
  0
ARC
  5
3AF
100
AcDbEntity
  8
2
370
    50
100
AcDbCircle
 10
278.277
 20
-104.744551
 30
0.0
 40
1.0
100
AcDbArc
 50
180.0
 51
270.0
  0
LINE
  5
3B0
100
AcDbEntity
  8
2
370
    50
100
AcDbLine
 10
277.277
 20
-104.744551
 30
0.0
 11
277.277
 21
-92.744551
 31
0.0
  0
ARC
  5
3B1
100
AcDbEntity
  8
2
370
    50
100
AcDbCircle
 10
278.277
 20
-92.744551
 30
0.0
 40
1.0
100
AcDbArc
 50
90.0
 51
180.0
  0
LINE
  5
3B2
100
AcDbEntity
  8
2
370
    50
100
AcDbLine
 10
282.277433
 20
-91.744551
 30
0.0
 11
278.277
 21
-91.744551
 31
0.0
  0
ARC
  5
3B3
100
AcDbEntity
  8
2
370
    50
100
AcDbCircle
 10
282.277433
 20
-92.744551
 30
0.0
 40
1.0
100
AcDbArc
 50
360.0
 51
90.0
  0
LINE
  5
3B4
100
AcDbEntity
  8
2
370
    25
  6
CENTER
100
AcDbLine
 10
77.245911
 20
-178.944727
 30
0.0
 11
197.353241
 21
-178.944727
 31
0.0
  0
POINT
  5
3B5
100
AcDbEntity
  8
2
370
    50
100
AcDbPoint
 10
267.776547
 20
-117.444551
 30
0.0
  0
LINE
  5
3B6
100
AcDbEntity
  8
2
370
    25
  6
CENTER
100
AcDbLine
 10
77.245911
 20
-178.944727
 30
0.0
 11
77.245911
 21
-192.231171
 31
0.0
  0
LINE
  5
3B7
100
AcDbEntity
  8
2
370
    50
100
AcDbLine
 10
-150.586101
 20
104.418777
 30
0.0
 11
-150.586101
 21
92.238828
 31
0.0
  0
LINE
  5
3B8
100
AcDbEntity
  8
2
370
    50
100
AcDbLine
 10
-127.586101
 20
104.418777
 30
0.0
 11
-127.586101
 21
92.238828
 31
0.0
  0
ELLIPSE
  5
3B9
100
AcDbEntity
  8
2
370
    50
100
AcDbEllipse
 10
-139.086101
 20
104.418777
 30
0.0
 11
11.5
 21
0.0
 31
0.0
210
0.0
220
0.0
230
1.0
 40
0.501908
 41
0.0
 42
3.1415929999999999
  0
LINE
  5
3BA
100
AcDbEntity
  8
2
370
    50
100
AcDbLine
 10
-128.586101
 20
92.355766
 30
0.0
 11
-128.586101
 21
91.604413
 31
0.0
  0
ELLIPSE
  5
3BB
100
AcDbEntity
  8
2
370
    50
100
AcDbEllipse
 10
-139.086101
 20
91.604413
 30
0.0
 11
10.5
 21
0.0
 31
0.0
210
0.0
220
0.0
230
1.0
 40
0.442743
 41
0.0
 42
6.2831849999999996
  0
LINE
  5
3BC
100
AcDbEntity
  8
2
370
    50
100
AcDbLine
 10
-149.586101
 20
92.30571
 30
0.0
 11
-149.586101
 21
91.604413
 31
0.0
  0
ELLIPSE
  5
3BD
100
AcDbEntity
  8
2
370
    50
100
AcDbEllipse
 10
-139.086101
 20
92.238828
 30
0.0
 11
10.5
 21
0.0
 31
0.0
210
0.0
220
0.0
230
1.0
 40
0.442743
 41
0.0
 42
3.1415929999999999
  0
ELLIPSE
  5
3BE
100
AcDbEntity
  8
2
370
    50
100
AcDbEllipse
 10
-139.086101
 20
92.238828
 30
0.0
 11
11.5
 21
0.0
 31
0.0
210
0.0
220
0.0
230
1.0
 40
0.422618
 41
5.5752319999999997
 42
3.8595290000000002
  0
ELLIPSE
  5
3BF
100
AcDbEntity
  8
2
370
    50
100
AcDbEllipse
 10
-139.086101
 20
103.114522
 30
0.0
 11
11.5
 21
0.0
 31
0.0
210
0.0
220
0.0
230
1.0
 40
0.422618
 41
0.0
 42
3.1415929999999999
  0
LINE
  5
3C0
100
AcDbEntity
  8
2
370
    50
100
AcDbLine
 10
40.663001
 20
96.437861
 30
0.0
 11
50.632387
 21
91.78906
 31
0.0
  0
LINE
  5
3C1
100
AcDbEntity
  8
2
370
    50
100
AcDbLine
 10
46.924408
 20
111.048668
 30
0.0
 11
40.50565
 21
97.283599
 31
0.0
  0
LINE
  5
3C2
100
AcDbEntity
  8
2
370
    50
100
AcDbLine
 10
60.601773
 20
87.140259
 30
0.0
 11
50.632387
 21
91.78906
 31
0.0
  0
LINE
  5
3C3
100
AcDbEntity
  8
2
370
    50
100
AcDbLine
 10
66.917672
 20
99.501726
 30
0.0
 11
61.35073
 21
87.563379
 31
0.0
  0
LINE
  5
3C4
100
AcDbEntity
  8
2
370
    25
  6
CENTER
100
AcDbLine
 10
61.144514
 20
114.332466
 30
0.0
 11
49.432147
 21
89.215215
 31
0.0
  0
LINE
  5
3C5
100
AcDbEntity
  8
2
370
    50
100
AcDbLine
 10
40.50565
 20
97.283599
 30
0.0
 11
50.92822
 21
92.423475
 31
0.0
  0
LINE
  5
3C6
100
AcDbEntity
  8
2
370
    50
100
AcDbLine
 10
61.35073
 20
87.563379
 30
0.0
 11
50.92822
 21
92.423475
 31
0.0
  0
LINE
  5
3C7
100
AcDbEntity
  8
2
370
    50
100
AcDbLine
 10
60.601773
 20
87.140259
 30
0.0
 11
60.897605
 21
87.774674
 31
0.0
  0
LINE
  5
3C8
100
AcDbEntity
  8
2
370
    50
100
AcDbLine
 10
40.663001
 20
96.437861
 30
0.0
 11
40.958834
 21
97.072276
 31
0.0
  0
LINE
  5
3C9
100
AcDbEntity
  8
2
370
    50
100
AcDbLine
 10
45.57707
 20
108.159293
 30
0.0
 11
66.422149
 21
98.439073
 31
0.0
  0
LINE
  5
3CA
100
AcDbEntity
  8
2
370
    50
100
AcDbLine
 10
-149.292101
 20
-19.718494
 30
0.0
 11
-149.292101
 21
-90.218691
 31
0.0
  0
LINE
  5
3CB
100
AcDbEntity
  8
2
370
    50
100
AcDbLine
 10
-141.292101
 20
-53.565117
 30
0.0
 11
-141.292101
 21
-90.218691
 31
0.0
  0
LINE
  5
3CC
100
AcDbEntity
  8
2
370
    50
100
AcDbLine
 10
-135.292101
 20
-51.314877
 30
0.0
 11
-135.292101
 21
-100.218691
 31
0.0
  0
LINE
  5
3CD
100
AcDbEntity
  8
2
370
    50
100
AcDbLine
 10
-127.292101
 20
-19.718494
 30
0.0
 11
-127.292101
 21
-100.218691
 31
0.0
  0
LINE
  5
3CE
100
AcDbEntity
  8
2
370
    50
100
AcDbLine
 10
-137.042101
 20
-115.718691
 30
0.0
 11
-130.792101
 21
-115.718691
 31
0.0
  0
ARC
  5
3CF
100
AcDbEntity
  8
2
370
    50
100
AcDbCircle
 10
-131.292101
 20
-112.406191
 30
0.0
 40
3.3125
100
AcDbArc
 50
270.0
 51
301.890792
  0
LINE
  5
3D0
100
AcDbEntity
  8
2
370
    50
100
AcDbLine
 10
-137.542101
 20
-100.718691
 30
0.0
 11
-137.542101
 21
-115.218691
 31
0.0
  0
LINE
  5
3D1
100
AcDbEntity
  8
2
370
    50
100
AcDbLine
 10
-137.042101
 20
-115.718691
 30
0.0
 11
-137.542101
 21
-115.218691
 31
0.0
  0
LINE
  5
3D2
100
AcDbEntity
  8
2
370
    50
100
AcDbLine
 10
-133.042101
 20
-100.718691
 30
0.0
 11
-133.042101
 21
-115.218691
 31
0.0
  0
LINE
  5
3D3
100
AcDbEntity
  8
2
370
    50
100
AcDbLine
 10
-135.613253
 20
-100.718691
 30
0.0
 11
-135.613253
 21
-115.218691
 31
0.0
  0
LINE
  5
3D4
100
AcDbEntity
  8
2
370
    50
100
AcDbLine
 10
-137.363253
 20
-100.718691
 30
0.0
 11
-137.363253
 21
-115.218691
 31
0.0
  0
LINE
  5
3D5
100
AcDbEntity
  8
2
370
    50
100
AcDbLine
 10
-137.542101
 20
-115.218691
 30
0.0
 11
-137.363253
 21
-115.218691
 31
0.0
  0
LINE
  5
3D6
100
AcDbEntity
  8
2
370
    50
100
AcDbLine
 10
-135.613253
 20
-115.218691
 30
0.0
 11
-133.042101
 21
-115.218691
 31
0.0
  0
ARC
  5
3D7
100
AcDbEntity
  8
2
370
    50
100
AcDbCircle
 10
-131.292101
 20
-112.406191
 30
0.0
 40
3.3125
100
AcDbArc
 50
238.109208
 51
270.0
  0
ARC
  5
3D8
100
AcDbEntity
  8
2
370
    50
100
AcDbCircle
 10
-136.488253
 20
-114.703066
 30
0.0
 40
1.015625
100
AcDbArc
 50
210.510237
 51
329.489763
  0
ARC
  5
3D9
100
AcDbEntity
  8
2
370
    50
100
AcDbCircle
 10
-131.292101
 20
-103.531191
 30
0.0
 40
3.3125
100
AcDbArc
 50
58.109208
 51
90.0
  0
LINE
  5
3DA
100
AcDbEntity
  8
2
370
    50
100
AcDbLine
 10
-135.613253
 20
-100.718691
 30
0.0
 11
-133.042101
 21
-100.718691
 31
0.0
  0
ARC
  5
3DB
100
AcDbEntity
  8
2
370
    50
100
AcDbCircle
 10
-136.488253
 20
-101.234316
 30
0.0
 40
1.015625
100
AcDbArc
 50
30.510237
 51
149.489763
  0
ARC
  5
3DC
100
AcDbEntity
  8
2
370
    50
100
AcDbCircle
 10
-131.292101
 20
-103.531191
 30
0.0
 40
3.3125
100
AcDbArc
 50
90.0
 51
121.890792
  0
LINE
  5
3DD
100
AcDbEntity
  8
2
370
    50
100
AcDbLine
 10
-137.042101
 20
-100.218691
 30
0.0
 11
-137.542101
 21
-100.718691
 31
0.0
  0
LINE
  5
3DE
100
AcDbEntity
  8
2
370
    50
100
AcDbLine
 10
-137.542101
 20
-100.718691
 30
0.0
 11
-137.363253
 21
-100.718691
 31
0.0
  0
LINE
  5
3DF
100
AcDbEntity
  8
2
370
    50
100
AcDbLine
 10
-129.542101
 20
-100.718691
 30
0.0
 11
-129.542101
 21
-115.218691
 31
0.0
  0
LINE
  5
3E0
100
AcDbEntity
  8
2
370
    50
100
AcDbLine
 10
-125.542101
 20
-115.718691
 30
0.0
 11
-131.792101
 21
-115.718691
 31
0.0
  0
LINE
  5
3E1
100
AcDbEntity
  8
2
370
    50
100
AcDbLine
 10
-125.542101
 20
-115.718691
 30
0.0
 11
-131.792101
 21
-115.718691
 31
0.0
  0
LINE
  5
3E2
100
AcDbEntity
  8
2
370
    50
100
AcDbLine
 10
-125.042101
 20
-100.718691
 30
0.0
 11
-125.042101
 21
-115.218691
 31
0.0
  0
LINE
  5
3E3
100
AcDbEntity
  8
2
370
    50
100
AcDbLine
 10
-125.542101
 20
-115.718691
 30
0.0
 11
-125.042101
 21
-115.218691
 31
0.0
  0
LINE
  5
3E4
100
AcDbEntity
  8
2
370
    50
100
AcDbLine
 10
-125.220948
 20
-100.718691
 30
0.0
 11
-125.220948
 21
-115.218691
 31
0.0
  0
LINE
  5
3E5
100
AcDbEntity
  8
2
370
    50
100
AcDbLine
 10
-125.042101
 20
-115.218691
 30
0.0
 11
-125.220948
 21
-115.218691
 31
0.0
  0
ARC
  5
3E6
100
AcDbEntity
  8
2
370
    50
100
AcDbCircle
 10
-126.095948
 20
-114.703066
 30
0.0
 40
1.015625
100
AcDbArc
 50
210.510237
 51
329.489763
  0
LINE
  5
3E7
100
AcDbEntity
  8
2
370
    50
100
AcDbLine
 10
-125.042101
 20
-100.718691
 30
0.0
 11
-125.042101
 21
-115.218691
 31
0.0
  0
LINE
  5
3E8
100
AcDbEntity
  8
2
370
    50
100
AcDbLine
 10
-125.220948
 20
-100.718691
 30
0.0
 11
-125.220948
 21
-115.218691
 31
0.0
  0
ARC
  5
3E9
100
AcDbEntity
  8
2
370
    50
100
AcDbCircle
 10
-126.095948
 20
-101.234316
 30
0.0
 40
1.015625
100
AcDbArc
 50
30.510237
 51
149.489763
  0
LINE
  5
3EA
100
AcDbEntity
  8
2
370
    50
100
AcDbLine
 10
-125.542101
 20
-100.218691
 30
0.0
 11
-125.042101
 21
-100.718691
 31
0.0
  0
LINE
  5
3EB
100
AcDbEntity
  8
2
370
    50
100
AcDbLine
 10
-126.970948
 20
-100.718691
 30
0.0
 11
-129.542101
 21
-100.718691
 31
0.0
  0
LINE
  5
3EC
100
AcDbEntity
  8
2
370
    50
100
AcDbLine
 10
-125.542101
 20
-100.218691
 30
0.0
 11
-137.042101
 21
-100.218691
 31
0.0
  0
LINE
  5
3ED
100
AcDbEntity
  8
2
370
    50
100
AcDbLine
 10
-126.970948
 20
-100.718691
 30
0.0
 11
-126.970948
 21
-115.218691
 31
0.0
  0
LINE
  5
3EE
100
AcDbEntity
  8
2
370
    50
100
AcDbLine
 10
-126.970948
 20
-115.218691
 30
0.0
 11
-129.542101
 21
-115.218691
 31
0.0
  0
LINE
  5
3EF
100
AcDbEntity
  8
2
370
    50
100
AcDbLine
 10
-139.542101
 20
-105.718691
 30
0.0
 11
-145.792101
 21
-105.718691
 31
0.0
  0
ARC
  5
3F0
100
AcDbEntity
  8
2
370
    50
100
AcDbCircle
 10
-145.292101
 20
-102.406191
 30
0.0
 40
3.3125
100
AcDbArc
 50
238.109208
 51
270.0
  0
LINE
  5
3F1
100
AcDbEntity
  8
2
370
    50
100
AcDbLine
 10
-139.042101
 20
-90.718691
 30
0.0
 11
-139.042101
 21
-105.218691
 31
0.0
  0
LINE
  5
3F2
100
AcDbEntity
  8
2
370
    50
100
AcDbLine
 10
-139.542101
 20
-105.718691
 30
0.0
 11
-139.042101
 21
-105.218691
 31
0.0
  0
LINE
  5
3F3
100
AcDbEntity
  8
2
370
    50
100
AcDbLine
 10
-143.542101
 20
-90.718691
 30
0.0
 11
-143.542101
 21
-105.218691
 31
0.0
  0
LINE
  5
3F4
100
AcDbEntity
  8
2
370
    50
100
AcDbLine
 10
-140.970948
 20
-90.718691
 30
0.0
 11
-140.970948
 21
-105.218691
 31
0.0
  0
LINE
  5
3F5
100
AcDbEntity
  8
2
370
    50
100
AcDbLine
 10
-139.220948
 20
-90.718691
 30
0.0
 11
-139.220948
 21
-105.218691
 31
0.0
  0
LINE
  5
3F6
100
AcDbEntity
  8
2
370
    50
100
AcDbLine
 10
-139.042101
 20
-105.218691
 30
0.0
 11
-139.220948
 21
-105.218691
 31
0.0
  0
LINE
  5
3F7
100
AcDbEntity
  8
2
370
    50
100
AcDbLine
 10
-140.970948
 20
-105.218691
 30
0.0
 11
-143.542101
 21
-105.218691
 31
0.0
  0
ARC
  5
3F8
100
AcDbEntity
  8
2
370
    50
100
AcDbCircle
 10
-145.292101
 20
-102.406191
 30
0.0
 40
3.3125
100
AcDbArc
 50
270.0
 51
301.890792
  0
ARC
  5
3F9
100
AcDbEntity
  8
2
370
    50
100
AcDbCircle
 10
-140.095948
 20
-104.703066
 30
0.0
 40
1.015625
100
AcDbArc
 50
210.510237
 51
329.489763
  0
ARC
  5
3FA
100
AcDbEntity
  8
2
370
    50
100
AcDbCircle
 10
-145.292101
 20
-93.531191
 30
0.0
 40
3.3125
100
AcDbArc
 50
90.0
 51
121.890792
  0
LINE
  5
3FB
100
AcDbEntity
  8
2
370
    50
100
AcDbLine
 10
-140.970948
 20
-90.718691
 30
0.0
 11
-143.542101
 21
-90.718691
 31
0.0
  0
ARC
  5
3FC
100
AcDbEntity
  8
2
370
    50
100
AcDbCircle
 10
-140.095948
 20
-91.234316
 30
0.0
 40
1.015625
100
AcDbArc
 50
30.510237
 51
149.489763
  0
ARC
  5
3FD
100
AcDbEntity
  8
2
370
    50
100
AcDbCircle
 10
-145.292101
 20
-93.531191
 30
0.0
 40
3.3125
100
AcDbArc
 50
58.109208
 51
90.0
  0
LINE
  5
3FE
100
AcDbEntity
  8
2
370
    50
100
AcDbLine
 10
-139.542101
 20
-90.218691
 30
0.0
 11
-139.042101
 21
-90.718691
 31
0.0
  0
LINE
  5
3FF
100
AcDbEntity
  8
2
370
    50
100
AcDbLine
 10
-139.042101
 20
-90.718691
 30
0.0
 11
-139.220948
 21
-90.718691
 31
0.0
  0
LINE
  5
400
100
AcDbEntity
  8
2
370
    50
100
AcDbLine
 10
-147.042101
 20
-90.718691
 30
0.0
 11
-147.042101
 21
-105.218691
 31
0.0
  0
LINE
  5
401
100
AcDbEntity
  8
2
370
    50
100
AcDbLine
 10
-151.042101
 20
-105.718691
 30
0.0
 11
-144.792101
 21
-105.718691
 31
0.0
  0
LINE
  5
402
100
AcDbEntity
  8
2
370
    50
100
AcDbLine
 10
-151.042101
 20
-105.718691
 30
0.0
 11
-144.792101
 21
-105.718691
 31
0.0
  0
LINE
  5
403
100
AcDbEntity
  8
2
370
    50
100
AcDbLine
 10
-151.542101
 20
-90.718691
 30
0.0
 11
-151.542101
 21
-105.218691
 31
0.0
  0
LINE
  5
404
100
AcDbEntity
  8
2
370
    50
100
AcDbLine
 10
-151.042101
 20
-105.718691
 30
0.0
 11
-151.542101
 21
-105.218691
 31
0.0
  0
LINE
  5
405
100
AcDbEntity
  8
2
370
    50
100
AcDbLine
 10
-151.363253
 20
-90.718691
 30
0.0
 11
-151.363253
 21
-105.218691
 31
0.0
  0
LINE
  5
406
100
AcDbEntity
  8
2
370
    50
100
AcDbLine
 10
-151.542101
 20
-105.218691
 30
0.0
 11
-151.363253
 21
-105.218691
 31
0.0
  0
ARC
  5
407
100
AcDbEntity
  8
2
370
    50
100
AcDbCircle
 10
-150.488253
 20
-104.703066
 30
0.0
 40
1.015625
100
AcDbArc
 50
210.510237
 51
329.489763
  0
LINE
  5
408
100
AcDbEntity
  8
2
370
    50
100
AcDbLine
 10
-151.542101
 20
-90.718691
 30
0.0
 11
-151.542101
 21
-105.218691
 31
0.0
  0
LINE
  5
409
100
AcDbEntity
  8
2
370
    50
100
AcDbLine
 10
-151.363253
 20
-90.718691
 30
0.0
 11
-151.363253
 21
-105.218691
 31
0.0
  0
ARC
  5
40A
100
AcDbEntity
  8
2
370
    50
100
AcDbCircle
 10
-150.488253
 20
-91.234316
 30
0.0
 40
1.015625
100
AcDbArc
 50
30.510237
 51
149.489763
  0
LINE
  5
40B
100
AcDbEntity
  8
2
370
    50
100
AcDbLine
 10
-151.042101
 20
-90.218691
 30
0.0
 11
-151.542101
 21
-90.718691
 31
0.0
  0
LINE
  5
40C
100
AcDbEntity
  8
2
370
    50
100
AcDbLine
 10
-149.613253
 20
-90.718691
 30
0.0
 11
-147.042101
 21
-90.718691
 31
0.0
  0
LINE
  5
40D
100
AcDbEntity
  8
2
370
    50
100
AcDbLine
 10
-151.042101
 20
-90.218691
 30
0.0
 11
-139.542101
 21
-90.218691
 31
0.0
  0
LINE
  5
40E
100
AcDbEntity
  8
2
370
    50
100
AcDbLine
 10
-149.613253
 20
-90.718691
 30
0.0
 11
-149.613253
 21
-105.218691
 31
0.0
  0
LINE
  5
40F
100
AcDbEntity
  8
2
370
    50
100
AcDbLine
 10
-149.613253
 20
-105.218691
 30
0.0
 11
-147.042101
 21
-105.218691
 31
0.0
  0
LINE
  5
410
100
AcDbEntity
  8
2
370
    25
  6
CENTER
100
AcDbLine
 10
-145.292101
 20
-177.218694
 30
0.0
 11
-204.592104
 21
-82.493542
 31
0.0
  0
ARC
  5
411
100
AcDbEntity
  8
2
370
    50
100
AcDbCircle
 10
-210.392104
 20
-143.390524
 30
0.0
 40
0.2
100
AcDbArc
 50
180.0
 51
270.0
  0
ARC
  5
412
100
AcDbEntity
  8
2
370
    50
100
AcDbCircle
 10
-198.792104
 20
-143.390524
 30
0.0
 40
0.2
100
AcDbArc
 50
270.0
 51
0.0
  0
LINE
  5
413
100
AcDbEntity
  8
2
370
    50
100
AcDbLine
 10
-197.592104
 20
-143.590524
 30
0.0
 11
-211.592104
 21
-143.590524
 31
0.0
  0
LINE
  5
414
100
AcDbEntity
  8
2
370
    50
100
AcDbLine
 10
-197.092104
 20
-144.090524
 30
0.0
 11
-197.592104
 21
-143.590524
 31
0.0
  0
LINE
  5
415
100
AcDbEntity
  8
2
370
    25
100
AcDbLine
 10
-198.092244
 20
-157.389902
 30
0.0
 11
-198.092244
 21
-154.389902
 31
0.0
  0
LINE
  5
416
100
AcDbEntity
  8
2
370
    50
100
AcDbLine
 10
-195.692104
 20
-148.991159
 30
0.0
 11
-195.692104
 21
-151.391159
 31
0.0
  0
LINE
  5
417
100
AcDbEntity
  8
2
370
    50
100
AcDbLine
 10
-195.892104
 20
-148.791159
 30
0.0
 11
-195.692104
 21
-148.991159
 31
0.0
  0
LINE
  5
418
100
AcDbEntity
  8
2
370
    50
100
AcDbLine
 10
-195.892104
 20
-151.591159
 30
0.0
 11
-195.692104
 21
-151.391159
 31
0.0
  0
LINE
  5
419
100
AcDbEntity
  8
2
370
    50
100
AcDbLine
 10
-197.092104
 20
-148.791159
 30
0.0
 11
-197.092104
 21
-148.389902
 31
0.0
  0
LINE
  5
41A
100
AcDbEntity
  8
2
370
    50
100
AcDbLine
 10
-197.092104
 20
-144.090524
 30
0.0
 11
-197.092104
 21
-145.389902
 31
0.0
  0
LINE
  5
41B
100
AcDbEntity
  8
2
370
    50
100
AcDbLine
 10
-213.492104
 20
-148.990524
 30
0.0
 11
-213.492104
 21
-151.390524
 31
0.0
  0
LINE
  5
41C
100
AcDbEntity
  8
2
370
    50
100
AcDbLine
 10
-195.692104
 20
-148.990524
 30
0.0
 11
-195.692104
 21
-151.390524
 31
0.0
  0
LINE
  5
41D
100
AcDbEntity
  8
2
370
    50
100
AcDbLine
 10
-195.892104
 20
-148.790524
 30
0.0
 11
-195.692104
 21
-148.990524
 31
0.0
  0
LINE
  5
41E
100
AcDbEntity
  8
2
370
    50
100
AcDbLine
 10
-213.292104
 20
-148.790524
 30
0.0
 11
-213.492104
 21
-148.990524
 31
0.0
  0
LINE
  5
41F
100
AcDbEntity
  8
2
370
    50
100
AcDbLine
 10
-213.292104
 20
-151.590524
 30
0.0
 11
-213.492104
 21
-151.390524
 31
0.0
  0
LINE
  5
420
100
AcDbEntity
  8
2
370
    50
100
AcDbLine
 10
-213.592104
 20
-157.390524
 30
0.0
 11
-195.592104
 21
-157.390524
 31
0.0
  0
LINE
  5
421
100
AcDbEntity
  8
2
370
    50
100
AcDbLine
 10
-212.892104
 20
-145.390524
 30
0.0
 11
-196.292104
 21
-145.390524
 31
0.0
  0
LINE
  5
422
100
AcDbEntity
  8
2
370
    50
100
AcDbLine
 10
-200.592104
 20
-146.390524
 30
0.0
 11
-200.592104
 21
-156.390524
 31
0.0
  0
LINE
  5
423
100
AcDbEntity
  8
2
370
    50
100
AcDbLine
 10
-208.592104
 20
-146.390524
 30
0.0
 11
-208.592104
 21
-156.390524
 31
0.0
  0
ARC
  5
424
100
AcDbEntity
  8
2
370
    50
100
AcDbCircle
 10
-191.092104
 20
-144.390524
 30
0.0
 40
1.0
100
AcDbArc
 50
0.0
 51
90.0
  0
ARC
  5
425
100
AcDbEntity
  8
2
370
    50
100
AcDbCircle
 10
-191.092104
 20
-156.390524
 30
0.0
 40
1.0
100
AcDbArc
 50
270.0
 51
0.0
  0
LINE
  5
426
100
AcDbEntity
  8
2
370
    50
100
AcDbLine
 10
-191.092104
 20
-143.390524
 30
0.0
 11
-198.592104
 21
-143.390524
 31
0.0
  0
LINE
  5
427
100
AcDbEntity
  8
2
370
    50
100
AcDbLine
 10
-210.592104
 20
-143.390524
 30
0.0
 11
-218.092104
 21
-143.390524
 31
0.0
  0
LINE
  5
428
100
AcDbEntity
  8
2
370
    50
100
AcDbLine
 10
-191.092104
 20
-157.390524
 30
0.0
 11
-197.092104
 21
-157.390524
 31
0.0
  0
LINE
  5
429
100
AcDbEntity
  8
2
370
    50
100
AcDbLine
 10
-212.892104
 20
-157.390524
 30
0.0
 11
-218.092104
 21
-157.390524
 31
0.0
  0
LINE
  5
42A
100
AcDbEntity
  8
2
370
    50
100
AcDbLine
 10
-212.892104
 20
-148.390524
 30
0.0
 11
-208.592104
 21
-148.390524
 31
0.0
  0
LINE
  5
42B
100
AcDbEntity
  8
2
370
    50
100
AcDbLine
 10
-200.592104
 20
-148.390524
 30
0.0
 11
-196.292104
 21
-148.390524
 31
0.0
  0
LINE
  5
42C
100
AcDbEntity
  8
2
370
    50
100
AcDbLine
 10
-213.292104
 20
-148.790524
 30
0.0
 11
-208.592104
 21
-148.790524
 31
0.0
  0
LINE
  5
42D
100
AcDbEntity
  8
2
370
    50
100
AcDbLine
 10
-200.592104
 20
-148.790524
 30
0.0
 11
-195.892104
 21
-148.790524
 31
0.0
  0
LINE
  5
42E
100
AcDbEntity
  8
2
370
    50
100
AcDbLine
 10
-213.492104
 20
-148.990524
 30
0.0
 11
-208.592104
 21
-148.990524
 31
0.0
  0
LINE
  5
42F
100
AcDbEntity
  8
2
370
    50
100
AcDbLine
 10
-200.592104
 20
-148.990524
 30
0.0
 11
-195.692104
 21
-148.990524
 31
0.0
  0
LINE
  5
430
100
AcDbEntity
  8
2
370
    50
100
AcDbLine
 10
-213.492104
 20
-151.390524
 30
0.0
 11
-208.592104
 21
-151.390524
 31
0.0
  0
LINE
  5
431
100
AcDbEntity
  8
2
370
    50
100
AcDbLine
 10
-200.592104
 20
-151.390524
 30
0.0
 11
-195.692104
 21
-151.390524
 31
0.0
  0
LINE
  5
432
100
AcDbEntity
  8
2
370
    50
100
AcDbLine
 10
-212.892104
 20
-154.390524
 30
0.0
 11
-208.592104
 21
-154.390524
 31
0.0
  0
LINE
  5
433
100
AcDbEntity
  8
2
370
    50
100
AcDbLine
 10
-200.592104
 20
-154.390524
 30
0.0
 11
-196.292104
 21
-154.390524
 31
0.0
  0
ARC
  5
434
100
AcDbEntity
  8
2
370
    50
100
AcDbCircle
 10
-207.592104
 20
-146.390524
 30
0.0
 40
1.0
100
AcDbArc
 50
90.0
 51
180.0
  0
ARC
  5
435
100
AcDbEntity
  8
2
370
    50
100
AcDbCircle
 10
-201.592104
 20
-146.390524
 30
0.0
 40
1.0
100
AcDbArc
 50
0.0
 51
90.0
  0
ARC
  5
436
100
AcDbEntity
  8
2
370
    50
100
AcDbCircle
 10
-201.592104
 20
-156.390524
 30
0.0
 40
1.0
100
AcDbArc
 50
270.0
 51
0.0
  0
ARC
  5
437
100
AcDbEntity
  8
2
370
    50
100
AcDbCircle
 10
-207.592104
 20
-156.390524
 30
0.0
 40
1.0
100
AcDbArc
 50
180.0
 51
270.0
  0
LINE
  5
438
100
AcDbEntity
  8
2
370
    50
100
AcDbLine
 10
-196.292104
 20
-145.390524
 30
0.0
 11
-196.292104
 21
-148.390524
 31
0.0
  0
LINE
  5
439
100
AcDbEntity
  8
2
370
    50
100
AcDbLine
 10
-212.892104
 20
-145.390524
 30
0.0
 11
-212.892104
 21
-148.390524
 31
0.0
  0
LINE
  5
43A
100
AcDbEntity
  8
2
370
    50
100
AcDbLine
 10
-212.892104
 20
-154.390524
 30
0.0
 11
-212.892104
 21
-157.390524
 31
0.0
  0
LINE
  5
43B
100
AcDbEntity
  8
2
370
    50
100
AcDbLine
 10
-196.292104
 20
-154.390524
 30
0.0
 11
-196.292104
 21
-157.390524
 31
0.0
  0
LINE
  5
43C
100
AcDbEntity
  8
2
370
    50
100
AcDbLine
 10
-197.092104
 20
-148.790524
 30
0.0
 11
-197.092104
 21
-148.390524
 31
0.0
  0
LINE
  5
43D
100
AcDbEntity
  8
2
370
    50
100
AcDbLine
 10
-212.092104
 20
-148.790524
 30
0.0
 11
-212.092104
 21
-148.390524
 31
0.0
  0
LINE
  5
43E
100
AcDbEntity
  8
2
370
    25
100
AcDbLine
 10
-199.592104
 20
-157.091107
 30
0.0
 11
-199.592104
 21
-154.785885
 31
0.0
  0
LINE
  5
43F
100
AcDbEntity
  8
2
370
    25
100
AcDbLine
 10
-199.592104
 20
-148.129338
 30
0.0
 11
-199.592104
 21
-145.697132
 31
0.0
  0
LINE
  5
440
100
AcDbEntity
  8
2
370
    25
100
AcDbLine
 10
-209.592104
 20
-157.091107
 30
0.0
 11
-209.592104
 21
-154.785885
 31
0.0
  0
LINE
  5
441
100
AcDbEntity
  8
2
370
    25
100
AcDbLine
 10
-209.592104
 20
-148.086659
 30
0.0
 11
-209.592104
 21
-145.617611
 31
0.0
  0
LINE
  5
442
100
AcDbEntity
  8
2
370
    50
100
AcDbLine
 10
-195.792104
 20
-156.390524
 30
0.0
 11
-195.792104
 21
-153.790524
 31
0.0
  0
LINE
  5
443
100
AcDbEntity
  8
2
370
    50
100
AcDbLine
 10
-195.792104
 20
-148.890524
 30
0.0
 11
-195.792104
 21
-144.390524
 31
0.0
  0
LINE
  5
444
100
AcDbEntity
  8
2
370
    50
100
AcDbLine
 10
-213.392104
 20
-156.390524
 30
0.0
 11
-213.392104
 21
-153.790524
 31
0.0
  0
LINE
  5
445
100
AcDbEntity
  8
2
370
    50
100
AcDbLine
 10
-213.392104
 20
-148.890524
 30
0.0
 11
-213.392104
 21
-144.390524
 31
0.0
  0
ARC
  5
446
100
AcDbEntity
  8
2
370
    50
100
AcDbCircle
 10
-196.792104
 20
-144.390524
 30
0.0
 40
1.0
100
AcDbArc
 50
0.0
 51
90.0
  0
ARC
  5
447
100
AcDbEntity
  8
2
370
    50
100
AcDbCircle
 10
-212.392104
 20
-144.390524
 30
0.0
 40
1.0
100
AcDbArc
 50
90.0
 51
180.0
  0
ARC
  5
448
100
AcDbEntity
  8
2
370
    50
100
AcDbCircle
 10
-194.792104
 20
-156.390524
 30
0.0
 40
1.0
100
AcDbArc
 50
180.0
 51
270.0
  0
ARC
  5
449
100
AcDbEntity
  8
2
370
    50
100
AcDbCircle
 10
-214.392104
 20
-156.390524
 30
0.0
 40
1.0
100
AcDbArc
 50
270.0
 51
0.0
  0
LINE
  5
44A
100
AcDbEntity
  8
2
370
    50
100
AcDbLine
 10
-212.092104
 20
-144.090524
 30
0.0
 11
-212.092104
 21
-145.389902
 31
0.0
  0
ARC
  5
44B
100
AcDbEntity
  8
2
370
    50
100
AcDbCircle
 10
-212.392104
 20
-144.390524
 30
0.0
 40
1.0
100
AcDbArc
 50
90.0
 51
180.0
  0
LINE
  5
44C
100
AcDbEntity
  8
2
370
    50
100
AcDbLine
 10
-212.092104
 20
-144.090524
 30
0.0
 11
-211.592104
 21
-143.590524
 31
0.0
  0
LINE
  5
44D
100
AcDbEntity
  8
2
370
    50
100
AcDbLine
 10
-213.592104
 20
-151.790524
 30
0.0
 11
-213.592104
 21
-153.590524
 31
0.0
  0
LINE
  5
44E
100
AcDbEntity
  8
2
370
    50
100
AcDbLine
 10
-195.592104
 20
-151.790524
 30
0.0
 11
-195.592104
 21
-153.590524
 31
0.0
  0
LINE
  5
44F
100
AcDbEntity
  8
2
370
    50
100
AcDbLine
 10
-213.392104
 20
-151.590524
 30
0.0
 11
-213.592104
 21
-151.790524
 31
0.0
  0
LINE
  5
450
100
AcDbEntity
  8
2
370
    50
100
AcDbLine
 10
-213.592104
 20
-153.590524
 30
0.0
 11
-213.392104
 21
-153.790524
 31
0.0
  0
LINE
  5
451
100
AcDbEntity
  8
2
370
    50
100
AcDbLine
 10
-195.792104
 20
-151.590524
 30
0.0
 11
-195.592104
 21
-151.790524
 31
0.0
  0
LINE
  5
452
100
AcDbEntity
  8
2
370
    50
100
AcDbLine
 10
-195.592104
 20
-153.590524
 30
0.0
 11
-195.792104
 21
-153.790524
 31
0.0
  0
LINE
  5
453
100
AcDbEntity
  8
2
370
    50
100
AcDbLine
 10
-197.092104
 20
-157.790524
 30
0.0
 11
-197.092104
 21
-157.390524
 31
0.0
  0
LINE
  5
454
100
AcDbEntity
  8
2
370
    50
100
AcDbLine
 10
-197.092104
 20
-154.390524
 30
0.0
 11
-197.092104
 21
-153.790524
 31
0.0
  0
LINE
  5
455
100
AcDbEntity
  8
2
370
    50
100
AcDbLine
 10
-212.092104
 20
-157.790524
 30
0.0
 11
-212.092104
 21
-157.390524
 31
0.0
  0
LINE
  5
456
100
AcDbEntity
  8
2
370
    50
100
AcDbLine
 10
-212.092104
 20
-154.390524
 30
0.0
 11
-212.092104
 21
-153.790524
 31
0.0
  0
LINE
  5
457
100
AcDbEntity
  8
2
370
    50
100
AcDbLine
 10
-213.392104
 20
-153.790524
 30
0.0
 11
-208.592104
 21
-153.790524
 31
0.0
  0
LINE
  5
458
100
AcDbEntity
  8
2
370
    50
100
AcDbLine
 10
-200.592104
 20
-153.790524
 30
0.0
 11
-195.792104
 21
-153.790524
 31
0.0
  0
LINE
  5
459
100
AcDbEntity
  8
2
370
    50
100
AcDbLine
 10
-213.592104
 20
-153.590524
 30
0.0
 11
-208.592104
 21
-153.590524
 31
0.0
  0
LINE
  5
45A
100
AcDbEntity
  8
2
370
    50
100
AcDbLine
 10
-200.592104
 20
-153.590524
 30
0.0
 11
-195.592104
 21
-153.590524
 31
0.0
  0
LINE
  5
45B
100
AcDbEntity
  8
2
370
    50
100
AcDbLine
 10
-213.592104
 20
-151.790524
 30
0.0
 11
-208.592104
 21
-151.790524
 31
0.0
  0
LINE
  5
45C
100
AcDbEntity
  8
2
370
    50
100
AcDbLine
 10
-200.592104
 20
-151.790524
 30
0.0
 11
-195.592104
 21
-151.790524
 31
0.0
  0
LINE
  5
45D
100
AcDbEntity
  8
2
370
    50
100
AcDbLine
 10
-213.392104
 20
-151.590524
 30
0.0
 11
-208.592104
 21
-151.590524
 31
0.0
  0
LINE
  5
45E
100
AcDbEntity
  8
2
370
    50
100
AcDbLine
 10
-200.592104
 20
-151.590524
 30
0.0
 11
-195.792104
 21
-151.590524
 31
0.0
  0
LINE
  5
45F
100
AcDbEntity
  8
2
370
    25
100
AcDbLine
 10
-211.091965
 20
-157.389902
 30
0.0
 11
-211.091965
 21
-154.389902
 31
0.0
  0
LINE
  5
460
100
AcDbEntity
  8
2
370
    25
100
AcDbLine
 10
-198.092244
 20
-148.390524
 30
0.0
 11
-198.092244
 21
-145.390524
 31
0.0
  0
LINE
  5
461
100
AcDbEntity
  8
2
370
    25
100
AcDbLine
 10
-211.091965
 20
-148.390524
 30
0.0
 11
-211.091965
 21
-145.390524
 31
0.0
  0
LINE
  5
462
100
AcDbEntity
  8
2
370
    50
100
AcDbLine
 10
-219.092104
 20
-144.390524
 30
0.0
 11
-219.092104
 21
-156.390524
 31
0.0
  0
ARC
  5
463
100
AcDbEntity
  8
2
370
    50
100
AcDbCircle
 10
-218.092104
 20
-144.390524
 30
0.0
 40
1.0
100
AcDbArc
 50
90.0
 51
180.0
  0
ARC
  5
464
100
AcDbEntity
  8
2
370
    50
100
AcDbCircle
 10
-218.092104
 20
-156.390524
 30
0.0
 40
1.0
100
AcDbArc
 50
180.0
 51
270.0
  0
LINE
  5
465
100
AcDbEntity
  8
2
370
    25
  6
CENTER
100
AcDbLine
 10
-204.592104
 20
-82.493542
 30
0.0
 11
-204.592104
 21
-181.486373
 31
0.0
  0
LINE
  5
466
100
AcDbEntity
  8
2
370
    50
100
AcDbLine
 10
-190.092104
 20
-144.390524
 30
0.0
 11
-190.092104
 21
-156.390524
 31
0.0
  0
LINE
  5
467
100
AcDbEntity
  8
2
370
    50
100
AcDbLine
 10
-195.59237
 20
-157.789776
 30
0.0
 11
-194.59237
 21
-158.789776
 31
0.0
  0
LINE
  5
468
100
AcDbEntity
  8
2
370
    50
100
AcDbLine
 10
-213.59237
 20
-157.789776
 30
0.0
 11
-214.59237
 21
-158.789776
 31
0.0
  0
LINE
  5
469
100
AcDbEntity
  8
2
370
    50
100
AcDbLine
 10
-194.59237
 20
-158.789776
 30
0.0
 11
-214.59237
 21
-158.789776
 31
0.0
  0
LINE
  5
46A
100
AcDbEntity
  8
2
370
    50
100
AcDbLine
 10
-194.59237
 20
-158.789776
 30
0.0
 11
-194.59237
 21
-167.589776
 31
0.0
  0
LINE
  5
46B
100
AcDbEntity
  8
2
370
    50
100
AcDbLine
 10
-214.59237
 20
-158.789776
 30
0.0
 11
-214.59237
 21
-167.589776
 31
0.0
  0
LINE
  5
46C
100
AcDbEntity
  8
2
370
    50
100
AcDbLine
 10
-214.919237
 20
-167.589776
 30
0.0
 11
-192.59237
 21
-167.589776
 31
0.0
  0
LINE
  5
46D
100
AcDbEntity
  8
2
370
    50
100
AcDbLine
 10
-190.735963
 20
-169.446182
 30
0.0
 11
-190.735963
 21
-176.733369
 31
0.0
  0
LINE
  5
46E
100
AcDbEntity
  8
2
370
    50
100
AcDbLine
 10
-218.448776
 20
-176.733369
 30
0.0
 11
-218.448776
 21
-169.446182
 31
0.0
  0
LINE
  5
46F
100
AcDbEntity
  8
2
370
    50
100
AcDbLine
 10
-216.59237
 20
-178.589776
 30
0.0
 11
-192.59237
 21
-178.589776
 31
0.0
  0
LINE
  5
470
100
AcDbEntity
  8
2
370
    50
100
AcDbLine
 10
-197.664167
 20
-176.733369
 30
0.0
 11
-197.664167
 21
-169.446182
 31
0.0
  0
LINE
  5
471
100
AcDbEntity
  8
2
370
    50
100
AcDbLine
 10
-211.520573
 20
-176.733369
 30
0.0
 11
-211.520573
 21
-169.446182
 31
0.0
  0
LINE
  5
472
100
AcDbEntity
  8
2
370
    50
100
AcDbLine
 10
-216.59237
 20
-167.589776
 30
0.0
 11
-192.59237
 21
-167.589776
 31
0.0
  0
LINE
  5
473
100
AcDbEntity
  8
2
370
    50
100
AcDbLine
 10
-192.59237
 20
-167.589776
 30
0.0
 11
-190.735963
 21
-169.446182
 31
0.0
  0
LINE
  5
474
100
AcDbEntity
  8
2
370
    50
100
AcDbLine
 10
-216.59237
 20
-178.589776
 30
0.0
 11
-218.448776
 21
-176.733369
 31
0.0
  0
LINE
  5
475
100
AcDbEntity
  8
2
370
    50
100
AcDbLine
 10
-216.59237
 20
-167.589776
 30
0.0
 11
-218.448776
 21
-169.446182
 31
0.0
  0
LINE
  5
476
100
AcDbEntity
  8
2
370
    50
100
AcDbLine
 10
-192.59237
 20
-178.589776
 30
0.0
 11
-190.735963
 21
-176.733369
 31
0.0
  0
ARC
  5
477
100
AcDbEntity
  8
2
370
    50
100
AcDbCircle
 10
-204.59237
 20
-181.446182
 30
0.0
 40
13.856406
100
AcDbArc
 50
60.0
 51
120.0
  0
ARC
  5
478
100
AcDbEntity
  8
2
370
    50
100
AcDbCircle
 10
-204.59237
 20
-164.733369
 30
0.0
 40
13.856406
100
AcDbArc
 50
240.0
 51
300.0
  0
ARC
  5
479
100
AcDbEntity
  8
2
370
    50
100
AcDbCircle
 10
-194.265502
 20
-171.629075
 30
0.0
 40
4.039299
100
AcDbArc
 50
45.0
 51
147.288191
  0
ARC
  5
47A
100
AcDbEntity
  8
2
370
    50
100
AcDbCircle
 10
-194.265502
 20
-174.550476
 30
0.0
 40
4.039299
100
AcDbArc
 50
212.711809
 51
315.0
  0
ARC
  5
47B
100
AcDbEntity
  8
2
370
    50
100
AcDbCircle
 10
-214.919237
 20
-171.629075
 30
0.0
 40
4.039299
100
AcDbArc
 50
32.711809
 51
135.0
  0
ARC
  5
47C
100
AcDbEntity
  8
2
370
    50
100
AcDbCircle
 10
-214.919237
 20
-174.550476
 30
0.0
 40
4.039299
100
AcDbArc
 50
225.0
 51
327.288191
  0
LINE
  5
47D
100
AcDbEntity
  8
2
370
    50
100
AcDbLine
 10
-213.59237
 20
-157.789776
 30
0.0
 11
-195.59237
 21
-157.789776
 31
0.0
  0
LINE
  5
47E
100
AcDbEntity
  8
2
370
    50
100
AcDbLine
 10
-204.591851
 20
-142.590108
 30
0.0
 11
-211.192104
 21
-142.590108
 31
0.0
  0
LINE
  5
47F
100
AcDbEntity
  8
2
370
    50
100
AcDbLine
 10
-204.591851
 20
-142.590108
 30
0.0
 11
-197.992104
 21
-142.590108
 31
0.0
  0
LINE
  5
480
100
AcDbEntity
  8
2
370
    50
100
AcDbLine
 10
-211.592104
 20
-135.890108
 30
0.0
 11
-211.592104
 21
-141.790108
 31
0.0
  0
LINE
  5
481
100
AcDbEntity
  8
2
370
    50
100
AcDbLine
 10
-197.592104
 20
-135.890108
 30
0.0
 11
-197.592104
 21
-141.790108
 31
0.0
  0
ARC
  5
482
100
AcDbEntity
  8
2
370
    50
100
AcDbCircle
 10
-210.592104
 20
-141.790108
 30
0.0
 40
1.0
100
AcDbArc
 50
180.0
 51
233.130102
  0
ARC
  5
483
100
AcDbEntity
  8
2
370
    50
100
AcDbCircle
 10
-198.592104
 20
-141.790108
 30
0.0
 40
1.0
100
AcDbArc
 50
306.869898
 51
0.0
  0
LINE
  5
484
100
AcDbEntity
  8
2
370
    50
100
AcDbLine
 10
-210.842104
 20
-143.590108
 30
0.0
 11
-210.842104
 21
-142.590108
 31
0.0
  0
LINE
  5
485
100
AcDbEntity
  8
2
370
    50
100
AcDbLine
 10
-198.342104
 20
-143.590108
 30
0.0
 11
-198.342104
 21
-142.590108
 31
0.0
  0
LINE
  5
486
100
AcDbEntity
  8
2
370
    50
100
AcDbLine
 10
-211.192104
 20
-113.590108
 30
0.0
 11
-204.592104
 21
-113.590108
 31
0.0
  0
LINE
  5
487
100
AcDbEntity
  8
2
370
    50
100
AcDbLine
 10
-211.192104
 20
-119.090108
 30
0.0
 11
-204.592104
 21
-119.090108
 31
0.0
  0
LINE
  5
488
100
AcDbEntity
  8
2
370
    50
100
AcDbLine
 10
-211.192104
 20
-121.090108
 30
0.0
 11
-204.592104
 21
-121.090108
 31
0.0
  0
LINE
  5
489
100
AcDbEntity
  8
2
370
    50
100
AcDbLine
 10
-211.192104
 20
-126.090108
 30
0.0
 11
-204.592104
 21
-126.090108
 31
0.0
  0
LINE
  5
48A
100
AcDbEntity
  8
2
370
    50
100
AcDbLine
 10
-211.192104
 20
-128.090108
 30
0.0
 11
-204.592104
 21
-128.090108
 31
0.0
  0
LINE
  5
48B
100
AcDbEntity
  8
2
370
    50
100
AcDbLine
 10
-211.192104
 20
-133.090108
 30
0.0
 11
-204.592104
 21
-133.090108
 31
0.0
  0
LINE
  5
48C
100
AcDbEntity
  8
2
370
    50
100
AcDbLine
 10
-211.192104
 20
-135.090108
 30
0.0
 11
-204.592104
 21
-135.090108
 31
0.0
  0
LINE
  5
48D
100
AcDbEntity
  8
2
370
    50
100
AcDbLine
 10
-211.592104
 20
-114.390108
 30
0.0
 11
-211.592104
 21
-118.290108
 31
0.0
  0
LINE
  5
48E
100
AcDbEntity
  8
2
370
    50
100
AcDbLine
 10
-211.592104
 20
-121.890108
 30
0.0
 11
-211.592104
 21
-125.290108
 31
0.0
  0
LINE
  5
48F
100
AcDbEntity
  8
2
370
    50
100
AcDbLine
 10
-211.592104
 20
-128.890108
 30
0.0
 11
-211.592104
 21
-132.290108
 31
0.0
  0
LINE
  5
490
100
AcDbEntity
  8
2
370
    50
100
AcDbLine
 10
-211.192104
 20
-133.090108
 30
0.0
 11
-211.192104
 21
-135.090108
 31
0.0
  0
LINE
  5
491
100
AcDbEntity
  8
2
370
    50
100
AcDbLine
 10
-211.192104
 20
-119.090108
 30
0.0
 11
-211.192104
 21
-121.090108
 31
0.0
  0
LINE
  5
492
100
AcDbEntity
  8
2
370
    50
100
AcDbLine
 10
-211.192104
 20
-126.090108
 30
0.0
 11
-211.192104
 21
-128.090108
 31
0.0
  0
ARC
  5
493
100
AcDbEntity
  8
2
370
    50
100
AcDbCircle
 10
-210.592104
 20
-135.890108
 30
0.0
 40
1.0
100
AcDbArc
 50
126.869898
 51
180.0
  0
ARC
  5
494
100
AcDbEntity
  8
2
370
    50
100
AcDbCircle
 10
-210.592104
 20
-132.290108
 30
0.0
 40
1.0
100
AcDbArc
 50
180.0
 51
233.130102
  0
ARC
  5
495
100
AcDbEntity
  8
2
370
    50
100
AcDbCircle
 10
-210.592104
 20
-128.890108
 30
0.0
 40
1.0
100
AcDbArc
 50
126.869898
 51
180.0
  0
ARC
  5
496
100
AcDbEntity
  8
2
370
    50
100
AcDbCircle
 10
-210.592104
 20
-125.290108
 30
0.0
 40
1.0
100
AcDbArc
 50
180.0
 51
233.130102
  0
ARC
  5
497
100
AcDbEntity
  8
2
370
    50
100
AcDbCircle
 10
-210.592104
 20
-121.890108
 30
0.0
 40
1.0
100
AcDbArc
 50
126.869898
 51
180.0
  0
ARC
  5
498
100
AcDbEntity
  8
2
370
    50
100
AcDbCircle
 10
-210.592104
 20
-118.290108
 30
0.0
 40
1.0
100
AcDbArc
 50
180.0
 51
233.130102
  0
ARC
  5
499
100
AcDbEntity
  8
2
370
    50
100
AcDbCircle
 10
-210.592104
 20
-114.390108
 30
0.0
 40
1.0
100
AcDbArc
 50
126.869898
 51
180.0
  0
LINE
  5
49A
100
AcDbEntity
  8
2
370
    50
100
AcDbLine
 10
-197.992104
 20
-113.590108
 30
0.0
 11
-204.592104
 21
-113.590108
 31
0.0
  0
ARC
  5
49B
100
AcDbEntity
  8
2
370
    50
100
AcDbCircle
 10
-198.592104
 20
-114.390108
 30
0.0
 40
1.0
100
AcDbArc
 50
0.0
 51
53.130102
  0
LINE
  5
49C
100
AcDbEntity
  8
2
370
    50
100
AcDbLine
 10
-197.592104
 20
-114.390108
 30
0.0
 11
-197.592104
 21
-118.290108
 31
0.0
  0
ARC
  5
49D
100
AcDbEntity
  8
2
370
    50
100
AcDbCircle
 10
-198.592104
 20
-118.290108
 30
0.0
 40
1.0
100
AcDbArc
 50
306.869898
 51
0.0
  0
LINE
  5
49E
100
AcDbEntity
  8
2
370
    50
100
AcDbLine
 10
-197.992104
 20
-119.090108
 30
0.0
 11
-197.992104
 21
-121.090108
 31
0.0
  0
LINE
  5
49F
100
AcDbEntity
  8
2
370
    50
100
AcDbLine
 10
-197.992104
 20
-119.090108
 30
0.0
 11
-204.592104
 21
-119.090108
 31
0.0
  0
LINE
  5
4A0
100
AcDbEntity
  8
2
370
    50
100
AcDbLine
 10
-197.992104
 20
-121.090108
 30
0.0
 11
-204.592104
 21
-121.090108
 31
0.0
  0
ARC
  5
4A1
100
AcDbEntity
  8
2
370
    50
100
AcDbCircle
 10
-198.592104
 20
-121.890108
 30
0.0
 40
1.0
100
AcDbArc
 50
0.0
 51
53.130102
  0
LINE
  5
4A2
100
AcDbEntity
  8
2
370
    50
100
AcDbLine
 10
-197.592104
 20
-121.890108
 30
0.0
 11
-197.592104
 21
-125.290108
 31
0.0
  0
ARC
  5
4A3
100
AcDbEntity
  8
2
370
    50
100
AcDbCircle
 10
-198.592104
 20
-125.290108
 30
0.0
 40
1.0
100
AcDbArc
 50
306.869898
 51
0.0
  0
LINE
  5
4A4
100
AcDbEntity
  8
2
370
    50
100
AcDbLine
 10
-197.992104
 20
-126.090108
 30
0.0
 11
-204.592104
 21
-126.090108
 31
0.0
  0
LINE
  5
4A5
100
AcDbEntity
  8
2
370
    50
100
AcDbLine
 10
-197.992104
 20
-126.090108
 30
0.0
 11
-197.992104
 21
-128.090108
 31
0.0
  0
LINE
  5
4A6
100
AcDbEntity
  8
2
370
    50
100
AcDbLine
 10
-197.992104
 20
-128.090108
 30
0.0
 11
-204.592104
 21
-128.090108
 31
0.0
  0
ARC
  5
4A7
100
AcDbEntity
  8
2
370
    50
100
AcDbCircle
 10
-198.592104
 20
-128.890108
 30
0.0
 40
1.0
100
AcDbArc
 50
0.0
 51
53.130102
  0
LINE
  5
4A8
100
AcDbEntity
  8
2
370
    50
100
AcDbLine
 10
-197.592104
 20
-128.890108
 30
0.0
 11
-197.592104
 21
-132.290108
 31
0.0
  0
ARC
  5
4A9
100
AcDbEntity
  8
2
370
    50
100
AcDbCircle
 10
-198.592104
 20
-132.290108
 30
0.0
 40
1.0
100
AcDbArc
 50
306.869898
 51
0.0
  0
LINE
  5
4AA
100
AcDbEntity
  8
2
370
    50
100
AcDbLine
 10
-197.992104
 20
-133.090108
 30
0.0
 11
-204.592104
 21
-133.090108
 31
0.0
  0
LINE
  5
4AB
100
AcDbEntity
  8
2
370
    50
100
AcDbLine
 10
-197.992104
 20
-133.090108
 30
0.0
 11
-197.992104
 21
-135.090108
 31
0.0
  0
LINE
  5
4AC
100
AcDbEntity
  8
2
370
    50
100
AcDbLine
 10
-197.992104
 20
-135.090108
 30
0.0
 11
-204.592104
 21
-135.090108
 31
0.0
  0
ARC
  5
4AD
100
AcDbEntity
  8
2
370
    50
100
AcDbCircle
 10
-198.592104
 20
-135.890108
 30
0.0
 40
1.0
100
AcDbArc
 50
0.0
 51
53.130102
  0
LINE
  5
4AE
100
AcDbEntity
  8
2
370
    50
100
AcDbLine
 10
-211.042104
 20
-113.590108
 30
0.0
 11
-211.042104
 21
-95.079292
 31
0.0
  0
LINE
  5
4AF
100
AcDbEntity
  8
2
370
    50
100
AcDbLine
 10
-198.142104
 20
-113.590108
 30
0.0
 11
-198.142104
 21
-95.079292
 31
0.0
  0
ARC
  5
4B0
100
AcDbEntity
  8
2
370
    50
100
AcDbCircle
 10
-207.817104
 20
-90.779292
 30
0.0
 40
5.375
100
AcDbArc
 50
233.130102
 51
306.869898
  0
ARC
  5
4B1
100
AcDbEntity
  8
2
370
    50
100
AcDbCircle
 10
-201.367104
 20
-99.379292
 30
0.0
 40
5.375
100
AcDbArc
 50
53.130102
 51
126.869898
  0
ARC
  5
4B2
100
AcDbEntity
  8
2
370
    50
100
AcDbCircle
 10
-201.367104
 20
-90.779292
 30
0.0
 40
5.375
100
AcDbArc
 50
233.130102
 51
306.869898
  0
LINE
  5
4B3
100
AcDbEntity
  8
2
370
    50
100
AcDbLine
 10
-137.292101
 20
-121.330015
 30
0.0
 11
-137.292101
 21
-116.007366
 31
0.0
  0
LINE
  5
4B4
100
AcDbEntity
  8
2
370
    50
100
AcDbLine
 10
-128.894185
 20
-116.007366
 30
0.0
 11
-128.894185
 21
-121.330015
 31
0.0
  0
LINE
  5
4B5
100
AcDbEntity
  8
2
370
    50
100
AcDbLine
 10
-127.727919
 20
-116.007366
 30
0.0
 11
-127.727919
 21
-121.330015
 31
0.0
  0
LINE
  5
4B6
100
AcDbEntity
  8
2
370
    50
100
AcDbLine
 10
-127.727919
 20
-121.330015
 30
0.0
 11
-128.894185
 21
-121.330015
 31
0.0
  0
LINE
  5
4B7
100
AcDbEntity
  8
2
370
    50
100
AcDbLine
 10
-137.292101
 20
-121.330015
 30
0.0
 11
-136.792101
 21
-121.618691
 31
0.0
  0
LINE
  5
4B8
100
AcDbEntity
  8
2
370
    50
100
AcDbLine
 10
-137.292101
 20
-116.007366
 30
0.0
 11
-136.792101
 21
-115.718691
 31
0.0
  0
ARC
  5
4B9
100
AcDbEntity
  8
2
370
    50
100
AcDbCircle
 10
-131.292101
 20
-111.515061
 30
0.0
 40
10.10363
100
AcDbArc
 50
270.0
 51
283.729133
  0
ARC
  5
4BA
100
AcDbEntity
  8
2
370
    50
100
AcDbCircle
 10
-131.292101
 20
-125.82232
 30
0.0
 40
10.10363
100
AcDbArc
 50
76.270867
 51
90.0
  0
LINE
  5
4BB
100
AcDbEntity
  8
2
370
    50
100
AcDbLine
 10
-127.727919
 20
-116.007366
 30
0.0
 11
-128.894185
 21
-116.007366
 31
0.0
  0
ARC
  5
4BC
100
AcDbEntity
  8
2
370
    50
100
AcDbCircle
 10
-126.528961
 20
-118.98453
 30
0.0
 40
2.634161
100
AcDbArc
 50
242.924933
 51
297.075067
  0
ARC
  5
4BD
100
AcDbEntity
  8
2
370
    50
100
AcDbCircle
 10
-126.528961
 20
-118.352851
 30
0.0
 40
2.634161
100
AcDbArc
 50
62.924933
 51
117.075067
  0
ARC
  5
4BE
100
AcDbEntity
  8
2
370
    50
100
AcDbCircle
 10
-131.292101
 20
-111.515061
 30
0.0
 40
10.10363
100
AcDbArc
 50
256.270867
 51
270.0
  0
LINE
  5
4BF
100
AcDbEntity
  8
2
370
    50
100
AcDbLine
 10
-134.856283
 20
-121.330015
 30
0.0
 11
-133.690016
 21
-121.330015
 31
0.0
  0
ARC
  5
4C0
100
AcDbEntity
  8
2
370
    50
100
AcDbCircle
 10
-136.05524
 20
-118.98453
 30
0.0
 40
2.634161
100
AcDbArc
 50
242.924933
 51
297.075067
  0
LINE
  5
4C1
100
AcDbEntity
  8
2
370
    50
100
AcDbLine
 10
-137.254198
 20
-121.330015
 30
0.0
 11
-137.292101
 21
-121.330015
 31
0.0
  0
LINE
  5
4C2
100
AcDbEntity
  8
2
370
    50
100
AcDbLine
 10
-136.792101
 20
-121.618691
 30
0.0
 11
-125.792101
 21
-121.618691
 31
0.0
  0
LINE
  5
4C3
100
AcDbEntity
  8
2
370
    50
100
AcDbLine
 10
-137.892101
 20
-131.118691
 30
0.0
 11
-131.292101
 21
-131.118691
 31
0.0
  0
LINE
  5
4C4
100
AcDbEntity
  8
2
370
    50
100
AcDbLine
 10
-137.892101
 20
-129.118691
 30
0.0
 11
-131.292101
 21
-129.118691
 31
0.0
  0
LINE
  5
4C5
100
AcDbEntity
  8
2
370
    50
100
AcDbLine
 10
-138.292101
 20
-135.318691
 30
0.0
 11
-138.292101
 21
-131.918691
 31
0.0
  0
LINE
  5
4C6
100
AcDbEntity
  8
2
370
    50
100
AcDbLine
 10
-138.292101
 20
-128.318691
 30
0.0
 11
-138.292101
 21
-122.418691
 31
0.0
  0
LINE
  5
4C7
100
AcDbEntity
  8
2
370
    50
100
AcDbLine
 10
-137.892101
 20
-131.118691
 30
0.0
 11
-137.892101
 21
-129.118691
 31
0.0
  0
ARC
  5
4C8
100
AcDbEntity
  8
2
370
    50
100
AcDbCircle
 10
-137.292101
 20
-128.318691
 30
0.0
 40
1.0
100
AcDbArc
 50
180.0
 51
233.130102
  0
ARC
  5
4C9
100
AcDbEntity
  8
2
370
    50
100
AcDbCircle
 10
-137.292101
 20
-131.918691
 30
0.0
 40
1.0
100
AcDbArc
 50
126.869898
 51
180.0
  0
LINE
  5
4CA
100
AcDbEntity
  8
2
370
    50
100
AcDbLine
 10
-124.692101
 20
-131.118691
 30
0.0
 11
-131.292101
 21
-131.118691
 31
0.0
  0
LINE
  5
4CB
100
AcDbEntity
  8
2
370
    50
100
AcDbLine
 10
-124.692101
 20
-129.118691
 30
0.0
 11
-131.292101
 21
-129.118691
 31
0.0
  0
LINE
  5
4CC
100
AcDbEntity
  8
2
370
    50
100
AcDbLine
 10
-137.892101
 20
-121.618691
 30
0.0
 11
-124.692101
 21
-121.618691
 31
0.0
  0
ARC
  5
4CD
100
AcDbEntity
  8
2
370
    50
100
AcDbCircle
 10
-131.292101
 20
-125.82232
 30
0.0
 40
10.10363
100
AcDbArc
 50
90.0
 51
103.729133
  0
LINE
  5
4CE
100
AcDbEntity
  8
2
370
    50
100
AcDbLine
 10
-134.856283
 20
-116.007366
 30
0.0
 11
-133.690016
 21
-116.007366
 31
0.0
  0
ARC
  5
4CF
100
AcDbEntity
  8
2
370
    50
100
AcDbCircle
 10
-136.05524
 20
-118.352851
 30
0.0
 40
2.634161
100
AcDbArc
 50
62.924933
 51
117.075067
  0
LINE
  5
4D0
100
AcDbEntity
  8
2
370
    50
100
AcDbLine
 10
-133.690016
 20
-116.007366
 30
0.0
 11
-133.690016
 21
-121.330015
 31
0.0
  0
LINE
  5
4D1
100
AcDbEntity
  8
2
370
    50
100
AcDbLine
 10
-134.856283
 20
-116.007366
 30
0.0
 11
-134.856283
 21
-121.330015
 31
0.0
  0
LINE
  5
4D2
100
AcDbEntity
  8
2
370
    50
100
AcDbLine
 10
-137.254198
 20
-116.007366
 30
0.0
 11
-137.254198
 21
-121.330015
 31
0.0
  0
LINE
  5
4D3
100
AcDbEntity
  8
2
370
    50
100
AcDbLine
 10
-125.292101
 20
-121.330015
 30
0.0
 11
-125.292101
 21
-116.007366
 31
0.0
  0
LINE
  5
4D4
100
AcDbEntity
  8
2
370
    50
100
AcDbLine
 10
-125.330003
 20
-116.007366
 30
0.0
 11
-125.330003
 21
-121.330015
 31
0.0
  0
LINE
  5
4D5
100
AcDbEntity
  8
2
370
    50
100
AcDbLine
 10
-125.792101
 20
-121.618691
 30
0.0
 11
-125.292101
 21
-121.330015
 31
0.0
  0
LINE
  5
4D6
100
AcDbEntity
  8
2
370
    50
100
AcDbLine
 10
-125.292101
 20
-121.330015
 30
0.0
 11
-125.330003
 21
-121.330015
 31
0.0
  0
LINE
  5
4D7
100
AcDbEntity
  8
2
370
    50
100
AcDbLine
 10
-125.792101
 20
-115.718691
 30
0.0
 11
-125.292101
 21
-116.007366
 31
0.0
  0
LINE
  5
4D8
100
AcDbEntity
  8
2
370
    50
100
AcDbLine
 10
-137.892101
 20
-150.618691
 30
0.0
 11
-131.292101
 21
-150.618691
 31
0.0
  0
LINE
  5
4D9
100
AcDbEntity
  8
2
370
    50
100
AcDbLine
 10
-137.892101
 20
-145.118691
 30
0.0
 11
-131.292101
 21
-145.118691
 31
0.0
  0
LINE
  5
4DA
100
AcDbEntity
  8
2
370
    50
100
AcDbLine
 10
-137.892101
 20
-143.118691
 30
0.0
 11
-131.292101
 21
-143.118691
 31
0.0
  0
LINE
  5
4DB
100
AcDbEntity
  8
2
370
    50
100
AcDbLine
 10
-137.892101
 20
-138.118691
 30
0.0
 11
-131.292101
 21
-138.118691
 31
0.0
  0
LINE
  5
4DC
100
AcDbEntity
  8
2
370
    50
100
AcDbLine
 10
-137.892101
 20
-136.118691
 30
0.0
 11
-131.292101
 21
-136.118691
 31
0.0
  0
LINE
  5
4DD
100
AcDbEntity
  8
2
370
    50
100
AcDbLine
 10
-138.292101
 20
-149.818691
 30
0.0
 11
-138.292101
 21
-145.918691
 31
0.0
  0
LINE
  5
4DE
100
AcDbEntity
  8
2
370
    50
100
AcDbLine
 10
-138.292101
 20
-142.318691
 30
0.0
 11
-138.292101
 21
-138.918691
 31
0.0
  0
LINE
  5
4DF
100
AcDbEntity
  8
2
370
    50
100
AcDbLine
 10
-137.892101
 20
-145.118691
 30
0.0
 11
-137.892101
 21
-143.118691
 31
0.0
  0
LINE
  5
4E0
100
AcDbEntity
  8
2
370
    50
100
AcDbLine
 10
-137.892101
 20
-138.118691
 30
0.0
 11
-137.892101
 21
-136.118691
 31
0.0
  0
ARC
  5
4E1
100
AcDbEntity
  8
2
370
    50
100
AcDbCircle
 10
-137.292101
 20
-135.318691
 30
0.0
 40
1.0
100
AcDbArc
 50
180.0
 51
233.130102
  0
ARC
  5
4E2
100
AcDbEntity
  8
2
370
    50
100
AcDbCircle
 10
-137.292101
 20
-138.918691
 30
0.0
 40
1.0
100
AcDbArc
 50
126.869898
 51
180.0
  0
ARC
  5
4E3
100
AcDbEntity
  8
2
370
    50
100
AcDbCircle
 10
-137.292101
 20
-142.318691
 30
0.0
 40
1.0
100
AcDbArc
 50
180.0
 51
233.130102
  0
ARC
  5
4E4
100
AcDbEntity
  8
2
370
    50
100
AcDbCircle
 10
-137.292101
 20
-145.918691
 30
0.0
 40
1.0
100
AcDbArc
 50
126.869898
 51
180.0
  0
ARC
  5
4E5
100
AcDbEntity
  8
2
370
    50
100
AcDbCircle
 10
-137.292101
 20
-149.818691
 30
0.0
 40
1.0
100
AcDbArc
 50
180.0
 51
233.130102
  0
LINE
  5
4E6
100
AcDbEntity
  8
2
370
    50
100
AcDbLine
 10
-124.692101
 20
-150.618691
 30
0.0
 11
-131.292101
 21
-150.618691
 31
0.0
  0
ARC
  5
4E7
100
AcDbEntity
  8
2
370
    50
100
AcDbCircle
 10
-125.292101
 20
-149.818691
 30
0.0
 40
1.0
100
AcDbArc
 50
306.869898
 51
360.0
  0
ARC
  5
4E8
100
AcDbEntity
  8
2
370
    50
100
AcDbCircle
 10
-125.292101
 20
-145.918691
 30
0.0
 40
1.0
100
AcDbArc
 50
360.0
 51
53.130102
  0
LINE
  5
4E9
100
AcDbEntity
  8
2
370
    50
100
AcDbLine
 10
-124.692101
 20
-145.118691
 30
0.0
 11
-124.692101
 21
-143.118691
 31
0.0
  0
LINE
  5
4EA
100
AcDbEntity
  8
2
370
    50
100
AcDbLine
 10
-124.692101
 20
-145.118691
 30
0.0
 11
-131.292101
 21
-145.118691
 31
0.0
  0
LINE
  5
4EB
100
AcDbEntity
  8
2
370
    50
100
AcDbLine
 10
-124.692101
 20
-143.118691
 30
0.0
 11
-131.292101
 21
-143.118691
 31
0.0
  0
ARC
  5
4EC
100
AcDbEntity
  8
2
370
    50
100
AcDbCircle
 10
-125.292101
 20
-142.318691
 30
0.0
 40
1.0
100
AcDbArc
 50
306.869898
 51
360.0
  0
ARC
  5
4ED
100
AcDbEntity
  8
2
370
    50
100
AcDbCircle
 10
-125.292101
 20
-138.918691
 30
0.0
 40
1.0
100
AcDbArc
 50
360.0
 51
53.130102
  0
LINE
  5
4EE
100
AcDbEntity
  8
2
370
    50
100
AcDbLine
 10
-124.692101
 20
-138.118691
 30
0.0
 11
-131.292101
 21
-138.118691
 31
0.0
  0
LINE
  5
4EF
100
AcDbEntity
  8
2
370
    50
100
AcDbLine
 10
-124.692101
 20
-138.118691
 30
0.0
 11
-124.692101
 21
-136.118691
 31
0.0
  0
LINE
  5
4F0
100
AcDbEntity
  8
2
370
    50
100
AcDbLine
 10
-124.692101
 20
-136.118691
 30
0.0
 11
-131.292101
 21
-136.118691
 31
0.0
  0
ARC
  5
4F1
100
AcDbEntity
  8
2
370
    50
100
AcDbCircle
 10
-125.292101
 20
-135.318691
 30
0.0
 40
1.0
100
AcDbArc
 50
306.869898
 51
360.0
  0
ARC
  5
4F2
100
AcDbEntity
  8
2
370
    50
100
AcDbCircle
 10
-125.292101
 20
-131.918691
 30
0.0
 40
1.0
100
AcDbArc
 50
360.0
 51
53.130102
  0
LINE
  5
4F3
100
AcDbEntity
  8
2
370
    50
100
AcDbLine
 10
-124.692101
 20
-131.118691
 30
0.0
 11
-124.692101
 21
-129.118691
 31
0.0
  0
ARC
  5
4F4
100
AcDbEntity
  8
2
370
    50
100
AcDbCircle
 10
-125.292101
 20
-128.318691
 30
0.0
 40
1.0
100
AcDbArc
 50
306.869898
 51
360.0
  0
ARC
  5
4F5
100
AcDbEntity
  8
2
370
    50
100
AcDbCircle
 10
-125.292101
 20
-122.418691
 30
0.0
 40
1.0
100
AcDbArc
 50
360.0
 51
53.130102
  0
LINE
  5
4F6
100
AcDbEntity
  8
2
370
    50
100
AcDbLine
 10
-137.742101
 20
-157.966697
 30
0.0
 11
-137.742101
 21
-150.618691
 31
0.0
  0
LINE
  5
4F7
100
AcDbEntity
  8
2
370
    50
100
AcDbLine
 10
-124.842101
 20
-157.966697
 30
0.0
 11
-124.842101
 21
-150.618691
 31
0.0
  0
ARC
  5
4F8
100
AcDbEntity
  8
2
370
    50
100
AcDbCircle
 10
-134.517055
 20
-153.666637
 30
0.0
 40
5.375075
100
AcDbArc
 50
233.130102
 51
306.869898
  0
ARC
  5
4F9
100
AcDbEntity
  8
2
370
    50
100
AcDbCircle
 10
-128.066965
 20
-162.266758
 30
0.0
 40
5.375075
100
AcDbArc
 50
53.130102
 51
126.869898
  0
ARC
  5
4FA
100
AcDbEntity
  8
2
370
    50
100
AcDbCircle
 10
-134.517055
 20
-162.266758
 30
0.0
 40
5.375075
100
AcDbArc
 50
53.130102
 51
126.869898
  0
LINE
  5
4FB
100
AcDbEntity
  8
2
370
    50
100
AcDbLine
 10
-124.292101
 20
-149.818691
 30
0.0
 11
-124.292101
 21
-145.918691
 31
0.0
  0
LINE
  5
4FC
100
AcDbEntity
  8
2
370
    50
100
AcDbLine
 10
-124.292101
 20
-142.318691
 30
0.0
 11
-124.292101
 21
-138.918691
 31
0.0
  0
LINE
  5
4FD
100
AcDbEntity
  8
2
370
    50
100
AcDbLine
 10
-124.292101
 20
-135.318691
 30
0.0
 11
-124.292101
 21
-131.918691
 31
0.0
  0
LINE
  5
4FE
100
AcDbEntity
  8
2
370
    50
100
AcDbLine
 10
-124.292101
 20
-128.318691
 30
0.0
 11
-124.292101
 21
-122.418691
 31
0.0
  0
ARC
  5
4FF
100
AcDbEntity
  8
2
370
    50
100
AcDbCircle
 10
-137.292101
 20
-122.418691
 30
0.0
 40
1.0
100
AcDbArc
 50
126.869898
 51
180.0
  0
LINE
  5
500
100
AcDbEntity
  8
2
370
    50
100
AcDbLine
 10
-151.292101
 20
-111.330015
 30
0.0
 11
-151.292101
 21
-106.007366
 31
0.0
  0
LINE
  5
501
100
AcDbEntity
  8
2
370
    50
100
AcDbLine
 10
-142.894185
 20
-106.007366
 30
0.0
 11
-142.894185
 21
-111.330015
 31
0.0
  0
LINE
  5
502
100
AcDbEntity
  8
2
370
    50
100
AcDbLine
 10
-141.727919
 20
-106.007366
 30
0.0
 11
-141.727919
 21
-111.330015
 31
0.0
  0
LINE
  5
503
100
AcDbEntity
  8
2
370
    50
100
AcDbLine
 10
-141.727919
 20
-111.330015
 30
0.0
 11
-142.894185
 21
-111.330015
 31
0.0
  0
LINE
  5
504
100
AcDbEntity
  8
2
370
    50
100
AcDbLine
 10
-151.292101
 20
-111.330015
 30
0.0
 11
-150.792101
 21
-111.618691
 31
0.0
  0
LINE
  5
505
100
AcDbEntity
  8
2
370
    50
100
AcDbLine
 10
-151.292101
 20
-106.007366
 30
0.0
 11
-150.792101
 21
-105.718691
 31
0.0
  0
ARC
  5
506
100
AcDbEntity
  8
2
370
    50
100
AcDbCircle
 10
-145.292101
 20
-101.515061
 30
0.0
 40
10.10363
100
AcDbArc
 50
270.0
 51
283.729133
  0
ARC
  5
507
100
AcDbEntity
  8
2
370
    50
100
AcDbCircle
 10
-145.292101
 20
-115.82232
 30
0.0
 40
10.10363
100
AcDbArc
 50
76.270867
 51
90.0
  0
LINE
  5
508
100
AcDbEntity
  8
2
370
    50
100
AcDbLine
 10
-141.727919
 20
-106.007366
 30
0.0
 11
-142.894185
 21
-106.007366
 31
0.0
  0
ARC
  5
509
100
AcDbEntity
  8
2
370
    50
100
AcDbCircle
 10
-140.528961
 20
-108.98453
 30
0.0
 40
2.634161
100
AcDbArc
 50
242.924933
 51
297.075067
  0
ARC
  5
50A
100
AcDbEntity
  8
2
370
    50
100
AcDbCircle
 10
-140.528961
 20
-108.352851
 30
0.0
 40
2.634161
100
AcDbArc
 50
62.924933
 51
117.075067
  0
ARC
  5
50B
100
AcDbEntity
  8
2
370
    50
100
AcDbCircle
 10
-145.292101
 20
-101.515061
 30
0.0
 40
10.10363
100
AcDbArc
 50
256.270867
 51
270.0
  0
LINE
  5
50C
100
AcDbEntity
  8
2
370
    50
100
AcDbLine
 10
-148.856283
 20
-111.330015
 30
0.0
 11
-147.690016
 21
-111.330015
 31
0.0
  0
ARC
  5
50D
100
AcDbEntity
  8
2
370
    50
100
AcDbCircle
 10
-150.05524
 20
-108.98453
 30
0.0
 40
2.634161
100
AcDbArc
 50
242.924933
 51
297.075067
  0
LINE
  5
50E
100
AcDbEntity
  8
2
370
    50
100
AcDbLine
 10
-151.254198
 20
-111.330015
 30
0.0
 11
-151.292101
 21
-111.330015
 31
0.0
  0
LINE
  5
50F
100
AcDbEntity
  8
2
370
    50
100
AcDbLine
 10
-150.792101
 20
-111.618691
 30
0.0
 11
-139.792101
 21
-111.618691
 31
0.0
  0
LINE
  5
510
100
AcDbEntity
  8
2
370
    50
100
AcDbLine
 10
-151.892101
 20
-121.118691
 30
0.0
 11
-145.292101
 21
-121.118691
 31
0.0
  0
LINE
  5
511
100
AcDbEntity
  8
2
370
    50
100
AcDbLine
 10
-151.892101
 20
-119.118691
 30
0.0
 11
-145.292101
 21
-119.118691
 31
0.0
  0
LINE
  5
512
100
AcDbEntity
  8
2
370
    50
100
AcDbLine
 10
-152.292101
 20
-125.318691
 30
0.0
 11
-152.292101
 21
-121.918691
 31
0.0
  0
LINE
  5
513
100
AcDbEntity
  8
2
370
    50
100
AcDbLine
 10
-152.292101
 20
-118.318691
 30
0.0
 11
-152.292101
 21
-112.418691
 31
0.0
  0
LINE
  5
514
100
AcDbEntity
  8
2
370
    50
100
AcDbLine
 10
-151.892101
 20
-121.118691
 30
0.0
 11
-151.892101
 21
-119.118691
 31
0.0
  0
ARC
  5
515
100
AcDbEntity
  8
2
370
    50
100
AcDbCircle
 10
-151.292101
 20
-118.318691
 30
0.0
 40
1.0
100
AcDbArc
 50
180.0
 51
233.130102
  0
ARC
  5
516
100
AcDbEntity
  8
2
370
    50
100
AcDbCircle
 10
-151.292101
 20
-121.918691
 30
0.0
 40
1.0
100
AcDbArc
 50
126.869898
 51
180.0
  0
LINE
  5
517
100
AcDbEntity
  8
2
370
    50
100
AcDbLine
 10
-138.692101
 20
-121.118691
 30
0.0
 11
-145.292101
 21
-121.118691
 31
0.0
  0
LINE
  5
518
100
AcDbEntity
  8
2
370
    50
100
AcDbLine
 10
-138.692101
 20
-119.118691
 30
0.0
 11
-145.292101
 21
-119.118691
 31
0.0
  0
LINE
  5
519
100
AcDbEntity
  8
2
370
    50
100
AcDbLine
 10
-151.892101
 20
-111.618691
 30
0.0
 11
-138.692101
 21
-111.618691
 31
0.0
  0
ARC
  5
51A
100
AcDbEntity
  8
2
370
    50
100
AcDbCircle
 10
-145.292101
 20
-115.82232
 30
0.0
 40
10.10363
100
AcDbArc
 50
90.0
 51
103.729133
  0
LINE
  5
51B
100
AcDbEntity
  8
2
370
    50
100
AcDbLine
 10
-148.856283
 20
-106.007366
 30
0.0
 11
-147.690016
 21
-106.007366
 31
0.0
  0
ARC
  5
51C
100
AcDbEntity
  8
2
370
    50
100
AcDbCircle
 10
-150.05524
 20
-108.352851
 30
0.0
 40
2.634161
100
AcDbArc
 50
62.924933
 51
117.075067
  0
LINE
  5
51D
100
AcDbEntity
  8
2
370
    50
100
AcDbLine
 10
-147.690016
 20
-106.007366
 30
0.0
 11
-147.690016
 21
-111.330015
 31
0.0
  0
LINE
  5
51E
100
AcDbEntity
  8
2
370
    50
100
AcDbLine
 10
-148.856283
 20
-106.007366
 30
0.0
 11
-148.856283
 21
-111.330015
 31
0.0
  0
LINE
  5
51F
100
AcDbEntity
  8
2
370
    50
100
AcDbLine
 10
-151.254198
 20
-106.007366
 30
0.0
 11
-151.254198
 21
-111.330015
 31
0.0
  0
LINE
  5
520
100
AcDbEntity
  8
2
370
    50
100
AcDbLine
 10
-139.292101
 20
-111.330015
 30
0.0
 11
-139.292101
 21
-106.007366
 31
0.0
  0
LINE
  5
521
100
AcDbEntity
  8
2
370
    50
100
AcDbLine
 10
-139.330003
 20
-106.007366
 30
0.0
 11
-139.330003
 21
-111.330015
 31
0.0
  0
LINE
  5
522
100
AcDbEntity
  8
2
370
    50
100
AcDbLine
 10
-139.792101
 20
-111.618691
 30
0.0
 11
-139.292101
 21
-111.330015
 31
0.0
  0
LINE
  5
523
100
AcDbEntity
  8
2
370
    50
100
AcDbLine
 10
-139.292101
 20
-111.330015
 30
0.0
 11
-139.330003
 21
-111.330015
 31
0.0
  0
LINE
  5
524
100
AcDbEntity
  8
2
370
    50
100
AcDbLine
 10
-139.792101
 20
-105.718691
 30
0.0
 11
-139.292101
 21
-106.007366
 31
0.0
  0
LINE
  5
525
100
AcDbEntity
  8
2
370
    50
100
AcDbLine
 10
-151.892101
 20
-140.618691
 30
0.0
 11
-145.292101
 21
-140.618691
 31
0.0
  0
LINE
  5
526
100
AcDbEntity
  8
2
370
    50
100
AcDbLine
 10
-151.892101
 20
-135.118691
 30
0.0
 11
-145.292101
 21
-135.118691
 31
0.0
  0
LINE
  5
527
100
AcDbEntity
  8
2
370
    50
100
AcDbLine
 10
-151.892101
 20
-133.118691
 30
0.0
 11
-145.292101
 21
-133.118691
 31
0.0
  0
LINE
  5
528
100
AcDbEntity
  8
2
370
    50
100
AcDbLine
 10
-151.892101
 20
-128.118691
 30
0.0
 11
-145.292101
 21
-128.118691
 31
0.0
  0
LINE
  5
529
100
AcDbEntity
  8
2
370
    50
100
AcDbLine
 10
-151.892101
 20
-126.118691
 30
0.0
 11
-145.292101
 21
-126.118691
 31
0.0
  0
LINE
  5
52A
100
AcDbEntity
  8
2
370
    50
100
AcDbLine
 10
-152.292101
 20
-139.818691
 30
0.0
 11
-152.292101
 21
-135.918691
 31
0.0
  0
LINE
  5
52B
100
AcDbEntity
  8
2
370
    50
100
AcDbLine
 10
-152.292101
 20
-132.318691
 30
0.0
 11
-152.292101
 21
-128.918691
 31
0.0
  0
LINE
  5
52C
100
AcDbEntity
  8
2
370
    50
100
AcDbLine
 10
-151.892101
 20
-135.118691
 30
0.0
 11
-151.892101
 21
-133.118691
 31
0.0
  0
LINE
  5
52D
100
AcDbEntity
  8
2
370
    50
100
AcDbLine
 10
-151.892101
 20
-128.118691
 30
0.0
 11
-151.892101
 21
-126.118691
 31
0.0
  0
ARC
  5
52E
100
AcDbEntity
  8
2
370
    50
100
AcDbCircle
 10
-151.292101
 20
-125.318691
 30
0.0
 40
1.0
100
AcDbArc
 50
180.0
 51
233.130102
  0
ARC
  5
52F
100
AcDbEntity
  8
2
370
    50
100
AcDbCircle
 10
-151.292101
 20
-128.918691
 30
0.0
 40
1.0
100
AcDbArc
 50
126.869898
 51
180.0
  0
ARC
  5
530
100
AcDbEntity
  8
2
370
    50
100
AcDbCircle
 10
-151.292101
 20
-132.318691
 30
0.0
 40
1.0
100
AcDbArc
 50
180.0
 51
233.130102
  0
ARC
  5
531
100
AcDbEntity
  8
2
370
    50
100
AcDbCircle
 10
-151.292101
 20
-135.918691
 30
0.0
 40
1.0
100
AcDbArc
 50
126.869898
 51
180.0
  0
ARC
  5
532
100
AcDbEntity
  8
2
370
    50
100
AcDbCircle
 10
-151.292101
 20
-139.818691
 30
0.0
 40
1.0
100
AcDbArc
 50
180.0
 51
233.130102
  0
LINE
  5
533
100
AcDbEntity
  8
2
370
    50
100
AcDbLine
 10
-138.692101
 20
-140.618691
 30
0.0
 11
-145.292101
 21
-140.618691
 31
0.0
  0
ARC
  5
534
100
AcDbEntity
  8
2
370
    50
100
AcDbCircle
 10
-139.292101
 20
-139.818691
 30
0.0
 40
1.0
100
AcDbArc
 50
306.869898
 51
360.0
  0
ARC
  5
535
100
AcDbEntity
  8
2
370
    50
100
AcDbCircle
 10
-139.292101
 20
-135.918691
 30
0.0
 40
1.0
100
AcDbArc
 50
360.0
 51
53.130102
  0
LINE
  5
536
100
AcDbEntity
  8
2
370
    50
100
AcDbLine
 10
-138.692101
 20
-135.118691
 30
0.0
 11
-138.692101
 21
-133.118691
 31
0.0
  0
LINE
  5
537
100
AcDbEntity
  8
2
370
    50
100
AcDbLine
 10
-138.692101
 20
-135.118691
 30
0.0
 11
-145.292101
 21
-135.118691
 31
0.0
  0
LINE
  5
538
100
AcDbEntity
  8
2
370
    50
100
AcDbLine
 10
-138.692101
 20
-133.118691
 30
0.0
 11
-145.292101
 21
-133.118691
 31
0.0
  0
ARC
  5
539
100
AcDbEntity
  8
2
370
    50
100
AcDbCircle
 10
-139.292101
 20
-132.318691
 30
0.0
 40
1.0
100
AcDbArc
 50
306.869898
 51
360.0
  0
ARC
  5
53A
100
AcDbEntity
  8
2
370
    50
100
AcDbCircle
 10
-139.292101
 20
-128.918691
 30
0.0
 40
1.0
100
AcDbArc
 50
360.0
 51
53.130102
  0
LINE
  5
53B
100
AcDbEntity
  8
2
370
    50
100
AcDbLine
 10
-138.692101
 20
-128.118691
 30
0.0
 11
-145.292101
 21
-128.118691
 31
0.0
  0
LINE
  5
53C
100
AcDbEntity
  8
2
370
    50
100
AcDbLine
 10
-138.692101
 20
-128.118691
 30
0.0
 11
-138.692101
 21
-126.118691
 31
0.0
  0
LINE
  5
53D
100
AcDbEntity
  8
2
370
    50
100
AcDbLine
 10
-138.692101
 20
-126.118691
 30
0.0
 11
-145.292101
 21
-126.118691
 31
0.0
  0
ARC
  5
53E
100
AcDbEntity
  8
2
370
    50
100
AcDbCircle
 10
-139.292101
 20
-125.318691
 30
0.0
 40
1.0
100
AcDbArc
 50
306.869898
 51
360.0
  0
ARC
  5
53F
100
AcDbEntity
  8
2
370
    50
100
AcDbCircle
 10
-139.292101
 20
-121.918691
 30
0.0
 40
1.0
100
AcDbArc
 50
360.0
 51
53.130102
  0
LINE
  5
540
100
AcDbEntity
  8
2
370
    50
100
AcDbLine
 10
-138.692101
 20
-121.118691
 30
0.0
 11
-138.692101
 21
-119.118691
 31
0.0
  0
ARC
  5
541
100
AcDbEntity
  8
2
370
    50
100
AcDbCircle
 10
-139.292101
 20
-118.318691
 30
0.0
 40
1.0
100
AcDbArc
 50
306.869898
 51
360.0
  0
ARC
  5
542
100
AcDbEntity
  8
2
370
    50
100
AcDbCircle
 10
-139.292101
 20
-112.418691
 30
0.0
 40
1.0
100
AcDbArc
 50
360.0
 51
53.130102
  0
LINE
  5
543
100
AcDbEntity
  8
2
370
    50
100
AcDbLine
 10
-151.742101
 20
-147.966697
 30
0.0
 11
-151.742101
 21
-140.618691
 31
0.0
  0
LINE
  5
544
100
AcDbEntity
  8
2
370
    50
100
AcDbLine
 10
-138.842101
 20
-147.966697
 30
0.0
 11
-138.842101
 21
-140.618691
 31
0.0
  0
ARC
  5
545
100
AcDbEntity
  8
2
370
    50
100
AcDbCircle
 10
-148.517055
 20
-143.666637
 30
0.0
 40
5.375075
100
AcDbArc
 50
233.130102
 51
306.869898
  0
ARC
  5
546
100
AcDbEntity
  8
2
370
    50
100
AcDbCircle
 10
-142.066965
 20
-152.266758
 30
0.0
 40
5.375075
100
AcDbArc
 50
53.130102
 51
126.869898
  0
ARC
  5
547
100
AcDbEntity
  8
2
370
    50
100
AcDbCircle
 10
-148.517055
 20
-152.266758
 30
0.0
 40
5.375075
100
AcDbArc
 50
53.130102
 51
126.869898
  0
LINE
  5
548
100
AcDbEntity
  8
2
370
    50
100
AcDbLine
 10
-138.292101
 20
-139.818691
 30
0.0
 11
-138.292101
 21
-135.918691
 31
0.0
  0
LINE
  5
549
100
AcDbEntity
  8
2
370
    50
100
AcDbLine
 10
-138.292101
 20
-132.318691
 30
0.0
 11
-138.292101
 21
-128.918691
 31
0.0
  0
LINE
  5
54A
100
AcDbEntity
  8
2
370
    50
100
AcDbLine
 10
-138.292101
 20
-125.318691
 30
0.0
 11
-138.292101
 21
-121.918691
 31
0.0
  0
LINE
  5
54B
100
AcDbEntity
  8
2
370
    50
100
AcDbLine
 10
-138.292101
 20
-118.318691
 30
0.0
 11
-138.292101
 21
-112.418691
 31
0.0
  0
ARC
  5
54C
100
AcDbEntity
  8
2
370
    50
100
AcDbCircle
 10
-151.292101
 20
-112.418691
 30
0.0
 40
1.0
100
AcDbArc
 50
126.869898
 51
180.0
  0
LINE
  5
54D
100
AcDbEntity
  8
2
370
    25
  6
CENTER
100
AcDbLine
 10
-131.292101
 20
-185.722031
 30
0.0
 11
-131.292101
 21
-153.226074
 31
0.0
  0
LINE
  5
54E
100
AcDbEntity
  8
2
370
    25
  6
CENTER
100
AcDbLine
 10
-145.292101
 20
-177.218694
 30
0.0
 11
-145.292101
 21
-144.722738
 31
0.0
  0
LINE
  5
54F
100
AcDbEntity
  8
2
370
    25
  6
CENTER
100
AcDbLine
 10
-131.292101
 20
-185.722031
 30
0.0
 11
-71.992097
 21
-90.996879
 31
0.0
  0
ARC
  5
550
100
AcDbEntity
  8
2
370
    50
100
AcDbCircle
 10
-77.792097
 20
-151.89386
 30
0.0
 40
0.2
100
AcDbArc
 50
180.0
 51
270.0
  0
ARC
  5
551
100
AcDbEntity
  8
2
370
    50
100
AcDbCircle
 10
-66.192097
 20
-151.89386
 30
0.0
 40
0.2
100
AcDbArc
 50
270.0
 51
0.0
  0
LINE
  5
552
100
AcDbEntity
  8
2
370
    50
100
AcDbLine
 10
-64.992097
 20
-152.09386
 30
0.0
 11
-78.992097
 21
-152.09386
 31
0.0
  0
LINE
  5
553
100
AcDbEntity
  8
2
370
    50
100
AcDbLine
 10
-64.492097
 20
-152.59386
 30
0.0
 11
-64.992097
 21
-152.09386
 31
0.0
  0
LINE
  5
554
100
AcDbEntity
  8
2
370
    25
100
AcDbLine
 10
-65.492237
 20
-165.893238
 30
0.0
 11
-65.492237
 21
-162.893238
 31
0.0
  0
LINE
  5
555
100
AcDbEntity
  8
2
370
    50
100
AcDbLine
 10
-63.092097
 20
-157.494495
 30
0.0
 11
-63.092097
 21
-159.894495
 31
0.0
  0
LINE
  5
556
100
AcDbEntity
  8
2
370
    50
100
AcDbLine
 10
-63.292097
 20
-157.294495
 30
0.0
 11
-63.092097
 21
-157.494495
 31
0.0
  0
LINE
  5
557
100
AcDbEntity
  8
2
370
    50
100
AcDbLine
 10
-63.292097
 20
-160.094495
 30
0.0
 11
-63.092097
 21
-159.894495
 31
0.0
  0
LINE
  5
558
100
AcDbEntity
  8
2
370
    50
100
AcDbLine
 10
-64.492097
 20
-157.294495
 30
0.0
 11
-64.492097
 21
-156.893238
 31
0.0
  0
LINE
  5
559
100
AcDbEntity
  8
2
370
    50
100
AcDbLine
 10
-64.492097
 20
-152.59386
 30
0.0
 11
-64.492097
 21
-153.893238
 31
0.0
  0
LINE
  5
55A
100
AcDbEntity
  8
2
370
    50
100
AcDbLine
 10
-80.892097
 20
-157.49386
 30
0.0
 11
-80.892097
 21
-159.89386
 31
0.0
  0
LINE
  5
55B
100
AcDbEntity
  8
2
370
    50
100
AcDbLine
 10
-63.092097
 20
-157.49386
 30
0.0
 11
-63.092097
 21
-159.89386
 31
0.0
  0
LINE
  5
55C
100
AcDbEntity
  8
2
370
    50
100
AcDbLine
 10
-63.292097
 20
-157.29386
 30
0.0
 11
-63.092097
 21
-157.49386
 31
0.0
  0
LINE
  5
55D
100
AcDbEntity
  8
2
370
    50
100
AcDbLine
 10
-80.692097
 20
-157.29386
 30
0.0
 11
-80.892097
 21
-157.49386
 31
0.0
  0
LINE
  5
55E
100
AcDbEntity
  8
2
370
    50
100
AcDbLine
 10
-80.692097
 20
-160.09386
 30
0.0
 11
-80.892097
 21
-159.89386
 31
0.0
  0
LINE
  5
55F
100
AcDbEntity
  8
2
370
    50
100
AcDbLine
 10
-80.992097
 20
-165.89386
 30
0.0
 11
-62.992097
 21
-165.89386
 31
0.0
  0
LINE
  5
560
100
AcDbEntity
  8
2
370
    50
100
AcDbLine
 10
-80.292097
 20
-153.89386
 30
0.0
 11
-63.692097
 21
-153.89386
 31
0.0
  0
LINE
  5
561
100
AcDbEntity
  8
2
370
    50
100
AcDbLine
 10
-67.992097
 20
-154.89386
 30
0.0
 11
-67.992097
 21
-164.89386
 31
0.0
  0
LINE
  5
562
100
AcDbEntity
  8
2
370
    50
100
AcDbLine
 10
-75.992097
 20
-154.89386
 30
0.0
 11
-75.992097
 21
-164.89386
 31
0.0
  0
ARC
  5
563
100
AcDbEntity
  8
2
370
    50
100
AcDbCircle
 10
-58.492097
 20
-152.89386
 30
0.0
 40
1.0
100
AcDbArc
 50
0.0
 51
90.0
  0
ARC
  5
564
100
AcDbEntity
  8
2
370
    50
100
AcDbCircle
 10
-58.492097
 20
-164.89386
 30
0.0
 40
1.0
100
AcDbArc
 50
270.0
 51
0.0
  0
LINE
  5
565
100
AcDbEntity
  8
2
370
    50
100
AcDbLine
 10
-58.492097
 20
-151.89386
 30
0.0
 11
-65.992097
 21
-151.89386
 31
0.0
  0
LINE
  5
566
100
AcDbEntity
  8
2
370
    50
100
AcDbLine
 10
-77.992097
 20
-151.89386
 30
0.0
 11
-85.492097
 21
-151.89386
 31
0.0
  0
LINE
  5
567
100
AcDbEntity
  8
2
370
    50
100
AcDbLine
 10
-58.492097
 20
-165.89386
 30
0.0
 11
-64.492097
 21
-165.89386
 31
0.0
  0
LINE
  5
568
100
AcDbEntity
  8
2
370
    50
100
AcDbLine
 10
-80.292097
 20
-165.89386
 30
0.0
 11
-85.492097
 21
-165.89386
 31
0.0
  0
LINE
  5
569
100
AcDbEntity
  8
2
370
    50
100
AcDbLine
 10
-80.292097
 20
-156.89386
 30
0.0
 11
-75.992097
 21
-156.89386
 31
0.0
  0
LINE
  5
56A
100
AcDbEntity
  8
2
370
    50
100
AcDbLine
 10
-67.992097
 20
-156.89386
 30
0.0
 11
-63.692097
 21
-156.89386
 31
0.0
  0
LINE
  5
56B
100
AcDbEntity
  8
2
370
    50
100
AcDbLine
 10
-80.692097
 20
-157.29386
 30
0.0
 11
-75.992097
 21
-157.29386
 31
0.0
  0
LINE
  5
56C
100
AcDbEntity
  8
2
370
    50
100
AcDbLine
 10
-67.992097
 20
-157.29386
 30
0.0
 11
-63.292097
 21
-157.29386
 31
0.0
  0
LINE
  5
56D
100
AcDbEntity
  8
2
370
    50
100
AcDbLine
 10
-80.892097
 20
-157.49386
 30
0.0
 11
-75.992097
 21
-157.49386
 31
0.0
  0
LINE
  5
56E
100
AcDbEntity
  8
2
370
    50
100
AcDbLine
 10
-67.992097
 20
-157.49386
 30
0.0
 11
-63.092097
 21
-157.49386
 31
0.0
  0
LINE
  5
56F
100
AcDbEntity
  8
2
370
    50
100
AcDbLine
 10
-80.892097
 20
-159.89386
 30
0.0
 11
-75.992097
 21
-159.89386
 31
0.0
  0
LINE
  5
570
100
AcDbEntity
  8
2
370
    50
100
AcDbLine
 10
-67.992097
 20
-159.89386
 30
0.0
 11
-63.092097
 21
-159.89386
 31
0.0
  0
LINE
  5
571
100
AcDbEntity
  8
2
370
    50
100
AcDbLine
 10
-80.292097
 20
-162.89386
 30
0.0
 11
-75.992097
 21
-162.89386
 31
0.0
  0
LINE
  5
572
100
AcDbEntity
  8
2
370
    50
100
AcDbLine
 10
-67.992097
 20
-162.89386
 30
0.0
 11
-63.692097
 21
-162.89386
 31
0.0
  0
ARC
  5
573
100
AcDbEntity
  8
2
370
    50
100
AcDbCircle
 10
-74.992097
 20
-154.89386
 30
0.0
 40
1.0
100
AcDbArc
 50
90.0
 51
180.0
  0
ARC
  5
574
100
AcDbEntity
  8
2
370
    50
100
AcDbCircle
 10
-68.992097
 20
-154.89386
 30
0.0
 40
1.0
100
AcDbArc
 50
0.0
 51
90.0
  0
ARC
  5
575
100
AcDbEntity
  8
2
370
    50
100
AcDbCircle
 10
-68.992097
 20
-164.89386
 30
0.0
 40
1.0
100
AcDbArc
 50
270.0
 51
0.0
  0
ARC
  5
576
100
AcDbEntity
  8
2
370
    50
100
AcDbCircle
 10
-74.992097
 20
-164.89386
 30
0.0
 40
1.0
100
AcDbArc
 50
180.0
 51
270.0
  0
LINE
  5
577
100
AcDbEntity
  8
2
370
    50
100
AcDbLine
 10
-63.692097
 20
-153.89386
 30
0.0
 11
-63.692097
 21
-156.89386
 31
0.0
  0
LINE
  5
578
100
AcDbEntity
  8
2
370
    50
100
AcDbLine
 10
-80.292097
 20
-153.89386
 30
0.0
 11
-80.292097
 21
-156.89386
 31
0.0
  0
LINE
  5
579
100
AcDbEntity
  8
2
370
    50
100
AcDbLine
 10
-80.292097
 20
-162.89386
 30
0.0
 11
-80.292097
 21
-165.89386
 31
0.0
  0
LINE
  5
57A
100
AcDbEntity
  8
2
370
    50
100
AcDbLine
 10
-63.692097
 20
-162.89386
 30
0.0
 11
-63.692097
 21
-165.89386
 31
0.0
  0
LINE
  5
57B
100
AcDbEntity
  8
2
370
    50
100
AcDbLine
 10
-64.492097
 20
-157.29386
 30
0.0
 11
-64.492097
 21
-156.89386
 31
0.0
  0
LINE
  5
57C
100
AcDbEntity
  8
2
370
    50
100
AcDbLine
 10
-79.492097
 20
-157.29386
 30
0.0
 11
-79.492097
 21
-156.89386
 31
0.0
  0
LINE
  5
57D
100
AcDbEntity
  8
2
370
    25
100
AcDbLine
 10
-66.992097
 20
-165.594443
 30
0.0
 11
-66.992097
 21
-163.289222
 31
0.0
  0
LINE
  5
57E
100
AcDbEntity
  8
2
370
    25
100
AcDbLine
 10
-66.992097
 20
-156.632674
 30
0.0
 11
-66.992097
 21
-154.200469
 31
0.0
  0
LINE
  5
57F
100
AcDbEntity
  8
2
370
    25
100
AcDbLine
 10
-76.992097
 20
-165.594443
 30
0.0
 11
-76.992097
 21
-163.289222
 31
0.0
  0
LINE
  5
580
100
AcDbEntity
  8
2
370
    25
100
AcDbLine
 10
-76.992097
 20
-156.589995
 30
0.0
 11
-76.992097
 21
-154.120948
 31
0.0
  0
LINE
  5
581
100
AcDbEntity
  8
2
370
    50
100
AcDbLine
 10
-63.192097
 20
-164.89386
 30
0.0
 11
-63.192097
 21
-162.29386
 31
0.0
  0
LINE
  5
582
100
AcDbEntity
  8
2
370
    50
100
AcDbLine
 10
-63.192097
 20
-157.39386
 30
0.0
 11
-63.192097
 21
-152.89386
 31
0.0
  0
LINE
  5
583
100
AcDbEntity
  8
2
370
    50
100
AcDbLine
 10
-80.792097
 20
-164.89386
 30
0.0
 11
-80.792097
 21
-162.29386
 31
0.0
  0
LINE
  5
584
100
AcDbEntity
  8
2
370
    50
100
AcDbLine
 10
-80.792097
 20
-157.39386
 30
0.0
 11
-80.792097
 21
-152.89386
 31
0.0
  0
ARC
  5
585
100
AcDbEntity
  8
2
370
    50
100
AcDbCircle
 10
-64.192097
 20
-152.89386
 30
0.0
 40
1.0
100
AcDbArc
 50
0.0
 51
90.0
  0
ARC
  5
586
100
AcDbEntity
  8
2
370
    50
100
AcDbCircle
 10
-79.792097
 20
-152.89386
 30
0.0
 40
1.0
100
AcDbArc
 50
90.0
 51
180.0
  0
ARC
  5
587
100
AcDbEntity
  8
2
370
    50
100
AcDbCircle
 10
-62.192097
 20
-164.89386
 30
0.0
 40
1.0
100
AcDbArc
 50
180.0
 51
270.0
  0
ARC
  5
588
100
AcDbEntity
  8
2
370
    50
100
AcDbCircle
 10
-81.792097
 20
-164.89386
 30
0.0
 40
1.0
100
AcDbArc
 50
270.0
 51
0.0
  0
LINE
  5
589
100
AcDbEntity
  8
2
370
    50
100
AcDbLine
 10
-79.492097
 20
-152.59386
 30
0.0
 11
-79.492097
 21
-153.893238
 31
0.0
  0
ARC
  5
58A
100
AcDbEntity
  8
2
370
    50
100
AcDbCircle
 10
-79.792097
 20
-152.89386
 30
0.0
 40
1.0
100
AcDbArc
 50
90.0
 51
180.0
  0
LINE
  5
58B
100
AcDbEntity
  8
2
370
    50
100
AcDbLine
 10
-79.492097
 20
-152.59386
 30
0.0
 11
-78.992097
 21
-152.09386
 31
0.0
  0
LINE
  5
58C
100
AcDbEntity
  8
2
370
    50
100
AcDbLine
 10
-80.992097
 20
-160.29386
 30
0.0
 11
-80.992097
 21
-162.09386
 31
0.0
  0
LINE
  5
58D
100
AcDbEntity
  8
2
370
    50
100
AcDbLine
 10
-62.992097
 20
-160.29386
 30
0.0
 11
-62.992097
 21
-162.09386
 31
0.0
  0
LINE
  5
58E
100
AcDbEntity
  8
2
370
    50
100
AcDbLine
 10
-80.792097
 20
-160.09386
 30
0.0
 11
-80.992097
 21
-160.29386
 31
0.0
  0
LINE
  5
58F
100
AcDbEntity
  8
2
370
    50
100
AcDbLine
 10
-80.992097
 20
-162.09386
 30
0.0
 11
-80.792097
 21
-162.29386
 31
0.0
  0
LINE
  5
590
100
AcDbEntity
  8
2
370
    50
100
AcDbLine
 10
-63.192097
 20
-160.09386
 30
0.0
 11
-62.992097
 21
-160.29386
 31
0.0
  0
LINE
  5
591
100
AcDbEntity
  8
2
370
    50
100
AcDbLine
 10
-62.992097
 20
-162.09386
 30
0.0
 11
-63.192097
 21
-162.29386
 31
0.0
  0
LINE
  5
592
100
AcDbEntity
  8
2
370
    50
100
AcDbLine
 10
-64.492097
 20
-166.29386
 30
0.0
 11
-64.492097
 21
-165.89386
 31
0.0
  0
LINE
  5
593
100
AcDbEntity
  8
2
370
    50
100
AcDbLine
 10
-64.492097
 20
-162.89386
 30
0.0
 11
-64.492097
 21
-162.29386
 31
0.0
  0
LINE
  5
594
100
AcDbEntity
  8
2
370
    50
100
AcDbLine
 10
-79.492097
 20
-166.29386
 30
0.0
 11
-79.492097
 21
-165.89386
 31
0.0
  0
LINE
  5
595
100
AcDbEntity
  8
2
370
    50
100
AcDbLine
 10
-79.492097
 20
-162.89386
 30
0.0
 11
-79.492097
 21
-162.29386
 31
0.0
  0
LINE
  5
596
100
AcDbEntity
  8
2
370
    50
100
AcDbLine
 10
-80.792097
 20
-162.29386
 30
0.0
 11
-75.992097
 21
-162.29386
 31
0.0
  0
LINE
  5
597
100
AcDbEntity
  8
2
370
    50
100
AcDbLine
 10
-67.992097
 20
-162.29386
 30
0.0
 11
-63.192097
 21
-162.29386
 31
0.0
  0
LINE
  5
598
100
AcDbEntity
  8
2
370
    50
100
AcDbLine
 10
-80.992097
 20
-162.09386
 30
0.0
 11
-75.992097
 21
-162.09386
 31
0.0
  0
LINE
  5
599
100
AcDbEntity
  8
2
370
    50
100
AcDbLine
 10
-67.992097
 20
-162.09386
 30
0.0
 11
-62.992097
 21
-162.09386
 31
0.0
  0
LINE
  5
59A
100
AcDbEntity
  8
2
370
    50
100
AcDbLine
 10
-80.992097
 20
-160.29386
 30
0.0
 11
-75.992097
 21
-160.29386
 31
0.0
  0
LINE
  5
59B
100
AcDbEntity
  8
2
370
    50
100
AcDbLine
 10
-67.992097
 20
-160.29386
 30
0.0
 11
-62.992097
 21
-160.29386
 31
0.0
  0
LINE
  5
59C
100
AcDbEntity
  8
2
370
    50
100
AcDbLine
 10
-80.792097
 20
-160.09386
 30
0.0
 11
-75.992097
 21
-160.09386
 31
0.0
  0
LINE
  5
59D
100
AcDbEntity
  8
2
370
    50
100
AcDbLine
 10
-67.992097
 20
-160.09386
 30
0.0
 11
-63.192097
 21
-160.09386
 31
0.0
  0
LINE
  5
59E
100
AcDbEntity
  8
2
370
    25
100
AcDbLine
 10
-78.491957
 20
-165.893238
 30
0.0
 11
-78.491957
 21
-162.893238
 31
0.0
  0
LINE
  5
59F
100
AcDbEntity
  8
2
370
    25
100
AcDbLine
 10
-65.492237
 20
-156.89386
 30
0.0
 11
-65.492237
 21
-153.89386
 31
0.0
  0
LINE
  5
5A0
100
AcDbEntity
  8
2
370
    25
100
AcDbLine
 10
-78.491957
 20
-156.89386
 30
0.0
 11
-78.491957
 21
-153.89386
 31
0.0
  0
ARC
  5
5A1
100
AcDbEntity
  8
2
370
    50
100
AcDbCircle
 10
-85.492097
 20
-152.89386
 30
0.0
 40
1.0
100
AcDbArc
 50
90.0
 51
180.0
  0
ARC
  5
5A2
100
AcDbEntity
  8
2
370
    50
100
AcDbCircle
 10
-85.492097
 20
-164.89386
 30
0.0
 40
1.0
100
AcDbArc
 50
180.0
 51
270.0
  0
LINE
  5
5A3
100
AcDbEntity
  8
2
370
    25
  6
CENTER
100
AcDbLine
 10
-71.992097
 20
-90.996879
 30
0.0
 11
-71.992097
 21
-189.989709
 31
0.0
  0
LINE
  5
5A4
100
AcDbEntity
  8
2
370
    50
100
AcDbLine
 10
-57.492097
 20
-152.89386
 30
0.0
 11
-57.492097
 21
-164.89386
 31
0.0
  0
LINE
  5
5A5
100
AcDbEntity
  8
2
370
    50
100
AcDbLine
 10
-62.992362
 20
-166.293112
 30
0.0
 11
-61.992362
 21
-167.293112
 31
0.0
  0
LINE
  5
5A6
100
AcDbEntity
  8
2
370
    50
100
AcDbLine
 10
-80.992362
 20
-166.293112
 30
0.0
 11
-81.992362
 21
-167.293112
 31
0.0
  0
LINE
  5
5A7
100
AcDbEntity
  8
2
370
    50
100
AcDbLine
 10
-61.992362
 20
-167.293112
 30
0.0
 11
-81.992362
 21
-167.293112
 31
0.0
  0
LINE
  5
5A8
100
AcDbEntity
  8
2
370
    50
100
AcDbLine
 10
-61.992362
 20
-167.293112
 30
0.0
 11
-61.992362
 21
-176.093112
 31
0.0
  0
LINE
  5
5A9
100
AcDbEntity
  8
2
370
    50
100
AcDbLine
 10
-81.992362
 20
-167.293112
 30
0.0
 11
-81.992362
 21
-176.093112
 31
0.0
  0
LINE
  5
5AA
100
AcDbEntity
  8
2
370
    50
100
AcDbLine
 10
-82.31923
 20
-176.093112
 30
0.0
 11
-59.992362
 21
-176.093112
 31
0.0
  0
LINE
  5
5AB
100
AcDbEntity
  8
2
370
    50
100
AcDbLine
 10
-58.135956
 20
-177.949518
 30
0.0
 11
-58.135956
 21
-185.236706
 31
0.0
  0
LINE
  5
5AC
100
AcDbEntity
  8
2
370
    50
100
AcDbLine
 10
-85.848769
 20
-185.236706
 30
0.0
 11
-85.848769
 21
-177.949518
 31
0.0
  0
LINE
  5
5AD
100
AcDbEntity
  8
2
370
    50
100
AcDbLine
 10
-83.992362
 20
-187.093112
 30
0.0
 11
-59.992362
 21
-187.093112
 31
0.0
  0
LINE
  5
5AE
100
AcDbEntity
  8
2
370
    50
100
AcDbLine
 10
-65.064159
 20
-185.236706
 30
0.0
 11
-65.064159
 21
-177.949518
 31
0.0
  0
LINE
  5
5AF
100
AcDbEntity
  8
2
370
    50
100
AcDbLine
 10
-78.920566
 20
-185.236706
 30
0.0
 11
-78.920566
 21
-177.949518
 31
0.0
  0
LINE
  5
5B0
100
AcDbEntity
  8
2
370
    50
100
AcDbLine
 10
-83.992362
 20
-176.093112
 30
0.0
 11
-59.992362
 21
-176.093112
 31
0.0
  0
LINE
  5
5B1
100
AcDbEntity
  8
2
370
    50
100
AcDbLine
 10
-59.992362
 20
-176.093112
 30
0.0
 11
-58.135956
 21
-177.949518
 31
0.0
  0
LINE
  5
5B2
100
AcDbEntity
  8
2
370
    50
100
AcDbLine
 10
-83.992362
 20
-187.093112
 30
0.0
 11
-85.848769
 21
-185.236706
 31
0.0
  0
LINE
  5
5B3
100
AcDbEntity
  8
2
370
    50
100
AcDbLine
 10
-83.992362
 20
-176.093112
 30
0.0
 11
-85.848769
 21
-177.949518
 31
0.0
  0
LINE
  5
5B4
100
AcDbEntity
  8
2
370
    50
100
AcDbLine
 10
-59.992362
 20
-187.093112
 30
0.0
 11
-58.135956
 21
-185.236706
 31
0.0
  0
ARC
  5
5B5
100
AcDbEntity
  8
2
370
    50
100
AcDbCircle
 10
-71.992362
 20
-189.949518
 30
0.0
 40
13.856406
100
AcDbArc
 50
60.0
 51
120.0
  0
ARC
  5
5B6
100
AcDbEntity
  8
2
370
    50
100
AcDbCircle
 10
-71.992362
 20
-173.236706
 30
0.0
 40
13.856406
100
AcDbArc
 50
240.0
 51
300.0
  0
ARC
  5
5B7
100
AcDbEntity
  8
2
370
    50
100
AcDbCircle
 10
-61.665495
 20
-180.132411
 30
0.0
 40
4.039299
100
AcDbArc
 50
45.0
 51
147.288191
  0
ARC
  5
5B8
100
AcDbEntity
  8
2
370
    50
100
AcDbCircle
 10
-61.665495
 20
-183.053813
 30
0.0
 40
4.039299
100
AcDbArc
 50
212.711809
 51
315.0
  0
ARC
  5
5B9
100
AcDbEntity
  8
2
370
    50
100
AcDbCircle
 10
-82.31923
 20
-180.132411
 30
0.0
 40
4.039299
100
AcDbArc
 50
32.711809
 51
135.0
  0
ARC
  5
5BA
100
AcDbEntity
  8
2
370
    50
100
AcDbCircle
 10
-82.31923
 20
-183.053813
 30
0.0
 40
4.039299
100
AcDbArc
 50
225.0
 51
327.288191
  0
LINE
  5
5BB
100
AcDbEntity
  8
2
370
    50
100
AcDbLine
 10
-80.992362
 20
-166.293112
 30
0.0
 11
-62.992362
 21
-166.293112
 31
0.0
  0
LINE
  5
5BC
100
AcDbEntity
  8
2
370
    50
100
AcDbLine
 10
-71.991843
 20
-151.093445
 30
0.0
 11
-78.592097
 21
-151.093445
 31
0.0
  0
LINE
  5
5BD
100
AcDbEntity
  8
2
370
    50
100
AcDbLine
 10
-71.991843
 20
-151.093445
 30
0.0
 11
-65.392097
 21
-151.093445
 31
0.0
  0
LINE
  5
5BE
100
AcDbEntity
  8
2
370
    50
100
AcDbLine
 10
-78.992097
 20
-144.393445
 30
0.0
 11
-78.992097
 21
-150.293445
 31
0.0
  0
LINE
  5
5BF
100
AcDbEntity
  8
2
370
    50
100
AcDbLine
 10
-64.992097
 20
-144.393445
 30
0.0
 11
-64.992097
 21
-150.293445
 31
0.0
  0
ARC
  5
5C0
100
AcDbEntity
  8
2
370
    50
100
AcDbCircle
 10
-77.992097
 20
-150.293445
 30
0.0
 40
1.0
100
AcDbArc
 50
180.0
 51
233.130102
  0
ARC
  5
5C1
100
AcDbEntity
  8
2
370
    50
100
AcDbCircle
 10
-65.992097
 20
-150.293445
 30
0.0
 40
1.0
100
AcDbArc
 50
306.869898
 51
0.0
  0
LINE
  5
5C2
100
AcDbEntity
  8
2
370
    50
100
AcDbLine
 10
-78.242097
 20
-152.093445
 30
0.0
 11
-78.242097
 21
-151.093445
 31
0.0
  0
LINE
  5
5C3
100
AcDbEntity
  8
2
370
    50
100
AcDbLine
 10
-65.742097
 20
-152.093445
 30
0.0
 11
-65.742097
 21
-151.093445
 31
0.0
  0
LINE
  5
5C4
100
AcDbEntity
  8
2
370
    50
100
AcDbLine
 10
-78.592097
 20
-122.093445
 30
0.0
 11
-71.992097
 21
-122.093445
 31
0.0
  0
LINE
  5
5C5
100
AcDbEntity
  8
2
370
    50
100
AcDbLine
 10
-78.592097
 20
-127.593445
 30
0.0
 11
-71.992097
 21
-127.593445
 31
0.0
  0
LINE
  5
5C6
100
AcDbEntity
  8
2
370
    50
100
AcDbLine
 10
-78.592097
 20
-129.593445
 30
0.0
 11
-71.992097
 21
-129.593445
 31
0.0
  0
LINE
  5
5C7
100
AcDbEntity
  8
2
370
    50
100
AcDbLine
 10
-78.592097
 20
-134.593445
 30
0.0
 11
-71.992097
 21
-134.593445
 31
0.0
  0
LINE
  5
5C8
100
AcDbEntity
  8
2
370
    50
100
AcDbLine
 10
-78.592097
 20
-136.593445
 30
0.0
 11
-71.992097
 21
-136.593445
 31
0.0
  0
LINE
  5
5C9
100
AcDbEntity
  8
2
370
    50
100
AcDbLine
 10
-78.592097
 20
-141.593445
 30
0.0
 11
-71.992097
 21
-141.593445
 31
0.0
  0
LINE
  5
5CA
100
AcDbEntity
  8
2
370
    50
100
AcDbLine
 10
-78.592097
 20
-143.593445
 30
0.0
 11
-71.992097
 21
-143.593445
 31
0.0
  0
LINE
  5
5CB
100
AcDbEntity
  8
2
370
    50
100
AcDbLine
 10
-78.992097
 20
-122.893445
 30
0.0
 11
-78.992097
 21
-126.793445
 31
0.0
  0
LINE
  5
5CC
100
AcDbEntity
  8
2
370
    50
100
AcDbLine
 10
-78.992097
 20
-130.393445
 30
0.0
 11
-78.992097
 21
-133.793445
 31
0.0
  0
LINE
  5
5CD
100
AcDbEntity
  8
2
370
    50
100
AcDbLine
 10
-78.992097
 20
-137.393445
 30
0.0
 11
-78.992097
 21
-140.793445
 31
0.0
  0
LINE
  5
5CE
100
AcDbEntity
  8
2
370
    50
100
AcDbLine
 10
-78.592097
 20
-141.593445
 30
0.0
 11
-78.592097
 21
-143.593445
 31
0.0
  0
LINE
  5
5CF
100
AcDbEntity
  8
2
370
    50
100
AcDbLine
 10
-78.592097
 20
-127.593445
 30
0.0
 11
-78.592097
 21
-129.593445
 31
0.0
  0
LINE
  5
5D0
100
AcDbEntity
  8
2
370
    50
100
AcDbLine
 10
-78.592097
 20
-134.593445
 30
0.0
 11
-78.592097
 21
-136.593445
 31
0.0
  0
ARC
  5
5D1
100
AcDbEntity
  8
2
370
    50
100
AcDbCircle
 10
-77.992097
 20
-144.393445
 30
0.0
 40
1.0
100
AcDbArc
 50
126.869898
 51
180.0
  0
ARC
  5
5D2
100
AcDbEntity
  8
2
370
    50
100
AcDbCircle
 10
-77.992097
 20
-140.793445
 30
0.0
 40
1.0
100
AcDbArc
 50
180.0
 51
233.130102
  0
ARC
  5
5D3
100
AcDbEntity
  8
2
370
    50
100
AcDbCircle
 10
-77.992097
 20
-137.393445
 30
0.0
 40
1.0
100
AcDbArc
 50
126.869898
 51
180.0
  0
ARC
  5
5D4
100
AcDbEntity
  8
2
370
    50
100
AcDbCircle
 10
-77.992097
 20
-133.793445
 30
0.0
 40
1.0
100
AcDbArc
 50
180.0
 51
233.130102
  0
ARC
  5
5D5
100
AcDbEntity
  8
2
370
    50
100
AcDbCircle
 10
-77.992097
 20
-130.393445
 30
0.0
 40
1.0
100
AcDbArc
 50
126.869898
 51
180.0
  0
ARC
  5
5D6
100
AcDbEntity
  8
2
370
    50
100
AcDbCircle
 10
-77.992097
 20
-126.793445
 30
0.0
 40
1.0
100
AcDbArc
 50
180.0
 51
233.130102
  0
ARC
  5
5D7
100
AcDbEntity
  8
2
370
    50
100
AcDbCircle
 10
-77.992097
 20
-122.893445
 30
0.0
 40
1.0
100
AcDbArc
 50
126.869898
 51
180.0
  0
LINE
  5
5D8
100
AcDbEntity
  8
2
370
    50
100
AcDbLine
 10
-65.392097
 20
-122.093445
 30
0.0
 11
-71.992097
 21
-122.093445
 31
0.0
  0
ARC
  5
5D9
100
AcDbEntity
  8
2
370
    50
100
AcDbCircle
 10
-65.992097
 20
-122.893445
 30
0.0
 40
1.0
100
AcDbArc
 50
0.0
 51
53.130102
  0
LINE
  5
5DA
100
AcDbEntity
  8
2
370
    50
100
AcDbLine
 10
-64.992097
 20
-122.893445
 30
0.0
 11
-64.992097
 21
-126.793445
 31
0.0
  0
ARC
  5
5DB
100
AcDbEntity
  8
2
370
    50
100
AcDbCircle
 10
-65.992097
 20
-126.793445
 30
0.0
 40
1.0
100
AcDbArc
 50
306.869898
 51
0.0
  0
LINE
  5
5DC
100
AcDbEntity
  8
2
370
    50
100
AcDbLine
 10
-65.392097
 20
-127.593445
 30
0.0
 11
-65.392097
 21
-129.593445
 31
0.0
  0
LINE
  5
5DD
100
AcDbEntity
  8
2
370
    50
100
AcDbLine
 10
-65.392097
 20
-127.593445
 30
0.0
 11
-71.992097
 21
-127.593445
 31
0.0
  0
LINE
  5
5DE
100
AcDbEntity
  8
2
370
    50
100
AcDbLine
 10
-65.392097
 20
-129.593445
 30
0.0
 11
-71.992097
 21
-129.593445
 31
0.0
  0
ARC
  5
5DF
100
AcDbEntity
  8
2
370
    50
100
AcDbCircle
 10
-65.992097
 20
-130.393445
 30
0.0
 40
1.0
100
AcDbArc
 50
0.0
 51
53.130102
  0
LINE
  5
5E0
100
AcDbEntity
  8
2
370
    50
100
AcDbLine
 10
-64.992097
 20
-130.393445
 30
0.0
 11
-64.992097
 21
-133.793445
 31
0.0
  0
ARC
  5
5E1
100
AcDbEntity
  8
2
370
    50
100
AcDbCircle
 10
-65.992097
 20
-133.793445
 30
0.0
 40
1.0
100
AcDbArc
 50
306.869898
 51
0.0
  0
LINE
  5
5E2
100
AcDbEntity
  8
2
370
    50
100
AcDbLine
 10
-65.392097
 20
-134.593445
 30
0.0
 11
-71.992097
 21
-134.593445
 31
0.0
  0
LINE
  5
5E3
100
AcDbEntity
  8
2
370
    50
100
AcDbLine
 10
-65.392097
 20
-134.593445
 30
0.0
 11
-65.392097
 21
-136.593445
 31
0.0
  0
LINE
  5
5E4
100
AcDbEntity
  8
2
370
    50
100
AcDbLine
 10
-65.392097
 20
-136.593445
 30
0.0
 11
-71.992097
 21
-136.593445
 31
0.0
  0
ARC
  5
5E5
100
AcDbEntity
  8
2
370
    50
100
AcDbCircle
 10
-65.992097
 20
-137.393445
 30
0.0
 40
1.0
100
AcDbArc
 50
0.0
 51
53.130102
  0
LINE
  5
5E6
100
AcDbEntity
  8
2
370
    50
100
AcDbLine
 10
-64.992097
 20
-137.393445
 30
0.0
 11
-64.992097
 21
-140.793445
 31
0.0
  0
ARC
  5
5E7
100
AcDbEntity
  8
2
370
    50
100
AcDbCircle
 10
-65.992097
 20
-140.793445
 30
0.0
 40
1.0
100
AcDbArc
 50
306.869898
 51
0.0
  0
LINE
  5
5E8
100
AcDbEntity
  8
2
370
    50
100
AcDbLine
 10
-65.392097
 20
-141.593445
 30
0.0
 11
-71.992097
 21
-141.593445
 31
0.0
  0
LINE
  5
5E9
100
AcDbEntity
  8
2
370
    50
100
AcDbLine
 10
-65.392097
 20
-141.593445
 30
0.0
 11
-65.392097
 21
-143.593445
 31
0.0
  0
LINE
  5
5EA
100
AcDbEntity
  8
2
370
    50
100
AcDbLine
 10
-65.392097
 20
-143.593445
 30
0.0
 11
-71.992097
 21
-143.593445
 31
0.0
  0
ARC
  5
5EB
100
AcDbEntity
  8
2
370
    50
100
AcDbCircle
 10
-65.992097
 20
-144.393445
 30
0.0
 40
1.0
100
AcDbArc
 50
0.0
 51
53.130102
  0
LINE
  5
5EC
100
AcDbEntity
  8
2
370
    50
100
AcDbLine
 10
-78.442097
 20
-122.093445
 30
0.0
 11
-78.442097
 21
-103.582629
 31
0.0
  0
LINE
  5
5ED
100
AcDbEntity
  8
2
370
    50
100
AcDbLine
 10
-65.542097
 20
-122.093445
 30
0.0
 11
-65.542097
 21
-103.582629
 31
0.0
  0
ARC
  5
5EE
100
AcDbEntity
  8
2
370
    50
100
AcDbCircle
 10
-75.217097
 20
-99.282629
 30
0.0
 40
5.375
100
AcDbArc
 50
233.130102
 51
306.869898
  0
ARC
  5
5EF
100
AcDbEntity
  8
2
370
    50
100
AcDbCircle
 10
-68.767097
 20
-107.882629
 30
0.0
 40
5.375
100
AcDbArc
 50
53.130102
 51
126.869898
  0
ARC
  5
5F0
100
AcDbEntity
  8
2
370
    50
100
AcDbCircle
 10
-68.767097
 20
-99.282629
 30
0.0
 40
5.375
100
AcDbArc
 50
233.130102
 51
306.869898
  0
LINE
  5
5F1
100
AcDbEntity
  8
2
370
    50
100
AcDbLine
 10
-86.492097
 20
-152.89386
 30
0.0
 11
-86.492097
 21
-164.89386
 31
0.0
  0
LINE
  5
5F2
100
AcDbEntity
  8
2
370
    50
100
AcDbLine
 10
177.648505
 20
-90.218602
 30
0.0
 11
183.398505
 21
-90.218602
 31
0.0
  0
ARC
  5
5F3
100
AcDbEntity
  8
2
370
    50
100
AcDbCircle
 10
183.398505
 20
-93.531102
 30
0.0
 40
3.3125
100
AcDbArc
 50
90.0
 51
121.890792
  0
LINE
  5
5F4
100
AcDbEntity
  8
2
370
    50
100
AcDbLine
 10
181.648505
 20
-90.718602
 30
0.0
 11
181.648505
 21
-105.218602
 31
0.0
  0
ARC
  5
5F5
100
AcDbEntity
  8
2
370
    50
100
AcDbCircle
 10
183.398505
 20
-102.406102
 30
0.0
 40
3.3125
100
AcDbArc
 50
238.109208
 51
270.0
  0
LINE
  5
5F6
100
AcDbEntity
  8
2
370
    50
100
AcDbLine
 10
179.077353
 20
-105.218602
 30
0.0
 11
181.648505
 21
-105.218602
 31
0.0
  0
LINE
  5
5F7
100
AcDbEntity
  8
2
370
    50
100
AcDbLine
 10
179.077353
 20
-90.718602
 30
0.0
 11
181.648505
 21
-90.718602
 31
0.0
  0
LINE
  5
5F8
100
AcDbEntity
  8
2
370
    50
100
AcDbLine
 10
179.077353
 20
-90.718602
 30
0.0
 11
179.077353
 21
-105.218602
 31
0.0
  0
ARC
  5
5F9
100
AcDbEntity
  8
2
370
    50
100
AcDbCircle
 10
178.202353
 20
-91.234227
 30
0.0
 40
1.015625
100
AcDbArc
 50
30.510237
 51
149.489763
  0
LINE
  5
5FA
100
AcDbEntity
  8
2
370
    50
100
AcDbLine
 10
177.148505
 20
-90.718602
 30
0.0
 11
177.148505
 21
-105.218602
 31
0.0
  0
LINE
  5
5FB
100
AcDbEntity
  8
2
370
    50
100
AcDbLine
 10
177.327353
 20
-90.718602
 30
0.0
 11
177.327353
 21
-105.218602
 31
0.0
  0
LINE
  5
5FC
100
AcDbEntity
  8
2
370
    50
100
AcDbLine
 10
177.648505
 20
-90.218602
 30
0.0
 11
177.148505
 21
-90.718602
 31
0.0
  0
LINE
  5
5FD
100
AcDbEntity
  8
2
370
    50
100
AcDbLine
 10
177.148505
 20
-90.718602
 30
0.0
 11
177.327353
 21
-90.718602
 31
0.0
  0
LINE
  5
5FE
100
AcDbEntity
  8
2
370
    50
100
AcDbLine
 10
177.648505
 20
-105.718602
 30
0.0
 11
183.398505
 21
-105.718602
 31
0.0
  0
LINE
  5
5FF
100
AcDbEntity
  8
2
370
    50
100
AcDbLine
 10
177.648505
 20
-105.718602
 30
0.0
 11
177.148505
 21
-105.218602
 31
0.0
  0
LINE
  5
600
100
AcDbEntity
  8
2
370
    50
100
AcDbLine
 10
177.148505
 20
-105.218602
 30
0.0
 11
177.327353
 21
-105.218602
 31
0.0
  0
ARC
  5
601
100
AcDbEntity
  8
2
370
    50
100
AcDbCircle
 10
178.202353
 20
-104.702977
 30
0.0
 40
1.015625
100
AcDbArc
 50
210.510237
 51
329.489763
  0
LINE
  5
602
100
AcDbEntity
  8
2
370
    50
100
AcDbLine
 10
179.398505
 20
-19.718602
 30
0.0
 11
179.398505
 21
-90.218602
 31
0.0
  0
LINE
  5
603
100
AcDbEntity
  8
2
370
    50
100
AcDbLine
 10
189.148505
 20
-90.218602
 30
0.0
 11
183.398505
 21
-90.218602
 31
0.0
  0
ARC
  5
604
100
AcDbEntity
  8
2
370
    50
100
AcDbCircle
 10
183.398505
 20
-93.531102
 30
0.0
 40
3.3125
100
AcDbArc
 50
58.109208
 51
90.0
  0
LINE
  5
605
100
AcDbEntity
  8
2
370
    50
100
AcDbLine
 10
185.148505
 20
-90.718602
 30
0.0
 11
185.148505
 21
-105.218602
 31
0.0
  0
ARC
  5
606
100
AcDbEntity
  8
2
370
    50
100
AcDbCircle
 10
183.398505
 20
-102.406102
 30
0.0
 40
3.3125
100
AcDbArc
 50
270.0
 51
301.890792
  0
LINE
  5
607
100
AcDbEntity
  8
2
370
    50
100
AcDbLine
 10
187.719658
 20
-105.218602
 30
0.0
 11
185.148505
 21
-105.218602
 31
0.0
  0
LINE
  5
608
100
AcDbEntity
  8
2
370
    50
100
AcDbLine
 10
187.719658
 20
-90.718602
 30
0.0
 11
185.148505
 21
-90.718602
 31
0.0
  0
LINE
  5
609
100
AcDbEntity
  8
2
370
    50
100
AcDbLine
 10
187.719658
 20
-90.718602
 30
0.0
 11
187.719658
 21
-105.218602
 31
0.0
  0
ARC
  5
60A
100
AcDbEntity
  8
2
370
    50
100
AcDbCircle
 10
188.594658
 20
-91.234227
 30
0.0
 40
1.015625
100
AcDbArc
 50
30.510237
 51
149.489763
  0
LINE
  5
60B
100
AcDbEntity
  8
2
370
    50
100
AcDbLine
 10
189.648505
 20
-90.718602
 30
0.0
 11
189.648505
 21
-105.218602
 31
0.0
  0
LINE
  5
60C
100
AcDbEntity
  8
2
370
    50
100
AcDbLine
 10
189.469658
 20
-90.718602
 30
0.0
 11
189.469658
 21
-105.218602
 31
0.0
  0
LINE
  5
60D
100
AcDbEntity
  8
2
370
    50
100
AcDbLine
 10
189.148505
 20
-90.218602
 30
0.0
 11
189.648505
 21
-90.718602
 31
0.0
  0
LINE
  5
60E
100
AcDbEntity
  8
2
370
    50
100
AcDbLine
 10
189.648505
 20
-90.718602
 30
0.0
 11
189.469658
 21
-90.718602
 31
0.0
  0
LINE
  5
60F
100
AcDbEntity
  8
2
370
    50
100
AcDbLine
 10
189.148505
 20
-105.718602
 30
0.0
 11
183.398505
 21
-105.718602
 31
0.0
  0
LINE
  5
610
100
AcDbEntity
  8
2
370
    50
100
AcDbLine
 10
189.148505
 20
-105.718602
 30
0.0
 11
189.648505
 21
-105.218602
 31
0.0
  0
LINE
  5
611
100
AcDbEntity
  8
2
370
    50
100
AcDbLine
 10
189.648505
 20
-105.218602
 30
0.0
 11
189.469658
 21
-105.218602
 31
0.0
  0
ARC
  5
612
100
AcDbEntity
  8
2
370
    50
100
AcDbCircle
 10
188.594658
 20
-104.702977
 30
0.0
 40
1.015625
100
AcDbArc
 50
210.510237
 51
329.489763
  0
LINE
  5
613
100
AcDbEntity
  8
2
370
    50
100
AcDbLine
 10
187.398505
 20
-36.229893
 30
0.0
 11
187.398505
 21
-90.218602
 31
0.0
  0
LINE
  5
614
100
AcDbEntity
  8
2
370
    50
100
AcDbLine
 10
189.148505
 20
-105.718602
 30
0.0
 11
182.898505
 21
-105.718602
 31
0.0
  0
LINE
  5
615
100
AcDbEntity
  8
2
370
    50
100
AcDbLine
 10
177.648505
 20
-105.718602
 30
0.0
 11
183.898505
 21
-105.718602
 31
0.0
  0
LINE
  5
616
100
AcDbEntity
  8
2
370
    50
100
AcDbLine
 10
177.648505
 20
-105.718602
 30
0.0
 11
183.898505
 21
-105.718602
 31
0.0
  0
LINE
  5
617
100
AcDbEntity
  8
2
370
    25
  6
CENTER
100
AcDbLine
 10
183.398505
 20
-143.309509
 30
0.0
 11
183.398505
 21
-159.953072
 31
0.0
  0
LINE
  5
618
100
AcDbEntity
  8
2
370
    50
100
AcDbLine
 10
117.264768
 20
-137.127198
 30
0.0
 11
103.264768
 21
-137.127198
 31
0.0
  0
LINE
  5
619
100
AcDbEntity
  8
2
370
    50
100
AcDbLine
 10
103.265361
 20
-137.126515
 30
0.0
 11
117.265361
 21
-137.126515
 31
0.0
  0
LINE
  5
61A
100
AcDbEntity
  8
2
370
    50
100
AcDbLine
 10
102.765361
 20
-137.626515
 30
0.0
 11
103.265361
 21
-137.126515
 31
0.0
  0
LINE
  5
61B
100
AcDbEntity
  8
2
370
    25
100
AcDbLine
 10
103.7655
 20
-150.925893
 30
0.0
 11
103.7655
 21
-147.925893
 31
0.0
  0
LINE
  5
61C
100
AcDbEntity
  8
2
370
    50
100
AcDbLine
 10
101.365361
 20
-142.52715
 30
0.0
 11
101.365361
 21
-144.92715
 31
0.0
  0
LINE
  5
61D
100
AcDbEntity
  8
2
370
    50
100
AcDbLine
 10
101.565361
 20
-142.32715
 30
0.0
 11
101.365361
 21
-142.52715
 31
0.0
  0
LINE
  5
61E
100
AcDbEntity
  8
2
370
    50
100
AcDbLine
 10
101.565361
 20
-145.12715
 30
0.0
 11
101.365361
 21
-144.92715
 31
0.0
  0
LINE
  5
61F
100
AcDbEntity
  8
2
370
    50
100
AcDbLine
 10
102.765361
 20
-142.32715
 30
0.0
 11
102.765361
 21
-141.925893
 31
0.0
  0
LINE
  5
620
100
AcDbEntity
  8
2
370
    50
100
AcDbLine
 10
102.765361
 20
-137.626515
 30
0.0
 11
102.765361
 21
-138.925893
 31
0.0
  0
LINE
  5
621
100
AcDbEntity
  8
2
370
    50
100
AcDbLine
 10
119.165361
 20
-142.526515
 30
0.0
 11
119.165361
 21
-144.926515
 31
0.0
  0
LINE
  5
622
100
AcDbEntity
  8
2
370
    50
100
AcDbLine
 10
101.365361
 20
-142.526515
 30
0.0
 11
101.365361
 21
-144.926515
 31
0.0
  0
LINE
  5
623
100
AcDbEntity
  8
2
370
    50
100
AcDbLine
 10
101.565361
 20
-142.326515
 30
0.0
 11
101.365361
 21
-142.526515
 31
0.0
  0
LINE
  5
624
100
AcDbEntity
  8
2
370
    50
100
AcDbLine
 10
118.965361
 20
-142.326515
 30
0.0
 11
119.165361
 21
-142.526515
 31
0.0
  0
LINE
  5
625
100
AcDbEntity
  8
2
370
    50
100
AcDbLine
 10
118.965361
 20
-145.126515
 30
0.0
 11
119.165361
 21
-144.926515
 31
0.0
  0
LINE
  5
626
100
AcDbEntity
  8
2
370
    50
100
AcDbLine
 10
119.265361
 20
-150.926515
 30
0.0
 11
101.265361
 21
-150.926515
 31
0.0
  0
LINE
  5
627
100
AcDbEntity
  8
2
370
    50
100
AcDbLine
 10
118.565361
 20
-138.926515
 30
0.0
 11
101.965361
 21
-138.926515
 31
0.0
  0
LINE
  5
628
100
AcDbEntity
  8
2
370
    50
100
AcDbLine
 10
106.265361
 20
-139.926515
 30
0.0
 11
106.265361
 21
-149.926515
 31
0.0
  0
LINE
  5
629
100
AcDbEntity
  8
2
370
    50
100
AcDbLine
 10
114.265361
 20
-139.926515
 30
0.0
 11
114.265361
 21
-149.926515
 31
0.0
  0
LINE
  5
62A
100
AcDbEntity
  8
2
370
    50
100
AcDbLine
 10
95.765361
 20
-137.926515
 30
0.0
 11
95.765361
 21
-149.926515
 31
0.0
  0
LINE
  5
62B
100
AcDbEntity
  8
2
370
    50
100
AcDbLine
 10
124.765361
 20
-137.926515
 30
0.0
 11
124.765361
 21
-149.926515
 31
0.0
  0
ARC
  5
62C
100
AcDbEntity
  8
2
370
    50
100
AcDbCircle
 10
123.765361
 20
-137.926515
 30
0.0
 40
1.0
100
AcDbArc
 50
0.0
 51
90.0
  0
ARC
  5
62D
100
AcDbEntity
  8
2
370
    50
100
AcDbCircle
 10
96.765361
 20
-137.926515
 30
0.0
 40
1.0
100
AcDbArc
 50
90.0
 51
180.0
  0
ARC
  5
62E
100
AcDbEntity
  8
2
370
    50
100
AcDbCircle
 10
96.765361
 20
-149.926515
 30
0.0
 40
1.0
100
AcDbArc
 50
180.0
 51
270.0
  0
ARC
  5
62F
100
AcDbEntity
  8
2
370
    50
100
AcDbCircle
 10
123.765361
 20
-149.926515
 30
0.0
 40
1.0
100
AcDbArc
 50
270.0
 51
360.0
  0
LINE
  5
630
100
AcDbEntity
  8
2
370
    50
100
AcDbLine
 10
96.765361
 20
-136.926515
 30
0.0
 11
104.014768
 21
-136.926515
 31
0.0
  0
LINE
  5
631
100
AcDbEntity
  8
2
370
    50
100
AcDbLine
 10
116.514768
 20
-136.926515
 30
0.0
 11
123.765361
 21
-136.926515
 31
0.0
  0
LINE
  5
632
100
AcDbEntity
  8
2
370
    50
100
AcDbLine
 10
96.765361
 20
-150.926515
 30
0.0
 11
102.765361
 21
-150.926515
 31
0.0
  0
LINE
  5
633
100
AcDbEntity
  8
2
370
    50
100
AcDbLine
 10
118.565361
 20
-150.926515
 30
0.0
 11
123.765361
 21
-150.926515
 31
0.0
  0
LINE
  5
634
100
AcDbEntity
  8
2
370
    50
100
AcDbLine
 10
118.565361
 20
-141.926515
 30
0.0
 11
114.265361
 21
-141.926515
 31
0.0
  0
LINE
  5
635
100
AcDbEntity
  8
2
370
    50
100
AcDbLine
 10
106.265361
 20
-141.926515
 30
0.0
 11
101.965361
 21
-141.926515
 31
0.0
  0
LINE
  5
636
100
AcDbEntity
  8
2
370
    50
100
AcDbLine
 10
118.965361
 20
-142.326515
 30
0.0
 11
114.265361
 21
-142.326515
 31
0.0
  0
LINE
  5
637
100
AcDbEntity
  8
2
370
    50
100
AcDbLine
 10
106.265361
 20
-142.326515
 30
0.0
 11
101.565361
 21
-142.326515
 31
0.0
  0
LINE
  5
638
100
AcDbEntity
  8
2
370
    50
100
AcDbLine
 10
119.165361
 20
-142.526515
 30
0.0
 11
114.265361
 21
-142.526515
 31
0.0
  0
LINE
  5
639
100
AcDbEntity
  8
2
370
    50
100
AcDbLine
 10
106.265361
 20
-142.526515
 30
0.0
 11
101.365361
 21
-142.526515
 31
0.0
  0
LINE
  5
63A
100
AcDbEntity
  8
2
370
    50
100
AcDbLine
 10
119.165361
 20
-144.926515
 30
0.0
 11
114.265361
 21
-144.926515
 31
0.0
  0
LINE
  5
63B
100
AcDbEntity
  8
2
370
    50
100
AcDbLine
 10
106.265361
 20
-144.926515
 30
0.0
 11
101.365361
 21
-144.926515
 31
0.0
  0
LINE
  5
63C
100
AcDbEntity
  8
2
370
    50
100
AcDbLine
 10
118.565361
 20
-147.926515
 30
0.0
 11
114.265361
 21
-147.926515
 31
0.0
  0
LINE
  5
63D
100
AcDbEntity
  8
2
370
    50
100
AcDbLine
 10
106.265361
 20
-147.926515
 30
0.0
 11
101.965361
 21
-147.926515
 31
0.0
  0
ARC
  5
63E
100
AcDbEntity
  8
2
370
    50
100
AcDbCircle
 10
113.265361
 20
-139.926515
 30
0.0
 40
1.0
100
AcDbArc
 50
0.0
 51
90.0
  0
ARC
  5
63F
100
AcDbEntity
  8
2
370
    50
100
AcDbCircle
 10
107.265361
 20
-139.926515
 30
0.0
 40
1.0
100
AcDbArc
 50
90.0
 51
180.0
  0
ARC
  5
640
100
AcDbEntity
  8
2
370
    50
100
AcDbCircle
 10
107.265361
 20
-149.926515
 30
0.0
 40
1.0
100
AcDbArc
 50
180.0
 51
270.0
  0
ARC
  5
641
100
AcDbEntity
  8
2
370
    50
100
AcDbCircle
 10
113.265361
 20
-149.926515
 30
0.0
 40
1.0
100
AcDbArc
 50
270.0
 51
0.0
  0
LINE
  5
642
100
AcDbEntity
  8
2
370
    50
100
AcDbLine
 10
101.965361
 20
-138.926515
 30
0.0
 11
101.965361
 21
-141.926515
 31
0.0
  0
LINE
  5
643
100
AcDbEntity
  8
2
370
    50
100
AcDbLine
 10
118.565361
 20
-138.926515
 30
0.0
 11
118.565361
 21
-141.926515
 31
0.0
  0
LINE
  5
644
100
AcDbEntity
  8
2
370
    50
100
AcDbLine
 10
118.565361
 20
-147.926515
 30
0.0
 11
118.565361
 21
-150.926515
 31
0.0
  0
LINE
  5
645
100
AcDbEntity
  8
2
370
    50
100
AcDbLine
 10
101.965361
 20
-147.926515
 30
0.0
 11
101.965361
 21
-150.926515
 31
0.0
  0
LINE
  5
646
100
AcDbEntity
  8
2
370
    50
100
AcDbLine
 10
102.765361
 20
-142.326515
 30
0.0
 11
102.765361
 21
-141.926515
 31
0.0
  0
LINE
  5
647
100
AcDbEntity
  8
2
370
    50
100
AcDbLine
 10
117.765361
 20
-142.326515
 30
0.0
 11
117.765361
 21
-141.926515
 31
0.0
  0
LINE
  5
648
100
AcDbEntity
  8
2
370
    25
100
AcDbLine
 10
105.265361
 20
-150.627098
 30
0.0
 11
105.265361
 21
-148.321877
 31
0.0
  0
LINE
  5
649
100
AcDbEntity
  8
2
370
    25
100
AcDbLine
 10
105.26536
 20
-141.665329
 30
0.0
 11
105.265361
 21
-139.233124
 31
0.0
  0
LINE
  5
64A
100
AcDbEntity
  8
2
370
    25
100
AcDbLine
 10
115.265361
 20
-150.627098
 30
0.0
 11
115.265361
 21
-148.321877
 31
0.0
  0
LINE
  5
64B
100
AcDbEntity
  8
2
370
    25
100
AcDbLine
 10
115.265361
 20
-141.62265
 30
0.0
 11
115.265361
 21
-139.153603
 31
0.0
  0
LINE
  5
64C
100
AcDbEntity
  8
2
370
    50
100
AcDbLine
 10
101.465361
 20
-149.926515
 30
0.0
 11
101.465361
 21
-147.326515
 31
0.0
  0
LINE
  5
64D
100
AcDbEntity
  8
2
370
    50
100
AcDbLine
 10
101.465361
 20
-142.426515
 30
0.0
 11
101.465361
 21
-137.926515
 31
0.0
  0
LINE
  5
64E
100
AcDbEntity
  8
2
370
    50
100
AcDbLine
 10
119.065361
 20
-149.926515
 30
0.0
 11
119.065361
 21
-147.326515
 31
0.0
  0
LINE
  5
64F
100
AcDbEntity
  8
2
370
    50
100
AcDbLine
 10
119.065361
 20
-142.426515
 30
0.0
 11
119.065361
 21
-137.926515
 31
0.0
  0
ARC
  5
650
100
AcDbEntity
  8
2
370
    50
100
AcDbCircle
 10
102.465361
 20
-137.926515
 30
0.0
 40
1.0
100
AcDbArc
 50
90.0
 51
180.0
  0
ARC
  5
651
100
AcDbEntity
  8
2
370
    50
100
AcDbCircle
 10
118.065361
 20
-137.926515
 30
0.0
 40
1.0
100
AcDbArc
 50
0.0
 51
90.0
  0
ARC
  5
652
100
AcDbEntity
  8
2
370
    50
100
AcDbCircle
 10
100.465361
 20
-149.926515
 30
0.0
 40
1.0
100
AcDbArc
 50
270.0
 51
0.0
  0
ARC
  5
653
100
AcDbEntity
  8
2
370
    50
100
AcDbCircle
 10
120.065361
 20
-149.926515
 30
0.0
 40
1.0
100
AcDbArc
 50
180.0
 51
270.0
  0
LINE
  5
654
100
AcDbEntity
  8
2
370
    50
100
AcDbLine
 10
117.765361
 20
-137.626515
 30
0.0
 11
117.765361
 21
-138.925893
 31
0.0
  0
ARC
  5
655
100
AcDbEntity
  8
2
370
    50
100
AcDbCircle
 10
118.065361
 20
-137.926515
 30
0.0
 40
1.0
100
AcDbArc
 50
0.0
 51
90.0
  0
LINE
  5
656
100
AcDbEntity
  8
2
370
    50
100
AcDbLine
 10
117.765361
 20
-137.626515
 30
0.0
 11
117.265361
 21
-137.126515
 31
0.0
  0
LINE
  5
657
100
AcDbEntity
  8
2
370
    50
100
AcDbLine
 10
119.265361
 20
-145.326515
 30
0.0
 11
119.265361
 21
-147.126515
 31
0.0
  0
LINE
  5
658
100
AcDbEntity
  8
2
370
    50
100
AcDbLine
 10
101.265361
 20
-145.326515
 30
0.0
 11
101.265361
 21
-147.126515
 31
0.0
  0
LINE
  5
659
100
AcDbEntity
  8
2
370
    50
100
AcDbLine
 10
101.265361
 20
-151.326515
 30
0.0
 11
100.265361
 21
-152.326515
 31
0.0
  0
LINE
  5
65A
100
AcDbEntity
  8
2
370
    50
100
AcDbLine
 10
119.265361
 20
-151.326515
 30
0.0
 11
120.265361
 21
-152.326515
 31
0.0
  0
LINE
  5
65B
100
AcDbEntity
  8
2
370
    50
100
AcDbLine
 10
119.265361
 20
-151.326515
 30
0.0
 11
101.265361
 21
-151.326515
 31
0.0
  0
LINE
  5
65C
100
AcDbEntity
  8
2
370
    50
100
AcDbLine
 10
119.065361
 20
-145.126515
 30
0.0
 11
119.265361
 21
-145.326515
 31
0.0
  0
LINE
  5
65D
100
AcDbEntity
  8
2
370
    50
100
AcDbLine
 10
119.265361
 20
-147.126515
 30
0.0
 11
119.065361
 21
-147.326515
 31
0.0
  0
LINE
  5
65E
100
AcDbEntity
  8
2
370
    50
100
AcDbLine
 10
101.465361
 20
-145.126515
 30
0.0
 11
101.265361
 21
-145.326515
 31
0.0
  0
LINE
  5
65F
100
AcDbEntity
  8
2
370
    50
100
AcDbLine
 10
101.265361
 20
-147.126515
 30
0.0
 11
101.465361
 21
-147.326515
 31
0.0
  0
LINE
  5
660
100
AcDbEntity
  8
2
370
    25
100
AcDbLine
 10
100.265361
 20
-152.326515
 30
0.0
 11
120.265361
 21
-152.326515
 31
0.0
  0
LINE
  5
661
100
AcDbEntity
  8
2
370
    50
100
AcDbLine
 10
102.765361
 20
-151.326515
 30
0.0
 11
102.765361
 21
-150.926515
 31
0.0
  0
LINE
  5
662
100
AcDbEntity
  8
2
370
    50
100
AcDbLine
 10
102.765361
 20
-147.926515
 30
0.0
 11
102.765361
 21
-147.326515
 31
0.0
  0
LINE
  5
663
100
AcDbEntity
  8
2
370
    50
100
AcDbLine
 10
117.765361
 20
-151.326515
 30
0.0
 11
117.765361
 21
-150.926515
 31
0.0
  0
LINE
  5
664
100
AcDbEntity
  8
2
370
    50
100
AcDbLine
 10
117.765361
 20
-147.926515
 30
0.0
 11
117.765361
 21
-147.326515
 31
0.0
  0
LINE
  5
665
100
AcDbEntity
  8
2
370
    50
100
AcDbLine
 10
119.065361
 20
-147.326515
 30
0.0
 11
114.265361
 21
-147.326515
 31
0.0
  0
LINE
  5
666
100
AcDbEntity
  8
2
370
    50
100
AcDbLine
 10
106.265361
 20
-147.326515
 30
0.0
 11
101.465361
 21
-147.326515
 31
0.0
  0
LINE
  5
667
100
AcDbEntity
  8
2
370
    50
100
AcDbLine
 10
119.265361
 20
-147.126515
 30
0.0
 11
114.265361
 21
-147.126515
 31
0.0
  0
LINE
  5
668
100
AcDbEntity
  8
2
370
    50
100
AcDbLine
 10
106.265361
 20
-147.126515
 30
0.0
 11
101.265361
 21
-147.126515
 31
0.0
  0
LINE
  5
669
100
AcDbEntity
  8
2
370
    50
100
AcDbLine
 10
119.265361
 20
-145.326515
 30
0.0
 11
114.265361
 21
-145.326515
 31
0.0
  0
LINE
  5
66A
100
AcDbEntity
  8
2
370
    50
100
AcDbLine
 10
106.265361
 20
-145.326515
 30
0.0
 11
101.265361
 21
-145.326515
 31
0.0
  0
LINE
  5
66B
100
AcDbEntity
  8
2
370
    50
100
AcDbLine
 10
119.065361
 20
-145.126515
 30
0.0
 11
114.265361
 21
-145.126515
 31
0.0
  0
LINE
  5
66C
100
AcDbEntity
  8
2
370
    50
100
AcDbLine
 10
106.265361
 20
-145.126515
 30
0.0
 11
101.465361
 21
-145.126515
 31
0.0
  0
LINE
  5
66D
100
AcDbEntity
  8
2
370
    25
100
AcDbLine
 10
116.765221
 20
-150.925893
 30
0.0
 11
116.765221
 21
-147.925893
 31
0.0
  0
LINE
  5
66E
100
AcDbEntity
  8
2
370
    25
100
AcDbLine
 10
103.7655
 20
-141.926515
 30
0.0
 11
103.7655
 21
-138.926515
 31
0.0
  0
LINE
  5
66F
100
AcDbEntity
  8
2
370
    25
100
AcDbLine
 10
116.765221
 20
-141.926515
 30
0.0
 11
116.765221
 21
-138.926515
 31
0.0
  0
LINE
  5
670
100
AcDbEntity
  8
2
370
    50
100
AcDbLine
 10
120.265361
 20
-152.326515
 30
0.0
 11
120.265361
 21
-161.126515
 31
0.0
  0
LINE
  5
671
100
AcDbEntity
  8
2
370
    50
100
AcDbLine
 10
100.265361
 20
-152.326515
 30
0.0
 11
100.265361
 21
-161.126515
 31
0.0
  0
LINE
  5
672
100
AcDbEntity
  8
2
370
    50
100
AcDbLine
 10
122.265361
 20
-161.126515
 30
0.0
 11
98.265361
 21
-161.126515
 31
0.0
  0
LINE
  5
673
100
AcDbEntity
  8
2
370
    50
100
AcDbLine
 10
123.265361
 20
-162.126515
 30
0.0
 11
123.265361
 21
-171.126515
 31
0.0
  0
LINE
  5
674
100
AcDbEntity
  8
2
370
    50
100
AcDbLine
 10
122.265361
 20
-161.126515
 30
0.0
 11
123.265361
 21
-162.126515
 31
0.0
  0
LINE
  5
675
100
AcDbEntity
  8
2
370
    50
100
AcDbLine
 10
97.265361
 20
-162.126515
 30
0.0
 11
97.265361
 21
-171.126515
 31
0.0
  0
LINE
  5
676
100
AcDbEntity
  8
2
370
    50
100
AcDbLine
 10
98.265361
 20
-161.126515
 30
0.0
 11
97.265361
 21
-162.126515
 31
0.0
  0
LINE
  5
677
100
AcDbEntity
  8
2
370
    50
100
AcDbLine
 10
103.33697
 20
-171.126515
 30
0.0
 11
103.33697
 21
-162.126515
 31
0.0
  0
LINE
  5
678
100
AcDbEntity
  8
2
370
    50
100
AcDbLine
 10
117.193751
 20
-171.126515
 30
0.0
 11
117.193751
 21
-162.126515
 31
0.0
  0
ARC
  5
679
100
AcDbEntity
  8
2
370
    50
100
AcDbCircle
 10
110.265361
 20
-185.627812
 30
0.0
 40
24.501296
100
AcDbArc
 50
73.574016
 51
106.425984
  0
ARC
  5
67A
100
AcDbEntity
  8
2
370
    50
100
AcDbCircle
 10
120.229556
 20
-166.234571
 30
0.0
 40
5.108056
100
AcDbArc
 50
53.536034
 51
126.463966
  0
ARC
  5
67B
100
AcDbEntity
  8
2
370
    50
100
AcDbCircle
 10
100.301166
 20
-166.234571
 30
0.0
 40
5.108056
100
AcDbArc
 50
53.536034
 51
126.463966
  0
LINE
  5
67C
100
AcDbEntity
  8
2
370
    50
100
AcDbLine
 10
123.265361
 20
-162.126515
 30
0.0
 11
123.265361
 21
-170.126515
 31
0.0
  0
LINE
  5
67D
100
AcDbEntity
  8
2
370
    50
100
AcDbLine
 10
122.265361
 20
-172.126515
 30
0.0
 11
123.265361
 21
-171.126515
 31
0.0
  0
LINE
  5
67E
100
AcDbEntity
  8
2
370
    50
100
AcDbLine
 10
97.265361
 20
-162.126515
 30
0.0
 11
97.265361
 21
-170.126515
 31
0.0
  0
LINE
  5
67F
100
AcDbEntity
  8
2
370
    50
100
AcDbLine
 10
98.265361
 20
-172.126515
 30
0.0
 11
97.265361
 21
-171.126515
 31
0.0
  0
LINE
  5
680
100
AcDbEntity
  8
2
370
    50
100
AcDbLine
 10
122.265361
 20
-172.126515
 30
0.0
 11
98.265361
 21
-172.126515
 31
0.0
  0
LINE
  5
681
100
AcDbEntity
  8
2
370
    50
100
AcDbLine
 10
103.33697
 20
-170.126515
 30
0.0
 11
103.33697
 21
-162.126515
 31
0.0
  0
LINE
  5
682
100
AcDbEntity
  8
2
370
    50
100
AcDbLine
 10
117.193751
 20
-170.126515
 30
0.0
 11
117.193751
 21
-162.126515
 31
0.0
  0
ARC
  5
683
100
AcDbEntity
  8
2
370
    50
100
AcDbCircle
 10
110.265361
 20
-147.625219
 30
0.0
 40
24.501296
100
AcDbArc
 50
253.574016
 51
286.425984
  0
ARC
  5
684
100
AcDbEntity
  8
2
370
    50
100
AcDbCircle
 10
100.301166
 20
-167.01846
 30
0.0
 40
5.108056
100
AcDbArc
 50
233.536034
 51
306.463966
  0
ARC
  5
685
100
AcDbEntity
  8
2
370
    50
100
AcDbCircle
 10
120.229556
 20
-167.01846
 30
0.0
 40
5.108056
100
AcDbArc
 50
233.536034
 51
306.463966
  0
POINT
  5
686
100
AcDbEntity
  8
2
370
    50
100
AcDbPoint
 10
183.398505
 20
-105.718602
 30
0.0
  0
LINE
  5
687
100
AcDbEntity
  8
2
370
    25
  6
CENTER
100
AcDbLine
 10
110.264768
 20
-173.690094
 30
0.0
 11
110.264768
 21
-71.494942
 31
0.0
  0
LINE
  5
688
100
AcDbEntity
  8
2
370
    25
  6
CENTER
100
AcDbLine
 10
110.264768
 20
-71.494942
 30
0.0
 11
183.398505
 21
-159.953072
 31
0.0
  0
LINE
  5
689
100
AcDbEntity
  8
2
370
    50
100
AcDbLine
 10
177.398505
 20
-111.329927
 30
0.0
 11
177.398505
 21
-106.007277
 31
0.0
  0
LINE
  5
68A
100
AcDbEntity
  8
2
370
    50
100
AcDbLine
 10
189.398505
 20
-111.329927
 30
0.0
 11
189.398505
 21
-106.007277
 31
0.0
  0
LINE
  5
68B
100
AcDbEntity
  8
2
370
    50
100
AcDbLine
 10
185.796421
 20
-106.007277
 30
0.0
 11
185.796421
 21
-111.329927
 31
0.0
  0
LINE
  5
68C
100
AcDbEntity
  8
2
370
    50
100
AcDbLine
 10
186.962687
 20
-106.007277
 30
0.0
 11
186.962687
 21
-111.329927
 31
0.0
  0
LINE
  5
68D
100
AcDbEntity
  8
2
370
    50
100
AcDbLine
 10
189.360603
 20
-106.007277
 30
0.0
 11
189.360603
 21
-111.329927
 31
0.0
  0
LINE
  5
68E
100
AcDbEntity
  8
2
370
    50
100
AcDbLine
 10
188.898505
 20
-111.618602
 30
0.0
 11
189.398505
 21
-111.329927
 31
0.0
  0
LINE
  5
68F
100
AcDbEntity
  8
2
370
    50
100
AcDbLine
 10
186.962687
 20
-111.329927
 30
0.0
 11
185.796421
 21
-111.329927
 31
0.0
  0
LINE
  5
690
100
AcDbEntity
  8
2
370
    50
100
AcDbLine
 10
177.398505
 20
-111.329927
 30
0.0
 11
177.898505
 21
-111.618602
 31
0.0
  0
LINE
  5
691
100
AcDbEntity
  8
2
370
    50
100
AcDbLine
 10
177.398505
 20
-106.007277
 30
0.0
 11
177.898505
 21
-105.718602
 31
0.0
  0
ARC
  5
692
100
AcDbEntity
  8
2
370
    50
100
AcDbCircle
 10
183.398505
 20
-101.514972
 30
0.0
 40
10.10363
100
AcDbArc
 50
270.0
 51
283.729133
  0
ARC
  5
693
100
AcDbEntity
  8
2
370
    50
100
AcDbCircle
 10
183.398505
 20
-115.822232
 30
0.0
 40
10.10363
100
AcDbArc
 50
76.270867
 51
90.0
  0
LINE
  5
694
100
AcDbEntity
  8
2
370
    50
100
AcDbLine
 10
186.962687
 20
-106.007277
 30
0.0
 11
185.796421
 21
-106.007277
 31
0.0
  0
LINE
  5
695
100
AcDbEntity
  8
2
370
    50
100
AcDbLine
 10
189.398505
 20
-111.329927
 30
0.0
 11
189.360603
 21
-111.329927
 31
0.0
  0
ARC
  5
696
100
AcDbEntity
  8
2
370
    50
100
AcDbCircle
 10
188.161645
 20
-108.984442
 30
0.0
 40
2.634161
100
AcDbArc
 50
242.924933
 51
297.075067
  0
ARC
  5
697
100
AcDbEntity
  8
2
370
    50
100
AcDbCircle
 10
188.161645
 20
-108.352763
 30
0.0
 40
2.634161
100
AcDbArc
 50
62.924933
 51
117.075067
  0
LINE
  5
698
100
AcDbEntity
  8
2
370
    50
100
AcDbLine
 10
188.898505
 20
-105.718602
 30
0.0
 11
189.398505
 21
-106.007277
 31
0.0
  0
ARC
  5
699
100
AcDbEntity
  8
2
370
    50
100
AcDbCircle
 10
183.398505
 20
-101.514972
 30
0.0
 40
10.10363
100
AcDbArc
 50
256.270867
 51
270.0
  0
LINE
  5
69A
100
AcDbEntity
  8
2
370
    50
100
AcDbLine
 10
179.834323
 20
-111.329927
 30
0.0
 11
181.000589
 21
-111.329927
 31
0.0
  0
ARC
  5
69B
100
AcDbEntity
  8
2
370
    50
100
AcDbCircle
 10
178.635365
 20
-108.984442
 30
0.0
 40
2.634161
100
AcDbArc
 50
242.924933
 51
297.075067
  0
LINE
  5
69C
100
AcDbEntity
  8
2
370
    50
100
AcDbLine
 10
177.436408
 20
-111.329927
 30
0.0
 11
177.398505
 21
-111.329927
 31
0.0
  0
LINE
  5
69D
100
AcDbEntity
  8
2
370
    50
100
AcDbLine
 10
177.898505
 20
-111.618602
 30
0.0
 11
188.898505
 21
-111.618602
 31
0.0
  0
LINE
  5
69E
100
AcDbEntity
  8
2
370
    50
100
AcDbLine
 10
176.798505
 20
-140.618602
 30
0.0
 11
183.398505
 21
-140.618602
 31
0.0
  0
LINE
  5
69F
100
AcDbEntity
  8
2
370
    50
100
AcDbLine
 10
176.798505
 20
-135.118602
 30
0.0
 11
183.398505
 21
-135.118602
 31
0.0
  0
LINE
  5
6A0
100
AcDbEntity
  8
2
370
    50
100
AcDbLine
 10
176.798505
 20
-133.118602
 30
0.0
 11
183.398505
 21
-133.118602
 31
0.0
  0
LINE
  5
6A1
100
AcDbEntity
  8
2
370
    50
100
AcDbLine
 10
176.798505
 20
-128.118602
 30
0.0
 11
183.398505
 21
-128.118602
 31
0.0
  0
LINE
  5
6A2
100
AcDbEntity
  8
2
370
    50
100
AcDbLine
 10
176.798505
 20
-126.118602
 30
0.0
 11
183.398505
 21
-126.118602
 31
0.0
  0
LINE
  5
6A3
100
AcDbEntity
  8
2
370
    50
100
AcDbLine
 10
176.798505
 20
-121.118602
 30
0.0
 11
183.398505
 21
-121.118602
 31
0.0
  0
LINE
  5
6A4
100
AcDbEntity
  8
2
370
    50
100
AcDbLine
 10
176.798505
 20
-119.118602
 30
0.0
 11
183.398505
 21
-119.118602
 31
0.0
  0
LINE
  5
6A5
100
AcDbEntity
  8
2
370
    50
100
AcDbLine
 10
176.398505
 20
-139.818602
 30
0.0
 11
176.398505
 21
-135.918602
 31
0.0
  0
LINE
  5
6A6
100
AcDbEntity
  8
2
370
    50
100
AcDbLine
 10
176.398505
 20
-132.318602
 30
0.0
 11
176.398505
 21
-128.918602
 31
0.0
  0
LINE
  5
6A7
100
AcDbEntity
  8
2
370
    50
100
AcDbLine
 10
176.398505
 20
-125.318602
 30
0.0
 11
176.398505
 21
-121.918602
 31
0.0
  0
LINE
  5
6A8
100
AcDbEntity
  8
2
370
    50
100
AcDbLine
 10
176.398505
 20
-118.318602
 30
0.0
 11
176.398505
 21
-112.418602
 31
0.0
  0
LINE
  5
6A9
100
AcDbEntity
  8
2
370
    50
100
AcDbLine
 10
176.798505
 20
-121.118602
 30
0.0
 11
176.798505
 21
-119.118602
 31
0.0
  0
LINE
  5
6AA
100
AcDbEntity
  8
2
370
    50
100
AcDbLine
 10
176.798505
 20
-135.118602
 30
0.0
 11
176.798505
 21
-133.118602
 31
0.0
  0
LINE
  5
6AB
100
AcDbEntity
  8
2
370
    50
100
AcDbLine
 10
176.798505
 20
-128.118602
 30
0.0
 11
176.798505
 21
-126.118602
 31
0.0
  0
ARC
  5
6AC
100
AcDbEntity
  8
2
370
    50
100
AcDbCircle
 10
177.398505
 20
-118.318602
 30
0.0
 40
1.0
100
AcDbArc
 50
180.0
 51
233.130102
  0
ARC
  5
6AD
100
AcDbEntity
  8
2
370
    50
100
AcDbCircle
 10
177.398505
 20
-121.918602
 30
0.0
 40
1.0
100
AcDbArc
 50
126.869898
 51
180.0
  0
ARC
  5
6AE
100
AcDbEntity
  8
2
370
    50
100
AcDbCircle
 10
177.398505
 20
-125.318602
 30
0.0
 40
1.0
100
AcDbArc
 50
180.0
 51
233.130102
  0
ARC
  5
6AF
100
AcDbEntity
  8
2
370
    50
100
AcDbCircle
 10
177.398505
 20
-128.918602
 30
0.0
 40
1.0
100
AcDbArc
 50
126.869898
 51
180.0
  0
ARC
  5
6B0
100
AcDbEntity
  8
2
370
    50
100
AcDbCircle
 10
177.398505
 20
-132.318602
 30
0.0
 40
1.0
100
AcDbArc
 50
180.0
 51
233.130102
  0
ARC
  5
6B1
100
AcDbEntity
  8
2
370
    50
100
AcDbCircle
 10
177.398505
 20
-135.918602
 30
0.0
 40
1.0
100
AcDbArc
 50
126.869898
 51
180.0
  0
ARC
  5
6B2
100
AcDbEntity
  8
2
370
    50
100
AcDbCircle
 10
177.398505
 20
-139.818602
 30
0.0
 40
1.0
100
AcDbArc
 50
180.0
 51
233.130102
  0
LINE
  5
6B3
100
AcDbEntity
  8
2
370
    50
100
AcDbLine
 10
189.998505
 20
-140.618602
 30
0.0
 11
183.398505
 21
-140.618602
 31
0.0
  0
ARC
  5
6B4
100
AcDbEntity
  8
2
370
    50
100
AcDbCircle
 10
189.398505
 20
-139.818602
 30
0.0
 40
1.0
100
AcDbArc
 50
306.869898
 51
360.0
  0
LINE
  5
6B5
100
AcDbEntity
  8
2
370
    50
100
AcDbLine
 10
190.398505
 20
-139.818602
 30
0.0
 11
190.398505
 21
-135.918602
 31
0.0
  0
ARC
  5
6B6
100
AcDbEntity
  8
2
370
    50
100
AcDbCircle
 10
189.398505
 20
-135.918602
 30
0.0
 40
1.0
100
AcDbArc
 50
360.0
 51
53.130102
  0
LINE
  5
6B7
100
AcDbEntity
  8
2
370
    50
100
AcDbLine
 10
189.998505
 20
-135.118602
 30
0.0
 11
189.998505
 21
-133.118602
 31
0.0
  0
LINE
  5
6B8
100
AcDbEntity
  8
2
370
    50
100
AcDbLine
 10
189.998505
 20
-135.118602
 30
0.0
 11
183.398505
 21
-135.118602
 31
0.0
  0
LINE
  5
6B9
100
AcDbEntity
  8
2
370
    50
100
AcDbLine
 10
189.998505
 20
-133.118602
 30
0.0
 11
183.398505
 21
-133.118602
 31
0.0
  0
ARC
  5
6BA
100
AcDbEntity
  8
2
370
    50
100
AcDbCircle
 10
189.398505
 20
-132.318602
 30
0.0
 40
1.0
100
AcDbArc
 50
306.869898
 51
360.0
  0
LINE
  5
6BB
100
AcDbEntity
  8
2
370
    50
100
AcDbLine
 10
190.398505
 20
-132.318602
 30
0.0
 11
190.398505
 21
-128.918602
 31
0.0
  0
ARC
  5
6BC
100
AcDbEntity
  8
2
370
    50
100
AcDbCircle
 10
189.398505
 20
-128.918602
 30
0.0
 40
1.0
100
AcDbArc
 50
360.0
 51
53.130102
  0
LINE
  5
6BD
100
AcDbEntity
  8
2
370
    50
100
AcDbLine
 10
189.998505
 20
-128.118602
 30
0.0
 11
183.398505
 21
-128.118602
 31
0.0
  0
LINE
  5
6BE
100
AcDbEntity
  8
2
370
    50
100
AcDbLine
 10
189.998505
 20
-128.118602
 30
0.0
 11
189.998505
 21
-126.118602
 31
0.0
  0
LINE
  5
6BF
100
AcDbEntity
  8
2
370
    50
100
AcDbLine
 10
189.998505
 20
-126.118602
 30
0.0
 11
183.398505
 21
-126.118602
 31
0.0
  0
ARC
  5
6C0
100
AcDbEntity
  8
2
370
    50
100
AcDbCircle
 10
189.398505
 20
-125.318602
 30
0.0
 40
1.0
100
AcDbArc
 50
306.869898
 51
360.0
  0
LINE
  5
6C1
100
AcDbEntity
  8
2
370
    50
100
AcDbLine
 10
190.398505
 20
-125.318602
 30
0.0
 11
190.398505
 21
-121.918602
 31
0.0
  0
ARC
  5
6C2
100
AcDbEntity
  8
2
370
    50
100
AcDbCircle
 10
189.398505
 20
-121.918602
 30
0.0
 40
1.0
100
AcDbArc
 50
360.0
 51
53.130102
  0
LINE
  5
6C3
100
AcDbEntity
  8
2
370
    50
100
AcDbLine
 10
189.998505
 20
-121.118602
 30
0.0
 11
183.398505
 21
-121.118602
 31
0.0
  0
LINE
  5
6C4
100
AcDbEntity
  8
2
370
    50
100
AcDbLine
 10
189.998505
 20
-121.118602
 30
0.0
 11
189.998505
 21
-119.118602
 31
0.0
  0
LINE
  5
6C5
100
AcDbEntity
  8
2
370
    50
100
AcDbLine
 10
189.998505
 20
-119.118602
 30
0.0
 11
183.398505
 21
-119.118602
 31
0.0
  0
ARC
  5
6C6
100
AcDbEntity
  8
2
370
    50
100
AcDbCircle
 10
189.398505
 20
-118.318602
 30
0.0
 40
1.0
100
AcDbArc
 50
306.869898
 51
360.0
  0
LINE
  5
6C7
100
AcDbEntity
  8
2
370
    50
100
AcDbLine
 10
190.398505
 20
-118.318602
 30
0.0
 11
190.398505
 21
-112.418602
 31
0.0
  0
ARC
  5
6C8
100
AcDbEntity
  8
2
370
    50
100
AcDbCircle
 10
189.398505
 20
-112.418602
 30
0.0
 40
1.0
100
AcDbArc
 50
360.0
 51
53.130102
  0
LINE
  5
6C9
100
AcDbEntity
  8
2
370
    50
100
AcDbLine
 10
176.798505
 20
-111.618602
 30
0.0
 11
189.998505
 21
-111.618602
 31
0.0
  0
ARC
  5
6CA
100
AcDbEntity
  8
2
370
    50
100
AcDbCircle
 10
177.398505
 20
-112.418602
 30
0.0
 40
1.0
100
AcDbArc
 50
126.869898
 51
180.0
  0
LINE
  5
6CB
100
AcDbEntity
  8
2
370
    50
100
AcDbLine
 10
176.948505
 20
-147.966609
 30
0.0
 11
176.948505
 21
-140.618602
 31
0.0
  0
LINE
  5
6CC
100
AcDbEntity
  8
2
370
    50
100
AcDbLine
 10
189.848505
 20
-147.966609
 30
0.0
 11
189.848505
 21
-140.618602
 31
0.0
  0
ARC
  5
6CD
100
AcDbEntity
  8
2
370
    50
100
AcDbCircle
 10
183.398505
 20
-115.822232
 30
0.0
 40
10.10363
100
AcDbArc
 50
90.0
 51
103.729133
  0
LINE
  5
6CE
100
AcDbEntity
  8
2
370
    50
100
AcDbLine
 10
179.834323
 20
-106.007277
 30
0.0
 11
181.000589
 21
-106.007277
 31
0.0
  0
ARC
  5
6CF
100
AcDbEntity
  8
2
370
    50
100
AcDbCircle
 10
178.635365
 20
-108.352763
 30
0.0
 40
2.634161
100
AcDbArc
 50
62.924933
 51
117.075067
  0
LINE
  5
6D0
100
AcDbEntity
  8
2
370
    50
100
AcDbLine
 10
181.000589
 20
-106.007277
 30
0.0
 11
181.000589
 21
-111.329927
 31
0.0
  0
LINE
  5
6D1
100
AcDbEntity
  8
2
370
    50
100
AcDbLine
 10
179.834323
 20
-106.007277
 30
0.0
 11
179.834323
 21
-111.329927
 31
0.0
  0
LINE
  5
6D2
100
AcDbEntity
  8
2
370
    50
100
AcDbLine
 10
177.436408
 20
-106.007277
 30
0.0
 11
177.436408
 21
-111.329927
 31
0.0
  0
ARC
  5
6D3
100
AcDbEntity
  8
2
370
    50
100
AcDbCircle
 10
180.17355
 20
-143.666549
 30
0.0
 40
5.375075
100
AcDbArc
 50
233.130102
 51
306.869898
  0
ARC
  5
6D4
100
AcDbEntity
  8
2
370
    50
100
AcDbCircle
 10
186.623641
 20
-152.266669
 30
0.0
 40
5.375075
100
AcDbArc
 50
53.130102
 51
126.869898
  0
ARC
  5
6D5
100
AcDbEntity
  8
2
370
    50
100
AcDbCircle
 10
180.17355
 20
-152.266669
 30
0.0
 40
5.375075
100
AcDbArc
 50
53.130102
 51
126.869898
  0
LINE
  5
6D6
100
AcDbEntity
  8
2
370
    50
100
AcDbLine
 10
110.265021
 20
-136.126783
 30
0.0
 11
103.664768
 21
-136.126783
 31
0.0
  0
LINE
  5
6D7
100
AcDbEntity
  8
2
370
    50
100
AcDbLine
 10
110.265021
 20
-136.126783
 30
0.0
 11
116.864768
 21
-136.126783
 31
0.0
  0
LINE
  5
6D8
100
AcDbEntity
  8
2
370
    50
100
AcDbLine
 10
103.664768
 20
-107.126783
 30
0.0
 11
110.264768
 21
-107.126783
 31
0.0
  0
LINE
  5
6D9
100
AcDbEntity
  8
2
370
    50
100
AcDbLine
 10
103.664768
 20
-112.626783
 30
0.0
 11
110.264768
 21
-112.626783
 31
0.0
  0
LINE
  5
6DA
100
AcDbEntity
  8
2
370
    50
100
AcDbLine
 10
103.664768
 20
-114.626783
 30
0.0
 11
110.264768
 21
-114.626783
 31
0.0
  0
LINE
  5
6DB
100
AcDbEntity
  8
2
370
    50
100
AcDbLine
 10
103.664768
 20
-119.626783
 30
0.0
 11
110.264768
 21
-119.626783
 31
0.0
  0
LINE
  5
6DC
100
AcDbEntity
  8
2
370
    50
100
AcDbLine
 10
103.664768
 20
-121.626783
 30
0.0
 11
110.264768
 21
-121.626783
 31
0.0
  0
LINE
  5
6DD
100
AcDbEntity
  8
2
370
    50
100
AcDbLine
 10
103.664768
 20
-126.626783
 30
0.0
 11
110.264768
 21
-126.626783
 31
0.0
  0
LINE
  5
6DE
100
AcDbEntity
  8
2
370
    50
100
AcDbLine
 10
103.664768
 20
-128.626783
 30
0.0
 11
110.264768
 21
-128.626783
 31
0.0
  0
LINE
  5
6DF
100
AcDbEntity
  8
2
370
    50
100
AcDbLine
 10
103.264768
 20
-107.926783
 30
0.0
 11
103.264768
 21
-111.826783
 31
0.0
  0
LINE
  5
6E0
100
AcDbEntity
  8
2
370
    50
100
AcDbLine
 10
103.264768
 20
-115.426783
 30
0.0
 11
103.264768
 21
-118.826783
 31
0.0
  0
LINE
  5
6E1
100
AcDbEntity
  8
2
370
    50
100
AcDbLine
 10
103.264768
 20
-122.426783
 30
0.0
 11
103.264768
 21
-125.826783
 31
0.0
  0
LINE
  5
6E2
100
AcDbEntity
  8
2
370
    50
100
AcDbLine
 10
103.264768
 20
-129.426783
 30
0.0
 11
103.264768
 21
-135.326783
 31
0.0
  0
LINE
  5
6E3
100
AcDbEntity
  8
2
370
    50
100
AcDbLine
 10
103.664768
 20
-126.626783
 30
0.0
 11
103.664768
 21
-128.626783
 31
0.0
  0
LINE
  5
6E4
100
AcDbEntity
  8
2
370
    50
100
AcDbLine
 10
103.664768
 20
-112.626783
 30
0.0
 11
103.664768
 21
-114.626783
 31
0.0
  0
LINE
  5
6E5
100
AcDbEntity
  8
2
370
    50
100
AcDbLine
 10
103.664768
 20
-119.626783
 30
0.0
 11
103.664768
 21
-121.626783
 31
0.0
  0
ARC
  5
6E6
100
AcDbEntity
  8
2
370
    50
100
AcDbCircle
 10
104.264768
 20
-129.426783
 30
0.0
 40
1.0
100
AcDbArc
 50
126.869898
 51
180.0
  0
ARC
  5
6E7
100
AcDbEntity
  8
2
370
    50
100
AcDbCircle
 10
104.264768
 20
-125.826783
 30
0.0
 40
1.0
100
AcDbArc
 50
180.0
 51
233.130102
  0
ARC
  5
6E8
100
AcDbEntity
  8
2
370
    50
100
AcDbCircle
 10
104.264768
 20
-122.426783
 30
0.0
 40
1.0
100
AcDbArc
 50
126.869898
 51
180.0
  0
ARC
  5
6E9
100
AcDbEntity
  8
2
370
    50
100
AcDbCircle
 10
104.264768
 20
-118.826783
 30
0.0
 40
1.0
100
AcDbArc
 50
180.0
 51
233.130102
  0
ARC
  5
6EA
100
AcDbEntity
  8
2
370
    50
100
AcDbCircle
 10
104.264768
 20
-115.426783
 30
0.0
 40
1.0
100
AcDbArc
 50
126.869898
 51
180.0
  0
ARC
  5
6EB
100
AcDbEntity
  8
2
370
    50
100
AcDbCircle
 10
104.264768
 20
-111.826783
 30
0.0
 40
1.0
100
AcDbArc
 50
180.0
 51
233.130102
  0
ARC
  5
6EC
100
AcDbEntity
  8
2
370
    50
100
AcDbCircle
 10
104.264768
 20
-107.926783
 30
0.0
 40
1.0
100
AcDbArc
 50
126.869898
 51
180.0
  0
LINE
  5
6ED
100
AcDbEntity
  8
2
370
    50
100
AcDbLine
 10
116.864768
 20
-107.126783
 30
0.0
 11
110.264768
 21
-107.126783
 31
0.0
  0
ARC
  5
6EE
100
AcDbEntity
  8
2
370
    50
100
AcDbCircle
 10
116.264768
 20
-107.926783
 30
0.0
 40
1.0
100
AcDbArc
 50
0.0
 51
53.130102
  0
LINE
  5
6EF
100
AcDbEntity
  8
2
370
    50
100
AcDbLine
 10
117.264768
 20
-107.926783
 30
0.0
 11
117.264768
 21
-111.826783
 31
0.0
  0
ARC
  5
6F0
100
AcDbEntity
  8
2
370
    50
100
AcDbCircle
 10
116.264768
 20
-111.826783
 30
0.0
 40
1.0
100
AcDbArc
 50
306.869898
 51
0.0
  0
LINE
  5
6F1
100
AcDbEntity
  8
2
370
    50
100
AcDbLine
 10
116.864768
 20
-112.626783
 30
0.0
 11
116.864768
 21
-114.626783
 31
0.0
  0
LINE
  5
6F2
100
AcDbEntity
  8
2
370
    50
100
AcDbLine
 10
116.864768
 20
-112.626783
 30
0.0
 11
110.264768
 21
-112.626783
 31
0.0
  0
LINE
  5
6F3
100
AcDbEntity
  8
2
370
    50
100
AcDbLine
 10
116.864768
 20
-114.626783
 30
0.0
 11
110.264768
 21
-114.626783
 31
0.0
  0
ARC
  5
6F4
100
AcDbEntity
  8
2
370
    50
100
AcDbCircle
 10
116.264768
 20
-115.426783
 30
0.0
 40
1.0
100
AcDbArc
 50
0.0
 51
53.130102
  0
LINE
  5
6F5
100
AcDbEntity
  8
2
370
    50
100
AcDbLine
 10
117.264768
 20
-115.426783
 30
0.0
 11
117.264768
 21
-118.826783
 31
0.0
  0
ARC
  5
6F6
100
AcDbEntity
  8
2
370
    50
100
AcDbCircle
 10
116.264768
 20
-118.826783
 30
0.0
 40
1.0
100
AcDbArc
 50
306.869898
 51
0.0
  0
LINE
  5
6F7
100
AcDbEntity
  8
2
370
    50
100
AcDbLine
 10
116.864768
 20
-119.626783
 30
0.0
 11
110.264768
 21
-119.626783
 31
0.0
  0
LINE
  5
6F8
100
AcDbEntity
  8
2
370
    50
100
AcDbLine
 10
116.864768
 20
-119.626783
 30
0.0
 11
116.864768
 21
-121.626783
 31
0.0
  0
LINE
  5
6F9
100
AcDbEntity
  8
2
370
    50
100
AcDbLine
 10
116.864768
 20
-121.626783
 30
0.0
 11
110.264768
 21
-121.626783
 31
0.0
  0
ARC
  5
6FA
100
AcDbEntity
  8
2
370
    50
100
AcDbCircle
 10
116.264768
 20
-122.426783
 30
0.0
 40
1.0
100
AcDbArc
 50
0.0
 51
53.130102
  0
LINE
  5
6FB
100
AcDbEntity
  8
2
370
    50
100
AcDbLine
 10
117.264768
 20
-122.426783
 30
0.0
 11
117.264768
 21
-125.826783
 31
0.0
  0
ARC
  5
6FC
100
AcDbEntity
  8
2
370
    50
100
AcDbCircle
 10
116.264768
 20
-125.826783
 30
0.0
 40
1.0
100
AcDbArc
 50
306.869898
 51
0.0
  0
LINE
  5
6FD
100
AcDbEntity
  8
2
370
    50
100
AcDbLine
 10
116.864768
 20
-126.626783
 30
0.0
 11
110.264768
 21
-126.626783
 31
0.0
  0
LINE
  5
6FE
100
AcDbEntity
  8
2
370
    50
100
AcDbLine
 10
116.864768
 20
-126.626783
 30
0.0
 11
116.864768
 21
-128.626783
 31
0.0
  0
LINE
  5
6FF
100
AcDbEntity
  8
2
370
    50
100
AcDbLine
 10
116.864768
 20
-128.626783
 30
0.0
 11
110.264768
 21
-128.626783
 31
0.0
  0
ARC
  5
700
100
AcDbEntity
  8
2
370
    50
100
AcDbCircle
 10
116.264768
 20
-129.426783
 30
0.0
 40
1.0
100
AcDbArc
 50
0.0
 51
53.130102
  0
LINE
  5
701
100
AcDbEntity
  8
2
370
    50
100
AcDbLine
 10
117.264768
 20
-129.426783
 30
0.0
 11
117.264768
 21
-135.326783
 31
0.0
  0
ARC
  5
702
100
AcDbEntity
  8
2
370
    50
100
AcDbCircle
 10
104.264768
 20
-135.326783
 30
0.0
 40
1.0
100
AcDbArc
 50
180.0
 51
233.130102
  0
ARC
  5
703
100
AcDbEntity
  8
2
370
    50
100
AcDbCircle
 10
116.264768
 20
-135.326783
 30
0.0
 40
1.0
100
AcDbArc
 50
306.869898
 51
0.0
  0
LINE
  5
704
100
AcDbEntity
  8
2
370
    50
100
AcDbLine
 10
103.814768
 20
-107.126783
 30
0.0
 11
103.814768
 21
-88.615966
 31
0.0
  0
LINE
  5
705
100
AcDbEntity
  8
2
370
    50
100
AcDbLine
 10
116.714768
 20
-107.126783
 30
0.0
 11
116.714768
 21
-88.615966
 31
0.0
  0
LINE
  5
706
100
AcDbEntity
  8
2
370
    50
100
AcDbLine
 10
104.014768
 20
-137.126783
 30
0.0
 11
104.014768
 21
-136.126783
 31
0.0
  0
LINE
  5
707
100
AcDbEntity
  8
2
370
    50
100
AcDbLine
 10
116.514768
 20
-137.126783
 30
0.0
 11
116.514768
 21
-136.126783
 31
0.0
  0
ARC
  5
708
100
AcDbEntity
  8
2
370
    50
100
AcDbCircle
 10
107.039768
 20
-84.315966
 30
0.0
 40
5.375
100
AcDbArc
 50
233.130102
 51
306.869898
  0
ARC
  5
709
100
AcDbEntity
  8
2
370
    50
100
AcDbCircle
 10
113.489768
 20
-92.915966
 30
0.0
 40
5.375
100
AcDbArc
 50
53.130102
 51
126.869898
  0
ARC
  5
70A
100
AcDbEntity
  8
2
370
    50
100
AcDbCircle
 10
113.489768
 20
-84.315966
 30
0.0
 40
5.375
100
AcDbArc
 50
233.130102
 51
306.869898
  0
LINE
  5
70B
100
AcDbEntity
  8
2
370
    50
100
AcDbLine
 10
206.293117
 20
-171.944727
 30
0.0
 11
203.618147
 21
-171.944727
 31
0.0
  0
LINE
  5
70C
100
AcDbEntity
  8
2
370
    50
100
AcDbLine
 10
203.950321
 20
-185.944727
 30
0.0
 11
201.511979
 21
-185.944727
 31
0.0
  0
ARC
  5
70D
100
AcDbEntity
  8
2
370
    50
100
AcDbCircle
 10
201.511979
 20
-185.744727
 30
0.0
 40
0.2
100
AcDbArc
 50
170.5
 51
270.0
  0
ARC
  5
70E
100
AcDbEntity
  8
2
370
    50
100
AcDbCircle
 10
203.787839
 20
-172.144727
 30
0.0
 40
0.2
100
AcDbArc
 50
90.0
 51
170.5
  0
LINE
  5
70F
100
AcDbEntity
  8
2
370
    50
100
AcDbLine
 10
211.596272
 20
-172.744727
 30
0.0
 11
210.582367
 21
-172.744727
 31
0.0
  0
LINE
  5
710
100
AcDbEntity
  8
2
370
    50
100
AcDbLine
 10
209.521241
 20
-185.144727
 30
0.0
 11
208.507319
 21
-185.144727
 31
0.0
  0
LINE
  5
711
100
AcDbEntity
  8
2
370
    50
100
AcDbLine
 10
210.479992
 20
-171.944727
 30
0.0
 11
208.118147
 21
-171.944727
 31
0.0
  0
LINE
  5
712
100
AcDbEntity
  8
2
370
    50
100
AcDbLine
 10
210.677249
 20
-172.177737
 30
0.0
 11
208.401389
 21
-185.777737
 31
0.0
  0
ARC
  5
713
100
AcDbEntity
  8
2
370
    50
100
AcDbCircle
 10
210.479992
 20
-172.144727
 30
0.0
 40
0.2
100
AcDbArc
 50
350.5
 51
90.0
  0
LINE
  5
714
100
AcDbEntity
  8
2
370
    50
100
AcDbLine
 10
208.204132
 20
-185.944727
 30
0.0
 11
205.77535
 21
-185.944727
 31
0.0
  0
ARC
  5
715
100
AcDbEntity
  8
2
370
    50
100
AcDbCircle
 10
208.204132
 20
-185.744727
 30
0.0
 40
0.2
100
AcDbArc
 50
270.0
 51
350.5
  0
LINE
  5
716
100
AcDbEntity
  8
2
370
    50
100
AcDbLine
 10
214.535992
 20
-171.944727
 30
0.0
 11
211.899839
 21
-171.944727
 31
0.0
  0
LINE
  5
717
100
AcDbEntity
  8
2
370
    50
100
AcDbLine
 10
214.733249
 20
-172.177737
 30
0.0
 11
212.457389
 21
-185.777737
 31
0.0
  0
ARC
  5
718
100
AcDbEntity
  8
2
370
    50
100
AcDbCircle
 10
214.535992
 20
-172.144727
 30
0.0
 40
0.2
100
AcDbArc
 50
350.5
 51
90.0
  0
LINE
  5
719
100
AcDbEntity
  8
2
370
    50
100
AcDbLine
 10
212.260132
 20
-185.944727
 30
0.0
 11
209.623979
 21
-185.944727
 31
0.0
  0
ARC
  5
71A
100
AcDbEntity
  8
2
370
    50
100
AcDbCircle
 10
212.260132
 20
-185.744727
 30
0.0
 40
0.2
100
AcDbArc
 50
270.0
 51
350.5
  0
ARC
  5
71B
100
AcDbEntity
  8
2
370
    50
100
AcDbCircle
 10
209.623979
 20
-185.744727
 30
0.0
 40
0.2
100
AcDbArc
 50
170.5
 51
270.0
  0
LINE
  5
71C
100
AcDbEntity
  8
2
370
    50
100
AcDbLine
 10
209.426342
 20
-185.711718
 30
0.0
 11
211.7026
 21
-172.111715
 31
0.0
  0
ARC
  5
71D
100
AcDbEntity
  8
2
370
    50
100
AcDbCircle
 10
211.899839
 20
-172.144727
 30
0.0
 40
0.2
100
AcDbArc
 50
90.0
 51
170.5
  0
LINE
  5
71E
100
AcDbEntity
  8
2
370
    50
100
AcDbLine
 10
202.367992
 20
-171.944727
 30
0.0
 11
199.731839
 21
-171.944727
 31
0.0
  0
LINE
  5
71F
100
AcDbEntity
  8
2
370
    50
100
AcDbLine
 10
202.565249
 20
-172.177737
 30
0.0
 11
200.289389
 21
-185.777737
 31
0.0
  0
ARC
  5
720
100
AcDbEntity
  8
2
370
    50
100
AcDbCircle
 10
202.367992
 20
-172.144727
 30
0.0
 40
0.2
100
AcDbArc
 50
350.5
 51
90.0
  0
LINE
  5
721
100
AcDbEntity
  8
2
370
    50
100
AcDbLine
 10
200.092132
 20
-185.944727
 30
0.0
 11
197.455979
 21
-185.944727
 31
0.0
  0
ARC
  5
722
100
AcDbEntity
  8
2
370
    50
100
AcDbCircle
 10
200.092132
 20
-185.744727
 30
0.0
 40
0.2
100
AcDbArc
 50
270.0
 51
350.5
  0
ARC
  5
723
100
AcDbEntity
  8
2
370
    50
100
AcDbCircle
 10
197.455979
 20
-185.744727
 30
0.0
 40
0.2
100
AcDbArc
 50
170.5
 51
270.0
  0
LINE
  5
724
100
AcDbEntity
  8
2
370
    50
100
AcDbLine
 10
197.258342
 20
-185.711718
 30
0.0
 11
199.5346
 21
-172.111715
 31
0.0
  0
ARC
  5
725
100
AcDbEntity
  8
2
370
    50
100
AcDbCircle
 10
199.731839
 20
-172.144727
 30
0.0
 40
0.2
100
AcDbArc
 50
90.0
 51
170.5
  0
LINE
  5
726
100
AcDbEntity
  8
2
370
    50
100
AcDbLine
 10
215.652272
 20
-172.744727
 30
0.0
 11
214.638367
 21
-172.744727
 31
0.0
  0
LINE
  5
727
100
AcDbEntity
  8
2
370
    50
100
AcDbLine
 10
213.577241
 20
-185.144727
 30
0.0
 11
212.563319
 21
-185.144727
 31
0.0
  0
LINE
  5
728
100
AcDbEntity
  8
2
370
    50
100
AcDbLine
 10
216.137534
 20
-185.944727
 30
0.0
 11
213.679979
 21
-185.944727
 31
0.0
  0
ARC
  5
729
100
AcDbEntity
  8
2
370
    50
100
AcDbCircle
 10
213.679979
 20
-185.744727
 30
0.0
 40
0.2
100
AcDbArc
 50
170.5
 51
270.0
  0
LINE
  5
72A
100
AcDbEntity
  8
2
370
    50
100
AcDbLine
 10
213.482342
 20
-185.711718
 30
0.0
 11
215.7586
 21
-172.111715
 31
0.0
  0
LINE
  5
72B
100
AcDbEntity
  8
2
370
    50
100
AcDbLine
 10
198.414367
 20
-172.744727
 30
0.0
 11
199.428652
 21
-172.744727
 31
0.0
  0
LINE
  5
72C
100
AcDbEntity
  8
2
370
    50
100
AcDbLine
 10
202.470367
 20
-172.744727
 30
0.0
 11
203.484652
 21
-172.744727
 31
0.0
  0
LINE
  5
72D
100
AcDbEntity
  8
2
370
    50
100
AcDbLine
 10
196.339319
 20
-185.144727
 30
0.0
 11
197.353241
 21
-185.144727
 31
0.0
  0
LINE
  5
72E
100
AcDbEntity
  8
2
370
    50
100
AcDbLine
 10
200.395319
 20
-185.144727
 30
0.0
 11
201.409241
 21
-185.144727
 31
0.0
  0
LINE
  5
72F
100
AcDbEntity
  8
2
370
    50
100
AcDbLine
 10
203.618147
 20
-171.944727
 30
0.0
 11
201.314353
 21
-185.711656
 31
0.0
  0
LINE
  5
730
100
AcDbEntity
  8
2
370
    50
100
AcDbLine
 10
209.225205
 20
-164.117434
 30
0.0
 11
207.844405
 21
-163.886367
 31
0.0
  0
LINE
  5
731
100
AcDbEntity
  8
2
370
    50
100
AcDbLine
 10
209.389453
 20
-164.347701
 30
0.0
 11
204.504044
 21
-193.541754
 31
0.0
  0
LINE
  5
732
100
AcDbEntity
  8
2
370
    50
100
AcDbLine
 10
207.614139
 20
-164.050615
 30
0.0
 11
202.72873
 21
-193.244669
 31
0.0
  0
LINE
  5
733
100
AcDbEntity
  8
2
370
    50
100
AcDbLine
 10
204.273777
 20
-193.706002
 30
0.0
 11
202.892977
 21
-193.474935
 31
0.0
  0
ARC
  5
734
100
AcDbEntity
  8
2
370
    50
100
AcDbCircle
 10
204.306787
 20
-193.508745
 30
0.0
 40
0.2
100
AcDbArc
 50
260.5
 51
350.5
  0
ARC
  5
735
100
AcDbEntity
  8
2
370
    50
100
AcDbCircle
 10
202.925987
 20
-193.277678
 30
0.0
 40
0.2
100
AcDbArc
 50
170.5
 51
260.5
  0
ARC
  5
736
100
AcDbEntity
  8
2
370
    50
100
AcDbCircle
 10
209.192196
 20
-164.314691
 30
0.0
 40
0.2
100
AcDbArc
 50
350.5
 51
80.5
  0
ARC
  5
737
100
AcDbEntity
  8
2
370
    50
100
AcDbCircle
 10
207.811396
 20
-164.083624
 30
0.0
 40
0.2
100
AcDbArc
 50
80.5
 51
170.5
  0
ARC
  5
738
100
AcDbEntity
  8
2
370
    50
100
AcDbCircle
 10
215.956285
 20
-172.142061
 30
0.0
 40
0.2
100
AcDbArc
 50
90.0
 51
170.5
  0
LINE
  5
739
100
AcDbEntity
  8
2
370
    50
100
AcDbLine
 10
216.127315
 20
-171.942061
 30
0.0
 11
215.956285
 21
-171.942061
 31
0.0
  0
POINT
  5
73A
100
AcDbEntity
  8
3
370
    50
100
AcDbPoint
 10
175.898505
 20
172.981398
 30
0.0
  0
TEXT
  5
73B
100
AcDbEntity
  8
3
370
    50
100
AcDbText
 10
10.528389
 20
87.381398
 30
0.0
 40
7.0
  1
１５１
 50
90.0
 72
     5
 11
10.528389
 21
106.981398
 31
0.0
100
AcDbText
  0
DIMENSION
  5
73C
100
AcDbEntity
  8
3
370
    25
100
AcDbDimension
  2
*D0
 10
11.528389
 20
172.981398
 30
0.0
 11
9.028389
 21
97.881398
 31
0.0
 71
     0
 72
     0
 41
0.0
 42
0.0
  3
Standard
100
AcDbAlignedDimension
 13
152.398505
 23
22.781398
 33
0.0
 14
175.898505
 24
172.981398
 34
0.0
 50
90.0
100
AcDbRotatedDimension
  0
POINT
  5
73D
100
AcDbEntity
  8
3
370
    50
100
AcDbPoint
 10
108.793872
 20
203.202183
 30
0.0
  0
TEXT
  5
73E
100
AcDbEntity
  8
3
370
    50
100
AcDbText
 10
-3.325867
 20
102.49179
 30
0.0
 40
7.0
  1
１８１
 50
90.0
 72
     5
 11
-3.325867
 21
122.09179
 31
0.0
100
AcDbText
  0
DIMENSION
  5
73F
100
AcDbEntity
  8
3
370
    25
100
AcDbDimension
  2
*D1
 10
-2.325867
 20
203.202183
 30
0.0
 11
-4.825867
 21
112.99179
 31
0.0
 71
     0
 72
     0
 41
0.0
 42
0.0
  3
Standard
100
AcDbAlignedDimension
 13
151.598505
 23
22.781398
 33
0.0
 14
108.793872
 24
203.202183
 34
0.0
 50
90.0
100
AcDbRotatedDimension
  0
DIMENSION
  5
740
100
AcDbEntity
  8
3
370
    25
100
AcDbDimension
  2
*D2
 10
106.798524
 20
169.481398
 30
0.0
 11
79.786329
 21
202.698879
 31
0.0
 70
     2
 71
     0
 72
     0
 41
0.0
 42
0.0
  3
Standard
100
AcDb2LineAngularDimension
 13
132.647593
 23
192.079011
 33
0.0
 14
181.10833
 24
169.481398
 34
0.0
 15
181.10833
 25
169.481398
 35
0.0
 16
78.490009
 26
192.231332
 36
0.0
1001
ACAD
1000
DSTYLE
1002
{
1070
   275
1070
     0
1070
   179
1070
     2
1002
}
  0
TEXT
  5
741
100
AcDbEntity
  8
3
370
    50
100
AcDbText
 10
73.965321
 20
160.104462
 30
0.0
 40
7.0
  1
止水
 72
     5
 11
86.565321
 21
160.104462
 31
0.0
100
AcDbText
  0
TEXT
  5
742
100
AcDbEntity
  8
3
370
    50
100
AcDbText
 10
110.614449
 20
206.30719
 30
0.0
 40
7.0
  1
吐水
 72
     5
 11
123.214449
 21
206.30719
 31
0.0
100
AcDbText
  0
POINT
  5
743
100
AcDbEntity
  8
3
370
    50
100
AcDbPoint
 10
110.265361
 20
-165.126515
 30
0.0
  0
TEXT
  5
744
100
AcDbEntity
  8
3
370
    50
100
AcDbText
 10
24.093758
 20
-141.172559
 30
0.0
 40
7.0
  1
湯側：４１６　水側：４２６（シートまで）
 50
90.0
 72
     5
 11
24.093758
 21
-2.572559
 31
0.0
100
AcDbText
  0
DIMENSION
  5
745
100
AcDbEntity
  8
3
370
    25
100
AcDbDimension
  2
*D3
 10
25.093758
 20
22.781398
 30
0.0
 11
22.593758
 21
-71.172559
 31
0.0
 71
     0
 72
     0
 41
0.0
 42
0.0
  3
Standard
100
AcDbAlignedDimension
 13
110.265361
 23
-165.126515
 33
0.0
 14
151.598505
 24
22.781398
 34
0.0
 50
90.0
100
AcDbRotatedDimension
  0
TEXT
  5
746
100
AcDbEntity
  8
3
370
    50
100
AcDbText
 10
292.705444
 20
-190.63562
 30
0.0
 40
7.0
  1
逆止弁内蔵
 72
     5
 11
326.305444
 21
-190.63562
 31
0.0
100
AcDbText
  0
LWPOLYLINE
  5
747
100
AcDbEntity
  8
3
370
    25
100
AcDbPolyline
 90
        3
 70
     0
 10
272.398621
 20
-181.082573
 10
290.316437
 20
-192.426842
 10
329.735626
 20
-192.426842
  0
LINE
  5
74C
100
AcDbEntity
  8
3
370
    25
100
AcDbLine
 10
275.663054
 20
-183.149377
 30
0.0
 11
276.216852
 21
-182.274674
 31
0.0
  0
LINE
  5
74D
100
AcDbEntity
  8
3
370
    25
100
AcDbLine
 10
276.216852
 20
-182.274674
 30
0.0
 11
272.398621
 21
-181.082573
 31
0.0
  0
LINE
  5
74E
100
AcDbEntity
  8
3
370
    25
100
AcDbLine
 10
272.398621
 20
-181.082573
 30
0.0
 11
275.109256
 21
-184.024079
 31
0.0
  0
LINE
  5
74F
100
AcDbEntity
  8
3
370
    25
100
AcDbLine
 10
275.109256
 20
-184.024079
 30
0.0
 11
275.663054
 21
-183.149377
 31
0.0
  0
TEXT
  5
750
100
AcDbEntity
  8
3
370
    50
100
AcDbText
 10
-185.109497
 20
30.781506
 30
0.0
 40
7.0
  1
取付穴径φ３７±２
 50
90.0
 72
     5
 11
-185.109497
 21
92.381506
 31
0.0
100
AcDbText
  0
DIMENSION
  5
751
100
AcDbEntity
  8
3
370
    25
100
AcDbDimension
  2
*D4
 10
-184.109497
 20
22.781506
 30
0.0
 11
-186.609497
 21
58.281506
 31
0.0
 71
     0
 72
     0
 41
0.0
 42
0.0
  3
Standard
100
AcDbAlignedDimension
 13
-164.138101
 23
6.481506
 33
0.0
 14
-163.386101
 24
22.781506
 34
0.0
 50
90.0
100
AcDbRotatedDimension
  0
TEXT
  5
752
100
AcDbEntity
  8
3
370
    50
100
AcDbText
 10
-174.991547
 20
31.068501
 30
0.0
 40
7.0
  1
取付厚さ５～３０
 50
90.0
 72
     5
 11
-174.991547
 21
85.668501
 31
0.0
100
AcDbText
  0
TEXT
  5
753
100
AcDbEntity
  8
3
370
    50
100
AcDbText
 10
-99.825607
 20
5.627651
 30
0.0
 40
7.0
  1
Ｗ３５山１６
 72
     5
 11
-59.225607
 21
5.627651
 31
0.0
100
AcDbText
  0
TEXT
  5
754
100
AcDbEntity
  8
3
370
    50
100
AcDbText
 10
-99.651527
 20
-18.041178
 30
0.0
 40
7.0
  1
４６六角
 72
     5
 11
-73.051527
 21
-18.041178
 31
0.0
100
AcDbText
  0
LWPOLYLINE
  5
755
100
AcDbEntity
  8
3
370
    25
100
AcDbPolyline
 90
        3
 70
     0
 10
-121.586101
 20
15.199641
 10
-99.999687
 20
4.583416
 10
-58.913963
 20
4.583416
  0
LINE
  5
75A
100
AcDbEntity
  8
3
370
    25
100
AcDbLine
 10
-118.119004
 20
13.494519
 30
0.0
 11
-117.662118
 21
14.423524
 31
0.0
  0
LINE
  5
75B
100
AcDbEntity
  8
3
370
    25
100
AcDbLine
 10
-117.662118
 20
14.423524
 30
0.0
 11
-121.586101
 21
15.199641
 31
0.0
  0
LINE
  5
75C
100
AcDbEntity
  8
3
370
    25
100
AcDbLine
 10
-121.586101
 20
15.199641
 30
0.0
 11
-118.57589
 21
12.565513
 31
0.0
  0
LINE
  5
75D
100
AcDbEntity
  8
3
370
    25
100
AcDbLine
 10
-118.57589
 20
12.565513
 30
0.0
 11
-118.119004
 21
13.494519
 31
0.0
  0
LWPOLYLINE
  5
75E
100
AcDbEntity
  8
3
370
    25
100
AcDbPolyline
 90
        3
 70
     0
 10
-116.138769
 20
-3.074136
 10
-99.303314
 20
-19.781536
 10
-70.926338
 20
-19.781536
  0
LINE
  5
763
100
AcDbEntity
  8
3
370
    25
100
AcDbLine
 10
-113.396308
 20
-5.795737
 30
0.0
 11
-112.667057
 21
-5.060897
 31
0.0
  0
LINE
  5
764
100
AcDbEntity
  8
3
370
    25
100
AcDbLine
 10
-112.667057
 20
-5.060897
 30
0.0
 11
-116.138769
 21
-3.074136
 31
0.0
  0
LINE
  5
765
100
AcDbEntity
  8
3
370
    25
100
AcDbLine
 10
-116.138769
 20
-3.074136
 30
0.0
 11
-114.125559
 21
-6.530577
 31
0.0
  0
LINE
  5
766
100
AcDbEntity
  8
3
370
    25
100
AcDbLine
 10
-114.125559
 20
-6.530577
 30
0.0
 11
-113.396308
 21
-5.795737
 31
0.0
  0
DIMENSION
  5
767
100
AcDbEntity
  8
3
370
    25
100
AcDbDimension
  2
*D5
 10
-165.086101
 20
188.042847
 30
0.0
 11
-139.086101
 21
192.542847
 31
0.0
 70
     1
 71
     0
 72
     0
 41
0.0
 42
0.0
  3
Standard
100
AcDbAlignedDimension
 13
-113.086101
 23
171.354752
 33
0.0
 14
-165.086101
 24
171.354752
 34
0.0
  0
TEXT
  5
768
100
AcDbEntity
  8
3
370
    50
100
AcDbText
 10
-251.125732
 20
239.704163
 30
0.0
 40
7.0
  1
水表示
 72
     5
 11
-231.525732
 21
239.704163
 31
0.0
100
AcDbText
  0
TEXT
  5
769
100
AcDbEntity
  8
3
370
    50
100
AcDbText
 10
-338.665588
 20
239.260742
 30
0.0
 40
7.0
  1
湯表示
 72
     5
 11
-319.065588
 21
239.260742
 31
0.0
100
AcDbText
  0
LWPOLYLINE
  5
76A
100
AcDbEntity
  8
3
370
    25
100
AcDbPolyline
 90
        3
 70
     0
 10
-308.204102
 20
229.800064
 10
-316.928528
 20
238.225983
 10
-339.700714
 20
238.225983
  0
LINE
  5
76F
100
AcDbEntity
  8
3
370
    25
100
AcDbLine
 10
-310.983284
 20
232.484156
 30
0.0
 11
-311.702484
 21
231.739476
 31
0.0
  0
LINE
  5
770
100
AcDbEntity
  8
3
370
    25
100
AcDbLine
 10
-311.702484
 20
231.739476
 30
0.0
 11
-308.204102
 21
229.800064
 31
0.0
  0
LINE
  5
771
100
AcDbEntity
  8
3
370
    25
100
AcDbLine
 10
-308.204102
 20
229.800064
 30
0.0
 11
-310.264083
 21
233.228836
 31
0.0
  0
LINE
  5
772
100
AcDbEntity
  8
3
370
    25
100
AcDbLine
 10
-310.264083
 20
233.228836
 30
0.0
 11
-310.983284
 21
232.484156
 31
0.0
  0
LWPOLYLINE
  5
773
100
AcDbEntity
  8
3
370
    25
100
AcDbPolyline
 90
        3
 70
     0
 10
-260.589508
 20
229.9478
 10
-251.865082
 20
237.930313
 10
-229.980133
 20
237.930313
  0
LINE
  5
778
100
AcDbEntity
  8
3
370
    25
100
AcDbLine
 10
-257.738943
 20
232.555957
 30
0.0
 11
-258.437797
 21
233.319763
 31
0.0
  0
LINE
  5
779
100
AcDbEntity
  8
3
370
    25
100
AcDbLine
 10
-258.437797
 20
233.319763
 30
0.0
 11
-260.589508
 21
229.9478
 31
0.0
  0
LINE
  5
77A
100
AcDbEntity
  8
3
370
    25
100
AcDbLine
 10
-260.589508
 20
229.9478
 30
0.0
 11
-257.04009
 21
231.79215
 31
0.0
  0
LINE
  5
77B
100
AcDbEntity
  8
3
370
    25
100
AcDbLine
 10
-257.04009
 20
231.79215
 30
0.0
 11
-257.738943
 21
232.555957
 31
0.0
  0
DIMENSION
  5
77C
100
AcDbEntity
  8
3
370
    25
100
AcDbDimension
  2
*D6
 10
-252.78308
 20
108.656711
 30
0.0
 11
-274.000336
 21
77.62713
 31
0.0
 70
     2
 71
     0
 72
     0
 41
0.0
 42
0.0
  3
Standard
100
AcDb2LineAngularDimension
 13
-316.217592
 23
108.656711
 33
0.0
 14
-284.500336
 24
227.027122
 34
0.0
 15
-284.500336
 25
227.027122
 35
0.0
 16
-284.500336
 26
76.62713
 36
0.0
1001
ACAD
1000
DSTYLE
1002
{
1070
   275
1070
     0
1070
   179
1070
     2
1002
}
  0
TEXT
  5
77D
100
AcDbEntity
  8
3
370
    50
100
AcDbText
 10
-318.824768
 20
121.048889
 30
0.0
 40
7.0
  1
（ハンドル回転角度）
 72
     5
 11
-250.224768
 21
121.048889
 31
0.0
100
AcDbText
  0
TEXT
  5
77E
100
AcDbEntity
  8
3
370
    50
100
AcDbText
 10
-316.927277
 20
67.556778
 30
0.0
 40
7.0
  1
（パイプ回転角度）
 72
     5
 11
-255.327277
 21
67.556778
 31
0.0
100
AcDbText
  0
TEXT
  5
77F
100
AcDbEntity
  8
3
370
    50
100
AcDbText
 10
235.185699
 20
-271.966614
 30
0.0
 40
6.0
  1
外観寸法図
 72
     5
 11
263.985699
 21
-271.966614
 31
0.0
100
AcDbText
  0
TEXT
  5
780
100
AcDbEntity
  8
3
370
    50
100
AcDbText
 10
288.648407
 20
-240.026993
 30
0.0
 40
7.0
  1
１　２
 72
     5
 11
308.248407
 21
-240.026993
 31
0.0
100
AcDbText
  0
POINT
  5
781
100
AcDbEntity
  8
3
370
    50
100
AcDbPoint
 10
394.982385
 20
275.028767
 30
0.0
  0
TEXT
  5
782
100
AcDbEntity
  8
3
370
    50
100
AcDbText
 10
-21.726778
 20
-188.868256
 30
0.0
 40
7.0
  1
外径φ１４、Ｌ＝１０００
 72
     5
 11
60.873222
 21
-188.868256
 31
0.0
100
AcDbText
  0
DIMENSION
  5
783
100
AcDbEntity
  8
3
370
    25
100
AcDbDimension
  2
*D7
 10
-255.837027
 20
177.380815
 30
0.0
 11
-249.786972
 21
138.043968
 31
0.0
 70
     2
 71
     0
 72
     0
 41
0.0
 42
0.0
  3
Standard
100
AcDb2LineAngularDimension
 13
-284.500336
 23
169.700505
 33
0.0
 14
-284.500336
 24
227.027122
 34
0.0
 15
-284.500336
 25
227.027122
 35
0.0
 16
-259.929193
 26
135.326368
 36
0.0
1001
ACAD
1000
DSTYLE
1002
{
1070
   275
1070
     0
1070
   179
1070
     2
1002
}
  0
DIMENSION
  5
784
100
AcDbEntity
  8
3
370
    25
100
AcDbDimension
  2
*D8
 10
-284.500336
 20
169.483416
 30
0.0
 11
-322.882293
 21
139.547622
 31
0.0
 70
     2
 71
     0
 72
     0
 41
0.0
 42
0.0
  3
Standard
100
AcDb2LineAngularDimension
 13
-334.334646
 23
198.255269
 33
0.0
 14
-284.500336
 24
227.027122
 34
0.0
 15
-284.500336
 25
227.027122
 35
0.0
 16
-331.97556
 26
144.797622
 36
0.0
1001
ACAD
1000
DSTYLE
1002
{
1070
   275
1070
     0
1070
   179
1070
     2
1002
}
  0
TEXT
  5
785
100
AcDbEntity
  8
3
370
    50
100
AcDbText
 10
296.881317
 20
-85.831577
 30
0.0
 40
7.0
  1
２０７（金具先端まで）
 50
90.0
 72
     5
 11
296.881317
 21
-10.231577
 31
0.0
100
AcDbText
  0
DIMENSION
  5
786
100
AcDbEntity
  8
3
370
    25
100
AcDbDimension
  2
*D9
 10
297.881317
 20
22.781398
 30
0.0
 11
295.381317
 21
-47.331577
 31
0.0
 71
     0
 72
     0
 41
0.0
 42
0.0
  3
Standard
100
AcDbAlignedDimension
 13
267.776547
 23
-117.444551
 33
0.0
 14
200.198505
 24
22.781398
 34
0.0
 50
90.0
100
AcDbRotatedDimension
  0
DIMENSION
  5
787
100
AcDbEntity
  8
3
370
    25
100
AcDbDimension
  2
*D10
 10
175.898505
 20
12.278966
 30
0.0
 11
113.263642
 21
16.778966
 31
0.0
 71
     0
 72
     0
 41
0.0
 42
0.0
  3
Standard
100
AcDbAlignedDimension
 13
50.628778
 23
91.781398
 33
0.0
 14
175.898505
 24
15.744103
 34
0.0
100
AcDbRotatedDimension
  0
DIMENSION
  5
788
100
AcDbEntity
  8
3
370
    25
100
AcDbDimension
  2
*D11
 10
25.093758
 20
91.781398
 30
0.0
 11
17.093758
 21
57.281398
 31
0.0
 71
     0
 72
     0
 41
0.0
 42
0.0
  3
Standard
100
AcDbAlignedDimension
 13
151.598505
 23
22.781398
 33
0.0
 14
50.628778
 24
91.781398
 34
0.0
 50
90.0
100
AcDbRotatedDimension
  0
DIMENSION
  5
789
100
AcDbEntity
  8
3
370
    25
100
AcDbDimension
  2
*D12
 10
50.632357
 20
91.78521
 30
0.0
 11
52.73694
 21
52.769858
 31
0.0
 70
     2
 71
     0
 72
     0
 41
0.0
 42
0.0
  3
Standard
100
AcDb2LineAngularDimension
 13
50.630724
 23
91.785572
 33
0.0
 14
50.632357
 24
91.789074
 34
0.0
 15
50.632357
 25
91.789074
 35
0.0
 16
42.269393
 26
54.066178
 36
0.0
1001
ACAD
1000
DSTYLE
1002
{
1070
   275
1070
     0
1070
   179
1070
     2
1002
}
  0
POINT
  5
78A
100
AcDbEntity
  8
3
370
    50
100
AcDbPoint
 10
-204.591511
 20
-178.427207
 30
0.0
  0
TEXT
  5
78B
100
AcDbEntity
  8
3
370
    50
100
AcDbText
 10
-186.620237
 20
-182.223592
 30
0.0
 40
7.0
  1
２４六角
 72
     5
 11
-160.020237
 21
-182.223592
 31
0.0
100
AcDbText
  0
TEXT
  5
78C
100
AcDbEntity
  8
3
370
    50
100
AcDbText
 10
-188.4289
 20
-197.341451
 30
0.0
 40
7.0
  1
Ｇ１／２
 72
     5
 11
-161.8289
 21
-197.341451
 31
0.0
100
AcDbText
  0
LWPOLYLINE
  5
78D
100
AcDbEntity
  8
3
370
    25
100
AcDbPolyline
 90
        3
 70
     0
 10
-194.017682
 20
-173.658636
 10
-185.957853
 20
-183.226522
 10
-157.874479
 20
-183.226522
  0
LINE
  5
792
100
AcDbEntity
  8
3
370
    25
100
AcDbLine
 10
-191.528452
 20
-176.61362
 30
0.0
 11
-190.736666
 21
-175.946633
 31
0.0
  0
LINE
  5
793
100
AcDbEntity
  8
3
370
    25
100
AcDbLine
 10
-190.736666
 20
-175.946633
 30
0.0
 11
-194.017682
 21
-173.658636
 31
0.0
  0
LINE
  5
794
100
AcDbEntity
  8
3
370
    25
100
AcDbLine
 10
-194.017682
 20
-173.658636
 30
0.0
 11
-192.320238
 21
-177.280608
 31
0.0
  0
LINE
  5
795
100
AcDbEntity
  8
3
370
    25
100
AcDbLine
 10
-192.320238
 20
-177.280608
 30
0.0
 11
-191.528452
 21
-176.61362
 31
0.0
  0
LWPOLYLINE
  5
796
100
AcDbEntity
  8
3
370
    25
100
AcDbPolyline
 90
        3
 70
     0
 10
-211.268515
 20
-178.589776
 10
-188.492896
 20
-197.992025
 10
-160.453192
 20
-197.992025
  0
LINE
  5
79B
100
AcDbEntity
  8
3
370
    25
100
AcDbLine
 10
-208.327348
 20
-181.095317
 30
0.0
 11
-207.65599
 21
-180.307234
 31
0.0
  0
LINE
  5
79C
100
AcDbEntity
  8
3
370
    25
100
AcDbLine
 10
-207.65599
 20
-180.307234
 30
0.0
 11
-211.268515
 21
-178.589776
 31
0.0
  0
LINE
  5
79D
100
AcDbEntity
  8
3
370
    25
100
AcDbLine
 10
-211.268515
 20
-178.589776
 30
0.0
 11
-208.998706
 21
-181.8834
 31
0.0
  0
LINE
  5
79E
100
AcDbEntity
  8
3
370
    25
100
AcDbLine
 10
-208.998706
 20
-181.8834
 30
0.0
 11
-208.327348
 21
-181.095317
 31
0.0
  0
POINT
  5
79F
100
AcDbEntity
  8
3
370
    50
100
AcDbPoint
 10
-131.292101
 20
-115.718691
 30
0.0
  0
POINT
  5
7A0
100
AcDbEntity
  8
3
370
    50
100
AcDbPoint
 10
-145.292101
 20
-105.718691
 30
0.0
  0
POINT
  5
7A1
100
AcDbEntity
  8
3
370
    50
100
AcDbPoint
 10
-131.292101
 20
-115.718691
 30
0.0
  0
POINT
  5
7A2
100
AcDbEntity
  8
3
370
    50
100
AcDbPoint
 10
-145.292101
 20
-105.718691
 30
0.0
  0
TEXT
  5
7A3
100
AcDbEntity
  8
3
370
    50
100
AcDbText
 10
66.115341
 20
-227.034576
 30
0.0
 40
6.4
  1
台付シングルレバー湯水混合水栓（シャワ・寒）
 41
0.87
 72
     5
 11
187.497741
 21
-227.034576
 31
0.0
100
AcDbText
  0
TEXT
  5
7A4
100
AcDbEntity
  8
3
370
    50
100
AcDbText
 10
66.115341
 20
-236.268692
 30
0.0
 40
6.4
  1
ＭＬＺ６５４１ＭＭＤＡＨＥ
 72
     5
 11
148.035341
 21
-236.268692
 31
0.0
100
AcDbText
  0
TEXT
  5
7A5
100
AcDbEntity
  8
3
370
    50
100
AcDbText
 10
344.271759
 20
-255.9646
 30
0.0
 40
7.0
  1
２０ １１ ２５
 72
     5
 11
391.871759
 21
-255.9646
 31
0.0
100
AcDbText
  0
TEXT
  5
7A6
100
AcDbEntity
  8
3
370
    50
100
AcDbText
 10
337.687027
 20
-271.970355
 30
0.0
 40
6.0
  1
１１０２６１
 72
     5
 11
372.487027
 21
-271.970355
 31
0.0
100
AcDbText
  0
ENDSEC
  0
SECTION
  2
OBJECTS
  0
DICTIONARY
  5
83E
100
AcDbDictionary
280
     0
281
     1
  3
ACAD_GROUP
350
83F
  3
ACAD_MLINESTYLE
350
840
  0
DICTIONARY
  5
83F
102
{ACAD_REACTORS
330
83E
102
}
100
AcDbDictionary
280
     0
281
     1
  0
DICTIONARY
  5
840
102
{ACAD_REACTORS
330
83E
102
}
100
AcDbDictionary
280
     0
281
     1
  3
Standard
350
841
  0
MLINESTYLE
  5
841
102
{ACAD_REACTORS
330
840
102
}
100
AcDbMlineStyle
  2
Standard
 70
     0
  3

 62
     0
 51
90.0
 52
90.0
 71
     2
 49
0.5
 62
   256
  6
ByLayer
 49
-0.5
 62
   256
  6
ByLayer
  0
ENDSEC
  0
EOF
