  0
SECTION
  2
HEADER
  9
$ACADVER
  1
AC1009
  9
$DWGCODEPAGE
  3
ansi_932
  9
$INSBASE
 10
0.0
 20
0.0
 30
0.0
  9
$EXTMIN
 10
-841.0
 20
-594.0
 30
1.000000E+20
  9
$EXTMAX
 10
841.0
 20
594.0
 30
-1.000000E+20
  9
$LIMMIN
 10
-841.0
 20
-594.0
  9
$LIMMAX
 10
841.0
 20
594.0
  9
$ORTHOMODE
 70
     0
  9
$REGENMODE
 70
     1
  9
$FILLMODE
 70
     1
  9
$QTEXTMODE
 70
     0
  9
$MIRRTEXT
 70
     1
  9
$DRAGMODE
 70
     2
  9
$LTSCALE
 40
1.0
  9
$OSMODE
 70
     0
  9
$ATTMODE
 70
     1
  9
$TEXTSIZE
 40
0.2
  9
$TRACEWID
 40
0.05
  9
$TEXTSTYLE
  7
STANDARD
  9
$CLAYER
  8
0
  9
$CELTYPE
  6
CONTINUOUS
  9
$CECOLOR
 62
   256
  9
$DIMSCALE
 40
2.0
  9
$DIMASZ
 40
2.0
  9
$DIMEXO
 40
1.0
  9
$DIMDLI
 40
0.38
  9
$DIMRND
 40
0.0
  9
$DIMDLE
 40
0.0
  9
$DIMEXE
 40
2.0
  9
$DIMTP
 40
0.0
  9
$DIMTM
 40
0.0
  9
$DIMTXT
 40
3.5
  9
$DIMCEN
 40
0.09
  9
$DIMTSZ
 40
0.0
  9
$DIMTOL
 70
     0
  9
$DIMLIM
 70
     0
  9
$DIMTIH
 70
     0
  9
$DIMTOH
 70
     0
  9
$DIMSE1
 70
     0
  9
$DIMSE2
 70
     0
  9
$DIMTAD
 70
     1
  9
$DIMZIN
 70
     0
  9
$DIMBLK
  1

  9
$DIMASO
 70
     1
  9
$DIMSHO
 70
     1
  9
$DIMPOST
  1

  9
$DIMAPOST
  1

  9
$DIMALT
 70
     0
  9
$DIMALTD
 70
     2
  9
$DIMALTF
 40
25.4
  9
$DIMLFAC
 40
1.0
  9
$DIMTOFL
 70
     0
  9
$DIMTVP
 40
0.0
  9
$DIMTIX
 70
     0
  9
$DIMSOXD
 70
     0
  9
$DIMSAH
 70
     0
  9
$DIMBLK1
  1

  9
$DIMBLK2
  1

  9
$DIMSTYLE
  2
STANDARD
  9
$DIMCLRD
 70
     0
  9
$DIMCLRE
 70
     0
  9
$DIMCLRT
 70
     0
  9
$DIMTFAC
 40
1.0
  9
$DIMGAP
 40
0.5
  9
$LUNITS
 70
     2
  9
$LUPREC
 70
     4
  9
$AXISMODE
 70
     0
  9
$AXISUNIT
 10
0.0
 20
0.0
  9
$SKETCHINC
 40
0.1
  9
$FILLETRAD
 40
0.0
  9
$AUNITS
 70
     0
  9
$AUPREC
 70
     0
  9
$MENU
  1
acad
  9
$ELEVATION
 40
0.0
  9
$PELEVATION
 40
0.0
  9
$THICKNESS
 40
0.0
  9
$LIMCHECK
 70
     0
  9
$BLIPMODE
 70
     1
  9
$CHAMFERA
 40
0.0
  9
$CHAMFERB
 40
0.0
  9
$SKPOLY
 70
     0
  9
$TDCREATE
 40
2456442.000000000
  9
$TDUPDATE
 40
0.000000000
  9
$TDINDWG
 40
0.0000000000
  9
$TDUSRTIMER
 40
0.0000000000
  9
$USRTIMER
 70
     1
  9
$ANGBASE
 50
0.0
  9
$ANGDIR
 70
     0
  9
$PDMODE
 70
     0
  9
$PDSIZE
 40
0.0
  9
$PLINEWID
 40
0.0
  9
$COORDS
 70
     0
  9
$SPLFRAME
 70
     0
  9
$SPLINETYPE
 70
     6
  9
$SPLINESEGS
 70
     8
  9
$ATTDIA
 70
     0
  9
$ATTREQ
 70
     1
  9
$HANDLING
 70
     1
  9
$HANDSEED
  5
F27
  9
$SURFTAB1
 70
     6
  9
$SURFTAB2
 70
     6
  9
$SURFTYPE
 70
     6
  9
$SURFU
 70
     6
  9
$SURFV
 70
     6
  9
$UCSNAME
  2

  9
$UCSORG
 10
0.0
 20
0.0
 30
0.0
  9
$UCSXDIR
 10
1.0
 20
0.0
 30
0.0
  9
$UCSYDIR
 10
0.0
 20
1.0
 30
0.0
  9
$PUCSNAME
  2

  9
$PUCSORG
 10
0.0
 20
0.0
 30
0.0
  9
$PUCSXDIR
 10
1.0
 20
0.0
 30
0.0
  9
$PUCSYDIR
 10
0.0
 20
1.0
 30
0.0
  9
$USERI1
 70
     0
  9
$USERI2
 70
     0
  9
$USERI3
 70
     0
  9
$USERI4
 70
     0
  9
$USERI5
 70
     0
  9
$USERR1
 40
0.0
  9
$USERR2
 40
0.0
  9
$USERR3
 40
0.0
  9
$USERR4
 40
0.0
  9
$USERR5
 40
0.0
  9
$WORLDVIEW
 70
     1
  9
$SHADEDGE
 70
     3
  9
$SHADEDIF
 70
    70
  9
$TILEMODE
 70
     1
  9
$MAXACTVP
 70
    16
  9
$PINSBASE
 10
0.0
 20
0.0
 30
0.0
  9
$PLIMCHECK
 70
     0
  9
$PEXTMIN
 10
1.000000E+20
 20
1.000000E+20
 30
1.000000E+20
  9
$PEXTMAX
 10
-1.000000E+20
 20
-1.000000E+20
 30
-1.000000E+20
  9
$PLIMMIN
 10
0.0
 20
0.0
  9
$PLIMMAX
 10
12.0
 20
9.0
  9
$UNITMODE
 70
     0
  9
$VISRETAIN
 70
     0
  9
$PLINEGEN
 70
     1
  9
$PSLTSCALE
 70
     0
  9
$TREEDEPTH
 70
  3020
  0
ENDSEC
  0
SECTION
  2
TABLES
  0
TABLE
  2
VPORT
 70
     1
  0
VPORT
  2
*ACTIVE
 70
     0
 10
0.0
 20
0.0
 11
1.0
 21
1.0
 12
0.0
 22
0.0
 13
0.0
 23
0.0
 14
1.0
 24
1.0
 15
0.0
 25
0.0
 16
0.0
 26
0.0
 36
1.0
 17
0.0
 27
0.0
 37
0.0
 40
1188.0
 41
1.415825
 42
50.0
 43
0.0
 44
0.0
 50
0.0
 51
0.0
 71
     0
 72
   500
 73
     1
 74
     1
 75
     0
 76
     0
 77
     0
 78
     0
  0
ENDTAB
  0
TABLE
  2
LTYPE
 70
     7
  0
LTYPE
  2
CONTINUOUS
 70
     0
  3
Solid line
 72
    65
 73
     0
 40
0.0
  0
LTYPE
  2
DASHED
 70
     0
  3
__ __ __ __ __ __ __ __ __ __ __ __ __ __ __
 72
    65
 73
     2
 40
2.0
 49
1.2
 49
-0.8
  0
LTYPE
  2
CENTER
 70
     0
  3
____ _ ____ _ ____ _ ____ _ ____ _ ____ _ ____
 72
    65
 73
     4
 40
12.0
 49
9.0
 49
-1.0
 49
1.0
 49
-1.0
  0
LTYPE
  2
HIDDEN
 70
     0
  3
_ _ _ _ _ _ _ _ _ _ _ _ _ _ _ _ _ _ _ _ _ _ _
 72
    65
 73
     2
 40
3.2
 49
2.4
 49
-0.8
  0
LTYPE
  2
PHANTOM
 70
     0
  3
_____ _ _ _____ _ _ _____ _ _ _____ _ _ _____
 72
    65
 73
     6
 40
13.5
 49
9.0
 49
-1.0
 49
1.0
 49
-0.5
 49
1.0
 49
-1.0
  0
LTYPE
  2
DOT
 70
     0
  3
...............................................
 72
    65
 73
     2
 40
1.0
 49
0.5
 49
-0.5
  0
LTYPE
  2
DASHDOT
 70
     0
  3
__ . __ . __ . __ . __ . __ . __ . __ . __ . __
 72
    65
 73
     4
 40
8.0
 49
5.0
 49
-1.0
 49
1.0
 49
-1.0
  0
ENDTAB
  0
TABLE
  2
LAYER
 70
     5
  0
LAYER
  2
0
 70
     0
 62
     7
  6
CONTINUOUS
  0
LAYER
  2
1
 70
     0
 62
     7
  6
CONTINUOUS
  0
LAYER
  2
2
 70
     0
 62
     7
  6
CONTINUOUS
  0
LAYER
  2
3
 70
     0
 62
     7
  6
CONTINUOUS
  0
LAYER
  2
5
 70
     0
 62
     7
  6
CONTINUOUS
  0
ENDTAB
  0
TABLE
  2
STYLE
 70
     1
  0
STYLE
  2
STANDARD
 70
    64
 40
0.0
 41
1.0
 50
0.0
 71
     0
 42
1.0
  3
txt
  4
BIGFONT
  0
ENDTAB
  0
TABLE
  2
VIEW
 70
     0
  0
ENDTAB
  0
TABLE
  2
UCS
 70
     0
  0
ENDTAB
  0
TABLE
  2
APPID
 70
     1
  0
APPID
  2
ACAD
 70
     0
  0
ENDTAB
  0
TABLE
  2
DIMSTYLE
 70
     1
  0
DIMSTYLE
  2
STANDARD
 70
     0
  3

  4

  5

  6

  7

 40
2.0
 41
2.0
 42
1.0
 43
0.38
 44
2.0
 45
0.0
 46
0.0
 47
0.0
 48
0.0
 71
     0
 72
     0
 73
     0
 74
     0
 75
     0
 76
     0
 77
     1
 78
     0
140
3.5
141
0.09
142
0.0
143
25.4
144
1.0
145
0.0
146
1.0
147
0.5
170
     0
171
     2
172
     0
173
     0
174
     0
175
     0
176
     0
177
     0
178
     0
  0
ENDTAB
  0
ENDSEC
  0
SECTION
  2
BLOCKS
  0
BLOCK
  8
3
  5
BF4
  2
*D0
 70
     1
 10
0.0
 20
0.0
 30
0.0
  3
*D0
  0
LINE
  8
3
 62
     2
  5
BF5
 10
54.307551
 20
87.670552
 30
0.0
 11
54.307551
 21
0.762348
 31
0.0
  0
LINE
  8
3
 62
     2
  5
BF6
 10
54.307551
 20
2.762348
 30
0.0
 11
58.171254
 21
1.727072
 31
0.0
  0
LINE
  8
3
 62
     2
  5
BF7
 10
54.307551
 20
2.762348
 30
0.0
 11
58.171254
 21
3.797624
 31
0.0
  0
LINE
  8
3
 62
     2
  5
BF8
 10
58.171254
 20
1.727072
 30
0.0
 11
58.171254
 21
3.797624
 31
0.0
  0
LINE
  8
3
 62
     2
  5
BF9
 10
54.307551
 20
2.762348
 30
0.0
 11
175.898505
 21
2.762348
 31
0.0
  0
LINE
  8
3
 62
     2
  5
BFA
 10
175.898505
 20
2.762348
 30
0.0
 11
172.034802
 21
3.797624
 31
0.0
  0
LINE
  8
3
 62
     2
  5
BFB
 10
175.898505
 20
2.762348
 30
0.0
 11
172.034802
 21
1.727072
 31
0.0
  0
LINE
  8
3
 62
     2
  5
BFC
 10
172.034802
 20
3.797624
 30
0.0
 11
172.034802
 21
1.727072
 31
0.0
  0
ENDBLK
  8
3
  5
BFD
  0
BLOCK
  8
3
  5
BFE
  2
*D1
 70
     1
 10
0.0
 20
0.0
 30
0.0
  3
*D1
  0
LINE
  8
3
 62
     2
  5
BFF
 10
151.898505
 20
12.781398
 30
0.0
 11
23.093758
 21
12.781398
 31
0.0
  0
LINE
  8
3
 62
     2
  5
C00
 10
25.093758
 20
12.781398
 30
0.0
 11
26.129034
 21
16.645101
 31
0.0
  0
LINE
  8
3
 62
     2
  5
C01
 10
25.093758
 20
12.781398
 30
0.0
 11
24.058481
 21
16.645101
 31
0.0
  0
LINE
  8
3
 62
     2
  5
C02
 10
26.129034
 20
16.645101
 30
0.0
 11
24.058481
 21
16.645101
 31
0.0
  0
LINE
  8
3
 62
     2
  5
C03
 10
25.093758
 20
12.781398
 30
0.0
 11
25.093758
 21
89.670552
 31
0.0
  0
LINE
  8
3
 62
     2
  5
C04
 10
25.093758
 20
89.670552
 30
0.0
 11
24.058481
 21
85.806849
 31
0.0
  0
LINE
  8
3
 62
     2
  5
C05
 10
25.093758
 20
89.670552
 30
0.0
 11
26.129034
 21
85.806849
 31
0.0
  0
LINE
  8
3
 62
     2
  5
C06
 10
24.058481
 20
85.806849
 30
0.0
 11
26.129034
 21
85.806849
 31
0.0
  0
LINE
  8
3
 62
     2
  5
C07
 10
52.307551
 20
89.670552
 30
0.0
 11
23.093758
 21
89.670552
 31
0.0
  0
ENDBLK
  8
3
  5
C08
  0
BLOCK
  8
3
  5
C09
  2
*D2
 70
     1
 10
0.0
 20
0.0
 30
0.0
  3
*D2
  0
TEXT
  8
3
 62
     2
  5
C0A
 10
32.438901
 20
39.539823
 30
0.0
 40
7.0
  1
２５゜
 50
347.5
 72
     5
 11
51.574303
 21
35.297606
 31
0.0
  0
LINE
  8
3
 62
     2
  5
C0B
 10
51.025124
 20
82.631365
 30
0.0
 11
30.355376
 21
38.304948
 31
0.0
  0
LINE
  8
3
 62
     2
  5
C0C
 10
54.307551
 20
87.670552
 30
0.0
 11
54.307551
 21
32.994879
 31
0.0
  0
LINE
  8
3
 62
     2
  5
C0D
 10
31.200613
 20
40.117564
 30
0.0
 11
34.353724
 21
37.656285
 31
0.0
  0
LINE
  8
3
 62
     2
  5
C0E
 10
31.200613
 20
40.117564
 30
0.0
 11
35.161926
 21
39.562589
 31
0.0
  0
LINE
  8
3
 62
     2
  5
C0F
 10
34.353724
 20
37.656285
 30
0.0
 11
35.161926
 21
39.562589
 31
0.0
  0
LINE
  8
3
 62
     2
  5
C10
 10
54.307551
 20
34.994879
 30
0.0
 11
50.482839
 21
36.166025
 31
0.0
  0
LINE
  8
3
 62
     2
  5
C11
 10
54.307551
 20
34.994879
 30
0.0
 11
50.409681
 21
34.096765
 31
0.0
  0
LINE
  8
3
 62
     2
  5
C12
 10
50.482839
 20
36.166025
 30
0.0
 11
50.409681
 21
34.096765
 31
0.0
  0
ARC
  8
3
 62
     2
  5
C13
 10
54.307551
 20
89.670552
 30
0.0
 40
54.675673
 50
245.0
 51
270.0
  0
ENDBLK
  8
3
  5
C14
  0
BLOCK
  8
3
  5
C15
  2
*D3
 70
     1
 10
0.0
 20
0.0
 30
0.0
  3
*D3
  0
LINE
  8
3
 62
     2
  5
C16
 10
150.398505
 20
12.781398
 30
0.0
 11
9.528389
 21
12.781398
 31
0.0
  0
LINE
  8
3
 62
     2
  5
C17
 10
11.528389
 20
12.781398
 30
0.0
 11
12.563665
 21
16.645101
 31
0.0
  0
LINE
  8
3
 62
     2
  5
C18
 10
11.528389
 20
12.781398
 30
0.0
 11
10.493113
 21
16.645101
 31
0.0
  0
LINE
  8
3
 62
     2
  5
C19
 10
12.563665
 20
16.645101
 30
0.0
 11
10.493113
 21
16.645101
 31
0.0
  0
LINE
  8
3
 62
     2
  5
C1A
 10
11.528389
 20
12.781398
 30
0.0
 11
11.528389
 21
162.981398
 31
0.0
  0
LINE
  8
3
 62
     2
  5
C1B
 10
11.528389
 20
162.981398
 30
0.0
 11
10.493113
 21
159.117695
 31
0.0
  0
LINE
  8
3
 62
     2
  5
C1C
 10
11.528389
 20
162.981398
 30
0.0
 11
12.563665
 21
159.117695
 31
0.0
  0
LINE
  8
3
 62
     2
  5
C1D
 10
10.493113
 20
159.117695
 30
0.0
 11
12.563665
 21
159.117695
 31
0.0
  0
LINE
  8
3
 62
     2
  5
C1E
 10
173.898505
 20
162.981398
 30
0.0
 11
9.528389
 21
162.981398
 31
0.0
  0
ENDBLK
  8
3
  5
C1F
  0
BLOCK
  8
3
  5
C20
  2
*D4
 70
     1
 10
0.0
 20
0.0
 30
0.0
  3
*D4
  0
LINE
  8
3
 62
     2
  5
C21
 10
149.598505
 20
12.781398
 30
0.0
 11
-4.325867
 21
12.781398
 31
0.0
  0
LINE
  8
3
 62
     2
  5
C22
 10
-2.325867
 20
12.781398
 30
0.0
 11
-1.290591
 21
16.645101
 31
0.0
  0
LINE
  8
3
 62
     2
  5
C23
 10
-2.325867
 20
12.781398
 30
0.0
 11
-3.361143
 21
16.645101
 31
0.0
  0
LINE
  8
3
 62
     2
  5
C24
 10
-1.290591
 20
16.645101
 30
0.0
 11
-3.361143
 21
16.645101
 31
0.0
  0
LINE
  8
3
 62
     2
  5
C25
 10
-2.325867
 20
12.781398
 30
0.0
 11
-2.325867
 21
193.202183
 31
0.0
  0
LINE
  8
3
 62
     2
  5
C26
 10
-2.325867
 20
193.202183
 30
0.0
 11
-3.361143
 21
189.33848
 31
0.0
  0
LINE
  8
3
 62
     2
  5
C27
 10
-2.325867
 20
193.202183
 30
0.0
 11
-1.290591
 21
189.33848
 31
0.0
  0
LINE
  8
3
 62
     2
  5
C28
 10
-3.361143
 20
189.33848
 30
0.0
 11
-1.290591
 21
189.33848
 31
0.0
  0
LINE
  8
3
 62
     2
  5
C29
 10
106.793872
 20
193.202183
 30
0.0
 11
-4.325867
 21
193.202183
 31
0.0
  0
ENDBLK
  8
3
  5
C2A
  0
BLOCK
  8
3
  5
C2B
  2
*D5
 70
     1
 10
0.0
 20
0.0
 30
0.0
  3
*D5
  0
TEXT
  8
3
 62
     2
  5
C2C
 10
75.241097
 20
172.196663
 30
0.0
 40
7.0
  1
２５゜
 50
77.5
 72
     5
 11
79.483314
 21
191.332065
 31
0.0
  0
LINE
  8
3
 62
     2
  5
C2D
 10
107.434411
 20
193.83611
 30
0.0
 11
84.033845
 21
204.747974
 31
0.0
  0
LINE
  8
3
 62
     2
  5
C2E
 10
89.398505
 20
159.481398
 30
0.0
 11
73.998486
 21
159.481398
 31
0.0
  0
LINE
  8
3
 62
     2
  5
C2F
 10
85.84646
 20
203.902737
 30
0.0
 11
83.332062
 21
200.791821
 31
0.0
  0
LINE
  8
3
 62
     2
  5
C30
 10
85.84646
 20
203.902737
 30
0.0
 11
85.224385
 21
199.951405
 31
0.0
  0
LINE
  8
3
 62
     2
  5
C31
 10
83.332062
 20
200.791821
 30
0.0
 11
85.224385
 21
199.951405
 31
0.0
  0
LINE
  8
3
 62
     2
  5
C32
 10
75.998486
 20
159.481398
 30
0.0
 11
77.1046
 21
163.325421
 31
0.0
  0
LINE
  8
3
 62
     2
  5
C33
 10
75.998486
 20
159.481398
 30
0.0
 11
75.034397
 21
163.363476
 31
0.0
  0
LINE
  8
3
 62
     2
  5
C34
 10
77.1046
 20
163.325421
 30
0.0
 11
75.034397
 21
163.363476
 31
0.0
  0
ARC
  8
3
 62
     2
  5
C35
 10
181.10833
 20
159.481398
 30
0.0
 40
105.109844
 50
155.0
 51
180.0
  0
ENDBLK
  8
3
  5
C36
  0
BLOCK
  8
3
  5
C37
  2
*D6
 70
     1
 10
0.0
 20
0.0
 30
0.0
  3
*D6
  0
LINE
  8
3
 62
     2
  5
C38
 10
108.265361
 20
-175.126515
 30
0.0
 11
23.093758
 21
-175.126515
 31
0.0
  0
LINE
  8
3
 62
     2
  5
C39
 10
25.093758
 20
-175.126515
 30
0.0
 11
26.129034
 21
-171.262812
 31
0.0
  0
LINE
  8
3
 62
     2
  5
C3A
 10
25.093758
 20
-175.126515
 30
0.0
 11
24.058481
 21
-171.262812
 31
0.0
  0
LINE
  8
3
 62
     2
  5
C3B
 10
26.129034
 20
-171.262812
 30
0.0
 11
24.058481
 21
-171.262812
 31
0.0
  0
LINE
  8
3
 62
     2
  5
C3C
 10
25.093758
 20
-175.126515
 30
0.0
 11
25.093758
 21
12.781398
 31
0.0
  0
LINE
  8
3
 62
     2
  5
C3D
 10
25.093758
 20
12.781398
 30
0.0
 11
24.058481
 21
8.917695
 31
0.0
  0
LINE
  8
3
 62
     2
  5
C3E
 10
25.093758
 20
12.781398
 30
0.0
 11
26.129034
 21
8.917695
 31
0.0
  0
LINE
  8
3
 62
     2
  5
C3F
 10
24.058481
 20
8.917695
 30
0.0
 11
26.129034
 21
8.917695
 31
0.0
  0
LINE
  8
3
 62
     2
  5
C40
 10
149.598505
 20
12.781398
 30
0.0
 11
23.093758
 21
12.781398
 31
0.0
  0
ENDBLK
  8
3
  5
C41
  0
BLOCK
  8
3
  5
C42
  2
*D7
 70
     1
 10
0.0
 20
0.0
 30
0.0
  3
*D7
  0
LINE
  8
3
 62
     2
  5
C43
 10
-166.138101
 20
-3.518494
 30
0.0
 11
-196.280182
 21
-3.518494
 31
0.0
  0
LINE
  8
3
 62
     2
  5
C44
 10
-194.280182
 20
-3.518494
 30
0.0
 11
-195.315458
 21
-7.382198
 31
0.0
  0
LINE
  8
3
 62
     2
  5
C45
 10
-194.280182
 20
-3.518494
 30
0.0
 11
-193.244906
 21
-7.382198
 31
0.0
  0
LINE
  8
3
 62
     2
  5
C46
 10
-195.315458
 20
-7.382198
 30
0.0
 11
-193.244906
 21
-7.382198
 31
0.0
  0
LINE
  8
3
 62
     2
  5
C47
 10
-194.280182
 20
-13.518494
 30
0.0
 11
-194.280182
 21
83.781506
 31
0.0
  0
LINE
  8
3
 62
     2
  5
C48
 10
-194.280182
 20
12.781506
 30
0.0
 11
-193.244906
 21
16.645209
 31
0.0
  0
LINE
  8
3
 62
     2
  5
C49
 10
-194.280182
 20
12.781506
 30
0.0
 11
-195.315458
 21
16.645209
 31
0.0
  0
LINE
  8
3
 62
     2
  5
C4A
 10
-193.244906
 20
16.645209
 30
0.0
 11
-195.315458
 21
16.645209
 31
0.0
  0
LINE
  8
3
 62
     2
  5
C4B
 10
-165.386101
 20
12.781506
 30
0.0
 11
-196.280182
 21
12.781506
 31
0.0
  0
ENDBLK
  8
3
  5
C4C
  0
BLOCK
  8
3
  5
C4D
  2
*D8
 70
     1
 10
0.0
 20
0.0
 30
0.0
  3
*D8
  0
TEXT
  8
3
 62
     2
  5
C4E
 10
-149.586101
 20
179.042847
 30
0.0
 40
7.0
  1
φ５２
 72
     5
 11
-129.986101
 21
179.042847
 31
0.0
  0
LINE
  8
3
 62
     2
  5
C4F
 10
-113.086101
 20
163.354752
 30
0.0
 11
-113.086101
 21
180.042847
 31
0.0
  0
LINE
  8
3
 62
     2
  5
C50
 10
-113.086101
 20
178.042847
 30
0.0
 11
-116.949804
 21
179.078123
 31
0.0
  0
LINE
  8
3
 62
     2
  5
C51
 10
-113.086101
 20
178.042847
 30
0.0
 11
-116.949804
 21
177.007571
 31
0.0
  0
LINE
  8
3
 62
     2
  5
C52
 10
-116.949804
 20
179.078123
 30
0.0
 11
-116.949804
 21
177.007571
 31
0.0
  0
LINE
  8
3
 62
     2
  5
C53
 10
-113.086101
 20
178.042847
 30
0.0
 11
-165.086101
 21
178.042847
 31
0.0
  0
LINE
  8
3
 62
     2
  5
C54
 10
-165.086101
 20
178.042847
 30
0.0
 11
-161.222397
 21
177.007571
 31
0.0
  0
LINE
  8
3
 62
     2
  5
C55
 10
-165.086101
 20
178.042847
 30
0.0
 11
-161.222397
 21
179.078123
 31
0.0
  0
LINE
  8
3
 62
     2
  5
C56
 10
-161.222397
 20
177.007571
 30
0.0
 11
-161.222397
 21
179.078123
 31
0.0
  0
LINE
  8
3
 62
     2
  5
C57
 10
-165.086101
 20
163.354752
 30
0.0
 11
-165.086101
 21
180.042847
 31
0.0
  0
ENDBLK
  8
3
  5
C58
  0
BLOCK
  8
3
  5
C59
  2
*D9
 70
     1
 10
0.0
 20
0.0
 30
0.0
  3
*D9
  0
TEXT
  8
3
 62
     2
  5
C5A
 10
-295.000336
 20
67.62713
 30
0.0
 40
7.0
  1
３０゜
 72
     5
 11
-275.400336
 21
67.62713
 31
0.0
  0
LINE
  8
3
 62
     2
  5
C5B
 10
-320.339793
 20
83.272446
 30
0.0
 11
-323.944356
 21
69.820034
 31
0.0
  0
LINE
  8
3
 62
     2
  5
C5C
 10
-248.660879
 20
83.272446
 30
0.0
 11
-245.056315
 21
69.820034
 31
0.0
  0
LINE
  8
3
 62
     2
  5
C5D
 10
-323.426718
 20
71.751885
 30
0.0
 11
-319.937213
 21
69.796546
 31
0.0
  0
LINE
  8
3
 62
     2
  5
C5E
 10
-323.426718
 20
71.751885
 30
0.0
 11
-319.427048
 21
71.803264
 31
0.0
  0
LINE
  8
3
 62
     2
  5
C5F
 10
-319.937213
 20
69.796546
 30
0.0
 11
-319.427048
 21
71.803264
 31
0.0
  0
LINE
  8
3
 62
     2
  5
C60
 10
-245.573954
 20
71.751885
 30
0.0
 11
-249.573624
 21
71.803264
 31
0.0
  0
LINE
  8
3
 62
     2
  5
C61
 10
-245.573954
 20
71.751885
 30
0.0
 11
-249.063459
 21
69.796546
 31
0.0
  0
LINE
  8
3
 62
     2
  5
C62
 10
-249.573624
 20
71.803264
 30
0.0
 11
-249.063459
 21
69.796546
 31
0.0
  0
ARC
  8
3
 62
     2
  5
C63
 10
-284.500336
 20
217.027122
 30
0.0
 40
150.399992
 50
255.0
 51
285.0
  0
ENDBLK
  8
3
  5
C64
  0
BLOCK
  8
3
  5
C65
  2
*D10
 70
     1
 10
0.0
 20
0.0
 30
0.0
  3
*D10
  0
TEXT
  8
3
 62
     2
  5
C66
 10
-270.096791
 20
122.703476
 30
0.0
 40
7.0
  1
３０゜
 50
15.0
 72
     5
 11
-251.164645
 21
127.776329
 31
0.0
  0
LINE
  8
3
 62
     2
  5
C67
 10
-284.500336
 20
123.044974
 30
0.0
 11
-284.500336
 21
120.189564
 31
0.0
  0
LINE
  8
3
 62
     2
  5
C68
 10
-239.377691
 20
138.872409
 30
0.0
 11
-236.081557
 21
133.163337
 31
0.0
  0
LINE
  8
3
 62
     2
  5
C69
 10
-284.500336
 20
122.189564
 30
0.0
 11
-280.616345
 21
121.233207
 31
0.0
  0
LINE
  8
3
 62
     2
  5
C6A
 10
-284.500336
 20
122.189564
 30
0.0
 11
-280.658523
 21
123.30333
 31
0.0
  0
LINE
  8
3
 62
     2
  5
C6B
 10
-280.616345
 20
121.233207
 30
0.0
 11
-280.658523
 21
123.30333
 31
0.0
  0
LINE
  8
3
 62
     2
  5
C6C
 10
-237.081557
 20
134.895388
 30
0.0
 11
-240.965547
 21
133.939031
 31
0.0
  0
LINE
  8
3
 62
     2
  5
C6D
 10
-237.081557
 20
134.895388
 30
0.0
 11
-239.967013
 21
132.125163
 31
0.0
  0
LINE
  8
3
 62
     2
  5
C6E
 10
-240.965547
 20
133.939031
 30
0.0
 11
-239.967013
 21
132.125163
 31
0.0
  0
ARC
  8
3
 62
     2
  5
C6F
 10
-284.500336
 20
217.027122
 30
0.0
 40
94.837557
 50
270.0
 51
300.0
  0
ENDBLK
  8
3
  5
C70
  0
BLOCK
  8
3
  5
C71
  2
*D11
 70
     1
 10
0.0
 20
0.0
 30
0.0
  3
*D11
  0
TEXT
  8
3
 62
     2
  5
C72
 10
-341.017054
 20
140.137294
 30
0.0
 40
7.0
  1
６０゜
 50
330.0
 72
     5
 11
-324.042956
 21
130.337294
 31
0.0
  0
LINE
  8
3
 62
     2
  5
C73
 10
-308.749047
 20
203.027122
 30
0.0
 11
-368.372214
 21
168.60367
 31
0.0
  0
LINE
  8
3
 62
     2
  5
C74
 10
-284.500336
 20
123.010482
 30
0.0
 11
-284.500336
 21
120.180219
 31
0.0
  0
LINE
  8
3
 62
     2
  5
C75
 10
-366.640163
 20
169.60367
 30
0.0
 11
-365.526405
 21
165.761855
 31
0.0
  0
LINE
  8
3
 62
     2
  5
C76
 10
-366.640163
 20
169.60367
 30
0.0
 11
-363.754713
 21
166.83344
 31
0.0
  0
LINE
  8
3
 62
     2
  5
C77
 10
-365.526405
 20
165.761855
 30
0.0
 11
-363.754713
 21
166.83344
 31
0.0
  0
LINE
  8
3
 62
     2
  5
C78
 10
-284.500336
 20
122.180219
 30
0.0
 11
-288.342151
 21
123.293977
 31
0.0
  0
LINE
  8
3
 62
     2
  5
C79
 10
-284.500336
 20
122.180219
 30
0.0
 11
-288.384324
 21
121.223854
 31
0.0
  0
LINE
  8
3
 62
     2
  5
C7A
 10
-288.342151
 20
123.293977
 30
0.0
 11
-288.384324
 21
121.223854
 31
0.0
  0
ARC
  8
3
 62
     2
  5
C7B
 10
-284.500336
 20
217.027122
 30
0.0
 40
94.846903
 50
210.0
 51
270.0
  0
ENDBLK
  8
3
  5
C7C
  0
BLOCK
  8
3
  5
C7D
  2
*D12
 70
     1
 10
0.0
 20
0.0
 30
0.0
  3
*D12
  0
LINE
  8
3
 62
     2
  5
C7E
 10
-165.138769
 20
-9.518494
 30
0.0
 11
-165.138769
 21
-27.392973
 31
0.0
  0
LINE
  8
3
 62
     2
  5
C7F
 10
-165.138769
 20
-25.392973
 30
0.0
 11
-169.002472
 21
-24.357697
 31
0.0
  0
LINE
  8
3
 62
     2
  5
C80
 10
-165.138769
 20
-25.392973
 30
0.0
 11
-169.002472
 21
-26.428249
 31
0.0
  0
LINE
  8
3
 62
     2
  5
C81
 10
-169.002472
 20
-24.357697
 30
0.0
 11
-169.002472
 21
-26.428249
 31
0.0
  0
LINE
  8
3
 62
     2
  5
C82
 10
-194.138769
 20
-25.392973
 30
0.0
 11
-103.138769
 21
-25.392973
 31
0.0
  0
LINE
  8
3
 62
     2
  5
C83
 10
-113.138769
 20
-25.392973
 30
0.0
 11
-109.275066
 21
-26.428249
 31
0.0
  0
LINE
  8
3
 62
     2
  5
C84
 10
-113.138769
 20
-25.392973
 30
0.0
 11
-109.275066
 21
-24.357697
 31
0.0
  0
LINE
  8
3
 62
     2
  5
C85
 10
-109.275066
 20
-26.428249
 30
0.0
 11
-109.275066
 21
-24.357697
 31
0.0
  0
LINE
  8
3
 62
     2
  5
C86
 10
-113.138769
 20
-9.518494
 30
0.0
 11
-113.138769
 21
-27.392973
 31
0.0
  0
ENDBLK
  8
3
  5
C87
  0
BLOCK
  8
3
  5
C88
  2
*D13
 70
     1
 10
0.0
 20
0.0
 30
0.0
  3
*D13
  0
LINE
  8
3
 62
     2
  5
C89
 10
269.776547
 20
-127.444551
 30
0.0
 11
303.844099
 21
-127.444551
 31
0.0
  0
LINE
  8
3
 62
     2
  5
C8A
 10
301.844099
 20
-127.444551
 30
0.0
 11
302.879375
 21
-123.580848
 31
0.0
  0
LINE
  8
3
 62
     2
  5
C8B
 10
301.844099
 20
-127.444551
 30
0.0
 11
300.808823
 21
-123.580848
 31
0.0
  0
LINE
  8
3
 62
     2
  5
C8C
 10
302.879375
 20
-123.580848
 30
0.0
 11
300.808823
 21
-123.580848
 31
0.0
  0
LINE
  8
3
 62
     2
  5
C8D
 10
301.844099
 20
-127.444551
 30
0.0
 11
301.844099
 21
12.781398
 31
0.0
  0
LINE
  8
3
 62
     2
  5
C8E
 10
301.844099
 20
12.781398
 30
0.0
 11
300.808823
 21
8.917695
 31
0.0
  0
LINE
  8
3
 62
     2
  5
C8F
 10
301.844099
 20
12.781398
 30
0.0
 11
302.879375
 21
8.917695
 31
0.0
  0
LINE
  8
3
 62
     2
  5
C90
 10
300.808823
 20
8.917695
 30
0.0
 11
302.879375
 21
8.917695
 31
0.0
  0
LINE
  8
3
 62
     2
  5
C91
 10
201.398505
 20
12.781398
 30
0.0
 11
303.844099
 21
12.781398
 31
0.0
  0
ENDBLK
  8
3
  5
C92
  0
ENDSEC
  0
SECTION
  2
ENTITIES
  0
LINE
  8
1
 62
     3
  5
33
 10
-373.02157
 20
275.028767
 30
0.0
 11
394.982385
 21
275.028767
 31
0.0
  0
LINE
  8
1
 62
     3
  5
34
 10
-373.02157
 20
275.028767
 30
0.0
 11
-373.02157
 21
-277.971881
 31
0.0
  0
LINE
  8
1
 62
     3
  5
35
 10
-373.02157
 20
-277.971881
 30
0.0
 11
394.982385
 21
-277.971881
 31
0.0
  0
LINE
  8
1
 62
     3
  5
36
 10
394.982385
 20
-277.971881
 30
0.0
 11
394.982385
 21
275.028767
 31
0.0
  0
TEXT
  8
1
  5
37
 10
359.628442
 20
-226.252857
 30
0.0
 40
6.0
  1
設計
 72
     5
 11
370.428442
 21
-226.252857
 31
0.0
  0
TEXT
  8
1
  5
38
 10
379.127478
 20
-226.099658
 30
0.0
 40
6.0
  1
製図
 72
     5
 11
389.927478
 21
-226.099658
 31
0.0
  0
TEXT
  8
1
  5
39
 10
319.005745
 20
-226.252857
 30
0.0
 40
6.0
  1
承認
 72
     5
 11
329.805745
 21
-226.252857
 31
0.0
  0
TEXT
  8
1
  5
3A
 10
338.989679
 20
-226.19802
 30
0.0
 40
6.0
  1
検図
 72
     5
 11
349.789679
 21
-226.19802
 31
0.0
  0
LINE
  8
1
 62
     2
  5
3B
 10
284.982385
 20
-227.971881
 30
0.0
 11
394.982385
 21
-227.971881
 31
0.0
  0
LINE
  8
1
 62
     2
  5
3C
 10
342.482385
 20
-245.971881
 30
0.0
 11
342.482385
 21
-259.971881
 31
0.0
  0
TEXT
  8
1
  5
3D
 10
319.55159
 20
-256.012528
 30
0.0
 40
6.0
  1
日　付
 72
     5
 11
336.35159
 21
-256.012528
 31
0.0
  0
LINE
  8
1
  5
3E
 10
40.982385
 20
-259.971881
 30
0.0
 11
394.982385
 21
-259.971881
 31
0.0
  0
TEXT
  8
1
  5
3F
 10
287.775011
 20
-256.322406
 30
0.0
 40
6.0
  1
第三角法
 72
     5
 11
310.575011
 21
-256.322406
 31
0.0
  0
TEXT
  8
1
  5
40
 10
291.087419
 20
-225.99802
 30
0.0
 40
6.0
  1
尺　度
 72
     5
 11
307.887419
 21
-225.99802
 31
0.0
  0
LINE
  8
1
 62
     3
  5
41
 10
40.982385
 20
-217.971881
 30
0.0
 11
394.982385
 21
-217.971881
 31
0.0
  0
LINE
  8
1
  5
42
 10
211.982385
 20
-217.971881
 30
0.0
 11
211.982385
 21
-277.971881
 31
0.0
  0
LINE
  8
1
 62
     2
  5
43
 10
374.982385
 20
-245.971881
 30
0.0
 11
374.982385
 21
-217.971881
 31
0.0
  0
LINE
  8
1
 62
     2
  5
44
 10
354.982385
 20
-245.971881
 30
0.0
 11
354.982385
 21
-217.971881
 31
0.0
  0
LINE
  8
1
 62
     2
  5
45
 10
334.982385
 20
-245.971881
 30
0.0
 11
334.982385
 21
-217.971881
 31
0.0
  0
LINE
  8
1
  5
46
 10
284.982385
 20
-277.971881
 30
0.0
 11
284.982385
 21
-217.971881
 31
0.0
  0
LINE
  8
1
  5
47
 10
189.982385
 20
-217.971881
 30
0.0
 11
189.982385
 21
-277.971881
 31
0.0
  0
LINE
  8
1
  5
48
 10
62.982385
 20
-217.971881
 30
0.0
 11
62.982385
 21
-259.971881
 31
0.0
  0
LINE
  8
1
  5
49
 10
284.982385
 20
-245.971881
 30
0.0
 11
394.982385
 21
-245.971881
 31
0.0
  0
TEXT
  8
1
  5
4A
 10
287.101129
 20
-271.880939
 30
0.0
 40
6.0
  1
コードＮｏ
 41
0.9
 72
     5
 11
313.021129
 21
-271.880939
 31
0.0
  0
TEXT
  8
1
 62
     3
  5
4B
 10
52.886774
 20
-272.875659
 30
0.0
 40
8.0
  1
ミズタニバルブ工業株式会社
 41
1.2
 72
     5
 11
175.766774
 21
-272.875659
 31
0.0
  0
LINE
  8
1
  5
4C
 10
40.982385
 20
-238.971881
 30
0.0
 11
284.982385
 21
-238.971881
 31
0.0
  0
LINE
  8
1
  5
4D
 10
115.482385
 20
-238.971881
 30
0.0
 11
115.482385
 21
-259.971881
 31
0.0
  0
LINE
  8
1
  5
4E
 10
137.482385
 20
-238.971881
 30
0.0
 11
137.482385
 21
-259.971881
 31
0.0
  0
LINE
  8
1
  5
4F
 10
314.982385
 20
-277.971881
 30
0.0
 11
314.982385
 21
-217.971881
 31
0.0
  0
TEXT
  8
1
  5
50
 10
345.098131
 20
-256.100293
 30
0.0
 40
6.0
  1
　　・　　・
 72
     5
 11
379.898131
 21
-256.100293
 31
0.0
  0
LINE
  8
1
 62
     3
  5
51
 10
40.982385
 20
-217.971881
 30
0.0
 11
40.982385
 21
-277.971881
 31
0.0
  0
TEXT
  8
1
  5
52
 10
290.832582
 20
-240.013492
 30
0.0
 40
6.0
  1
　／ 
 72
     5
 11
301.632582
 21
-240.013492
 31
0.0
  0
TEXT
  8
1
  5
53
 10
193.904123
 20
-272.024909
 30
0.0
 40
6.0
  1
備 考 
 72
     5
 11
207.704123
 21
-272.024909
 31
0.0
  0
TEXT
  8
1
  5
54
 10
193.512534
 20
-230.89184
 30
0.0
 40
6.0
  1
仕 上
 72
     5
 11
207.312534
 21
-230.89184
 31
0.0
  0
TEXT
  8
1
  5
55
 10
193.447176
 20
-248.891666
 30
0.0
 40
6.0
  1
表 面
 72
     5
 11
207.247176
 21
-248.891666
 31
0.0
  0
TEXT
  8
1
  5
56
 10
193.447176
 20
-255.891666
 30
0.0
 40
6.0
  1
処 理
 72
     5
 11
207.247176
 21
-255.891666
 31
0.0
  0
TEXT
  8
1
  5
57
 10
44.79335
 20
-231.693399
 30
0.0
 40
6.0
  1
品 名
 72
     5
 11
58.59335
 21
-231.693399
 31
0.0
  0
TEXT
  8
1
  5
58
 10
44.397766
 20
-252.462534
 30
0.0
 40
6.0
  1
材 質
 72
     5
 11
58.197766
 21
-252.462534
 31
0.0
  0
TEXT
  8
1
  5
59
 10
118.897766
 20
-252.462534
 30
0.0
 40
6.0
  1
規 格
 72
     5
 11
132.697766
 21
-252.462534
 31
0.0
  0
LINE
  8
2
  5
5A
 10
151.598505
 20
12.781398
 30
0.0
 11
175.898505
 21
12.781398
 31
0.0
  0
LINE
  8
2
  5
5B
 10
151.398505
 20
13.281398
 30
0.0
 11
151.398505
 21
12.981398
 31
0.0
  0
LINE
  8
2
  5
5C
 10
151.398505
 20
12.981398
 30
0.0
 11
151.598505
 21
12.781398
 31
0.0
  0
LINE
  8
2
  5
5D
 10
200.198505
 20
12.781398
 30
0.0
 11
175.898505
 21
12.781398
 31
0.0
  0
LINE
  8
2
  5
5E
 10
200.398505
 20
13.281398
 30
0.0
 11
200.398505
 21
12.981398
 31
0.0
  0
LINE
  8
2
  5
5F
 10
200.398505
 20
12.981398
 30
0.0
 11
200.198505
 21
12.781398
 31
0.0
  0
LINE
  8
2
  5
60
 10
159.192255
 20
-29.718602
 30
0.0
 11
175.898505
 21
-29.718602
 31
0.0
  0
LINE
  8
2
  5
61
 10
158.398505
 20
-28.924602
 30
0.0
 11
159.192505
 21
-29.718602
 31
0.0
  0
LINE
  8
2
  5
62
 10
153.898505
 20
12.781398
 30
0.0
 11
158.398505
 21
12.781398
 31
0.0
  0
LINE
  8
2
  5
63
 10
193.398505
 20
-28.924602
 30
0.0
 11
192.604505
 21
-29.718602
 31
0.0
  0
LINE
  8
2
  5
64
 10
197.898505
 20
12.781398
 30
0.0
 11
193.398505
 21
12.781398
 31
0.0
  0
LINE
  8
2
  5
65
 10
175.898505
 20
-29.718602
 30
0.0
 11
186.398505
 21
-29.718602
 31
0.0
  0
LINE
  8
2
  5
66
 10
186.398505
 20
-29.718602
 30
0.0
 11
192.604755
 21
-29.718602
 31
0.0
  0
LINE
  8
2
  5
67
 10
-163.386101
 20
12.781506
 30
0.0
 11
-139.086101
 21
12.781506
 31
0.0
  0
LINE
  8
2
  5
68
 10
-163.586101
 20
13.281506
 30
0.0
 11
-163.586101
 21
12.981506
 31
0.0
  0
LINE
  8
2
  5
69
 10
-163.586101
 20
12.981506
 30
0.0
 11
-163.386101
 21
12.781506
 31
0.0
  0
LINE
  8
2
  5
6A
 10
-161.086101
 20
12.781506
 30
0.0
 11
-156.586101
 21
12.781506
 31
0.0
  0
LINE
  8
2
 62
     2
  5
6B
 10
-163.586101
 20
12.981506
 30
0.0
 11
-139.086101
 21
12.981506
 31
0.0
  0
LINE
  8
2
  5
6C
 10
-114.786101
 20
12.781506
 30
0.0
 11
-139.086101
 21
12.781506
 31
0.0
  0
LINE
  8
2
  5
6D
 10
-114.586101
 20
13.281506
 30
0.0
 11
-114.586101
 21
12.981506
 31
0.0
  0
LINE
  8
2
  5
6E
 10
-114.586101
 20
12.981506
 30
0.0
 11
-114.786101
 21
12.781506
 31
0.0
  0
LINE
  8
2
  5
6F
 10
-117.086101
 20
12.781506
 30
0.0
 11
-121.586101
 21
12.781506
 31
0.0
  0
LINE
  8
2
 62
     2
  5
70
 10
-114.586101
 20
12.981506
 30
0.0
 11
-139.086101
 21
12.981506
 31
0.0
  0
LINE
  8
2
  5
71
 10
-122.379851
 20
-29.718494
 30
0.0
 11
-139.086101
 21
-29.718494
 31
0.0
  0
LINE
  8
2
  5
72
 10
-121.586101
 20
-28.924494
 30
0.0
 11
-122.380101
 21
-29.718494
 31
0.0
  0
LINE
  8
2
 62
     2
  5
73
 10
-121.586101
 20
-28.924494
 30
0.0
 11
-139.086101
 21
-28.924494
 31
0.0
  0
LINE
  8
2
  5
74
 10
-155.792351
 20
-29.718494
 30
0.0
 11
-139.086101
 21
-29.718494
 31
0.0
  0
LINE
  8
2
  5
75
 10
-156.586101
 20
-28.924494
 30
0.0
 11
-155.792101
 21
-29.718494
 31
0.0
  0
LINE
  8
2
 62
     2
  5
76
 10
-156.586101
 20
-28.924494
 30
0.0
 11
-139.086101
 21
-28.924494
 31
0.0
  0
LINE
  8
2
  6
CENTER
 62
     2
  5
77
 10
186.398505
 20
-43.299438
 30
0.0
 11
186.398505
 21
-58.984388
 31
0.0
  0
LINE
  8
2
  5
78
 10
177.648505
 20
-100.218602
 30
0.0
 11
183.398505
 21
-100.218602
 31
0.0
  0
ARC
  8
2
  5
79
 10
183.398505
 20
-103.531102
 30
0.0
 40
3.3125
 50
90.0
 51
121.890792
  0
LINE
  8
2
  5
7A
 10
181.648505
 20
-100.718602
 30
0.0
 11
181.648505
 21
-115.218602
 31
0.0
  0
ARC
  8
2
  5
7B
 10
183.398505
 20
-112.406102
 30
0.0
 40
3.3125
 50
238.109208
 51
270.0
  0
LINE
  8
2
  5
7C
 10
179.077353
 20
-115.218602
 30
0.0
 11
181.648505
 21
-115.218602
 31
0.0
  0
LINE
  8
2
  5
7D
 10
179.077353
 20
-100.718602
 30
0.0
 11
181.648505
 21
-100.718602
 31
0.0
  0
LINE
  8
2
  5
7E
 10
179.077353
 20
-100.718602
 30
0.0
 11
179.077353
 21
-115.218602
 31
0.0
  0
ARC
  8
2
  5
7F
 10
178.202353
 20
-101.234227
 30
0.0
 40
1.015625
 50
30.510237
 51
149.489763
  0
LINE
  8
2
  5
80
 10
177.148505
 20
-100.718602
 30
0.0
 11
177.148505
 21
-115.218602
 31
0.0
  0
LINE
  8
2
  5
81
 10
177.327353
 20
-100.718602
 30
0.0
 11
177.327353
 21
-115.218602
 31
0.0
  0
LINE
  8
2
  5
82
 10
177.648505
 20
-100.218602
 30
0.0
 11
177.148505
 21
-100.718602
 31
0.0
  0
LINE
  8
2
  5
83
 10
177.148505
 20
-100.718602
 30
0.0
 11
177.327353
 21
-100.718602
 31
0.0
  0
LINE
  8
2
  5
84
 10
177.648505
 20
-115.718602
 30
0.0
 11
183.398505
 21
-115.718602
 31
0.0
  0
LINE
  8
2
  5
85
 10
177.648505
 20
-115.718602
 30
0.0
 11
177.148505
 21
-115.218602
 31
0.0
  0
LINE
  8
2
  5
86
 10
177.148505
 20
-115.218602
 30
0.0
 11
177.327353
 21
-115.218602
 31
0.0
  0
ARC
  8
2
  5
87
 10
178.202353
 20
-114.702977
 30
0.0
 40
1.015625
 50
210.510237
 51
329.489763
  0
LINE
  8
2
  5
88
 10
190.398505
 20
-29.718602
 30
0.0
 11
190.398505
 21
-46.759026
 31
0.0
  0
LINE
  8
2
  5
89
 10
182.398505
 20
-29.718602
 30
0.0
 11
182.398505
 21
-46.812881
 31
0.0
  0
LINE
  8
2
  5
8A
 10
179.398505
 20
-29.718602
 30
0.0
 11
179.398505
 21
-100.218602
 31
0.0
  0
LINE
  8
2
  5
8B
 10
-150.086101
 20
-29.718494
 30
0.0
 11
-150.086101
 21
-100.218691
 31
0.0
  0
LINE
  8
2
  5
8C
 10
-142.086101
 20
-63.565117
 30
0.0
 11
-142.086101
 21
-100.218691
 31
0.0
  0
LINE
  8
2
  5
8D
 10
-136.086101
 20
-61.314877
 30
0.0
 11
-136.086101
 21
-110.218691
 31
0.0
  0
LINE
  8
2
  5
8E
 10
-128.086101
 20
-29.718494
 30
0.0
 11
-128.086101
 21
-110.218691
 31
0.0
  0
LINE
  8
2
  5
8F
 10
-137.836101
 20
-125.718691
 30
0.0
 11
-131.586101
 21
-125.718691
 31
0.0
  0
ARC
  8
2
  5
90
 10
-132.086101
 20
-122.406191
 30
0.0
 40
3.3125
 50
270.0
 51
301.890792
  0
LINE
  8
2
  5
91
 10
-138.336101
 20
-110.718691
 30
0.0
 11
-138.336101
 21
-125.218691
 31
0.0
  0
LINE
  8
2
  5
92
 10
-137.836101
 20
-125.718691
 30
0.0
 11
-138.336101
 21
-125.218691
 31
0.0
  0
LINE
  8
2
  5
93
 10
-133.836101
 20
-110.718691
 30
0.0
 11
-133.836101
 21
-125.218691
 31
0.0
  0
LINE
  8
2
  5
94
 10
-136.407253
 20
-110.718691
 30
0.0
 11
-136.407253
 21
-125.218691
 31
0.0
  0
LINE
  8
2
  5
95
 10
-138.157253
 20
-110.718691
 30
0.0
 11
-138.157253
 21
-125.218691
 31
0.0
  0
LINE
  8
2
  5
96
 10
-138.336101
 20
-125.218691
 30
0.0
 11
-138.157253
 21
-125.218691
 31
0.0
  0
LINE
  8
2
  5
97
 10
-136.407253
 20
-125.218691
 30
0.0
 11
-133.836101
 21
-125.218691
 31
0.0
  0
ARC
  8
2
  5
98
 10
-132.086101
 20
-122.406191
 30
0.0
 40
3.3125
 50
238.109208
 51
270.0
  0
ARC
  8
2
  5
99
 10
-137.282253
 20
-124.703066
 30
0.0
 40
1.015625
 50
210.510237
 51
329.489763
  0
ARC
  8
2
  5
9A
 10
-132.086101
 20
-113.531191
 30
0.0
 40
3.3125
 50
58.109208
 51
90.0
  0
LINE
  8
2
  5
9B
 10
-136.407253
 20
-110.718691
 30
0.0
 11
-133.836101
 21
-110.718691
 31
0.0
  0
ARC
  8
2
  5
9C
 10
-137.282253
 20
-111.234316
 30
0.0
 40
1.015625
 50
30.510237
 51
149.489763
  0
ARC
  8
2
  5
9D
 10
-132.086101
 20
-113.531191
 30
0.0
 40
3.3125
 50
90.0
 51
121.890792
  0
LINE
  8
2
  5
9E
 10
-137.836101
 20
-110.218691
 30
0.0
 11
-138.336101
 21
-110.718691
 31
0.0
  0
LINE
  8
2
  5
9F
 10
-138.336101
 20
-110.718691
 30
0.0
 11
-138.157253
 21
-110.718691
 31
0.0
  0
LINE
  8
2
  5
A0
 10
-130.336101
 20
-110.718691
 30
0.0
 11
-130.336101
 21
-125.218691
 31
0.0
  0
LINE
  8
2
  5
A1
 10
-126.336101
 20
-125.718691
 30
0.0
 11
-132.586101
 21
-125.718691
 31
0.0
  0
LINE
  8
2
  5
A2
 10
-126.336101
 20
-125.718691
 30
0.0
 11
-132.586101
 21
-125.718691
 31
0.0
  0
LINE
  8
2
  5
A3
 10
-125.836101
 20
-110.718691
 30
0.0
 11
-125.836101
 21
-125.218691
 31
0.0
  0
LINE
  8
2
  5
A4
 10
-126.336101
 20
-125.718691
 30
0.0
 11
-125.836101
 21
-125.218691
 31
0.0
  0
LINE
  8
2
  5
A5
 10
-126.014948
 20
-110.718691
 30
0.0
 11
-126.014948
 21
-125.218691
 31
0.0
  0
LINE
  8
2
  5
A6
 10
-125.836101
 20
-125.218691
 30
0.0
 11
-126.014948
 21
-125.218691
 31
0.0
  0
ARC
  8
2
  5
A7
 10
-126.889948
 20
-124.703066
 30
0.0
 40
1.015625
 50
210.510237
 51
329.489763
  0
LINE
  8
2
  5
A8
 10
-125.836101
 20
-110.718691
 30
0.0
 11
-125.836101
 21
-125.218691
 31
0.0
  0
LINE
  8
2
  5
A9
 10
-126.014948
 20
-110.718691
 30
0.0
 11
-126.014948
 21
-125.218691
 31
0.0
  0
ARC
  8
2
  5
AA
 10
-126.889948
 20
-111.234316
 30
0.0
 40
1.015625
 50
30.510237
 51
149.489763
  0
LINE
  8
2
  5
AB
 10
-126.336101
 20
-110.218691
 30
0.0
 11
-125.836101
 21
-110.718691
 31
0.0
  0
LINE
  8
2
  5
AC
 10
-127.764948
 20
-110.718691
 30
0.0
 11
-130.336101
 21
-110.718691
 31
0.0
  0
LINE
  8
2
  5
AD
 10
-126.336101
 20
-110.218691
 30
0.0
 11
-137.836101
 21
-110.218691
 31
0.0
  0
LINE
  8
2
  5
AE
 10
-127.764948
 20
-110.718691
 30
0.0
 11
-127.764948
 21
-125.218691
 31
0.0
  0
LINE
  8
2
  5
AF
 10
-127.764948
 20
-125.218691
 30
0.0
 11
-130.336101
 21
-125.218691
 31
0.0
  0
LINE
  8
2
  5
B0
 10
-140.336101
 20
-115.718691
 30
0.0
 11
-146.586101
 21
-115.718691
 31
0.0
  0
ARC
  8
2
  5
B1
 10
-146.086101
 20
-112.406191
 30
0.0
 40
3.3125
 50
238.109208
 51
270.0
  0
LINE
  8
2
  5
B2
 10
-139.836101
 20
-100.718691
 30
0.0
 11
-139.836101
 21
-115.218691
 31
0.0
  0
LINE
  8
2
  5
B3
 10
-140.336101
 20
-115.718691
 30
0.0
 11
-139.836101
 21
-115.218691
 31
0.0
  0
LINE
  8
2
  5
B4
 10
-144.336101
 20
-100.718691
 30
0.0
 11
-144.336101
 21
-115.218691
 31
0.0
  0
LINE
  8
2
  5
B5
 10
-141.764948
 20
-100.718691
 30
0.0
 11
-141.764948
 21
-115.218691
 31
0.0
  0
LINE
  8
2
  5
B6
 10
-140.014948
 20
-100.718691
 30
0.0
 11
-140.014948
 21
-115.218691
 31
0.0
  0
LINE
  8
2
  5
B7
 10
-139.836101
 20
-115.218691
 30
0.0
 11
-140.014948
 21
-115.218691
 31
0.0
  0
LINE
  8
2
  5
B8
 10
-141.764948
 20
-115.218691
 30
0.0
 11
-144.336101
 21
-115.218691
 31
0.0
  0
ARC
  8
2
  5
B9
 10
-146.086101
 20
-112.406191
 30
0.0
 40
3.3125
 50
270.0
 51
301.890792
  0
ARC
  8
2
  5
BA
 10
-140.889948
 20
-114.703066
 30
0.0
 40
1.015625
 50
210.510237
 51
329.489763
  0
ARC
  8
2
  5
BB
 10
-146.086101
 20
-103.531191
 30
0.0
 40
3.3125
 50
90.0
 51
121.890792
  0
LINE
  8
2
  5
BC
 10
-141.764948
 20
-100.718691
 30
0.0
 11
-144.336101
 21
-100.718691
 31
0.0
  0
ARC
  8
2
  5
BD
 10
-140.889948
 20
-101.234316
 30
0.0
 40
1.015625
 50
30.510237
 51
149.489763
  0
ARC
  8
2
  5
BE
 10
-146.086101
 20
-103.531191
 30
0.0
 40
3.3125
 50
58.109208
 51
90.0
  0
LINE
  8
2
  5
BF
 10
-140.336101
 20
-100.218691
 30
0.0
 11
-139.836101
 21
-100.718691
 31
0.0
  0
LINE
  8
2
  5
C0
 10
-139.836101
 20
-100.718691
 30
0.0
 11
-140.014948
 21
-100.718691
 31
0.0
  0
LINE
  8
2
  5
C1
 10
-147.836101
 20
-100.718691
 30
0.0
 11
-147.836101
 21
-115.218691
 31
0.0
  0
LINE
  8
2
  5
C2
 10
-151.836101
 20
-115.718691
 30
0.0
 11
-145.586101
 21
-115.718691
 31
0.0
  0
LINE
  8
2
  5
C3
 10
-151.836101
 20
-115.718691
 30
0.0
 11
-145.586101
 21
-115.718691
 31
0.0
  0
LINE
  8
2
  5
C4
 10
-152.336101
 20
-100.718691
 30
0.0
 11
-152.336101
 21
-115.218691
 31
0.0
  0
LINE
  8
2
  5
C5
 10
-151.836101
 20
-115.718691
 30
0.0
 11
-152.336101
 21
-115.218691
 31
0.0
  0
LINE
  8
2
  5
C6
 10
-152.157253
 20
-100.718691
 30
0.0
 11
-152.157253
 21
-115.218691
 31
0.0
  0
LINE
  8
2
  5
C7
 10
-152.336101
 20
-115.218691
 30
0.0
 11
-152.157253
 21
-115.218691
 31
0.0
  0
ARC
  8
2
  5
C8
 10
-151.282253
 20
-114.703066
 30
0.0
 40
1.015625
 50
210.510237
 51
329.489763
  0
LINE
  8
2
  5
C9
 10
-152.336101
 20
-100.718691
 30
0.0
 11
-152.336101
 21
-115.218691
 31
0.0
  0
LINE
  8
2
  5
CA
 10
-152.157253
 20
-100.718691
 30
0.0
 11
-152.157253
 21
-115.218691
 31
0.0
  0
ARC
  8
2
  5
CB
 10
-151.282253
 20
-101.234316
 30
0.0
 40
1.015625
 50
30.510237
 51
149.489763
  0
LINE
  8
2
  5
CC
 10
-151.836101
 20
-100.218691
 30
0.0
 11
-152.336101
 21
-100.718691
 31
0.0
  0
LINE
  8
2
  5
CD
 10
-150.407253
 20
-100.718691
 30
0.0
 11
-147.836101
 21
-100.718691
 31
0.0
  0
LINE
  8
2
  5
CE
 10
-151.836101
 20
-100.218691
 30
0.0
 11
-140.336101
 21
-100.218691
 31
0.0
  0
LINE
  8
2
  5
CF
 10
-150.407253
 20
-100.718691
 30
0.0
 11
-150.407253
 21
-115.218691
 31
0.0
  0
LINE
  8
2
  5
D0
 10
-150.407253
 20
-115.218691
 30
0.0
 11
-147.836101
 21
-115.218691
 31
0.0
  0
POINT
  8
2
  5
D1
 10
175.898505
 20
135.981398
 30
0.0
  0
LINE
  8
2
  5
D2
 10
159.398505
 20
132.981398
 30
0.0
 11
155.398505
 21
132.981398
 31
0.0
  0
LINE
  8
2
  5
D3
 10
157.898505
 20
132.981398
 30
0.0
 11
153.995604
 21
132.981398
 31
0.0
  0
ARC
  8
2
  5
D4
 10
153.432732
 20
132.899059
 30
0.0
 40
1.0
 50
175.27696
 51
179.5
  0
LINE
  8
2
  5
D5
 10
152.40985
 20
130.281398
 30
0.0
 11
152.43277
 21
132.907785
 31
0.0
  0
ARC
  8
2
  5
D6
 10
105.38406
 20
98.903779
 30
0.0
 40
100.0
 50
20.083343
 51
25.621167
  0
ARC
  8
2
  5
D7
 10
198.364278
 20
132.899059
 30
0.0
 40
1.0
 50
0.5
 51
20.083343
  0
LINE
  8
2
  5
D8
 10
199.38716
 20
130.281398
 30
0.0
 11
199.36424
 21
132.907785
 31
0.0
  0
LINE
  8
2
  5
D9
 10
143.898505
 20
79.077309
 30
0.0
 11
126.500444
 21
89.122085
 31
0.0
  0
LINE
  8
2
  5
DA
 10
111.390718
 20
63.550827
 30
0.0
 11
126.09094
 21
89.012358
 31
0.0
  0
LINE
  8
2
  5
DB
 10
126.500747
 20
89.122166
 30
0.0
 11
126.09094
 21
89.012358
 31
0.0
  0
LINE
  8
2
  5
DC
 10
111.500444
 20
63.141322
 30
0.0
 11
123.105432
 21
56.44118
 31
0.0
  0
LINE
  8
2
  5
DD
 10
128.301832
 20
53.441037
 30
0.0
 11
144.898505
 21
43.858943
 31
0.0
  0
LINE
  8
2
  5
DE
 10
111.390718
 20
63.550827
 30
0.0
 11
111.500525
 21
63.141019
 31
0.0
  0
POLYLINE
  8
2
  5
DF
 66
     1
 10
0.0
 20
0.0
 30
0.0
  0
VERTEX
  8
2
  5
C99
 10
128.304784
 20
53.446724
 30
0.0
  0
VERTEX
  8
2
  5
C9A
 10
128.270396
 20
53.505182
 30
0.0
  0
VERTEX
  8
2
  5
C9B
 10
128.125943
 20
53.63477
 30
0.0
  0
VERTEX
  8
2
  5
C9C
 10
127.843146
 20
53.84423
 30
0.0
  0
VERTEX
  8
2
  5
C9D
 10
127.343391
 20
54.178952
 30
0.0
  0
VERTEX
  8
2
  5
C9E
 10
125.804125
 20
55.113836
 30
0.0
  0
VERTEX
  8
2
  5
C9F
 10
124.224859
 20
55.979438
 30
0.0
  0
VERTEX
  8
2
  5
CA0
 10
123.685103
 20
56.244878
 30
0.0
  0
VERTEX
  8
2
  5
CA1
 10
123.362306
 20
56.385057
 30
0.0
  0
VERTEX
  8
2
  5
CA2
 10
123.177854
 20
56.445363
 30
0.0
  0
VERTEX
  8
2
  5
CA3
 10
123.105348
 20
56.441036
 30
0.0
  0
SEQEND
  8
2
  5
CA4
  0
LINE
  8
2
  5
EC
 10
201.898505
 20
13.581398
 30
0.0
 11
201.898505
 21
130.081398
 31
0.0
  0
LINE
  8
2
  5
ED
 10
201.898505
 20
13.581398
 30
0.0
 11
201.598505
 21
13.281398
 31
0.0
  0
LINE
  8
2
  5
EE
 10
175.898505
 20
130.281398
 30
0.0
 11
201.698505
 21
130.281398
 31
0.0
  0
LINE
  8
2
  5
EF
 10
201.598505
 20
13.281398
 30
0.0
 11
175.898505
 21
13.281398
 31
0.0
  0
LINE
  8
2
  5
F0
 10
201.698505
 20
130.281398
 30
0.0
 11
201.898505
 21
130.081398
 31
0.0
  0
LINE
  8
2
  5
F1
 10
175.898505
 20
130.281398
 30
0.0
 11
150.098505
 21
130.281398
 31
0.0
  0
LINE
  8
2
  5
F2
 10
150.098505
 20
130.281398
 30
0.0
 11
149.898505
 21
130.081398
 31
0.0
  0
LINE
  8
2
  5
F3
 10
149.898505
 20
82.541411
 30
0.0
 11
149.898505
 21
130.081398
 31
0.0
  0
LINE
  8
2
  5
F4
 10
149.898505
 20
13.581398
 30
0.0
 11
149.898505
 21
35.198689
 31
0.0
  0
LINE
  8
2
  5
F5
 10
149.898505
 20
13.581398
 30
0.0
 11
149.898505
 21
34.240141
 31
0.0
  0
LINE
  8
2
  5
F6
 10
149.898505
 20
13.581398
 30
0.0
 11
150.198505
 21
13.281398
 31
0.0
  0
LINE
  8
2
  5
F7
 10
150.198505
 20
13.281398
 30
0.0
 11
175.898505
 21
13.281398
 31
0.0
  0
ARC
  8
2
  5
F8
 10
139.898505
 20
35.198689
 30
0.0
 40
10.0
 50
0.0
 51
60.0
  0
ARC
  8
2
  5
F9
 10
145.898505
 20
82.541411
 30
0.0
 40
4.0
 50
240.0
 51
360.0
  0
LINE
  8
2
  5
FA
 10
-113.086101
 20
13.581506
 30
0.0
 11
-113.086101
 21
130.081506
 31
0.0
  0
LINE
  8
2
  5
FB
 10
-113.286101
 20
130.281506
 30
0.0
 11
-113.086101
 21
130.081506
 31
0.0
  0
LINE
  8
2
  5
FC
 10
-139.086101
 20
130.281506
 30
0.0
 11
-113.286101
 21
130.281506
 31
0.0
  0
LINE
  8
2
 62
     2
  5
FD
 10
-139.086101
 20
130.081506
 30
0.0
 11
-113.086101
 21
130.081506
 31
0.0
  0
LINE
  8
2
  5
FE
 10
-165.086101
 20
13.581506
 30
0.0
 11
-165.086101
 21
130.081506
 31
0.0
  0
LINE
  8
2
  5
FF
 10
-165.086101
 20
130.081506
 30
0.0
 11
-164.886101
 21
130.281506
 31
0.0
  0
LINE
  8
2
  5
100
 10
-164.886101
 20
130.281506
 30
0.0
 11
-139.086101
 21
130.281506
 31
0.0
  0
LINE
  8
2
 62
     2
  5
101
 10
-165.086101
 20
130.081506
 30
0.0
 11
-139.086101
 21
130.081506
 31
0.0
  0
LINE
  8
2
  5
102
 10
-113.086101
 20
13.581506
 30
0.0
 11
-113.386101
 21
13.281506
 31
0.0
  0
LINE
  8
2
  5
103
 10
-113.386101
 20
13.281506
 30
0.0
 11
-139.086101
 21
13.281506
 31
0.0
  0
LINE
  8
2
 62
     2
  5
104
 10
-113.086101
 20
13.581506
 30
0.0
 11
-139.086101
 21
13.581506
 31
0.0
  0
LINE
  8
2
  5
105
 10
-165.086101
 20
13.581506
 30
0.0
 11
-164.786101
 21
13.281506
 31
0.0
  0
LINE
  8
2
  5
106
 10
-164.786101
 20
13.281506
 30
0.0
 11
-139.086101
 21
13.281506
 31
0.0
  0
LINE
  8
2
 62
     2
  5
107
 10
-165.086101
 20
13.581506
 30
0.0
 11
-139.086101
 21
13.581506
 31
0.0
  0
POINT
  8
2
  5
108
 10
-139.086101
 20
76.281593
 30
0.0
  0
LINE
  8
2
  5
109
 10
-124.086101
 20
115.915354
 30
0.0
 11
-124.086101
 21
48.189189
 31
0.0
  0
LINE
  8
2
  5
10A
 10
-154.086101
 20
115.915354
 30
0.0
 11
-154.086101
 21
48.189189
 31
0.0
  0
LINE
  8
2
  5
10B
 10
-141.136101
 20
61.041212
 30
0.0
 11
-141.136101
 21
63.412981
 31
0.0
  0
LINE
  8
2
  5
10C
 10
-137.036101
 20
61.041212
 30
0.0
 11
-137.036101
 21
63.412981
 31
0.0
  0
LINE
  8
2
  5
10D
 10
-137.036101
 20
61.041212
 30
0.0
 11
-141.136101
 21
61.041212
 31
0.0
  0
LINE
  8
2
  5
10E
 10
-137.036101
 20
63.33369
 30
0.0
 11
-141.136101
 21
63.33369
 31
0.0
  0
POLYLINE
  8
2
  5
10F
 66
     1
 10
0.0
 20
0.0
 30
0.0
 70
     1
  0
VERTEX
  8
2
  5
CA5
 10
-136.086101
 20
54.941124
 30
0.0
  0
VERTEX
  8
2
  5
CA6
 10
-136.146713
 20
55.241124
 30
0.0
  0
VERTEX
  8
2
  5
CA7
 10
-136.336555
 20
55.541124
 30
0.0
  0
VERTEX
  8
2
  5
CA8
 10
-136.686101
 20
55.841124
 30
0.0
  0
VERTEX
  8
2
  5
CA9
 10
-137.286101
 20
56.141124
 30
0.0
  0
VERTEX
  8
2
  5
CAA
 10
-139.086101
 20
56.441124
 30
0.0
  0
VERTEX
  8
2
  5
CAB
 10
-140.886101
 20
56.141124
 30
0.0
  0
VERTEX
  8
2
  5
CAC
 10
-141.486101
 20
55.841124
 30
0.0
  0
VERTEX
  8
2
  5
CAD
 10
-141.835646
 20
55.541124
 30
0.0
  0
VERTEX
  8
2
  5
CAE
 10
-142.025488
 20
55.241124
 30
0.0
  0
VERTEX
  8
2
  5
CAF
 10
-142.086101
 20
54.941124
 30
0.0
  0
VERTEX
  8
2
  5
CB0
 10
-142.025488
 20
54.641124
 30
0.0
  0
VERTEX
  8
2
  5
CB1
 10
-141.835646
 20
54.341124
 30
0.0
  0
VERTEX
  8
2
  5
CB2
 10
-141.486101
 20
54.041124
 30
0.0
  0
VERTEX
  8
2
  5
CB3
 10
-140.886101
 20
53.741124
 30
0.0
  0
VERTEX
  8
2
  5
CB4
 10
-139.086101
 20
53.441124
 30
0.0
  0
VERTEX
  8
2
  5
CB5
 10
-137.286101
 20
53.741124
 30
0.0
  0
VERTEX
  8
2
  5
CB6
 10
-136.686101
 20
54.041124
 30
0.0
  0
VERTEX
  8
2
  5
CB7
 10
-136.336555
 20
54.341124
 30
0.0
  0
VERTEX
  8
2
  5
CB8
 10
-136.146713
 20
54.641124
 30
0.0
  0
VERTEX
  8
2
  5
CB9
 10
-136.086101
 20
54.941124
 30
0.0
  0
SEQEND
  8
2
  5
CBA
  0
POINT
  8
2
  5
126
 10
-139.086101
 20
63.291093
 30
0.0
  0
POLYLINE
  8
2
  5
127
 66
     1
 10
0.0
 20
0.0
 30
0.0
  0
VERTEX
  8
2
  5
CBB
 10
-143.086101
 20
43.761613
 30
0.0
  0
VERTEX
  8
2
  5
CBC
 10
-139.086101
 20
43.291212
 30
0.0
  0
VERTEX
  8
2
  5
CBD
 10
-135.086101
 20
43.761613
 30
0.0
  0
SEQEND
  8
2
  5
CBE
  0
POLYLINE
  8
2
  5
12C
 66
     1
 10
0.0
 20
0.0
 30
0.0
  0
VERTEX
  8
2
  5
CBF
 10
-143.086101
 20
45.761613
 30
0.0
  0
VERTEX
  8
2
  5
CC0
 10
-139.086101
 20
45.291212
 30
0.0
  0
VERTEX
  8
2
  5
CC1
 10
-135.086101
 20
45.761613
 30
0.0
  0
SEQEND
  8
2
  5
CC2
  0
LINE
  8
2
  5
131
 10
-143.086101
 20
43.761613
 30
0.0
 11
-143.086101
 21
45.761613
 31
0.0
  0
LINE
  8
2
  5
132
 10
-135.086101
 20
43.761613
 30
0.0
 11
-135.086101
 21
45.761613
 31
0.0
  0
POLYLINE
  8
2
 62
     2
  5
133
 66
     1
 10
0.0
 20
0.0
 30
0.0
  0
VERTEX
  8
2
 62
     2
  5
CC3
 10
-153.152923
 20
43.678784
 30
0.0
  0
VERTEX
  8
2
 62
     2
  5
CC4
 10
-153.080385
 20
43.512609
 30
0.0
  0
VERTEX
  8
2
 62
     2
  5
CC5
 10
-152.833828
 20
42.992989
 30
0.0
  0
VERTEX
  8
2
 62
     2
  5
CC6
 10
-152.556067
 20
42.473369
 30
0.0
  0
VERTEX
  8
2
 62
     2
  5
CC7
 10
-152.245128
 20
41.953749
 30
0.0
  0
VERTEX
  8
2
 62
     2
  5
CC8
 10
-151.898595
 20
41.434129
 30
0.0
  0
VERTEX
  8
2
 62
     2
  5
CC9
 10
-151.51349
 20
40.914509
 30
0.0
  0
VERTEX
  8
2
 62
     2
  5
CCA
 10
-151.086101
 20
40.394889
 30
0.0
  0
VERTEX
  8
2
 62
     2
  5
CCB
 10
-150.611724
 20
39.875269
 30
0.0
  0
VERTEX
  8
2
 62
     2
  5
CCC
 10
-150.084282
 20
39.355649
 30
0.0
  0
VERTEX
  8
2
 62
     2
  5
CCD
 10
-149.495712
 20
38.836029
 30
0.0
  0
VERTEX
  8
2
 62
     2
  5
CCE
 10
-148.834947
 20
38.316409
 30
0.0
  0
VERTEX
  8
2
 62
     2
  5
CCF
 10
-148.086101
 20
37.796789
 30
0.0
  0
VERTEX
  8
2
 62
     2
  5
CD0
 10
-147.224897
 20
37.277169
 30
0.0
  0
VERTEX
  8
2
 62
     2
  5
CD1
 10
-146.210706
 20
36.757549
 30
0.0
  0
VERTEX
  8
2
 62
     2
  5
CD2
 10
-144.964876
 20
36.237929
 30
0.0
  0
VERTEX
  8
2
 62
     2
  5
CD3
 10
-143.286101
 20
35.718309
 30
0.0
  0
VERTEX
  8
2
 62
     2
  5
CD4
 10
-139.086101
 20
35.198689
 30
0.0
  0
VERTEX
  8
2
 62
     2
  5
CD5
 10
-134.886101
 20
35.718309
 30
0.0
  0
VERTEX
  8
2
 62
     2
  5
CD6
 10
-133.207325
 20
36.237929
 30
0.0
  0
VERTEX
  8
2
 62
     2
  5
CD7
 10
-131.961495
 20
36.757549
 30
0.0
  0
VERTEX
  8
2
 62
     2
  5
CD8
 10
-130.947305
 20
37.277169
 30
0.0
  0
VERTEX
  8
2
 62
     2
  5
CD9
 10
-130.086101
 20
37.796789
 30
0.0
  0
VERTEX
  8
2
 62
     2
  5
CDA
 10
-129.337255
 20
38.316409
 30
0.0
  0
VERTEX
  8
2
 62
     2
  5
CDB
 10
-128.67649
 20
38.836029
 30
0.0
  0
VERTEX
  8
2
 62
     2
  5
CDC
 10
-128.087919
 20
39.355649
 30
0.0
  0
VERTEX
  8
2
 62
     2
  5
CDD
 10
-127.560477
 20
39.875269
 30
0.0
  0
VERTEX
  8
2
 62
     2
  5
CDE
 10
-127.086101
 20
40.394889
 30
0.0
  0
VERTEX
  8
2
 62
     2
  5
CDF
 10
-126.658712
 20
40.914509
 30
0.0
  0
VERTEX
  8
2
 62
     2
  5
CE0
 10
-126.273607
 20
41.434129
 30
0.0
  0
VERTEX
  8
2
 62
     2
  5
CE1
 10
-125.927073
 20
41.953749
 30
0.0
  0
VERTEX
  8
2
 62
     2
  5
CE2
 10
-125.616134
 20
42.473369
 30
0.0
  0
VERTEX
  8
2
 62
     2
  5
CE3
 10
-125.338374
 20
42.992989
 30
0.0
  0
VERTEX
  8
2
 62
     2
  5
CE4
 10
-125.091816
 20
43.512609
 30
0.0
  0
VERTEX
  8
2
 62
     2
  5
CE5
 10
-124.874838
 20
44.032229
 30
0.0
  0
VERTEX
  8
2
 62
     2
  5
CE6
 10
-124.686101
 20
44.551849
 30
0.0
  0
VERTEX
  8
2
 62
     2
  5
CE7
 10
-124.651355
 20
44.656652
 30
0.0
  0
SEQEND
  8
2
 62
     2
  5
CE8
  0
LINE
  8
2
  5
15A
 10
175.898505
 20
132.981398
 30
0.0
 11
150.398505
 21
132.981398
 31
0.0
  0
LINE
  8
2
  5
15B
 10
149.898505
 20
133.481398
 30
0.0
 11
149.898505
 21
151.381398
 31
0.0
  0
LINE
  8
2
  5
15C
 10
149.898505
 20
159.581398
 30
0.0
 11
149.898505
 21
161.354752
 31
0.0
  0
ARC
  8
2
  5
15D
 10
150.398505
 20
133.481398
 30
0.0
 40
0.5
 50
180.0
 51
270.0
  0
LINE
  8
2
  5
15E
 10
175.898505
 20
132.981398
 30
0.0
 11
201.898505
 21
145.105397
 31
0.0
  0
ARC
  8
2
  5
15F
 10
175.898505
 20
-337.018602
 30
0.0
 40
500.0
 50
87.128268
 51
92.871732
  0
ARC
  8
2
  5
160
 10
200.898505
 20
161.354752
 30
0.0
 40
1.0
 50
0.0
 51
87.128268
  0
ARC
  8
2
  5
161
 10
150.898505
 20
161.354752
 30
0.0
 40
1.0
 50
92.871732
 51
180.0
  0
ARC
  8
2
  5
162
 10
125.236997
 20
155.481398
 30
0.0
 40
25.0
 50
350.560853
 51
360.0
  0
ARC
  8
2
  5
163
 10
125.236997
 20
155.481398
 30
0.0
 40
25.0
 50
360.0
 51
9.439147
  0
LINE
  8
2
  5
164
 10
201.898505
 20
145.105397
 30
0.0
 11
201.898505
 21
152.011247
 31
0.0
  0
LINE
  8
2
  5
165
 10
201.898505
 20
152.011247
 30
0.0
 11
201.898505
 21
161.354752
 31
0.0
  0
LINE
  8
2
  5
166
 10
-113.586101
 20
132.981398
 30
0.0
 11
-164.586101
 21
132.981398
 31
0.0
  0
LINE
  8
2
  6
CENTER
 62
     2
  5
167
 10
-132.337982
 20
155.481398
 30
0.0
 11
-145.980408
 21
155.481398
 31
0.0
  0
CIRCLE
  8
2
  5
168
 10
-139.086101
 20
155.481398
 30
0.0
 40
4.1
  0
LINE
  8
2
  5
169
 10
-165.086101
 20
161.354752
 30
0.0
 11
-165.086101
 21
133.481398
 31
0.0
  0
LINE
  8
2
  5
16A
 10
-113.086101
 20
161.354752
 30
0.0
 11
-113.086101
 21
133.481398
 31
0.0
  0
ARC
  8
2
  5
16B
 10
-164.586101
 20
133.481398
 30
0.0
 40
0.5
 50
180.0
 51
270.0
  0
ARC
  8
2
  5
16C
 10
-113.586101
 20
133.481398
 30
0.0
 40
0.5
 50
270.0
 51
360.0
  0
ARC
  8
2
  5
16D
 10
-139.086101
 20
-337.018602
 30
0.0
 40
500.0
 50
87.128268
 51
92.871732
  0
ARC
  8
2
  5
16E
 10
-114.086101
 20
161.354752
 30
0.0
 40
1.0
 50
0.0
 51
87.128268
  0
ARC
  8
2
  5
16F
 10
-164.086101
 20
161.354752
 30
0.0
 40
1.0
 50
92.871732
 51
180.0
  0
LINE
  8
2
 62
     2
  5
170
 10
-162.894356
 20
162.30494
 30
0.0
 11
-115.668442
 21
162.30494
 31
0.0
  0
POINT
  8
2
  5
171
 10
-139.086101
 20
132.831506
 30
0.0
  0
LINE
  8
2
  6
CENTER
 62
     2
  5
172
 10
171.398505
 20
-76.438927
 30
0.0
 11
171.398505
 21
-188.944727
 31
0.0
  0
LINE
  8
2
  5
173
 10
90.898505
 20
151.981398
 30
0.0
 11
90.898505
 21
158.981398
 31
0.0
  0
LINE
  8
2
  5
174
 10
91.398505
 20
151.481398
 30
0.0
 11
149.914922
 21
151.481398
 31
0.0
  0
LINE
  8
2
  5
175
 10
91.398505
 20
159.481398
 30
0.0
 11
149.914922
 21
159.481398
 31
0.0
  0
LINE
  8
2
  5
176
 10
90.898505
 20
151.981398
 30
0.0
 11
91.398505
 21
151.481398
 31
0.0
  0
LINE
  8
2
  5
177
 10
90.898505
 20
158.981398
 30
0.0
 11
91.398505
 21
159.481398
 31
0.0
  0
CIRCLE
  8
2
  5
178
 10
-139.086101
 20
155.481398
 30
0.0
 40
4.0
  0
CIRCLE
  8
2
 62
     2
  5
179
 10
-139.086101
 20
155.481398
 30
0.0
 40
3.5
  0
ARC
  8
2
  5
17A
 10
194.470302
 20
154.981398
 30
0.0
 40
8.0
 50
338.206107
 51
21.793893
  0
LINE
  8
2
 62
     2
  5
17B
 10
91.398505
 20
159.481398
 30
0.0
 11
91.398505
 21
151.481398
 31
0.0
  0
LINE
  8
2
 62
     2
  5
17C
 10
194.015419
 20
162.30494
 30
0.0
 11
156.013708
 21
162.30494
 31
0.0
  0
LINE
  8
2
 62
     2
  5
17D
 10
198.827583
 20
133.079912
 30
0.0
 11
176.10977
 21
133.079912
 31
0.0
  0
LINE
  8
2
 62
     2
  5
17E
 10
149.898505
 20
130.081398
 30
0.0
 11
201.898505
 21
130.081398
 31
0.0
  0
LINE
  8
2
 62
     2
  5
17F
 10
149.898505
 20
13.581398
 30
0.0
 11
201.898505
 21
13.581398
 31
0.0
  0
LINE
  8
2
 62
     2
  5
180
 10
200.398505
 20
12.981398
 30
0.0
 11
151.398505
 21
12.981398
 31
0.0
  0
LINE
  8
2
 62
     2
  5
181
 10
126.500444
 20
89.122085
 30
0.0
 11
111.500444
 21
63.141322
 31
0.0
  0
ARC
  8
2
 62
     2
  5
182
 10
120.788951
 20
58.2927
 30
0.0
 40
33.872793
 50
334.896666
 51
30.567732
  0
LINE
  8
2
  5
183
 10
105.624236
 20
186.404875
 30
0.0
 11
108.582563
 21
192.749029
 31
0.0
  0
LINE
  8
2
  5
184
 10
105.86608
 20
185.740412
 30
0.0
 11
145.933244
 21
167.056786
 31
0.0
  0
LINE
  8
2
  5
185
 10
109.247026
 20
192.990874
 30
0.0
 11
156.165621
 21
171.112374
 31
0.0
  0
LINE
  8
2
  5
186
 10
105.624236
 20
186.404875
 30
0.0
 11
105.86608
 21
185.740412
 31
0.0
  0
LINE
  8
2
  5
187
 10
108.582563
 20
192.749029
 30
0.0
 11
109.247026
 21
192.990874
 31
0.0
  0
LINE
  8
2
 62
     2
  5
188
 10
109.247026
 20
192.990874
 30
0.0
 11
105.86608
 21
185.740412
 31
0.0
  0
LINE
  8
2
  5
189
 10
98.776691
 20
77.901717
 30
0.0
 11
95.916191
 21
72.947185
 31
0.0
  0
LINE
  8
2
  5
18A
 10
95.31259
 20
79.901717
 30
0.0
 11
92.45209
 21
74.947185
 31
0.0
  0
LINE
  8
2
  5
18B
 10
92.635103
 20
74.264173
 30
0.0
 11
95.233179
 21
72.764173
 31
0.0
  0
ARC
  8
2
  5
18C
 10
95.483179
 20
73.197185
 30
0.0
 40
0.5
 50
240.0
 51
330.0
  0
ARC
  8
2
  5
18D
 10
92.885103
 20
74.697185
 30
0.0
 40
0.5
 50
150.0
 51
240.0
  0
LINE
  8
2
  5
18E
 10
46.278409
 20
100.797364
 30
0.0
 11
42.82528
 21
102.791029
 31
0.0
  0
LINE
  8
2
  5
18F
 10
57.825244
 20
128.77173
 30
0.0
 11
125.807816
 21
89.521974
 31
0.0
  0
LINE
  8
2
  5
190
 10
56.459219
 20
128.405704
 30
0.0
 11
42.459219
 21
104.156993
 31
0.0
  0
ARC
  8
2
  5
191
 10
43.325244
 20
103.656993
 30
0.0
 40
1.0
 50
150.0
 51
240.0
  0
LINE
  8
2
  5
192
 10
67.070539
 20
88.79294
 30
0.0
 11
91.842282
 21
74.490967
 31
0.0
  0
LINE
  8
2
  5
193
 10
95.825999
 20
72.190967
 30
0.0
 11
110.807816
 21
63.541212
 31
0.0
  0
ARC
  8
2
  5
194
 10
91.942282
 20
74.664173
 30
0.0
 40
0.2
 50
240.0
 51
330.0
  0
LINE
  8
2
  5
195
 10
95.225987
 20
79.951717
 30
0.0
 11
92.115487
 21
74.564173
 31
0.0
  0
LINE
  8
2
  5
196
 10
98.863294
 20
77.851717
 30
0.0
 11
95.752794
 21
72.464173
 31
0.0
  0
ARC
  8
2
  5
197
 10
95.925999
 20
72.364173
 30
0.0
 40
0.2
 50
150.0
 51
240.0
  0
ARC
  8
2
  5
198
 10
125.557601
 20
89.088588
 30
0.0
 40
0.5
 50
330.0
 51
60.0
  0
ARC
  8
2
  5
199
 10
57.325244
 20
127.905704
 30
0.0
 40
1.0
 50
60.0
 51
150.0
  0
ARC
  8
2
  5
19A
 10
111.057816
 20
63.974224
 30
0.0
 40
0.5
 50
240.0
 51
330.0
  0
LINE
  8
2
  6
CENTER
 62
     2
  5
19B
 10
54.325991
 20
89.710174
 30
0.0
 11
54.303942
 21
89.66289
 31
0.0
  0
LINE
  8
2
  5
19C
 10
44.338165
 20
94.319353
 30
0.0
 11
54.307551
 21
89.670552
 31
0.0
  0
LINE
  8
2
  5
19D
 10
46.924408
 20
101.048668
 30
0.0
 11
44.09632
 21
94.983816
 31
0.0
  0
LINE
  8
2
  5
19E
 10
64.276937
 20
85.021751
 30
0.0
 11
54.307551
 21
89.670552
 31
0.0
  0
LINE
  8
2
  5
19F
 10
66.917672
 20
89.501726
 30
0.0
 11
64.9414
 21
85.263596
 31
0.0
  0
LINE
  8
2
  5
1A0
 10
95.225987
 20
79.951717
 30
0.0
 11
98.863294
 21
77.851717
 31
0.0
  0
ARC
  8
2
  5
1A1
 10
51.858386
 20
87.409538
 30
0.0
 40
14.504138
 50
60.0
 51
112.626124
  0
ARC
  8
2
  5
1A2
 10
50.851659
 20
85.665836
 30
0.0
 40
16.517592
 50
10.913082
 51
60.0
  0
LINE
  8
2
  5
1A3
 10
64.9414
 20
85.263596
 30
0.0
 11
64.276937
 21
85.021751
 31
0.0
  0
LINE
  8
2
  5
1A4
 10
44.09632
 20
94.983816
 30
0.0
 11
44.338165
 21
94.319353
 31
0.0
  0
LINE
  8
2
  5
1A5
 10
44.09632
 20
94.983816
 30
0.0
 11
64.9414
 21
85.263596
 31
0.0
  0
LINE
  8
2
  5
1A6
 10
-157.086101
 20
132.981398
 30
0.0
 11
-160.989002
 21
132.981398
 31
0.0
  0
ARC
  8
2
  5
1A7
 10
-161.551874
 20
132.899059
 30
0.0
 40
1.0
 50
175.27696
 51
179.5
  0
LINE
  8
2
  5
1A8
 10
-162.574756
 20
130.281398
 30
0.0
 11
-162.551836
 21
132.907785
 31
0.0
  0
LINE
  8
2
  5
1A9
 10
-121.086101
 20
132.981398
 30
0.0
 11
-117.1832
 21
132.981398
 31
0.0
  0
ARC
  8
2
  5
1AA
 10
-116.620328
 20
132.899059
 30
0.0
 40
1.0
 50
0.5
 51
4.72304
  0
LINE
  8
2
  5
1AB
 10
-115.597446
 20
130.281398
 30
0.0
 11
-115.620366
 21
132.907785
 31
0.0
  0
LINE
  8
2
  6
CENTER
 62
     2
  5
1AC
 10
61.144514
 20
104.332466
 30
0.0
 11
51.87036
 21
84.44398
 31
0.0
  0
POLYLINE
  8
2
  5
1AD
 66
     1
 10
0.0
 20
0.0
 30
0.0
 70
     1
  0
VERTEX
  8
2
  5
CE9
 10
-124.086101
 20
115.915354
 30
0.0
  0
VERTEX
  8
2
  5
CEA
 10
-124.098106
 20
116.434968
 30
0.0
  0
VERTEX
  8
2
  5
CEB
 10
-124.134178
 20
116.954582
 30
0.0
  0
VERTEX
  8
2
  5
CEC
 10
-124.194492
 20
117.474196
 30
0.0
  0
VERTEX
  8
2
  5
CED
 10
-124.279345
 20
117.99381
 30
0.0
  0
VERTEX
  8
2
  5
CEE
 10
-124.389162
 20
118.513424
 30
0.0
  0
VERTEX
  8
2
  5
CEF
 10
-124.524507
 20
119.033038
 30
0.0
  0
VERTEX
  8
2
  5
CF0
 10
-124.686101
 20
119.552652
 30
0.0
  0
VERTEX
  8
2
  5
CF1
 10
-124.874838
 20
120.072266
 30
0.0
  0
VERTEX
  8
2
  5
CF2
 10
-125.091816
 20
120.59188
 30
0.0
  0
VERTEX
  8
2
  5
CF3
 10
-125.338374
 20
121.111494
 30
0.0
  0
VERTEX
  8
2
  5
CF4
 10
-125.616134
 20
121.631108
 30
0.0
  0
VERTEX
  8
2
  5
CF5
 10
-125.927073
 20
122.150722
 30
0.0
  0
VERTEX
  8
2
  5
CF6
 10
-126.273607
 20
122.670336
 30
0.0
  0
VERTEX
  8
2
  5
CF7
 10
-126.658712
 20
123.18995
 30
0.0
  0
VERTEX
  8
2
  5
CF8
 10
-127.086101
 20
123.709564
 30
0.0
  0
VERTEX
  8
2
  5
CF9
 10
-127.560477
 20
124.229178
 30
0.0
  0
VERTEX
  8
2
  5
CFA
 10
-128.087919
 20
124.748792
 30
0.0
  0
VERTEX
  8
2
  5
CFB
 10
-128.67649
 20
125.268406
 30
0.0
  0
VERTEX
  8
2
  5
CFC
 10
-129.337255
 20
125.78802
 30
0.0
  0
VERTEX
  8
2
  5
CFD
 10
-130.086101
 20
126.307634
 30
0.0
  0
VERTEX
  8
2
  5
CFE
 10
-130.947305
 20
126.827248
 30
0.0
  0
VERTEX
  8
2
  5
CFF
 10
-131.961495
 20
127.346862
 30
0.0
  0
VERTEX
  8
2
  5
D00
 10
-133.207325
 20
127.866476
 30
0.0
  0
VERTEX
  8
2
  5
D01
 10
-134.886101
 20
128.38609
 30
0.0
  0
VERTEX
  8
2
  5
D02
 10
-139.086101
 20
128.905704
 30
0.0
  0
VERTEX
  8
2
  5
D03
 10
-143.286101
 20
128.38609
 30
0.0
  0
VERTEX
  8
2
  5
D04
 10
-144.964876
 20
127.866476
 30
0.0
  0
VERTEX
  8
2
  5
D05
 10
-146.210706
 20
127.346862
 30
0.0
  0
VERTEX
  8
2
  5
D06
 10
-147.224897
 20
126.827248
 30
0.0
  0
VERTEX
  8
2
  5
D07
 10
-148.086101
 20
126.307634
 30
0.0
  0
VERTEX
  8
2
  5
D08
 10
-148.834947
 20
125.78802
 30
0.0
  0
VERTEX
  8
2
  5
D09
 10
-149.495712
 20
125.268406
 30
0.0
  0
VERTEX
  8
2
  5
D0A
 10
-150.084282
 20
124.748792
 30
0.0
  0
VERTEX
  8
2
  5
D0B
 10
-150.611724
 20
124.229178
 30
0.0
  0
VERTEX
  8
2
  5
D0C
 10
-151.086101
 20
123.709564
 30
0.0
  0
VERTEX
  8
2
  5
D0D
 10
-151.51349
 20
123.18995
 30
0.0
  0
VERTEX
  8
2
  5
D0E
 10
-151.898595
 20
122.670336
 30
0.0
  0
VERTEX
  8
2
  5
D0F
 10
-152.245128
 20
122.150722
 30
0.0
  0
VERTEX
  8
2
  5
D10
 10
-152.556067
 20
121.631108
 30
0.0
  0
VERTEX
  8
2
  5
D11
 10
-152.833828
 20
121.111494
 30
0.0
  0
VERTEX
  8
2
  5
D12
 10
-153.080385
 20
120.59188
 30
0.0
  0
VERTEX
  8
2
  5
D13
 10
-153.297364
 20
120.072266
 30
0.0
  0
VERTEX
  8
2
  5
D14
 10
-153.486101
 20
119.552652
 30
0.0
  0
VERTEX
  8
2
  5
D15
 10
-153.647694
 20
119.033038
 30
0.0
  0
VERTEX
  8
2
  5
D16
 10
-153.783039
 20
118.513424
 30
0.0
  0
VERTEX
  8
2
  5
D17
 10
-153.892856
 20
117.99381
 30
0.0
  0
VERTEX
  8
2
  5
D18
 10
-153.977709
 20
117.474196
 30
0.0
  0
VERTEX
  8
2
  5
D19
 10
-154.038024
 20
116.954582
 30
0.0
  0
VERTEX
  8
2
  5
D1A
 10
-154.074096
 20
116.434968
 30
0.0
  0
VERTEX
  8
2
  5
D1B
 10
-154.086101
 20
115.915354
 30
0.0
  0
VERTEX
  8
2
  5
D1C
 10
-154.074096
 20
115.39574
 30
0.0
  0
VERTEX
  8
2
  5
D1D
 10
-154.038024
 20
114.876126
 30
0.0
  0
VERTEX
  8
2
  5
D1E
 10
-153.977709
 20
114.356512
 30
0.0
  0
VERTEX
  8
2
  5
D1F
 10
-153.892856
 20
113.836898
 30
0.0
  0
VERTEX
  8
2
  5
D20
 10
-153.783039
 20
113.317284
 30
0.0
  0
VERTEX
  8
2
  5
D21
 10
-153.647694
 20
112.79767
 30
0.0
  0
VERTEX
  8
2
  5
D22
 10
-153.486101
 20
112.278056
 30
0.0
  0
VERTEX
  8
2
  5
D23
 10
-153.297364
 20
111.758442
 30
0.0
  0
VERTEX
  8
2
  5
D24
 10
-153.080385
 20
111.238827
 30
0.0
  0
VERTEX
  8
2
  5
D25
 10
-152.833828
 20
110.719213
 30
0.0
  0
VERTEX
  8
2
  5
D26
 10
-152.556067
 20
110.199599
 30
0.0
  0
VERTEX
  8
2
  5
D27
 10
-152.245128
 20
109.679985
 30
0.0
  0
VERTEX
  8
2
  5
D28
 10
-151.898595
 20
109.160371
 30
0.0
  0
VERTEX
  8
2
  5
D29
 10
-151.51349
 20
108.640757
 30
0.0
  0
VERTEX
  8
2
  5
D2A
 10
-151.086101
 20
108.121143
 30
0.0
  0
VERTEX
  8
2
  5
D2B
 10
-150.611724
 20
107.601529
 30
0.0
  0
VERTEX
  8
2
  5
D2C
 10
-150.084282
 20
107.081915
 30
0.0
  0
VERTEX
  8
2
  5
D2D
 10
-149.495712
 20
106.562301
 30
0.0
  0
VERTEX
  8
2
  5
D2E
 10
-148.834947
 20
106.042687
 30
0.0
  0
VERTEX
  8
2
  5
D2F
 10
-148.086101
 20
105.523073
 30
0.0
  0
VERTEX
  8
2
  5
D30
 10
-147.224897
 20
105.003459
 30
0.0
  0
VERTEX
  8
2
  5
D31
 10
-146.210706
 20
104.483845
 30
0.0
  0
VERTEX
  8
2
  5
D32
 10
-144.964876
 20
103.964231
 30
0.0
  0
VERTEX
  8
2
  5
D33
 10
-143.286101
 20
103.444617
 30
0.0
  0
VERTEX
  8
2
  5
D34
 10
-139.086101
 20
102.925003
 30
0.0
  0
VERTEX
  8
2
  5
D35
 10
-134.886101
 20
103.444617
 30
0.0
  0
VERTEX
  8
2
  5
D36
 10
-133.207325
 20
103.964231
 30
0.0
  0
VERTEX
  8
2
  5
D37
 10
-131.961495
 20
104.483845
 30
0.0
  0
VERTEX
  8
2
  5
D38
 10
-130.947305
 20
105.003459
 30
0.0
  0
VERTEX
  8
2
  5
D39
 10
-130.086101
 20
105.523073
 30
0.0
  0
VERTEX
  8
2
  5
D3A
 10
-129.337255
 20
106.042687
 30
0.0
  0
VERTEX
  8
2
  5
D3B
 10
-128.67649
 20
106.562301
 30
0.0
  0
VERTEX
  8
2
  5
D3C
 10
-128.087919
 20
107.081915
 30
0.0
  0
VERTEX
  8
2
  5
D3D
 10
-127.560477
 20
107.601529
 30
0.0
  0
VERTEX
  8
2
  5
D3E
 10
-127.086101
 20
108.121143
 30
0.0
  0
VERTEX
  8
2
  5
D3F
 10
-126.658712
 20
108.640757
 30
0.0
  0
VERTEX
  8
2
  5
D40
 10
-126.273607
 20
109.160371
 30
0.0
  0
VERTEX
  8
2
  5
D41
 10
-125.927073
 20
109.679985
 30
0.0
  0
VERTEX
  8
2
  5
D42
 10
-125.616134
 20
110.199599
 30
0.0
  0
VERTEX
  8
2
  5
D43
 10
-125.338374
 20
110.719213
 30
0.0
  0
VERTEX
  8
2
  5
D44
 10
-125.091816
 20
111.238827
 30
0.0
  0
VERTEX
  8
2
  5
D45
 10
-124.874838
 20
111.758442
 30
0.0
  0
VERTEX
  8
2
  5
D46
 10
-124.686101
 20
112.278056
 30
0.0
  0
VERTEX
  8
2
  5
D47
 10
-124.524507
 20
112.79767
 30
0.0
  0
VERTEX
  8
2
  5
D48
 10
-124.389162
 20
113.317284
 30
0.0
  0
VERTEX
  8
2
  5
D49
 10
-124.279345
 20
113.836898
 30
0.0
  0
VERTEX
  8
2
  5
D4A
 10
-124.194492
 20
114.356512
 30
0.0
  0
VERTEX
  8
2
  5
D4B
 10
-124.134178
 20
114.876126
 30
0.0
  0
VERTEX
  8
2
  5
D4C
 10
-124.098106
 20
115.39574
 30
0.0
  0
VERTEX
  8
2
  5
D4D
 10
-124.086101
 20
115.915354
 30
0.0
  0
SEQEND
  8
2
  5
D4E
  0
LINE
  8
2
  5
214
 10
-150.586101
 20
94.418777
 30
0.0
 11
-150.586101
 21
89.30454
 31
0.0
  0
LINE
  8
2
  5
215
 10
-127.586101
 20
94.418777
 30
0.0
 11
-127.586101
 21
89.30454
 31
0.0
  0
POLYLINE
  8
2
  5
216
 66
     1
 10
0.0
 20
0.0
 30
0.0
 70
     1
  0
VERTEX
  8
2
  5
D4F
 10
-127.586101
 20
89.30454
 30
0.0
  0
VERTEX
  8
2
  5
D50
 10
-127.657309
 20
89.844551
 30
0.0
  0
VERTEX
  8
2
  5
D51
 10
-127.873646
 20
90.384562
 30
0.0
  0
VERTEX
  8
2
  5
D52
 10
-128.243797
 20
90.924572
 30
0.0
  0
VERTEX
  8
2
  5
D53
 10
-128.784327
 20
91.464583
 30
0.0
  0
VERTEX
  8
2
  5
D54
 10
-129.524087
 20
92.004594
 30
0.0
  0
VERTEX
  8
2
  5
D55
 10
-130.514507
 20
92.544605
 30
0.0
  0
VERTEX
  8
2
  5
D56
 10
-131.857898
 20
93.084615
 30
0.0
  0
VERTEX
  8
2
  5
D57
 10
-133.817688
 20
93.624626
 30
0.0
  0
VERTEX
  8
2
  5
D58
 10
-139.086101
 20
94.164637
 30
0.0
  0
VERTEX
  8
2
  5
D59
 10
-144.354513
 20
93.624626
 30
0.0
  0
VERTEX
  8
2
  5
D5A
 10
-146.314303
 20
93.084615
 30
0.0
  0
VERTEX
  8
2
  5
D5B
 10
-147.657695
 20
92.544605
 30
0.0
  0
VERTEX
  8
2
  5
D5C
 10
-148.648114
 20
92.004594
 30
0.0
  0
VERTEX
  8
2
  5
D5D
 10
-149.387874
 20
91.464583
 30
0.0
  0
VERTEX
  8
2
  5
D5E
 10
-149.928405
 20
90.924572
 30
0.0
  0
VERTEX
  8
2
  5
D5F
 10
-150.298555
 20
90.384562
 30
0.0
  0
VERTEX
  8
2
  5
D60
 10
-150.514893
 20
89.844551
 30
0.0
  0
VERTEX
  8
2
  5
D61
 10
-150.586101
 20
89.30454
 30
0.0
  0
VERTEX
  8
2
  5
D62
 10
-150.514893
 20
88.76453
 30
0.0
  0
VERTEX
  8
2
  5
D63
 10
-150.298555
 20
88.224519
 30
0.0
  0
VERTEX
  8
2
  5
D64
 10
-149.928405
 20
87.684508
 30
0.0
  0
VERTEX
  8
2
  5
D65
 10
-149.387874
 20
87.144498
 30
0.0
  0
VERTEX
  8
2
  5
D66
 10
-148.648114
 20
86.604487
 30
0.0
  0
VERTEX
  8
2
  5
D67
 10
-147.657695
 20
86.064476
 30
0.0
  0
VERTEX
  8
2
  5
D68
 10
-146.314303
 20
85.524466
 30
0.0
  0
VERTEX
  8
2
  5
D69
 10
-144.354513
 20
84.984455
 30
0.0
  0
VERTEX
  8
2
  5
D6A
 10
-139.086101
 20
84.444444
 30
0.0
  0
VERTEX
  8
2
  5
D6B
 10
-133.817688
 20
84.984455
 30
0.0
  0
VERTEX
  8
2
  5
D6C
 10
-131.857898
 20
85.524466
 30
0.0
  0
VERTEX
  8
2
  5
D6D
 10
-130.514507
 20
86.064476
 30
0.0
  0
VERTEX
  8
2
  5
D6E
 10
-129.524087
 20
86.604487
 30
0.0
  0
VERTEX
  8
2
  5
D6F
 10
-128.784327
 20
87.144498
 30
0.0
  0
VERTEX
  8
2
  5
D70
 10
-128.243797
 20
87.684508
 30
0.0
  0
VERTEX
  8
2
  5
D71
 10
-127.873646
 20
88.224519
 30
0.0
  0
VERTEX
  8
2
  5
D72
 10
-127.657309
 20
88.76453
 30
0.0
  0
VERTEX
  8
2
  5
D73
 10
-127.586101
 20
89.30454
 30
0.0
  0
SEQEND
  8
2
  5
D74
  0
POLYLINE
  8
2
  5
23D
 66
     1
 10
0.0
 20
0.0
 30
0.0
  0
VERTEX
  8
2
  5
D75
 10
-127.586101
 20
93.091797
 30
0.0
  0
VERTEX
  8
2
  5
D76
 10
-127.482781
 20
93.341952
 30
0.0
  0
VERTEX
  8
2
  5
D77
 10
-127.334962
 20
93.880365
 30
0.0
  0
VERTEX
  8
2
  5
D78
 10
-127.286101
 20
94.418777
 30
0.0
  0
VERTEX
  8
2
  5
D79
 10
-127.334962
 20
94.95719
 30
0.0
  0
VERTEX
  8
2
  5
D7A
 10
-127.482781
 20
95.495602
 30
0.0
  0
VERTEX
  8
2
  5
D7B
 10
-127.733422
 20
96.034014
 30
0.0
  0
VERTEX
  8
2
  5
D7C
 10
-128.093917
 20
96.572427
 30
0.0
  0
VERTEX
  8
2
  5
D7D
 10
-128.575563
 20
97.110839
 30
0.0
  0
VERTEX
  8
2
  5
D7E
 10
-129.196044
 20
97.649252
 30
0.0
  0
VERTEX
  8
2
  5
D7F
 10
-129.983708
 20
98.187664
 30
0.0
  0
VERTEX
  8
2
  5
D80
 10
-130.987187
 20
98.726077
 30
0.0
  0
VERTEX
  8
2
  5
D81
 10
-132.301578
 20
99.264489
 30
0.0
  0
VERTEX
  8
2
  5
D82
 10
-134.170247
 20
99.802902
 30
0.0
  0
VERTEX
  8
2
  5
D83
 10
-139.086101
 20
100.341314
 30
0.0
  0
VERTEX
  8
2
  5
D84
 10
-144.001955
 20
99.802902
 30
0.0
  0
VERTEX
  8
2
  5
D85
 10
-145.870624
 20
99.264489
 30
0.0
  0
VERTEX
  8
2
  5
D86
 10
-147.185014
 20
98.726077
 30
0.0
  0
VERTEX
  8
2
  5
D87
 10
-148.188493
 20
98.187664
 30
0.0
  0
VERTEX
  8
2
  5
D88
 10
-148.976157
 20
97.649252
 30
0.0
  0
VERTEX
  8
2
  5
D89
 10
-149.596639
 20
97.110839
 30
0.0
  0
VERTEX
  8
2
  5
D8A
 10
-150.078284
 20
96.572427
 30
0.0
  0
VERTEX
  8
2
  5
D8B
 10
-150.438779
 20
96.034014
 30
0.0
  0
VERTEX
  8
2
  5
D8C
 10
-150.68942
 20
95.495602
 30
0.0
  0
VERTEX
  8
2
  5
D8D
 10
-150.837239
 20
94.95719
 30
0.0
  0
VERTEX
  8
2
  5
D8E
 10
-150.886101
 20
94.418777
 30
0.0
  0
VERTEX
  8
2
  5
D8F
 10
-150.837239
 20
93.880365
 30
0.0
  0
VERTEX
  8
2
  5
D90
 10
-150.68942
 20
93.341952
 30
0.0
  0
VERTEX
  8
2
  5
D91
 10
-150.586101
 20
93.091797
 30
0.0
  0
SEQEND
  8
2
  5
D92
  0
POLYLINE
  8
2
  5
25C
 66
     1
 10
0.0
 20
0.0
 30
0.0
  0
VERTEX
  8
2
  5
D93
 10
-127.586101
 20
94.418777
 30
0.0
  0
VERTEX
  8
2
  5
D94
 10
-127.63372
 20
94.9435
 30
0.0
  0
VERTEX
  8
2
  5
D95
 10
-127.777781
 20
95.468222
 30
0.0
  0
VERTEX
  8
2
  5
D96
 10
-128.02205
 20
95.992945
 30
0.0
  0
VERTEX
  8
2
  5
D97
 10
-128.373379
 20
96.517667
 30
0.0
  0
VERTEX
  8
2
  5
D98
 10
-128.84278
 20
97.04239
 30
0.0
  0
VERTEX
  8
2
  5
D99
 10
-129.447486
 20
97.567112
 30
0.0
  0
VERTEX
  8
2
  5
D9A
 10
-130.215125
 20
98.091835
 30
0.0
  0
VERTEX
  8
2
  5
D9B
 10
-131.193092
 20
98.616557
 30
0.0
  0
VERTEX
  8
2
  5
D9C
 10
-132.474066
 20
99.14128
 30
0.0
  0
VERTEX
  8
2
  5
D9D
 10
-134.295226
 20
99.666002
 30
0.0
  0
VERTEX
  8
2
  5
D9E
 10
-139.086101
 20
100.190725
 30
0.0
  0
VERTEX
  8
2
  5
D9F
 10
-143.876975
 20
99.666002
 30
0.0
  0
VERTEX
  8
2
  5
DA0
 10
-145.698136
 20
99.14128
 30
0.0
  0
VERTEX
  8
2
  5
DA1
 10
-146.979109
 20
98.616557
 30
0.0
  0
VERTEX
  8
2
  5
DA2
 10
-147.957077
 20
98.091835
 30
0.0
  0
VERTEX
  8
2
  5
DA3
 10
-148.724715
 20
97.567112
 30
0.0
  0
VERTEX
  8
2
  5
DA4
 10
-149.329421
 20
97.04239
 30
0.0
  0
VERTEX
  8
2
  5
DA5
 10
-149.798822
 20
96.517667
 30
0.0
  0
VERTEX
  8
2
  5
DA6
 10
-150.150152
 20
95.992945
 30
0.0
  0
VERTEX
  8
2
  5
DA7
 10
-150.394421
 20
95.468222
 30
0.0
  0
VERTEX
  8
2
  5
DA8
 10
-150.538481
 20
94.9435
 30
0.0
  0
VERTEX
  8
2
  5
DA9
 10
-150.586101
 20
94.418777
 30
0.0
  0
SEQEND
  8
2
  5
DAA
  0
POLYLINE
  8
2
  5
275
 66
     1
 10
0.0
 20
0.0
 30
0.0
 70
     1
  0
VERTEX
  8
2
  5
DAB
 10
-129.636101
 20
89.350093
 30
0.0
  0
VERTEX
  8
2
  5
DAC
 10
-129.733026
 20
89.920628
 30
0.0
  0
VERTEX
  8
2
  5
DAD
 10
-130.030025
 20
90.491162
 30
0.0
  0
VERTEX
  8
2
  5
DAE
 10
-130.547951
 20
91.061697
 30
0.0
  0
VERTEX
  8
2
  5
DAF
 10
-131.330941
 20
91.632232
 30
0.0
  0
VERTEX
  8
2
  5
DB0
 10
-132.472478
 20
92.202766
 30
0.0
  0
VERTEX
  8
2
  5
DB1
 10
-134.218606
 20
92.773301
 30
0.0
  0
VERTEX
  8
2
  5
DB2
 10
-139.086101
 20
93.343836
 30
0.0
  0
VERTEX
  8
2
  5
DB3
 10
-143.953595
 20
92.773301
 30
0.0
  0
VERTEX
  8
2
  5
DB4
 10
-145.699723
 20
92.202766
 30
0.0
  0
VERTEX
  8
2
  5
DB5
 10
-146.84126
 20
91.632232
 30
0.0
  0
VERTEX
  8
2
  5
DB6
 10
-147.62425
 20
91.061697
 30
0.0
  0
VERTEX
  8
2
  5
DB7
 10
-148.142176
 20
90.491162
 30
0.0
  0
VERTEX
  8
2
  5
DB8
 10
-148.439175
 20
89.920628
 30
0.0
  0
VERTEX
  8
2
  5
DB9
 10
-148.536101
 20
89.350093
 30
0.0
  0
VERTEX
  8
2
  5
DBA
 10
-148.439175
 20
88.779558
 30
0.0
  0
VERTEX
  8
2
  5
DBB
 10
-148.142176
 20
88.209024
 30
0.0
  0
VERTEX
  8
2
  5
DBC
 10
-147.62425
 20
87.638489
 30
0.0
  0
VERTEX
  8
2
  5
DBD
 10
-146.84126
 20
87.067954
 30
0.0
  0
VERTEX
  8
2
  5
DBE
 10
-145.699723
 20
86.49742
 30
0.0
  0
VERTEX
  8
2
  5
DBF
 10
-143.953595
 20
85.926885
 30
0.0
  0
VERTEX
  8
2
  5
DC0
 10
-139.086101
 20
85.35635
 30
0.0
  0
VERTEX
  8
2
  5
DC1
 10
-134.218606
 20
85.926885
 30
0.0
  0
VERTEX
  8
2
  5
DC2
 10
-132.472478
 20
86.49742
 30
0.0
  0
VERTEX
  8
2
  5
DC3
 10
-131.330941
 20
87.067954
 30
0.0
  0
VERTEX
  8
2
  5
DC4
 10
-130.547951
 20
87.638489
 30
0.0
  0
VERTEX
  8
2
  5
DC5
 10
-130.030025
 20
88.209024
 30
0.0
  0
VERTEX
  8
2
  5
DC6
 10
-129.733026
 20
88.779558
 30
0.0
  0
VERTEX
  8
2
  5
DC7
 10
-129.636101
 20
89.350093
 30
0.0
  0
SEQEND
  8
2
  5
DC8
  0
POLYLINE
  8
2
  5
294
 66
     1
 10
0.0
 20
0.0
 30
0.0
  0
VERTEX
  8
2
  5
295
 10
-151.086101
 20
77.121095
 30
0.0
 40
0.0
 41
0.0
  0
VERTEX
  8
2
  5
296
 10
-151.086101
 20
77.121095
 30
0.0
 40
0.0
 41
0.0
  0
VERTEX
  8
2
  5
297
 10
-150.611724
 20
76.601479
 30
0.0
 40
0.0
 41
0.0
  0
VERTEX
  8
2
  5
298
 10
-150.084282
 20
76.081864
 30
0.0
 40
0.0
 41
0.0
  0
VERTEX
  8
2
  5
299
 10
-149.495712
 20
75.562249
 30
0.0
 40
0.0
 41
0.0
  0
VERTEX
  8
2
  5
29A
 10
-148.834947
 20
75.042634
 30
0.0
 40
0.0
 41
0.0
  0
VERTEX
  8
2
  5
29B
 10
-148.086101
 20
74.523018
 30
0.0
 40
0.0
 41
0.0
  0
VERTEX
  8
2
  5
29C
 10
-147.224897
 20
74.003403
 30
0.0
 40
0.0
 41
0.0
  0
VERTEX
  8
2
  5
29D
 10
-146.210706
 20
73.483788
 30
0.0
 40
0.0
 41
0.0
  0
VERTEX
  8
2
  5
29E
 10
-144.964876
 20
72.964173
 30
0.0
 40
0.0
 41
0.0
  0
VERTEX
  8
2
  5
29F
 10
-143.286101
 20
72.444557
 30
0.0
 40
0.0
 41
0.0
  0
VERTEX
  8
2
  5
2A0
 10
-139.086101
 20
71.924942
 30
0.0
 40
0.0
 41
0.0
  0
VERTEX
  8
2
  5
2A1
 10
-134.886101
 20
72.444557
 30
0.0
 40
0.0
 41
0.0
  0
VERTEX
  8
2
  5
2A2
 10
-133.207325
 20
72.964173
 30
0.0
 40
0.0
 41
0.0
  0
VERTEX
  8
2
  5
2A3
 10
-131.961495
 20
73.483788
 30
0.0
 40
0.0
 41
0.0
  0
VERTEX
  8
2
  5
2A4
 10
-130.947305
 20
74.003403
 30
0.0
 40
0.0
 41
0.0
  0
VERTEX
  8
2
  5
2A5
 10
-130.086101
 20
74.523018
 30
0.0
 40
0.0
 41
0.0
  0
VERTEX
  8
2
  5
2A6
 10
-129.337255
 20
75.042634
 30
0.0
 40
0.0
 41
0.0
  0
VERTEX
  8
2
  5
2A7
 10
-128.67649
 20
75.562249
 30
0.0
 40
0.0
 41
0.0
  0
VERTEX
  8
2
  5
2A8
 10
-128.087919
 20
76.081864
 30
0.0
 40
0.0
 41
0.0
  0
VERTEX
  8
2
  5
2A9
 10
-127.560477
 20
76.601479
 30
0.0
 40
0.0
 41
0.0
  0
VERTEX
  8
2
  5
2AA
 10
-127.086101
 20
77.121095
 30
0.0
 40
0.0
 41
0.0
  0
SEQEND
  8
2
  5
2AB
  0
POLYLINE
  8
2
  5
2AC
 66
     1
 10
0.0
 20
0.0
 30
0.0
  0
VERTEX
  8
2
  5
DC9
 10
-151.086101
 20
79.221111
 30
0.0
  0
VERTEX
  8
2
  5
DCA
 10
-150.611724
 20
78.701494
 30
0.0
  0
VERTEX
  8
2
  5
DCB
 10
-150.084282
 20
78.181877
 30
0.0
  0
VERTEX
  8
2
  5
DCC
 10
-149.495712
 20
77.66226
 30
0.0
  0
VERTEX
  8
2
  5
DCD
 10
-148.834947
 20
77.142643
 30
0.0
  0
VERTEX
  8
2
  5
DCE
 10
-148.086101
 20
76.623026
 30
0.0
  0
VERTEX
  8
2
  5
DCF
 10
-147.224897
 20
76.103409
 30
0.0
  0
VERTEX
  8
2
  5
DD0
 10
-146.210706
 20
75.583793
 30
0.0
  0
VERTEX
  8
2
  5
DD1
 10
-144.964876
 20
75.064176
 30
0.0
  0
VERTEX
  8
2
  5
DD2
 10
-143.286101
 20
74.544559
 30
0.0
  0
VERTEX
  8
2
  5
DD3
 10
-139.086101
 20
74.024942
 30
0.0
  0
VERTEX
  8
2
  5
DD4
 10
-134.886101
 20
74.544559
 30
0.0
  0
VERTEX
  8
2
  5
DD5
 10
-133.207325
 20
75.064176
 30
0.0
  0
VERTEX
  8
2
  5
DD6
 10
-131.961495
 20
75.583793
 30
0.0
  0
VERTEX
  8
2
  5
DD7
 10
-130.947305
 20
76.103409
 30
0.0
  0
VERTEX
  8
2
  5
DD8
 10
-130.086101
 20
76.623026
 30
0.0
  0
VERTEX
  8
2
  5
DD9
 10
-129.337255
 20
77.142643
 30
0.0
  0
VERTEX
  8
2
  5
DDA
 10
-128.67649
 20
77.66226
 30
0.0
  0
VERTEX
  8
2
  5
DDB
 10
-128.087919
 20
78.181877
 30
0.0
  0
VERTEX
  8
2
  5
DDC
 10
-127.560477
 20
78.701494
 30
0.0
  0
VERTEX
  8
2
  5
DDD
 10
-127.086101
 20
79.221111
 30
0.0
  0
SEQEND
  8
2
  5
DDE
  0
LINE
  8
2
  5
2C3
 10
-151.086101
 20
77.121095
 30
0.0
 11
-151.086101
 21
79.221111
 31
0.0
  0
LINE
  8
2
  5
2C4
 10
-127.186101
 20
79.106957
 30
0.0
 11
-127.186101
 21
77.344792
 31
0.0
  0
LINE
  8
2
  5
2C5
 10
-150.986101
 20
79.106957
 30
0.0
 11
-150.986101
 21
77.344792
 31
0.0
  0
POLYLINE
  8
2
  5
2C6
 66
     1
 10
0.0
 20
0.0
 30
0.0
  0
VERTEX
  8
2
  5
DDF
 10
-150.986101
 20
77.344792
 30
0.0
  0
VERTEX
  8
2
  5
DE0
 10
-150.926101
 20
77.275018
 30
0.0
  0
VERTEX
  8
2
  5
DE1
 10
-150.458049
 20
76.762331
 30
0.0
  0
VERTEX
  8
2
  5
DE2
 10
-149.93764
 20
76.249643
 30
0.0
  0
VERTEX
  8
2
  5
DE3
 10
-149.356917
 20
75.736956
 30
0.0
  0
VERTEX
  8
2
  5
DE4
 10
-148.704962
 20
75.224269
 30
0.0
  0
VERTEX
  8
2
  5
DE5
 10
-147.966101
 20
74.711582
 30
0.0
  0
VERTEX
  8
2
  5
DE6
 10
-147.116379
 20
74.198895
 30
0.0
  0
VERTEX
  8
2
  5
DE7
 10
-146.115711
 20
73.686208
 30
0.0
  0
VERTEX
  8
2
  5
DE8
 10
-144.886492
 20
73.173521
 30
0.0
  0
VERTEX
  8
2
  5
DE9
 10
-143.230101
 20
72.660834
 30
0.0
  0
VERTEX
  8
2
  5
DEA
 10
-139.086101
 20
72.148147
 30
0.0
  0
VERTEX
  8
2
  5
DEB
 10
-134.942101
 20
72.660834
 30
0.0
  0
VERTEX
  8
2
  5
DEC
 10
-133.285709
 20
73.173521
 30
0.0
  0
VERTEX
  8
2
  5
DED
 10
-132.05649
 20
73.686208
 30
0.0
  0
VERTEX
  8
2
  5
DEE
 10
-131.055822
 20
74.198895
 30
0.0
  0
VERTEX
  8
2
  5
DEF
 10
-130.206101
 20
74.711582
 30
0.0
  0
VERTEX
  8
2
  5
DF0
 10
-129.467239
 20
75.224269
 30
0.0
  0
VERTEX
  8
2
  5
DF1
 10
-128.815285
 20
75.736956
 30
0.0
  0
VERTEX
  8
2
  5
DF2
 10
-128.234561
 20
76.249643
 30
0.0
  0
VERTEX
  8
2
  5
DF3
 10
-127.714152
 20
76.762331
 30
0.0
  0
VERTEX
  8
2
  5
DF4
 10
-127.246101
 20
77.275018
 30
0.0
  0
VERTEX
  8
2
  5
DF5
 10
-127.186101
 20
77.344792
 30
0.0
  0
SEQEND
  8
2
  5
DF6
  0
LINE
  8
2
  5
2DF
 10
-137.136101
 20
61.053167
 30
0.0
 11
-141.036101
 21
61.053167
 31
0.0
  0
LINE
  8
2
  5
2E0
 10
-137.136101
 20
63.035603
 30
0.0
 11
-137.136101
 21
61.053167
 31
0.0
  0
LINE
  8
2
  5
2E1
 10
-141.036101
 20
63.035603
 30
0.0
 11
-141.036101
 21
61.053167
 31
0.0
  0
POLYLINE
  8
2
  5
2E2
 66
     1
 10
0.0
 20
0.0
 30
0.0
  0
VERTEX
  8
2
  5
DF7
 10
-137.036101
 20
63.412981
 30
0.0
  0
VERTEX
  8
2
  5
DF8
 10
-134.886101
 20
63.810713
 30
0.0
  0
VERTEX
  8
2
  5
DF9
 10
-133.207325
 20
64.330333
 30
0.0
  0
VERTEX
  8
2
  5
DFA
 10
-131.961495
 20
64.849953
 30
0.0
  0
VERTEX
  8
2
  5
DFB
 10
-130.947305
 20
65.369573
 30
0.0
  0
VERTEX
  8
2
  5
DFC
 10
-130.086101
 20
65.889193
 30
0.0
  0
VERTEX
  8
2
  5
DFD
 10
-129.337255
 20
66.408813
 30
0.0
  0
VERTEX
  8
2
  5
DFE
 10
-128.67649
 20
66.928433
 30
0.0
  0
VERTEX
  8
2
  5
DFF
 10
-128.087919
 20
67.448053
 30
0.0
  0
VERTEX
  8
2
  5
E00
 10
-127.560477
 20
67.967673
 30
0.0
  0
VERTEX
  8
2
  5
E01
 10
-127.086101
 20
68.487293
 30
0.0
  0
VERTEX
  8
2
  5
E02
 10
-126.658712
 20
69.006913
 30
0.0
  0
VERTEX
  8
2
  5
E03
 10
-126.273607
 20
69.526533
 30
0.0
  0
VERTEX
  8
2
  5
E04
 10
-125.927073
 20
70.046153
 30
0.0
  0
VERTEX
  8
2
  5
E05
 10
-125.616134
 20
70.565773
 30
0.0
  0
VERTEX
  8
2
  5
E06
 10
-125.338374
 20
71.085393
 30
0.0
  0
VERTEX
  8
2
  5
E07
 10
-125.091816
 20
71.605013
 30
0.0
  0
VERTEX
  8
2
  5
E08
 10
-124.874838
 20
72.124633
 30
0.0
  0
VERTEX
  8
2
  5
E09
 10
-124.686101
 20
72.644253
 30
0.0
  0
VERTEX
  8
2
  5
E0A
 10
-124.524507
 20
73.163873
 30
0.0
  0
VERTEX
  8
2
  5
E0B
 10
-124.389162
 20
73.683493
 30
0.0
  0
VERTEX
  8
2
  5
E0C
 10
-124.279345
 20
74.203113
 30
0.0
  0
VERTEX
  8
2
  5
E0D
 10
-124.194492
 20
74.722733
 30
0.0
  0
VERTEX
  8
2
  5
E0E
 10
-124.134178
 20
75.242353
 30
0.0
  0
VERTEX
  8
2
  5
E0F
 10
-124.098106
 20
75.761973
 30
0.0
  0
VERTEX
  8
2
  5
E10
 10
-124.086101
 20
76.281593
 30
0.0
  0
SEQEND
  8
2
  5
E11
  0
POLYLINE
  8
2
  5
2FE
 66
     1
 10
0.0
 20
0.0
 30
0.0
  0
VERTEX
  8
2
  5
E12
 10
-154.086101
 20
76.281593
 30
0.0
  0
VERTEX
  8
2
  5
E13
 10
-154.074096
 20
75.761973
 30
0.0
  0
VERTEX
  8
2
  5
E14
 10
-154.038024
 20
75.242353
 30
0.0
  0
VERTEX
  8
2
  5
E15
 10
-153.977709
 20
74.722733
 30
0.0
  0
VERTEX
  8
2
  5
E16
 10
-153.892856
 20
74.203113
 30
0.0
  0
VERTEX
  8
2
  5
E17
 10
-153.783039
 20
73.683493
 30
0.0
  0
VERTEX
  8
2
  5
E18
 10
-153.647694
 20
73.163873
 30
0.0
  0
VERTEX
  8
2
  5
E19
 10
-153.486101
 20
72.644253
 30
0.0
  0
VERTEX
  8
2
  5
E1A
 10
-153.297364
 20
72.124633
 30
0.0
  0
VERTEX
  8
2
  5
E1B
 10
-153.080385
 20
71.605013
 30
0.0
  0
VERTEX
  8
2
  5
E1C
 10
-152.833828
 20
71.085393
 30
0.0
  0
VERTEX
  8
2
  5
E1D
 10
-152.556067
 20
70.565773
 30
0.0
  0
VERTEX
  8
2
  5
E1E
 10
-152.245128
 20
70.046153
 30
0.0
  0
VERTEX
  8
2
  5
E1F
 10
-151.898595
 20
69.526533
 30
0.0
  0
VERTEX
  8
2
  5
E20
 10
-151.51349
 20
69.006913
 30
0.0
  0
VERTEX
  8
2
  5
E21
 10
-151.086101
 20
68.487293
 30
0.0
  0
VERTEX
  8
2
  5
E22
 10
-150.611724
 20
67.967673
 30
0.0
  0
VERTEX
  8
2
  5
E23
 10
-150.084282
 20
67.448053
 30
0.0
  0
VERTEX
  8
2
  5
E24
 10
-149.495712
 20
66.928433
 30
0.0
  0
VERTEX
  8
2
  5
E25
 10
-148.834947
 20
66.408813
 30
0.0
  0
VERTEX
  8
2
  5
E26
 10
-148.086101
 20
65.889193
 30
0.0
  0
VERTEX
  8
2
  5
E27
 10
-147.224897
 20
65.369573
 30
0.0
  0
VERTEX
  8
2
  5
E28
 10
-146.210706
 20
64.849953
 30
0.0
  0
VERTEX
  8
2
  5
E29
 10
-144.964876
 20
64.330333
 30
0.0
  0
VERTEX
  8
2
  5
E2A
 10
-143.286101
 20
63.810713
 30
0.0
  0
VERTEX
  8
2
  5
E2B
 10
-141.136101
 20
63.412981
 30
0.0
  0
SEQEND
  8
2
  5
E2C
  0
LINE
  8
2
  5
31A
 10
-127.086101
 20
77.121095
 30
0.0
 11
-127.086101
 21
79.221111
 31
0.0
  0
LINE
  8
2
  5
31B
 10
150.898505
 20
-5.518602
 30
0.0
 11
150.898505
 21
-3.518602
 31
0.0
  0
LINE
  8
2
  5
31C
 10
200.898505
 20
-5.518602
 30
0.0
 11
200.898505
 21
-3.518602
 31
0.0
  0
LINE
  8
2
  5
31D
 10
150.898505
 20
-5.018602
 30
0.0
 11
200.898505
 21
-5.018602
 31
0.0
  0
LINE
  8
2
  5
31E
 10
200.898505
 20
-3.518602
 30
0.0
 11
150.898505
 21
-3.518602
 31
0.0
  0
LINE
  8
2
  5
31F
 10
149.898505
 20
-5.518602
 30
0.0
 11
201.898505
 21
-5.518602
 31
0.0
  0
LINE
  8
2
  5
320
 10
152.398505
 20
12.781398
 30
0.0
 11
199.398505
 21
12.781398
 31
0.0
  0
LINE
  8
2
  5
321
 10
199.398505
 20
12.781398
 30
0.0
 11
199.398505
 21
9.781398
 31
0.0
  0
LINE
  8
2
  5
322
 10
152.398505
 20
12.781398
 30
0.0
 11
152.398505
 21
9.781398
 31
0.0
  0
LINE
  8
2
  5
323
 10
193.648505
 20
12.781398
 30
0.0
 11
199.398505
 21
12.781398
 31
0.0
  0
LINE
  8
2
  5
324
 10
152.398505
 20
9.781398
 30
0.0
 11
199.398505
 21
9.781398
 31
0.0
  0
LINE
  8
2
  5
325
 10
193.398505
 20
-5.518602
 30
0.0
 11
201.898505
 21
-5.518602
 31
0.0
  0
LINE
  8
2
 62
     2
  5
326
 10
174.398505
 20
-5.018602
 30
0.0
 11
175.898505
 21
-3.518602
 31
0.0
  0
LINE
  8
2
 62
     2
  5
327
 10
174.964191
 20
-5.018602
 30
0.0
 11
176.464191
 21
-3.518602
 31
0.0
  0
LINE
  8
2
 62
     2
  5
328
 10
175.529876
 20
-5.018602
 30
0.0
 11
177.029876
 21
-3.518602
 31
0.0
  0
LINE
  8
2
 62
     2
  5
329
 10
176.095561
 20
-5.018602
 30
0.0
 11
177.595561
 21
-3.518602
 31
0.0
  0
LINE
  8
2
 62
     2
  5
32A
 10
176.661247
 20
-5.018602
 30
0.0
 11
178.161247
 21
-3.518602
 31
0.0
  0
LINE
  8
2
 62
     2
  5
32B
 10
177.226932
 20
-5.018602
 30
0.0
 11
178.726932
 21
-3.518602
 31
0.0
  0
LINE
  8
2
 62
     2
  5
32C
 10
177.792618
 20
-5.018602
 30
0.0
 11
179.292618
 21
-3.518602
 31
0.0
  0
LINE
  8
2
 62
     2
  5
32D
 10
178.358303
 20
-5.018602
 30
0.0
 11
179.858303
 21
-3.518602
 31
0.0
  0
LINE
  8
2
 62
     2
  5
32E
 10
178.923989
 20
-5.018602
 30
0.0
 11
180.423989
 21
-3.518602
 31
0.0
  0
LINE
  8
2
 62
     2
  5
32F
 10
179.489674
 20
-5.018602
 30
0.0
 11
180.989674
 21
-3.518602
 31
0.0
  0
LINE
  8
2
 62
     2
  5
330
 10
180.055359
 20
-5.018602
 30
0.0
 11
181.555359
 21
-3.518602
 31
0.0
  0
LINE
  8
2
 62
     2
  5
331
 10
180.621045
 20
-5.018602
 30
0.0
 11
182.121045
 21
-3.518602
 31
0.0
  0
LINE
  8
2
 62
     2
  5
332
 10
181.18673
 20
-5.018602
 30
0.0
 11
182.68673
 21
-3.518602
 31
0.0
  0
LINE
  8
2
 62
     2
  5
333
 10
181.752416
 20
-5.018602
 30
0.0
 11
183.252416
 21
-3.518602
 31
0.0
  0
LINE
  8
2
 62
     2
  5
334
 10
182.318101
 20
-5.018602
 30
0.0
 11
183.818101
 21
-3.518602
 31
0.0
  0
LINE
  8
2
 62
     2
  5
335
 10
182.883787
 20
-5.018602
 30
0.0
 11
184.383787
 21
-3.518602
 31
0.0
  0
LINE
  8
2
 62
     2
  5
336
 10
183.449472
 20
-5.018602
 30
0.0
 11
184.949472
 21
-3.518602
 31
0.0
  0
LINE
  8
2
 62
     2
  5
337
 10
184.015157
 20
-5.018602
 30
0.0
 11
185.515157
 21
-3.518602
 31
0.0
  0
LINE
  8
2
 62
     2
  5
338
 10
184.580843
 20
-5.018602
 30
0.0
 11
186.080843
 21
-3.518602
 31
0.0
  0
LINE
  8
2
 62
     2
  5
339
 10
185.146528
 20
-5.018602
 30
0.0
 11
186.646528
 21
-3.518602
 31
0.0
  0
LINE
  8
2
 62
     2
  5
33A
 10
185.712214
 20
-5.018602
 30
0.0
 11
187.212214
 21
-3.518602
 31
0.0
  0
LINE
  8
2
 62
     2
  5
33B
 10
186.277899
 20
-5.018602
 30
0.0
 11
187.777899
 21
-3.518602
 31
0.0
  0
LINE
  8
2
 62
     2
  5
33C
 10
186.843585
 20
-5.018602
 30
0.0
 11
188.343585
 21
-3.518602
 31
0.0
  0
LINE
  8
2
 62
     2
  5
33D
 10
187.40927
 20
-5.018602
 30
0.0
 11
188.90927
 21
-3.518602
 31
0.0
  0
LINE
  8
2
 62
     2
  5
33E
 10
187.974955
 20
-5.018602
 30
0.0
 11
189.474955
 21
-3.518602
 31
0.0
  0
LINE
  8
2
 62
     2
  5
33F
 10
188.540641
 20
-5.018602
 30
0.0
 11
190.040641
 21
-3.518602
 31
0.0
  0
LINE
  8
2
 62
     2
  5
340
 10
189.106326
 20
-5.018602
 30
0.0
 11
190.606326
 21
-3.518602
 31
0.0
  0
LINE
  8
2
 62
     2
  5
341
 10
189.672012
 20
-5.018602
 30
0.0
 11
191.172012
 21
-3.518602
 31
0.0
  0
LINE
  8
2
 62
     2
  5
342
 10
190.237697
 20
-5.018602
 30
0.0
 11
191.737697
 21
-3.518602
 31
0.0
  0
LINE
  8
2
 62
     2
  5
343
 10
190.803383
 20
-5.018602
 30
0.0
 11
192.303383
 21
-3.518602
 31
0.0
  0
LINE
  8
2
 62
     2
  5
344
 10
191.369068
 20
-5.018602
 30
0.0
 11
192.869068
 21
-3.518602
 31
0.0
  0
LINE
  8
2
 62
     2
  5
345
 10
191.934753
 20
-5.018602
 30
0.0
 11
193.434753
 21
-3.518602
 31
0.0
  0
LINE
  8
2
 62
     2
  5
346
 10
192.500439
 20
-5.018602
 30
0.0
 11
194.000439
 21
-3.518602
 31
0.0
  0
LINE
  8
2
 62
     2
  5
347
 10
193.066124
 20
-5.018602
 30
0.0
 11
194.566124
 21
-3.518602
 31
0.0
  0
LINE
  8
2
 62
     2
  5
348
 10
193.63181
 20
-5.018602
 30
0.0
 11
195.13181
 21
-3.518602
 31
0.0
  0
LINE
  8
2
 62
     2
  5
349
 10
194.197495
 20
-5.018602
 30
0.0
 11
195.697495
 21
-3.518602
 31
0.0
  0
LINE
  8
2
 62
     2
  5
34A
 10
194.763181
 20
-5.018602
 30
0.0
 11
196.263181
 21
-3.518602
 31
0.0
  0
LINE
  8
2
 62
     2
  5
34B
 10
195.328866
 20
-5.018602
 30
0.0
 11
196.828866
 21
-3.518602
 31
0.0
  0
LINE
  8
2
 62
     2
  5
34C
 10
195.894551
 20
-5.018602
 30
0.0
 11
197.394551
 21
-3.518602
 31
0.0
  0
LINE
  8
2
 62
     2
  5
34D
 10
196.460237
 20
-5.018602
 30
0.0
 11
197.960237
 21
-3.518602
 31
0.0
  0
LINE
  8
2
 62
     2
  5
34E
 10
197.025922
 20
-5.018602
 30
0.0
 11
198.525922
 21
-3.518602
 31
0.0
  0
LINE
  8
2
 62
     2
  5
34F
 10
197.591608
 20
-5.018602
 30
0.0
 11
199.091608
 21
-3.518602
 31
0.0
  0
LINE
  8
2
 62
     2
  5
350
 10
198.157293
 20
-5.018602
 30
0.0
 11
199.657293
 21
-3.518602
 31
0.0
  0
LINE
  8
2
 62
     2
  5
351
 10
198.722978
 20
-5.018602
 30
0.0
 11
200.222978
 21
-3.518602
 31
0.0
  0
LINE
  8
2
 62
     2
  5
352
 10
199.288664
 20
-5.018602
 30
0.0
 11
200.788664
 21
-3.518602
 31
0.0
  0
LINE
  8
2
 62
     2
  5
353
 10
200.898505
 20
-3.974446
 30
0.0
 11
199.854349
 21
-5.018602
 31
0.0
  0
LINE
  8
2
 62
     2
  5
354
 10
200.898505
 20
-4.540132
 30
0.0
 11
200.420035
 21
-5.018602
 31
0.0
  0
LINE
  8
2
 62
     2
  5
355
 10
173.83282
 20
-5.018602
 30
0.0
 11
175.33282
 21
-3.518602
 31
0.0
  0
LINE
  8
2
 62
     2
  5
356
 10
173.267134
 20
-5.018602
 30
0.0
 11
174.767134
 21
-3.518602
 31
0.0
  0
LINE
  8
2
 62
     2
  5
357
 10
172.701449
 20
-5.018602
 30
0.0
 11
174.201449
 21
-3.518602
 31
0.0
  0
LINE
  8
2
 62
     2
  5
358
 10
172.135764
 20
-5.018602
 30
0.0
 11
173.635764
 21
-3.518602
 31
0.0
  0
LINE
  8
2
 62
     2
  5
359
 10
171.570078
 20
-5.018602
 30
0.0
 11
173.070078
 21
-3.518602
 31
0.0
  0
LINE
  8
2
 62
     2
  5
35A
 10
171.004393
 20
-5.018602
 30
0.0
 11
172.504393
 21
-3.518602
 31
0.0
  0
LINE
  8
2
 62
     2
  5
35B
 10
170.438707
 20
-5.018602
 30
0.0
 11
171.938707
 21
-3.518602
 31
0.0
  0
LINE
  8
2
 62
     2
  5
35C
 10
169.873022
 20
-5.018602
 30
0.0
 11
171.373022
 21
-3.518602
 31
0.0
  0
LINE
  8
2
 62
     2
  5
35D
 10
169.307336
 20
-5.018602
 30
0.0
 11
170.807336
 21
-3.518602
 31
0.0
  0
LINE
  8
2
 62
     2
  5
35E
 10
168.741651
 20
-5.018602
 30
0.0
 11
170.241651
 21
-3.518602
 31
0.0
  0
LINE
  8
2
 62
     2
  5
35F
 10
168.175966
 20
-5.018602
 30
0.0
 11
169.675966
 21
-3.518602
 31
0.0
  0
LINE
  8
2
 62
     2
  5
360
 10
167.61028
 20
-5.018602
 30
0.0
 11
169.11028
 21
-3.518602
 31
0.0
  0
LINE
  8
2
 62
     2
  5
361
 10
167.044595
 20
-5.018602
 30
0.0
 11
168.544595
 21
-3.518602
 31
0.0
  0
LINE
  8
2
 62
     2
  5
362
 10
166.478909
 20
-5.018602
 30
0.0
 11
167.978909
 21
-3.518602
 31
0.0
  0
LINE
  8
2
 62
     2
  5
363
 10
165.913224
 20
-5.018602
 30
0.0
 11
167.413224
 21
-3.518602
 31
0.0
  0
LINE
  8
2
 62
     2
  5
364
 10
165.347538
 20
-5.018602
 30
0.0
 11
166.847538
 21
-3.518602
 31
0.0
  0
LINE
  8
2
 62
     2
  5
365
 10
164.781853
 20
-5.018602
 30
0.0
 11
166.281853
 21
-3.518602
 31
0.0
  0
LINE
  8
2
 62
     2
  5
366
 10
164.216168
 20
-5.018602
 30
0.0
 11
165.716168
 21
-3.518602
 31
0.0
  0
LINE
  8
2
 62
     2
  5
367
 10
163.650482
 20
-5.018602
 30
0.0
 11
165.150482
 21
-3.518602
 31
0.0
  0
LINE
  8
2
 62
     2
  5
368
 10
163.084797
 20
-5.018602
 30
0.0
 11
164.584797
 21
-3.518602
 31
0.0
  0
LINE
  8
2
 62
     2
  5
369
 10
162.519111
 20
-5.018602
 30
0.0
 11
164.019111
 21
-3.518602
 31
0.0
  0
LINE
  8
2
 62
     2
  5
36A
 10
161.953426
 20
-5.018602
 30
0.0
 11
163.453426
 21
-3.518602
 31
0.0
  0
LINE
  8
2
 62
     2
  5
36B
 10
161.38774
 20
-5.018602
 30
0.0
 11
162.88774
 21
-3.518602
 31
0.0
  0
LINE
  8
2
 62
     2
  5
36C
 10
160.822055
 20
-5.018602
 30
0.0
 11
162.322055
 21
-3.518602
 31
0.0
  0
LINE
  8
2
 62
     2
  5
36D
 10
160.25637
 20
-5.018602
 30
0.0
 11
161.75637
 21
-3.518602
 31
0.0
  0
LINE
  8
2
 62
     2
  5
36E
 10
159.690684
 20
-5.018602
 30
0.0
 11
161.190684
 21
-3.518602
 31
0.0
  0
LINE
  8
2
 62
     2
  5
36F
 10
159.124999
 20
-5.018602
 30
0.0
 11
160.624999
 21
-3.518602
 31
0.0
  0
LINE
  8
2
 62
     2
  5
370
 10
158.559313
 20
-5.018602
 30
0.0
 11
160.059313
 21
-3.518602
 31
0.0
  0
LINE
  8
2
 62
     2
  5
371
 10
157.993628
 20
-5.018602
 30
0.0
 11
159.493628
 21
-3.518602
 31
0.0
  0
LINE
  8
2
 62
     2
  5
372
 10
157.427942
 20
-5.018602
 30
0.0
 11
158.927942
 21
-3.518602
 31
0.0
  0
LINE
  8
2
 62
     2
  5
373
 10
156.862257
 20
-5.018602
 30
0.0
 11
158.362257
 21
-3.518602
 31
0.0
  0
LINE
  8
2
 62
     2
  5
374
 10
156.296572
 20
-5.018602
 30
0.0
 11
157.796572
 21
-3.518602
 31
0.0
  0
LINE
  8
2
 62
     2
  5
375
 10
155.730886
 20
-5.018602
 30
0.0
 11
157.230886
 21
-3.518602
 31
0.0
  0
LINE
  8
2
 62
     2
  5
376
 10
155.165201
 20
-5.018602
 30
0.0
 11
156.665201
 21
-3.518602
 31
0.0
  0
LINE
  8
2
 62
     2
  5
377
 10
154.599515
 20
-5.018602
 30
0.0
 11
156.099515
 21
-3.518602
 31
0.0
  0
LINE
  8
2
 62
     2
  5
378
 10
154.03383
 20
-5.018602
 30
0.0
 11
155.53383
 21
-3.518602
 31
0.0
  0
LINE
  8
2
 62
     2
  5
379
 10
153.468144
 20
-5.018602
 30
0.0
 11
154.968144
 21
-3.518602
 31
0.0
  0
LINE
  8
2
 62
     2
  5
37A
 10
152.902459
 20
-5.018602
 30
0.0
 11
154.402459
 21
-3.518602
 31
0.0
  0
LINE
  8
2
 62
     2
  5
37B
 10
152.336774
 20
-5.018602
 30
0.0
 11
153.836774
 21
-3.518602
 31
0.0
  0
LINE
  8
2
 62
     2
  5
37C
 10
151.771088
 20
-5.018602
 30
0.0
 11
153.271088
 21
-3.518602
 31
0.0
  0
LINE
  8
2
 62
     2
  5
37D
 10
151.205403
 20
-5.018602
 30
0.0
 11
152.705403
 21
-3.518602
 31
0.0
  0
LINE
  8
2
 62
     2
  5
37E
 10
150.898505
 20
-4.759814
 30
0.0
 11
152.139717
 21
-3.518602
 31
0.0
  0
LINE
  8
2
 62
     2
  5
37F
 10
150.898505
 20
-4.194129
 30
0.0
 11
151.574032
 21
-3.518602
 31
0.0
  0
LINE
  8
2
 62
     2
  5
380
 10
150.898505
 20
-3.628443
 30
0.0
 11
151.008347
 21
-3.518602
 31
0.0
  0
LINE
  8
2
 62
     2
  5
381
 10
197.898505
 20
9.781398
 30
0.0
 11
199.398505
 21
11.281398
 31
0.0
  0
LINE
  8
2
 62
     2
  5
382
 10
199.312719
 20
9.781398
 30
0.0
 11
199.398505
 21
9.867184
 31
0.0
  0
LINE
  8
2
 62
     2
  5
383
 10
196.484292
 20
9.781398
 30
0.0
 11
199.398505
 21
12.695611
 31
0.0
  0
LINE
  8
2
 62
     2
  5
384
 10
198.070078
 20
12.781398
 30
0.0
 11
198.070078
 21
12.781398
 31
0.0
  0
LINE
  8
2
 62
     2
  5
385
 10
198.070078
 20
12.781398
 30
0.0
 11
195.070078
 21
9.781398
 31
0.0
  0
LINE
  8
2
 62
     2
  5
386
 10
196.655865
 20
12.781398
 30
0.0
 11
196.655865
 21
12.781398
 31
0.0
  0
LINE
  8
2
 62
     2
  5
387
 10
196.655865
 20
12.781398
 30
0.0
 11
193.655865
 21
9.781398
 31
0.0
  0
LINE
  8
2
 62
     2
  5
388
 10
195.241651
 20
12.781398
 30
0.0
 11
195.241651
 21
12.781398
 31
0.0
  0
LINE
  8
2
 62
     2
  5
389
 10
195.241651
 20
12.781398
 30
0.0
 11
192.241651
 21
9.781398
 31
0.0
  0
LINE
  8
2
 62
     2
  5
38A
 10
193.827437
 20
12.781398
 30
0.0
 11
193.827437
 21
12.781398
 31
0.0
  0
LINE
  8
2
 62
     2
  5
38B
 10
193.827437
 20
12.781398
 30
0.0
 11
190.827437
 21
9.781398
 31
0.0
  0
LINE
  8
2
 62
     2
  5
38C
 10
192.413224
 20
12.781398
 30
0.0
 11
189.413224
 21
9.781398
 31
0.0
  0
LINE
  8
2
 62
     2
  5
38D
 10
190.99901
 20
12.781398
 30
0.0
 11
187.99901
 21
9.781398
 31
0.0
  0
LINE
  8
2
 62
     2
  5
38E
 10
189.584797
 20
12.781398
 30
0.0
 11
186.584797
 21
9.781398
 31
0.0
  0
LINE
  8
2
 62
     2
  5
38F
 10
188.170583
 20
12.781398
 30
0.0
 11
185.170583
 21
9.781398
 31
0.0
  0
LINE
  8
2
 62
     2
  5
390
 10
186.75637
 20
12.781398
 30
0.0
 11
183.75637
 21
9.781398
 31
0.0
  0
LINE
  8
2
 62
     2
  5
391
 10
185.342156
 20
12.781398
 30
0.0
 11
182.342156
 21
9.781398
 31
0.0
  0
LINE
  8
2
 62
     2
  5
392
 10
183.927942
 20
12.781398
 30
0.0
 11
180.927942
 21
9.781398
 31
0.0
  0
LINE
  8
2
 62
     2
  5
393
 10
182.513729
 20
12.781398
 30
0.0
 11
179.513729
 21
9.781398
 31
0.0
  0
LINE
  8
2
 62
     2
  5
394
 10
181.099515
 20
12.781398
 30
0.0
 11
178.099515
 21
9.781398
 31
0.0
  0
LINE
  8
2
 62
     2
  5
395
 10
179.685302
 20
12.781398
 30
0.0
 11
176.685302
 21
9.781398
 31
0.0
  0
LINE
  8
2
 62
     2
  5
396
 10
178.271088
 20
12.781398
 30
0.0
 11
175.271088
 21
9.781398
 31
0.0
  0
LINE
  8
2
 62
     2
  5
397
 10
176.856875
 20
12.781398
 30
0.0
 11
173.856875
 21
9.781398
 31
0.0
  0
LINE
  8
2
 62
     2
  5
398
 10
175.442661
 20
12.781398
 30
0.0
 11
172.442661
 21
9.781398
 31
0.0
  0
LINE
  8
2
 62
     2
  5
399
 10
174.028448
 20
12.781398
 30
0.0
 11
171.028448
 21
9.781398
 31
0.0
  0
LINE
  8
2
 62
     2
  5
39A
 10
172.614234
 20
12.781398
 30
0.0
 11
169.614234
 21
9.781398
 31
0.0
  0
LINE
  8
2
 62
     2
  5
39B
 10
171.20002
 20
12.781398
 30
0.0
 11
168.20002
 21
9.781398
 31
0.0
  0
LINE
  8
2
 62
     2
  5
39C
 10
169.785807
 20
12.781398
 30
0.0
 11
166.785807
 21
9.781398
 31
0.0
  0
LINE
  8
2
 62
     2
  5
39D
 10
168.371593
 20
12.781398
 30
0.0
 11
165.371593
 21
9.781398
 31
0.0
  0
LINE
  8
2
 62
     2
  5
39E
 10
166.95738
 20
12.781398
 30
0.0
 11
163.95738
 21
9.781398
 31
0.0
  0
LINE
  8
2
 62
     2
  5
39F
 10
165.543166
 20
12.781398
 30
0.0
 11
162.543166
 21
9.781398
 31
0.0
  0
LINE
  8
2
 62
     2
  5
3A0
 10
164.128953
 20
12.781398
 30
0.0
 11
161.128953
 21
9.781398
 31
0.0
  0
LINE
  8
2
 62
     2
  5
3A1
 10
162.714739
 20
12.781398
 30
0.0
 11
159.714739
 21
9.781398
 31
0.0
  0
LINE
  8
2
 62
     2
  5
3A2
 10
161.300525
 20
12.781398
 30
0.0
 11
158.300525
 21
9.781398
 31
0.0
  0
LINE
  8
2
 62
     2
  5
3A3
 10
159.886312
 20
12.781398
 30
0.0
 11
156.886312
 21
9.781398
 31
0.0
  0
LINE
  8
2
 62
     2
  5
3A4
 10
158.472098
 20
12.781398
 30
0.0
 11
155.472098
 21
9.781398
 31
0.0
  0
LINE
  8
2
 62
     2
  5
3A5
 10
157.057885
 20
12.781398
 30
0.0
 11
154.057885
 21
9.781398
 31
0.0
  0
LINE
  8
2
 62
     2
  5
3A6
 10
155.643671
 20
12.781398
 30
0.0
 11
152.643671
 21
9.781398
 31
0.0
  0
LINE
  8
2
 62
     2
  5
3A7
 10
154.229458
 20
12.781398
 30
0.0
 11
152.398505
 21
10.950445
 31
0.0
  0
LINE
  8
2
 62
     2
  5
3A8
 10
152.815244
 20
12.781398
 30
0.0
 11
152.398505
 21
12.364659
 31
0.0
  0
LINE
  8
2
  5
3A9
 10
204.590176
 20
-5.518602
 30
0.0
 11
147.207136
 21
-5.518602
 31
0.0
  0
LINE
  8
2
  5
3AA
 10
147.207136
 20
-17.555897
 30
0.0
 11
147.207136
 21
-5.518602
 31
0.0
  0
LINE
  8
2
  5
3AB
 10
160.607835
 20
-7.725642
 30
0.0
 11
147.207136
 21
-7.725642
 31
0.0
  0
LINE
  8
2
  5
3AC
 10
160.607835
 20
-17.555897
 30
0.0
 11
160.607835
 21
-7.725642
 31
0.0
  0
LINE
  8
2
  5
3AD
 10
162.519187
 20
-17.555897
 30
0.0
 11
162.519187
 21
-7.725642
 31
0.0
  0
LINE
  8
2
  5
3AE
 10
189.278125
 20
-7.725642
 30
0.0
 11
162.519187
 21
-7.725642
 31
0.0
  0
LINE
  8
2
  5
3AF
 10
191.189478
 20
-17.555897
 30
0.0
 11
191.189478
 21
-7.725642
 31
0.0
  0
LINE
  8
2
  5
3B0
 10
189.278125
 20
-17.555897
 30
0.0
 11
189.278125
 21
-7.725642
 31
0.0
  0
LINE
  8
2
  5
3B1
 10
204.590176
 20
-7.725642
 30
0.0
 11
191.189478
 21
-7.725642
 31
0.0
  0
LINE
  8
2
  5
3B2
 10
204.590176
 20
-17.555897
 30
0.0
 11
204.590176
 21
-5.518602
 31
0.0
  0
ARC
  8
2
  5
3B3
 10
197.889827
 20
0.470974
 30
0.0
 40
19.231816
 50
249.610566
 51
290.389434
  0
ARC
  8
2
  5
3B4
 10
175.898656
 20
56.123089
 30
0.0
 40
74.883932
 50
259.707733
 51
280.292267
  0
LINE
  8
2
  5
3B5
 10
191.189478
 20
-17.555897
 30
0.0
 11
189.278125
 21
-17.555897
 31
0.0
  0
LINE
  8
2
  5
3B6
 10
162.519187
 20
-17.555897
 30
0.0
 11
160.607835
 21
-17.555897
 31
0.0
  0
ARC
  8
2
  5
3B7
 10
175.898656
 20
56.123089
 30
0.0
 40
74.883932
 50
259.707733
 51
280.292267
  0
ARC
  8
2
  5
3B8
 10
153.907486
 20
0.470974
 30
0.0
 40
19.231816
 50
249.610566
 51
290.389434
  0
LINE
  8
2
  5
3B9
 10
201.279616
 20
-18.760842
 30
0.0
 11
150.517696
 21
-18.760842
 31
0.0
  0
LINE
  8
2
  5
3BA
 10
150.517696
 20
-18.760842
 30
0.0
 11
147.207136
 21
-17.555897
 31
0.0
  0
LINE
  8
2
  5
3BB
 10
201.279616
 20
-18.760842
 30
0.0
 11
204.590176
 21
-17.555897
 31
0.0
  0
LINE
  8
2
  5
3BC
 10
193.398505
 20
-28.924602
 30
0.0
 11
193.398505
 21
-18.760842
 31
0.0
  0
LINE
  8
2
  5
3BD
 10
193.398505
 20
-3.518602
 30
0.0
 11
193.398505
 21
9.781398
 31
0.0
  0
LINE
  8
2
 62
     2
  5
3BE
 10
192.604755
 20
-29.718352
 30
0.0
 11
192.604755
 21
-18.760842
 31
0.0
  0
LINE
  8
2
 62
     2
  5
3BF
 10
192.604755
 20
-3.518602
 30
0.0
 11
192.604755
 21
9.781398
 31
0.0
  0
LINE
  8
2
 62
     2
  5
3C0
 10
159.192255
 20
-29.718352
 30
0.0
 11
159.192255
 21
-18.760842
 31
0.0
  0
LINE
  8
2
 62
     2
  5
3C1
 10
159.192255
 20
-3.518602
 30
0.0
 11
159.192255
 21
9.781398
 31
0.0
  0
LINE
  8
2
  5
3C2
 10
158.398505
 20
-28.924602
 30
0.0
 11
158.398505
 21
-18.760842
 31
0.0
  0
LINE
  8
2
  5
3C3
 10
158.398505
 20
-3.518602
 30
0.0
 11
158.398505
 21
9.781398
 31
0.0
  0
LINE
  8
2
 62
     2
  5
3C4
 10
158.398505
 20
-28.924602
 30
0.0
 11
193.398505
 21
-28.924602
 31
0.0
  0
LINE
  8
2
  6
CENTER
 62
     2
  5
3C5
 10
267.776547
 20
-42.525056
 30
0.0
 11
267.776547
 21
-72.045262
 31
0.0
  0
LINE
  8
2
  6
DASHED
 62
     2
  5
3C6
 10
267.776547
 20
-127.444551
 30
0.0
 11
271.776781
 21
-127.444551
 31
0.0
  0
LINE
  8
2
  5
3C7
 10
271.776547
 20
-65.681569
 30
0.0
 11
271.776547
 21
-101.944551
 31
0.0
  0
LINE
  8
2
  5
3C8
 10
263.776547
 20
-65.706395
 30
0.0
 11
263.776547
 21
-101.944551
 31
0.0
  0
ARC
  8
2
  5
3C9
 10
184.398505
 20
-44.112829
 30
0.0
 40
3.333333
 50
233.130102
 51
306.869898
  0
ARC
  8
2
  5
3CA
 10
188.398505
 20
-49.446162
 30
0.0
 40
3.333333
 50
53.130102
 51
126.869898
  0
ARC
  8
2
  5
3CB
 10
184.398505
 20
-49.446162
 30
0.0
 40
3.333333
 50
53.130102
 51
126.869898
  0
ARC
  8
2
  5
3CC
 10
265.776547
 20
-63.050974
 30
0.0
 40
3.333333
 50
233.130102
 51
306.869898
  0
ARC
  8
2
  5
3CD
 10
269.776547
 20
-68.384307
 30
0.0
 40
3.333333
 50
53.130102
 51
126.869898
  0
ARC
  8
2
  5
3CE
 10
269.776547
 20
-63.050974
 30
0.0
 40
3.333333
 50
233.130102
 51
306.869898
  0
LINE
  8
2
  5
3CF
 10
189.148505
 20
-100.218602
 30
0.0
 11
183.398505
 21
-100.218602
 31
0.0
  0
ARC
  8
2
  5
3D0
 10
183.398505
 20
-103.531102
 30
0.0
 40
3.3125
 50
58.109208
 51
90.0
  0
LINE
  8
2
  5
3D1
 10
185.148505
 20
-100.718602
 30
0.0
 11
185.148505
 21
-115.218602
 31
0.0
  0
ARC
  8
2
  5
3D2
 10
183.398505
 20
-112.406102
 30
0.0
 40
3.3125
 50
270.0
 51
301.890792
  0
LINE
  8
2
  5
3D3
 10
187.719658
 20
-115.218602
 30
0.0
 11
185.148505
 21
-115.218602
 31
0.0
  0
LINE
  8
2
  5
3D4
 10
187.719658
 20
-100.718602
 30
0.0
 11
185.148505
 21
-100.718602
 31
0.0
  0
LINE
  8
2
  5
3D5
 10
187.719658
 20
-100.718602
 30
0.0
 11
187.719658
 21
-115.218602
 31
0.0
  0
ARC
  8
2
  5
3D6
 10
188.594658
 20
-101.234227
 30
0.0
 40
1.015625
 50
30.510237
 51
149.489763
  0
LINE
  8
2
  5
3D7
 10
189.648505
 20
-100.718602
 30
0.0
 11
189.648505
 21
-115.218602
 31
0.0
  0
LINE
  8
2
  5
3D8
 10
189.469658
 20
-100.718602
 30
0.0
 11
189.469658
 21
-115.218602
 31
0.0
  0
LINE
  8
2
  5
3D9
 10
189.148505
 20
-100.218602
 30
0.0
 11
189.648505
 21
-100.718602
 31
0.0
  0
LINE
  8
2
  5
3DA
 10
189.648505
 20
-100.718602
 30
0.0
 11
189.469658
 21
-100.718602
 31
0.0
  0
LINE
  8
2
  5
3DB
 10
189.148505
 20
-115.718602
 30
0.0
 11
183.398505
 21
-115.718602
 31
0.0
  0
LINE
  8
2
  5
3DC
 10
189.148505
 20
-115.718602
 30
0.0
 11
189.648505
 21
-115.218602
 31
0.0
  0
LINE
  8
2
  5
3DD
 10
189.648505
 20
-115.218602
 30
0.0
 11
189.469658
 21
-115.218602
 31
0.0
  0
ARC
  8
2
  5
3DE
 10
188.594658
 20
-114.702977
 30
0.0
 40
1.015625
 50
210.510237
 51
329.489763
  0
LINE
  8
2
  5
3DF
 10
187.398505
 20
-46.229893
 30
0.0
 11
187.398505
 21
-100.218602
 31
0.0
  0
LINE
  8
2
  5
3E0
 10
164.398505
 20
-76.913037
 30
0.0
 11
164.398505
 21
-74.276884
 31
0.0
  0
ARC
  8
2
  5
3E1
 10
164.598505
 20
-74.276884
 30
0.0
 40
0.2
 50
99.5
 51
180.0
  0
LINE
  8
2
  5
3E2
 10
165.198505
 20
-73.973318
 30
0.0
 11
165.198505
 21
-72.959413
 31
0.0
  0
LINE
  8
2
  5
3E3
 10
178.16549
 20
-71.803389
 30
0.0
 11
164.565493
 21
-74.079646
 31
0.0
  0
LINE
  8
2
  5
3E4
 10
164.398505
 20
-72.857037
 30
0.0
 11
164.398505
 21
-70.220884
 31
0.0
  0
ARC
  8
2
  5
3E5
 10
164.598505
 20
-70.220884
 30
0.0
 40
0.2
 50
99.5
 51
180.0
  0
LINE
  8
2
  5
3E6
 10
164.631515
 20
-73.054295
 30
0.0
 11
178.231515
 21
-70.778435
 31
0.0
  0
ARC
  8
2
  5
3E7
 10
164.598505
 20
-72.857037
 30
0.0
 40
0.2
 50
180.0
 51
279.5
  0
LINE
  8
2
  5
3E8
 10
165.198505
 20
-69.917318
 30
0.0
 11
165.198505
 21
-68.903413
 31
0.0
  0
LINE
  8
2
  5
3E9
 10
178.16549
 20
-67.747389
 30
0.0
 11
164.565493
 21
-70.023646
 31
0.0
  0
LINE
  8
2
  5
3EA
 10
164.398505
 20
-68.801037
 30
0.0
 11
164.398505
 21
-66.164884
 31
0.0
  0
ARC
  8
2
  5
3EB
 10
164.598505
 20
-66.164884
 30
0.0
 40
0.2
 50
99.5
 51
180.0
  0
LINE
  8
2
  5
3EC
 10
164.631515
 20
-68.998295
 30
0.0
 11
178.231515
 21
-66.722435
 31
0.0
  0
ARC
  8
2
  5
3ED
 10
164.598505
 20
-68.801037
 30
0.0
 40
0.2
 50
180.0
 51
279.5
  0
LINE
  8
2
  5
3EE
 10
165.198505
 20
-65.861318
 30
0.0
 11
165.198505
 21
-64.847413
 31
0.0
  0
LINE
  8
2
  5
3EF
 10
178.16549
 20
-63.691389
 30
0.0
 11
164.565493
 21
-65.967646
 31
0.0
  0
LINE
  8
2
  5
3F0
 10
164.398505
 20
-64.745037
 30
0.0
 11
164.398505
 21
-62.108884
 31
0.0
  0
ARC
  8
2
  5
3F1
 10
164.598505
 20
-62.108884
 30
0.0
 40
0.2
 50
99.5
 51
180.0
  0
LINE
  8
2
  5
3F2
 10
164.631515
 20
-64.942295
 30
0.0
 11
178.231515
 21
-62.666435
 31
0.0
  0
ARC
  8
2
  5
3F3
 10
164.598505
 20
-64.745037
 30
0.0
 40
0.2
 50
180.0
 51
279.5
  0
LINE
  8
2
  5
3F4
 10
165.198505
 20
-61.805318
 30
0.0
 11
165.198505
 21
-60.791413
 31
0.0
  0
LINE
  8
2
  5
3F5
 10
178.16549
 20
-59.635389
 30
0.0
 11
164.565493
 21
-61.911646
 31
0.0
  0
LINE
  8
2
  5
3F6
 10
164.398505
 20
-60.689037
 30
0.0
 11
164.398505
 21
-58.052884
 31
0.0
  0
ARC
  8
2
  5
3F7
 10
164.598505
 20
-58.052884
 30
0.0
 40
0.2
 50
99.5
 51
180.0
  0
LINE
  8
2
  5
3F8
 10
164.631515
 20
-60.886295
 30
0.0
 11
178.231515
 21
-58.610435
 31
0.0
  0
ARC
  8
2
  5
3F9
 10
164.598505
 20
-60.689037
 30
0.0
 40
0.2
 50
180.0
 51
279.5
  0
LINE
  8
2
  5
3FA
 10
165.198505
 20
-57.749318
 30
0.0
 11
165.198505
 21
-56.735413
 31
0.0
  0
LINE
  8
2
  5
3FB
 10
178.16549
 20
-55.579389
 30
0.0
 11
164.565493
 21
-57.855646
 31
0.0
  0
LINE
  8
2
  5
3FC
 10
164.398505
 20
-56.633037
 30
0.0
 11
164.398505
 21
-53.996884
 31
0.0
  0
ARC
  8
2
  5
3FD
 10
164.598505
 20
-53.996884
 30
0.0
 40
0.2
 50
99.5
 51
180.0
  0
LINE
  8
2
  5
3FE
 10
164.631515
 20
-56.830295
 30
0.0
 11
178.231515
 21
-54.554435
 31
0.0
  0
ARC
  8
2
  5
3FF
 10
164.598505
 20
-56.633037
 30
0.0
 40
0.2
 50
180.0
 51
279.5
  0
LINE
  8
2
  5
400
 10
165.198505
 20
-53.693318
 30
0.0
 11
165.198505
 21
-52.679413
 31
0.0
  0
LINE
  8
2
  5
401
 10
178.16549
 20
-51.523389
 30
0.0
 11
164.565493
 21
-53.799646
 31
0.0
  0
LINE
  8
2
  5
402
 10
164.398505
 20
-52.577037
 30
0.0
 11
164.398505
 21
-49.940884
 31
0.0
  0
ARC
  8
2
  5
403
 10
164.598505
 20
-49.940884
 30
0.0
 40
0.2
 50
99.5
 51
180.0
  0
LINE
  8
2
  5
404
 10
164.631515
 20
-52.774295
 30
0.0
 11
178.231515
 21
-50.498435
 31
0.0
  0
ARC
  8
2
  5
405
 10
164.598505
 20
-52.577037
 30
0.0
 40
0.2
 50
180.0
 51
279.5
  0
LINE
  8
2
  5
406
 10
165.198505
 20
-49.637318
 30
0.0
 11
165.198505
 21
-48.623413
 31
0.0
  0
LINE
  8
2
  5
407
 10
178.16549
 20
-47.467389
 30
0.0
 11
164.565493
 21
-49.743646
 31
0.0
  0
LINE
  8
2
  5
408
 10
164.398505
 20
-48.521037
 30
0.0
 11
164.398505
 21
-45.884884
 31
0.0
  0
ARC
  8
2
  5
409
 10
164.598505
 20
-45.884884
 30
0.0
 40
0.2
 50
99.5
 51
180.0
  0
LINE
  8
2
  5
40A
 10
164.631515
 20
-48.718295
 30
0.0
 11
178.231515
 21
-46.442435
 31
0.0
  0
ARC
  8
2
  5
40B
 10
164.598505
 20
-48.521037
 30
0.0
 40
0.2
 50
180.0
 51
279.5
  0
LINE
  8
2
  5
40C
 10
165.198505
 20
-45.581318
 30
0.0
 11
165.198505
 21
-44.567413
 31
0.0
  0
LINE
  8
2
  5
40D
 10
178.16549
 20
-43.411389
 30
0.0
 11
164.565493
 21
-45.687646
 31
0.0
  0
LINE
  8
2
  5
40E
 10
164.631515
 20
-44.662295
 30
0.0
 11
178.231515
 21
-42.386435
 31
0.0
  0
LINE
  8
2
  5
40F
 10
164.398505
 20
-44.465037
 30
0.0
 11
164.398505
 21
-41.828884
 31
0.0
  0
ARC
  8
2
  5
410
 10
164.598505
 20
-44.465037
 30
0.0
 40
0.2
 50
180.0
 51
279.5
  0
LINE
  8
2
  5
411
 10
178.16549
 20
-39.355389
 30
0.0
 11
164.565493
 21
-41.631646
 31
0.0
  0
ARC
  8
2
  5
412
 10
164.598505
 20
-41.828884
 30
0.0
 40
0.2
 50
99.5
 51
180.0
  0
LINE
  8
2
  5
413
 10
165.198505
 20
-41.525318
 30
0.0
 11
165.198505
 21
-40.511413
 31
0.0
  0
LINE
  8
2
  5
414
 10
165.198505
 20
-37.469318
 30
0.0
 11
165.198505
 21
-36.455413
 31
0.0
  0
ARC
  8
2
  5
415
 10
164.598505
 20
-37.772884
 30
0.0
 40
0.2
 50
99.5
 51
180.0
  0
LINE
  8
2
  5
416
 10
164.398505
 20
-40.409037
 30
0.0
 11
164.398505
 21
-37.772884
 31
0.0
  0
ARC
  8
2
  5
417
 10
164.598505
 20
-40.409037
 30
0.0
 40
0.2
 50
180.0
 51
279.5
  0
LINE
  8
2
  5
418
 10
164.631515
 20
-40.606295
 30
0.0
 11
178.231515
 21
-38.330435
 31
0.0
  0
LINE
  8
2
  5
419
 10
164.398505
 20
-36.353037
 30
0.0
 11
164.398505
 21
-33.716884
 31
0.0
  0
ARC
  8
2
  5
41A
 10
164.598505
 20
-36.353037
 30
0.0
 40
0.2
 50
180.0
 51
279.5
  0
ARC
  8
2
  5
41B
 10
164.598505
 20
-33.716884
 30
0.0
 40
0.2
 50
99.5
 51
180.0
  0
LINE
  8
2
  5
41C
 10
165.198505
 20
-33.413318
 30
0.0
 11
165.198505
 21
-32.399413
 31
0.0
  0
LINE
  8
2
  5
41D
 10
178.16549
 20
-35.299389
 30
0.0
 11
164.565493
 21
-37.575646
 31
0.0
  0
LINE
  8
2
  5
41E
 10
164.631515
 20
-36.550295
 30
0.0
 11
178.231515
 21
-34.274435
 31
0.0
  0
LINE
  8
2
  5
41F
 10
164.565493
 20
-33.519646
 30
0.0
 11
178.16549
 21
-31.243389
 31
0.0
  0
ARC
  8
2
  5
420
 10
164.598505
 20
-32.297037
 30
0.0
 40
0.2
 50
180.0
 51
279.5
  0
LINE
  8
2
  5
421
 10
164.631515
 20
-32.494295
 30
0.0
 11
178.231515
 21
-30.218435
 31
0.0
  0
LINE
  8
2
  5
422
 10
164.398505
 20
-76.913037
 30
0.0
 11
164.398505
 21
-84.634125
 31
0.0
  0
LINE
  8
2
  5
423
 10
164.398505
 20
-32.353037
 30
0.0
 11
164.398505
 21
-29.718602
 31
0.0
  0
LINE
  8
2
  5
424
 10
178.398505
 20
-70.581178
 30
0.0
 11
178.398505
 21
-67.944645
 31
0.0
  0
LINE
  8
2
  5
425
 10
178.398505
 20
-66.525178
 30
0.0
 11
178.398505
 21
-63.888645
 31
0.0
  0
LINE
  8
2
  5
426
 10
178.398505
 20
-62.469178
 30
0.0
 11
178.398505
 21
-59.832645
 31
0.0
  0
LINE
  8
2
  5
427
 10
178.398505
 20
-58.413178
 30
0.0
 11
178.398505
 21
-55.776645
 31
0.0
  0
LINE
  8
2
  5
428
 10
178.398505
 20
-54.357178
 30
0.0
 11
178.398505
 21
-51.720645
 31
0.0
  0
LINE
  8
2
  5
429
 10
178.398505
 20
-50.301178
 30
0.0
 11
178.398505
 21
-47.664645
 31
0.0
  0
LINE
  8
2
  5
42A
 10
178.398505
 20
-46.245178
 30
0.0
 11
178.398505
 21
-43.608645
 31
0.0
  0
LINE
  8
2
  5
42B
 10
178.398505
 20
-42.189178
 30
0.0
 11
178.398505
 21
-39.552645
 31
0.0
  0
LINE
  8
2
  5
42C
 10
178.398505
 20
-38.133178
 30
0.0
 11
178.398505
 21
-35.496645
 31
0.0
  0
LINE
  8
2
  5
42D
 10
178.398505
 20
-34.077178
 30
0.0
 11
178.398505
 21
-31.440645
 31
0.0
  0
LINE
  8
2
  5
42E
 10
178.398505
 20
-30.021178
 30
0.0
 11
178.398505
 21
-29.718602
 31
0.0
  0
LINE
  8
2
  5
42F
 10
177.598505
 20
-31.338286
 30
0.0
 11
177.598505
 21
-30.324365
 31
0.0
  0
LINE
  8
2
  5
430
 10
177.598505
 20
-35.394286
 30
0.0
 11
177.598505
 21
-34.380365
 31
0.0
  0
LINE
  8
2
  5
431
 10
177.598505
 20
-39.450286
 30
0.0
 11
177.598505
 21
-38.436365
 31
0.0
  0
LINE
  8
2
  5
432
 10
177.598505
 20
-43.506286
 30
0.0
 11
177.598505
 21
-42.492365
 31
0.0
  0
LINE
  8
2
  5
433
 10
177.598505
 20
-47.562286
 30
0.0
 11
177.598505
 21
-46.548365
 31
0.0
  0
LINE
  8
2
  5
434
 10
177.598505
 20
-51.618286
 30
0.0
 11
177.598505
 21
-50.604365
 31
0.0
  0
LINE
  8
2
  5
435
 10
177.598505
 20
-55.674286
 30
0.0
 11
177.598505
 21
-54.660365
 31
0.0
  0
LINE
  8
2
  5
436
 10
177.598505
 20
-59.730286
 30
0.0
 11
177.598505
 21
-58.716365
 31
0.0
  0
LINE
  8
2
  5
437
 10
177.598505
 20
-63.786286
 30
0.0
 11
177.598505
 21
-62.772365
 31
0.0
  0
LINE
  8
2
  5
438
 10
177.598505
 20
-71.898286
 30
0.0
 11
177.598505
 21
-70.884365
 31
0.0
  0
LINE
  8
2
  5
439
 10
177.598505
 20
-67.842286
 30
0.0
 11
177.598505
 21
-66.828365
 31
0.0
  0
ARC
  8
2
  5
43A
 10
178.198505
 20
-30.021178
 30
0.0
 40
0.2
 50
279.5
 51
360.0
  0
ARC
  8
2
  5
43B
 10
178.198505
 20
-31.440645
 30
0.0
 40
0.2
 50
0.0
 51
99.501632
  0
ARC
  8
2
  5
43C
 10
178.198505
 20
-34.077178
 30
0.0
 40
0.2
 50
279.5
 51
360.0
  0
ARC
  8
2
  5
43D
 10
178.198505
 20
-35.496645
 30
0.0
 40
0.2
 50
360.0
 51
99.501632
  0
ARC
  8
2
  5
43E
 10
178.198505
 20
-38.133178
 30
0.0
 40
0.2
 50
279.5
 51
0.0
  0
ARC
  8
2
  5
43F
 10
178.198505
 20
-39.552645
 30
0.0
 40
0.2
 50
0.0
 51
99.501632
  0
ARC
  8
2
  5
440
 10
178.198505
 20
-42.189178
 30
0.0
 40
0.2
 50
279.5
 51
360.0
  0
ARC
  8
2
  5
441
 10
178.198505
 20
-43.608645
 30
0.0
 40
0.2
 50
0.0
 51
99.501632
  0
ARC
  8
2
  5
442
 10
178.198505
 20
-46.245178
 30
0.0
 40
0.2
 50
279.5
 51
360.0
  0
ARC
  8
2
  5
443
 10
178.198505
 20
-47.664645
 30
0.0
 40
0.2
 50
360.0
 51
99.501632
  0
ARC
  8
2
  5
444
 10
178.198505
 20
-50.301178
 30
0.0
 40
0.2
 50
279.5
 51
360.0
  0
ARC
  8
2
  5
445
 10
178.198505
 20
-51.720645
 30
0.0
 40
0.2
 50
360.0
 51
99.501632
  0
ARC
  8
2
  5
446
 10
178.198505
 20
-54.357178
 30
0.0
 40
0.2
 50
279.5
 51
0.0
  0
ARC
  8
2
  5
447
 10
178.198505
 20
-55.776645
 30
0.0
 40
0.2
 50
0.0
 51
99.501632
  0
ARC
  8
2
  5
448
 10
178.198505
 20
-58.413178
 30
0.0
 40
0.2
 50
279.5
 51
360.0
  0
ARC
  8
2
  5
449
 10
178.198505
 20
-59.832645
 30
0.0
 40
0.2
 50
0.0
 51
99.501632
  0
ARC
  8
2
  5
44A
 10
178.198505
 20
-62.469178
 30
0.0
 40
0.2
 50
279.5
 51
360.0
  0
ARC
  8
2
  5
44B
 10
178.198505
 20
-63.888645
 30
0.0
 40
0.2
 50
0.0
 51
99.501632
  0
ARC
  8
2
  5
44C
 10
178.198505
 20
-66.525178
 30
0.0
 40
0.2
 50
279.5
 51
360.0
  0
ARC
  8
2
  5
44D
 10
178.198505
 20
-67.944645
 30
0.0
 40
0.2
 50
0.0
 51
99.501632
  0
ARC
  8
2
  5
44E
 10
178.198505
 20
-70.581178
 30
0.0
 40
0.2
 50
279.5
 51
360.0
  0
ARC
  8
2
  5
44F
 10
178.198505
 20
-72.000645
 30
0.0
 40
0.2
 50
0.0
 51
99.501632
  0
LINE
  8
2
  5
450
 10
178.398505
 20
-84.743309
 30
0.0
 11
178.398505
 21
-75.474998
 31
0.0
  0
LINE
  8
2
  5
451
 10
178.398505
 20
-75.474998
 30
0.0
 11
178.398505
 21
-72.000645
 31
0.0
  0
LINE
  8
2
  5
452
 10
276.777117
 20
-110.144551
 30
0.0
 11
276.777117
 21
-111.944551
 31
0.0
  0
LINE
  8
2
  5
453
 10
267.776547
 20
-112.144551
 30
0.0
 11
276.577117
 21
-112.144551
 31
0.0
  0
LINE
  8
2
  5
454
 10
267.776547
 20
-116.144551
 30
0.0
 11
277.176547
 21
-116.144551
 31
0.0
  0
LINE
  8
2
  5
455
 10
276.577117
 20
-109.944551
 30
0.0
 11
276.777117
 21
-110.144551
 31
0.0
  0
LINE
  8
2
  5
456
 10
267.776547
 20
-109.944551
 30
0.0
 11
276.577117
 21
-109.944551
 31
0.0
  0
LINE
  8
2
 62
     2
  5
457
 10
276.777117
 20
-110.144551
 30
0.0
 11
267.776547
 21
-110.144551
 31
0.0
  0
LINE
  8
2
  5
458
 10
276.777117
 20
-111.944551
 30
0.0
 11
276.577117
 21
-112.144551
 31
0.0
  0
LINE
  8
2
 62
     2
  5
459
 10
276.777117
 20
-111.944551
 30
0.0
 11
267.776547
 21
-111.944551
 31
0.0
  0
LINE
  8
2
  5
45A
 10
277.176547
 20
-116.144551
 30
0.0
 11
277.676547
 21
-116.644551
 31
0.0
  0
LINE
  8
2
 62
     2
  5
45B
 10
277.676547
 20
-116.644551
 30
0.0
 11
271.900865
 21
-116.644551
 31
0.0
  0
LINE
  8
2
  5
45C
 10
267.776547
 20
-126.144551
 30
0.0
 11
271.900865
 21
-126.144551
 31
0.0
  0
LINE
  8
2
  5
45D
 10
271.900865
 20
-116.144551
 30
0.0
 11
271.900865
 21
-126.144551
 31
0.0
  0
LINE
  8
2
  5
45E
 10
258.775978
 20
-110.144551
 30
0.0
 11
258.775978
 21
-111.944551
 31
0.0
  0
LINE
  8
2
  5
45F
 10
267.776547
 20
-112.144551
 30
0.0
 11
258.975978
 21
-112.144551
 31
0.0
  0
LINE
  8
2
  5
460
 10
267.776547
 20
-116.144551
 30
0.0
 11
258.376547
 21
-116.144551
 31
0.0
  0
LINE
  8
2
  5
461
 10
258.975978
 20
-109.944551
 30
0.0
 11
258.775978
 21
-110.144551
 31
0.0
  0
LINE
  8
2
  5
462
 10
267.776547
 20
-109.944551
 30
0.0
 11
258.975978
 21
-109.944551
 31
0.0
  0
LINE
  8
2
 62
     2
  5
463
 10
258.775978
 20
-110.144551
 30
0.0
 11
267.776547
 21
-110.144551
 31
0.0
  0
LINE
  8
2
  5
464
 10
258.775978
 20
-111.944551
 30
0.0
 11
258.975978
 21
-112.144551
 31
0.0
  0
LINE
  8
2
 62
     2
  5
465
 10
258.775978
 20
-111.944551
 30
0.0
 11
267.776547
 21
-111.944551
 31
0.0
  0
LINE
  8
2
  5
466
 10
258.376547
 20
-116.144551
 30
0.0
 11
257.876547
 21
-116.644551
 31
0.0
  0
LINE
  8
2
 62
     2
  5
467
 10
257.876547
 20
-116.644551
 30
0.0
 11
263.652229
 21
-116.644551
 31
0.0
  0
LINE
  8
2
  5
468
 10
267.776547
 20
-126.144551
 30
0.0
 11
263.652229
 21
-126.144551
 31
0.0
  0
LINE
  8
2
  5
469
 10
263.652229
 20
-116.144551
 30
0.0
 11
263.652229
 21
-126.144551
 31
0.0
  0
LINE
  8
2
  5
46A
 10
259.176547
 20
-109.744551
 30
0.0
 11
259.176547
 21
-107.344551
 31
0.0
  0
LINE
  8
2
  5
46B
 10
274.776547
 20
-101.944551
 30
0.0
 11
260.776547
 21
-101.944551
 31
0.0
  0
LINE
  8
2
  5
46C
 10
260.776547
 20
-101.944551
 30
0.0
 11
260.276547
 21
-102.444551
 31
0.0
  0
LINE
  8
2
  5
46D
 10
275.276547
 20
-102.444551
 30
0.0
 11
274.776547
 21
-101.944551
 31
0.0
  0
LINE
  8
2
  5
46E
 10
260.276547
 20
-107.144551
 30
0.0
 11
259.376547
 21
-107.144551
 31
0.0
  0
LINE
  8
2
  5
46F
 10
276.376079
 20
-109.744551
 30
0.0
 11
276.376079
 21
-107.344551
 31
0.0
  0
LINE
  8
2
  5
470
 10
267.776547
 20
-107.144551
 30
0.0
 11
276.176079
 21
-107.144551
 31
0.0
  0
LINE
  8
2
  5
471
 10
259.376547
 20
-109.944551
 30
0.0
 11
262.776547
 21
-109.944551
 31
0.0
  0
LINE
  8
2
  5
472
 10
267.776547
 20
-109.944551
 30
0.0
 11
276.176079
 21
-109.944551
 31
0.0
  0
LINE
  8
2
  5
473
 10
276.176079
 20
-107.144551
 30
0.0
 11
276.376079
 21
-107.344551
 31
0.0
  0
LINE
  8
2
  5
474
 10
276.376079
 20
-109.744551
 30
0.0
 11
276.176079
 21
-109.944551
 31
0.0
  0
LINE
  8
2
  5
475
 10
259.176547
 20
-107.344551
 30
0.0
 11
259.376547
 21
-107.144551
 31
0.0
  0
LINE
  8
2
  5
476
 10
259.176547
 20
-109.744551
 30
0.0
 11
259.376547
 21
-109.944551
 31
0.0
  0
LINE
  8
2
 62
     2
  5
477
 10
275.276547
 20
-102.444551
 30
0.0
 11
267.776547
 21
-102.444551
 31
0.0
  0
LINE
  8
2
 62
     2
  5
478
 10
276.376079
 20
-107.344551
 30
0.0
 11
267.776547
 21
-107.344551
 31
0.0
  0
LINE
  8
2
 62
     2
  5
479
 10
276.376079
 20
-109.744551
 30
0.0
 11
267.776547
 21
-109.744551
 31
0.0
  0
LINE
  8
2
 62
     2
  5
47A
 10
260.276547
 20
-102.444551
 30
0.0
 11
267.776547
 21
-102.444551
 31
0.0
  0
LINE
  8
2
  5
47B
 10
267.776547
 20
-107.144551
 30
0.0
 11
259.377015
 21
-107.144551
 31
0.0
  0
LINE
  8
2
 62
     2
  5
47C
 10
259.177015
 20
-107.344551
 30
0.0
 11
267.776547
 21
-107.344551
 31
0.0
  0
LINE
  8
2
 62
     2
  5
47D
 10
259.177015
 20
-109.744551
 30
0.0
 11
267.776547
 21
-109.744551
 31
0.0
  0
LINE
  8
2
  5
47E
 10
267.776547
 20
-109.944551
 30
0.0
 11
259.377015
 21
-109.944551
 31
0.0
  0
POINT
  8
2
  5
47F
 10
267.776547
 20
-127.444551
 30
0.0
  0
LINE
  8
2
  5
480
 10
253.277433
 20
-115.244551
 30
0.0
 11
253.277433
 21
-104.244551
 31
0.0
  0
LINE
  8
2
  5
481
 10
256.777433
 20
-107.744551
 30
0.0
 11
256.777433
 21
-111.744551
 31
0.0
  0
LINE
  8
2
  5
482
 10
283.277433
 20
-114.744551
 30
0.0
 11
283.277433
 21
-102.744551
 31
0.0
  0
ARC
  8
2
  5
483
 10
257.777433
 20
-107.744551
 30
0.0
 40
1.0
 50
90.0
 51
180.0
  0
ARC
  8
2
  5
484
 10
257.777433
 20
-111.744551
 30
0.0
 40
1.0
 50
180.0
 51
270.0
  0
ARC
  8
2
  5
485
 10
282.277433
 20
-114.744551
 30
0.0
 40
1.0
 50
270.0
 51
360.0
  0
ARC
  8
2
  5
486
 10
253.777433
 20
-104.244551
 30
0.0
 40
0.5
 50
90.0
 51
180.0
  0
ARC
  8
2
  5
487
 10
253.777433
 20
-115.244551
 30
0.0
 40
0.5
 50
180.0
 51
270.0
  0
LINE
  8
2
  5
488
 10
277.277433
 20
-103.744551
 30
0.0
 11
253.777433
 21
-103.744551
 31
0.0
  0
LINE
  8
2
  5
489
 10
282.277433
 20
-115.744551
 30
0.0
 11
253.777433
 21
-115.744551
 31
0.0
  0
LINE
  8
2
  5
48A
 10
277.277433
 20
-106.744551
 30
0.0
 11
257.777433
 21
-106.744551
 31
0.0
  0
LINE
  8
2
  5
48B
 10
277.277433
 20
-112.744551
 30
0.0
 11
257.777433
 21
-112.744551
 31
0.0
  0
LINE
  8
2
  5
48C
 10
275.276547
 20
-107.144551
 30
0.0
 11
275.276547
 21
-106.744551
 31
0.0
  0
LINE
  8
2
  5
48D
 10
275.276547
 20
-103.744551
 30
0.0
 11
275.276547
 21
-102.444551
 31
0.0
  0
LINE
  8
2
  5
48E
 10
260.276547
 20
-107.144551
 30
0.0
 11
260.276547
 21
-106.744551
 31
0.0
  0
LINE
  8
2
  5
48F
 10
260.276547
 20
-103.744551
 30
0.0
 11
260.276547
 21
-102.444551
 31
0.0
  0
LINE
  8
2
  5
490
 10
260.275978
 20
-116.144551
 30
0.0
 11
260.275978
 21
-115.744551
 31
0.0
  0
LINE
  8
2
  5
491
 10
260.275978
 20
-112.744551
 30
0.0
 11
260.275978
 21
-112.144551
 31
0.0
  0
LINE
  8
2
  5
492
 10
275.277117
 20
-116.144551
 30
0.0
 11
275.277117
 21
-115.744551
 31
0.0
  0
LINE
  8
2
  5
493
 10
275.277117
 20
-112.744551
 30
0.0
 11
275.277117
 21
-112.144551
 31
0.0
  0
LINE
  8
2
  5
494
 10
276.276313
 20
-115.744551
 30
0.0
 11
276.276313
 21
-112.744551
 31
0.0
  0
LINE
  8
2
  5
495
 10
276.276313
 20
-106.744551
 30
0.0
 11
276.276313
 21
-103.744551
 31
0.0
  0
LINE
  8
2
  5
496
 10
259.276313
 20
-115.744551
 30
0.0
 11
259.276313
 21
-112.744551
 31
0.0
  0
LINE
  8
2
  5
497
 10
259.276313
 20
-106.744551
 30
0.0
 11
259.276313
 21
-103.744551
 31
0.0
  0
LINE
  8
2
  5
498
 10
282.277433
 20
-101.744551
 30
0.0
 11
278.277433
 21
-101.744551
 31
0.0
  0
LINE
  8
2
  5
499
 10
277.277433
 20
-114.744551
 30
0.0
 11
277.277433
 21
-102.744551
 31
0.0
  0
ARC
  8
2
  5
49A
 10
278.277433
 20
-102.744551
 30
0.0
 40
1.0
 50
90.0
 51
180.0
  0
ARC
  8
2
  5
49B
 10
282.277433
 20
-102.744551
 30
0.0
 40
1.0
 50
0.0
 51
90.0
  0
ARC
  8
2
  5
49C
 10
278.277433
 20
-114.744551
 30
0.0
 40
1.0
 50
180.0
 51
270.0
  0
POINT
  8
2
  5
49D
 10
267.776547
 20
-101.944551
 30
0.0
  0
POINT
  8
2
  5
49E
 10
267.776547
 20
-101.944551
 30
0.0
  0
LINE
  8
2
  5
49F
 10
-115.586101
 20
9.781506
 30
0.0
 11
-162.586101
 21
9.781506
 31
0.0
  0
LINE
  8
2
  5
4A0
 10
-115.586101
 20
12.781506
 30
0.0
 11
-115.586101
 21
9.781506
 31
0.0
  0
LINE
  8
2
  5
4A1
 10
-162.586101
 20
12.781506
 30
0.0
 11
-162.586101
 21
9.781506
 31
0.0
  0
LINE
  8
2
 62
     2
  5
4A2
 10
-136.086101
 20
12.781506
 30
0.0
 11
-139.086101
 21
9.781506
 31
0.0
  0
LINE
  8
2
 62
     2
  5
4A3
 10
-134.671887
 20
12.781506
 30
0.0
 11
-137.671887
 21
9.781506
 31
0.0
  0
LINE
  8
2
 62
     2
  5
4A4
 10
-133.257674
 20
12.781506
 30
0.0
 11
-136.257674
 21
9.781506
 31
0.0
  0
LINE
  8
2
 62
     2
  5
4A5
 10
-131.84346
 20
12.781506
 30
0.0
 11
-134.84346
 21
9.781506
 31
0.0
  0
LINE
  8
2
 62
     2
  5
4A6
 10
-130.429246
 20
12.781506
 30
0.0
 11
-133.429246
 21
9.781506
 31
0.0
  0
LINE
  8
2
 62
     2
  5
4A7
 10
-129.015033
 20
12.781506
 30
0.0
 11
-132.015033
 21
9.781506
 31
0.0
  0
LINE
  8
2
 62
     2
  5
4A8
 10
-127.600819
 20
12.781506
 30
0.0
 11
-130.600819
 21
9.781506
 31
0.0
  0
LINE
  8
2
 62
     2
  5
4A9
 10
-126.186606
 20
12.781506
 30
0.0
 11
-129.186606
 21
9.781506
 31
0.0
  0
LINE
  8
2
 62
     2
  5
4AA
 10
-124.772392
 20
12.781506
 30
0.0
 11
-127.772392
 21
9.781506
 31
0.0
  0
LINE
  8
2
 62
     2
  5
4AB
 10
-123.358179
 20
12.781506
 30
0.0
 11
-126.358179
 21
9.781506
 31
0.0
  0
LINE
  8
2
 62
     2
  5
4AC
 10
-121.943965
 20
12.781506
 30
0.0
 11
-124.943965
 21
9.781506
 31
0.0
  0
LINE
  8
2
 62
     2
  5
4AD
 10
-120.529752
 20
12.781506
 30
0.0
 11
-123.529752
 21
9.781506
 31
0.0
  0
LINE
  8
2
 62
     2
  5
4AE
 10
-119.115538
 20
12.781506
 30
0.0
 11
-122.115538
 21
9.781506
 31
0.0
  0
LINE
  8
2
 62
     2
  5
4AF
 10
-117.701324
 20
12.781506
 30
0.0
 11
-120.701324
 21
9.781506
 31
0.0
  0
LINE
  8
2
 62
     2
  5
4B0
 10
-116.287111
 20
12.781506
 30
0.0
 11
-119.287111
 21
9.781506
 31
0.0
  0
LINE
  8
2
 62
     2
  5
4B1
 10
-115.586101
 20
12.068302
 30
0.0
 11
-117.872897
 21
9.781506
 31
0.0
  0
LINE
  8
2
 62
     2
  5
4B2
 10
-115.586101
 20
10.654089
 30
0.0
 11
-116.458684
 21
9.781506
 31
0.0
  0
LINE
  8
2
 62
     2
  5
4B3
 10
-137.500314
 20
12.781506
 30
0.0
 11
-140.500314
 21
9.781506
 31
0.0
  0
LINE
  8
2
 62
     2
  5
4B4
 10
-138.914528
 20
12.781506
 30
0.0
 11
-141.914528
 21
9.781506
 31
0.0
  0
LINE
  8
2
 62
     2
  5
4B5
 10
-140.328741
 20
12.781506
 30
0.0
 11
-143.328741
 21
9.781506
 31
0.0
  0
LINE
  8
2
 62
     2
  5
4B6
 10
-141.742955
 20
12.781506
 30
0.0
 11
-144.742955
 21
9.781506
 31
0.0
  0
LINE
  8
2
 62
     2
  5
4B7
 10
-143.157169
 20
12.781506
 30
0.0
 11
-146.157169
 21
9.781506
 31
0.0
  0
LINE
  8
2
 62
     2
  5
4B8
 10
-144.571382
 20
12.781506
 30
0.0
 11
-147.571382
 21
9.781506
 31
0.0
  0
LINE
  8
2
 62
     2
  5
4B9
 10
-145.985596
 20
12.781506
 30
0.0
 11
-148.985596
 21
9.781506
 31
0.0
  0
LINE
  8
2
 62
     2
  5
4BA
 10
-147.399809
 20
12.781506
 30
0.0
 11
-150.399809
 21
9.781506
 31
0.0
  0
LINE
  8
2
 62
     2
  5
4BB
 10
-148.814023
 20
12.781506
 30
0.0
 11
-151.814023
 21
9.781506
 31
0.0
  0
LINE
  8
2
 62
     2
  5
4BC
 10
-150.228236
 20
12.781506
 30
0.0
 11
-153.228236
 21
9.781506
 31
0.0
  0
LINE
  8
2
 62
     2
  5
4BD
 10
-151.64245
 20
12.781506
 30
0.0
 11
-154.64245
 21
9.781506
 31
0.0
  0
LINE
  8
2
 62
     2
  5
4BE
 10
-153.056663
 20
12.781506
 30
0.0
 11
-156.056663
 21
9.781506
 31
0.0
  0
LINE
  8
2
 62
     2
  5
4BF
 10
-154.470877
 20
12.781506
 30
0.0
 11
-157.470877
 21
9.781506
 31
0.0
  0
LINE
  8
2
 62
     2
  5
4C0
 10
-155.885091
 20
12.781506
 30
0.0
 11
-158.885091
 21
9.781506
 31
0.0
  0
LINE
  8
2
 62
     2
  5
4C1
 10
-157.299304
 20
12.781506
 30
0.0
 11
-160.299304
 21
9.781506
 31
0.0
  0
LINE
  8
2
 62
     2
  5
4C2
 10
-158.713518
 20
12.781506
 30
0.0
 11
-161.713518
 21
9.781506
 31
0.0
  0
LINE
  8
2
 62
     2
  5
4C3
 10
-160.127731
 20
12.781506
 30
0.0
 11
-162.586101
 21
10.323136
 31
0.0
  0
LINE
  8
2
 62
     2
  5
4C4
 10
-161.541945
 20
12.781506
 30
0.0
 11
-162.586101
 21
11.73735
 31
0.0
  0
LINE
  8
2
  5
4C5
 10
-164.138101
 20
-3.518494
 30
0.0
 11
-164.138101
 21
-5.518494
 31
0.0
  0
LINE
  8
2
  5
4C6
 10
-114.138101
 20
-3.518494
 30
0.0
 11
-114.138101
 21
-5.518494
 31
0.0
  0
LINE
  8
2
  5
4C7
 10
-114.138101
 20
-3.518494
 30
0.0
 11
-164.138101
 21
-3.518494
 31
0.0
  0
LINE
  8
2
  5
4C8
 10
-164.138101
 20
-5.018494
 30
0.0
 11
-114.138101
 21
-5.018494
 31
0.0
  0
LINE
  8
2
 62
     2
  5
4C9
 10
-140.638101
 20
-5.018494
 30
0.0
 11
-139.138101
 21
-3.518494
 31
0.0
  0
LINE
  8
2
 62
     2
  5
4CA
 10
-140.072415
 20
-5.018494
 30
0.0
 11
-138.572415
 21
-3.518494
 31
0.0
  0
LINE
  8
2
 62
     2
  5
4CB
 10
-139.50673
 20
-5.018494
 30
0.0
 11
-138.00673
 21
-3.518494
 31
0.0
  0
LINE
  8
2
 62
     2
  5
4CC
 10
-138.941044
 20
-5.018494
 30
0.0
 11
-137.441044
 21
-3.518494
 31
0.0
  0
LINE
  8
2
 62
     2
  5
4CD
 10
-138.375359
 20
-5.018494
 30
0.0
 11
-136.875359
 21
-3.518494
 31
0.0
  0
LINE
  8
2
 62
     2
  5
4CE
 10
-137.809674
 20
-5.018494
 30
0.0
 11
-136.309674
 21
-3.518494
 31
0.0
  0
LINE
  8
2
 62
     2
  5
4CF
 10
-137.243988
 20
-5.018494
 30
0.0
 11
-135.743988
 21
-3.518494
 31
0.0
  0
LINE
  8
2
 62
     2
  5
4D0
 10
-136.678303
 20
-5.018494
 30
0.0
 11
-135.178303
 21
-3.518494
 31
0.0
  0
LINE
  8
2
 62
     2
  5
4D1
 10
-136.112617
 20
-5.018494
 30
0.0
 11
-134.612617
 21
-3.518494
 31
0.0
  0
LINE
  8
2
 62
     2
  5
4D2
 10
-135.546932
 20
-5.018494
 30
0.0
 11
-134.046932
 21
-3.518494
 31
0.0
  0
LINE
  8
2
 62
     2
  5
4D3
 10
-134.981246
 20
-5.018494
 30
0.0
 11
-133.481246
 21
-3.518494
 31
0.0
  0
LINE
  8
2
 62
     2
  5
4D4
 10
-134.415561
 20
-5.018494
 30
0.0
 11
-132.915561
 21
-3.518494
 31
0.0
  0
LINE
  8
2
 62
     2
  5
4D5
 10
-133.849876
 20
-5.018494
 30
0.0
 11
-132.349876
 21
-3.518494
 31
0.0
  0
LINE
  8
2
 62
     2
  5
4D6
 10
-133.28419
 20
-5.018494
 30
0.0
 11
-131.78419
 21
-3.518494
 31
0.0
  0
LINE
  8
2
 62
     2
  5
4D7
 10
-132.718505
 20
-5.018494
 30
0.0
 11
-131.218505
 21
-3.518494
 31
0.0
  0
LINE
  8
2
 62
     2
  5
4D8
 10
-132.152819
 20
-5.018494
 30
0.0
 11
-130.652819
 21
-3.518494
 31
0.0
  0
LINE
  8
2
 62
     2
  5
4D9
 10
-131.587134
 20
-5.018494
 30
0.0
 11
-130.087134
 21
-3.518494
 31
0.0
  0
LINE
  8
2
 62
     2
  5
4DA
 10
-131.021448
 20
-5.018494
 30
0.0
 11
-129.521448
 21
-3.518494
 31
0.0
  0
LINE
  8
2
 62
     2
  5
4DB
 10
-130.455763
 20
-5.018494
 30
0.0
 11
-128.955763
 21
-3.518494
 31
0.0
  0
LINE
  8
2
 62
     2
  5
4DC
 10
-129.890078
 20
-5.018494
 30
0.0
 11
-128.390078
 21
-3.518494
 31
0.0
  0
LINE
  8
2
 62
     2
  5
4DD
 10
-129.324392
 20
-5.018494
 30
0.0
 11
-127.824392
 21
-3.518494
 31
0.0
  0
LINE
  8
2
 62
     2
  5
4DE
 10
-128.758707
 20
-5.018494
 30
0.0
 11
-127.258707
 21
-3.518494
 31
0.0
  0
LINE
  8
2
 62
     2
  5
4DF
 10
-128.193021
 20
-5.018494
 30
0.0
 11
-126.693021
 21
-3.518494
 31
0.0
  0
LINE
  8
2
 62
     2
  5
4E0
 10
-127.627336
 20
-5.018494
 30
0.0
 11
-126.127336
 21
-3.518494
 31
0.0
  0
LINE
  8
2
 62
     2
  5
4E1
 10
-127.06165
 20
-5.018494
 30
0.0
 11
-125.56165
 21
-3.518494
 31
0.0
  0
LINE
  8
2
 62
     2
  5
4E2
 10
-126.495965
 20
-5.018494
 30
0.0
 11
-124.995965
 21
-3.518494
 31
0.0
  0
LINE
  8
2
 62
     2
  5
4E3
 10
-125.93028
 20
-5.018494
 30
0.0
 11
-124.43028
 21
-3.518494
 31
0.0
  0
LINE
  8
2
 62
     2
  5
4E4
 10
-125.364594
 20
-5.018494
 30
0.0
 11
-123.864594
 21
-3.518494
 31
0.0
  0
LINE
  8
2
 62
     2
  5
4E5
 10
-124.798909
 20
-5.018494
 30
0.0
 11
-123.298909
 21
-3.518494
 31
0.0
  0
LINE
  8
2
 62
     2
  5
4E6
 10
-124.233223
 20
-5.018494
 30
0.0
 11
-122.733223
 21
-3.518494
 31
0.0
  0
LINE
  8
2
 62
     2
  5
4E7
 10
-123.667538
 20
-5.018494
 30
0.0
 11
-122.167538
 21
-3.518494
 31
0.0
  0
LINE
  8
2
 62
     2
  5
4E8
 10
-123.101853
 20
-5.018494
 30
0.0
 11
-121.601853
 21
-3.518494
 31
0.0
  0
LINE
  8
2
 62
     2
  5
4E9
 10
-122.536167
 20
-5.018494
 30
0.0
 11
-121.036167
 21
-3.518494
 31
0.0
  0
LINE
  8
2
 62
     2
  5
4EA
 10
-121.970482
 20
-5.018494
 30
0.0
 11
-120.470482
 21
-3.518494
 31
0.0
  0
LINE
  8
2
 62
     2
  5
4EB
 10
-121.404796
 20
-5.018494
 30
0.0
 11
-119.904796
 21
-3.518494
 31
0.0
  0
LINE
  8
2
 62
     2
  5
4EC
 10
-120.839111
 20
-5.018494
 30
0.0
 11
-119.339111
 21
-3.518494
 31
0.0
  0
LINE
  8
2
 62
     2
  5
4ED
 10
-120.273425
 20
-5.018494
 30
0.0
 11
-118.773425
 21
-3.518494
 31
0.0
  0
LINE
  8
2
 62
     2
  5
4EE
 10
-119.70774
 20
-5.018494
 30
0.0
 11
-118.20774
 21
-3.518494
 31
0.0
  0
LINE
  8
2
 62
     2
  5
4EF
 10
-119.142055
 20
-5.018494
 30
0.0
 11
-117.642055
 21
-3.518494
 31
0.0
  0
LINE
  8
2
 62
     2
  5
4F0
 10
-118.576369
 20
-5.018494
 30
0.0
 11
-117.076369
 21
-3.518494
 31
0.0
  0
LINE
  8
2
 62
     2
  5
4F1
 10
-118.010684
 20
-5.018494
 30
0.0
 11
-116.510684
 21
-3.518494
 31
0.0
  0
LINE
  8
2
 62
     2
  5
4F2
 10
-117.444998
 20
-5.018494
 30
0.0
 11
-115.944998
 21
-3.518494
 31
0.0
  0
LINE
  8
2
 62
     2
  5
4F3
 10
-116.879313
 20
-5.018494
 30
0.0
 11
-115.379313
 21
-3.518494
 31
0.0
  0
LINE
  8
2
 62
     2
  5
4F4
 10
-116.313627
 20
-5.018494
 30
0.0
 11
-114.813627
 21
-3.518494
 31
0.0
  0
LINE
  8
2
 62
     2
  5
4F5
 10
-115.747942
 20
-5.018494
 30
0.0
 11
-114.247942
 21
-3.518494
 31
0.0
  0
LINE
  8
2
 62
     2
  5
4F6
 10
-114.138101
 20
-3.974339
 30
0.0
 11
-115.182257
 21
-5.018494
 31
0.0
  0
LINE
  8
2
 62
     2
  5
4F7
 10
-114.138101
 20
-4.540024
 30
0.0
 11
-114.616571
 21
-5.018494
 31
0.0
  0
LINE
  8
2
 62
     2
  5
4F8
 10
-141.203786
 20
-5.018494
 30
0.0
 11
-139.703786
 21
-3.518494
 31
0.0
  0
LINE
  8
2
 62
     2
  5
4F9
 10
-141.769472
 20
-5.018494
 30
0.0
 11
-140.269472
 21
-3.518494
 31
0.0
  0
LINE
  8
2
 62
     2
  5
4FA
 10
-142.335157
 20
-5.018494
 30
0.0
 11
-140.835157
 21
-3.518494
 31
0.0
  0
LINE
  8
2
 62
     2
  5
4FB
 10
-142.900842
 20
-5.018494
 30
0.0
 11
-141.400842
 21
-3.518494
 31
0.0
  0
LINE
  8
2
 62
     2
  5
4FC
 10
-143.466528
 20
-5.018494
 30
0.0
 11
-141.966528
 21
-3.518494
 31
0.0
  0
LINE
  8
2
 62
     2
  5
4FD
 10
-144.032213
 20
-5.018494
 30
0.0
 11
-142.532213
 21
-3.518494
 31
0.0
  0
LINE
  8
2
 62
     2
  5
4FE
 10
-144.597899
 20
-5.018494
 30
0.0
 11
-143.097899
 21
-3.518494
 31
0.0
  0
LINE
  8
2
 62
     2
  5
4FF
 10
-145.163584
 20
-5.018494
 30
0.0
 11
-143.663584
 21
-3.518494
 31
0.0
  0
LINE
  8
2
 62
     2
  5
500
 10
-145.72927
 20
-5.018494
 30
0.0
 11
-144.22927
 21
-3.518494
 31
0.0
  0
LINE
  8
2
 62
     2
  5
501
 10
-146.294955
 20
-5.018494
 30
0.0
 11
-144.794955
 21
-3.518494
 31
0.0
  0
LINE
  8
2
 62
     2
  5
502
 10
-146.86064
 20
-5.018494
 30
0.0
 11
-145.36064
 21
-3.518494
 31
0.0
  0
LINE
  8
2
 62
     2
  5
503
 10
-147.426326
 20
-5.018494
 30
0.0
 11
-145.926326
 21
-3.518494
 31
0.0
  0
LINE
  8
2
 62
     2
  5
504
 10
-147.992011
 20
-5.018494
 30
0.0
 11
-146.492011
 21
-3.518494
 31
0.0
  0
LINE
  8
2
 62
     2
  5
505
 10
-148.557697
 20
-5.018494
 30
0.0
 11
-147.057697
 21
-3.518494
 31
0.0
  0
LINE
  8
2
 62
     2
  5
506
 10
-149.123382
 20
-5.018494
 30
0.0
 11
-147.623382
 21
-3.518494
 31
0.0
  0
LINE
  8
2
 62
     2
  5
507
 10
-149.689067
 20
-5.018494
 30
0.0
 11
-148.189067
 21
-3.518494
 31
0.0
  0
LINE
  8
2
 62
     2
  5
508
 10
-150.254753
 20
-5.018494
 30
0.0
 11
-148.754753
 21
-3.518494
 31
0.0
  0
LINE
  8
2
 62
     2
  5
509
 10
-150.820438
 20
-5.018494
 30
0.0
 11
-149.320438
 21
-3.518494
 31
0.0
  0
LINE
  8
2
 62
     2
  5
50A
 10
-151.386124
 20
-5.018494
 30
0.0
 11
-149.886124
 21
-3.518494
 31
0.0
  0
LINE
  8
2
 62
     2
  5
50B
 10
-151.951809
 20
-5.018494
 30
0.0
 11
-150.451809
 21
-3.518494
 31
0.0
  0
LINE
  8
2
 62
     2
  5
50C
 10
-152.517495
 20
-5.018494
 30
0.0
 11
-151.017495
 21
-3.518494
 31
0.0
  0
LINE
  8
2
 62
     2
  5
50D
 10
-153.08318
 20
-5.018494
 30
0.0
 11
-151.58318
 21
-3.518494
 31
0.0
  0
LINE
  8
2
 62
     2
  5
50E
 10
-153.648865
 20
-5.018494
 30
0.0
 11
-152.148865
 21
-3.518494
 31
0.0
  0
LINE
  8
2
 62
     2
  5
50F
 10
-154.214551
 20
-5.018494
 30
0.0
 11
-152.714551
 21
-3.518494
 31
0.0
  0
LINE
  8
2
 62
     2
  5
510
 10
-154.780236
 20
-5.018494
 30
0.0
 11
-153.280236
 21
-3.518494
 31
0.0
  0
LINE
  8
2
 62
     2
  5
511
 10
-155.345922
 20
-5.018494
 30
0.0
 11
-153.845922
 21
-3.518494
 31
0.0
  0
LINE
  8
2
 62
     2
  5
512
 10
-155.911607
 20
-5.018494
 30
0.0
 11
-154.411607
 21
-3.518494
 31
0.0
  0
LINE
  8
2
 62
     2
  5
513
 10
-156.477293
 20
-5.018494
 30
0.0
 11
-154.977293
 21
-3.518494
 31
0.0
  0
LINE
  8
2
 62
     2
  5
514
 10
-157.042978
 20
-5.018494
 30
0.0
 11
-155.542978
 21
-3.518494
 31
0.0
  0
LINE
  8
2
 62
     2
  5
515
 10
-157.608663
 20
-5.018494
 30
0.0
 11
-156.108663
 21
-3.518494
 31
0.0
  0
LINE
  8
2
 62
     2
  5
516
 10
-158.174349
 20
-5.018494
 30
0.0
 11
-156.674349
 21
-3.518494
 31
0.0
  0
LINE
  8
2
 62
     2
  5
517
 10
-158.740034
 20
-5.018494
 30
0.0
 11
-157.240034
 21
-3.518494
 31
0.0
  0
LINE
  8
2
 62
     2
  5
518
 10
-159.30572
 20
-5.018494
 30
0.0
 11
-157.80572
 21
-3.518494
 31
0.0
  0
LINE
  8
2
 62
     2
  5
519
 10
-159.871405
 20
-5.018494
 30
0.0
 11
-158.371405
 21
-3.518494
 31
0.0
  0
LINE
  8
2
 62
     2
  5
51A
 10
-160.437091
 20
-5.018494
 30
0.0
 11
-158.937091
 21
-3.518494
 31
0.0
  0
LINE
  8
2
 62
     2
  5
51B
 10
-161.002776
 20
-5.018494
 30
0.0
 11
-159.502776
 21
-3.518494
 31
0.0
  0
LINE
  8
2
 62
     2
  5
51C
 10
-161.568461
 20
-5.018494
 30
0.0
 11
-160.068461
 21
-3.518494
 31
0.0
  0
LINE
  8
2
 62
     2
  5
51D
 10
-162.134147
 20
-5.018494
 30
0.0
 11
-160.634147
 21
-3.518494
 31
0.0
  0
LINE
  8
2
 62
     2
  5
51E
 10
-162.699832
 20
-5.018494
 30
0.0
 11
-161.199832
 21
-3.518494
 31
0.0
  0
LINE
  8
2
 62
     2
  5
51F
 10
-163.265518
 20
-5.018494
 30
0.0
 11
-161.765518
 21
-3.518494
 31
0.0
  0
LINE
  8
2
 62
     2
  5
520
 10
-163.831203
 20
-5.018494
 30
0.0
 11
-162.331203
 21
-3.518494
 31
0.0
  0
LINE
  8
2
 62
     2
  5
521
 10
-164.138101
 20
-4.759707
 30
0.0
 11
-162.896889
 21
-3.518494
 31
0.0
  0
LINE
  8
2
 62
     2
  5
522
 10
-164.138101
 20
-4.194021
 30
0.0
 11
-163.462574
 21
-3.518494
 31
0.0
  0
LINE
  8
2
 62
     2
  5
523
 10
-164.138101
 20
-3.628336
 30
0.0
 11
-164.028259
 21
-3.518494
 31
0.0
  0
LINE
  8
2
  5
524
 10
-162.586101
 20
12.781506
 30
0.0
 11
-115.586101
 21
12.781506
 31
0.0
  0
LINE
  8
2
  5
525
 10
-113.138769
 20
-5.518494
 30
0.0
 11
-165.138769
 21
-5.518494
 31
0.0
  0
LINE
  8
2
  5
526
 10
-116.138769
 20
-17.518494
 30
0.0
 11
-162.138769
 21
-17.518494
 31
0.0
  0
LINE
  8
2
  5
527
 10
-165.138769
 20
-7.518494
 30
0.0
 11
-165.138769
 21
-5.518494
 31
0.0
  0
LINE
  8
2
  5
528
 10
-113.138769
 20
-7.518494
 30
0.0
 11
-113.138769
 21
-5.518494
 31
0.0
  0
LINE
  8
2
  5
529
 10
-162.138769
 20
-17.518494
 30
0.0
 11
-162.138769
 21
-9.518494
 31
0.0
  0
LINE
  8
2
  5
52A
 10
-116.138769
 20
-17.518494
 30
0.0
 11
-116.138769
 21
-9.518494
 31
0.0
  0
LINE
  8
2
  5
52B
 10
-114.138769
 20
-8.518494
 30
0.0
 11
-164.138769
 21
-8.518494
 31
0.0
  0
LINE
  8
2
  5
52C
 10
-161.138769
 20
-16.426494
 30
0.0
 11
-161.138769
 21
-8.518494
 31
0.0
  0
LINE
  8
2
  5
52D
 10
-117.138769
 20
-16.426494
 30
0.0
 11
-117.138769
 21
-8.518494
 31
0.0
  0
LINE
  8
2
  5
52E
 10
-138.138769
 20
-16.426494
 30
0.0
 11
-138.138769
 21
-8.518494
 31
0.0
  0
LINE
  8
2
  5
52F
 10
-140.138769
 20
-16.426494
 30
0.0
 11
-140.138769
 21
-8.518494
 31
0.0
  0
LINE
  8
2
  5
530
 10
-161.138769
 20
-16.426494
 30
0.0
 11
-162.138769
 21
-16.426494
 31
0.0
  0
LINE
  8
2
  5
531
 10
-116.138769
 20
-16.426494
 30
0.0
 11
-117.138769
 21
-16.426494
 31
0.0
  0
LINE
  8
2
  5
532
 10
-138.138769
 20
-16.426494
 30
0.0
 11
-140.138769
 21
-16.426494
 31
0.0
  0
ARC
  8
2
  5
533
 10
-150.638769
 20
33.508275
 30
0.0
 40
51.026769
 50
258.125168
 51
281.874832
  0
ARC
  8
2
  5
534
 10
-127.638769
 20
33.508275
 30
0.0
 40
51.026769
 50
258.125168
 51
281.874832
  0
ARC
  8
2
  5
535
 10
-163.138769
 20
-9.518494
 30
0.0
 40
1.0
 50
0.0
 51
90.0
  0
ARC
  8
2
  5
536
 10
-115.138769
 20
-9.518494
 30
0.0
 40
1.0
 50
90.0
 51
180.0
  0
ARC
  8
2
  5
537
 10
-164.138769
 20
-7.518494
 30
0.0
 40
1.0
 50
180.0
 51
270.0
  0
ARC
  8
2
  5
538
 10
-114.138769
 20
-7.518494
 30
0.0
 40
1.0
 50
270.0
 51
360.0
  0
POINT
  8
2
  5
539
 10
-139.086101
 20
12.781506
 30
0.0
  0
LINE
  8
2
  5
53A
 10
-121.586101
 20
-28.924494
 30
0.0
 11
-121.586101
 21
-17.518494
 31
0.0
  0
LINE
  8
2
  5
53B
 10
-121.586101
 20
-3.518494
 30
0.0
 11
-121.586101
 21
9.781506
 31
0.0
  0
LINE
  8
2
 62
     2
  5
53C
 10
-122.379851
 20
-29.718244
 30
0.0
 11
-122.379851
 21
-17.518494
 31
0.0
  0
LINE
  8
2
 62
     2
  5
53D
 10
-122.379851
 20
-3.518494
 30
0.0
 11
-122.379851
 21
9.781506
 31
0.0
  0
LINE
  8
2
 62
     2
  5
53E
 10
-155.792351
 20
-29.718244
 30
0.0
 11
-155.792351
 21
-17.518494
 31
0.0
  0
LINE
  8
2
 62
     2
  5
53F
 10
-155.792351
 20
-3.518494
 30
0.0
 11
-155.792351
 21
9.781506
 31
0.0
  0
LINE
  8
2
  5
540
 10
-156.586101
 20
-28.924494
 30
0.0
 11
-156.586101
 21
-17.518494
 31
0.0
  0
LINE
  8
2
  5
541
 10
-156.586101
 20
-3.518494
 30
0.0
 11
-156.586101
 21
9.781506
 31
0.0
  0
LINE
  8
2
  5
542
 10
-145.33855
 20
-37.166634
 30
0.0
 11
-145.33855
 21
-36.152729
 31
0.0
  0
LINE
  8
2
  5
543
 10
-132.93855
 20
-35.091603
 30
0.0
 11
-132.93855
 21
-34.077681
 31
0.0
  0
LINE
  8
2
  5
544
 10
-146.13855
 20
-36.050354
 30
0.0
 11
-146.13855
 21
-33.414201
 31
0.0
  0
LINE
  8
2
  5
545
 10
-145.905541
 20
-36.247611
 30
0.0
 11
-132.305541
 21
-33.971752
 31
0.0
  0
ARC
  8
2
  5
546
 10
-145.93855
 20
-36.050354
 30
0.0
 40
0.2
 50
180.0
 51
279.5
  0
LINE
  8
2
  5
547
 10
-132.13855
 20
-33.774494
 30
0.0
 11
-132.13855
 21
-31.138341
 31
0.0
  0
ARC
  8
2
  5
548
 10
-132.33855
 20
-33.774494
 30
0.0
 40
0.2
 50
279.5
 51
360.0
  0
ARC
  8
2
  5
549
 10
-132.33855
 20
-31.138341
 30
0.0
 40
0.2
 50
0.0
 51
99.5
  0
LINE
  8
2
  5
54A
 10
-132.37156
 20
-30.940704
 30
0.0
 11
-145.971562
 21
-33.216962
 31
0.0
  0
LINE
  8
2
  5
54B
 10
-145.33855
 20
-41.222634
 30
0.0
 11
-145.33855
 21
-40.208729
 31
0.0
  0
LINE
  8
2
  5
54C
 10
-132.93855
 20
-39.147603
 30
0.0
 11
-132.93855
 21
-38.133681
 31
0.0
  0
LINE
  8
2
  5
54D
 10
-146.13855
 20
-40.106354
 30
0.0
 11
-146.13855
 21
-37.470201
 31
0.0
  0
LINE
  8
2
  5
54E
 10
-145.905541
 20
-40.303611
 30
0.0
 11
-132.305541
 21
-38.027752
 31
0.0
  0
ARC
  8
2
  5
54F
 10
-145.93855
 20
-40.106354
 30
0.0
 40
0.2
 50
180.0
 51
279.5
  0
LINE
  8
2
  5
550
 10
-132.13855
 20
-37.830494
 30
0.0
 11
-132.13855
 21
-35.194341
 31
0.0
  0
ARC
  8
2
  5
551
 10
-132.33855
 20
-37.830494
 30
0.0
 40
0.2
 50
279.5
 51
360.0
  0
ARC
  8
2
  5
552
 10
-132.33855
 20
-35.194341
 30
0.0
 40
0.2
 50
0.0
 51
99.5
  0
LINE
  8
2
  5
553
 10
-132.37156
 20
-34.996704
 30
0.0
 11
-145.971562
 21
-37.272962
 31
0.0
  0
LINE
  8
2
  5
554
 10
-145.33855
 20
-45.278634
 30
0.0
 11
-145.33855
 21
-44.264729
 31
0.0
  0
LINE
  8
2
  5
555
 10
-132.93855
 20
-43.203603
 30
0.0
 11
-132.93855
 21
-42.189681
 31
0.0
  0
LINE
  8
2
  5
556
 10
-146.13855
 20
-44.162354
 30
0.0
 11
-146.13855
 21
-41.526201
 31
0.0
  0
LINE
  8
2
  5
557
 10
-145.905541
 20
-44.359611
 30
0.0
 11
-132.305541
 21
-42.083752
 31
0.0
  0
ARC
  8
2
  5
558
 10
-145.93855
 20
-44.162354
 30
0.0
 40
0.2
 50
180.0
 51
279.5
  0
LINE
  8
2
  5
559
 10
-132.13855
 20
-41.886494
 30
0.0
 11
-132.13855
 21
-39.250341
 31
0.0
  0
ARC
  8
2
  5
55A
 10
-132.33855
 20
-41.886494
 30
0.0
 40
0.2
 50
279.5
 51
360.0
  0
ARC
  8
2
  5
55B
 10
-132.33855
 20
-39.250341
 30
0.0
 40
0.2
 50
0.0
 51
99.5
  0
LINE
  8
2
  5
55C
 10
-132.37156
 20
-39.052704
 30
0.0
 11
-145.971562
 21
-41.328962
 31
0.0
  0
LINE
  8
2
  5
55D
 10
-145.33855
 20
-49.334634
 30
0.0
 11
-145.33855
 21
-48.320729
 31
0.0
  0
LINE
  8
2
  5
55E
 10
-132.93855
 20
-47.259603
 30
0.0
 11
-132.93855
 21
-46.245681
 31
0.0
  0
LINE
  8
2
  5
55F
 10
-146.13855
 20
-48.218354
 30
0.0
 11
-146.13855
 21
-45.582201
 31
0.0
  0
LINE
  8
2
  5
560
 10
-145.905541
 20
-48.415611
 30
0.0
 11
-132.305541
 21
-46.139752
 31
0.0
  0
ARC
  8
2
  5
561
 10
-145.93855
 20
-48.218354
 30
0.0
 40
0.2
 50
180.0
 51
279.5
  0
LINE
  8
2
  5
562
 10
-132.13855
 20
-45.942494
 30
0.0
 11
-132.13855
 21
-43.306341
 31
0.0
  0
ARC
  8
2
  5
563
 10
-132.33855
 20
-45.942494
 30
0.0
 40
0.2
 50
279.5
 51
360.0
  0
ARC
  8
2
  5
564
 10
-132.33855
 20
-43.306341
 30
0.0
 40
0.2
 50
0.0
 51
99.5
  0
LINE
  8
2
  5
565
 10
-132.37156
 20
-43.108704
 30
0.0
 11
-145.971562
 21
-45.384962
 31
0.0
  0
LINE
  8
2
  5
566
 10
-145.33855
 20
-53.390634
 30
0.0
 11
-145.33855
 21
-52.376729
 31
0.0
  0
LINE
  8
2
  5
567
 10
-132.93855
 20
-51.315603
 30
0.0
 11
-132.93855
 21
-50.301681
 31
0.0
  0
LINE
  8
2
  5
568
 10
-146.13855
 20
-52.274354
 30
0.0
 11
-146.13855
 21
-49.638201
 31
0.0
  0
LINE
  8
2
  5
569
 10
-145.905541
 20
-52.471611
 30
0.0
 11
-132.305541
 21
-50.195752
 31
0.0
  0
ARC
  8
2
  5
56A
 10
-145.93855
 20
-52.274354
 30
0.0
 40
0.2
 50
180.0
 51
279.5
  0
LINE
  8
2
  5
56B
 10
-132.13855
 20
-49.998494
 30
0.0
 11
-132.13855
 21
-47.362341
 31
0.0
  0
ARC
  8
2
  5
56C
 10
-132.33855
 20
-49.998494
 30
0.0
 40
0.2
 50
279.5
 51
360.0
  0
ARC
  8
2
  5
56D
 10
-132.33855
 20
-47.362341
 30
0.0
 40
0.2
 50
0.0
 51
99.5
  0
LINE
  8
2
  5
56E
 10
-132.37156
 20
-47.164704
 30
0.0
 11
-145.971562
 21
-49.440962
 31
0.0
  0
ARC
  8
2
  5
56F
 10
-145.93855
 20
-49.638201
 30
0.0
 40
0.2
 50
99.5
 51
180.0
  0
ARC
  8
2
  5
570
 10
-145.93855
 20
-45.582201
 30
0.0
 40
0.2
 50
99.5
 51
180.0
  0
ARC
  8
2
  5
571
 10
-145.93855
 20
-41.526201
 30
0.0
 40
0.2
 50
99.5
 51
180.0
  0
ARC
  8
2
  5
572
 10
-145.93855
 20
-37.470201
 30
0.0
 40
0.2
 50
99.5
 51
180.0
  0
ARC
  8
2
  5
573
 10
-145.93855
 20
-33.414201
 30
0.0
 40
0.2
 50
99.5
 51
180.0
  0
LINE
  8
2
  5
574
 10
-145.33855
 20
-33.110634
 30
0.0
 11
-145.33855
 21
-32.096729
 31
0.0
  0
LINE
  8
2
  5
575
 10
-132.93855
 20
-31.035603
 30
0.0
 11
-132.93855
 21
-30.021681
 31
0.0
  0
LINE
  8
2
  5
576
 10
-146.13855
 20
-31.994354
 30
0.0
 11
-146.13855
 21
-29.718494
 31
0.0
  0
LINE
  8
2
  5
577
 10
-145.905541
 20
-32.191611
 30
0.0
 11
-132.305541
 21
-29.915752
 31
0.0
  0
ARC
  8
2
  5
578
 10
-145.93855
 20
-31.994354
 30
0.0
 40
0.2
 50
180.0
 51
279.5
  0
LINE
  8
2
  5
579
 10
-146.13855
 20
-56.888519
 30
0.0
 11
-146.13855
 21
-53.694201
 31
0.0
  0
ARC
  8
2
  5
57A
 10
-132.33855
 20
-51.418341
 30
0.0
 40
0.2
 50
0.0
 51
99.5
  0
LINE
  8
2
  5
57B
 10
-132.37156
 20
-51.220704
 30
0.0
 11
-145.971562
 21
-53.496962
 31
0.0
  0
ARC
  8
2
  5
57C
 10
-145.93855
 20
-53.694201
 30
0.0
 40
0.2
 50
99.5
 51
180.0
  0
ARC
  8
2
  5
57D
 10
-132.33855
 20
-29.718494
 30
0.0
 40
0.2
 50
279.5
 51
360.0
  0
LINE
  8
2
  6
CENTER
 62
     2
  5
57E
 10
267.776547
 20
-42.525056
 30
0.0
 11
186.398505
 21
-58.984388
 31
0.0
  0
LINE
  8
2
  6
CENTER
 62
     2
  5
57F
 10
-257.005508
 20
217.027122
 30
0.0
 11
-312.638672
 21
217.027122
 31
0.0
  0
LINE
  8
2
  6
CENTER
 62
     2
  5
580
 10
-284.500336
 20
244.342178
 30
0.0
 11
-284.500336
 21
80.554092
 31
0.0
  0
CIRCLE
  8
2
  5
581
 10
-284.500336
 20
217.027122
 30
0.0
 40
26.0
  0
LINE
  8
2
  5
582
 10
-299.500336
 20
195.790361
 30
0.0
 11
-299.500336
 21
90.587835
 31
0.0
  0
LINE
  8
2
  5
583
 10
-269.500336
 20
183.046359
 30
0.0
 11
-269.500336
 21
90.587835
 31
0.0
  0
POINT
  8
2
  5
584
 10
-284.500336
 20
159.869445
 30
0.0
  0
POINT
  8
2
  5
585
 10
56.959219
 20
129.27173
 30
0.0
  0
POINT
  8
2
  5
586
 10
41.959254
 20
103.291029
 30
0.0
  0
POLYLINE
  8
2
  5
587
 66
     1
 10
0.0
 20
0.0
 30
0.0
 70
     1
  0
VERTEX
  8
2
  5
E2D
 10
-284.500336
 20
98.087835
 30
0.0
  0
VERTEX
  8
2
  5
E2E
 10
-289.885501
 20
97.587835
 30
0.0
  0
VERTEX
  8
2
  5
E2F
 10
-291.98365
 20
97.087835
 30
0.0
  0
VERTEX
  8
2
  5
E30
 10
-293.500336
 20
96.587835
 30
0.0
  0
VERTEX
  8
2
  5
E31
 10
-294.698375
 20
96.087835
 30
0.0
  0
VERTEX
  8
2
  5
E32
 10
-295.680676
 20
95.587835
 30
0.0
  0
VERTEX
  8
2
  5
E33
 10
-296.500336
 20
95.087835
 30
0.0
  0
VERTEX
  8
2
  5
E34
 10
-297.188913
 20
94.587835
 30
0.0
  0
VERTEX
  8
2
  5
E35
 10
-297.766835
 20
94.087835
 30
0.0
  0
VERTEX
  8
2
  5
E36
 10
-298.248063
 20
93.587835
 30
0.0
  0
VERTEX
  8
2
  5
E37
 10
-298.642471
 20
93.087835
 30
0.0
  0
VERTEX
  8
2
  5
E38
 10
-298.957168
 20
92.587835
 30
0.0
  0
VERTEX
  8
2
  5
E39
 10
-299.197274
 20
92.087835
 30
0.0
  0
VERTEX
  8
2
  5
E3A
 10
-299.366404
 20
91.587835
 30
0.0
  0
VERTEX
  8
2
  5
E3B
 10
-299.466965
 20
91.087835
 30
0.0
  0
VERTEX
  8
2
  5
E3C
 10
-299.500336
 20
90.587835
 30
0.0
  0
VERTEX
  8
2
  5
E3D
 10
-299.466965
 20
90.087835
 30
0.0
  0
VERTEX
  8
2
  5
E3E
 10
-299.366404
 20
89.587835
 30
0.0
  0
VERTEX
  8
2
  5
E3F
 10
-299.197274
 20
89.087835
 30
0.0
  0
VERTEX
  8
2
  5
E40
 10
-298.957168
 20
88.587835
 30
0.0
  0
VERTEX
  8
2
  5
E41
 10
-298.642471
 20
88.087835
 30
0.0
  0
VERTEX
  8
2
  5
E42
 10
-298.248063
 20
87.587835
 30
0.0
  0
VERTEX
  8
2
  5
E43
 10
-297.766835
 20
87.087835
 30
0.0
  0
VERTEX
  8
2
  5
E44
 10
-297.188913
 20
86.587835
 30
0.0
  0
VERTEX
  8
2
  5
E45
 10
-296.500336
 20
86.087835
 30
0.0
  0
VERTEX
  8
2
  5
E46
 10
-295.680676
 20
85.587835
 30
0.0
  0
VERTEX
  8
2
  5
E47
 10
-294.698375
 20
85.087835
 30
0.0
  0
VERTEX
  8
2
  5
E48
 10
-293.500336
 20
84.587835
 30
0.0
  0
VERTEX
  8
2
  5
E49
 10
-291.98365
 20
84.087835
 30
0.0
  0
VERTEX
  8
2
  5
E4A
 10
-289.885501
 20
83.587835
 30
0.0
  0
VERTEX
  8
2
  5
E4B
 10
-284.500336
 20
83.087835
 30
0.0
  0
VERTEX
  8
2
  5
E4C
 10
-279.115171
 20
83.587835
 30
0.0
  0
VERTEX
  8
2
  5
E4D
 10
-277.017021
 20
84.087835
 30
0.0
  0
VERTEX
  8
2
  5
E4E
 10
-275.500336
 20
84.587835
 30
0.0
  0
VERTEX
  8
2
  5
E4F
 10
-274.302297
 20
85.087835
 30
0.0
  0
VERTEX
  8
2
  5
E50
 10
-273.319996
 20
85.587835
 30
0.0
  0
VERTEX
  8
2
  5
E51
 10
-272.500336
 20
86.087835
 30
0.0
  0
VERTEX
  8
2
  5
E52
 10
-271.811758
 20
86.587835
 30
0.0
  0
VERTEX
  8
2
  5
E53
 10
-271.233837
 20
87.087835
 30
0.0
  0
VERTEX
  8
2
  5
E54
 10
-270.752609
 20
87.587835
 30
0.0
  0
VERTEX
  8
2
  5
E55
 10
-270.3582
 20
88.087835
 30
0.0
  0
VERTEX
  8
2
  5
E56
 10
-270.043503
 20
88.587835
 30
0.0
  0
VERTEX
  8
2
  5
E57
 10
-269.803397
 20
89.087835
 30
0.0
  0
VERTEX
  8
2
  5
E58
 10
-269.634267
 20
89.587835
 30
0.0
  0
VERTEX
  8
2
  5
E59
 10
-269.533706
 20
90.087835
 30
0.0
  0
VERTEX
  8
2
  5
E5A
 10
-269.500336
 20
90.587835
 30
0.0
  0
VERTEX
  8
2
  5
E5B
 10
-269.533706
 20
91.087835
 30
0.0
  0
VERTEX
  8
2
  5
E5C
 10
-269.634267
 20
91.587835
 30
0.0
  0
VERTEX
  8
2
  5
E5D
 10
-269.803397
 20
92.087835
 30
0.0
  0
VERTEX
  8
2
  5
E5E
 10
-270.043503
 20
92.587835
 30
0.0
  0
VERTEX
  8
2
  5
E5F
 10
-270.3582
 20
93.087835
 30
0.0
  0
VERTEX
  8
2
  5
E60
 10
-270.752609
 20
93.587835
 30
0.0
  0
VERTEX
  8
2
  5
E61
 10
-271.233837
 20
94.087835
 30
0.0
  0
VERTEX
  8
2
  5
E62
 10
-271.811758
 20
94.587835
 30
0.0
  0
VERTEX
  8
2
  5
E63
 10
-272.500336
 20
95.087835
 30
0.0
  0
VERTEX
  8
2
  5
E64
 10
-273.319996
 20
95.587835
 30
0.0
  0
VERTEX
  8
2
  5
E65
 10
-274.302297
 20
96.087835
 30
0.0
  0
VERTEX
  8
2
  5
E66
 10
-275.500336
 20
96.587835
 30
0.0
  0
VERTEX
  8
2
  5
E67
 10
-277.017021
 20
97.087835
 30
0.0
  0
VERTEX
  8
2
  5
E68
 10
-279.115171
 20
97.587835
 30
0.0
  0
VERTEX
  8
2
  5
E69
 10
-284.500336
 20
98.087835
 30
0.0
  0
SEQEND
  8
2
  5
E6A
  0
LINE
  8
2
  5
5C6
 10
-288.500336
 20
191.336656
 30
0.0
 11
-288.500336
 21
132.527122
 31
0.0
  0
LINE
  8
2
  5
5C7
 10
-280.500336
 20
191.336656
 30
0.0
 11
-280.500336
 21
132.527122
 31
0.0
  0
POLYLINE
  8
2
  5
5C8
 66
     1
 10
0.0
 20
0.0
 30
0.0
  0
VERTEX
  8
2
  5
5C9
 10
-269.500336
 20
159.869445
 30
0.0
 40
0.0
 41
0.0
  0
VERTEX
  8
2
  5
5CA
 10
-269.500336
 20
159.869445
 30
0.0
 40
0.0
 41
0.0
  0
VERTEX
  8
2
  5
5CB
 10
-269.533706
 20
160.369445
 30
0.0
 40
0.0
 41
0.0
  0
VERTEX
  8
2
  5
5CC
 10
-269.634267
 20
160.869445
 30
0.0
 40
0.0
 41
0.0
  0
VERTEX
  8
2
  5
5CD
 10
-269.803397
 20
161.369445
 30
0.0
 40
0.0
 41
0.0
  0
VERTEX
  8
2
  5
5CE
 10
-270.043503
 20
161.869445
 30
0.0
 40
0.0
 41
0.0
  0
VERTEX
  8
2
  5
5CF
 10
-270.3582
 20
162.369445
 30
0.0
 40
0.0
 41
0.0
  0
VERTEX
  8
2
  5
5D0
 10
-270.752609
 20
162.869445
 30
0.0
 40
0.0
 41
0.0
  0
VERTEX
  8
2
  5
5D1
 10
-271.233837
 20
163.369445
 30
0.0
 40
0.0
 41
0.0
  0
VERTEX
  8
2
  5
5D2
 10
-271.811758
 20
163.869445
 30
0.0
 40
0.0
 41
0.0
  0
VERTEX
  8
2
  5
5D3
 10
-272.500336
 20
164.369445
 30
0.0
 40
0.0
 41
0.0
  0
VERTEX
  8
2
  5
5D4
 10
-273.319996
 20
164.869445
 30
0.0
 40
0.0
 41
0.0
  0
VERTEX
  8
2
  5
5D5
 10
-274.302297
 20
165.369445
 30
0.0
 40
0.0
 41
0.0
  0
VERTEX
  8
2
  5
5D6
 10
-275.500336
 20
165.869445
 30
0.0
 40
0.0
 41
0.0
  0
VERTEX
  8
2
  5
5D7
 10
-277.017021
 20
166.369445
 30
0.0
 40
0.0
 41
0.0
  0
VERTEX
  8
2
  5
5D8
 10
-279.115171
 20
166.869445
 30
0.0
 40
0.0
 41
0.0
  0
VERTEX
  8
2
  5
5D9
 10
-280.500336
 20
167.097861
 30
0.0
 40
0.0
 41
0.0
  0
SEQEND
  8
2
  5
5DA
  0
POLYLINE
  8
2
  5
5DB
 66
     1
 10
0.0
 20
0.0
 30
0.0
  0
VERTEX
  8
2
  5
E6B
 10
-288.500336
 20
167.097861
 30
0.0
  0
VERTEX
  8
2
  5
E6C
 10
-289.885501
 20
166.869445
 30
0.0
  0
VERTEX
  8
2
  5
E6D
 10
-291.98365
 20
166.369445
 30
0.0
  0
VERTEX
  8
2
  5
E6E
 10
-293.500336
 20
165.869445
 30
0.0
  0
VERTEX
  8
2
  5
E6F
 10
-294.698375
 20
165.369445
 30
0.0
  0
VERTEX
  8
2
  5
E70
 10
-295.680676
 20
164.869445
 30
0.0
  0
VERTEX
  8
2
  5
E71
 10
-296.500336
 20
164.369445
 30
0.0
  0
VERTEX
  8
2
  5
E72
 10
-297.188913
 20
163.869445
 30
0.0
  0
VERTEX
  8
2
  5
E73
 10
-297.766835
 20
163.369445
 30
0.0
  0
VERTEX
  8
2
  5
E74
 10
-298.248063
 20
162.869445
 30
0.0
  0
VERTEX
  8
2
  5
E75
 10
-298.642471
 20
162.369445
 30
0.0
  0
VERTEX
  8
2
  5
E76
 10
-298.957168
 20
161.869445
 30
0.0
  0
VERTEX
  8
2
  5
E77
 10
-299.197274
 20
161.369445
 30
0.0
  0
VERTEX
  8
2
  5
E78
 10
-299.366404
 20
160.869445
 30
0.0
  0
VERTEX
  8
2
  5
E79
 10
-299.466965
 20
160.369445
 30
0.0
  0
VERTEX
  8
2
  5
E7A
 10
-299.500336
 20
159.869445
 30
0.0
  0
SEQEND
  8
2
  5
E7B
  0
LINE
  8
2
  5
5ED
 10
-281.000336
 20
132.027122
 30
0.0
 11
-288.000336
 21
132.027122
 31
0.0
  0
LINE
  8
2
  5
5EE
 10
-288.500336
 20
132.527122
 30
0.0
 11
-288.000336
 21
132.027122
 31
0.0
  0
LINE
  8
2
  5
5EF
 10
-280.500336
 20
132.527122
 30
0.0
 11
-281.000336
 21
132.027122
 31
0.0
  0
LINE
  8
2
 62
     2
  5
5F0
 10
-288.500336
 20
132.527122
 30
0.0
 11
-280.500336
 21
132.527122
 31
0.0
  0
POINT
  8
2
  5
5F1
 10
-284.500336
 20
217.027122
 30
0.0
  0
POLYLINE
  8
2
  6
DASHED
 62
     2
  5
5F2
 66
     1
 10
0.0
 20
0.0
 30
0.0
 70
     1
  0
VERTEX
  8
2
  6
DASHED
 62
     2
  5
E7C
 10
-315.284088
 20
102.140593
 30
0.0
  0
VERTEX
  8
2
  6
DASHED
 62
     2
  5
E7D
 10
-320.615167
 20
103.051413
 30
0.0
  0
VERTEX
  8
2
  6
DASHED
 62
     2
  5
E7E
 10
-322.771234
 20
103.111492
 30
0.0
  0
VERTEX
  8
2
  6
DASHED
 62
     2
  5
E7F
 10
-324.365649
 20
103.021076
 30
0.0
  0
VERTEX
  8
2
  6
DASHED
 62
     2
  5
E80
 10
-325.652276
 20
102.848188
 30
0.0
  0
VERTEX
  8
2
  6
DASHED
 62
     2
  5
E81
 10
-326.730515
 20
102.619464
 30
0.0
  0
VERTEX
  8
2
  6
DASHED
 62
     2
  5
E82
 10
-327.651655
 20
102.348644
 30
0.0
  0
VERTEX
  8
2
  6
DASHED
 62
     2
  5
E83
 10
-328.44618
 20
102.043898
 30
0.0
  0
VERTEX
  8
2
  6
DASHED
 62
     2
  5
E84
 10
-329.133819
 20
101.710513
 30
0.0
  0
VERTEX
  8
2
  6
DASHED
 62
     2
  5
E85
 10
-329.728059
 20
101.352101
 30
0.0
  0
VERTEX
  8
2
  6
DASHED
 62
     2
  5
E86
 10
-330.238437
 20
100.971218
 30
0.0
  0
VERTEX
  8
2
  6
DASHED
 62
     2
  5
E87
 10
-330.671821
 20
100.569705
 30
0.0
  0
VERTEX
  8
2
  6
DASHED
 62
     2
  5
E88
 10
-331.033155
 20
100.148886
 30
0.0
  0
VERTEX
  8
2
  6
DASHED
 62
     2
  5
E89
 10
-331.325932
 20
99.709697
 30
0.0
  0
VERTEX
  8
2
  6
DASHED
 62
     2
  5
E8A
 10
-331.552476
 20
99.252761
 30
0.0
  0
VERTEX
  8
2
  6
DASHED
 62
     2
  5
E8B
 10
-331.714118
 20
98.778435
 30
0.0
  0
VERTEX
  8
2
  6
DASHED
 62
     2
  5
E8C
 10
-331.811295
 20
98.286835
 30
0.0
  0
VERTEX
  8
2
  6
DASHED
 62
     2
  5
E8D
 10
-331.84357
 20
97.777845
 30
0.0
  0
VERTEX
  8
2
  6
DASHED
 62
     2
  5
E8E
 10
-331.809612
 20
97.251108
 30
0.0
  0
VERTEX
  8
2
  6
DASHED
 62
     2
  5
E8F
 10
-331.707097
 20
96.706001
 30
0.0
  0
VERTEX
  8
2
  6
DASHED
 62
     2
  5
E90
 10
-331.532533
 20
96.141589
 30
0.0
  0
VERTEX
  8
2
  6
DASHED
 62
     2
  5
E91
 10
-331.280973
 20
95.556546
 30
0.0
  0
VERTEX
  8
2
  6
DASHED
 62
     2
  5
E92
 10
-330.945552
 20
94.949032
 30
0.0
  0
VERTEX
  8
2
  6
DASHED
 62
     2
  5
E93
 10
-330.516732
 20
94.316492
 30
0.0
  0
VERTEX
  8
2
  6
DASHED
 62
     2
  5
E94
 10
-329.981027
 20
93.655312
 30
0.0
  0
VERTEX
  8
2
  6
DASHED
 62
     2
  5
E95
 10
-329.318705
 20
92.960205
 30
0.0
  0
VERTEX
  8
2
  6
DASHED
 62
     2
  5
E96
 10
-328.499285
 20
92.223004
 30
0.0
  0
VERTEX
  8
2
  6
DASHED
 62
     2
  5
E97
 10
-327.471478
 20
91.429966
 30
0.0
  0
VERTEX
  8
2
  6
DASHED
 62
     2
  5
E98
 10
-326.135882
 20
90.554456
 30
0.0
  0
VERTEX
  8
2
  6
DASHED
 62
     2
  5
E99
 10
-324.238634
 20
89.528452
 30
0.0
  0
VERTEX
  8
2
  6
DASHED
 62
     2
  5
E9A
 10
-319.166374
 20
87.651706
 30
0.0
  0
VERTEX
  8
2
  6
DASHED
 62
     2
  5
E9B
 10
-313.835295
 20
86.740885
 30
0.0
  0
VERTEX
  8
2
  6
DASHED
 62
     2
  5
E9C
 10
-311.679228
 20
86.680807
 30
0.0
  0
VERTEX
  8
2
  6
DASHED
 62
     2
  5
E9D
 10
-310.084813
 20
86.771223
 30
0.0
  0
VERTEX
  8
2
  6
DASHED
 62
     2
  5
E9E
 10
-308.798187
 20
86.944111
 30
0.0
  0
VERTEX
  8
2
  6
DASHED
 62
     2
  5
E9F
 10
-307.719947
 20
87.172835
 30
0.0
  0
VERTEX
  8
2
  6
DASHED
 62
     2
  5
EA0
 10
-306.798807
 20
87.443655
 30
0.0
  0
VERTEX
  8
2
  6
DASHED
 62
     2
  5
EA1
 10
-306.004282
 20
87.748401
 30
0.0
  0
VERTEX
  8
2
  6
DASHED
 62
     2
  5
EA2
 10
-305.316644
 20
88.081786
 30
0.0
  0
VERTEX
  8
2
  6
DASHED
 62
     2
  5
EA3
 10
-304.722404
 20
88.440198
 30
0.0
  0
VERTEX
  8
2
  6
DASHED
 62
     2
  5
EA4
 10
-304.212025
 20
88.821081
 30
0.0
  0
VERTEX
  8
2
  6
DASHED
 62
     2
  5
EA5
 10
-303.778641
 20
89.222594
 30
0.0
  0
VERTEX
  8
2
  6
DASHED
 62
     2
  5
EA6
 10
-303.417307
 20
89.643413
 30
0.0
  0
VERTEX
  8
2
  6
DASHED
 62
     2
  5
EA7
 10
-303.12453
 20
90.082602
 30
0.0
  0
VERTEX
  8
2
  6
DASHED
 62
     2
  5
EA8
 10
-302.897987
 20
90.539538
 30
0.0
  0
VERTEX
  8
2
  6
DASHED
 62
     2
  5
EA9
 10
-302.736344
 20
91.013864
 30
0.0
  0
VERTEX
  8
2
  6
DASHED
 62
     2
  5
EAA
 10
-302.639167
 20
91.505464
 30
0.0
  0
VERTEX
  8
2
  6
DASHED
 62
     2
  5
EAB
 10
-302.606892
 20
92.014454
 30
0.0
  0
VERTEX
  8
2
  6
DASHED
 62
     2
  5
EAC
 10
-302.64085
 20
92.541191
 30
0.0
  0
VERTEX
  8
2
  6
DASHED
 62
     2
  5
EAD
 10
-302.743365
 20
93.086298
 30
0.0
  0
VERTEX
  8
2
  6
DASHED
 62
     2
  5
EAE
 10
-302.917929
 20
93.65071
 30
0.0
  0
VERTEX
  8
2
  6
DASHED
 62
     2
  5
EAF
 10
-303.169489
 20
94.235753
 30
0.0
  0
VERTEX
  8
2
  6
DASHED
 62
     2
  5
EB0
 10
-303.50491
 20
94.843267
 30
0.0
  0
VERTEX
  8
2
  6
DASHED
 62
     2
  5
EB1
 10
-303.93373
 20
95.475807
 30
0.0
  0
VERTEX
  8
2
  6
DASHED
 62
     2
  5
EB2
 10
-304.469435
 20
96.136987
 30
0.0
  0
VERTEX
  8
2
  6
DASHED
 62
     2
  5
EB3
 10
-305.131757
 20
96.832094
 30
0.0
  0
VERTEX
  8
2
  6
DASHED
 62
     2
  5
EB4
 10
-305.951177
 20
97.569295
 30
0.0
  0
VERTEX
  8
2
  6
DASHED
 62
     2
  5
EB5
 10
-306.978984
 20
98.362333
 30
0.0
  0
VERTEX
  8
2
  6
DASHED
 62
     2
  5
EB6
 10
-308.31458
 20
99.237843
 30
0.0
  0
VERTEX
  8
2
  6
DASHED
 62
     2
  5
EB7
 10
-310.211828
 20
100.263847
 30
0.0
  0
VERTEX
  8
2
  6
DASHED
 62
     2
  5
EB8
 10
-315.284088
 20
102.140593
 30
0.0
  0
SEQEND
  8
2
  6
DASHED
 62
     2
  5
EB9
  0
LINE
  8
2
  6
DASHED
 62
     2
  5
631
 10
-324.92642
 20
124.110469
 30
0.0
 11
-331.714118
 21
98.778435
 31
0.0
  0
LINE
  8
2
  6
DASHED
 62
     2
  5
632
 10
-300.687157
 20
98.661531
 30
0.0
 11
-302.736344
 21
91.013864
 31
0.0
  0
LINE
  8
2
  6
CENTER
 62
     2
  5
633
 10
-310.093739
 20
121.51124
 30
0.0
 11
-319.822155
 21
85.204298
 31
0.0
  0
LINE
  8
2
  6
CENTER
 62
     2
  5
634
 10
-258.922784
 20
121.570401
 30
0.0
 11
-249.178517
 21
85.204298
 31
0.0
  0
POLYLINE
  8
2
  6
DASHED
 62
     2
  5
635
 66
     1
 10
0.0
 20
0.0
 30
0.0
 70
     1
  0
VERTEX
  8
2
  6
DASHED
 62
     2
  5
EBA
 10
-253.716583
 20
102.140593
 30
0.0
  0
VERTEX
  8
2
  6
DASHED
 62
     2
  5
EBB
 10
-258.788843
 20
100.263847
 30
0.0
  0
VERTEX
  8
2
  6
DASHED
 62
     2
  5
EBC
 10
-260.686091
 20
99.237843
 30
0.0
  0
VERTEX
  8
2
  6
DASHED
 62
     2
  5
EBD
 10
-262.021687
 20
98.362333
 30
0.0
  0
VERTEX
  8
2
  6
DASHED
 62
     2
  5
EBE
 10
-263.049494
 20
97.569295
 30
0.0
  0
VERTEX
  8
2
  6
DASHED
 62
     2
  5
EBF
 10
-263.868915
 20
96.832094
 30
0.0
  0
VERTEX
  8
2
  6
DASHED
 62
     2
  5
EC0
 10
-264.531236
 20
96.136987
 30
0.0
  0
VERTEX
  8
2
  6
DASHED
 62
     2
  5
EC1
 10
-265.066941
 20
95.475807
 30
0.0
  0
VERTEX
  8
2
  6
DASHED
 62
     2
  5
EC2
 10
-265.495761
 20
94.843267
 30
0.0
  0
VERTEX
  8
2
  6
DASHED
 62
     2
  5
EC3
 10
-265.831182
 20
94.235753
 30
0.0
  0
VERTEX
  8
2
  6
DASHED
 62
     2
  5
EC4
 10
-266.082742
 20
93.65071
 30
0.0
  0
VERTEX
  8
2
  6
DASHED
 62
     2
  5
EC5
 10
-266.257306
 20
93.086298
 30
0.0
  0
VERTEX
  8
2
  6
DASHED
 62
     2
  5
EC6
 10
-266.359821
 20
92.541191
 30
0.0
  0
VERTEX
  8
2
  6
DASHED
 62
     2
  5
EC7
 10
-266.393779
 20
92.014454
 30
0.0
  0
VERTEX
  8
2
  6
DASHED
 62
     2
  5
EC8
 10
-266.361504
 20
91.505464
 30
0.0
  0
VERTEX
  8
2
  6
DASHED
 62
     2
  5
EC9
 10
-266.264328
 20
91.013864
 30
0.0
  0
VERTEX
  8
2
  6
DASHED
 62
     2
  5
ECA
 10
-266.102685
 20
90.539538
 30
0.0
  0
VERTEX
  8
2
  6
DASHED
 62
     2
  5
ECB
 10
-265.876141
 20
90.082602
 30
0.0
  0
VERTEX
  8
2
  6
DASHED
 62
     2
  5
ECC
 10
-265.583364
 20
89.643413
 30
0.0
  0
VERTEX
  8
2
  6
DASHED
 62
     2
  5
ECD
 10
-265.22203
 20
89.222594
 30
0.0
  0
VERTEX
  8
2
  6
DASHED
 62
     2
  5
ECE
 10
-264.788647
 20
88.821081
 30
0.0
  0
VERTEX
  8
2
  6
DASHED
 62
     2
  5
ECF
 10
-264.278268
 20
88.440198
 30
0.0
  0
VERTEX
  8
2
  6
DASHED
 62
     2
  5
ED0
 10
-263.684028
 20
88.081786
 30
0.0
  0
VERTEX
  8
2
  6
DASHED
 62
     2
  5
ED1
 10
-262.996389
 20
87.748401
 30
0.0
  0
VERTEX
  8
2
  6
DASHED
 62
     2
  5
ED2
 10
-262.201865
 20
87.443655
 30
0.0
  0
VERTEX
  8
2
  6
DASHED
 62
     2
  5
ED3
 10
-261.280724
 20
87.172835
 30
0.0
  0
VERTEX
  8
2
  6
DASHED
 62
     2
  5
ED4
 10
-260.202485
 20
86.944111
 30
0.0
  0
VERTEX
  8
2
  6
DASHED
 62
     2
  5
ED5
 10
-258.915859
 20
86.771223
 30
0.0
  0
VERTEX
  8
2
  6
DASHED
 62
     2
  5
ED6
 10
-257.321444
 20
86.680807
 30
0.0
  0
VERTEX
  8
2
  6
DASHED
 62
     2
  5
ED7
 10
-255.165377
 20
86.740885
 30
0.0
  0
VERTEX
  8
2
  6
DASHED
 62
     2
  5
ED8
 10
-249.834298
 20
87.651706
 30
0.0
  0
VERTEX
  8
2
  6
DASHED
 62
     2
  5
ED9
 10
-244.762037
 20
89.528452
 30
0.0
  0
VERTEX
  8
2
  6
DASHED
 62
     2
  5
EDA
 10
-242.86479
 20
90.554456
 30
0.0
  0
VERTEX
  8
2
  6
DASHED
 62
     2
  5
EDB
 10
-241.529194
 20
91.429966
 30
0.0
  0
VERTEX
  8
2
  6
DASHED
 62
     2
  5
EDC
 10
-240.501386
 20
92.223004
 30
0.0
  0
VERTEX
  8
2
  6
DASHED
 62
     2
  5
EDD
 10
-239.681966
 20
92.960205
 30
0.0
  0
VERTEX
  8
2
  6
DASHED
 62
     2
  5
EDE
 10
-239.019645
 20
93.655312
 30
0.0
  0
VERTEX
  8
2
  6
DASHED
 62
     2
  5
EDF
 10
-238.483939
 20
94.316492
 30
0.0
  0
VERTEX
  8
2
  6
DASHED
 62
     2
  5
EE0
 10
-238.05512
 20
94.949032
 30
0.0
  0
VERTEX
  8
2
  6
DASHED
 62
     2
  5
EE1
 10
-237.719699
 20
95.556546
 30
0.0
  0
VERTEX
  8
2
  6
DASHED
 62
     2
  5
EE2
 10
-237.468139
 20
96.141589
 30
0.0
  0
VERTEX
  8
2
  6
DASHED
 62
     2
  5
EE3
 10
-237.293575
 20
96.706001
 30
0.0
  0
VERTEX
  8
2
  6
DASHED
 62
     2
  5
EE4
 10
-237.191059
 20
97.251108
 30
0.0
  0
VERTEX
  8
2
  6
DASHED
 62
     2
  5
EE5
 10
-237.157102
 20
97.777845
 30
0.0
  0
VERTEX
  8
2
  6
DASHED
 62
     2
  5
EE6
 10
-237.189377
 20
98.286835
 30
0.0
  0
VERTEX
  8
2
  6
DASHED
 62
     2
  5
EE7
 10
-237.286553
 20
98.778435
 30
0.0
  0
VERTEX
  8
2
  6
DASHED
 62
     2
  5
EE8
 10
-237.448196
 20
99.252761
 30
0.0
  0
VERTEX
  8
2
  6
DASHED
 62
     2
  5
EE9
 10
-237.67474
 20
99.709697
 30
0.0
  0
VERTEX
  8
2
  6
DASHED
 62
     2
  5
EEA
 10
-237.967517
 20
100.148886
 30
0.0
  0
VERTEX
  8
2
  6
DASHED
 62
     2
  5
EEB
 10
-238.328851
 20
100.569705
 30
0.0
  0
VERTEX
  8
2
  6
DASHED
 62
     2
  5
EEC
 10
-238.762234
 20
100.971218
 30
0.0
  0
VERTEX
  8
2
  6
DASHED
 62
     2
  5
EED
 10
-239.272613
 20
101.352101
 30
0.0
  0
VERTEX
  8
2
  6
DASHED
 62
     2
  5
EEE
 10
-239.866853
 20
101.710513
 30
0.0
  0
VERTEX
  8
2
  6
DASHED
 62
     2
  5
EEF
 10
-240.554492
 20
102.043898
 30
0.0
  0
VERTEX
  8
2
  6
DASHED
 62
     2
  5
EF0
 10
-241.349016
 20
102.348644
 30
0.0
  0
VERTEX
  8
2
  6
DASHED
 62
     2
  5
EF1
 10
-242.270157
 20
102.619464
 30
0.0
  0
VERTEX
  8
2
  6
DASHED
 62
     2
  5
EF2
 10
-243.348396
 20
102.848188
 30
0.0
  0
VERTEX
  8
2
  6
DASHED
 62
     2
  5
EF3
 10
-244.635022
 20
103.021076
 30
0.0
  0
VERTEX
  8
2
  6
DASHED
 62
     2
  5
EF4
 10
-246.229437
 20
103.111492
 30
0.0
  0
VERTEX
  8
2
  6
DASHED
 62
     2
  5
EF5
 10
-248.385504
 20
103.051413
 30
0.0
  0
VERTEX
  8
2
  6
DASHED
 62
     2
  5
EF6
 10
-253.716583
 20
102.140593
 30
0.0
  0
SEQEND
  8
2
  6
DASHED
 62
     2
  5
EF7
  0
LINE
  8
2
  6
DASHED
 62
     2
  5
674
 10
-268.313514
 20
98.661531
 30
0.0
 11
-266.264328
 21
91.013864
 31
0.0
  0
LINE
  8
2
  6
DASHED
 62
     2
  5
675
 10
-244.074251
 20
124.110469
 30
0.0
 11
-237.286553
 21
98.778435
 31
0.0
  0
LINE
  8
2
  5
676
 10
-308.748931
 20
207.645991
 30
0.0
 11
-359.679482
 21
178.241223
 31
0.0
  0
LINE
  8
2
  5
677
 10
-304.748931
 20
200.717787
 30
0.0
 11
-355.679482
 21
171.31302
 31
0.0
  0
LINE
  8
2
  5
678
 10
-356.362495
 20
171.496033
 30
0.0
 11
-359.862495
 21
177.55821
 31
0.0
  0
LINE
  8
2
  5
679
 10
-359.679482
 20
178.241223
 30
0.0
 11
-359.862495
 21
177.55821
 31
0.0
  0
LINE
  8
2
  5
67A
 10
-355.679482
 20
171.31302
 30
0.0
 11
-356.362495
 21
171.496033
 31
0.0
  0
LINE
  8
2
 62
     2
  5
67B
 10
-359.679482
 20
178.241223
 30
0.0
 11
-355.679482
 21
171.31302
 31
0.0
  0
LINE
  8
2
  6
CENTER
 62
     2
  5
67C
 10
-307.016996
 20
204.027122
 30
0.0
 11
-360.922998
 21
172.904477
 31
0.0
  0
LINE
  8
2
  5
67D
 10
-268.191002
 20
196.778526
 30
0.0
 11
-238.786234
 21
145.847975
 31
0.0
  0
LINE
  8
2
  5
67E
 10
-275.119205
 20
192.778526
 30
0.0
 11
-245.714437
 21
141.847975
 31
0.0
  0
LINE
  8
2
  5
67F
 10
-245.031425
 20
141.664962
 30
0.0
 11
-238.969247
 21
145.164962
 31
0.0
  0
LINE
  8
2
  5
680
 10
-238.786234
 20
145.847975
 30
0.0
 11
-238.969247
 21
145.164962
 31
0.0
  0
LINE
  8
2
  5
681
 10
-245.714437
 20
141.847975
 30
0.0
 11
-245.031425
 21
141.664962
 31
0.0
  0
LINE
  8
2
 62
     2
  5
682
 10
-238.786234
 20
145.847975
 30
0.0
 11
-245.714437
 21
141.847975
 31
0.0
  0
LINE
  8
2
  6
CENTER
 62
     2
  5
683
 10
-271.500336
 20
194.510461
 30
0.0
 11
-240.377691
 21
140.60446
 31
0.0
  0
POINT
  8
2
  5
684
 10
-304.500336
 20
217.027122
 30
0.0
  0
POINT
  8
2
  5
685
 10
-264.500336
 20
217.027122
 30
0.0
  0
POLYLINE
  8
2
  5
686
 66
     1
 10
0.0
 20
0.0
 30
0.0
  0
VERTEX
  8
2
  5
EF8
 10
-262.008991
 20
218.419861
 30
0.0
  0
VERTEX
  8
2
  5
EF9
 10
-262.100336
 20
218.527122
 30
0.0
  0
VERTEX
  8
2
  5
EFA
 10
-262.700336
 20
219.027122
 30
0.0
  0
VERTEX
  8
2
  5
EFB
 10
-264.500336
 20
219.527122
 30
0.0
  0
VERTEX
  8
2
  5
EFC
 10
-266.300336
 20
219.027122
 30
0.0
  0
VERTEX
  8
2
  5
EFD
 10
-266.900336
 20
218.527122
 30
0.0
  0
VERTEX
  8
2
  5
EFE
 10
-267.249881
 20
218.027122
 30
0.0
  0
VERTEX
  8
2
  5
EFF
 10
-267.439723
 20
217.527122
 30
0.0
  0
VERTEX
  8
2
  5
F00
 10
-267.500336
 20
217.027122
 30
0.0
  0
VERTEX
  8
2
  5
F01
 10
-267.439723
 20
216.527122
 30
0.0
  0
VERTEX
  8
2
  5
F02
 10
-267.249881
 20
216.027122
 30
0.0
  0
VERTEX
  8
2
  5
F03
 10
-266.900336
 20
215.527122
 30
0.0
  0
VERTEX
  8
2
  5
F04
 10
-266.300336
 20
215.027122
 30
0.0
  0
VERTEX
  8
2
  5
F05
 10
-264.500336
 20
214.527122
 30
0.0
  0
VERTEX
  8
2
  5
F06
 10
-262.700336
 20
215.027122
 30
0.0
  0
VERTEX
  8
2
  5
F07
 10
-262.100336
 20
215.527122
 30
0.0
  0
VERTEX
  8
2
  5
F08
 10
-261.80729
 20
215.925512
 30
0.0
  0
SEQEND
  8
2
  5
F09
  0
LINE
  8
2
  5
699
 10
-306.500336
 20
214.527122
 30
0.0
 11
-306.500336
 21
219.527122
 31
0.0
  0
LINE
  8
2
  5
69A
 10
-302.500336
 20
214.527122
 30
0.0
 11
-302.500336
 21
219.527122
 31
0.0
  0
LINE
  8
2
  5
69B
 10
-306.500336
 20
217.027122
 30
0.0
 11
-302.500336
 21
217.027122
 31
0.0
  0
LINE
  8
2
  6
CENTER
 62
     2
  5
69C
 10
-139.086101
 20
-202.231171
 30
0.0
 11
91.102692
 21
-202.231171
 31
0.0
  0
LINE
  8
2
  5
69D
 10
318.022926
 20
12.78106
 30
0.0
 11
342.322926
 21
12.78106
 31
0.0
  0
LINE
  8
2
  5
69E
 10
317.822926
 20
13.28106
 30
0.0
 11
317.822926
 21
12.98106
 31
0.0
  0
LINE
  8
2
  5
69F
 10
317.822926
 20
12.98106
 30
0.0
 11
318.022926
 21
12.78106
 31
0.0
  0
LINE
  8
2
  5
6A0
 10
320.322926
 20
12.78106
 30
0.0
 11
324.822926
 21
12.78106
 31
0.0
  0
LINE
  8
2
 62
     2
  5
6A1
 10
317.822926
 20
12.98106
 30
0.0
 11
342.322926
 21
12.98106
 31
0.0
  0
LINE
  8
2
  5
6A2
 10
366.622926
 20
12.78106
 30
0.0
 11
342.322926
 21
12.78106
 31
0.0
  0
LINE
  8
2
  5
6A3
 10
366.822926
 20
13.28106
 30
0.0
 11
366.822926
 21
12.98106
 31
0.0
  0
LINE
  8
2
  5
6A4
 10
366.822926
 20
12.98106
 30
0.0
 11
366.622926
 21
12.78106
 31
0.0
  0
LINE
  8
2
  5
6A5
 10
364.322926
 20
12.78106
 30
0.0
 11
359.822926
 21
12.78106
 31
0.0
  0
LINE
  8
2
 62
     2
  5
6A6
 10
366.822926
 20
12.98106
 30
0.0
 11
342.322926
 21
12.98106
 31
0.0
  0
LINE
  8
2
  5
6A7
 10
359.029176
 20
-29.71894
 30
0.0
 11
342.322926
 21
-29.71894
 31
0.0
  0
LINE
  8
2
  5
6A8
 10
359.822926
 20
-28.92494
 30
0.0
 11
359.028926
 21
-29.71894
 31
0.0
  0
LINE
  8
2
 62
     2
  5
6A9
 10
359.822926
 20
-28.92494
 30
0.0
 11
342.322926
 21
-28.92494
 31
0.0
  0
LINE
  8
2
  5
6AA
 10
325.616676
 20
-29.71894
 30
0.0
 11
342.322926
 21
-29.71894
 31
0.0
  0
LINE
  8
2
  5
6AB
 10
324.822926
 20
-28.92494
 30
0.0
 11
325.616926
 21
-29.71894
 31
0.0
  0
LINE
  8
2
 62
     2
  5
6AC
 10
324.822926
 20
-28.92494
 30
0.0
 11
342.322926
 21
-28.92494
 31
0.0
  0
LINE
  8
2
  5
6AD
 10
368.322926
 20
13.58106
 30
0.0
 11
368.322926
 21
130.08106
 31
0.0
  0
LINE
  8
2
  5
6AE
 10
368.122926
 20
130.28106
 30
0.0
 11
368.322926
 21
130.08106
 31
0.0
  0
LINE
  8
2
  5
6AF
 10
342.322926
 20
130.28106
 30
0.0
 11
368.122926
 21
130.28106
 31
0.0
  0
LINE
  8
2
 62
     2
  5
6B0
 10
342.322926
 20
130.08106
 30
0.0
 11
368.322926
 21
130.08106
 31
0.0
  0
LINE
  8
2
  5
6B1
 10
316.322926
 20
13.58106
 30
0.0
 11
316.322926
 21
130.08106
 31
0.0
  0
LINE
  8
2
  5
6B2
 10
316.322926
 20
130.08106
 30
0.0
 11
316.522926
 21
130.28106
 31
0.0
  0
LINE
  8
2
  5
6B3
 10
316.522926
 20
130.28106
 30
0.0
 11
342.322926
 21
130.28106
 31
0.0
  0
LINE
  8
2
 62
     2
  5
6B4
 10
316.322926
 20
130.08106
 30
0.0
 11
342.322926
 21
130.08106
 31
0.0
  0
LINE
  8
2
  5
6B5
 10
368.322926
 20
13.58106
 30
0.0
 11
368.022926
 21
13.28106
 31
0.0
  0
LINE
  8
2
  5
6B6
 10
368.022926
 20
13.28106
 30
0.0
 11
342.322926
 21
13.28106
 31
0.0
  0
LINE
  8
2
 62
     2
  5
6B7
 10
368.322926
 20
13.58106
 30
0.0
 11
342.322926
 21
13.58106
 31
0.0
  0
LINE
  8
2
  5
6B8
 10
316.322926
 20
13.58106
 30
0.0
 11
316.622926
 21
13.28106
 31
0.0
  0
LINE
  8
2
  5
6B9
 10
316.622926
 20
13.28106
 30
0.0
 11
342.322926
 21
13.28106
 31
0.0
  0
LINE
  8
2
 62
     2
  5
6BA
 10
316.322926
 20
13.58106
 30
0.0
 11
342.322926
 21
13.58106
 31
0.0
  0
LINE
  8
2
  5
6BB
 10
316.322926
 20
161.354307
 30
0.0
 11
316.322926
 21
133.480952
 31
0.0
  0
LINE
  8
2
  5
6BC
 10
368.322926
 20
161.354307
 30
0.0
 11
368.322926
 21
133.480952
 31
0.0
  0
ARC
  8
2
  5
6BD
 10
316.822926
 20
133.480952
 30
0.0
 40
0.5
 50
180.0
 51
270.0
  0
ARC
  8
2
  5
6BE
 10
342.322926
 20
-337.019048
 30
0.0
 40
500.0
 50
87.128268
 51
92.871732
  0
ARC
  8
2
  5
6BF
 10
367.322926
 20
161.354307
 30
0.0
 40
1.0
 50
0.0
 51
87.128268
  0
ARC
  8
2
  5
6C0
 10
317.322926
 20
161.354307
 30
0.0
 40
1.0
 50
92.871732
 51
180.0
  0
LINE
  8
2
 62
     2
  5
6C1
 10
318.514671
 20
162.304495
 30
0.0
 11
365.740585
 21
162.304495
 31
0.0
  0
POINT
  8
2
  5
6C2
 10
342.322926
 20
132.83106
 30
0.0
  0
ARC
  8
2
  5
6C3
 10
319.857153
 20
132.898613
 30
0.0
 40
1.0
 50
159.916716
 51
179.5
  0
LINE
  8
2
  5
6C4
 10
318.834271
 20
130.280952
 30
0.0
 11
318.857191
 21
132.90734
 31
0.0
  0
ARC
  8
2
  5
6C5
 10
364.788699
 20
132.898613
 30
0.0
 40
1.0
 50
0.5
 51
20.083284
  0
LINE
  8
2
  5
6C6
 10
365.811581
 20
130.280952
 30
0.0
 11
365.788661
 21
132.90734
 31
0.0
  0
LINE
  8
2
  5
6C7
 10
365.822926
 20
9.78106
 30
0.0
 11
318.822926
 21
9.78106
 31
0.0
  0
LINE
  8
2
  5
6C8
 10
365.822926
 20
12.78106
 30
0.0
 11
365.822926
 21
9.78106
 31
0.0
  0
LINE
  8
2
  5
6C9
 10
318.822926
 20
12.78106
 30
0.0
 11
318.822926
 21
9.78106
 31
0.0
  0
LINE
  8
2
 62
     2
  5
6CA
 10
345.322926
 20
12.78106
 30
0.0
 11
342.322926
 21
9.78106
 31
0.0
  0
LINE
  8
2
 62
     2
  5
6CB
 10
346.73714
 20
12.78106
 30
0.0
 11
343.73714
 21
9.78106
 31
0.0
  0
LINE
  8
2
 62
     2
  5
6CC
 10
348.151354
 20
12.78106
 30
0.0
 11
345.151354
 21
9.78106
 31
0.0
  0
LINE
  8
2
 62
     2
  5
6CD
 10
349.565567
 20
12.78106
 30
0.0
 11
346.565567
 21
9.78106
 31
0.0
  0
LINE
  8
2
 62
     2
  5
6CE
 10
350.979781
 20
12.78106
 30
0.0
 11
347.979781
 21
9.78106
 31
0.0
  0
LINE
  8
2
 62
     2
  5
6CF
 10
352.393994
 20
12.78106
 30
0.0
 11
349.393994
 21
9.78106
 31
0.0
  0
LINE
  8
2
 62
     2
  5
6D0
 10
353.808208
 20
12.78106
 30
0.0
 11
350.808208
 21
9.78106
 31
0.0
  0
LINE
  8
2
 62
     2
  5
6D1
 10
355.222421
 20
12.78106
 30
0.0
 11
352.222421
 21
9.78106
 31
0.0
  0
LINE
  8
2
 62
     2
  5
6D2
 10
356.636635
 20
12.78106
 30
0.0
 11
353.636635
 21
9.78106
 31
0.0
  0
LINE
  8
2
 62
     2
  5
6D3
 10
358.050848
 20
12.78106
 30
0.0
 11
355.050848
 21
9.78106
 31
0.0
  0
LINE
  8
2
 62
     2
  5
6D4
 10
359.465062
 20
12.78106
 30
0.0
 11
356.465062
 21
9.78106
 31
0.0
  0
LINE
  8
2
 62
     2
  5
6D5
 10
360.879276
 20
12.78106
 30
0.0
 11
357.879276
 21
9.78106
 31
0.0
  0
LINE
  8
2
 62
     2
  5
6D6
 10
362.293489
 20
12.78106
 30
0.0
 11
359.293489
 21
9.78106
 31
0.0
  0
LINE
  8
2
 62
     2
  5
6D7
 10
363.707703
 20
12.78106
 30
0.0
 11
360.707703
 21
9.78106
 31
0.0
  0
LINE
  8
2
 62
     2
  5
6D8
 10
365.121916
 20
12.78106
 30
0.0
 11
362.121916
 21
9.78106
 31
0.0
  0
LINE
  8
2
 62
     2
  5
6D9
 10
365.822926
 20
12.067857
 30
0.0
 11
363.53613
 21
9.78106
 31
0.0
  0
LINE
  8
2
 62
     2
  5
6DA
 10
365.822926
 20
10.653643
 30
0.0
 11
364.950343
 21
9.78106
 31
0.0
  0
LINE
  8
2
 62
     2
  5
6DB
 10
343.908713
 20
12.78106
 30
0.0
 11
340.908713
 21
9.78106
 31
0.0
  0
LINE
  8
2
 62
     2
  5
6DC
 10
342.494499
 20
12.78106
 30
0.0
 11
339.494499
 21
9.78106
 31
0.0
  0
LINE
  8
2
 62
     2
  5
6DD
 10
341.080286
 20
12.78106
 30
0.0
 11
338.080286
 21
9.78106
 31
0.0
  0
LINE
  8
2
 62
     2
  5
6DE
 10
339.666072
 20
12.78106
 30
0.0
 11
336.666072
 21
9.78106
 31
0.0
  0
LINE
  8
2
 62
     2
  5
6DF
 10
338.251859
 20
12.78106
 30
0.0
 11
335.251859
 21
9.78106
 31
0.0
  0
LINE
  8
2
 62
     2
  5
6E0
 10
336.837645
 20
12.78106
 30
0.0
 11
333.837645
 21
9.78106
 31
0.0
  0
LINE
  8
2
 62
     2
  5
6E1
 10
335.423431
 20
12.78106
 30
0.0
 11
332.423431
 21
9.78106
 31
0.0
  0
LINE
  8
2
 62
     2
  5
6E2
 10
334.009218
 20
12.78106
 30
0.0
 11
331.009218
 21
9.78106
 31
0.0
  0
LINE
  8
2
 62
     2
  5
6E3
 10
332.595004
 20
12.78106
 30
0.0
 11
329.595004
 21
9.78106
 31
0.0
  0
LINE
  8
2
 62
     2
  5
6E4
 10
331.180791
 20
12.78106
 30
0.0
 11
328.180791
 21
9.78106
 31
0.0
  0
LINE
  8
2
 62
     2
  5
6E5
 10
329.766577
 20
12.78106
 30
0.0
 11
326.766577
 21
9.78106
 31
0.0
  0
LINE
  8
2
 62
     2
  5
6E6
 10
328.352364
 20
12.78106
 30
0.0
 11
325.352364
 21
9.78106
 31
0.0
  0
LINE
  8
2
 62
     2
  5
6E7
 10
326.93815
 20
12.78106
 30
0.0
 11
323.93815
 21
9.78106
 31
0.0
  0
LINE
  8
2
 62
     2
  5
6E8
 10
325.523937
 20
12.78106
 30
0.0
 11
322.523937
 21
9.78106
 31
0.0
  0
LINE
  8
2
 62
     2
  5
6E9
 10
324.109723
 20
12.78106
 30
0.0
 11
321.109723
 21
9.78106
 31
0.0
  0
LINE
  8
2
 62
     2
  5
6EA
 10
322.695509
 20
12.78106
 30
0.0
 11
319.695509
 21
9.78106
 31
0.0
  0
LINE
  8
2
 62
     2
  5
6EB
 10
321.281296
 20
12.78106
 30
0.0
 11
318.822926
 21
10.322691
 31
0.0
  0
LINE
  8
2
 62
     2
  5
6EC
 10
319.867082
 20
12.78106
 30
0.0
 11
318.822926
 21
11.736904
 31
0.0
  0
LINE
  8
2
  5
6ED
 10
317.270926
 20
-3.51894
 30
0.0
 11
317.270926
 21
-5.51894
 31
0.0
  0
LINE
  8
2
  5
6EE
 10
367.270926
 20
-3.51894
 30
0.0
 11
367.270926
 21
-5.51894
 31
0.0
  0
LINE
  8
2
  5
6EF
 10
367.270926
 20
-3.51894
 30
0.0
 11
317.270926
 21
-3.51894
 31
0.0
  0
LINE
  8
2
  5
6F0
 10
317.270926
 20
-5.01894
 30
0.0
 11
367.270926
 21
-5.01894
 31
0.0
  0
LINE
  8
2
 62
     2
  5
6F1
 10
340.770926
 20
-5.01894
 30
0.0
 11
342.270926
 21
-3.51894
 31
0.0
  0
LINE
  8
2
 62
     2
  5
6F2
 10
341.336612
 20
-5.01894
 30
0.0
 11
342.836612
 21
-3.51894
 31
0.0
  0
LINE
  8
2
 62
     2
  5
6F3
 10
341.902297
 20
-5.01894
 30
0.0
 11
343.402297
 21
-3.51894
 31
0.0
  0
LINE
  8
2
 62
     2
  5
6F4
 10
342.467983
 20
-5.01894
 30
0.0
 11
343.967983
 21
-3.51894
 31
0.0
  0
LINE
  8
2
 62
     2
  5
6F5
 10
343.033668
 20
-5.01894
 30
0.0
 11
344.533668
 21
-3.51894
 31
0.0
  0
LINE
  8
2
 62
     2
  5
6F6
 10
343.599354
 20
-5.01894
 30
0.0
 11
345.099354
 21
-3.51894
 31
0.0
  0
LINE
  8
2
 62
     2
  5
6F7
 10
344.165039
 20
-5.01894
 30
0.0
 11
345.665039
 21
-3.51894
 31
0.0
  0
LINE
  8
2
 62
     2
  5
6F8
 10
344.730724
 20
-5.01894
 30
0.0
 11
346.230724
 21
-3.51894
 31
0.0
  0
LINE
  8
2
 62
     2
  5
6F9
 10
345.29641
 20
-5.01894
 30
0.0
 11
346.79641
 21
-3.51894
 31
0.0
  0
LINE
  8
2
 62
     2
  5
6FA
 10
345.862095
 20
-5.01894
 30
0.0
 11
347.362095
 21
-3.51894
 31
0.0
  0
LINE
  8
2
 62
     2
  5
6FB
 10
346.427781
 20
-5.01894
 30
0.0
 11
347.927781
 21
-3.51894
 31
0.0
  0
LINE
  8
2
 62
     2
  5
6FC
 10
346.993466
 20
-5.01894
 30
0.0
 11
348.493466
 21
-3.51894
 31
0.0
  0
LINE
  8
2
 62
     2
  5
6FD
 10
347.559152
 20
-5.01894
 30
0.0
 11
349.059152
 21
-3.51894
 31
0.0
  0
LINE
  8
2
 62
     2
  5
6FE
 10
348.124837
 20
-5.01894
 30
0.0
 11
349.624837
 21
-3.51894
 31
0.0
  0
LINE
  8
2
 62
     2
  5
6FF
 10
348.690522
 20
-5.01894
 30
0.0
 11
350.190522
 21
-3.51894
 31
0.0
  0
LINE
  8
2
 62
     2
  5
700
 10
349.256208
 20
-5.01894
 30
0.0
 11
350.756208
 21
-3.51894
 31
0.0
  0
LINE
  8
2
 62
     2
  5
701
 10
349.821893
 20
-5.01894
 30
0.0
 11
351.321893
 21
-3.51894
 31
0.0
  0
LINE
  8
2
 62
     2
  5
702
 10
350.387579
 20
-5.01894
 30
0.0
 11
351.887579
 21
-3.51894
 31
0.0
  0
LINE
  8
2
 62
     2
  5
703
 10
350.953264
 20
-5.01894
 30
0.0
 11
352.453264
 21
-3.51894
 31
0.0
  0
LINE
  8
2
 62
     2
  5
704
 10
351.518949
 20
-5.01894
 30
0.0
 11
353.018949
 21
-3.51894
 31
0.0
  0
LINE
  8
2
 62
     2
  5
705
 10
352.084635
 20
-5.01894
 30
0.0
 11
353.584635
 21
-3.51894
 31
0.0
  0
LINE
  8
2
 62
     2
  5
706
 10
352.65032
 20
-5.01894
 30
0.0
 11
354.15032
 21
-3.51894
 31
0.0
  0
LINE
  8
2
 62
     2
  5
707
 10
353.216006
 20
-5.01894
 30
0.0
 11
354.716006
 21
-3.51894
 31
0.0
  0
LINE
  8
2
 62
     2
  5
708
 10
353.781691
 20
-5.01894
 30
0.0
 11
355.281691
 21
-3.51894
 31
0.0
  0
LINE
  8
2
 62
     2
  5
709
 10
354.347377
 20
-5.01894
 30
0.0
 11
355.847377
 21
-3.51894
 31
0.0
  0
LINE
  8
2
 62
     2
  5
70A
 10
354.913062
 20
-5.01894
 30
0.0
 11
356.413062
 21
-3.51894
 31
0.0
  0
LINE
  8
2
 62
     2
  5
70B
 10
355.478747
 20
-5.01894
 30
0.0
 11
356.978747
 21
-3.51894
 31
0.0
  0
LINE
  8
2
 62
     2
  5
70C
 10
356.044433
 20
-5.01894
 30
0.0
 11
357.544433
 21
-3.51894
 31
0.0
  0
LINE
  8
2
 62
     2
  5
70D
 10
356.610118
 20
-5.01894
 30
0.0
 11
358.110118
 21
-3.51894
 31
0.0
  0
LINE
  8
2
 62
     2
  5
70E
 10
357.175804
 20
-5.01894
 30
0.0
 11
358.675804
 21
-3.51894
 31
0.0
  0
LINE
  8
2
 62
     2
  5
70F
 10
357.741489
 20
-5.01894
 30
0.0
 11
359.241489
 21
-3.51894
 31
0.0
  0
LINE
  8
2
 62
     2
  5
710
 10
358.307175
 20
-5.01894
 30
0.0
 11
359.807175
 21
-3.51894
 31
0.0
  0
LINE
  8
2
 62
     2
  5
711
 10
358.87286
 20
-5.01894
 30
0.0
 11
360.37286
 21
-3.51894
 31
0.0
  0
LINE
  8
2
 62
     2
  5
712
 10
359.438545
 20
-5.01894
 30
0.0
 11
360.938545
 21
-3.51894
 31
0.0
  0
LINE
  8
2
 62
     2
  5
713
 10
360.004231
 20
-5.01894
 30
0.0
 11
361.504231
 21
-3.51894
 31
0.0
  0
LINE
  8
2
 62
     2
  5
714
 10
360.569916
 20
-5.01894
 30
0.0
 11
362.069916
 21
-3.51894
 31
0.0
  0
LINE
  8
2
 62
     2
  5
715
 10
361.135602
 20
-5.01894
 30
0.0
 11
362.635602
 21
-3.51894
 31
0.0
  0
LINE
  8
2
 62
     2
  5
716
 10
361.701287
 20
-5.01894
 30
0.0
 11
363.201287
 21
-3.51894
 31
0.0
  0
LINE
  8
2
 62
     2
  5
717
 10
362.266973
 20
-5.01894
 30
0.0
 11
363.766973
 21
-3.51894
 31
0.0
  0
LINE
  8
2
 62
     2
  5
718
 10
362.832658
 20
-5.01894
 30
0.0
 11
364.332658
 21
-3.51894
 31
0.0
  0
LINE
  8
2
 62
     2
  5
719
 10
363.398343
 20
-5.01894
 30
0.0
 11
364.898343
 21
-3.51894
 31
0.0
  0
LINE
  8
2
 62
     2
  5
71A
 10
363.964029
 20
-5.01894
 30
0.0
 11
365.464029
 21
-3.51894
 31
0.0
  0
LINE
  8
2
 62
     2
  5
71B
 10
364.529714
 20
-5.01894
 30
0.0
 11
366.029714
 21
-3.51894
 31
0.0
  0
LINE
  8
2
 62
     2
  5
71C
 10
365.0954
 20
-5.01894
 30
0.0
 11
366.5954
 21
-3.51894
 31
0.0
  0
LINE
  8
2
 62
     2
  5
71D
 10
365.661085
 20
-5.01894
 30
0.0
 11
367.161085
 21
-3.51894
 31
0.0
  0
LINE
  8
2
 62
     2
  5
71E
 10
367.270926
 20
-3.974784
 30
0.0
 11
366.226771
 21
-5.01894
 31
0.0
  0
LINE
  8
2
 62
     2
  5
71F
 10
367.270926
 20
-4.540469
 30
0.0
 11
366.792456
 21
-5.01894
 31
0.0
  0
LINE
  8
2
 62
     2
  5
720
 10
340.205241
 20
-5.01894
 30
0.0
 11
341.705241
 21
-3.51894
 31
0.0
  0
LINE
  8
2
 62
     2
  5
721
 10
339.639556
 20
-5.01894
 30
0.0
 11
341.139556
 21
-3.51894
 31
0.0
  0
LINE
  8
2
 62
     2
  5
722
 10
339.07387
 20
-5.01894
 30
0.0
 11
340.57387
 21
-3.51894
 31
0.0
  0
LINE
  8
2
 62
     2
  5
723
 10
338.508185
 20
-5.01894
 30
0.0
 11
340.008185
 21
-3.51894
 31
0.0
  0
LINE
  8
2
 62
     2
  5
724
 10
337.942499
 20
-5.01894
 30
0.0
 11
339.442499
 21
-3.51894
 31
0.0
  0
LINE
  8
2
 62
     2
  5
725
 10
337.376814
 20
-5.01894
 30
0.0
 11
338.876814
 21
-3.51894
 31
0.0
  0
LINE
  8
2
 62
     2
  5
726
 10
336.811128
 20
-5.01894
 30
0.0
 11
338.311128
 21
-3.51894
 31
0.0
  0
LINE
  8
2
 62
     2
  5
727
 10
336.245443
 20
-5.01894
 30
0.0
 11
337.745443
 21
-3.51894
 31
0.0
  0
LINE
  8
2
 62
     2
  5
728
 10
335.679758
 20
-5.01894
 30
0.0
 11
337.179758
 21
-3.51894
 31
0.0
  0
LINE
  8
2
 62
     2
  5
729
 10
335.114072
 20
-5.01894
 30
0.0
 11
336.614072
 21
-3.51894
 31
0.0
  0
LINE
  8
2
 62
     2
  5
72A
 10
334.548387
 20
-5.01894
 30
0.0
 11
336.048387
 21
-3.51894
 31
0.0
  0
LINE
  8
2
 62
     2
  5
72B
 10
333.982701
 20
-5.01894
 30
0.0
 11
335.482701
 21
-3.51894
 31
0.0
  0
LINE
  8
2
 62
     2
  5
72C
 10
333.417016
 20
-5.01894
 30
0.0
 11
334.917016
 21
-3.51894
 31
0.0
  0
LINE
  8
2
 62
     2
  5
72D
 10
332.85133
 20
-5.01894
 30
0.0
 11
334.35133
 21
-3.51894
 31
0.0
  0
LINE
  8
2
 62
     2
  5
72E
 10
332.285645
 20
-5.01894
 30
0.0
 11
333.785645
 21
-3.51894
 31
0.0
  0
LINE
  8
2
 62
     2
  5
72F
 10
331.71996
 20
-5.01894
 30
0.0
 11
333.21996
 21
-3.51894
 31
0.0
  0
LINE
  8
2
 62
     2
  5
730
 10
331.154274
 20
-5.01894
 30
0.0
 11
332.654274
 21
-3.51894
 31
0.0
  0
LINE
  8
2
 62
     2
  5
731
 10
330.588589
 20
-5.01894
 30
0.0
 11
332.088589
 21
-3.51894
 31
0.0
  0
LINE
  8
2
 62
     2
  5
732
 10
330.022903
 20
-5.01894
 30
0.0
 11
331.522903
 21
-3.51894
 31
0.0
  0
LINE
  8
2
 62
     2
  5
733
 10
329.457218
 20
-5.01894
 30
0.0
 11
330.957218
 21
-3.51894
 31
0.0
  0
LINE
  8
2
 62
     2
  5
734
 10
328.891532
 20
-5.01894
 30
0.0
 11
330.391532
 21
-3.51894
 31
0.0
  0
LINE
  8
2
 62
     2
  5
735
 10
328.325847
 20
-5.01894
 30
0.0
 11
329.825847
 21
-3.51894
 31
0.0
  0
LINE
  8
2
 62
     2
  5
736
 10
327.760162
 20
-5.01894
 30
0.0
 11
329.260162
 21
-3.51894
 31
0.0
  0
LINE
  8
2
 62
     2
  5
737
 10
327.194476
 20
-5.01894
 30
0.0
 11
328.694476
 21
-3.51894
 31
0.0
  0
LINE
  8
2
 62
     2
  5
738
 10
326.628791
 20
-5.01894
 30
0.0
 11
328.128791
 21
-3.51894
 31
0.0
  0
LINE
  8
2
 62
     2
  5
739
 10
326.063105
 20
-5.01894
 30
0.0
 11
327.563105
 21
-3.51894
 31
0.0
  0
LINE
  8
2
 62
     2
  5
73A
 10
325.49742
 20
-5.01894
 30
0.0
 11
326.99742
 21
-3.51894
 31
0.0
  0
LINE
  8
2
 62
     2
  5
73B
 10
324.931735
 20
-5.01894
 30
0.0
 11
326.431735
 21
-3.51894
 31
0.0
  0
LINE
  8
2
 62
     2
  5
73C
 10
324.366049
 20
-5.01894
 30
0.0
 11
325.866049
 21
-3.51894
 31
0.0
  0
LINE
  8
2
 62
     2
  5
73D
 10
323.800364
 20
-5.01894
 30
0.0
 11
325.300364
 21
-3.51894
 31
0.0
  0
LINE
  8
2
 62
     2
  5
73E
 10
323.234678
 20
-5.01894
 30
0.0
 11
324.734678
 21
-3.51894
 31
0.0
  0
LINE
  8
2
 62
     2
  5
73F
 10
322.668993
 20
-5.01894
 30
0.0
 11
324.168993
 21
-3.51894
 31
0.0
  0
LINE
  8
2
 62
     2
  5
740
 10
322.103307
 20
-5.01894
 30
0.0
 11
323.603307
 21
-3.51894
 31
0.0
  0
LINE
  8
2
 62
     2
  5
741
 10
321.537622
 20
-5.01894
 30
0.0
 11
323.037622
 21
-3.51894
 31
0.0
  0
LINE
  8
2
 62
     2
  5
742
 10
320.971937
 20
-5.01894
 30
0.0
 11
322.471937
 21
-3.51894
 31
0.0
  0
LINE
  8
2
 62
     2
  5
743
 10
320.406251
 20
-5.01894
 30
0.0
 11
321.906251
 21
-3.51894
 31
0.0
  0
LINE
  8
2
 62
     2
  5
744
 10
319.840566
 20
-5.01894
 30
0.0
 11
321.340566
 21
-3.51894
 31
0.0
  0
LINE
  8
2
 62
     2
  5
745
 10
319.27488
 20
-5.01894
 30
0.0
 11
320.77488
 21
-3.51894
 31
0.0
  0
LINE
  8
2
 62
     2
  5
746
 10
318.709195
 20
-5.01894
 30
0.0
 11
320.209195
 21
-3.51894
 31
0.0
  0
LINE
  8
2
 62
     2
  5
747
 10
318.143509
 20
-5.01894
 30
0.0
 11
319.643509
 21
-3.51894
 31
0.0
  0
LINE
  8
2
 62
     2
  5
748
 10
317.577824
 20
-5.01894
 30
0.0
 11
319.077824
 21
-3.51894
 31
0.0
  0
LINE
  8
2
 62
     2
  5
749
 10
317.270926
 20
-4.760152
 30
0.0
 11
318.512139
 21
-3.51894
 31
0.0
  0
LINE
  8
2
 62
     2
  5
74A
 10
317.270926
 20
-4.194466
 30
0.0
 11
317.946453
 21
-3.51894
 31
0.0
  0
LINE
  8
2
 62
     2
  5
74B
 10
317.270926
 20
-3.628781
 30
0.0
 11
317.380768
 21
-3.51894
 31
0.0
  0
LINE
  8
2
  5
74C
 10
318.822926
 20
12.78106
 30
0.0
 11
365.822926
 21
12.78106
 31
0.0
  0
LINE
  8
2
  5
74D
 10
368.270258
 20
-5.51894
 30
0.0
 11
316.270258
 21
-5.51894
 31
0.0
  0
LINE
  8
2
  5
74E
 10
365.270258
 20
-17.51894
 30
0.0
 11
319.270258
 21
-17.51894
 31
0.0
  0
LINE
  8
2
  5
74F
 10
316.270258
 20
-7.51894
 30
0.0
 11
316.270258
 21
-5.51894
 31
0.0
  0
LINE
  8
2
  5
750
 10
368.270258
 20
-7.51894
 30
0.0
 11
368.270258
 21
-5.51894
 31
0.0
  0
LINE
  8
2
  5
751
 10
319.270258
 20
-17.51894
 30
0.0
 11
319.270258
 21
-9.51894
 31
0.0
  0
LINE
  8
2
  5
752
 10
365.270258
 20
-17.51894
 30
0.0
 11
365.270258
 21
-9.51894
 31
0.0
  0
LINE
  8
2
  5
753
 10
367.270258
 20
-8.51894
 30
0.0
 11
317.270258
 21
-8.51894
 31
0.0
  0
LINE
  8
2
  5
754
 10
320.270258
 20
-16.42694
 30
0.0
 11
320.270258
 21
-8.51894
 31
0.0
  0
LINE
  8
2
  5
755
 10
364.270258
 20
-16.42694
 30
0.0
 11
364.270258
 21
-8.51894
 31
0.0
  0
LINE
  8
2
  5
756
 10
343.270258
 20
-16.42694
 30
0.0
 11
343.270258
 21
-8.51894
 31
0.0
  0
LINE
  8
2
  5
757
 10
341.270258
 20
-16.42694
 30
0.0
 11
341.270258
 21
-8.51894
 31
0.0
  0
LINE
  8
2
  5
758
 10
320.270258
 20
-16.42694
 30
0.0
 11
319.270258
 21
-16.42694
 31
0.0
  0
LINE
  8
2
  5
759
 10
365.270258
 20
-16.42694
 30
0.0
 11
364.270258
 21
-16.42694
 31
0.0
  0
LINE
  8
2
  5
75A
 10
343.270258
 20
-16.42694
 30
0.0
 11
341.270258
 21
-16.42694
 31
0.0
  0
ARC
  8
2
  5
75B
 10
330.770258
 20
33.507829
 30
0.0
 40
51.026769
 50
258.125168
 51
281.874832
  0
ARC
  8
2
  5
75C
 10
353.770258
 20
33.507829
 30
0.0
 40
51.026769
 50
258.125168
 51
281.874832
  0
ARC
  8
2
  5
75D
 10
318.270258
 20
-9.51894
 30
0.0
 40
1.0
 50
0.0
 51
90.0
  0
ARC
  8
2
  5
75E
 10
366.270258
 20
-9.51894
 30
0.0
 40
1.0
 50
90.0
 51
180.0
  0
ARC
  8
2
  5
75F
 10
317.270258
 20
-7.51894
 30
0.0
 40
1.0
 50
180.0
 51
270.0
  0
ARC
  8
2
  5
760
 10
367.270258
 20
-7.51894
 30
0.0
 40
1.0
 50
270.0
 51
360.0
  0
POINT
  8
2
  5
761
 10
342.322926
 20
12.78106
 30
0.0
  0
LINE
  8
2
  5
762
 10
359.822926
 20
-28.92494
 30
0.0
 11
359.822926
 21
-17.51894
 31
0.0
  0
LINE
  8
2
  5
763
 10
359.822926
 20
-3.51894
 30
0.0
 11
359.822926
 21
9.78106
 31
0.0
  0
LINE
  8
2
 62
     2
  5
764
 10
359.029176
 20
-29.71869
 30
0.0
 11
359.029176
 21
-17.51894
 31
0.0
  0
LINE
  8
2
 62
     2
  5
765
 10
359.029176
 20
-3.51894
 30
0.0
 11
359.029176
 21
9.78106
 31
0.0
  0
LINE
  8
2
 62
     2
  5
766
 10
325.616676
 20
-29.71869
 30
0.0
 11
325.616676
 21
-17.51894
 31
0.0
  0
LINE
  8
2
 62
     2
  5
767
 10
325.616676
 20
-3.51894
 30
0.0
 11
325.616676
 21
9.78106
 31
0.0
  0
LINE
  8
2
  5
768
 10
324.822926
 20
-28.92494
 30
0.0
 11
324.822926
 21
-17.51894
 31
0.0
  0
LINE
  8
2
  5
769
 10
324.822926
 20
-3.51894
 30
0.0
 11
324.822926
 21
9.78106
 31
0.0
  0
LINE
  8
2
  6
CENTER
 62
     2
  5
76A
 10
342.322926
 20
166.396065
 30
0.0
 11
342.322926
 21
-36.168686
 31
0.0
  0
ARC
  8
2
  5
76B
 10
342.322926
 20
111.165609
 30
0.0
 40
33.939788
 50
40.349781
 51
139.650219
  0
ARC
  8
2
  5
76C
 10
412.837371
 20
98.903441
 30
0.0
 40
100.0
 50
158.522374
 51
159.916657
  0
ARC
  8
2
  5
76D
 10
271.808481
 20
98.903441
 30
0.0
 40
100.0
 50
20.083343
 51
21.477626
  0
LINE
  8
2
 62
     2
  5
76E
 10
319.640427
 20
133.079577
 30
0.0
 11
365.047577
 21
133.079577
 31
0.0
  0
LINE
  8
2
  5
76F
 10
316.822926
 20
132.980952
 30
0.0
 11
318.857834
 21
132.980952
 31
0.0
  0
LINE
  8
2
  5
770
 10
367.822926
 20
132.980952
 30
0.0
 11
365.788019
 21
132.980952
 31
0.0
  0
ARC
  8
2
  5
771
 10
367.822926
 20
133.480952
 30
0.0
 40
0.5
 50
270.0
 51
360.0
  0
ARC
  8
2
  5
772
 10
342.322926
 20
111.208314
 30
0.0
 40
33.15189
 50
41.052788
 51
138.947212
  0
CIRCLE
  8
2
  5
773
 10
342.322926
 20
154.980608
 30
0.0
 40
4.0
  0
CIRCLE
  8
2
  5
774
 10
342.322926
 20
154.980608
 30
0.0
 40
4.25
  0
LINE
  8
2
  5
775
 10
338.322926
 20
81.781201
 30
0.0
 11
346.322926
 21
81.781201
 31
0.0
  0
CIRCLE
  8
2
  5
776
 10
342.322926
 20
22.781201
 30
0.0
 40
3.0
  0
LINE
  8
2
  5
777
 10
338.322926
 20
83.781201
 30
0.0
 11
346.322926
 21
83.781201
 31
0.0
  0
ARC
  8
2
  5
778
 10
346.322926
 20
82.781201
 30
0.0
 40
1.0
 50
270.0
 51
90.0
  0
ARC
  8
2
  5
779
 10
338.322926
 20
82.781201
 30
0.0
 40
1.0
 50
90.0
 51
270.0
  0
LINE
  8
2
  5
77A
 10
189.148505
 20
-115.718602
 30
0.0
 11
182.898505
 21
-115.718602
 31
0.0
  0
LINE
  8
2
  5
77B
 10
177.648505
 20
-115.718602
 30
0.0
 11
183.898505
 21
-115.718602
 31
0.0
  0
LINE
  8
2
  5
77C
 10
177.648505
 20
-115.718602
 30
0.0
 11
183.898505
 21
-115.718602
 31
0.0
  0
POINT
  8
2
  5
77D
 10
183.398505
 20
-115.718602
 30
0.0
  0
LINE
  8
2
  6
CENTER
 62
     2
  5
77E
 10
-139.086101
 20
-56.154148
 30
0.0
 11
-139.086101
 21
-202.231171
 31
0.0
  0
LINE
  8
2
  5
77F
 10
-132.13855
 20
-51.418341
 30
0.0
 11
-132.13855
 21
-54.550125
 31
0.0
  0
LINE
  8
2
  5
780
 10
-132.13855
 20
-54.550125
 30
0.0
 11
-132.13855
 21
-62.396755
 31
0.0
  0
LINE
  8
2
  5
781
 10
-146.13855
 20
-56.940502
 30
0.0
 11
-146.13855
 21
-62.396755
 31
0.0
  0
ARC
  8
2
  5
782
 10
-142.612325
 20
-57.765446
 30
0.0
 40
5.877041
 50
233.130102
 51
306.869898
  0
ARC
  8
2
  5
783
 10
-135.559876
 20
-67.168712
 30
0.0
 40
5.877041
 50
53.130102
 51
126.869898
  0
ARC
  8
2
  5
784
 10
-142.612325
 20
-67.168712
 30
0.0
 40
5.877041
 50
53.130102
 51
126.869898
  0
ARC
  8
2
  5
785
 10
167.898505
 20
-80.076642
 30
0.0
 40
5.833333
 50
233.130102
 51
306.869898
  0
ARC
  8
2
  5
786
 10
174.898505
 20
-89.409976
 30
0.0
 40
5.833333
 50
53.130102
 51
126.869898
  0
ARC
  8
2
  5
787
 10
167.898505
 20
-89.409976
 30
0.0
 40
5.833333
 50
53.130102
 51
126.869898
  0
LINE
  8
2
  6
CENTER
 62
     2
  5
788
 10
183.398505
 20
-153.349926
 30
0.0
 11
183.398505
 21
-169.953072
 31
0.0
  0
ARC
  8
2
  5
789
 10
104.464768
 20
-146.927198
 30
0.0
 40
0.2
 50
180.0
 51
270.0
  0
ARC
  8
2
  5
78A
 10
116.064768
 20
-146.927198
 30
0.0
 40
0.2
 50
270.0
 51
360.0
  0
LINE
  8
2
  5
78B
 10
117.264768
 20
-147.127198
 30
0.0
 11
103.264768
 21
-147.127198
 31
0.0
  0
ARC
  8
2
  5
78C
 10
116.065361
 20
-146.926515
 30
0.0
 40
0.2
 50
270.0
 51
360.0
  0
ARC
  8
2
  5
78D
 10
104.465361
 20
-146.926515
 30
0.0
 40
0.2
 50
180.0
 51
270.0
  0
LINE
  8
2
  5
78E
 10
103.265361
 20
-147.126515
 30
0.0
 11
117.265361
 21
-147.126515
 31
0.0
  0
LINE
  8
2
  5
78F
 10
102.765361
 20
-147.626515
 30
0.0
 11
103.265361
 21
-147.126515
 31
0.0
  0
LINE
  8
2
 62
     2
  5
790
 10
103.7655
 20
-160.925893
 30
0.0
 11
103.7655
 21
-157.925893
 31
0.0
  0
LINE
  8
2
  5
791
 10
101.365361
 20
-152.52715
 30
0.0
 11
101.365361
 21
-154.92715
 31
0.0
  0
LINE
  8
2
  5
792
 10
101.565361
 20
-152.32715
 30
0.0
 11
101.365361
 21
-152.52715
 31
0.0
  0
LINE
  8
2
  5
793
 10
101.565361
 20
-155.12715
 30
0.0
 11
101.365361
 21
-154.92715
 31
0.0
  0
LINE
  8
2
  5
794
 10
102.765361
 20
-152.32715
 30
0.0
 11
102.765361
 21
-151.925893
 31
0.0
  0
LINE
  8
2
  5
795
 10
102.765361
 20
-147.626515
 30
0.0
 11
102.765361
 21
-148.925893
 31
0.0
  0
LINE
  8
2
  5
796
 10
119.165361
 20
-152.526515
 30
0.0
 11
119.165361
 21
-154.926515
 31
0.0
  0
LINE
  8
2
  5
797
 10
101.365361
 20
-152.526515
 30
0.0
 11
101.365361
 21
-154.926515
 31
0.0
  0
LINE
  8
2
  5
798
 10
101.565361
 20
-152.326515
 30
0.0
 11
101.365361
 21
-152.526515
 31
0.0
  0
LINE
  8
2
  5
799
 10
118.965361
 20
-152.326515
 30
0.0
 11
119.165361
 21
-152.526515
 31
0.0
  0
LINE
  8
2
  5
79A
 10
118.965361
 20
-155.126515
 30
0.0
 11
119.165361
 21
-154.926515
 31
0.0
  0
LINE
  8
2
  5
79B
 10
119.265361
 20
-160.926515
 30
0.0
 11
101.265361
 21
-160.926515
 31
0.0
  0
LINE
  8
2
  5
79C
 10
118.565361
 20
-148.926515
 30
0.0
 11
101.965361
 21
-148.926515
 31
0.0
  0
LINE
  8
2
  5
79D
 10
106.265361
 20
-149.926515
 30
0.0
 11
106.265361
 21
-159.926515
 31
0.0
  0
LINE
  8
2
  5
79E
 10
114.265361
 20
-149.926515
 30
0.0
 11
114.265361
 21
-159.926515
 31
0.0
  0
LINE
  8
2
  5
79F
 10
95.765361
 20
-147.926515
 30
0.0
 11
95.765361
 21
-159.926515
 31
0.0
  0
LINE
  8
2
  5
7A0
 10
124.765361
 20
-147.926515
 30
0.0
 11
124.765361
 21
-159.926515
 31
0.0
  0
ARC
  8
2
  5
7A1
 10
123.765361
 20
-147.926515
 30
0.0
 40
1.0
 50
0.0
 51
90.0
  0
ARC
  8
2
  5
7A2
 10
96.765361
 20
-147.926515
 30
0.0
 40
1.0
 50
90.0
 51
180.0
  0
ARC
  8
2
  5
7A3
 10
96.765361
 20
-159.926515
 30
0.0
 40
1.0
 50
180.0
 51
270.0
  0
ARC
  8
2
  5
7A4
 10
123.765361
 20
-159.926515
 30
0.0
 40
1.0
 50
270.0
 51
360.0
  0
LINE
  8
2
  5
7A5
 10
96.765361
 20
-146.926515
 30
0.0
 11
104.265361
 21
-146.926515
 31
0.0
  0
LINE
  8
2
  5
7A6
 10
116.265361
 20
-146.926515
 30
0.0
 11
123.765361
 21
-146.926515
 31
0.0
  0
LINE
  8
2
  5
7A7
 10
96.765361
 20
-160.926515
 30
0.0
 11
102.765361
 21
-160.926515
 31
0.0
  0
LINE
  8
2
  5
7A8
 10
118.565361
 20
-160.926515
 30
0.0
 11
123.765361
 21
-160.926515
 31
0.0
  0
LINE
  8
2
  5
7A9
 10
118.565361
 20
-151.926515
 30
0.0
 11
114.265361
 21
-151.926515
 31
0.0
  0
LINE
  8
2
  5
7AA
 10
106.265361
 20
-151.926515
 30
0.0
 11
101.965361
 21
-151.926515
 31
0.0
  0
LINE
  8
2
  5
7AB
 10
118.965361
 20
-152.326515
 30
0.0
 11
114.265361
 21
-152.326515
 31
0.0
  0
LINE
  8
2
  5
7AC
 10
106.265361
 20
-152.326515
 30
0.0
 11
101.565361
 21
-152.326515
 31
0.0
  0
LINE
  8
2
  5
7AD
 10
119.165361
 20
-152.526515
 30
0.0
 11
114.265361
 21
-152.526515
 31
0.0
  0
LINE
  8
2
  5
7AE
 10
106.265361
 20
-152.526515
 30
0.0
 11
101.365361
 21
-152.526515
 31
0.0
  0
LINE
  8
2
  5
7AF
 10
119.165361
 20
-154.926515
 30
0.0
 11
114.265361
 21
-154.926515
 31
0.0
  0
LINE
  8
2
  5
7B0
 10
106.265361
 20
-154.926515
 30
0.0
 11
101.365361
 21
-154.926515
 31
0.0
  0
LINE
  8
2
  5
7B1
 10
118.565361
 20
-157.926515
 30
0.0
 11
114.265361
 21
-157.926515
 31
0.0
  0
LINE
  8
2
  5
7B2
 10
106.265361
 20
-157.926515
 30
0.0
 11
101.965361
 21
-157.926515
 31
0.0
  0
ARC
  8
2
  5
7B3
 10
113.265361
 20
-149.926515
 30
0.0
 40
1.0
 50
0.0
 51
90.0
  0
ARC
  8
2
  5
7B4
 10
107.265361
 20
-149.926515
 30
0.0
 40
1.0
 50
90.0
 51
180.0
  0
ARC
  8
2
  5
7B5
 10
107.265361
 20
-159.926515
 30
0.0
 40
1.0
 50
180.0
 51
270.0
  0
ARC
  8
2
  5
7B6
 10
113.265361
 20
-159.926515
 30
0.0
 40
1.0
 50
270.0
 51
0.0
  0
LINE
  8
2
  5
7B7
 10
101.965361
 20
-148.926515
 30
0.0
 11
101.965361
 21
-151.926515
 31
0.0
  0
LINE
  8
2
  5
7B8
 10
118.565361
 20
-148.926515
 30
0.0
 11
118.565361
 21
-151.926515
 31
0.0
  0
LINE
  8
2
  5
7B9
 10
118.565361
 20
-157.926515
 30
0.0
 11
118.565361
 21
-160.926515
 31
0.0
  0
LINE
  8
2
  5
7BA
 10
101.965361
 20
-157.926515
 30
0.0
 11
101.965361
 21
-160.926515
 31
0.0
  0
LINE
  8
2
  5
7BB
 10
102.765361
 20
-152.326515
 30
0.0
 11
102.765361
 21
-151.926515
 31
0.0
  0
LINE
  8
2
  5
7BC
 10
117.765361
 20
-152.326515
 30
0.0
 11
117.765361
 21
-151.926515
 31
0.0
  0
LINE
  8
2
 62
     2
  5
7BD
 10
105.265361
 20
-160.627098
 30
0.0
 11
105.265361
 21
-158.321877
 31
0.0
  0
LINE
  8
2
 62
     2
  5
7BE
 10
105.26536
 20
-151.665329
 30
0.0
 11
105.265361
 21
-149.233124
 31
0.0
  0
LINE
  8
2
 62
     2
  5
7BF
 10
115.265361
 20
-160.627098
 30
0.0
 11
115.265361
 21
-158.321877
 31
0.0
  0
LINE
  8
2
 62
     2
  5
7C0
 10
115.265361
 20
-151.62265
 30
0.0
 11
115.265361
 21
-149.153603
 31
0.0
  0
LINE
  8
2
  5
7C1
 10
101.465361
 20
-159.926515
 30
0.0
 11
101.465361
 21
-157.326515
 31
0.0
  0
LINE
  8
2
  5
7C2
 10
101.465361
 20
-152.426515
 30
0.0
 11
101.465361
 21
-147.926515
 31
0.0
  0
LINE
  8
2
  5
7C3
 10
119.065361
 20
-159.926515
 30
0.0
 11
119.065361
 21
-157.326515
 31
0.0
  0
LINE
  8
2
  5
7C4
 10
119.065361
 20
-152.426515
 30
0.0
 11
119.065361
 21
-147.926515
 31
0.0
  0
ARC
  8
2
  5
7C5
 10
102.465361
 20
-147.926515
 30
0.0
 40
1.0
 50
90.0
 51
180.0
  0
ARC
  8
2
  5
7C6
 10
118.065361
 20
-147.926515
 30
0.0
 40
1.0
 50
0.0
 51
90.0
  0
ARC
  8
2
  5
7C7
 10
100.465361
 20
-159.926515
 30
0.0
 40
1.0
 50
270.0
 51
0.0
  0
ARC
  8
2
  5
7C8
 10
120.065361
 20
-159.926515
 30
0.0
 40
1.0
 50
180.0
 51
270.0
  0
LINE
  8
2
  5
7C9
 10
117.765361
 20
-147.626515
 30
0.0
 11
117.765361
 21
-148.925893
 31
0.0
  0
ARC
  8
2
  5
7CA
 10
118.065361
 20
-147.926515
 30
0.0
 40
1.0
 50
0.0
 51
90.0
  0
LINE
  8
2
  5
7CB
 10
117.765361
 20
-147.626515
 30
0.0
 11
117.265361
 21
-147.126515
 31
0.0
  0
LINE
  8
2
  5
7CC
 10
119.265361
 20
-155.326515
 30
0.0
 11
119.265361
 21
-157.126515
 31
0.0
  0
LINE
  8
2
  5
7CD
 10
101.265361
 20
-155.326515
 30
0.0
 11
101.265361
 21
-157.126515
 31
0.0
  0
LINE
  8
2
  5
7CE
 10
101.265361
 20
-161.326515
 30
0.0
 11
100.265361
 21
-162.326515
 31
0.0
  0
LINE
  8
2
  5
7CF
 10
119.265361
 20
-161.326515
 30
0.0
 11
120.265361
 21
-162.326515
 31
0.0
  0
LINE
  8
2
  5
7D0
 10
119.265361
 20
-161.326515
 30
0.0
 11
101.265361
 21
-161.326515
 31
0.0
  0
LINE
  8
2
  5
7D1
 10
119.065361
 20
-155.126515
 30
0.0
 11
119.265361
 21
-155.326515
 31
0.0
  0
LINE
  8
2
  5
7D2
 10
119.265361
 20
-157.126515
 30
0.0
 11
119.065361
 21
-157.326515
 31
0.0
  0
LINE
  8
2
  5
7D3
 10
101.465361
 20
-155.126515
 30
0.0
 11
101.265361
 21
-155.326515
 31
0.0
  0
LINE
  8
2
  5
7D4
 10
101.265361
 20
-157.126515
 30
0.0
 11
101.465361
 21
-157.326515
 31
0.0
  0
LINE
  8
2
 62
     2
  5
7D5
 10
100.265361
 20
-162.326515
 30
0.0
 11
120.265361
 21
-162.326515
 31
0.0
  0
LINE
  8
2
  5
7D6
 10
102.765361
 20
-161.326515
 30
0.0
 11
102.765361
 21
-160.926515
 31
0.0
  0
LINE
  8
2
  5
7D7
 10
102.765361
 20
-157.926515
 30
0.0
 11
102.765361
 21
-157.326515
 31
0.0
  0
LINE
  8
2
  5
7D8
 10
117.765361
 20
-161.326515
 30
0.0
 11
117.765361
 21
-160.926515
 31
0.0
  0
LINE
  8
2
  5
7D9
 10
117.765361
 20
-157.926515
 30
0.0
 11
117.765361
 21
-157.326515
 31
0.0
  0
LINE
  8
2
  5
7DA
 10
119.065361
 20
-157.326515
 30
0.0
 11
114.265361
 21
-157.326515
 31
0.0
  0
LINE
  8
2
  5
7DB
 10
106.265361
 20
-157.326515
 30
0.0
 11
101.465361
 21
-157.326515
 31
0.0
  0
LINE
  8
2
  5
7DC
 10
119.265361
 20
-157.126515
 30
0.0
 11
114.265361
 21
-157.126515
 31
0.0
  0
LINE
  8
2
  5
7DD
 10
106.265361
 20
-157.126515
 30
0.0
 11
101.265361
 21
-157.126515
 31
0.0
  0
LINE
  8
2
  5
7DE
 10
119.265361
 20
-155.326515
 30
0.0
 11
114.265361
 21
-155.326515
 31
0.0
  0
LINE
  8
2
  5
7DF
 10
106.265361
 20
-155.326515
 30
0.0
 11
101.265361
 21
-155.326515
 31
0.0
  0
LINE
  8
2
  5
7E0
 10
119.065361
 20
-155.126515
 30
0.0
 11
114.265361
 21
-155.126515
 31
0.0
  0
LINE
  8
2
  5
7E1
 10
106.265361
 20
-155.126515
 30
0.0
 11
101.465361
 21
-155.126515
 31
0.0
  0
LINE
  8
2
 62
     2
  5
7E2
 10
116.765221
 20
-160.925893
 30
0.0
 11
116.765221
 21
-157.925893
 31
0.0
  0
LINE
  8
2
 62
     2
  5
7E3
 10
103.7655
 20
-151.926515
 30
0.0
 11
103.7655
 21
-148.926515
 31
0.0
  0
LINE
  8
2
 62
     2
  5
7E4
 10
116.765221
 20
-151.926515
 30
0.0
 11
116.765221
 21
-148.926515
 31
0.0
  0
LINE
  8
2
  5
7E5
 10
120.265361
 20
-162.326515
 30
0.0
 11
120.265361
 21
-171.126515
 31
0.0
  0
LINE
  8
2
  5
7E6
 10
100.265361
 20
-162.326515
 30
0.0
 11
100.265361
 21
-171.126515
 31
0.0
  0
LINE
  8
2
  5
7E7
 10
122.265361
 20
-171.126515
 30
0.0
 11
98.265361
 21
-171.126515
 31
0.0
  0
LINE
  8
2
  5
7E8
 10
123.265361
 20
-172.126515
 30
0.0
 11
123.265361
 21
-181.126515
 31
0.0
  0
LINE
  8
2
  5
7E9
 10
122.265361
 20
-171.126515
 30
0.0
 11
123.265361
 21
-172.126515
 31
0.0
  0
LINE
  8
2
  5
7EA
 10
97.265361
 20
-172.126515
 30
0.0
 11
97.265361
 21
-181.126515
 31
0.0
  0
LINE
  8
2
  5
7EB
 10
98.265361
 20
-171.126515
 30
0.0
 11
97.265361
 21
-172.126515
 31
0.0
  0
LINE
  8
2
  5
7EC
 10
103.33697
 20
-181.126515
 30
0.0
 11
103.33697
 21
-172.126515
 31
0.0
  0
LINE
  8
2
  5
7ED
 10
117.193751
 20
-181.126515
 30
0.0
 11
117.193751
 21
-172.126515
 31
0.0
  0
ARC
  8
2
  5
7EE
 10
110.265361
 20
-195.627812
 30
0.0
 40
24.501296
 50
73.574016
 51
106.425984
  0
ARC
  8
2
  5
7EF
 10
120.229556
 20
-176.234571
 30
0.0
 40
5.108056
 50
53.536034
 51
126.463966
  0
ARC
  8
2
  5
7F0
 10
100.301166
 20
-176.234571
 30
0.0
 40
5.108056
 50
53.536034
 51
126.463966
  0
LINE
  8
2
  5
7F1
 10
123.265361
 20
-172.126515
 30
0.0
 11
123.265361
 21
-180.126515
 31
0.0
  0
LINE
  8
2
  5
7F2
 10
122.265361
 20
-182.126515
 30
0.0
 11
123.265361
 21
-181.126515
 31
0.0
  0
LINE
  8
2
  5
7F3
 10
97.265361
 20
-172.126515
 30
0.0
 11
97.265361
 21
-180.126515
 31
0.0
  0
LINE
  8
2
  5
7F4
 10
98.265361
 20
-182.126515
 30
0.0
 11
97.265361
 21
-181.126515
 31
0.0
  0
LINE
  8
2
  5
7F5
 10
122.265361
 20
-182.126515
 30
0.0
 11
98.265361
 21
-182.126515
 31
0.0
  0
LINE
  8
2
  5
7F6
 10
103.33697
 20
-180.126515
 30
0.0
 11
103.33697
 21
-172.126515
 31
0.0
  0
LINE
  8
2
  5
7F7
 10
117.193751
 20
-180.126515
 30
0.0
 11
117.193751
 21
-172.126515
 31
0.0
  0
ARC
  8
2
  5
7F8
 10
110.265361
 20
-157.625219
 30
0.0
 40
24.501296
 50
253.574016
 51
286.425984
  0
ARC
  8
2
  5
7F9
 10
100.301166
 20
-177.01846
 30
0.0
 40
5.108056
 50
233.536034
 51
306.463966
  0
ARC
  8
2
  5
7FA
 10
120.229556
 20
-177.01846
 30
0.0
 40
5.108056
 50
233.536034
 51
306.463966
  0
LINE
  8
2
  6
CENTER
 62
     2
  5
7FB
 10
110.264768
 20
-100.782543
 30
0.0
 11
110.264768
 21
-81.494942
 31
0.0
  0
LINE
  8
2
  6
CENTER
 62
     2
  5
7FC
 10
110.264768
 20
-81.494942
 30
0.0
 11
183.398505
 21
-169.953072
 31
0.0
  0
LINE
  8
2
  5
7FD
 10
177.398505
 20
-121.329927
 30
0.0
 11
177.398505
 21
-116.007277
 31
0.0
  0
LINE
  8
2
  5
7FE
 10
189.398505
 20
-121.329927
 30
0.0
 11
189.398505
 21
-116.007277
 31
0.0
  0
LINE
  8
2
  5
7FF
 10
185.796421
 20
-116.007277
 30
0.0
 11
185.796421
 21
-121.329927
 31
0.0
  0
LINE
  8
2
  5
800
 10
186.962687
 20
-116.007277
 30
0.0
 11
186.962687
 21
-121.329927
 31
0.0
  0
LINE
  8
2
  5
801
 10
189.360603
 20
-116.007277
 30
0.0
 11
189.360603
 21
-121.329927
 31
0.0
  0
LINE
  8
2
  5
802
 10
188.898505
 20
-121.618602
 30
0.0
 11
189.398505
 21
-121.329927
 31
0.0
  0
LINE
  8
2
  5
803
 10
186.962687
 20
-121.329927
 30
0.0
 11
185.796421
 21
-121.329927
 31
0.0
  0
LINE
  8
2
  5
804
 10
177.398505
 20
-121.329927
 30
0.0
 11
177.898505
 21
-121.618602
 31
0.0
  0
ARC
  8
2
  5
805
 10
183.398505
 20
-111.514972
 30
0.0
 40
10.10363
 50
270.0
 51
283.729133
  0
ARC
  8
2
  5
806
 10
183.398505
 20
-125.822232
 30
0.0
 40
10.10363
 50
76.270867
 51
90.0
  0
LINE
  8
2
  5
807
 10
186.962687
 20
-116.007277
 30
0.0
 11
185.796421
 21
-116.007277
 31
0.0
  0
LINE
  8
2
  5
808
 10
189.398505
 20
-121.329927
 30
0.0
 11
189.360603
 21
-121.329927
 31
0.0
  0
ARC
  8
2
  5
809
 10
188.161645
 20
-118.984442
 30
0.0
 40
2.634161
 50
242.924933
 51
297.075067
  0
ARC
  8
2
  5
80A
 10
188.161645
 20
-118.352763
 30
0.0
 40
2.634161
 50
62.924933
 51
117.075067
  0
ARC
  8
2
  5
80B
 10
183.398505
 20
-111.514972
 30
0.0
 40
10.10363
 50
256.270867
 51
270.0
  0
LINE
  8
2
  5
80C
 10
179.834323
 20
-121.329927
 30
0.0
 11
181.000589
 21
-121.329927
 31
0.0
  0
ARC
  8
2
  5
80D
 10
178.635365
 20
-118.984442
 30
0.0
 40
2.634161
 50
242.924933
 51
297.075067
  0
LINE
  8
2
  5
80E
 10
177.436408
 20
-121.329927
 30
0.0
 11
177.398505
 21
-121.329927
 31
0.0
  0
LINE
  8
2
  5
80F
 10
177.898505
 20
-121.618602
 30
0.0
 11
188.898505
 21
-121.618602
 31
0.0
  0
LINE
  8
2
  5
810
 10
176.798505
 20
-150.618602
 30
0.0
 11
183.398505
 21
-150.618602
 31
0.0
  0
LINE
  8
2
  5
811
 10
176.798505
 20
-145.118602
 30
0.0
 11
183.398505
 21
-145.118602
 31
0.0
  0
LINE
  8
2
  5
812
 10
176.798505
 20
-143.118602
 30
0.0
 11
183.398505
 21
-143.118602
 31
0.0
  0
LINE
  8
2
  5
813
 10
176.798505
 20
-138.118602
 30
0.0
 11
183.398505
 21
-138.118602
 31
0.0
  0
LINE
  8
2
  5
814
 10
176.798505
 20
-136.118602
 30
0.0
 11
183.398505
 21
-136.118602
 31
0.0
  0
LINE
  8
2
  5
815
 10
176.798505
 20
-131.118602
 30
0.0
 11
183.398505
 21
-131.118602
 31
0.0
  0
LINE
  8
2
  5
816
 10
176.798505
 20
-129.118602
 30
0.0
 11
183.398505
 21
-129.118602
 31
0.0
  0
LINE
  8
2
  5
817
 10
176.398505
 20
-149.818602
 30
0.0
 11
176.398505
 21
-145.918602
 31
0.0
  0
LINE
  8
2
  5
818
 10
176.398505
 20
-142.318602
 30
0.0
 11
176.398505
 21
-138.918602
 31
0.0
  0
LINE
  8
2
  5
819
 10
176.398505
 20
-135.318602
 30
0.0
 11
176.398505
 21
-131.918602
 31
0.0
  0
LINE
  8
2
  5
81A
 10
176.398505
 20
-128.318602
 30
0.0
 11
176.398505
 21
-122.418602
 31
0.0
  0
LINE
  8
2
  5
81B
 10
176.798505
 20
-131.118602
 30
0.0
 11
176.798505
 21
-129.118602
 31
0.0
  0
LINE
  8
2
  5
81C
 10
176.798505
 20
-145.118602
 30
0.0
 11
176.798505
 21
-143.118602
 31
0.0
  0
LINE
  8
2
  5
81D
 10
176.798505
 20
-138.118602
 30
0.0
 11
176.798505
 21
-136.118602
 31
0.0
  0
ARC
  8
2
  5
81E
 10
177.398505
 20
-128.318602
 30
0.0
 40
1.0
 50
180.0
 51
233.130102
  0
ARC
  8
2
  5
81F
 10
177.398505
 20
-131.918602
 30
0.0
 40
1.0
 50
126.869898
 51
180.0
  0
ARC
  8
2
  5
820
 10
177.398505
 20
-135.318602
 30
0.0
 40
1.0
 50
180.0
 51
233.130102
  0
ARC
  8
2
  5
821
 10
177.398505
 20
-138.918602
 30
0.0
 40
1.0
 50
126.869898
 51
180.0
  0
ARC
  8
2
  5
822
 10
177.398505
 20
-142.318602
 30
0.0
 40
1.0
 50
180.0
 51
233.130102
  0
ARC
  8
2
  5
823
 10
177.398505
 20
-145.918602
 30
0.0
 40
1.0
 50
126.869898
 51
180.0
  0
ARC
  8
2
  5
824
 10
177.398505
 20
-149.818602
 30
0.0
 40
1.0
 50
180.0
 51
233.130102
  0
LINE
  8
2
  5
825
 10
189.998505
 20
-150.618602
 30
0.0
 11
183.398505
 21
-150.618602
 31
0.0
  0
ARC
  8
2
  5
826
 10
189.398505
 20
-149.818602
 30
0.0
 40
1.0
 50
306.869898
 51
360.0
  0
LINE
  8
2
  5
827
 10
190.398505
 20
-149.818602
 30
0.0
 11
190.398505
 21
-145.918602
 31
0.0
  0
ARC
  8
2
  5
828
 10
189.398505
 20
-145.918602
 30
0.0
 40
1.0
 50
360.0
 51
53.130102
  0
LINE
  8
2
  5
829
 10
189.998505
 20
-145.118602
 30
0.0
 11
189.998505
 21
-143.118602
 31
0.0
  0
LINE
  8
2
  5
82A
 10
189.998505
 20
-145.118602
 30
0.0
 11
183.398505
 21
-145.118602
 31
0.0
  0
LINE
  8
2
  5
82B
 10
189.998505
 20
-143.118602
 30
0.0
 11
183.398505
 21
-143.118602
 31
0.0
  0
ARC
  8
2
  5
82C
 10
189.398505
 20
-142.318602
 30
0.0
 40
1.0
 50
306.869898
 51
360.0
  0
LINE
  8
2
  5
82D
 10
190.398505
 20
-142.318602
 30
0.0
 11
190.398505
 21
-138.918602
 31
0.0
  0
ARC
  8
2
  5
82E
 10
189.398505
 20
-138.918602
 30
0.0
 40
1.0
 50
360.0
 51
53.130102
  0
LINE
  8
2
  5
82F
 10
189.998505
 20
-138.118602
 30
0.0
 11
183.398505
 21
-138.118602
 31
0.0
  0
LINE
  8
2
  5
830
 10
189.998505
 20
-138.118602
 30
0.0
 11
189.998505
 21
-136.118602
 31
0.0
  0
LINE
  8
2
  5
831
 10
189.998505
 20
-136.118602
 30
0.0
 11
183.398505
 21
-136.118602
 31
0.0
  0
ARC
  8
2
  5
832
 10
189.398505
 20
-135.318602
 30
0.0
 40
1.0
 50
306.869898
 51
360.0
  0
LINE
  8
2
  5
833
 10
190.398505
 20
-135.318602
 30
0.0
 11
190.398505
 21
-131.918602
 31
0.0
  0
ARC
  8
2
  5
834
 10
189.398505
 20
-131.918602
 30
0.0
 40
1.0
 50
360.0
 51
53.130102
  0
LINE
  8
2
  5
835
 10
189.998505
 20
-131.118602
 30
0.0
 11
183.398505
 21
-131.118602
 31
0.0
  0
LINE
  8
2
  5
836
 10
189.998505
 20
-131.118602
 30
0.0
 11
189.998505
 21
-129.118602
 31
0.0
  0
LINE
  8
2
  5
837
 10
189.998505
 20
-129.118602
 30
0.0
 11
183.398505
 21
-129.118602
 31
0.0
  0
ARC
  8
2
  5
838
 10
189.398505
 20
-128.318602
 30
0.0
 40
1.0
 50
306.869898
 51
360.0
  0
LINE
  8
2
  5
839
 10
190.398505
 20
-128.318602
 30
0.0
 11
190.398505
 21
-122.418602
 31
0.0
  0
ARC
  8
2
  5
83A
 10
189.398505
 20
-122.418602
 30
0.0
 40
1.0
 50
360.0
 51
53.130102
  0
LINE
  8
2
  5
83B
 10
176.798505
 20
-121.618602
 30
0.0
 11
189.998505
 21
-121.618602
 31
0.0
  0
ARC
  8
2
  5
83C
 10
177.398505
 20
-122.418602
 30
0.0
 40
1.0
 50
126.869898
 51
180.0
  0
LINE
  8
2
  5
83D
 10
176.948505
 20
-157.966609
 30
0.0
 11
176.948505
 21
-150.618602
 31
0.0
  0
LINE
  8
2
  5
83E
 10
189.848505
 20
-157.966609
 30
0.0
 11
189.848505
 21
-150.618602
 31
0.0
  0
ARC
  8
2
  5
83F
 10
183.398505
 20
-125.822232
 30
0.0
 40
10.10363
 50
90.0
 51
103.729133
  0
LINE
  8
2
  5
840
 10
179.834323
 20
-116.007277
 30
0.0
 11
181.000589
 21
-116.007277
 31
0.0
  0
ARC
  8
2
  5
841
 10
178.635365
 20
-118.352763
 30
0.0
 40
2.634161
 50
62.924933
 51
117.075067
  0
LINE
  8
2
  5
842
 10
181.000589
 20
-116.007277
 30
0.0
 11
181.000589
 21
-121.329927
 31
0.0
  0
LINE
  8
2
  5
843
 10
179.834323
 20
-116.007277
 30
0.0
 11
179.834323
 21
-121.329927
 31
0.0
  0
LINE
  8
2
  5
844
 10
177.436408
 20
-116.007277
 30
0.0
 11
177.436408
 21
-121.329927
 31
0.0
  0
ARC
  8
2
  5
845
 10
180.17355
 20
-153.666549
 30
0.0
 40
5.375075
 50
233.130102
 51
306.869898
  0
ARC
  8
2
  5
846
 10
186.623641
 20
-162.266669
 30
0.0
 40
5.375075
 50
53.130102
 51
126.869898
  0
ARC
  8
2
  5
847
 10
180.17355
 20
-162.266669
 30
0.0
 40
5.375075
 50
53.130102
 51
126.869898
  0
LINE
  8
2
  5
848
 10
177.898505
 20
-115.718602
 30
0.0
 11
177.398505
 21
-116.007277
 31
0.0
  0
LINE
  8
2
  5
849
 10
110.265021
 20
-146.125417
 30
0.0
 11
103.664768
 21
-146.125417
 31
0.0
  0
LINE
  8
2
  5
84A
 10
110.265021
 20
-146.125417
 30
0.0
 11
116.864768
 21
-146.125417
 31
0.0
  0
LINE
  8
2
  5
84B
 10
103.664768
 20
-117.125417
 30
0.0
 11
110.264768
 21
-117.125417
 31
0.0
  0
LINE
  8
2
  5
84C
 10
103.664768
 20
-122.625417
 30
0.0
 11
110.264768
 21
-122.625417
 31
0.0
  0
LINE
  8
2
  5
84D
 10
103.664768
 20
-124.625417
 30
0.0
 11
110.264768
 21
-124.625417
 31
0.0
  0
LINE
  8
2
  5
84E
 10
103.664768
 20
-129.625417
 30
0.0
 11
110.264768
 21
-129.625417
 31
0.0
  0
LINE
  8
2
  5
84F
 10
103.664768
 20
-131.625417
 30
0.0
 11
110.264768
 21
-131.625417
 31
0.0
  0
LINE
  8
2
  5
850
 10
103.664768
 20
-136.625417
 30
0.0
 11
110.264768
 21
-136.625417
 31
0.0
  0
LINE
  8
2
  5
851
 10
103.664768
 20
-138.625417
 30
0.0
 11
110.264768
 21
-138.625417
 31
0.0
  0
LINE
  8
2
  5
852
 10
103.264768
 20
-117.925417
 30
0.0
 11
103.264768
 21
-121.825417
 31
0.0
  0
LINE
  8
2
  5
853
 10
103.264768
 20
-125.425417
 30
0.0
 11
103.264768
 21
-128.825417
 31
0.0
  0
LINE
  8
2
  5
854
 10
103.264768
 20
-132.425417
 30
0.0
 11
103.264768
 21
-135.825417
 31
0.0
  0
LINE
  8
2
  5
855
 10
103.264768
 20
-139.425417
 30
0.0
 11
103.264768
 21
-145.325417
 31
0.0
  0
LINE
  8
2
  5
856
 10
103.664768
 20
-136.625417
 30
0.0
 11
103.664768
 21
-138.625417
 31
0.0
  0
LINE
  8
2
  5
857
 10
103.664768
 20
-122.625417
 30
0.0
 11
103.664768
 21
-124.625417
 31
0.0
  0
LINE
  8
2
  5
858
 10
103.664768
 20
-129.625417
 30
0.0
 11
103.664768
 21
-131.625417
 31
0.0
  0
ARC
  8
2
  5
859
 10
104.264768
 20
-139.425417
 30
0.0
 40
1.0
 50
126.869898
 51
180.0
  0
ARC
  8
2
  5
85A
 10
104.264768
 20
-135.825417
 30
0.0
 40
1.0
 50
180.0
 51
233.130102
  0
ARC
  8
2
  5
85B
 10
104.264768
 20
-132.425417
 30
0.0
 40
1.0
 50
126.869898
 51
180.0
  0
ARC
  8
2
  5
85C
 10
104.264768
 20
-128.825417
 30
0.0
 40
1.0
 50
180.0
 51
233.130102
  0
ARC
  8
2
  5
85D
 10
104.264768
 20
-125.425417
 30
0.0
 40
1.0
 50
126.869898
 51
180.0
  0
ARC
  8
2
  5
85E
 10
104.264768
 20
-121.825417
 30
0.0
 40
1.0
 50
180.0
 51
233.130102
  0
ARC
  8
2
  5
85F
 10
104.264768
 20
-117.925417
 30
0.0
 40
1.0
 50
126.869898
 51
180.0
  0
LINE
  8
2
  5
860
 10
116.864768
 20
-117.125417
 30
0.0
 11
110.264768
 21
-117.125417
 31
0.0
  0
ARC
  8
2
  5
861
 10
116.264768
 20
-117.925417
 30
0.0
 40
1.0
 50
0.0
 51
53.130102
  0
LINE
  8
2
  5
862
 10
117.264768
 20
-117.925417
 30
0.0
 11
117.264768
 21
-121.825417
 31
0.0
  0
ARC
  8
2
  5
863
 10
116.264768
 20
-121.825417
 30
0.0
 40
1.0
 50
306.869898
 51
0.0
  0
LINE
  8
2
  5
864
 10
116.864768
 20
-122.625417
 30
0.0
 11
116.864768
 21
-124.625417
 31
0.0
  0
LINE
  8
2
  5
865
 10
116.864768
 20
-122.625417
 30
0.0
 11
110.264768
 21
-122.625417
 31
0.0
  0
LINE
  8
2
  5
866
 10
116.864768
 20
-124.625417
 30
0.0
 11
110.264768
 21
-124.625417
 31
0.0
  0
ARC
  8
2
  5
867
 10
116.264768
 20
-125.425417
 30
0.0
 40
1.0
 50
0.0
 51
53.130102
  0
LINE
  8
2
  5
868
 10
117.264768
 20
-125.425417
 30
0.0
 11
117.264768
 21
-128.825417
 31
0.0
  0
ARC
  8
2
  5
869
 10
116.264768
 20
-128.825417
 30
0.0
 40
1.0
 50
306.869898
 51
0.0
  0
LINE
  8
2
  5
86A
 10
116.864768
 20
-129.625417
 30
0.0
 11
110.264768
 21
-129.625417
 31
0.0
  0
LINE
  8
2
  5
86B
 10
116.864768
 20
-129.625417
 30
0.0
 11
116.864768
 21
-131.625417
 31
0.0
  0
LINE
  8
2
  5
86C
 10
116.864768
 20
-131.625417
 30
0.0
 11
110.264768
 21
-131.625417
 31
0.0
  0
ARC
  8
2
  5
86D
 10
116.264768
 20
-132.425417
 30
0.0
 40
1.0
 50
0.0
 51
53.130102
  0
LINE
  8
2
  5
86E
 10
117.264768
 20
-132.425417
 30
0.0
 11
117.264768
 21
-135.825417
 31
0.0
  0
ARC
  8
2
  5
86F
 10
116.264768
 20
-135.825417
 30
0.0
 40
1.0
 50
306.869898
 51
0.0
  0
LINE
  8
2
  5
870
 10
116.864768
 20
-136.625417
 30
0.0
 11
110.264768
 21
-136.625417
 31
0.0
  0
LINE
  8
2
  5
871
 10
116.864768
 20
-136.625417
 30
0.0
 11
116.864768
 21
-138.625417
 31
0.0
  0
LINE
  8
2
  5
872
 10
116.864768
 20
-138.625417
 30
0.0
 11
110.264768
 21
-138.625417
 31
0.0
  0
ARC
  8
2
  5
873
 10
116.264768
 20
-139.425417
 30
0.0
 40
1.0
 50
0.0
 51
53.130102
  0
LINE
  8
2
  5
874
 10
117.264768
 20
-139.425417
 30
0.0
 11
117.264768
 21
-145.325417
 31
0.0
  0
ARC
  8
2
  5
875
 10
104.264768
 20
-145.325417
 30
0.0
 40
1.0
 50
180.0
 51
233.130102
  0
ARC
  8
2
  5
876
 10
116.264768
 20
-145.325417
 30
0.0
 40
1.0
 50
306.869898
 51
0.0
  0
LINE
  8
2
  5
877
 10
103.814768
 20
-117.125417
 30
0.0
 11
103.814768
 21
-98.614601
 31
0.0
  0
LINE
  8
2
  5
878
 10
116.714768
 20
-117.125417
 30
0.0
 11
116.714768
 21
-98.614601
 31
0.0
  0
LINE
  8
2
  5
879
 10
104.014768
 20
-147.125417
 30
0.0
 11
104.014768
 21
-146.125417
 31
0.0
  0
LINE
  8
2
  5
87A
 10
116.514768
 20
-147.125417
 30
0.0
 11
116.514768
 21
-146.125417
 31
0.0
  0
ARC
  8
2
  5
87B
 10
107.039768
 20
-94.314601
 30
0.0
 40
5.375
 50
233.130102
 51
306.869898
  0
ARC
  8
2
  5
87C
 10
113.489768
 20
-102.914601
 30
0.0
 40
5.375
 50
53.130102
 51
126.869898
  0
ARC
  8
2
  5
87D
 10
113.489768
 20
-94.314601
 30
0.0
 40
5.375
 50
233.130102
 51
306.869898
  0
LINE
  8
2
  6
CENTER
 62
     2
  5
87E
 10
-146.086101
 20
-99.16663
 30
0.0
 11
-146.086101
 21
-120.715321
 31
0.0
  0
LINE
  8
2
  5
87F
 10
-137.836101
 20
-125.718691
 30
0.0
 11
-131.586101
 21
-125.718691
 31
0.0
  0
LINE
  8
2
  5
880
 10
-126.336101
 20
-125.718691
 30
0.0
 11
-132.586101
 21
-125.718691
 31
0.0
  0
LINE
  8
2
  5
881
 10
-126.336101
 20
-125.718691
 30
0.0
 11
-132.586101
 21
-125.718691
 31
0.0
  0
LINE
  8
2
  5
882
 10
-137.836101
 20
-125.718691
 30
0.0
 11
-131.586101
 21
-125.718691
 31
0.0
  0
LINE
  8
2
  5
883
 10
-126.336101
 20
-125.718691
 30
0.0
 11
-132.586101
 21
-125.718691
 31
0.0
  0
LINE
  8
2
  5
884
 10
-126.336101
 20
-125.718691
 30
0.0
 11
-132.586101
 21
-125.718691
 31
0.0
  0
LINE
  8
2
  6
CENTER
 62
     2
  5
885
 10
-146.086101
 20
-160.234852
 30
0.0
 11
-146.086101
 21
-187.218694
 31
0.0
  0
LINE
  8
2
  6
CENTER
 62
     2
  5
886
 10
-204.219838
 20
-81.055919
 30
0.0
 11
-204.219838
 21
-101.335339
 31
0.0
  0
ARC
  8
2
  5
887
 10
-210.019838
 20
-146.927286
 30
0.0
 40
0.2
 50
180.0
 51
270.0
  0
ARC
  8
2
  5
888
 10
-198.419838
 20
-146.927286
 30
0.0
 40
0.2
 50
270.0
 51
360.0
  0
LINE
  8
2
  5
889
 10
-197.219838
 20
-147.127286
 30
0.0
 11
-211.219838
 21
-147.127286
 31
0.0
  0
ARC
  8
2
  5
88A
 10
-198.419245
 20
-146.926604
 30
0.0
 40
0.2
 50
270.0
 51
360.0
  0
ARC
  8
2
  5
88B
 10
-210.019245
 20
-146.926604
 30
0.0
 40
0.2
 50
180.0
 51
270.0
  0
LINE
  8
2
  5
88C
 10
-211.219245
 20
-147.126604
 30
0.0
 11
-197.219245
 21
-147.126604
 31
0.0
  0
LINE
  8
2
  5
88D
 10
-211.719245
 20
-147.626604
 30
0.0
 11
-211.219245
 21
-147.126604
 31
0.0
  0
LINE
  8
2
 62
     2
  5
88E
 10
-210.719105
 20
-160.925982
 30
0.0
 11
-210.719105
 21
-157.925982
 31
0.0
  0
LINE
  8
2
  5
88F
 10
-213.119245
 20
-152.527239
 30
0.0
 11
-213.119245
 21
-154.927239
 31
0.0
  0
LINE
  8
2
  5
890
 10
-212.919245
 20
-152.327239
 30
0.0
 11
-213.119245
 21
-152.527239
 31
0.0
  0
LINE
  8
2
  5
891
 10
-212.919245
 20
-155.127239
 30
0.0
 11
-213.119245
 21
-154.927239
 31
0.0
  0
LINE
  8
2
  5
892
 10
-211.719245
 20
-152.327239
 30
0.0
 11
-211.719245
 21
-151.925982
 31
0.0
  0
LINE
  8
2
  5
893
 10
-211.719245
 20
-147.626604
 30
0.0
 11
-211.719245
 21
-148.925982
 31
0.0
  0
LINE
  8
2
  5
894
 10
-195.319245
 20
-152.526604
 30
0.0
 11
-195.319245
 21
-154.926604
 31
0.0
  0
LINE
  8
2
  5
895
 10
-213.119245
 20
-152.526604
 30
0.0
 11
-213.119245
 21
-154.926604
 31
0.0
  0
LINE
  8
2
  5
896
 10
-212.919245
 20
-152.326604
 30
0.0
 11
-213.119245
 21
-152.526604
 31
0.0
  0
LINE
  8
2
  5
897
 10
-195.519245
 20
-152.326604
 30
0.0
 11
-195.319245
 21
-152.526604
 31
0.0
  0
LINE
  8
2
  5
898
 10
-195.519245
 20
-155.126604
 30
0.0
 11
-195.319245
 21
-154.926604
 31
0.0
  0
LINE
  8
2
  5
899
 10
-195.219245
 20
-160.926604
 30
0.0
 11
-213.219245
 21
-160.926604
 31
0.0
  0
LINE
  8
2
  5
89A
 10
-195.919245
 20
-148.926604
 30
0.0
 11
-212.519245
 21
-148.926604
 31
0.0
  0
LINE
  8
2
  5
89B
 10
-208.219245
 20
-149.926604
 30
0.0
 11
-208.219245
 21
-159.926604
 31
0.0
  0
LINE
  8
2
  5
89C
 10
-200.219245
 20
-149.926604
 30
0.0
 11
-200.219245
 21
-159.926604
 31
0.0
  0
LINE
  8
2
  5
89D
 10
-218.719245
 20
-147.926604
 30
0.0
 11
-218.719245
 21
-159.926604
 31
0.0
  0
LINE
  8
2
  5
89E
 10
-189.719245
 20
-147.926604
 30
0.0
 11
-189.719245
 21
-159.926604
 31
0.0
  0
ARC
  8
2
  5
89F
 10
-190.719245
 20
-147.926604
 30
0.0
 40
1.0
 50
0.0
 51
90.0
  0
ARC
  8
2
  5
8A0
 10
-217.719245
 20
-147.926604
 30
0.0
 40
1.0
 50
90.0
 51
180.0
  0
ARC
  8
2
  5
8A1
 10
-217.719245
 20
-159.926604
 30
0.0
 40
1.0
 50
180.0
 51
270.0
  0
ARC
  8
2
  5
8A2
 10
-190.719245
 20
-159.926604
 30
0.0
 40
1.0
 50
270.0
 51
360.0
  0
LINE
  8
2
  5
8A3
 10
-217.719245
 20
-146.926604
 30
0.0
 11
-210.219245
 21
-146.926604
 31
0.0
  0
LINE
  8
2
  5
8A4
 10
-198.219245
 20
-146.926604
 30
0.0
 11
-190.719245
 21
-146.926604
 31
0.0
  0
LINE
  8
2
  5
8A5
 10
-217.719245
 20
-160.926604
 30
0.0
 11
-211.719245
 21
-160.926604
 31
0.0
  0
LINE
  8
2
  5
8A6
 10
-195.919245
 20
-160.926604
 30
0.0
 11
-190.719245
 21
-160.926604
 31
0.0
  0
LINE
  8
2
  5
8A7
 10
-195.919245
 20
-151.926604
 30
0.0
 11
-200.219245
 21
-151.926604
 31
0.0
  0
LINE
  8
2
  5
8A8
 10
-208.219245
 20
-151.926604
 30
0.0
 11
-212.519245
 21
-151.926604
 31
0.0
  0
LINE
  8
2
  5
8A9
 10
-195.519245
 20
-152.326604
 30
0.0
 11
-200.219245
 21
-152.326604
 31
0.0
  0
LINE
  8
2
  5
8AA
 10
-208.219245
 20
-152.326604
 30
0.0
 11
-212.919245
 21
-152.326604
 31
0.0
  0
LINE
  8
2
  5
8AB
 10
-195.319245
 20
-152.526604
 30
0.0
 11
-200.219245
 21
-152.526604
 31
0.0
  0
LINE
  8
2
  5
8AC
 10
-208.219245
 20
-152.526604
 30
0.0
 11
-213.119245
 21
-152.526604
 31
0.0
  0
LINE
  8
2
  5
8AD
 10
-195.319245
 20
-154.926604
 30
0.0
 11
-200.219245
 21
-154.926604
 31
0.0
  0
LINE
  8
2
  5
8AE
 10
-208.219245
 20
-154.926604
 30
0.0
 11
-213.119245
 21
-154.926604
 31
0.0
  0
LINE
  8
2
  5
8AF
 10
-195.919245
 20
-157.926604
 30
0.0
 11
-200.219245
 21
-157.926604
 31
0.0
  0
LINE
  8
2
  5
8B0
 10
-208.219245
 20
-157.926604
 30
0.0
 11
-212.519245
 21
-157.926604
 31
0.0
  0
ARC
  8
2
  5
8B1
 10
-201.219245
 20
-149.926604
 30
0.0
 40
1.0
 50
0.0
 51
90.0
  0
ARC
  8
2
  5
8B2
 10
-207.219245
 20
-149.926604
 30
0.0
 40
1.0
 50
90.0
 51
180.0
  0
ARC
  8
2
  5
8B3
 10
-207.219245
 20
-159.926604
 30
0.0
 40
1.0
 50
180.0
 51
270.0
  0
ARC
  8
2
  5
8B4
 10
-201.219245
 20
-159.926604
 30
0.0
 40
1.0
 50
270.0
 51
0.0
  0
LINE
  8
2
  5
8B5
 10
-212.519245
 20
-148.926604
 30
0.0
 11
-212.519245
 21
-151.926604
 31
0.0
  0
LINE
  8
2
  5
8B6
 10
-195.919245
 20
-148.926604
 30
0.0
 11
-195.919245
 21
-151.926604
 31
0.0
  0
LINE
  8
2
  5
8B7
 10
-195.919245
 20
-157.926604
 30
0.0
 11
-195.919245
 21
-160.926604
 31
0.0
  0
LINE
  8
2
  5
8B8
 10
-212.519245
 20
-157.926604
 30
0.0
 11
-212.519245
 21
-160.926604
 31
0.0
  0
LINE
  8
2
  5
8B9
 10
-211.719245
 20
-152.326604
 30
0.0
 11
-211.719245
 21
-151.926604
 31
0.0
  0
LINE
  8
2
  5
8BA
 10
-196.719245
 20
-152.326604
 30
0.0
 11
-196.719245
 21
-151.926604
 31
0.0
  0
LINE
  8
2
 62
     2
  5
8BB
 10
-209.219245
 20
-160.627187
 30
0.0
 11
-209.219245
 21
-158.321965
 31
0.0
  0
LINE
  8
2
 62
     2
  5
8BC
 10
-209.219245
 20
-151.665418
 30
0.0
 11
-209.219245
 21
-149.233212
 31
0.0
  0
LINE
  8
2
 62
     2
  5
8BD
 10
-199.219245
 20
-160.627187
 30
0.0
 11
-199.219245
 21
-158.321965
 31
0.0
  0
LINE
  8
2
 62
     2
  5
8BE
 10
-199.219245
 20
-151.622739
 30
0.0
 11
-199.219245
 21
-149.153691
 31
0.0
  0
LINE
  8
2
  5
8BF
 10
-213.019245
 20
-159.926604
 30
0.0
 11
-213.019245
 21
-157.326604
 31
0.0
  0
LINE
  8
2
  5
8C0
 10
-213.019245
 20
-152.426604
 30
0.0
 11
-213.019245
 21
-147.926604
 31
0.0
  0
LINE
  8
2
  5
8C1
 10
-195.419245
 20
-159.926604
 30
0.0
 11
-195.419245
 21
-157.326604
 31
0.0
  0
LINE
  8
2
  5
8C2
 10
-195.419245
 20
-152.426604
 30
0.0
 11
-195.419245
 21
-147.926604
 31
0.0
  0
ARC
  8
2
  5
8C3
 10
-212.019245
 20
-147.926604
 30
0.0
 40
1.0
 50
90.0
 51
180.0
  0
ARC
  8
2
  5
8C4
 10
-196.419245
 20
-147.926604
 30
0.0
 40
1.0
 50
0.0
 51
90.0
  0
ARC
  8
2
  5
8C5
 10
-214.019245
 20
-159.926604
 30
0.0
 40
1.0
 50
270.0
 51
0.0
  0
ARC
  8
2
  5
8C6
 10
-194.419245
 20
-159.926604
 30
0.0
 40
1.0
 50
180.0
 51
270.0
  0
LINE
  8
2
  5
8C7
 10
-196.719245
 20
-147.626604
 30
0.0
 11
-196.719245
 21
-148.925982
 31
0.0
  0
ARC
  8
2
  5
8C8
 10
-196.419245
 20
-147.926604
 30
0.0
 40
1.0
 50
0.0
 51
90.0
  0
LINE
  8
2
  5
8C9
 10
-196.719245
 20
-147.626604
 30
0.0
 11
-197.219245
 21
-147.126604
 31
0.0
  0
LINE
  8
2
  5
8CA
 10
-195.219245
 20
-155.326604
 30
0.0
 11
-195.219245
 21
-157.126604
 31
0.0
  0
LINE
  8
2
  5
8CB
 10
-213.219245
 20
-155.326604
 30
0.0
 11
-213.219245
 21
-157.126604
 31
0.0
  0
LINE
  8
2
  5
8CC
 10
-213.219245
 20
-161.326604
 30
0.0
 11
-214.219245
 21
-162.326604
 31
0.0
  0
LINE
  8
2
  5
8CD
 10
-195.219245
 20
-161.326604
 30
0.0
 11
-194.219245
 21
-162.326604
 31
0.0
  0
LINE
  8
2
  5
8CE
 10
-195.219245
 20
-161.326604
 30
0.0
 11
-213.219245
 21
-161.326604
 31
0.0
  0
LINE
  8
2
  5
8CF
 10
-195.419245
 20
-155.126604
 30
0.0
 11
-195.219245
 21
-155.326604
 31
0.0
  0
LINE
  8
2
  5
8D0
 10
-195.219245
 20
-157.126604
 30
0.0
 11
-195.419245
 21
-157.326604
 31
0.0
  0
LINE
  8
2
  5
8D1
 10
-213.019245
 20
-155.126604
 30
0.0
 11
-213.219245
 21
-155.326604
 31
0.0
  0
LINE
  8
2
  5
8D2
 10
-213.219245
 20
-157.126604
 30
0.0
 11
-213.019245
 21
-157.326604
 31
0.0
  0
LINE
  8
2
 62
     2
  5
8D3
 10
-214.219245
 20
-162.326604
 30
0.0
 11
-194.219245
 21
-162.326604
 31
0.0
  0
LINE
  8
2
  5
8D4
 10
-211.719245
 20
-161.326604
 30
0.0
 11
-211.719245
 21
-160.926604
 31
0.0
  0
LINE
  8
2
  5
8D5
 10
-211.719245
 20
-157.926604
 30
0.0
 11
-211.719245
 21
-157.326604
 31
0.0
  0
LINE
  8
2
  5
8D6
 10
-196.719245
 20
-161.326604
 30
0.0
 11
-196.719245
 21
-160.926604
 31
0.0
  0
LINE
  8
2
  5
8D7
 10
-196.719245
 20
-157.926604
 30
0.0
 11
-196.719245
 21
-157.326604
 31
0.0
  0
LINE
  8
2
  5
8D8
 10
-195.419245
 20
-157.326604
 30
0.0
 11
-200.219245
 21
-157.326604
 31
0.0
  0
LINE
  8
2
  5
8D9
 10
-208.219245
 20
-157.326604
 30
0.0
 11
-213.019245
 21
-157.326604
 31
0.0
  0
LINE
  8
2
  5
8DA
 10
-195.219245
 20
-157.126604
 30
0.0
 11
-200.219245
 21
-157.126604
 31
0.0
  0
LINE
  8
2
  5
8DB
 10
-208.219245
 20
-157.126604
 30
0.0
 11
-213.219245
 21
-157.126604
 31
0.0
  0
LINE
  8
2
  5
8DC
 10
-195.219245
 20
-155.326604
 30
0.0
 11
-200.219245
 21
-155.326604
 31
0.0
  0
LINE
  8
2
  5
8DD
 10
-208.219245
 20
-155.326604
 30
0.0
 11
-213.219245
 21
-155.326604
 31
0.0
  0
LINE
  8
2
  5
8DE
 10
-195.419245
 20
-155.126604
 30
0.0
 11
-200.219245
 21
-155.126604
 31
0.0
  0
LINE
  8
2
  5
8DF
 10
-208.219245
 20
-155.126604
 30
0.0
 11
-213.019245
 21
-155.126604
 31
0.0
  0
LINE
  8
2
 62
     2
  5
8E0
 10
-197.719385
 20
-160.925982
 30
0.0
 11
-197.719385
 21
-157.925982
 31
0.0
  0
LINE
  8
2
 62
     2
  5
8E1
 10
-210.719105
 20
-151.926604
 30
0.0
 11
-210.719105
 21
-148.926604
 31
0.0
  0
LINE
  8
2
 62
     2
  5
8E2
 10
-197.719385
 20
-151.926604
 30
0.0
 11
-197.719385
 21
-148.926604
 31
0.0
  0
LINE
  8
2
  5
8E3
 10
-194.219245
 20
-162.326604
 30
0.0
 11
-194.219245
 21
-171.126604
 31
0.0
  0
LINE
  8
2
  5
8E4
 10
-214.219245
 20
-162.326604
 30
0.0
 11
-214.219245
 21
-171.126604
 31
0.0
  0
LINE
  8
2
  5
8E5
 10
-192.219245
 20
-171.126604
 30
0.0
 11
-216.219245
 21
-171.126604
 31
0.0
  0
LINE
  8
2
  5
8E6
 10
-191.219245
 20
-172.126604
 30
0.0
 11
-191.219245
 21
-181.126604
 31
0.0
  0
LINE
  8
2
  5
8E7
 10
-192.219245
 20
-171.126604
 30
0.0
 11
-191.219245
 21
-172.126604
 31
0.0
  0
LINE
  8
2
  5
8E8
 10
-217.219245
 20
-172.126604
 30
0.0
 11
-217.219245
 21
-181.126604
 31
0.0
  0
LINE
  8
2
  5
8E9
 10
-216.219245
 20
-171.126604
 30
0.0
 11
-217.219245
 21
-172.126604
 31
0.0
  0
LINE
  8
2
  5
8EA
 10
-211.147635
 20
-181.126604
 30
0.0
 11
-211.147635
 21
-172.126604
 31
0.0
  0
LINE
  8
2
  5
8EB
 10
-197.290855
 20
-181.126604
 30
0.0
 11
-197.290855
 21
-172.126604
 31
0.0
  0
ARC
  8
2
  5
8EC
 10
-204.219245
 20
-195.6279
 30
0.0
 40
24.501296
 50
73.574016
 51
106.425984
  0
ARC
  8
2
  5
8ED
 10
-194.25505
 20
-176.234659
 30
0.0
 40
5.108056
 50
53.536034
 51
126.463966
  0
ARC
  8
2
  5
8EE
 10
-214.18344
 20
-176.234659
 30
0.0
 40
5.108056
 50
53.536034
 51
126.463966
  0
LINE
  8
2
  5
8EF
 10
-191.219245
 20
-172.126604
 30
0.0
 11
-191.219245
 21
-180.126604
 31
0.0
  0
LINE
  8
2
  5
8F0
 10
-192.219245
 20
-182.126604
 30
0.0
 11
-191.219245
 21
-181.126604
 31
0.0
  0
LINE
  8
2
  5
8F1
 10
-217.219245
 20
-172.126604
 30
0.0
 11
-217.219245
 21
-180.126604
 31
0.0
  0
LINE
  8
2
  5
8F2
 10
-216.219245
 20
-182.126604
 30
0.0
 11
-217.219245
 21
-181.126604
 31
0.0
  0
LINE
  8
2
  5
8F3
 10
-192.219245
 20
-182.126604
 30
0.0
 11
-216.219245
 21
-182.126604
 31
0.0
  0
LINE
  8
2
  5
8F4
 10
-211.147635
 20
-180.126604
 30
0.0
 11
-211.147635
 21
-172.126604
 31
0.0
  0
LINE
  8
2
  5
8F5
 10
-197.290855
 20
-180.126604
 30
0.0
 11
-197.290855
 21
-172.126604
 31
0.0
  0
ARC
  8
2
  5
8F6
 10
-204.219245
 20
-157.625308
 30
0.0
 40
24.501296
 50
253.574016
 51
286.425984
  0
ARC
  8
2
  5
8F7
 10
-214.18344
 20
-177.018548
 30
0.0
 40
5.108056
 50
233.536034
 51
306.463966
  0
ARC
  8
2
  5
8F8
 10
-194.25505
 20
-177.018548
 30
0.0
 40
5.108056
 50
233.536034
 51
306.463966
  0
LINE
  8
2
  6
CENTER
 62
     2
  5
8F9
 10
-132.086101
 20
-195.722031
 30
0.0
 11
-132.086101
 21
-171.100811
 31
0.0
  0
ARC
  8
2
  5
8FA
 10
-68.152363
 20
-156.927286
 30
0.0
 40
0.2
 50
270.0
 51
360.0
  0
ARC
  8
2
  5
8FB
 10
-79.752363
 20
-156.927286
 30
0.0
 40
0.2
 50
180.0
 51
270.0
  0
LINE
  8
2
  5
8FC
 10
-80.952363
 20
-157.127286
 30
0.0
 11
-66.952363
 21
-157.127286
 31
0.0
  0
ARC
  8
2
  5
8FD
 10
-79.752956
 20
-156.926604
 30
0.0
 40
0.2
 50
180.0
 51
270.0
  0
ARC
  8
2
  5
8FE
 10
-68.152956
 20
-156.926604
 30
0.0
 40
0.2
 50
270.0
 51
360.0
  0
LINE
  8
2
  5
8FF
 10
-66.952956
 20
-157.126604
 30
0.0
 11
-80.952956
 21
-157.126604
 31
0.0
  0
LINE
  8
2
  5
900
 10
-66.452956
 20
-157.626604
 30
0.0
 11
-66.952956
 21
-157.126604
 31
0.0
  0
LINE
  8
2
 62
     2
  5
901
 10
-67.453096
 20
-170.925982
 30
0.0
 11
-67.453096
 21
-167.925982
 31
0.0
  0
LINE
  8
2
  5
902
 10
-65.052956
 20
-162.527239
 30
0.0
 11
-65.052956
 21
-164.927239
 31
0.0
  0
LINE
  8
2
  5
903
 10
-65.252956
 20
-162.327239
 30
0.0
 11
-65.052956
 21
-162.527239
 31
0.0
  0
LINE
  8
2
  5
904
 10
-65.252956
 20
-165.127239
 30
0.0
 11
-65.052956
 21
-164.927239
 31
0.0
  0
LINE
  8
2
  5
905
 10
-66.452956
 20
-162.327239
 30
0.0
 11
-66.452956
 21
-161.925982
 31
0.0
  0
LINE
  8
2
  5
906
 10
-66.452956
 20
-157.626604
 30
0.0
 11
-66.452956
 21
-158.925982
 31
0.0
  0
LINE
  8
2
  5
907
 10
-82.852956
 20
-162.526604
 30
0.0
 11
-82.852956
 21
-164.926604
 31
0.0
  0
LINE
  8
2
  5
908
 10
-65.052956
 20
-162.526604
 30
0.0
 11
-65.052956
 21
-164.926604
 31
0.0
  0
LINE
  8
2
  5
909
 10
-65.252956
 20
-162.326604
 30
0.0
 11
-65.052956
 21
-162.526604
 31
0.0
  0
LINE
  8
2
  5
90A
 10
-82.652956
 20
-162.326604
 30
0.0
 11
-82.852956
 21
-162.526604
 31
0.0
  0
LINE
  8
2
  5
90B
 10
-82.652956
 20
-165.126604
 30
0.0
 11
-82.852956
 21
-164.926604
 31
0.0
  0
LINE
  8
2
  5
90C
 10
-82.952956
 20
-170.926604
 30
0.0
 11
-64.952956
 21
-170.926604
 31
0.0
  0
LINE
  8
2
  5
90D
 10
-82.252956
 20
-158.926604
 30
0.0
 11
-65.652956
 21
-158.926604
 31
0.0
  0
LINE
  8
2
  5
90E
 10
-69.952956
 20
-159.926604
 30
0.0
 11
-69.952956
 21
-169.926604
 31
0.0
  0
LINE
  8
2
  5
90F
 10
-77.952956
 20
-159.926604
 30
0.0
 11
-77.952956
 21
-169.926604
 31
0.0
  0
LINE
  8
2
  5
910
 10
-59.452956
 20
-157.926604
 30
0.0
 11
-59.452956
 21
-169.926604
 31
0.0
  0
LINE
  8
2
  5
911
 10
-88.452956
 20
-157.926604
 30
0.0
 11
-88.452956
 21
-169.926604
 31
0.0
  0
ARC
  8
2
  5
912
 10
-87.452956
 20
-157.926604
 30
0.0
 40
1.0
 50
90.0
 51
180.0
  0
ARC
  8
2
  5
913
 10
-60.452956
 20
-157.926604
 30
0.0
 40
1.0
 50
360.0
 51
90.0
  0
ARC
  8
2
  5
914
 10
-60.452956
 20
-169.926604
 30
0.0
 40
1.0
 50
270.0
 51
360.0
  0
ARC
  8
2
  5
915
 10
-87.452956
 20
-169.926604
 30
0.0
 40
1.0
 50
180.0
 51
270.0
  0
LINE
  8
2
  5
916
 10
-60.452956
 20
-156.926604
 30
0.0
 11
-67.952956
 21
-156.926604
 31
0.0
  0
LINE
  8
2
  5
917
 10
-79.952956
 20
-156.926604
 30
0.0
 11
-87.452956
 21
-156.926604
 31
0.0
  0
LINE
  8
2
  5
918
 10
-60.452956
 20
-170.926604
 30
0.0
 11
-66.452956
 21
-170.926604
 31
0.0
  0
LINE
  8
2
  5
919
 10
-82.252956
 20
-170.926604
 30
0.0
 11
-87.452956
 21
-170.926604
 31
0.0
  0
LINE
  8
2
  5
91A
 10
-82.252956
 20
-161.926604
 30
0.0
 11
-77.952956
 21
-161.926604
 31
0.0
  0
LINE
  8
2
  5
91B
 10
-69.952956
 20
-161.926604
 30
0.0
 11
-65.652956
 21
-161.926604
 31
0.0
  0
LINE
  8
2
  5
91C
 10
-82.652956
 20
-162.326604
 30
0.0
 11
-77.952956
 21
-162.326604
 31
0.0
  0
LINE
  8
2
  5
91D
 10
-69.952956
 20
-162.326604
 30
0.0
 11
-65.252956
 21
-162.326604
 31
0.0
  0
LINE
  8
2
  5
91E
 10
-82.852956
 20
-162.526604
 30
0.0
 11
-77.952956
 21
-162.526604
 31
0.0
  0
LINE
  8
2
  5
91F
 10
-69.952956
 20
-162.526604
 30
0.0
 11
-65.052956
 21
-162.526604
 31
0.0
  0
LINE
  8
2
  5
920
 10
-82.852956
 20
-164.926604
 30
0.0
 11
-77.952956
 21
-164.926604
 31
0.0
  0
LINE
  8
2
  5
921
 10
-69.952956
 20
-164.926604
 30
0.0
 11
-65.052956
 21
-164.926604
 31
0.0
  0
LINE
  8
2
  5
922
 10
-82.252956
 20
-167.926604
 30
0.0
 11
-77.952956
 21
-167.926604
 31
0.0
  0
LINE
  8
2
  5
923
 10
-69.952956
 20
-167.926604
 30
0.0
 11
-65.652956
 21
-167.926604
 31
0.0
  0
ARC
  8
2
  5
924
 10
-76.952956
 20
-159.926604
 30
0.0
 40
1.0
 50
90.0
 51
180.0
  0
ARC
  8
2
  5
925
 10
-70.952956
 20
-159.926604
 30
0.0
 40
1.0
 50
360.0
 51
90.0
  0
ARC
  8
2
  5
926
 10
-70.952956
 20
-169.926604
 30
0.0
 40
1.0
 50
270.0
 51
0.0
  0
ARC
  8
2
  5
927
 10
-76.952956
 20
-169.926604
 30
0.0
 40
1.0
 50
180.0
 51
270.0
  0
LINE
  8
2
  5
928
 10
-65.652956
 20
-158.926604
 30
0.0
 11
-65.652956
 21
-161.926604
 31
0.0
  0
LINE
  8
2
  5
929
 10
-82.252956
 20
-158.926604
 30
0.0
 11
-82.252956
 21
-161.926604
 31
0.0
  0
LINE
  8
2
  5
92A
 10
-82.252956
 20
-167.926604
 30
0.0
 11
-82.252956
 21
-170.926604
 31
0.0
  0
LINE
  8
2
  5
92B
 10
-65.652956
 20
-167.926604
 30
0.0
 11
-65.652956
 21
-170.926604
 31
0.0
  0
LINE
  8
2
  5
92C
 10
-66.452956
 20
-162.326604
 30
0.0
 11
-66.452956
 21
-161.926604
 31
0.0
  0
LINE
  8
2
  5
92D
 10
-81.452956
 20
-162.326604
 30
0.0
 11
-81.452956
 21
-161.926604
 31
0.0
  0
LINE
  8
2
 62
     2
  5
92E
 10
-68.952956
 20
-170.627187
 30
0.0
 11
-68.952956
 21
-168.321965
 31
0.0
  0
LINE
  8
2
 62
     2
  5
92F
 10
-68.952956
 20
-161.665418
 30
0.0
 11
-68.952956
 21
-159.233212
 31
0.0
  0
LINE
  8
2
 62
     2
  5
930
 10
-78.952956
 20
-170.627187
 30
0.0
 11
-78.952956
 21
-168.321965
 31
0.0
  0
LINE
  8
2
 62
     2
  5
931
 10
-78.952956
 20
-161.622739
 30
0.0
 11
-78.952956
 21
-159.153691
 31
0.0
  0
LINE
  8
2
  5
932
 10
-65.152956
 20
-169.926604
 30
0.0
 11
-65.152956
 21
-167.326604
 31
0.0
  0
LINE
  8
2
  5
933
 10
-65.152956
 20
-162.426604
 30
0.0
 11
-65.152956
 21
-157.926604
 31
0.0
  0
LINE
  8
2
  5
934
 10
-82.752956
 20
-169.926604
 30
0.0
 11
-82.752956
 21
-167.326604
 31
0.0
  0
LINE
  8
2
  5
935
 10
-82.752956
 20
-162.426604
 30
0.0
 11
-82.752956
 21
-157.926604
 31
0.0
  0
ARC
  8
2
  5
936
 10
-66.152956
 20
-157.926604
 30
0.0
 40
1.0
 50
360.0
 51
90.0
  0
ARC
  8
2
  5
937
 10
-81.752956
 20
-157.926604
 30
0.0
 40
1.0
 50
90.0
 51
180.0
  0
ARC
  8
2
  5
938
 10
-64.152956
 20
-169.926604
 30
0.0
 40
1.0
 50
180.0
 51
270.0
  0
ARC
  8
2
  5
939
 10
-83.752956
 20
-169.926604
 30
0.0
 40
1.0
 50
270.0
 51
360.0
  0
LINE
  8
2
  5
93A
 10
-81.452956
 20
-157.626604
 30
0.0
 11
-81.452956
 21
-158.925982
 31
0.0
  0
ARC
  8
2
  5
93B
 10
-81.752956
 20
-157.926604
 30
0.0
 40
1.0
 50
90.0
 51
180.0
  0
LINE
  8
2
  5
93C
 10
-81.452956
 20
-157.626604
 30
0.0
 11
-80.952956
 21
-157.126604
 31
0.0
  0
LINE
  8
2
  5
93D
 10
-82.952956
 20
-165.326604
 30
0.0
 11
-82.952956
 21
-167.126604
 31
0.0
  0
LINE
  8
2
  5
93E
 10
-64.952956
 20
-165.326604
 30
0.0
 11
-64.952956
 21
-167.126604
 31
0.0
  0
LINE
  8
2
  5
93F
 10
-64.952956
 20
-171.326604
 30
0.0
 11
-63.952956
 21
-172.326604
 31
0.0
  0
LINE
  8
2
  5
940
 10
-82.952956
 20
-171.326604
 30
0.0
 11
-83.952956
 21
-172.326604
 31
0.0
  0
LINE
  8
2
  5
941
 10
-82.952956
 20
-171.326604
 30
0.0
 11
-64.952956
 21
-171.326604
 31
0.0
  0
LINE
  8
2
  5
942
 10
-82.752956
 20
-165.126604
 30
0.0
 11
-82.952956
 21
-165.326604
 31
0.0
  0
LINE
  8
2
  5
943
 10
-82.952956
 20
-167.126604
 30
0.0
 11
-82.752956
 21
-167.326604
 31
0.0
  0
LINE
  8
2
  5
944
 10
-65.152956
 20
-165.126604
 30
0.0
 11
-64.952956
 21
-165.326604
 31
0.0
  0
LINE
  8
2
  5
945
 10
-64.952956
 20
-167.126604
 30
0.0
 11
-65.152956
 21
-167.326604
 31
0.0
  0
LINE
  8
2
 62
     2
  5
946
 10
-63.952956
 20
-172.326604
 30
0.0
 11
-83.952956
 21
-172.326604
 31
0.0
  0
LINE
  8
2
  5
947
 10
-66.452956
 20
-171.326604
 30
0.0
 11
-66.452956
 21
-170.926604
 31
0.0
  0
LINE
  8
2
  5
948
 10
-66.452956
 20
-167.926604
 30
0.0
 11
-66.452956
 21
-167.326604
 31
0.0
  0
LINE
  8
2
  5
949
 10
-81.452956
 20
-171.326604
 30
0.0
 11
-81.452956
 21
-170.926604
 31
0.0
  0
LINE
  8
2
  5
94A
 10
-81.452956
 20
-167.926604
 30
0.0
 11
-81.452956
 21
-167.326604
 31
0.0
  0
LINE
  8
2
  5
94B
 10
-82.752956
 20
-167.326604
 30
0.0
 11
-77.952956
 21
-167.326604
 31
0.0
  0
LINE
  8
2
  5
94C
 10
-69.952956
 20
-167.326604
 30
0.0
 11
-65.152956
 21
-167.326604
 31
0.0
  0
LINE
  8
2
  5
94D
 10
-82.952956
 20
-167.126604
 30
0.0
 11
-77.952956
 21
-167.126604
 31
0.0
  0
LINE
  8
2
  5
94E
 10
-69.952956
 20
-167.126604
 30
0.0
 11
-64.952956
 21
-167.126604
 31
0.0
  0
LINE
  8
2
  5
94F
 10
-82.952956
 20
-165.326604
 30
0.0
 11
-77.952956
 21
-165.326604
 31
0.0
  0
LINE
  8
2
  5
950
 10
-69.952956
 20
-165.326604
 30
0.0
 11
-64.952956
 21
-165.326604
 31
0.0
  0
LINE
  8
2
  5
951
 10
-82.752956
 20
-165.126604
 30
0.0
 11
-77.952956
 21
-165.126604
 31
0.0
  0
LINE
  8
2
  5
952
 10
-69.952956
 20
-165.126604
 30
0.0
 11
-65.152956
 21
-165.126604
 31
0.0
  0
LINE
  8
2
 62
     2
  5
953
 10
-80.452817
 20
-170.925982
 30
0.0
 11
-80.452817
 21
-167.925982
 31
0.0
  0
LINE
  8
2
 62
     2
  5
954
 10
-67.453096
 20
-161.926604
 30
0.0
 11
-67.453096
 21
-158.926604
 31
0.0
  0
LINE
  8
2
 62
     2
  5
955
 10
-80.452817
 20
-161.926604
 30
0.0
 11
-80.452817
 21
-158.926604
 31
0.0
  0
LINE
  8
2
  5
956
 10
-83.952956
 20
-172.326604
 30
0.0
 11
-83.952956
 21
-181.126604
 31
0.0
  0
LINE
  8
2
  5
957
 10
-63.952956
 20
-172.326604
 30
0.0
 11
-63.952956
 21
-181.126604
 31
0.0
  0
LINE
  8
2
  5
958
 10
-85.952956
 20
-181.126604
 30
0.0
 11
-61.952956
 21
-181.126604
 31
0.0
  0
LINE
  8
2
  5
959
 10
-86.952956
 20
-182.126604
 30
0.0
 11
-86.952956
 21
-191.126604
 31
0.0
  0
LINE
  8
2
  5
95A
 10
-85.952956
 20
-181.126604
 30
0.0
 11
-86.952956
 21
-182.126604
 31
0.0
  0
LINE
  8
2
  5
95B
 10
-60.952956
 20
-182.126604
 30
0.0
 11
-60.952956
 21
-191.126604
 31
0.0
  0
LINE
  8
2
  5
95C
 10
-61.952956
 20
-181.126604
 30
0.0
 11
-60.952956
 21
-182.126604
 31
0.0
  0
LINE
  8
2
  5
95D
 10
-67.024566
 20
-191.126604
 30
0.0
 11
-67.024566
 21
-182.126604
 31
0.0
  0
LINE
  8
2
  5
95E
 10
-80.881347
 20
-191.126604
 30
0.0
 11
-80.881347
 21
-182.126604
 31
0.0
  0
ARC
  8
2
  5
95F
 10
-73.952956
 20
-205.6279
 30
0.0
 40
24.501296
 50
73.574016
 51
106.425984
  0
ARC
  8
2
  5
960
 10
-83.917151
 20
-186.234659
 30
0.0
 40
5.108056
 50
53.536034
 51
126.463966
  0
ARC
  8
2
  5
961
 10
-63.988761
 20
-186.234659
 30
0.0
 40
5.108056
 50
53.536034
 51
126.463966
  0
LINE
  8
2
  5
962
 10
-86.952956
 20
-182.126604
 30
0.0
 11
-86.952956
 21
-190.126604
 31
0.0
  0
LINE
  8
2
  5
963
 10
-85.952956
 20
-192.126604
 30
0.0
 11
-86.952956
 21
-191.126604
 31
0.0
  0
LINE
  8
2
  5
964
 10
-60.952956
 20
-182.126604
 30
0.0
 11
-60.952956
 21
-190.126604
 31
0.0
  0
LINE
  8
2
  5
965
 10
-61.952956
 20
-192.126604
 30
0.0
 11
-60.952956
 21
-191.126604
 31
0.0
  0
LINE
  8
2
  5
966
 10
-85.952956
 20
-192.126604
 30
0.0
 11
-61.952956
 21
-192.126604
 31
0.0
  0
LINE
  8
2
  5
967
 10
-67.024566
 20
-190.126604
 30
0.0
 11
-67.024566
 21
-182.126604
 31
0.0
  0
LINE
  8
2
  5
968
 10
-80.881347
 20
-190.126604
 30
0.0
 11
-80.881347
 21
-182.126604
 31
0.0
  0
ARC
  8
2
  5
969
 10
-73.952956
 20
-167.625308
 30
0.0
 40
24.501296
 50
253.574016
 51
286.425984
  0
ARC
  8
2
  5
96A
 10
-63.988761
 20
-187.018548
 30
0.0
 40
5.108056
 50
233.536034
 51
306.463966
  0
ARC
  8
2
  5
96B
 10
-83.917151
 20
-187.018548
 30
0.0
 40
5.108056
 50
233.536034
 51
306.463966
  0
LINE
  8
2
  6
CENTER
 62
     2
  5
96C
 10
-73.952363
 20
-91.055919
 30
0.0
 11
-73.952363
 21
-110.115314
 31
0.0
  0
LINE
  8
2
  6
CENTER
 62
     2
  5
96D
 10
-73.952363
 20
-91.055919
 30
0.0
 11
-132.086101
 21
-195.722031
 31
0.0
  0
LINE
  8
2
  6
CENTER
 62
     2
  5
96E
 10
-204.219838
 20
-81.055919
 30
0.0
 11
-146.086101
 21
-187.218694
 31
0.0
  0
LINE
  8
2
  5
96F
 10
-152.086101
 20
-121.330015
 30
0.0
 11
-152.086101
 21
-116.007366
 31
0.0
  0
LINE
  8
2
  5
970
 10
-140.086101
 20
-121.330015
 30
0.0
 11
-140.086101
 21
-116.007366
 31
0.0
  0
LINE
  8
2
  5
971
 10
-143.688185
 20
-116.007366
 30
0.0
 11
-143.688185
 21
-121.330015
 31
0.0
  0
LINE
  8
2
  5
972
 10
-142.521919
 20
-116.007366
 30
0.0
 11
-142.521919
 21
-121.330015
 31
0.0
  0
LINE
  8
2
  5
973
 10
-140.124003
 20
-116.007366
 30
0.0
 11
-140.124003
 21
-121.330015
 31
0.0
  0
LINE
  8
2
  5
974
 10
-140.586101
 20
-121.618691
 30
0.0
 11
-140.086101
 21
-121.330015
 31
0.0
  0
LINE
  8
2
  5
975
 10
-142.521919
 20
-121.330015
 30
0.0
 11
-143.688185
 21
-121.330015
 31
0.0
  0
LINE
  8
2
  5
976
 10
-152.086101
 20
-121.330015
 30
0.0
 11
-151.586101
 21
-121.618691
 31
0.0
  0
ARC
  8
2
  5
977
 10
-146.086101
 20
-111.515061
 30
0.0
 40
10.10363
 50
270.0
 51
283.729133
  0
ARC
  8
2
  5
978
 10
-146.086101
 20
-125.82232
 30
0.0
 40
10.10363
 50
76.270867
 51
90.0
  0
LINE
  8
2
  5
979
 10
-142.521919
 20
-116.007366
 30
0.0
 11
-143.688185
 21
-116.007366
 31
0.0
  0
ARC
  8
2
  5
97A
 10
-141.322961
 20
-118.98453
 30
0.0
 40
2.634161
 50
242.924933
 51
297.075067
  0
ARC
  8
2
  5
97B
 10
-141.322961
 20
-118.352851
 30
0.0
 40
2.634161
 50
62.924933
 51
117.075067
  0
LINE
  8
2
  5
97C
 10
-140.586101
 20
-115.718691
 30
0.0
 11
-140.086101
 21
-116.007366
 31
0.0
  0
ARC
  8
2
  5
97D
 10
-146.086101
 20
-111.515061
 30
0.0
 40
10.10363
 50
256.270867
 51
270.0
  0
LINE
  8
2
  5
97E
 10
-149.650283
 20
-121.330015
 30
0.0
 11
-148.484016
 21
-121.330015
 31
0.0
  0
ARC
  8
2
  5
97F
 10
-150.84924
 20
-118.98453
 30
0.0
 40
2.634161
 50
242.924933
 51
297.075067
  0
LINE
  8
2
  5
980
 10
-152.048198
 20
-121.330015
 30
0.0
 11
-152.086101
 21
-121.330015
 31
0.0
  0
LINE
  8
2
  5
981
 10
-151.586101
 20
-121.618691
 30
0.0
 11
-140.586101
 21
-121.618691
 31
0.0
  0
LINE
  8
2
  5
982
 10
-152.686101
 20
-150.618691
 30
0.0
 11
-146.086101
 21
-150.618691
 31
0.0
  0
LINE
  8
2
  5
983
 10
-152.686101
 20
-145.118691
 30
0.0
 11
-146.086101
 21
-145.118691
 31
0.0
  0
LINE
  8
2
  5
984
 10
-152.686101
 20
-143.118691
 30
0.0
 11
-146.086101
 21
-143.118691
 31
0.0
  0
LINE
  8
2
  5
985
 10
-152.686101
 20
-138.118691
 30
0.0
 11
-146.086101
 21
-138.118691
 31
0.0
  0
LINE
  8
2
  5
986
 10
-152.686101
 20
-136.118691
 30
0.0
 11
-146.086101
 21
-136.118691
 31
0.0
  0
LINE
  8
2
  5
987
 10
-152.686101
 20
-131.118691
 30
0.0
 11
-146.086101
 21
-131.118691
 31
0.0
  0
LINE
  8
2
  5
988
 10
-152.686101
 20
-129.118691
 30
0.0
 11
-146.086101
 21
-129.118691
 31
0.0
  0
LINE
  8
2
  5
989
 10
-153.086101
 20
-149.818691
 30
0.0
 11
-153.086101
 21
-145.918691
 31
0.0
  0
LINE
  8
2
  5
98A
 10
-153.086101
 20
-142.318691
 30
0.0
 11
-153.086101
 21
-138.918691
 31
0.0
  0
LINE
  8
2
  5
98B
 10
-153.086101
 20
-135.318691
 30
0.0
 11
-153.086101
 21
-131.918691
 31
0.0
  0
LINE
  8
2
  5
98C
 10
-153.086101
 20
-128.318691
 30
0.0
 11
-153.086101
 21
-122.418691
 31
0.0
  0
LINE
  8
2
  5
98D
 10
-152.686101
 20
-131.118691
 30
0.0
 11
-152.686101
 21
-129.118691
 31
0.0
  0
LINE
  8
2
  5
98E
 10
-152.686101
 20
-145.118691
 30
0.0
 11
-152.686101
 21
-143.118691
 31
0.0
  0
LINE
  8
2
  5
98F
 10
-152.686101
 20
-138.118691
 30
0.0
 11
-152.686101
 21
-136.118691
 31
0.0
  0
ARC
  8
2
  5
990
 10
-152.086101
 20
-128.318691
 30
0.0
 40
1.0
 50
180.0
 51
233.130102
  0
ARC
  8
2
  5
991
 10
-152.086101
 20
-131.918691
 30
0.0
 40
1.0
 50
126.869898
 51
180.0
  0
ARC
  8
2
  5
992
 10
-152.086101
 20
-135.318691
 30
0.0
 40
1.0
 50
180.0
 51
233.130102
  0
ARC
  8
2
  5
993
 10
-152.086101
 20
-138.918691
 30
0.0
 40
1.0
 50
126.869898
 51
180.0
  0
ARC
  8
2
  5
994
 10
-152.086101
 20
-142.318691
 30
0.0
 40
1.0
 50
180.0
 51
233.130102
  0
ARC
  8
2
  5
995
 10
-152.086101
 20
-145.918691
 30
0.0
 40
1.0
 50
126.869898
 51
180.0
  0
ARC
  8
2
  5
996
 10
-152.086101
 20
-149.818691
 30
0.0
 40
1.0
 50
180.0
 51
233.130102
  0
LINE
  8
2
  5
997
 10
-139.486101
 20
-150.618691
 30
0.0
 11
-146.086101
 21
-150.618691
 31
0.0
  0
ARC
  8
2
  5
998
 10
-140.086101
 20
-149.818691
 30
0.0
 40
1.0
 50
306.869898
 51
360.0
  0
LINE
  8
2
  5
999
 10
-139.086101
 20
-149.818691
 30
0.0
 11
-139.086101
 21
-145.918691
 31
0.0
  0
ARC
  8
2
  5
99A
 10
-140.086101
 20
-145.918691
 30
0.0
 40
1.0
 50
360.0
 51
53.130102
  0
LINE
  8
2
  5
99B
 10
-139.486101
 20
-145.118691
 30
0.0
 11
-139.486101
 21
-143.118691
 31
0.0
  0
LINE
  8
2
  5
99C
 10
-139.486101
 20
-145.118691
 30
0.0
 11
-146.086101
 21
-145.118691
 31
0.0
  0
LINE
  8
2
  5
99D
 10
-139.486101
 20
-143.118691
 30
0.0
 11
-146.086101
 21
-143.118691
 31
0.0
  0
ARC
  8
2
  5
99E
 10
-140.086101
 20
-142.318691
 30
0.0
 40
1.0
 50
306.869898
 51
360.0
  0
LINE
  8
2
  5
99F
 10
-139.086101
 20
-142.318691
 30
0.0
 11
-139.086101
 21
-138.918691
 31
0.0
  0
ARC
  8
2
  5
9A0
 10
-140.086101
 20
-138.918691
 30
0.0
 40
1.0
 50
360.0
 51
53.130102
  0
LINE
  8
2
  5
9A1
 10
-139.486101
 20
-138.118691
 30
0.0
 11
-146.086101
 21
-138.118691
 31
0.0
  0
LINE
  8
2
  5
9A2
 10
-139.486101
 20
-138.118691
 30
0.0
 11
-139.486101
 21
-136.118691
 31
0.0
  0
LINE
  8
2
  5
9A3
 10
-139.486101
 20
-136.118691
 30
0.0
 11
-146.086101
 21
-136.118691
 31
0.0
  0
ARC
  8
2
  5
9A4
 10
-140.086101
 20
-135.318691
 30
0.0
 40
1.0
 50
306.869898
 51
360.0
  0
LINE
  8
2
  5
9A5
 10
-139.086101
 20
-135.318691
 30
0.0
 11
-139.086101
 21
-131.918691
 31
0.0
  0
ARC
  8
2
  5
9A6
 10
-140.086101
 20
-131.918691
 30
0.0
 40
1.0
 50
360.0
 51
53.130102
  0
LINE
  8
2
  5
9A7
 10
-139.486101
 20
-131.118691
 30
0.0
 11
-146.086101
 21
-131.118691
 31
0.0
  0
LINE
  8
2
  5
9A8
 10
-139.486101
 20
-131.118691
 30
0.0
 11
-139.486101
 21
-129.118691
 31
0.0
  0
LINE
  8
2
  5
9A9
 10
-139.486101
 20
-129.118691
 30
0.0
 11
-146.086101
 21
-129.118691
 31
0.0
  0
ARC
  8
2
  5
9AA
 10
-140.086101
 20
-128.318691
 30
0.0
 40
1.0
 50
306.869898
 51
360.0
  0
LINE
  8
2
  5
9AB
 10
-139.086101
 20
-128.318691
 30
0.0
 11
-139.086101
 21
-122.418691
 31
0.0
  0
ARC
  8
2
  5
9AC
 10
-140.086101
 20
-122.418691
 30
0.0
 40
1.0
 50
360.0
 51
53.130102
  0
LINE
  8
2
  5
9AD
 10
-152.686101
 20
-121.618691
 30
0.0
 11
-139.486101
 21
-121.618691
 31
0.0
  0
ARC
  8
2
  5
9AE
 10
-152.086101
 20
-122.418691
 30
0.0
 40
1.0
 50
126.869898
 51
180.0
  0
LINE
  8
2
  5
9AF
 10
-152.536101
 20
-157.966697
 30
0.0
 11
-152.536101
 21
-150.618691
 31
0.0
  0
LINE
  8
2
  5
9B0
 10
-139.636101
 20
-157.966697
 30
0.0
 11
-139.636101
 21
-150.618691
 31
0.0
  0
ARC
  8
2
  5
9B1
 10
-146.086101
 20
-125.82232
 30
0.0
 40
10.10363
 50
90.0
 51
103.729133
  0
LINE
  8
2
  5
9B2
 10
-149.650283
 20
-116.007366
 30
0.0
 11
-148.484016
 21
-116.007366
 31
0.0
  0
ARC
  8
2
  5
9B3
 10
-150.84924
 20
-118.352851
 30
0.0
 40
2.634161
 50
62.924933
 51
117.075067
  0
LINE
  8
2
  5
9B4
 10
-148.484016
 20
-116.007366
 30
0.0
 11
-148.484016
 21
-121.330015
 31
0.0
  0
LINE
  8
2
  5
9B5
 10
-149.650283
 20
-116.007366
 30
0.0
 11
-149.650283
 21
-121.330015
 31
0.0
  0
LINE
  8
2
  5
9B6
 10
-152.048198
 20
-116.007366
 30
0.0
 11
-152.048198
 21
-121.330015
 31
0.0
  0
ARC
  8
2
  5
9B7
 10
-149.311055
 20
-153.666637
 30
0.0
 40
5.375075
 50
233.130102
 51
306.869898
  0
ARC
  8
2
  5
9B8
 10
-142.860965
 20
-162.266758
 30
0.0
 40
5.375075
 50
53.130102
 51
126.869898
  0
ARC
  8
2
  5
9B9
 10
-149.311055
 20
-162.266758
 30
0.0
 40
5.375075
 50
53.130102
 51
126.869898
  0
LINE
  8
2
  5
9BA
 10
-151.586101
 20
-115.718691
 30
0.0
 11
-152.086101
 21
-116.007366
 31
0.0
  0
LINE
  8
2
  5
9BB
 10
-138.086101
 20
-131.330015
 30
0.0
 11
-138.086101
 21
-126.007366
 31
0.0
  0
LINE
  8
2
  5
9BC
 10
-126.086101
 20
-131.330015
 30
0.0
 11
-126.086101
 21
-126.007366
 31
0.0
  0
LINE
  8
2
  5
9BD
 10
-129.688185
 20
-126.007366
 30
0.0
 11
-129.688185
 21
-131.330015
 31
0.0
  0
LINE
  8
2
  5
9BE
 10
-128.521919
 20
-126.007366
 30
0.0
 11
-128.521919
 21
-131.330015
 31
0.0
  0
LINE
  8
2
  5
9BF
 10
-126.124003
 20
-126.007366
 30
0.0
 11
-126.124003
 21
-131.330015
 31
0.0
  0
LINE
  8
2
  5
9C0
 10
-126.586101
 20
-131.618691
 30
0.0
 11
-126.086101
 21
-131.330015
 31
0.0
  0
LINE
  8
2
  5
9C1
 10
-128.521919
 20
-131.330015
 30
0.0
 11
-129.688185
 21
-131.330015
 31
0.0
  0
LINE
  8
2
  5
9C2
 10
-138.086101
 20
-131.330015
 30
0.0
 11
-137.586101
 21
-131.618691
 31
0.0
  0
ARC
  8
2
  5
9C3
 10
-132.086101
 20
-121.515061
 30
0.0
 40
10.10363
 50
270.0
 51
283.729133
  0
ARC
  8
2
  5
9C4
 10
-132.086101
 20
-135.82232
 30
0.0
 40
10.10363
 50
76.270867
 51
90.0
  0
LINE
  8
2
  5
9C5
 10
-128.521919
 20
-126.007366
 30
0.0
 11
-129.688185
 21
-126.007366
 31
0.0
  0
LINE
  8
2
  5
9C6
 10
-126.086101
 20
-131.330015
 30
0.0
 11
-126.124003
 21
-131.330015
 31
0.0
  0
ARC
  8
2
  5
9C7
 10
-127.322961
 20
-128.98453
 30
0.0
 40
2.634161
 50
242.924933
 51
297.075067
  0
ARC
  8
2
  5
9C8
 10
-127.322961
 20
-128.352851
 30
0.0
 40
2.634161
 50
62.924933
 51
117.075067
  0
LINE
  8
2
  5
9C9
 10
-126.586101
 20
-125.718691
 30
0.0
 11
-126.086101
 21
-126.007366
 31
0.0
  0
ARC
  8
2
  5
9CA
 10
-132.086101
 20
-121.515061
 30
0.0
 40
10.10363
 50
256.270867
 51
270.0
  0
LINE
  8
2
  5
9CB
 10
-135.650283
 20
-131.330015
 30
0.0
 11
-134.484016
 21
-131.330015
 31
0.0
  0
ARC
  8
2
  5
9CC
 10
-136.84924
 20
-128.98453
 30
0.0
 40
2.634161
 50
242.924933
 51
297.075067
  0
LINE
  8
2
  5
9CD
 10
-138.048198
 20
-131.330015
 30
0.0
 11
-138.086101
 21
-131.330015
 31
0.0
  0
LINE
  8
2
  5
9CE
 10
-137.586101
 20
-131.618691
 30
0.0
 11
-126.586101
 21
-131.618691
 31
0.0
  0
LINE
  8
2
  5
9CF
 10
-138.686101
 20
-160.618691
 30
0.0
 11
-132.086101
 21
-160.618691
 31
0.0
  0
LINE
  8
2
  5
9D0
 10
-138.686101
 20
-155.118691
 30
0.0
 11
-132.086101
 21
-155.118691
 31
0.0
  0
LINE
  8
2
  5
9D1
 10
-138.686101
 20
-153.118691
 30
0.0
 11
-132.086101
 21
-153.118691
 31
0.0
  0
LINE
  8
2
  5
9D2
 10
-138.686101
 20
-148.118691
 30
0.0
 11
-132.086101
 21
-148.118691
 31
0.0
  0
LINE
  8
2
  5
9D3
 10
-138.686101
 20
-146.118691
 30
0.0
 11
-132.086101
 21
-146.118691
 31
0.0
  0
LINE
  8
2
  5
9D4
 10
-138.686101
 20
-141.118691
 30
0.0
 11
-132.086101
 21
-141.118691
 31
0.0
  0
LINE
  8
2
  5
9D5
 10
-138.686101
 20
-139.118691
 30
0.0
 11
-132.086101
 21
-139.118691
 31
0.0
  0
LINE
  8
2
  5
9D6
 10
-139.086101
 20
-159.818691
 30
0.0
 11
-139.086101
 21
-155.918691
 31
0.0
  0
LINE
  8
2
  5
9D7
 10
-139.086101
 20
-152.318691
 30
0.0
 11
-139.086101
 21
-148.918691
 31
0.0
  0
LINE
  8
2
  5
9D8
 10
-139.086101
 20
-145.318691
 30
0.0
 11
-139.086101
 21
-141.918691
 31
0.0
  0
LINE
  8
2
  5
9D9
 10
-139.086101
 20
-138.318691
 30
0.0
 11
-139.086101
 21
-132.418691
 31
0.0
  0
LINE
  8
2
  5
9DA
 10
-138.686101
 20
-141.118691
 30
0.0
 11
-138.686101
 21
-139.118691
 31
0.0
  0
LINE
  8
2
  5
9DB
 10
-138.686101
 20
-155.118691
 30
0.0
 11
-138.686101
 21
-153.118691
 31
0.0
  0
LINE
  8
2
  5
9DC
 10
-138.686101
 20
-148.118691
 30
0.0
 11
-138.686101
 21
-146.118691
 31
0.0
  0
ARC
  8
2
  5
9DD
 10
-138.086101
 20
-138.318691
 30
0.0
 40
1.0
 50
180.0
 51
233.130102
  0
ARC
  8
2
  5
9DE
 10
-138.086101
 20
-141.918691
 30
0.0
 40
1.0
 50
126.869898
 51
180.0
  0
ARC
  8
2
  5
9DF
 10
-138.086101
 20
-145.318691
 30
0.0
 40
1.0
 50
180.0
 51
233.130102
  0
ARC
  8
2
  5
9E0
 10
-138.086101
 20
-148.918691
 30
0.0
 40
1.0
 50
126.869898
 51
180.0
  0
ARC
  8
2
  5
9E1
 10
-138.086101
 20
-152.318691
 30
0.0
 40
1.0
 50
180.0
 51
233.130102
  0
ARC
  8
2
  5
9E2
 10
-138.086101
 20
-155.918691
 30
0.0
 40
1.0
 50
126.869898
 51
180.0
  0
ARC
  8
2
  5
9E3
 10
-138.086101
 20
-159.818691
 30
0.0
 40
1.0
 50
180.0
 51
233.130102
  0
LINE
  8
2
  5
9E4
 10
-125.486101
 20
-160.618691
 30
0.0
 11
-132.086101
 21
-160.618691
 31
0.0
  0
ARC
  8
2
  5
9E5
 10
-126.086101
 20
-159.818691
 30
0.0
 40
1.0
 50
306.869898
 51
360.0
  0
LINE
  8
2
  5
9E6
 10
-125.086101
 20
-159.818691
 30
0.0
 11
-125.086101
 21
-155.918691
 31
0.0
  0
ARC
  8
2
  5
9E7
 10
-126.086101
 20
-155.918691
 30
0.0
 40
1.0
 50
360.0
 51
53.130102
  0
LINE
  8
2
  5
9E8
 10
-125.486101
 20
-155.118691
 30
0.0
 11
-125.486101
 21
-153.118691
 31
0.0
  0
LINE
  8
2
  5
9E9
 10
-125.486101
 20
-155.118691
 30
0.0
 11
-132.086101
 21
-155.118691
 31
0.0
  0
LINE
  8
2
  5
9EA
 10
-125.486101
 20
-153.118691
 30
0.0
 11
-132.086101
 21
-153.118691
 31
0.0
  0
ARC
  8
2
  5
9EB
 10
-126.086101
 20
-152.318691
 30
0.0
 40
1.0
 50
306.869898
 51
360.0
  0
LINE
  8
2
  5
9EC
 10
-125.086101
 20
-152.318691
 30
0.0
 11
-125.086101
 21
-148.918691
 31
0.0
  0
ARC
  8
2
  5
9ED
 10
-126.086101
 20
-148.918691
 30
0.0
 40
1.0
 50
360.0
 51
53.130102
  0
LINE
  8
2
  5
9EE
 10
-125.486101
 20
-148.118691
 30
0.0
 11
-132.086101
 21
-148.118691
 31
0.0
  0
LINE
  8
2
  5
9EF
 10
-125.486101
 20
-148.118691
 30
0.0
 11
-125.486101
 21
-146.118691
 31
0.0
  0
LINE
  8
2
  5
9F0
 10
-125.486101
 20
-146.118691
 30
0.0
 11
-132.086101
 21
-146.118691
 31
0.0
  0
ARC
  8
2
  5
9F1
 10
-126.086101
 20
-145.318691
 30
0.0
 40
1.0
 50
306.869898
 51
360.0
  0
LINE
  8
2
  5
9F2
 10
-125.086101
 20
-145.318691
 30
0.0
 11
-125.086101
 21
-141.918691
 31
0.0
  0
ARC
  8
2
  5
9F3
 10
-126.086101
 20
-141.918691
 30
0.0
 40
1.0
 50
360.0
 51
53.130102
  0
LINE
  8
2
  5
9F4
 10
-125.486101
 20
-141.118691
 30
0.0
 11
-132.086101
 21
-141.118691
 31
0.0
  0
LINE
  8
2
  5
9F5
 10
-125.486101
 20
-141.118691
 30
0.0
 11
-125.486101
 21
-139.118691
 31
0.0
  0
LINE
  8
2
  5
9F6
 10
-125.486101
 20
-139.118691
 30
0.0
 11
-132.086101
 21
-139.118691
 31
0.0
  0
ARC
  8
2
  5
9F7
 10
-126.086101
 20
-138.318691
 30
0.0
 40
1.0
 50
306.869898
 51
360.0
  0
LINE
  8
2
  5
9F8
 10
-125.086101
 20
-138.318691
 30
0.0
 11
-125.086101
 21
-132.418691
 31
0.0
  0
ARC
  8
2
  5
9F9
 10
-126.086101
 20
-132.418691
 30
0.0
 40
1.0
 50
360.0
 51
53.130102
  0
LINE
  8
2
  5
9FA
 10
-138.686101
 20
-131.618691
 30
0.0
 11
-125.486101
 21
-131.618691
 31
0.0
  0
ARC
  8
2
  5
9FB
 10
-138.086101
 20
-132.418691
 30
0.0
 40
1.0
 50
126.869898
 51
180.0
  0
LINE
  8
2
  5
9FC
 10
-138.536101
 20
-167.966697
 30
0.0
 11
-138.536101
 21
-160.618691
 31
0.0
  0
LINE
  8
2
  5
9FD
 10
-125.636101
 20
-167.966697
 30
0.0
 11
-125.636101
 21
-160.618691
 31
0.0
  0
ARC
  8
2
  5
9FE
 10
-132.086101
 20
-135.82232
 30
0.0
 40
10.10363
 50
90.0
 51
103.729133
  0
LINE
  8
2
  5
9FF
 10
-135.650283
 20
-126.007366
 30
0.0
 11
-134.484016
 21
-126.007366
 31
0.0
  0
ARC
  8
2
  5
A00
 10
-136.84924
 20
-128.352851
 30
0.0
 40
2.634161
 50
62.924933
 51
117.075067
  0
LINE
  8
2
  5
A01
 10
-134.484016
 20
-126.007366
 30
0.0
 11
-134.484016
 21
-131.330015
 31
0.0
  0
LINE
  8
2
  5
A02
 10
-135.650283
 20
-126.007366
 30
0.0
 11
-135.650283
 21
-131.330015
 31
0.0
  0
LINE
  8
2
  5
A03
 10
-138.048198
 20
-126.007366
 30
0.0
 11
-138.048198
 21
-131.330015
 31
0.0
  0
ARC
  8
2
  5
A04
 10
-135.311055
 20
-163.666637
 30
0.0
 40
5.375075
 50
233.130102
 51
306.869898
  0
ARC
  8
2
  5
A05
 10
-128.860965
 20
-172.266758
 30
0.0
 40
5.375075
 50
53.130102
 51
126.869898
  0
ARC
  8
2
  5
A06
 10
-135.311055
 20
-172.266758
 30
0.0
 40
5.375075
 50
53.130102
 51
126.869898
  0
LINE
  8
2
  5
A07
 10
-137.586101
 20
-125.718691
 30
0.0
 11
-138.086101
 21
-126.007366
 31
0.0
  0
LINE
  8
2
  5
A08
 10
-204.219584
 20
-146.125506
 30
0.0
 11
-210.819838
 21
-146.125506
 31
0.0
  0
LINE
  8
2
  5
A09
 10
-204.219584
 20
-146.125506
 30
0.0
 11
-197.619838
 21
-146.125506
 31
0.0
  0
LINE
  8
2
  5
A0A
 10
-210.819838
 20
-117.125506
 30
0.0
 11
-204.219838
 21
-117.125506
 31
0.0
  0
LINE
  8
2
  5
A0B
 10
-210.819838
 20
-122.625506
 30
0.0
 11
-204.219838
 21
-122.625506
 31
0.0
  0
LINE
  8
2
  5
A0C
 10
-210.819838
 20
-124.625506
 30
0.0
 11
-204.219838
 21
-124.625506
 31
0.0
  0
LINE
  8
2
  5
A0D
 10
-210.819838
 20
-129.625506
 30
0.0
 11
-204.219838
 21
-129.625506
 31
0.0
  0
LINE
  8
2
  5
A0E
 10
-210.819838
 20
-131.625506
 30
0.0
 11
-204.219838
 21
-131.625506
 31
0.0
  0
LINE
  8
2
  5
A0F
 10
-210.819838
 20
-136.625506
 30
0.0
 11
-204.219838
 21
-136.625506
 31
0.0
  0
LINE
  8
2
  5
A10
 10
-210.819838
 20
-138.625506
 30
0.0
 11
-204.219838
 21
-138.625506
 31
0.0
  0
LINE
  8
2
  5
A11
 10
-211.219838
 20
-117.925506
 30
0.0
 11
-211.219838
 21
-121.825506
 31
0.0
  0
LINE
  8
2
  5
A12
 10
-211.219838
 20
-125.425506
 30
0.0
 11
-211.219838
 21
-128.825506
 31
0.0
  0
LINE
  8
2
  5
A13
 10
-211.219838
 20
-132.425506
 30
0.0
 11
-211.219838
 21
-135.825506
 31
0.0
  0
LINE
  8
2
  5
A14
 10
-211.219838
 20
-139.425506
 30
0.0
 11
-211.219838
 21
-145.325506
 31
0.0
  0
LINE
  8
2
  5
A15
 10
-210.819838
 20
-136.625506
 30
0.0
 11
-210.819838
 21
-138.625506
 31
0.0
  0
LINE
  8
2
  5
A16
 10
-210.819838
 20
-122.625506
 30
0.0
 11
-210.819838
 21
-124.625506
 31
0.0
  0
LINE
  8
2
  5
A17
 10
-210.819838
 20
-129.625506
 30
0.0
 11
-210.819838
 21
-131.625506
 31
0.0
  0
ARC
  8
2
  5
A18
 10
-210.219838
 20
-139.425506
 30
0.0
 40
1.0
 50
126.869898
 51
180.0
  0
ARC
  8
2
  5
A19
 10
-210.219838
 20
-135.825506
 30
0.0
 40
1.0
 50
180.0
 51
233.130102
  0
ARC
  8
2
  5
A1A
 10
-210.219838
 20
-132.425506
 30
0.0
 40
1.0
 50
126.869898
 51
180.0
  0
ARC
  8
2
  5
A1B
 10
-210.219838
 20
-128.825506
 30
0.0
 40
1.0
 50
180.0
 51
233.130102
  0
ARC
  8
2
  5
A1C
 10
-210.219838
 20
-125.425506
 30
0.0
 40
1.0
 50
126.869898
 51
180.0
  0
ARC
  8
2
  5
A1D
 10
-210.219838
 20
-121.825506
 30
0.0
 40
1.0
 50
180.0
 51
233.130102
  0
ARC
  8
2
  5
A1E
 10
-210.219838
 20
-117.925506
 30
0.0
 40
1.0
 50
126.869898
 51
180.0
  0
LINE
  8
2
  5
A1F
 10
-197.619838
 20
-117.125506
 30
0.0
 11
-204.219838
 21
-117.125506
 31
0.0
  0
ARC
  8
2
  5
A20
 10
-198.219838
 20
-117.925506
 30
0.0
 40
1.0
 50
0.0
 51
53.130102
  0
LINE
  8
2
  5
A21
 10
-197.219838
 20
-117.925506
 30
0.0
 11
-197.219838
 21
-121.825506
 31
0.0
  0
ARC
  8
2
  5
A22
 10
-198.219838
 20
-121.825506
 30
0.0
 40
1.0
 50
306.869898
 51
0.0
  0
LINE
  8
2
  5
A23
 10
-197.619838
 20
-122.625506
 30
0.0
 11
-197.619838
 21
-124.625506
 31
0.0
  0
LINE
  8
2
  5
A24
 10
-197.619838
 20
-122.625506
 30
0.0
 11
-204.219838
 21
-122.625506
 31
0.0
  0
LINE
  8
2
  5
A25
 10
-197.619838
 20
-124.625506
 30
0.0
 11
-204.219838
 21
-124.625506
 31
0.0
  0
ARC
  8
2
  5
A26
 10
-198.219838
 20
-125.425506
 30
0.0
 40
1.0
 50
0.0
 51
53.130102
  0
LINE
  8
2
  5
A27
 10
-197.219838
 20
-125.425506
 30
0.0
 11
-197.219838
 21
-128.825506
 31
0.0
  0
ARC
  8
2
  5
A28
 10
-198.219838
 20
-128.825506
 30
0.0
 40
1.0
 50
306.869898
 51
0.0
  0
LINE
  8
2
  5
A29
 10
-197.619838
 20
-129.625506
 30
0.0
 11
-204.219838
 21
-129.625506
 31
0.0
  0
LINE
  8
2
  5
A2A
 10
-197.619838
 20
-129.625506
 30
0.0
 11
-197.619838
 21
-131.625506
 31
0.0
  0
LINE
  8
2
  5
A2B
 10
-197.619838
 20
-131.625506
 30
0.0
 11
-204.219838
 21
-131.625506
 31
0.0
  0
ARC
  8
2
  5
A2C
 10
-198.219838
 20
-132.425506
 30
0.0
 40
1.0
 50
0.0
 51
53.130102
  0
LINE
  8
2
  5
A2D
 10
-197.219838
 20
-132.425506
 30
0.0
 11
-197.219838
 21
-135.825506
 31
0.0
  0
ARC
  8
2
  5
A2E
 10
-198.219838
 20
-135.825506
 30
0.0
 40
1.0
 50
306.869898
 51
0.0
  0
LINE
  8
2
  5
A2F
 10
-197.619838
 20
-136.625506
 30
0.0
 11
-204.219838
 21
-136.625506
 31
0.0
  0
LINE
  8
2
  5
A30
 10
-197.619838
 20
-136.625506
 30
0.0
 11
-197.619838
 21
-138.625506
 31
0.0
  0
LINE
  8
2
  5
A31
 10
-197.619838
 20
-138.625506
 30
0.0
 11
-204.219838
 21
-138.625506
 31
0.0
  0
ARC
  8
2
  5
A32
 10
-198.219838
 20
-139.425506
 30
0.0
 40
1.0
 50
0.0
 51
53.130102
  0
LINE
  8
2
  5
A33
 10
-197.219838
 20
-139.425506
 30
0.0
 11
-197.219838
 21
-145.325506
 31
0.0
  0
ARC
  8
2
  5
A34
 10
-210.219838
 20
-145.325506
 30
0.0
 40
1.0
 50
180.0
 51
233.130102
  0
ARC
  8
2
  5
A35
 10
-198.219838
 20
-145.325506
 30
0.0
 40
1.0
 50
306.869898
 51
0.0
  0
LINE
  8
2
  5
A36
 10
-210.669838
 20
-117.125506
 30
0.0
 11
-210.669838
 21
-98.614689
 31
0.0
  0
LINE
  8
2
  5
A37
 10
-197.769838
 20
-117.125506
 30
0.0
 11
-197.769838
 21
-98.614689
 31
0.0
  0
LINE
  8
2
  5
A38
 10
-210.469838
 20
-147.125506
 30
0.0
 11
-210.469838
 21
-146.125506
 31
0.0
  0
LINE
  8
2
  5
A39
 10
-197.969838
 20
-147.125506
 30
0.0
 11
-197.969838
 21
-146.125506
 31
0.0
  0
ARC
  8
2
  5
A3A
 10
-207.444838
 20
-94.314689
 30
0.0
 40
5.375
 50
233.130102
 51
306.869898
  0
ARC
  8
2
  5
A3B
 10
-200.994838
 20
-102.914689
 30
0.0
 40
5.375
 50
53.130102
 51
126.869898
  0
ARC
  8
2
  5
A3C
 10
-200.994838
 20
-94.314689
 30
0.0
 40
5.375
 50
233.130102
 51
306.869898
  0
LINE
  8
2
  5
A3D
 10
-73.952109
 20
-156.125506
 30
0.0
 11
-80.552363
 21
-156.125506
 31
0.0
  0
LINE
  8
2
  5
A3E
 10
-73.952109
 20
-156.125506
 30
0.0
 11
-67.352363
 21
-156.125506
 31
0.0
  0
LINE
  8
2
  5
A3F
 10
-80.552363
 20
-127.125506
 30
0.0
 11
-73.952363
 21
-127.125506
 31
0.0
  0
LINE
  8
2
  5
A40
 10
-80.552363
 20
-132.625506
 30
0.0
 11
-73.952363
 21
-132.625506
 31
0.0
  0
LINE
  8
2
  5
A41
 10
-80.552363
 20
-134.625506
 30
0.0
 11
-73.952363
 21
-134.625506
 31
0.0
  0
LINE
  8
2
  5
A42
 10
-80.552363
 20
-139.625506
 30
0.0
 11
-73.952363
 21
-139.625506
 31
0.0
  0
LINE
  8
2
  5
A43
 10
-80.552363
 20
-141.625506
 30
0.0
 11
-73.952363
 21
-141.625506
 31
0.0
  0
LINE
  8
2
  5
A44
 10
-80.552363
 20
-146.625506
 30
0.0
 11
-73.952363
 21
-146.625506
 31
0.0
  0
LINE
  8
2
  5
A45
 10
-80.552363
 20
-148.625506
 30
0.0
 11
-73.952363
 21
-148.625506
 31
0.0
  0
LINE
  8
2
  5
A46
 10
-80.952363
 20
-127.925506
 30
0.0
 11
-80.952363
 21
-131.825506
 31
0.0
  0
LINE
  8
2
  5
A47
 10
-80.952363
 20
-135.425506
 30
0.0
 11
-80.952363
 21
-138.825506
 31
0.0
  0
LINE
  8
2
  5
A48
 10
-80.952363
 20
-142.425506
 30
0.0
 11
-80.952363
 21
-145.825506
 31
0.0
  0
LINE
  8
2
  5
A49
 10
-80.952363
 20
-149.425506
 30
0.0
 11
-80.952363
 21
-155.325506
 31
0.0
  0
LINE
  8
2
  5
A4A
 10
-80.552363
 20
-146.625506
 30
0.0
 11
-80.552363
 21
-148.625506
 31
0.0
  0
LINE
  8
2
  5
A4B
 10
-80.552363
 20
-132.625506
 30
0.0
 11
-80.552363
 21
-134.625506
 31
0.0
  0
LINE
  8
2
  5
A4C
 10
-80.552363
 20
-139.625506
 30
0.0
 11
-80.552363
 21
-141.625506
 31
0.0
  0
ARC
  8
2
  5
A4D
 10
-79.952363
 20
-149.425506
 30
0.0
 40
1.0
 50
126.869898
 51
180.0
  0
ARC
  8
2
  5
A4E
 10
-79.952363
 20
-145.825506
 30
0.0
 40
1.0
 50
180.0
 51
233.130102
  0
ARC
  8
2
  5
A4F
 10
-79.952363
 20
-142.425506
 30
0.0
 40
1.0
 50
126.869898
 51
180.0
  0
ARC
  8
2
  5
A50
 10
-79.952363
 20
-138.825506
 30
0.0
 40
1.0
 50
180.0
 51
233.130102
  0
ARC
  8
2
  5
A51
 10
-79.952363
 20
-135.425506
 30
0.0
 40
1.0
 50
126.869898
 51
180.0
  0
ARC
  8
2
  5
A52
 10
-79.952363
 20
-131.825506
 30
0.0
 40
1.0
 50
180.0
 51
233.130102
  0
ARC
  8
2
  5
A53
 10
-79.952363
 20
-127.925506
 30
0.0
 40
1.0
 50
126.869898
 51
180.0
  0
LINE
  8
2
  5
A54
 10
-67.352363
 20
-127.125506
 30
0.0
 11
-73.952363
 21
-127.125506
 31
0.0
  0
ARC
  8
2
  5
A55
 10
-67.952363
 20
-127.925506
 30
0.0
 40
1.0
 50
0.0
 51
53.130102
  0
LINE
  8
2
  5
A56
 10
-66.952363
 20
-127.925506
 30
0.0
 11
-66.952363
 21
-131.825506
 31
0.0
  0
ARC
  8
2
  5
A57
 10
-67.952363
 20
-131.825506
 30
0.0
 40
1.0
 50
306.869898
 51
0.0
  0
LINE
  8
2
  5
A58
 10
-67.352363
 20
-132.625506
 30
0.0
 11
-67.352363
 21
-134.625506
 31
0.0
  0
LINE
  8
2
  5
A59
 10
-67.352363
 20
-132.625506
 30
0.0
 11
-73.952363
 21
-132.625506
 31
0.0
  0
LINE
  8
2
  5
A5A
 10
-67.352363
 20
-134.625506
 30
0.0
 11
-73.952363
 21
-134.625506
 31
0.0
  0
ARC
  8
2
  5
A5B
 10
-67.952363
 20
-135.425506
 30
0.0
 40
1.0
 50
0.0
 51
53.130102
  0
LINE
  8
2
  5
A5C
 10
-66.952363
 20
-135.425506
 30
0.0
 11
-66.952363
 21
-138.825506
 31
0.0
  0
ARC
  8
2
  5
A5D
 10
-67.952363
 20
-138.825506
 30
0.0
 40
1.0
 50
306.869898
 51
0.0
  0
LINE
  8
2
  5
A5E
 10
-67.352363
 20
-139.625506
 30
0.0
 11
-73.952363
 21
-139.625506
 31
0.0
  0
LINE
  8
2
  5
A5F
 10
-67.352363
 20
-139.625506
 30
0.0
 11
-67.352363
 21
-141.625506
 31
0.0
  0
LINE
  8
2
  5
A60
 10
-67.352363
 20
-141.625506
 30
0.0
 11
-73.952363
 21
-141.625506
 31
0.0
  0
ARC
  8
2
  5
A61
 10
-67.952363
 20
-142.425506
 30
0.0
 40
1.0
 50
0.0
 51
53.130102
  0
LINE
  8
2
  5
A62
 10
-66.952363
 20
-142.425506
 30
0.0
 11
-66.952363
 21
-145.825506
 31
0.0
  0
ARC
  8
2
  5
A63
 10
-67.952363
 20
-145.825506
 30
0.0
 40
1.0
 50
306.869898
 51
0.0
  0
LINE
  8
2
  5
A64
 10
-67.352363
 20
-146.625506
 30
0.0
 11
-73.952363
 21
-146.625506
 31
0.0
  0
LINE
  8
2
  5
A65
 10
-67.352363
 20
-146.625506
 30
0.0
 11
-67.352363
 21
-148.625506
 31
0.0
  0
LINE
  8
2
  5
A66
 10
-67.352363
 20
-148.625506
 30
0.0
 11
-73.952363
 21
-148.625506
 31
0.0
  0
ARC
  8
2
  5
A67
 10
-67.952363
 20
-149.425506
 30
0.0
 40
1.0
 50
0.0
 51
53.130102
  0
LINE
  8
2
  5
A68
 10
-66.952363
 20
-149.425506
 30
0.0
 11
-66.952363
 21
-155.325506
 31
0.0
  0
ARC
  8
2
  5
A69
 10
-79.952363
 20
-155.325506
 30
0.0
 40
1.0
 50
180.0
 51
233.130102
  0
ARC
  8
2
  5
A6A
 10
-67.952363
 20
-155.325506
 30
0.0
 40
1.0
 50
306.869898
 51
0.0
  0
LINE
  8
2
  5
A6B
 10
-80.402363
 20
-127.125506
 30
0.0
 11
-80.402363
 21
-108.614689
 31
0.0
  0
LINE
  8
2
  5
A6C
 10
-67.502363
 20
-127.125506
 30
0.0
 11
-67.502363
 21
-108.614689
 31
0.0
  0
LINE
  8
2
  5
A6D
 10
-80.202363
 20
-157.125506
 30
0.0
 11
-80.202363
 21
-156.125506
 31
0.0
  0
LINE
  8
2
  5
A6E
 10
-67.702363
 20
-157.125506
 30
0.0
 11
-67.702363
 21
-156.125506
 31
0.0
  0
ARC
  8
2
  5
A6F
 10
-77.177363
 20
-104.314689
 30
0.0
 40
5.375
 50
233.130102
 51
306.869898
  0
ARC
  8
2
  5
A70
 10
-70.727363
 20
-112.914689
 30
0.0
 40
5.375
 50
53.130102
 51
126.869898
  0
ARC
  8
2
  5
A71
 10
-70.727363
 20
-104.314689
 30
0.0
 40
5.375
 50
233.130102
 51
306.869898
  0
LINE
  8
2
  5
A72
 10
-143.086101
 20
-163.258133
 30
0.0
 11
-143.086101
 21
-157.152912
 31
0.0
  0
ARC
  8
2
  5
A73
 10
-141.086101
 20
-161.022065
 30
0.0
 40
3.0
 50
228.189685
 51
311.810315
  0
ARC
  8
2
  5
A74
 10
-141.086101
 20
-165.494201
 30
0.0
 40
3.0
 50
48.189685
 51
131.810315
  0
ARC
  8
2
  5
A75
 10
-137.086101
 20
-165.494201
 30
0.0
 40
3.0
 50
118.903335
 51
131.810315
  0
LINE
  8
2
  5
A76
 10
267.777014
 20
-154.944551
 30
0.0
 11
256.776701
 21
-154.944551
 31
0.0
  0
LINE
  8
2
  5
A77
 10
267.77608
 20
-154.944551
 30
0.0
 11
278.776394
 21
-154.944551
 31
0.0
  0
LINE
  8
2
  5
A78
 10
211.586053
 20
-182.744727
 30
0.0
 11
210.572148
 21
-182.744727
 31
0.0
  0
LINE
  8
2
  5
A79
 10
210.469773
 20
-181.944727
 30
0.0
 11
210.019077
 21
-181.944727
 31
0.0
  0
LINE
  8
2
  5
A7A
 10
210.66703
 20
-182.177737
 30
0.0
 11
210.019077
 21
-186.049749
 31
0.0
  0
ARC
  8
2
  5
A7B
 10
210.469773
 20
-182.144727
 30
0.0
 40
0.2
 50
350.5
 51
90.0
  0
LINE
  8
2
  5
A7C
 10
214.525773
 20
-181.944727
 30
0.0
 11
211.88962
 21
-181.944727
 31
0.0
  0
LINE
  8
2
  5
A7D
 10
214.72303
 20
-182.177737
 30
0.0
 11
212.447171
 21
-195.777737
 31
0.0
  0
ARC
  8
2
  5
A7E
 10
214.525773
 20
-182.144727
 30
0.0
 40
0.2
 50
350.5
 51
90.0
  0
LINE
  8
2
  5
A7F
 10
212.249913
 20
-195.944727
 30
0.0
 11
210.019077
 21
-195.944727
 31
0.0
  0
ARC
  8
2
  5
A80
 10
212.249913
 20
-195.744727
 30
0.0
 40
0.2
 50
270.0
 51
350.5
  0
LINE
  8
2
  5
A81
 10
210.019077
 20
-192.109237
 30
0.0
 11
211.692381
 21
-182.111715
 31
0.0
  0
ARC
  8
2
  5
A82
 10
211.88962
 20
-182.144727
 30
0.0
 40
0.2
 50
90.0
 51
170.5
  0
LINE
  8
2
  5
A83
 10
215.642053
 20
-182.744727
 30
0.0
 11
214.628148
 21
-182.744727
 31
0.0
  0
LINE
  8
2
  5
A84
 10
213.567022
 20
-195.144727
 30
0.0
 11
212.5531
 21
-195.144727
 31
0.0
  0
LINE
  8
2
  5
A85
 10
216.127315
 20
-181.944727
 30
0.0
 11
215.94562
 21
-181.944727
 31
0.0
  0
LINE
  8
2
  5
A86
 10
216.127315
 20
-195.944727
 30
0.0
 11
213.66976
 21
-195.944727
 31
0.0
  0
ARC
  8
2
  5
A87
 10
213.66976
 20
-195.744727
 30
0.0
 40
0.2
 50
170.5
 51
270.0
  0
LINE
  8
2
  5
A88
 10
213.472123
 20
-195.711718
 30
0.0
 11
215.748381
 21
-182.111715
 31
0.0
  0
ARC
  8
2
  5
A89
 10
215.94562
 20
-182.144727
 30
0.0
 40
0.2
 50
90.0
 51
170.5
  0
LINE
  8
2
  5
A8A
 10
216.327315
 20
-180.944727
 30
0.0
 11
222.427315
 21
-180.944727
 31
0.0
  0
LINE
  8
2
  5
A8B
 10
216.327315
 20
-196.944727
 30
0.0
 11
222.427315
 21
-196.944727
 31
0.0
  0
LINE
  8
2
  5
A8C
 10
216.127315
 20
-181.144727
 30
0.0
 11
216.127315
 21
-196.744727
 31
0.0
  0
LINE
  8
2
  5
A8D
 10
222.627315
 20
-181.144727
 30
0.0
 11
222.627315
 21
-196.744727
 31
0.0
  0
LINE
  8
2
  5
A8E
 10
216.127315
 20
-181.144727
 30
0.0
 11
216.327315
 21
-180.944727
 31
0.0
  0
LINE
  8
2
  5
A8F
 10
222.427315
 20
-180.944727
 30
0.0
 11
222.627315
 21
-181.144727
 31
0.0
  0
LINE
  8
2
 62
     2
  5
A90
 10
216.327315
 20
-180.944727
 30
0.0
 11
216.327315
 21
-196.944727
 31
0.0
  0
LINE
  8
2
 62
     2
  5
A91
 10
222.427315
 20
-180.944727
 30
0.0
 11
222.427315
 21
-196.944727
 31
0.0
  0
LINE
  8
2
  5
A92
 10
222.627315
 20
-196.744727
 30
0.0
 11
222.427315
 21
-196.944727
 31
0.0
  0
LINE
  8
2
  5
A93
 10
222.927315
 20
-196.944727
 30
0.0
 11
229.776848
 21
-196.944727
 31
0.0
  0
LINE
  8
2
  5
A94
 10
222.927315
 20
-180.944727
 30
0.0
 11
229.776848
 21
-180.944727
 31
0.0
  0
LINE
  8
2
  5
A95
 10
222.927315
 20
-196.944727
 30
0.0
 11
222.627315
 21
-196.644727
 31
0.0
  0
LINE
  8
2
  5
A96
 10
222.927315
 20
-180.944727
 30
0.0
 11
222.627315
 21
-181.244727
 31
0.0
  0
LINE
  8
2
 62
     2
  5
A97
 10
222.927315
 20
-187.944727
 30
0.0
 11
229.776848
 21
-187.944727
 31
0.0
  0
LINE
  8
2
 62
     2
  5
A98
 10
222.927315
 20
-185.944727
 30
0.0
 11
229.776848
 21
-185.944727
 31
0.0
  0
LINE
  8
2
 62
     2
  5
A99
 10
222.927315
 20
-184.444727
 30
0.0
 11
229.776848
 21
-184.444727
 31
0.0
  0
LINE
  8
2
 62
     2
  5
A9A
 10
222.927315
 20
-183.444727
 30
0.0
 11
229.776848
 21
-183.444727
 31
0.0
  0
LINE
  8
2
 62
     2
  5
A9B
 10
222.927315
 20
-182.444727
 30
0.0
 11
229.776848
 21
-182.444727
 31
0.0
  0
LINE
  8
2
 62
     2
  5
A9C
 10
222.927315
 20
-181.444727
 30
0.0
 11
229.776848
 21
-181.444727
 31
0.0
  0
LINE
  8
2
  5
A9D
 10
222.927315
 20
-180.944727
 30
0.0
 11
222.927315
 21
-196.944727
 31
0.0
  0
LINE
  8
2
 62
     2
  5
A9E
 10
222.927315
 20
-189.944727
 30
0.0
 11
229.776848
 21
-189.944727
 31
0.0
  0
LINE
  8
2
 62
     2
  5
A9F
 10
222.927315
 20
-191.944727
 30
0.0
 11
229.776848
 21
-191.944727
 31
0.0
  0
LINE
  8
2
 62
     2
  5
AA0
 10
222.927315
 20
-193.444727
 30
0.0
 11
229.776848
 21
-193.444727
 31
0.0
  0
LINE
  8
2
 62
     2
  5
AA1
 10
222.927315
 20
-194.444727
 30
0.0
 11
229.776848
 21
-194.444727
 31
0.0
  0
LINE
  8
2
 62
     2
  5
AA2
 10
222.927315
 20
-195.444727
 30
0.0
 11
229.776848
 21
-195.444727
 31
0.0
  0
LINE
  8
2
 62
     2
  5
AA3
 10
222.927315
 20
-196.444727
 30
0.0
 11
229.776848
 21
-196.444727
 31
0.0
  0
LINE
  8
2
  5
AA4
 10
280.777344
 20
-205.444551
 30
0.0
 11
280.777344
 21
-176.444551
 31
0.0
  0
LINE
  8
2
  5
AA5
 10
267.776992
 20
-205.944551
 30
0.0
 11
255.277344
 21
-205.944551
 31
0.0
  0
LINE
  8
2
  5
AA6
 10
267.776992
 20
-205.944551
 30
0.0
 11
280.277344
 21
-205.944551
 31
0.0
  0
LINE
  8
2
  5
AA7
 10
279.776992
 20
-214.444551
 30
0.0
 11
279.776992
 21
-206.444551
 31
0.0
  0
LINE
  8
2
  5
AA8
 10
255.776992
 20
-214.444551
 30
0.0
 11
255.776992
 21
-206.444551
 31
0.0
  0
LINE
  8
2
  5
AA9
 10
278.276992
 20
-215.944551
 30
0.0
 11
257.276992
 21
-215.944551
 31
0.0
  0
LINE
  8
2
  5
AAA
 10
257.276992
 20
-215.944551
 30
0.0
 11
255.776992
 21
-214.444551
 31
0.0
  0
LINE
  8
2
  5
AAB
 10
278.276992
 20
-215.944551
 30
0.0
 11
279.776992
 21
-214.444551
 31
0.0
  0
LINE
  8
2
  5
AAC
 10
254.777344
 20
-205.444551
 30
0.0
 11
254.777344
 21
-200.444551
 31
0.0
  0
LINE
  8
2
  5
AAD
 10
254.777344
 20
-177.444551
 30
0.0
 11
254.777344
 21
-176.444551
 31
0.0
  0
LINE
  8
2
  5
AAE
 10
250.776848
 20
-177.444551
 30
0.0
 11
254.777344
 21
-177.444551
 31
0.0
  0
LINE
  8
2
  5
AAF
 10
255.277344
 20
-175.944551
 30
0.0
 11
267.776992
 21
-175.944551
 31
0.0
  0
LINE
  8
2
  5
AB0
 10
267.776992
 20
-175.944551
 30
0.0
 11
280.277344
 21
-175.944551
 31
0.0
  0
LINE
  8
2
  5
AB1
 10
255.277344
 20
-175.944551
 30
0.0
 11
254.777344
 21
-176.444551
 31
0.0
  0
LINE
  8
2
  5
AB2
 10
280.277344
 20
-175.944551
 30
0.0
 11
280.777344
 21
-176.444551
 31
0.0
  0
LINE
  8
2
  5
AB3
 10
255.277344
 20
-205.944551
 30
0.0
 11
254.777344
 21
-205.444551
 31
0.0
  0
LINE
  8
2
  5
AB4
 10
280.777344
 20
-205.444551
 30
0.0
 11
280.277344
 21
-205.944551
 31
0.0
  0
LINE
  8
2
  5
AB5
 10
250.776848
 20
-178.194551
 30
0.0
 11
251.777344
 21
-178.194551
 31
0.0
  0
LINE
  8
2
  5
AB6
 10
276.776992
 20
-175.944551
 30
0.0
 11
276.776992
 21
-174.944436
 31
0.0
  0
LINE
  8
2
  5
AB7
 10
258.776992
 20
-175.944551
 30
0.0
 11
258.776992
 21
-174.944436
 31
0.0
  0
LINE
  8
2
  5
AB8
 10
251.777344
 20
-178.194551
 30
0.0
 11
253.076382
 21
-177.444551
 31
0.0
  0
LINE
  8
2
  5
AB9
 10
250.776848
 20
-199.694551
 30
0.0
 11
251.777344
 21
-199.694551
 31
0.0
  0
LINE
  8
2
  5
ABA
 10
251.777344
 20
-199.694551
 30
0.0
 11
253.076382
 21
-200.444551
 31
0.0
  0
LINE
  8
2
  5
ABB
 10
250.776848
 20
-200.444551
 30
0.0
 11
254.777344
 21
-200.444551
 31
0.0
  0
LINE
  8
2
  5
ABC
 10
254.276547
 20
-160.944436
 30
0.0
 11
254.276547
 21
-172.944436
 31
0.0
  0
LINE
  8
2
  5
ABD
 10
281.276547
 20
-160.944436
 30
0.0
 11
281.276547
 21
-172.944436
 31
0.0
  0
ARC
  8
2
  5
ABE
 10
256.276547
 20
-160.944436
 30
0.0
 40
2.0
 50
90.0
 51
180.0
  0
ARC
  8
2
  5
ABF
 10
256.276547
 20
-172.944436
 30
0.0
 40
2.0
 50
180.0
 51
270.0
  0
ARC
  8
2
  5
AC0
 10
279.276547
 20
-172.944436
 30
0.0
 40
2.0
 50
270.0
 51
360.0
  0
ARC
  8
2
  5
AC1
 10
279.276547
 20
-160.944436
 30
0.0
 40
2.0
 50
360.0
 51
90.0
  0
LINE
  8
2
  5
AC2
 10
279.276547
 20
-174.944436
 30
0.0
 11
267.776992
 21
-174.944436
 31
0.0
  0
LINE
  8
2
  5
AC3
 10
267.776992
 20
-174.944436
 30
0.0
 11
256.276547
 21
-174.944436
 31
0.0
  0
LINE
  8
2
  5
AC4
 10
255.776992
 20
-206.444551
 30
0.0
 11
256.276992
 21
-205.944551
 31
0.0
  0
LINE
  8
2
  5
AC5
 10
279.776992
 20
-206.444551
 30
0.0
 11
279.276992
 21
-205.944551
 31
0.0
  0
LINE
  8
2
  5
AC6
 10
279.276547
 20
-158.944436
 30
0.0
 11
256.276547
 21
-158.944436
 31
0.0
  0
LINE
  8
2
  5
AC7
 10
277.526992
 20
-160.243589
 30
0.0
 11
274.526992
 21
-160.243589
 31
0.0
  0
ARC
  8
2
  5
AC8
 10
279.526992
 20
-161.133671
 30
0.0
 40
2.18912
 50
90.396924
 51
156.008986
  0
LINE
  8
2
  5
AC9
 10
274.526992
 20
-164.944551
 30
0.0
 11
274.526992
 21
-160.243589
 31
0.0
  0
LINE
  8
2
  5
ACA
 10
277.527
 20
-164.944551
 30
0.0
 11
277.526992
 21
-160.243589
 31
0.0
  0
ARC
  8
2
  5
ACB
 10
267.776992
 20
-177.131085
 30
0.0
 40
18.186533
 50
68.213211
 51
90.0
  0
LINE
  8
2
  5
ACC
 10
277.526992
 20
-173.645513
 30
0.0
 11
274.526992
 21
-173.645513
 31
0.0
  0
ARC
  8
2
  5
ACD
 10
279.526992
 20
-172.755432
 30
0.0
 40
2.18912
 50
203.991014
 51
266.621413
  0
LINE
  8
2
  5
ACE
 10
274.526992
 20
-164.944551
 30
0.0
 11
274.526992
 21
-173.645513
 31
0.0
  0
LINE
  8
2
  5
ACF
 10
277.527
 20
-164.944551
 30
0.0
 11
277.527
 21
-173.645513
 31
0.0
  0
ARC
  8
2
  5
AD0
 10
267.776992
 20
-156.758018
 30
0.0
 40
18.186533
 50
270.0
 51
291.786789
  0
LINE
  8
2
  5
AD1
 10
258.027344
 20
-160.243589
 30
0.0
 11
261.027344
 21
-160.243589
 31
0.0
  0
ARC
  8
2
  5
AD2
 10
256.027344
 20
-161.133671
 30
0.0
 40
2.18912
 50
23.991014
 51
89.304196
  0
LINE
  8
2
  5
AD3
 10
261.027344
 20
-164.944551
 30
0.0
 11
261.027344
 21
-160.243589
 31
0.0
  0
LINE
  8
2
  5
AD4
 10
258.027336
 20
-164.944551
 30
0.0
 11
258.027344
 21
-160.243589
 31
0.0
  0
ARC
  8
2
  5
AD5
 10
267.777344
 20
-177.131085
 30
0.0
 40
18.186533
 50
90.0
 51
111.786789
  0
LINE
  8
2
  5
AD6
 10
258.027344
 20
-173.645513
 30
0.0
 11
261.027344
 21
-173.645513
 31
0.0
  0
ARC
  8
2
  5
AD7
 10
256.027344
 20
-172.755432
 30
0.0
 40
2.18912
 50
273.362072
 51
336.008986
  0
LINE
  8
2
  5
AD8
 10
261.027344
 20
-164.944551
 30
0.0
 11
261.027344
 21
-173.645513
 31
0.0
  0
LINE
  8
2
  5
AD9
 10
258.027336
 20
-164.944551
 30
0.0
 11
258.027336
 21
-173.645513
 31
0.0
  0
ARC
  8
2
  5
ADA
 10
267.777344
 20
-156.758018
 30
0.0
 40
18.186533
 50
248.213211
 51
270.0
  0
LINE
  8
2
  5
ADB
 10
279.776992
 20
-206.444551
 30
0.0
 11
255.776992
 21
-206.444551
 31
0.0
  0
LINE
  8
2
  5
ADC
 10
255.776992
 20
-214.444551
 30
0.0
 11
279.776992
 21
-214.444551
 31
0.0
  0
LINE
  8
2
  5
ADD
 10
278.776992
 20
-214.444551
 30
0.0
 11
278.776992
 21
-206.444551
 31
0.0
  0
LINE
  8
2
  5
ADE
 10
277.776992
 20
-214.444551
 30
0.0
 11
277.776992
 21
-206.444551
 31
0.0
  0
LINE
  8
2
  5
ADF
 10
276.776992
 20
-214.444551
 30
0.0
 11
276.776992
 21
-206.444551
 31
0.0
  0
LINE
  8
2
  5
AE0
 10
275.776992
 20
-214.444551
 30
0.0
 11
275.776992
 21
-206.444551
 31
0.0
  0
LINE
  8
2
  5
AE1
 10
274.776992
 20
-214.444551
 30
0.0
 11
274.776992
 21
-206.444551
 31
0.0
  0
LINE
  8
2
  5
AE2
 10
273.776992
 20
-214.444551
 30
0.0
 11
273.776992
 21
-206.444551
 31
0.0
  0
LINE
  8
2
  5
AE3
 10
272.776992
 20
-214.444551
 30
0.0
 11
272.776992
 21
-206.444551
 31
0.0
  0
LINE
  8
2
  5
AE4
 10
271.776992
 20
-214.444551
 30
0.0
 11
271.776992
 21
-206.444551
 31
0.0
  0
LINE
  8
2
  5
AE5
 10
270.776992
 20
-214.444551
 30
0.0
 11
270.776992
 21
-206.444551
 31
0.0
  0
LINE
  8
2
  5
AE6
 10
269.776992
 20
-214.444551
 30
0.0
 11
269.776992
 21
-206.444551
 31
0.0
  0
LINE
  8
2
  5
AE7
 10
268.776992
 20
-214.444551
 30
0.0
 11
268.776992
 21
-206.444551
 31
0.0
  0
LINE
  8
2
  5
AE8
 10
267.776992
 20
-214.444551
 30
0.0
 11
267.776992
 21
-206.444551
 31
0.0
  0
LINE
  8
2
  5
AE9
 10
266.776992
 20
-214.444551
 30
0.0
 11
266.776992
 21
-206.444551
 31
0.0
  0
LINE
  8
2
  5
AEA
 10
265.776992
 20
-214.444551
 30
0.0
 11
265.776992
 21
-206.444551
 31
0.0
  0
LINE
  8
2
  5
AEB
 10
264.776992
 20
-214.444551
 30
0.0
 11
264.776992
 21
-206.444551
 31
0.0
  0
LINE
  8
2
  5
AEC
 10
263.776992
 20
-214.444551
 30
0.0
 11
263.776992
 21
-206.444551
 31
0.0
  0
LINE
  8
2
  5
AED
 10
262.776992
 20
-214.444551
 30
0.0
 11
262.776992
 21
-206.444551
 31
0.0
  0
LINE
  8
2
  5
AEE
 10
261.776992
 20
-214.444551
 30
0.0
 11
261.776992
 21
-206.444551
 31
0.0
  0
LINE
  8
2
  5
AEF
 10
260.776992
 20
-214.444551
 30
0.0
 11
260.776992
 21
-206.444551
 31
0.0
  0
LINE
  8
2
  5
AF0
 10
259.776992
 20
-214.444551
 30
0.0
 11
259.776992
 21
-206.444551
 31
0.0
  0
LINE
  8
2
  5
AF1
 10
258.776992
 20
-214.444551
 30
0.0
 11
258.776992
 21
-206.444551
 31
0.0
  0
LINE
  8
2
  5
AF2
 10
257.776992
 20
-214.444551
 30
0.0
 11
257.776992
 21
-206.444551
 31
0.0
  0
LINE
  8
2
  5
AF3
 10
256.776992
 20
-214.444551
 30
0.0
 11
256.776992
 21
-206.444551
 31
0.0
  0
LINE
  8
2
  5
AF4
 10
254.276547
 20
-160.944436
 30
0.0
 11
254.276547
 21
-172.944436
 31
0.0
  0
LINE
  8
2
  5
AF5
 10
281.276547
 20
-160.944436
 30
0.0
 11
281.276547
 21
-172.944436
 31
0.0
  0
ARC
  8
2
  5
AF6
 10
256.276547
 20
-160.944436
 30
0.0
 40
2.0
 50
90.0
 51
180.0
  0
ARC
  8
2
  5
AF7
 10
279.276547
 20
-160.944436
 30
0.0
 40
2.0
 50
360.0
 51
90.0
  0
LINE
  8
2
  5
AF8
 10
279.276547
 20
-158.944436
 30
0.0
 11
256.276547
 21
-158.944436
 31
0.0
  0
LINE
  8
2
  5
AF9
 10
277.526992
 20
-160.243589
 30
0.0
 11
274.526992
 21
-160.243589
 31
0.0
  0
ARC
  8
2
  5
AFA
 10
279.526992
 20
-161.133671
 30
0.0
 40
2.18912
 50
90.396924
 51
156.008986
  0
LINE
  8
2
  5
AFB
 10
274.526992
 20
-164.944551
 30
0.0
 11
274.526992
 21
-160.243589
 31
0.0
  0
LINE
  8
2
  5
AFC
 10
277.527
 20
-164.944551
 30
0.0
 11
277.526992
 21
-160.243589
 31
0.0
  0
ARC
  8
2
  5
AFD
 10
267.776992
 20
-177.131085
 30
0.0
 40
18.186533
 50
68.213211
 51
90.0
  0
LINE
  8
2
  5
AFE
 10
258.027344
 20
-160.243589
 30
0.0
 11
261.027344
 21
-160.243589
 31
0.0
  0
ARC
  8
2
  5
AFF
 10
256.027344
 20
-161.133671
 30
0.0
 40
2.18912
 50
23.991014
 51
89.304196
  0
LINE
  8
2
  5
B00
 10
261.027344
 20
-164.944551
 30
0.0
 11
261.027344
 21
-160.243589
 31
0.0
  0
LINE
  8
2
  5
B01
 10
258.027336
 20
-164.944551
 30
0.0
 11
258.027344
 21
-160.243589
 31
0.0
  0
ARC
  8
2
  5
B02
 10
267.777344
 20
-177.131085
 30
0.0
 40
18.186533
 50
90.0
 51
111.786789
  0
LINE
  8
2
  5
B03
 10
239.776848
 20
-201.694727
 30
0.0
 11
239.776848
 21
-176.194727
 31
0.0
  0
LINE
  8
2
  5
B04
 10
241.508899
 20
-175.194727
 30
0.0
 11
249.044797
 21
-175.194727
 31
0.0
  0
LINE
  8
2
  5
B05
 10
241.508899
 20
-175.446838
 30
0.0
 11
249.044797
 21
-175.446838
 31
0.0
  0
LINE
  8
2
  5
B06
 10
241.508899
 20
-179.925956
 30
0.0
 11
249.044797
 21
-179.925956
 31
0.0
  0
LINE
  8
2
  5
B07
 10
241.508899
 20
-184.465609
 30
0.0
 11
249.044797
 21
-184.465609
 31
0.0
  0
LINE
  8
2
  5
B08
 10
239.776848
 20
-176.194727
 30
0.0
 11
241.508899
 21
-175.194727
 31
0.0
  0
LINE
  8
2
  5
B09
 10
250.776848
 20
-176.194727
 30
0.0
 11
249.044797
 21
-175.194727
 31
0.0
  0
LINE
  8
2
  5
B0A
 10
249.044797
 20
-175.194727
 30
0.0
 11
249.044797
 21
-175.446838
 31
0.0
  0
LINE
  8
2
  5
B0B
 10
241.508899
 20
-175.194727
 30
0.0
 11
241.508899
 21
-175.446838
 31
0.0
  0
LINE
  8
2
  5
B0C
 10
241.508899
 20
-179.925956
 30
0.0
 11
241.508899
 21
-184.465609
 31
0.0
  0
LINE
  8
2
  5
B0D
 10
249.044797
 20
-179.925956
 30
0.0
 11
249.044797
 21
-184.465609
 31
0.0
  0
ARC
  8
2
  5
B0E
 10
248.581439
 20
-188.944727
 30
0.0
 40
8.371579
 50
147.653468
 51
212.346532
  0
ARC
  8
2
  5
B0F
 10
241.972256
 20
-188.944727
 30
0.0
 40
8.371579
 50
327.653468
 51
32.346532
  0
ARC
  8
2
  5
B10
 10
242.789894
 20
-177.686397
 30
0.0
 40
2.580034
 50
119.768942
 51
240.231058
  0
ARC
  8
2
  5
B11
 10
247.763801
 20
-177.686397
 30
0.0
 40
2.580034
 50
299.768942
 51
60.231058
  0
LINE
  8
2
  5
B12
 10
230.276848
 20
-178.444727
 30
0.0
 11
229.776848
 21
-178.944727
 31
0.0
  0
LINE
  8
2
  5
B13
 10
230.276848
 20
-178.444727
 30
0.0
 11
230.276848
 21
-199.444727
 31
0.0
  0
LINE
  8
2
 62
     2
  5
B14
 10
234.776848
 20
-198.944727
 30
0.0
 11
234.776848
 21
-178.944727
 31
0.0
  0
LINE
  8
2
  5
B15
 10
239.776848
 20
-178.444727
 30
0.0
 11
235.276848
 21
-178.444727
 31
0.0
  0
LINE
  8
2
  5
B16
 10
234.276848
 20
-178.444727
 30
0.0
 11
230.276848
 21
-178.444727
 31
0.0
  0
LINE
  8
2
  5
B17
 10
234.776848
 20
-178.944727
 30
0.0
 11
234.276848
 21
-178.444727
 31
0.0
  0
LINE
  8
2
  5
B18
 10
234.776848
 20
-178.944727
 30
0.0
 11
235.276848
 21
-178.444727
 31
0.0
  0
LINE
  8
2
  5
B19
 10
234.276848
 20
-178.444727
 30
0.0
 11
234.276848
 21
-199.444727
 31
0.0
  0
LINE
  8
2
  5
B1A
 10
235.276848
 20
-178.444727
 30
0.0
 11
235.276848
 21
-199.444727
 31
0.0
  0
LINE
  8
2
  5
B1B
 10
279.276547
 20
-156.944551
 30
0.0
 11
256.276547
 21
-156.944551
 31
0.0
  0
LINE
  8
2
  5
B1C
 10
256.276547
 20
-155.144551
 30
0.0
 11
256.276547
 21
-158.944436
 31
0.0
  0
LINE
  8
2
 62
     2
  5
B1D
 10
256.976547
 20
-156.944551
 30
0.0
 11
256.976547
 21
-158.944436
 31
0.0
  0
LINE
  8
2
  5
B1E
 10
256.476547
 20
-154.944551
 30
0.0
 11
256.276547
 21
-155.144551
 31
0.0
  0
LINE
  8
2
  5
B1F
 10
256.976547
 20
-156.944551
 30
0.0
 11
256.276547
 21
-156.244551
 31
0.0
  0
LINE
  8
2
 62
     2
  5
B20
 10
279.276547
 20
-155.144551
 30
0.0
 11
256.276547
 21
-155.144551
 31
0.0
  0
LINE
  8
2
  5
B21
 10
250.776848
 20
-201.694727
 30
0.0
 11
250.776848
 21
-176.194727
 31
0.0
  0
LINE
  8
2
  5
B22
 10
229.776848
 20
-198.944727
 30
0.0
 11
229.776848
 21
-178.944727
 31
0.0
  0
LINE
  8
2
  5
B23
 10
279.076547
 20
-154.944551
 30
0.0
 11
279.276547
 21
-155.144551
 31
0.0
  0
LINE
  8
2
  5
B24
 10
279.276547
 20
-155.144551
 30
0.0
 11
279.276547
 21
-158.944436
 31
0.0
  0
LINE
  8
2
  5
B25
 10
278.576547
 20
-156.944551
 30
0.0
 11
279.276547
 21
-156.244551
 31
0.0
  0
LINE
  8
2
 62
     2
  5
B26
 10
278.576547
 20
-156.944551
 30
0.0
 11
278.576547
 21
-158.944436
 31
0.0
  0
LINE
  8
2
  5
B27
 10
256.476547
 20
-154.944551
 30
0.0
 11
279.076547
 21
-154.944551
 31
0.0
  0
LINE
  8
2
  5
B28
 10
230.276848
 20
-199.444727
 30
0.0
 11
229.776848
 21
-198.944727
 31
0.0
  0
LINE
  8
2
  5
B29
 10
234.276848
 20
-199.444727
 30
0.0
 11
230.276848
 21
-199.444727
 31
0.0
  0
LINE
  8
2
  5
B2A
 10
234.776848
 20
-198.944727
 30
0.0
 11
234.276848
 21
-199.444727
 31
0.0
  0
LINE
  8
2
  5
B2B
 10
234.776848
 20
-198.944727
 30
0.0
 11
235.276848
 21
-199.444727
 31
0.0
  0
LINE
  8
2
  5
B2C
 10
239.776848
 20
-199.444727
 30
0.0
 11
235.276848
 21
-199.444727
 31
0.0
  0
LINE
  8
2
  5
B2D
 10
239.776848
 20
-201.694727
 30
0.0
 11
241.508899
 21
-202.694727
 31
0.0
  0
LINE
  8
2
  5
B2E
 10
239.776848
 20
-201.694727
 30
0.0
 11
241.508899
 21
-202.694727
 31
0.0
  0
LINE
  8
2
  5
B2F
 10
241.508899
 20
-202.694727
 30
0.0
 11
249.044797
 21
-202.694727
 31
0.0
  0
LINE
  8
2
  5
B30
 10
241.508899
 20
-202.442617
 30
0.0
 11
249.044797
 21
-202.442617
 31
0.0
  0
LINE
  8
2
  5
B31
 10
241.508899
 20
-202.694727
 30
0.0
 11
241.508899
 21
-202.442617
 31
0.0
  0
ARC
  8
2
  5
B32
 10
242.789894
 20
-200.203058
 30
0.0
 40
2.580034
 50
119.768942
 51
240.231058
  0
LINE
  8
2
  5
B33
 10
241.508899
 20
-202.442617
 30
0.0
 11
249.044797
 21
-202.442617
 31
0.0
  0
LINE
  8
2
  5
B34
 10
249.044797
 20
-202.694727
 30
0.0
 11
249.044797
 21
-202.442617
 31
0.0
  0
ARC
  8
2
  5
B35
 10
247.763801
 20
-200.203058
 30
0.0
 40
2.580034
 50
299.768942
 51
60.231058
  0
LINE
  8
2
  5
B36
 10
250.776848
 20
-201.694727
 30
0.0
 11
249.044797
 21
-202.694727
 31
0.0
  0
LINE
  8
2
  5
B37
 10
241.508899
 20
-197.963499
 30
0.0
 11
249.044797
 21
-197.963499
 31
0.0
  0
LINE
  8
2
  5
B38
 10
241.508899
 20
-197.963499
 30
0.0
 11
241.508899
 21
-193.423846
 31
0.0
  0
LINE
  8
2
  5
B39
 10
249.044797
 20
-197.963499
 30
0.0
 11
249.044797
 21
-193.423846
 31
0.0
  0
LINE
  8
2
  5
B3A
 10
241.508899
 20
-193.423846
 30
0.0
 11
249.044797
 21
-193.423846
 31
0.0
  0
LINE
  8
2
  5
B3B
 10
251.777344
 20
-177.444551
 30
0.0
 11
251.777344
 21
-200.444551
 31
0.0
  0
LINE
  8
2
  5
B3C
 10
216.127315
 20
-196.744727
 30
0.0
 11
216.327315
 21
-196.944727
 31
0.0
  0
LINE
  8
2
  5
B3D
 10
277.676547
 20
-116.644551
 30
0.0
 11
277.676547
 21
-154.444551
 31
0.0
  0
LINE
  8
2
  5
B3E
 10
277.176547
 20
-154.944551
 30
0.0
 11
267.776547
 21
-154.944551
 31
0.0
  0
LINE
  8
2
  5
B3F
 10
277.176547
 20
-154.944551
 30
0.0
 11
277.676547
 21
-154.444551
 31
0.0
  0
LINE
  8
2
 62
     2
  5
B40
 10
277.676547
 20
-154.444551
 30
0.0
 11
267.776547
 21
-154.444551
 31
0.0
  0
LINE
  8
2
  5
B41
 10
257.876547
 20
-116.644551
 30
0.0
 11
257.876547
 21
-154.444551
 31
0.0
  0
LINE
  8
2
  5
B42
 10
258.376547
 20
-154.944551
 30
0.0
 11
267.776547
 21
-154.944551
 31
0.0
  0
LINE
  8
2
  5
B43
 10
258.376547
 20
-154.944551
 30
0.0
 11
257.876547
 21
-154.444551
 31
0.0
  0
LINE
  8
2
 62
     2
  5
B44
 10
257.876547
 20
-154.444551
 30
0.0
 11
267.776547
 21
-154.444551
 31
0.0
  0
LINE
  8
2
  6
CENTER
 62
     2
  5
B45
 10
91.102692
 20
-188.944727
 30
0.0
 11
186.842972
 21
-188.944727
 31
0.0
  0
LINE
  8
2
  6
CENTER
 62
     2
  5
B46
 10
91.102692
 20
-188.944727
 30
0.0
 11
91.102692
 21
-202.231171
 31
0.0
  0
LINE
  8
2
  5
B47
 10
200.893172
 20
-181.944727
 30
0.0
 11
199.72162
 21
-181.944727
 31
0.0
  0
LINE
  8
2
  5
B48
 10
200.893172
 20
-192.108607
 30
0.0
 11
200.279171
 21
-195.777737
 31
0.0
  0
LINE
  8
2
  5
B49
 10
200.081913
 20
-195.944727
 30
0.0
 11
197.44576
 21
-195.944727
 31
0.0
  0
ARC
  8
2
  5
B4A
 10
200.081913
 20
-195.744727
 30
0.0
 40
0.2
 50
270.0
 51
350.5
  0
ARC
  8
2
  5
B4B
 10
197.44576
 20
-195.744727
 30
0.0
 40
0.2
 50
170.5
 51
270.0
  0
LINE
  8
2
  5
B4C
 10
197.248123
 20
-195.711718
 30
0.0
 11
199.524381
 21
-182.111715
 31
0.0
  0
ARC
  8
2
  5
B4D
 10
199.72162
 20
-182.144727
 30
0.0
 40
0.2
 50
90.0
 51
170.5
  0
LINE
  8
2
  5
B4E
 10
198.404148
 20
-182.744727
 30
0.0
 11
199.418433
 21
-182.744727
 31
0.0
  0
LINE
  8
2
  5
B4F
 10
196.3291
 20
-195.144727
 30
0.0
 11
197.343022
 21
-195.144727
 31
0.0
  0
LINE
  8
2
  5
B50
 10
200.3851
 20
-195.144727
 30
0.0
 11
200.893172
 21
-195.144727
 31
0.0
  0
LINE
  8
2
  5
B51
 10
198.301773
 20
-181.944727
 30
0.0
 11
195.495928
 21
-181.944727
 31
0.0
  0
LINE
  8
2
  5
B52
 10
198.49903
 20
-182.177737
 30
0.0
 11
196.223171
 21
-195.777737
 31
0.0
  0
LINE
  8
2
  5
B53
 10
196.025913
 20
-195.944727
 30
0.0
 11
193.38976
 21
-195.944727
 31
0.0
  0
ARC
  8
2
  5
B54
 10
196.025913
 20
-195.744727
 30
0.0
 40
0.2
 50
270.0
 51
350.5
  0
ARC
  8
2
  5
B55
 10
193.38976
 20
-195.744727
 30
0.0
 40
0.2
 50
170.5
 51
270.0
  0
LINE
  8
2
  5
B56
 10
194.245773
 20
-181.944727
 30
0.0
 11
191.60962
 21
-181.944727
 31
0.0
  0
LINE
  8
2
  5
B57
 10
194.44303
 20
-182.177737
 30
0.0
 11
192.167171
 21
-195.777737
 31
0.0
  0
ARC
  8
2
  5
B58
 10
194.245773
 20
-182.144727
 30
0.0
 40
0.2
 50
350.5
 51
90.0
  0
LINE
  8
2
  5
B59
 10
191.969913
 20
-195.944727
 30
0.0
 11
189.33376
 21
-195.944727
 31
0.0
  0
ARC
  8
2
  5
B5A
 10
191.969913
 20
-195.744727
 30
0.0
 40
0.2
 50
270.0
 51
350.5
  0
LINE
  8
2
  5
B5B
 10
189.136123
 20
-195.711718
 30
0.0
 11
191.412381
 21
-182.111715
 31
0.0
  0
ARC
  8
2
  5
B5C
 10
191.60962
 20
-182.144727
 30
0.0
 40
0.2
 50
90.0
 51
170.5
  0
LINE
  8
2
  5
B5D
 10
190.292148
 20
-182.744727
 30
0.0
 11
191.306433
 21
-182.744727
 31
0.0
  0
LINE
  8
2
  5
B5E
 10
194.348148
 20
-182.744727
 30
0.0
 11
195.362433
 21
-182.744727
 31
0.0
  0
LINE
  8
2
  5
B5F
 10
192.2731
 20
-195.144727
 30
0.0
 11
193.287022
 21
-195.144727
 31
0.0
  0
LINE
  8
2
  5
B60
 10
195.495928
 20
-181.944727
 30
0.0
 11
193.192134
 21
-195.711656
 31
0.0
  0
LINE
  8
2
  5
B61
 10
188.2171
 20
-195.144727
 30
0.0
 11
189.231022
 21
-195.144727
 31
0.0
  0
ARC
  8
2
  5
B62
 10
198.301773
 20
-182.144727
 30
0.0
 40
0.2
 50
350.5
 51
90.0
  0
ARC
  8
2
  5
B63
 10
189.33376
 20
-195.744727
 30
0.0
 40
0.2
 50
170.5
 51
270.0
  0
POINT
  8
3
  5
B64
 10
54.307551
 20
89.670552
 30
0.0
  0
TEXT
  8
3
  5
B65
 10
104.603028
 20
3.762348
 30
0.0
 40
7.0
  1
１２２
 72
     5
 11
124.203028
 21
3.762348
 31
0.0
  0
DIMENSION
  8
3
 62
     2
  5
B66
  2
*D0
 10
175.898505
 20
2.762348
 30
0.0
 11
115.103028
 21
4.762348
 31
0.0
 13
54.307551
 23
89.670552
 33
0.0
 14
175.898505
 24
1.371016
 34
0.0
  3
Standard
  0
TEXT
  8
3
  5
B67
 10
24.093758
 20
44.225975
 30
0.0
 40
7.0
  1
７７
 50
90.0
 72
     5
 11
24.093758
 21
56.825975
 31
0.0
  0
DIMENSION
  8
3
 62
     2
  5
B68
  2
*D1
 10
25.093758
 20
89.670552
 30
0.0
 11
22.593758
 21
51.225975
 31
0.0
 13
153.898505
 23
12.781398
 33
0.0
 14
54.307551
 24
89.670552
 34
0.0
 50
90.0
  3
Standard
  0
DIMENSION
  8
3
 62
     2
  5
B69
  2
*D2
 10
54.307551
 20
89.665084
 30
0.0
 11
52.941117
 21
34.994591
 31
0.0
 70
     2
 13
54.30524
 23
89.665597
 33
0.0
 14
54.307551
 24
89.670552
 34
0.0
 15
54.307551
 25
89.670552
 35
0.0
 16
42.473569
 26
36.290911
 36
0.0
  3
Standard
1001
ACAD
1000
DSTYLE
1002
{
1070
   275
1070
     0
1070
   179
1070
     2
1002
}
  0
POINT
  8
3
  5
B6A
 10
175.898505
 20
162.981398
 30
0.0
  0
TEXT
  8
3
  5
B6B
 10
10.528389
 20
77.381398
 30
0.0
 40
7.0
  1
１５１
 50
90.0
 72
     5
 11
10.528389
 21
96.981398
 31
0.0
  0
DIMENSION
  8
3
 62
     2
  5
B6C
  2
*D3
 10
11.528389
 20
162.981398
 30
0.0
 11
9.028389
 21
87.881398
 31
0.0
 13
152.398505
 23
12.781398
 33
0.0
 14
175.898505
 24
162.981398
 34
0.0
 50
90.0
  3
Standard
  0
POINT
  8
3
  5
B6D
 10
108.793872
 20
193.202183
 30
0.0
  0
TEXT
  8
3
  5
B6E
 10
-3.325867
 20
92.49179
 30
0.0
 40
7.0
  1
１８１
 50
90.0
 72
     5
 11
-3.325867
 21
112.09179
 31
0.0
  0
DIMENSION
  8
3
 62
     2
  5
B6F
  2
*D4
 10
-2.325867
 20
193.202183
 30
0.0
 11
-4.825867
 21
102.99179
 31
0.0
 13
151.598505
 23
12.781398
 33
0.0
 14
108.793872
 24
193.202183
 34
0.0
 50
90.0
  3
Standard
  0
DIMENSION
  8
3
 62
     2
  5
B70
  2
*D5
 10
106.798524
 20
159.481398
 30
0.0
 11
79.786329
 21
192.698879
 31
0.0
 70
     2
 13
132.647593
 23
182.079011
 33
0.0
 14
181.10833
 24
159.481398
 34
0.0
 15
181.10833
 25
159.481398
 35
0.0
 16
78.490009
 26
182.231332
 36
0.0
  3
Standard
1001
ACAD
1000
DSTYLE
1002
{
1070
   275
1070
     0
1070
   179
1070
     2
1002
}
  0
TEXT
  8
3
  5
B71
 10
73.965321
 20
150.104462
 30
0.0
 40
7.0
  1
止水
 72
     5
 11
86.565321
 21
150.104462
 31
0.0
  0
TEXT
  8
3
  5
B72
 10
110.614449
 20
196.30719
 30
0.0
 40
7.0
  1
吐水
 72
     5
 11
123.214449
 21
196.30719
 31
0.0
  0
POINT
  8
3
  5
B73
 10
-204.219245
 20
-175.126604
 30
0.0
  0
POINT
  8
3
  5
B74
 10
-73.952956
 20
-185.126604
 30
0.0
  0
POINT
  8
3
  5
B75
 10
110.265361
 20
-175.126515
 30
0.0
  0
TEXT
  8
3
  5
B76
 10
24.093758
 20
-151.172559
 30
0.0
 40
7.0
  1
湯側：４１６　水側：４２６（シートまで）
 50
90.0
 72
     5
 11
24.093758
 21
-12.572559
 31
0.0
  0
DIMENSION
  8
3
 62
     2
  5
B77
  2
*D6
 10
25.093758
 20
12.781398
 30
0.0
 11
22.593758
 21
-81.172559
 31
0.0
 13
110.265361
 23
-175.126515
 33
0.0
 14
151.598505
 24
12.781398
 34
0.0
 50
90.0
  3
Standard
  0
TEXT
  8
3
  5
B78
 10
-185.734238
 20
-186.286835
 30
0.0
 40
7.0
  1
２４六角
 72
     5
 11
-159.134238
 21
-186.286835
 31
0.0
  0
TEXT
  8
3
  5
B79
 10
-188.709167
 20
-201.404694
 30
0.0
 40
7.0
  1
Ｇ１／２
 72
     5
 11
-162.109167
 21
-201.404694
 31
0.0
  0
POLYLINE
  8
3
 62
     2
  5
B7A
 66
     1
 10
0.0
 20
0.0
 30
0.0
  0
VERTEX
  8
3
 62
     2
  5
F0A
 10
-193.131683
 20
-177.721878
 30
0.0
  0
VERTEX
  8
3
 62
     2
  5
F0B
 10
-185.071854
 20
-187.289764
 30
0.0
  0
VERTEX
  8
3
 62
     2
  5
F0C
 10
-156.98848
 20
-187.289764
 30
0.0
  0
SEQEND
  8
3
 62
     2
  5
F0D
  0
LINE
  8
3
 62
     2
  5
B7F
 10
-190.642453
 20
-180.676863
 30
0.0
 11
-189.850667
 21
-180.009876
 31
0.0
  0
LINE
  8
3
 62
     2
  5
B80
 10
-189.850667
 20
-180.009876
 30
0.0
 11
-193.131683
 21
-177.721878
 31
0.0
  0
LINE
  8
3
 62
     2
  5
B81
 10
-193.131683
 20
-177.721878
 30
0.0
 11
-191.434239
 21
-181.34385
 31
0.0
  0
LINE
  8
3
 62
     2
  5
B82
 10
-191.434239
 20
-181.34385
 30
0.0
 11
-190.642453
 21
-180.676863
 31
0.0
  0
POLYLINE
  8
3
 62
     2
  5
B83
 66
     1
 10
0.0
 20
0.0
 30
0.0
  0
VERTEX
  8
3
 62
     2
  5
F0E
 10
-210.636627
 20
-182.126604
 30
0.0
  0
VERTEX
  8
3
 62
     2
  5
F0F
 10
-189.101761
 20
-202.900604
 30
0.0
  0
VERTEX
  8
3
 62
     2
  5
F10
 10
-160.892441
 20
-202.900604
 30
0.0
  0
SEQEND
  8
3
 62
     2
  5
F11
  0
LINE
  8
3
 62
     2
  5
B88
 10
-207.855894
 20
-184.809089
 30
0.0
 11
-207.137124
 21
-184.063993
 31
0.0
  0
LINE
  8
3
 62
     2
  5
B89
 10
-207.137124
 20
-184.063993
 30
0.0
 11
-210.636627
 21
-182.126604
 31
0.0
  0
LINE
  8
3
 62
     2
  5
B8A
 10
-210.636627
 20
-182.126604
 30
0.0
 11
-208.574664
 21
-185.554184
 31
0.0
  0
LINE
  8
3
 62
     2
  5
B8B
 10
-208.574664
 20
-185.554184
 30
0.0
 11
-207.855894
 21
-184.809089
 31
0.0
  0
TEXT
  8
3
  5
B8C
 10
-195.280182
 20
20.781506
 30
0.0
 40
7.0
  1
取付穴径φ３７±２
 50
90.0
 72
     5
 11
-195.280182
 21
82.381506
 31
0.0
  0
DIMENSION
  8
3
 62
     2
  5
B8D
  2
*D7
 10
-194.280182
 20
12.781506
 30
0.0
 11
-196.780182
 21
48.281506
 31
0.0
 13
-164.138101
 23
-3.518494
 33
0.0
 14
-163.386101
 24
12.781506
 34
0.0
 50
90.0
  3
Standard
  0
TEXT
  8
3
  5
B8E
 10
-185.511642
 20
21.068501
 30
0.0
 40
7.0
  1
取付厚さ５～３０
 50
90.0
 72
     5
 11
-185.511642
 21
75.668501
 31
0.0
  0
TEXT
  8
3
  5
B8F
 10
-99.825607
 20
-4.372349
 30
0.0
 40
7.0
  1
Ｗ３５山１６
 72
     5
 11
-59.225607
 21
-4.372349
 31
0.0
  0
TEXT
  8
3
  5
B90
 10
-95.443489
 20
-25.235712
 30
0.0
 40
7.0
  1
４６六角
 72
     5
 11
-68.843489
 21
-25.235712
 31
0.0
  0
POLYLINE
  8
3
 62
     2
  5
B91
 66
     1
 10
0.0
 20
0.0
 30
0.0
  0
VERTEX
  8
3
 62
     2
  5
F12
 10
-121.586101
 20
5.199641
 30
0.0
  0
VERTEX
  8
3
 62
     2
  5
F13
 10
-99.999687
 20
-5.416584
 30
0.0
  0
VERTEX
  8
3
 62
     2
  5
F14
 10
-58.913963
 20
-5.416584
 30
0.0
  0
SEQEND
  8
3
 62
     2
  5
F15
  0
LINE
  8
3
 62
     2
  5
B96
 10
-118.119004
 20
3.494519
 30
0.0
 11
-117.662118
 21
4.423524
 31
0.0
  0
LINE
  8
3
 62
     2
  5
B97
 10
-117.662118
 20
4.423524
 30
0.0
 11
-121.586101
 21
5.199641
 31
0.0
  0
LINE
  8
3
 62
     2
  5
B98
 10
-121.586101
 20
5.199641
 30
0.0
 11
-118.57589
 21
2.565513
 31
0.0
  0
LINE
  8
3
 62
     2
  5
B99
 10
-118.57589
 20
2.565513
 30
0.0
 11
-118.119004
 21
3.494519
 31
0.0
  0
DIMENSION
  8
3
 62
     2
  5
B9A
  2
*D8
 10
-165.086101
 20
178.042847
 30
0.0
 11
-139.086101
 21
182.542847
 31
0.0
 70
     1
 13
-113.086101
 23
161.354752
 33
0.0
 14
-165.086101
 24
161.354752
 34
0.0
  3
Standard
  0
TEXT
  8
3
  5
B9B
 10
-251.125732
 20
229.704163
 30
0.0
 40
7.0
  1
水表示
 72
     5
 11
-231.525732
 21
229.704163
 31
0.0
  0
TEXT
  8
3
  5
B9C
 10
-338.665588
 20
229.260742
 30
0.0
 40
7.0
  1
湯表示
 72
     5
 11
-319.065588
 21
229.260742
 31
0.0
  0
POLYLINE
  8
3
 62
     2
  5
B9D
 66
     1
 10
0.0
 20
0.0
 30
0.0
  0
VERTEX
  8
3
 62
     2
  5
F16
 10
-308.204102
 20
219.800064
 30
0.0
  0
VERTEX
  8
3
 62
     2
  5
F17
 10
-316.928528
 20
228.225983
 30
0.0
  0
VERTEX
  8
3
 62
     2
  5
F18
 10
-339.700714
 20
228.225983
 30
0.0
  0
SEQEND
  8
3
 62
     2
  5
F19
  0
LINE
  8
3
 62
     2
  5
BA2
 10
-310.983284
 20
222.484156
 30
0.0
 11
-311.702484
 21
221.739476
 31
0.0
  0
LINE
  8
3
 62
     2
  5
BA3
 10
-311.702484
 20
221.739476
 30
0.0
 11
-308.204102
 21
219.800064
 31
0.0
  0
LINE
  8
3
 62
     2
  5
BA4
 10
-308.204102
 20
219.800064
 30
0.0
 11
-310.264083
 21
223.228836
 31
0.0
  0
LINE
  8
3
 62
     2
  5
BA5
 10
-310.264083
 20
223.228836
 30
0.0
 11
-310.983284
 21
222.484156
 31
0.0
  0
POLYLINE
  8
3
 62
     2
  5
BA6
 66
     1
 10
0.0
 20
0.0
 30
0.0
  0
VERTEX
  8
3
 62
     2
  5
F1A
 10
-260.589508
 20
219.9478
 30
0.0
  0
VERTEX
  8
3
 62
     2
  5
F1B
 10
-251.865082
 20
227.930313
 30
0.0
  0
VERTEX
  8
3
 62
     2
  5
F1C
 10
-229.980133
 20
227.930313
 30
0.0
  0
SEQEND
  8
3
 62
     2
  5
F1D
  0
LINE
  8
3
 62
     2
  5
BAB
 10
-257.738943
 20
222.555957
 30
0.0
 11
-258.437797
 21
223.319763
 31
0.0
  0
LINE
  8
3
 62
     2
  5
BAC
 10
-258.437797
 20
223.319763
 30
0.0
 11
-260.589508
 21
219.9478
 31
0.0
  0
LINE
  8
3
 62
     2
  5
BAD
 10
-260.589508
 20
219.9478
 30
0.0
 11
-257.04009
 21
221.79215
 31
0.0
  0
LINE
  8
3
 62
     2
  5
BAE
 10
-257.04009
 20
221.79215
 30
0.0
 11
-257.738943
 21
222.555957
 31
0.0
  0
DIMENSION
  8
3
 62
     2
  5
BAF
  2
*D9
 10
-252.78308
 20
98.656711
 30
0.0
 11
-274.000336
 21
67.62713
 31
0.0
 70
     2
 13
-316.217592
 23
98.656711
 33
0.0
 14
-284.500336
 24
217.027122
 34
0.0
 15
-284.500336
 25
217.027122
 35
0.0
 16
-284.500336
 26
66.62713
 36
0.0
  3
Standard
1001
ACAD
1000
DSTYLE
1002
{
1070
   275
1070
     0
1070
   179
1070
     2
1002
}
  0
TEXT
  8
3
  5
BB0
 10
-318.824768
 20
111.048889
 30
0.0
 40
7.0
  1
（ハンドル回転角度）
 72
     5
 11
-250.224768
 21
111.048889
 31
0.0
  0
TEXT
  8
3
  5
BB1
 10
-316.927277
 20
57.556778
 30
0.0
 40
7.0
  1
（パイプ回転角度）
 72
     5
 11
-255.327277
 21
57.556778
 31
0.0
  0
TEXT
  8
3
  5
BB2
 10
235.185699
 20
-271.966614
 30
0.0
 40
6.0
  1
外観寸法図
 72
     5
 11
263.985699
 21
-271.966614
 31
0.0
  0
TEXT
  8
3
  5
BB3
 10
288.648407
 20
-240.026993
 30
0.0
 40
7.0
  1
１　２
 72
     5
 11
308.248407
 21
-240.026993
 31
0.0
  0
TEXT
  8
3
  5
BB4
 10
-21.726778
 20
-198.868256
 30
0.0
 40
7.0
  1
外径φ１４、Ｌ＝１０００
 72
     5
 11
60.873222
 21
-198.868256
 31
0.0
  0
DIMENSION
  8
3
 62
     2
  5
BB5
  2
*D10
 10
-243.673825
 20
146.313531
 30
0.0
 11
-249.812349
 21
128.138676
 31
0.0
 70
     2
 13
-284.500336
 23
127.900384
 33
0.0
 14
-284.500336
 24
217.027122
 34
0.0
 15
-284.500336
 25
217.027122
 35
0.0
 16
-259.95457
 26
125.421076
 36
0.0
  3
Standard
1001
ACAD
1000
DSTYLE
1002
{
1070
   275
1070
     0
1070
   179
1070
     2
1002
}
  0
DIMENSION
  8
3
 62
     2
  5
BB6
  2
*D11
 10
-284.500336
 20
127.840745
 30
0.0
 11
-322.83052
 21
129.637294
 31
0.0
 70
     2
 13
-284.50855
 23
217.022379
 33
0.0
 14
-284.500336
 24
217.027122
 34
0.0
 15
-284.500336
 25
217.027122
 35
0.0
 16
-331.923787
 26
134.887294
 36
0.0
  3
Standard
1001
ACAD
1000
DSTYLE
1002
{
1070
   275
1070
     0
1070
   179
1070
     2
1002
}
  0
LINE
  8
3
  6
CENTER
 62
     2
  5
BB7
 10
-253.996723
 20
-55.890887
 30
0.0
 11
-293.942078
 21
-55.890887
 31
0.0
  0
LINE
  8
3
  6
CENTER
 62
     2
  5
BB8
 10
-273.996723
 20
-35.890887
 30
0.0
 11
-273.996723
 21
-75.890887
 31
0.0
  0
ARC
  8
3
  5
BB9
 10
-273.996723
 20
-55.890887
 30
0.0
 40
6.0
 50
312.73211
 51
227.26789
  0
ARC
  8
3
  5
BBA
 10
-273.996723
 20
-55.890887
 30
0.0
 40
15.0
 50
348.00227
 51
191.99773
  0
LINE
  8
3
  5
BBB
 10
-270.246723
 20
-61.710172
 30
0.0
 11
-270.246723
 21
-61.032628
 31
0.0
  0
LINE
  8
3
  5
BBC
 10
-277.746723
 20
-61.032628
 30
0.0
 11
-277.746723
 21
-61.710172
 31
0.0
  0
ARC
  8
3
  5
BBD
 10
-283.204647
 20
-67.890887
 30
0.0
 40
3.0
 50
197.810394
 51
316.626915
  0
ARC
  8
3
  5
BBE
 10
-264.788799
 20
-67.890887
 30
0.0
 40
3.0
 50
223.373085
 51
342.189606
  0
ARC
  8
3
  5
BBF
 10
-289.746723
 20
-61.710172
 30
0.0
 40
12.0
 50
316.626915
 51
360.0
  0
ARC
  8
3
  5
BC0
 10
-258.246723
 20
-61.710172
 30
0.0
 40
12.0
 50
180.0
 51
223.373085
  0
ARC
  8
3
  5
BC1
 10
-357.139969
 20
-38.221688
 30
0.0
 40
100.0
 50
342.189606
 51
348.00227
  0
ARC
  8
3
  5
BC2
 10
-190.853477
 20
-38.221688
 30
0.0
 40
100.0
 50
191.99773
 51
197.810394
  0
ARC
  8
3
  5
BC3
 10
-269.246723
 20
-61.032628
 30
0.0
 40
1.0
 50
132.73211
 51
180.0
  0
ARC
  8
3
  5
BC4
 10
-278.746723
 20
-61.032628
 30
0.0
 40
1.0
 50
0.0
 51
47.26789
  0
TEXT
  8
3
  5
BC5
 10
-309.773544
 20
-18.621048
 30
0.0
 40
7.0
  1
ホース用抜ケ止メリング
 72
     5
 11
-234.173544
 21
-18.621048
 31
0.0
  0
TEXT
  8
3
  5
BC6
 10
-309.174789
 20
-30.140339
 30
0.0
 40
7.0
  1
　　（同梱部品）
 72
     5
 11
-254.574789
 21
-30.140339
 31
0.0
  0
POLYLINE
  8
3
 62
     2
  5
BC7
 66
     1
 10
0.0
 20
0.0
 30
0.0
  0
VERTEX
  8
3
 62
     2
  5
F1E
 10
-116.1548
 20
-11.159444
 30
0.0
  0
VERTEX
  8
3
 62
     2
  5
F1F
 10
-94.564209
 20
-26.129679
 30
0.0
  0
VERTEX
  8
3
 62
     2
  5
F20
 10
-66.064621
 20
-26.129679
 30
0.0
  0
SEQEND
  8
3
 62
     2
  5
F21
  0
LINE
  8
3
 62
     2
  5
BCC
 10
-112.979671
 20
-13.360979
 30
0.0
 11
-112.389771
 21
-12.510205
 31
0.0
  0
LINE
  8
3
 62
     2
  5
BCD
 10
-112.389771
 20
-12.510205
 30
0.0
 11
-116.1548
 21
-11.159444
 31
0.0
  0
LINE
  8
3
 62
     2
  5
BCE
 10
-116.1548
 20
-11.159444
 30
0.0
 11
-113.56957
 21
-14.211752
 31
0.0
  0
LINE
  8
3
 62
     2
  5
BCF
 10
-113.56957
 20
-14.211752
 30
0.0
 11
-112.979671
 21
-13.360979
 31
0.0
  0
TEXT
  8
3
  5
BD0
 10
-194.138769
 20
-24.392973
 30
0.0
 40
7.0
  1
φ５２
 72
     5
 11
-174.538769
 21
-24.392973
 31
0.0
  0
DIMENSION
  8
3
 62
     2
  5
BD1
  2
*D12
 10
-113.138769
 20
-25.392973
 30
0.0
 11
-139.138769
 21
-23.392973
 31
0.0
 13
-165.138769
 23
-7.518494
 33
0.0
 14
-113.138769
 24
-7.518494
 34
0.0
  3
Standard
  0
TEXT
  8
3
  5
BD2
 10
292.705444
 20
-200.63562
 30
0.0
 40
7.0
  1
逆止弁内蔵
 72
     5
 11
326.305444
 21
-200.63562
 31
0.0
  0
POLYLINE
  8
3
 62
     2
  5
BD3
 66
     1
 10
0.0
 20
0.0
 30
0.0
  0
VERTEX
  8
3
 62
     2
  5
F22
 10
272.398621
 20
-191.082573
 30
0.0
  0
VERTEX
  8
3
 62
     2
  5
F23
 10
290.316437
 20
-202.426842
 30
0.0
  0
VERTEX
  8
3
 62
     2
  5
F24
 10
329.735626
 20
-202.426842
 30
0.0
  0
SEQEND
  8
3
 62
     2
  5
F25
  0
LINE
  8
3
 62
     2
  5
BD8
 10
275.663054
 20
-193.149377
 30
0.0
 11
276.216852
 21
-192.274674
 31
0.0
  0
LINE
  8
3
 62
     2
  5
BD9
 10
276.216852
 20
-192.274674
 30
0.0
 11
272.398621
 21
-191.082573
 31
0.0
  0
LINE
  8
3
 62
     2
  5
BDA
 10
272.398621
 20
-191.082573
 30
0.0
 11
275.109256
 21
-194.024079
 31
0.0
  0
LINE
  8
3
 62
     2
  5
BDB
 10
275.109256
 20
-194.024079
 30
0.0
 11
275.663054
 21
-193.149377
 31
0.0
  0
TEXT
  8
3
  5
BDC
 10
300.844099
 20
-104.581577
 30
0.0
 40
7.0
  1
２０７（金具先端まで）
 50
90.0
 72
     5
 11
300.844099
 21
-28.981577
 31
0.0
  0
DIMENSION
  8
3
 62
     2
  5
BDD
  2
*D13
 10
301.844099
 20
12.781398
 30
0.0
 11
299.344099
 21
-66.081577
 31
0.0
 13
267.776547
 23
-127.444551
 33
0.0
 14
199.398505
 24
12.781398
 34
0.0
 50
90.0
  3
Standard
  0
TEXT
  8
3
  5
BDE
 10
322.103027
 20
-273.591248
 30
0.0
 40
10.5
  1
１１０２６５
 72
     5
 11
383.003027
 21
-273.591248
 31
0.0
  0
TEXT
  8
3
  5
BDF
 10
66.115341
 20
-236.268692
 30
0.0
 40
6.4
  1
ＭＬＺ６５３１ＭＭＤＡＨＥ－３ＢＬ
 72
     5
 11
173.635341
 21
-236.268692
 31
0.0
  0
TEXT
  8
3
  5
BE0
 10
66.115341
 20
-227.034576
 30
0.0
 40
6.4
  1
台付シングルレバー湯水混合水栓（寒）
 72
     5
 11
180.035341
 21
-227.034576
 31
0.0
  0
TEXT
  8
3
  5
BE1
 10
344.851013
 20
-255.798859
 30
0.0
 40
6.0
  1
２１　　２　　４
 72
     5
 11
391.651013
 21
-255.798859
 31
0.0
  0
TEXT
  8
3
  5
BE2
 10
218.295471
 20
-252.994156
 30
0.0
 40
7.0
  1
パールブラックメッキ
 41
0.9
 72
     5
 11
280.035471
 21
-252.994156
 31
0.0
  0
LINE
  8
5
 62
     3
  5
BE3
 10
161.482385
 20
218.028767
 30
0.0
 11
394.982385
 21
218.028767
 31
0.0
  0
LINE
  8
5
 62
     2
  5
BE4
 10
161.482385
 20
233.028767
 30
0.0
 11
394.982385
 21
233.028767
 31
0.0
  0
LINE
  8
5
 62
     2
  5
BE5
 10
161.482385
 20
248.028767
 30
0.0
 11
394.982385
 21
248.028767
 31
0.0
  0
LINE
  8
5
  5
BE6
 10
161.482385
 20
263.028767
 30
0.0
 11
394.982385
 21
263.028767
 31
0.0
  0
TEXT
  8
5
  5
BE7
 10
165.052644
 20
265.950703
 30
0.0
 40
6.0
  1
記号
 72
     5
 11
175.852644
 21
265.950703
 31
0.0
  0
TEXT
  8
5
  5
BE8
 10
316.856729
 20
265.859212
 30
0.0
 40
6.0
  1
訂 正 記 事
 72
     5
 11
357.656729
 21
265.859212
 31
0.0
  0
TEXT
  8
5
  5
BE9
 10
380.887817
 20
265.835536
 30
0.0
 40
6.0
  1
印
 72
     5
 11
385.687817
 21
265.835536
 31
0.0
  0
LINE
  8
5
 62
     3
  5
BEA
 10
161.482385
 20
218.028767
 30
0.0
 11
161.482385
 21
275.028767
 31
0.0
  0
LINE
  8
5
 62
     2
  5
BEB
 10
180.482385
 20
218.028767
 30
0.0
 11
180.482385
 21
275.028767
 31
0.0
  0
LINE
  8
5
 62
     2
  5
BEC
 10
372.982385
 20
218.028767
 30
0.0
 11
372.982385
 21
275.028767
 31
0.0
  0
LINE
  8
5
 62
     2
  5
BED
 10
302.982385
 20
218.028767
 30
0.0
 11
302.982385
 21
275.028767
 31
0.0
  0
LINE
  8
5
  5
BEE
 10
232.982385
 20
218.028767
 30
0.0
 11
232.982385
 21
275.028767
 31
0.0
  0
TEXT
  8
5
  5
BEF
 10
246.91768
 20
265.924672
 30
0.0
 40
6.0
  1
変　更　理　由
 72
     5
 11
287.71768
 21
265.924672
 31
0.0
  0
TEXT
  8
5
  5
BF0
 10
194.793748
 20
266.40334
 30
0.0
 40
6.0
  1
日　　付
 72
     5
 11
217.593748
 21
266.40334
 31
0.0
  0
TEXT
  8
5
  5
BF1
 10
183.098131
 20
252.400355
 30
0.0
 40
6.0
  1
　　・　　・
 72
     5
 11
217.898131
 21
252.400355
 31
0.0
  0
TEXT
  8
5
  5
BF2
 10
183.098131
 20
237.400355
 30
0.0
 40
6.0
  1
　　・　　・
 72
     5
 11
217.898131
 21
237.400355
 31
0.0
  0
TEXT
  8
5
  5
BF3
 10
183.098131
 20
222.400355
 30
0.0
 40
6.0
  1
　　・　　・
 72
     5
 11
217.898131
 21
222.400355
 31
0.0
  0
ENDSEC
  0
EOF
