  0
SECTION
  2
HEADER
  9
$ACADVER
  1
AC1015
  9
$ACADMAINTVER
 70
     6
  9
$DWGCODEPAGE
  3
ANSI_932
  9
$INSBASE
 10
0.0
 20
0.0
 30
0.0
  9
$EXTMIN
 10
-841.0
 20
-594.0
 30
1.000000E+20
  9
$EXTMAX
 10
841.0
 20
594.0
 30
-1.000000E+20
  9
$LIMMIN
 10
-841.0
 20
-594.0
  9
$LIMMAX
 10
841.0
 20
594.0
  9
$ORTHOMODE
 70
     0
  9
$REGENMODE
 70
     1
  9
$FILLMODE
 70
     1
  9
$QTEXTMODE
 70
     0
  9
$MIRRTEXT
 70
     1
  9
$LTSCALE
 40
1.0
  9
$ATTMODE
 70
     1
  9
$TEXTSIZE
 40
0.2
  9
$TRACEWID
 40
0.05
  9
$TEXTSTYLE
  7
STANDARD
  9
$CLAYER
  8
0
  9
$CELTYPE
  6
CONTINUOUS
  9
$CECOLOR
 62
   256
  9
$CELTSCALE
 40
1.0
  9
$DISPSILH
 70
     0
  9
$DIMSCALE
 40
2.0
  9
$DIMASZ
 40
2.0
  9
$DIMEXO
 40
1.0
  9
$DIMDLI
 40
0.38
  9
$DIMRND
 40
0.0
  9
$DIMDLE
 40
0.0
  9
$DIMEXE
 40
2.0
  9
$DIMTP
 40
0.0
  9
$DIMTM
 40
0.0
  9
$DIMTXT
 40
3.5
  9
$DIMCEN
 40
0.09
  9
$DIMTSZ
 40
0.0
  9
$DIMTOL
 70
     0
  9
$DIMLIM
 70
     0
  9
$DIMTIH
 70
     0
  9
$DIMTOH
 70
     0
  9
$DIMSE1
 70
     0
  9
$DIMSE2
 70
     0
  9
$DIMTAD
 70
     1
  9
$DIMZIN
 70
     0
  9
$DIMBLK
  1

  9
$DIMASO
 70
     1
  9
$DIMSHO
 70
     1
  9
$DIMPOST
  1

  9
$DIMAPOST
  1

  9
$DIMALT
 70
     0
  9
$DIMALTD
 70
     2
  9
$DIMALTF
 40
25.4
  9
$DIMLFAC
 40
1.0
  9
$DIMTOFL
 70
     0
  9
$DIMTVP
 40
0.0
  9
$DIMTIX
 70
     0
  9
$DIMSOXD
 70
     0
  9
$DIMSAH
 70
     0
  9
$DIMBLK1
  1

  9
$DIMBLK2
  1

  9
$DIMSTYLE
  2
Standard
  9
$DIMCLRD
 70
     0
  9
$DIMCLRE
 70
     0
  9
$DIMCLRT
 70
     0
  9
$DIMTFAC
 40
1.0
  9
$DIMGAP
 40
0.5
  9
$DIMJUST
 70
     0
  9
$DIMSD1
 70
     0
  9
$DIMSD2
 70
     0
  9
$DIMTOLJ
 70
     1
  9
$DIMTZIN
 70
     0
  9
$DIMALTZ
 70
     0
  9
$DIMALTTZ
 70
     0
  9
$DIMUPT
 70
     0
  9
$DIMDEC
 70
     3
  9
$DIMTDEC
 70
     4
  9
$DIMALTU
 70
     2
  9
$DIMALTTD
 70
     2
  9
$DIMTXSTY
  7
STANDARD
  9
$DIMAUNIT
 70
     0
  9
$DIMADEC
 70
     2
  9
$DIMALTRND
 40
0.0
  9
$DIMAZIN
 70
     0
  9
$DIMDSEP
 70
     0
  9
$DIMATFIT
 70
     3
  9
$DIMFRAC
 70
     0
  9
$DIMLDRBLK
  1

  9
$DIMLUNIT
 70
     2
  9
$DIMLWD
 70
     0
  9
$DIMLWE
 70
     0
  9
$DIMTMOVE
 70
     0
  9
$LUNITS
 70
     2
  9
$LUPREC
 70
     4
  9
$SKETCHINC
 40
0.1
  9
$FILLETRAD
 40
0.0
  9
$AUNITS
 70
     0
  9
$AUPREC
 70
     0
  9
$MENU
  1
acad
  9
$ELEVATION
 40
0.0
  9
$PELEVATION
 40
0.0
  9
$THICKNESS
 40
0.0
  9
$LIMCHECK
 70
     0
  9
$CHAMFERA
 40
0.0
  9
$CHAMFERB
 40
0.0
  9
$CHAMFERC
 40
0.0
  9
$CHAMFERD
 40
0.0
  9
$SKPOLY
 70
     0
  9
$TDCREATE
 40
2456442.000000000
  9
$TDUCREATE
 40
0.000000000
  9
$TDUPDATE
 40
0.000000000
  9
$TDUUPDATE
 40
2447892.625000000
  9
$TDINDWG
 40
0.0000000000
  9
$TDUSRTIMER
 40
0.0000000000
  9
$USRTIMER
 70
     1
  9
$ANGBASE
 50
0.0
  9
$ANGDIR
 70
     0
  9
$PDMODE
 70
     0
  9
$PDSIZE
 40
0.0
  9
$PLINEWID
 40
0.0
  9
$SPLFRAME
 70
     0
  9
$SPLINETYPE
 70
     6
  9
$SPLINESEGS
 70
     8
  9
$HANDSEED
  5
828
  9
$SURFTAB1
 70
     6
  9
$SURFTAB2
 70
     6
  9
$SURFTYPE
 70
     6
  9
$SURFU
 70
     6
  9
$SURFV
 70
     6
  9
$UCSBASE
  2

  9
$UCSNAME
  2

  9
$UCSORG
 10
0.0
 20
0.0
 30
0.0
  9
$UCSXDIR
 10
1.0
 20
0.0
 30
0.0
  9
$UCSYDIR
 10
0.0
 20
1.0
 30
0.0
  9
$UCSORTHOREF
  2

  9
$UCSORTHOVIEW
 70
     0
  9
$UCSORGTOP
 10
0.0
 20
0.0
 30
0.0
  9
$UCSORGBOTTOM
 10
0.0
 20
0.0
 30
0.0
  9
$UCSORGLEFT
 10
0.0
 20
0.0
 30
0.0
  9
$UCSORGRIGHT
 10
0.0
 20
0.0
 30
0.0
  9
$UCSORGFRONT
 10
0.0
 20
0.0
 30
0.0
  9
$UCSORGBACK
 10
0.0
 20
0.0
 30
0.0
  9
$PUCSBASE
  2

  9
$PUCSNAME
  2

  9
$PUCSORG
 10
0.0
 20
0.0
 30
0.0
  9
$PUCSXDIR
 10
1.0
 20
0.0
 30
0.0
  9
$PUCSYDIR
 10
0.0
 20
1.0
 30
0.0
  9
$PUCSORTHOREF
  2

  9
$PUCSORTHOVIEW
 70
     0
  9
$PUCSORGTOP
 10
0.0
 20
0.0
 30
0.0
  9
$PUCSORGBOTTOM
 10
0.0
 20
0.0
 30
0.0
  9
$PUCSORGLEFT
 10
0.0
 20
0.0
 30
0.0
  9
$PUCSORGRIGHT
 10
0.0
 20
0.0
 30
0.0
  9
$PUCSORGFRONT
 10
0.0
 20
0.0
 30
0.0
  9
$PUCSORGBACK
 10
0.0
 20
0.0
 30
0.0
  9
$USERI1
 70
     0
  9
$USERI2
 70
     0
  9
$USERI3
 70
     0
  9
$USERI4
 70
     0
  9
$USERI5
 70
     0
  9
$USERR1
 40
0.0
  9
$USERR2
 40
0.0
  9
$USERR3
 40
0.0
  9
$USERR4
 40
0.0
  9
$USERR5
 40
0.0
  9
$WORLDVIEW
 70
     1
  9
$SHADEDGE
 70
     3
  9
$SHADEDIF
 70
    70
  9
$TILEMODE
 70
     1
  9
$MAXACTVP
 70
    16
  9
$PINSBASE
 10
0.0
 20
0.0
 30
0.0
  9
$PLIMCHECK
 70
     0
  9
$PEXTMIN
 10
1.000000E+20
 20
1.000000E+20
 30
1.000000E+20
  9
$PEXTMAX
 10
-1.000000E+20
 20
-1.000000E+20
 30
-1.000000E+20
  9
$PLIMMIN
 10
0.0
 20
0.0
  9
$PLIMMAX
 10
12.0
 20
9.0
  9
$UNITMODE
 70
     0
  9
$VISRETAIN
 70
     0
  9
$PLINEGEN
 70
     1
  9
$PSLTSCALE
 70
     0
  9
$TREEDEPTH
 70
  3020
  9
$CMLSTYLE
  2
Standard
  9
$CMLJUST
 70
     0
  9
$CMLSCALE
 40
1.0
  9
$PROXYGRAPHICS
 70
     0
  9
$MEASUREMENT
 70
     0
  9
$CELWEIGHT
370
     0
  9
$ENDCAPS
280
     0
  9
$JOINSTYLE
280
     0
  9
$LWDISPLAY
290
     0
  9
$INSUNITS
 70
     0
  9
$HYPERLINKBASE
  1

  9
$STYLESHEET
  1

  9
$XEDIT
290
     1
  9
$CEPSNTYPE
380
     0
  9
$PSTYLEMODE
290
     1
  9
$FINGERPRINTGUID
  2

  9
$VERSIONGUID
  2

  9
$EXTNAMES
290
     1
  9
$PSVPSCALE
 40
0.0
  0
ENDSEC
  0
SECTION
  2
CLASSES
  0
CLASS
  1
LWPOLYLINE
  2
AcDbPolyline
  3
AutoCAD 2000
 90
        0
280
     0
281
     1
  0
CLASS
  1
IMAGE
  2
AcDbRasterImage
  3
ISM
 90
      127
280
     0
281
     1
  0
CLASS
  1
OLE2FRAME
  2
AcDbOle2Frame
  3
AutoCAD 2000
 90
        0
280
     0
281
     1
  0
CLASS
  1
HATCH
  2
AcDbHatch
  3
AutoCAD 2000
 90
        0
280
     0
281
     1
  0
CLASS
  1
DICTIONARYVAR
  2
AcDbDictionaryVar
  3
AutoCAD 2000
 90
        0
280
     0
281
     0
  0
CLASS
  1
RASTERVARIABLES
  2
AcDbRasterVariables
  3
ISM
 90
        0
280
     0
281
     0
  0
CLASS
  1
IMAGEDEF
  2
AcDbRasterImageDef
  3
ISM
 90
        0
280
     0
281
     0
  0
CLASS
  1
IMAGEDEF_REACTOR
  2
AcDbRasterImageDefReactor
  3
ISM
 90
        1
280
     0
281
     0
  0
CLASS
  1
IDBUFFER
  2
AcDbIdBuffer
  3
AutoCAD 2000
 90
        0
280
     0
281
     0
  0
CLASS
  1
SPATIAL_FILTER
  2
AcDbSpatialFilter
  3
AutoCAD 2000
 90
        0
280
     0
281
     0
  0
CLASS
  1
XRECORD
  2
AcDbXrecord
  3
AutoCAD 2000
 90
        0
280
     0
281
     0
  0
CLASS
  1
SORTENTSTABLE
  2
AcDbSortentsTable
  3
AutoCAD 2000
 90
        0
280
     0
281
     0
  0
CLASS
  1
LAYER_INDEX
  2
AcDbLayerIndex
  3
AutoCAD 2000
 90
        0
280
     0
281
     0
  0
CLASS
  1
SPATIAL_INDEX
  2
AcDbSpatialIndex
  3
AutoCAD 2000
 90
        0
280
     0
281
     0
  0
CLASS
  1
OBJECT_PTR
  2
CAseDLPNTableRecord
  3
"ASE-LPNTableRecord"
 90
        1
280
     0
281
     0
  0
CLASS
  1
LAYOUT
  2
AcDbLayout
  3
AutoCAD 2000
 90
        0
280
     0
281
     0
  0
CLASS
  1
PLOTSETTINGS
  2
AcDbPlotSettings
  3
AutoCAD 2000
 90
        0
280
     0
281
     0
  0
CLASS
  1
ACDBDICTIONARYWDFLT
  2
AcDbDictionaryWithDefault
  3
AutoCAD 2000
 90
        0
280
     0
281
     0
  0
CLASS
  1
ACDBPLACEHOLDER
  2
AcDbPlaceHolder
  3
AutoCAD 2000
 90
        0
280
     0
281
     0
  0
CLASS
  1
VBA_PROJECT
  2
AcDbVbaProject
  3
acadvba
 90
        0
280
     0
281
     0
  0
CLASS
  1
WIPEOUT
  2
AcDbWipeout
  3
WipeOut|AutoCAD Express Tool|expresstools@autodesk.com
 90
      127
280
     0
281
     1
  0
CLASS
  1
WIPEOUTVARIABLES
  2
AcDbWipeoutVariables
  3
WipeOut|AutoCAD Express Tool|expresstools@autodesk.com
 90
        0
280
     0
281
     0
  0
CLASS
  1
RTEXT
  2
RText
  3
RText|AutoCAD Express Tool|expresstools@autodesk.com
 90
        0
280
     0
281
     1
  0
CLASS
  1
ARCALIGNEDTEXT
  2
AcDbArcAlignedText
  3
ATEXT|AutoCAD Express Tool|expresstools@autodesk.com
 90
        0
280
     0
281
     1
  0
ENDSEC
  0
SECTION
  2
TABLES
  0
TABLE
  2
VPORT
  5
6
100
AcDbSymbolTable
 70
     1
  0
VPORT
  5
19
100
AcDbSymbolTableRecord
100
AcDbViewportTableRecord
  2
*ACTIVE
 70
     0
 10
0.0
 20
0.0
 11
1.0
 21
1.0
 12
0.0
 22
0.0
 13
0.0
 23
0.0
 14
1.0
 24
1.0
 15
0.0
 25
0.0
 16
0.0
 26
0.0
 36
1.0
 17
0.0
 27
0.0
 37
0.0
 40
1188.0
 41
1.415825
 42
50.0
 43
0.0
 44
0.0
 50
0.0
 51
0.0
 71
     0
 72
   500
 73
     1
 74
     1
 75
     0
 76
     0
 77
     0
 78
     0
281
     0
 65
     0
110
0.0
120
0.0
130
0.0
111
1.0
121
0.0
131
0.0
112
0.0
122
1.0
132
0.0
345
0
346
0
 79
     0
146
0.0
  0
ENDTAB
  0
TABLE
  2
LTYPE
  5
3
100
AcDbSymbolTable
 70
     9
  0
LTYPE
  5
C
100
AcDbSymbolTableRecord
100
AcDbLinetypeTableRecord
  2
ByBlock
 70
    64
  3

 72
    65
 73
     0
 40
0.0
  0
LTYPE
  5
D
100
AcDbSymbolTableRecord
100
AcDbLinetypeTableRecord
  2
ByLayer
 70
    64
  3

 72
    65
 73
     0
 40
0.0
  0
LTYPE
  5
E
100
AcDbSymbolTableRecord
100
AcDbLinetypeTableRecord
  2
CONTINUOUS
 70
     0
  3
Solid line
 72
    65
 73
     0
 40
0.0
  0
LTYPE
  5
F
100
AcDbSymbolTableRecord
100
AcDbLinetypeTableRecord
  2
DASHED
 70
     0
  3
__ __ __ __ __ __ __ __ __ __ __ __ __ __ __
 72
    65
 73
     2
 40
2.0
 49
1.2
 74
     0
 49
-0.8
 74
     0
  0
LTYPE
  5
10
100
AcDbSymbolTableRecord
100
AcDbLinetypeTableRecord
  2
CENTER
 70
     0
  3
____ _ ____ _ ____ _ ____ _ ____ _ ____ _ ____
 72
    65
 73
     4
 40
12.0
 49
9.0
 74
     0
 49
-1.0
 74
     0
 49
1.0
 74
     0
 49
-1.0
 74
     0
  0
LTYPE
  5
11
100
AcDbSymbolTableRecord
100
AcDbLinetypeTableRecord
  2
HIDDEN
 70
     0
  3
_ _ _ _ _ _ _ _ _ _ _ _ _ _ _ _ _ _ _ _ _ _ _
 72
    65
 73
     2
 40
3.2
 49
2.4
 74
     0
 49
-0.8
 74
     0
  0
LTYPE
  5
12
100
AcDbSymbolTableRecord
100
AcDbLinetypeTableRecord
  2
PHANTOM
 70
     0
  3
_____ _ _ _____ _ _ _____ _ _ _____ _ _ _____
 72
    65
 73
     6
 40
13.5
 49
9.0
 74
     0
 49
-1.0
 74
     0
 49
1.0
 74
     0
 49
-0.5
 74
     0
 49
1.0
 74
     0
 49
-1.0
 74
     0
  0
LTYPE
  5
13
100
AcDbSymbolTableRecord
100
AcDbLinetypeTableRecord
  2
DOT
 70
     0
  3
...............................................
 72
    65
 73
     2
 40
1.0
 49
0.5
 74
     0
 49
-0.5
 74
     0
  0
LTYPE
  5
14
100
AcDbSymbolTableRecord
100
AcDbLinetypeTableRecord
  2
DASHDOT
 70
     0
  3
__ . __ . __ . __ . __ . __ . __ . __ . __ . __
 72
    65
 73
     4
 40
8.0
 49
5.0
 74
     0
 49
-1.0
 74
     0
 49
1.0
 74
     0
 49
-1.0
 74
     0
  0
ENDTAB
  0
TABLE
  2
LAYER
  5
1
100
AcDbSymbolTable
 70
     4
  0
LAYER
  5
15
100
AcDbSymbolTableRecord
100
AcDbLayerTableRecord
  2
0
 70
     0
 62
   225
  6
CONTINUOUS
290
     1
370
    -3
390
0
  0
LAYER
  5
16
100
AcDbSymbolTableRecord
100
AcDbLayerTableRecord
  2
1
 70
     0
 62
     2
  6
CONTINUOUS
290
     1
370
    -3
390
0
  0
LAYER
  5
17
100
AcDbSymbolTableRecord
100
AcDbLayerTableRecord
  2
2
 70
     0
 62
     3
  6
CONTINUOUS
290
     1
370
    -3
390
0
  0
LAYER
  5
18
100
AcDbSymbolTableRecord
100
AcDbLayerTableRecord
  2
3
 70
     0
 62
     4
  6
CONTINUOUS
290
     1
370
    -3
390
0
  0
ENDTAB
  0
TABLE
  2
STYLE
  5
2
100
AcDbSymbolTable
 70
     1
  0
STYLE
  5
1B
100
AcDbSymbolTableRecord
100
AcDbTextStyleTableRecord
  2
STANDARD
 70
    64
 40
0.0
 41
1.0
 50
0.0
 71
     0
 42
1.0
  3
txt
  4
BIGFONT
  0
ENDTAB
  0
TABLE
  2
VIEW
  5
4
100
AcDbSymbolTable
 70
     0
  0
ENDTAB
  0
TABLE
  2
UCS
  5
5
100
AcDbSymbolTable
 70
     0
  0
ENDTAB
  0
TABLE
  2
APPID
  5
7
100
AcDbSymbolTable
 70
     1
  0
APPID
  5
1A
100
AcDbSymbolTableRecord
100
AcDbRegAppTableRecord
  2
ACAD
 70
     0
  0
ENDTAB
  0
TABLE
  2
DIMSTYLE
  5
8
100
AcDbSymbolTable
 70
     1
100
AcDbDimStyleTable
 71
     0
  0
DIMSTYLE
105
31
100
AcDbSymbolTableRecord
100
AcDbDimStyleTableRecord
  2
Standard
 70
     0
  3

  4

 40
2.0
 41
2.0
 42
1.0
 43
0.38
 44
2.0
 45
0.0
 46
0.0
 47
0.0
 48
0.0
 71
     0
 72
     0
 73
     0
 74
     0
 75
     0
 76
     0
 77
     1
 78
     0
 79
     0
140
3.5
141
0.09
142
0.0
143
25.4
144
1.0
145
0.0
146
1.0
147
0.5
148
0.0
170
     0
171
     2
172
     0
173
     0
174
     0
175
     0
176
     0
177
     0
178
     0
179
     0
271
     3
272
     4
273
     2
274
     2
275
     0
276
     0
277
     2
278
    46
279
     0
280
     0
281
     0
282
     0
283
     1
284
     0
285
     0
286
     0
288
     0
289
     3
340
1B
341
0
342
0
343
0
344
0
371
    -2
372
    -2
  0
ENDTAB
  0
TABLE
  2
BLOCK_RECORD
  5
2C
100
AcDbSymbolTable
 70
    14
  0
BLOCK_RECORD
  5
2A
100
AcDbSymbolTableRecord
100
AcDbBlockTableRecord
  2
*Model_Space
340
0
  0
BLOCK_RECORD
  5
2B
100
AcDbSymbolTableRecord
100
AcDbBlockTableRecord
  2
*Paper_Space
340
0
  0
BLOCK_RECORD
  5
1C
100
AcDbSymbolTableRecord
100
AcDbBlockTableRecord
  2
*D0
340
0
  0
BLOCK_RECORD
  5
1D
100
AcDbSymbolTableRecord
100
AcDbBlockTableRecord
  2
*D1
340
0
  0
BLOCK_RECORD
  5
1E
100
AcDbSymbolTableRecord
100
AcDbBlockTableRecord
  2
*D2
340
0
  0
BLOCK_RECORD
  5
1F
100
AcDbSymbolTableRecord
100
AcDbBlockTableRecord
  2
*D3
340
0
  0
BLOCK_RECORD
  5
20
100
AcDbSymbolTableRecord
100
AcDbBlockTableRecord
  2
*D4
340
0
  0
BLOCK_RECORD
  5
21
100
AcDbSymbolTableRecord
100
AcDbBlockTableRecord
  2
*D5
340
0
  0
BLOCK_RECORD
  5
22
100
AcDbSymbolTableRecord
100
AcDbBlockTableRecord
  2
*D6
340
0
  0
BLOCK_RECORD
  5
23
100
AcDbSymbolTableRecord
100
AcDbBlockTableRecord
  2
*D7
340
0
  0
BLOCK_RECORD
  5
24
100
AcDbSymbolTableRecord
100
AcDbBlockTableRecord
  2
*D8
340
0
  0
BLOCK_RECORD
  5
25
100
AcDbSymbolTableRecord
100
AcDbBlockTableRecord
  2
*D9
340
0
  0
BLOCK_RECORD
  5
26
100
AcDbSymbolTableRecord
100
AcDbBlockTableRecord
  2
*D10
340
0
  0
BLOCK_RECORD
  5
27
100
AcDbSymbolTableRecord
100
AcDbBlockTableRecord
  2
*D11
340
0
  0
BLOCK_RECORD
  5
28
100
AcDbSymbolTableRecord
100
AcDbBlockTableRecord
  2
*D12
340
0
  0
BLOCK_RECORD
  5
29
100
AcDbSymbolTableRecord
100
AcDbBlockTableRecord
  2
*D13
340
0
  0
ENDTAB
  0
ENDSEC
  0
SECTION
  2
BLOCKS
  0
BLOCK
  5
2D
100
AcDbEntity
  8
0
390
0
100
AcDbBlockBegin
  2
*Model_Space
 70
     0
 10
0.0
 20
0.0
 30
0.0
  3
*Model_Space
  1

  0
ENDBLK
  5
2E
100
AcDbEntity
  8
0
390
0
100
AcDbBlockEnd
  0
BLOCK
  5
2F
100
AcDbEntity
 67
     1
  8
0
390
0
100
AcDbBlockBegin
  2
*Paper_Space
 70
     0
 10
0.0
 20
0.0
 30
0.0
  3
*Paper_Space
  1

  0
ENDBLK
  5
30
100
AcDbEntity
 67
     1
  8
0
390
0
100
AcDbBlockEnd
  0
BLOCK
  5
784
100
AcDbEntity
  8
3
100
AcDbBlockBegin
  2
*D0
 70
     1
 10
0.0
 20
0.0
 30
0.0
  3
*D0
  1

  0
LINE
  5
785
100
AcDbEntity
  8
3
370
    25
100
AcDbLine
 10
54.307551
 20
87.670552
 30
0.0
 11
54.307551
 21
0.762348
 31
0.0
  0
LINE
  5
786
100
AcDbEntity
  8
3
370
    25
100
AcDbLine
 10
54.307551
 20
2.762348
 30
0.0
 11
58.171254
 21
1.727072
 31
0.0
  0
LINE
  5
787
100
AcDbEntity
  8
3
370
    25
100
AcDbLine
 10
54.307551
 20
2.762348
 30
0.0
 11
58.171254
 21
3.797624
 31
0.0
  0
LINE
  5
788
100
AcDbEntity
  8
3
370
    25
100
AcDbLine
 10
58.171254
 20
1.727072
 30
0.0
 11
58.171254
 21
3.797624
 31
0.0
  0
LINE
  5
789
100
AcDbEntity
  8
3
370
    25
100
AcDbLine
 10
54.307551
 20
2.762348
 30
0.0
 11
175.898505
 21
2.762348
 31
0.0
  0
LINE
  5
78A
100
AcDbEntity
  8
3
370
    25
100
AcDbLine
 10
175.898505
 20
2.762348
 30
0.0
 11
172.034802
 21
3.797624
 31
0.0
  0
LINE
  5
78B
100
AcDbEntity
  8
3
370
    25
100
AcDbLine
 10
175.898505
 20
2.762348
 30
0.0
 11
172.034802
 21
1.727072
 31
0.0
  0
LINE
  5
78C
100
AcDbEntity
  8
3
370
    25
100
AcDbLine
 10
172.034802
 20
3.797624
 30
0.0
 11
172.034802
 21
1.727072
 31
0.0
  0
ENDBLK
  5
78D
100
AcDbEntity
  8
3
100
AcDbBlockEnd
  0
BLOCK
  5
78E
100
AcDbEntity
  8
3
100
AcDbBlockBegin
  2
*D1
 70
     1
 10
0.0
 20
0.0
 30
0.0
  3
*D1
  1

  0
LINE
  5
78F
100
AcDbEntity
  8
3
370
    25
100
AcDbLine
 10
151.898505
 20
12.781398
 30
0.0
 11
23.093758
 21
12.781398
 31
0.0
  0
LINE
  5
790
100
AcDbEntity
  8
3
370
    25
100
AcDbLine
 10
25.093758
 20
12.781398
 30
0.0
 11
26.129034
 21
16.645101
 31
0.0
  0
LINE
  5
791
100
AcDbEntity
  8
3
370
    25
100
AcDbLine
 10
25.093758
 20
12.781398
 30
0.0
 11
24.058481
 21
16.645101
 31
0.0
  0
LINE
  5
792
100
AcDbEntity
  8
3
370
    25
100
AcDbLine
 10
26.129034
 20
16.645101
 30
0.0
 11
24.058481
 21
16.645101
 31
0.0
  0
LINE
  5
793
100
AcDbEntity
  8
3
370
    25
100
AcDbLine
 10
25.093758
 20
12.781398
 30
0.0
 11
25.093758
 21
89.670552
 31
0.0
  0
LINE
  5
794
100
AcDbEntity
  8
3
370
    25
100
AcDbLine
 10
25.093758
 20
89.670552
 30
0.0
 11
24.058481
 21
85.806849
 31
0.0
  0
LINE
  5
795
100
AcDbEntity
  8
3
370
    25
100
AcDbLine
 10
25.093758
 20
89.670552
 30
0.0
 11
26.129034
 21
85.806849
 31
0.0
  0
LINE
  5
796
100
AcDbEntity
  8
3
370
    25
100
AcDbLine
 10
24.058481
 20
85.806849
 30
0.0
 11
26.129034
 21
85.806849
 31
0.0
  0
LINE
  5
797
100
AcDbEntity
  8
3
370
    25
100
AcDbLine
 10
52.307551
 20
89.670552
 30
0.0
 11
23.093758
 21
89.670552
 31
0.0
  0
ENDBLK
  5
798
100
AcDbEntity
  8
3
100
AcDbBlockEnd
  0
BLOCK
  5
799
100
AcDbEntity
  8
3
100
AcDbBlockBegin
  2
*D2
 70
     1
 10
0.0
 20
0.0
 30
0.0
  3
*D2
  1

  0
TEXT
  5
79A
100
AcDbEntity
  8
3
370
    25
100
AcDbText
 10
32.438901
 20
39.539823
 30
0.0
 40
7.0
  1
２５゜
 50
347.5
 72
     5
 11
51.574303
 21
35.297606
 31
0.0
100
AcDbText
  0
LINE
  5
79B
100
AcDbEntity
  8
3
370
    25
100
AcDbLine
 10
51.025124
 20
82.631365
 30
0.0
 11
30.355376
 21
38.304948
 31
0.0
  0
LINE
  5
79C
100
AcDbEntity
  8
3
370
    25
100
AcDbLine
 10
54.307551
 20
87.670552
 30
0.0
 11
54.307551
 21
32.994879
 31
0.0
  0
LINE
  5
79D
100
AcDbEntity
  8
3
370
    25
100
AcDbLine
 10
31.200613
 20
40.117564
 30
0.0
 11
34.353724
 21
37.656285
 31
0.0
  0
LINE
  5
79E
100
AcDbEntity
  8
3
370
    25
100
AcDbLine
 10
31.200613
 20
40.117564
 30
0.0
 11
35.161926
 21
39.562589
 31
0.0
  0
LINE
  5
79F
100
AcDbEntity
  8
3
370
    25
100
AcDbLine
 10
34.353724
 20
37.656285
 30
0.0
 11
35.161926
 21
39.562589
 31
0.0
  0
LINE
  5
7A0
100
AcDbEntity
  8
3
370
    25
100
AcDbLine
 10
54.307551
 20
34.994879
 30
0.0
 11
50.482839
 21
36.166025
 31
0.0
  0
LINE
  5
7A1
100
AcDbEntity
  8
3
370
    25
100
AcDbLine
 10
54.307551
 20
34.994879
 30
0.0
 11
50.409681
 21
34.096765
 31
0.0
  0
LINE
  5
7A2
100
AcDbEntity
  8
3
370
    25
100
AcDbLine
 10
50.482839
 20
36.166025
 30
0.0
 11
50.409681
 21
34.096765
 31
0.0
  0
ARC
  5
7A3
100
AcDbEntity
  8
3
370
    25
100
AcDbCircle
 10
54.307551
 20
89.670552
 30
0.0
 40
54.675673
100
AcDbArc
 50
245.0
 51
270.0
  0
ENDBLK
  5
7A4
100
AcDbEntity
  8
3
100
AcDbBlockEnd
  0
BLOCK
  5
7A5
100
AcDbEntity
  8
3
100
AcDbBlockBegin
  2
*D3
 70
     1
 10
0.0
 20
0.0
 30
0.0
  3
*D3
  1

  0
LINE
  5
7A6
100
AcDbEntity
  8
3
370
    25
100
AcDbLine
 10
150.398505
 20
12.781398
 30
0.0
 11
9.528389
 21
12.781398
 31
0.0
  0
LINE
  5
7A7
100
AcDbEntity
  8
3
370
    25
100
AcDbLine
 10
11.528389
 20
12.781398
 30
0.0
 11
12.563665
 21
16.645101
 31
0.0
  0
LINE
  5
7A8
100
AcDbEntity
  8
3
370
    25
100
AcDbLine
 10
11.528389
 20
12.781398
 30
0.0
 11
10.493113
 21
16.645101
 31
0.0
  0
LINE
  5
7A9
100
AcDbEntity
  8
3
370
    25
100
AcDbLine
 10
12.563665
 20
16.645101
 30
0.0
 11
10.493113
 21
16.645101
 31
0.0
  0
LINE
  5
7AA
100
AcDbEntity
  8
3
370
    25
100
AcDbLine
 10
11.528389
 20
12.781398
 30
0.0
 11
11.528389
 21
162.981398
 31
0.0
  0
LINE
  5
7AB
100
AcDbEntity
  8
3
370
    25
100
AcDbLine
 10
11.528389
 20
162.981398
 30
0.0
 11
10.493113
 21
159.117695
 31
0.0
  0
LINE
  5
7AC
100
AcDbEntity
  8
3
370
    25
100
AcDbLine
 10
11.528389
 20
162.981398
 30
0.0
 11
12.563665
 21
159.117695
 31
0.0
  0
LINE
  5
7AD
100
AcDbEntity
  8
3
370
    25
100
AcDbLine
 10
10.493113
 20
159.117695
 30
0.0
 11
12.563665
 21
159.117695
 31
0.0
  0
LINE
  5
7AE
100
AcDbEntity
  8
3
370
    25
100
AcDbLine
 10
173.898505
 20
162.981398
 30
0.0
 11
9.528389
 21
162.981398
 31
0.0
  0
ENDBLK
  5
7AF
100
AcDbEntity
  8
3
100
AcDbBlockEnd
  0
BLOCK
  5
7B0
100
AcDbEntity
  8
3
100
AcDbBlockBegin
  2
*D4
 70
     1
 10
0.0
 20
0.0
 30
0.0
  3
*D4
  1

  0
LINE
  5
7B1
100
AcDbEntity
  8
3
370
    25
100
AcDbLine
 10
149.598505
 20
12.781398
 30
0.0
 11
-4.325867
 21
12.781398
 31
0.0
  0
LINE
  5
7B2
100
AcDbEntity
  8
3
370
    25
100
AcDbLine
 10
-2.325867
 20
12.781398
 30
0.0
 11
-1.290591
 21
16.645101
 31
0.0
  0
LINE
  5
7B3
100
AcDbEntity
  8
3
370
    25
100
AcDbLine
 10
-2.325867
 20
12.781398
 30
0.0
 11
-3.361143
 21
16.645101
 31
0.0
  0
LINE
  5
7B4
100
AcDbEntity
  8
3
370
    25
100
AcDbLine
 10
-1.290591
 20
16.645101
 30
0.0
 11
-3.361143
 21
16.645101
 31
0.0
  0
LINE
  5
7B5
100
AcDbEntity
  8
3
370
    25
100
AcDbLine
 10
-2.325867
 20
12.781398
 30
0.0
 11
-2.325867
 21
193.202183
 31
0.0
  0
LINE
  5
7B6
100
AcDbEntity
  8
3
370
    25
100
AcDbLine
 10
-2.325867
 20
193.202183
 30
0.0
 11
-3.361143
 21
189.33848
 31
0.0
  0
LINE
  5
7B7
100
AcDbEntity
  8
3
370
    25
100
AcDbLine
 10
-2.325867
 20
193.202183
 30
0.0
 11
-1.290591
 21
189.33848
 31
0.0
  0
LINE
  5
7B8
100
AcDbEntity
  8
3
370
    25
100
AcDbLine
 10
-3.361143
 20
189.33848
 30
0.0
 11
-1.290591
 21
189.33848
 31
0.0
  0
LINE
  5
7B9
100
AcDbEntity
  8
3
370
    25
100
AcDbLine
 10
106.793872
 20
193.202183
 30
0.0
 11
-4.325867
 21
193.202183
 31
0.0
  0
ENDBLK
  5
7BA
100
AcDbEntity
  8
3
100
AcDbBlockEnd
  0
BLOCK
  5
7BB
100
AcDbEntity
  8
3
100
AcDbBlockBegin
  2
*D5
 70
     1
 10
0.0
 20
0.0
 30
0.0
  3
*D5
  1

  0
TEXT
  5
7BC
100
AcDbEntity
  8
3
370
    25
100
AcDbText
 10
75.241097
 20
172.196663
 30
0.0
 40
7.0
  1
２５゜
 50
77.5
 72
     5
 11
79.483314
 21
191.332065
 31
0.0
100
AcDbText
  0
LINE
  5
7BD
100
AcDbEntity
  8
3
370
    25
100
AcDbLine
 10
107.434411
 20
193.83611
 30
0.0
 11
84.033845
 21
204.747974
 31
0.0
  0
LINE
  5
7BE
100
AcDbEntity
  8
3
370
    25
100
AcDbLine
 10
89.398505
 20
159.481398
 30
0.0
 11
73.998486
 21
159.481398
 31
0.0
  0
LINE
  5
7BF
100
AcDbEntity
  8
3
370
    25
100
AcDbLine
 10
85.84646
 20
203.902737
 30
0.0
 11
83.332062
 21
200.791821
 31
0.0
  0
LINE
  5
7C0
100
AcDbEntity
  8
3
370
    25
100
AcDbLine
 10
85.84646
 20
203.902737
 30
0.0
 11
85.224385
 21
199.951405
 31
0.0
  0
LINE
  5
7C1
100
AcDbEntity
  8
3
370
    25
100
AcDbLine
 10
83.332062
 20
200.791821
 30
0.0
 11
85.224385
 21
199.951405
 31
0.0
  0
LINE
  5
7C2
100
AcDbEntity
  8
3
370
    25
100
AcDbLine
 10
75.998486
 20
159.481398
 30
0.0
 11
77.1046
 21
163.325421
 31
0.0
  0
LINE
  5
7C3
100
AcDbEntity
  8
3
370
    25
100
AcDbLine
 10
75.998486
 20
159.481398
 30
0.0
 11
75.034397
 21
163.363476
 31
0.0
  0
LINE
  5
7C4
100
AcDbEntity
  8
3
370
    25
100
AcDbLine
 10
77.1046
 20
163.325421
 30
0.0
 11
75.034397
 21
163.363476
 31
0.0
  0
ARC
  5
7C5
100
AcDbEntity
  8
3
370
    25
100
AcDbCircle
 10
181.10833
 20
159.481398
 30
0.0
 40
105.109844
100
AcDbArc
 50
155.0
 51
180.0
  0
ENDBLK
  5
7C6
100
AcDbEntity
  8
3
100
AcDbBlockEnd
  0
BLOCK
  5
7C7
100
AcDbEntity
  8
3
100
AcDbBlockBegin
  2
*D6
 70
     1
 10
0.0
 20
0.0
 30
0.0
  3
*D6
  1

  0
LINE
  5
7C8
100
AcDbEntity
  8
3
370
    25
100
AcDbLine
 10
249.776259
 20
-80.213578
 30
0.0
 11
283.843811
 21
-80.213578
 31
0.0
  0
LINE
  5
7C9
100
AcDbEntity
  8
3
370
    25
100
AcDbLine
 10
281.843811
 20
-80.213578
 30
0.0
 11
282.879087
 21
-76.349875
 31
0.0
  0
LINE
  5
7CA
100
AcDbEntity
  8
3
370
    25
100
AcDbLine
 10
281.843811
 20
-80.213578
 30
0.0
 11
280.808535
 21
-76.349875
 31
0.0
  0
LINE
  5
7CB
100
AcDbEntity
  8
3
370
    25
100
AcDbLine
 10
282.879087
 20
-76.349875
 30
0.0
 11
280.808535
 21
-76.349875
 31
0.0
  0
LINE
  5
7CC
100
AcDbEntity
  8
3
370
    25
100
AcDbLine
 10
281.843811
 20
-80.213578
 30
0.0
 11
281.843811
 21
12.781398
 31
0.0
  0
LINE
  5
7CD
100
AcDbEntity
  8
3
370
    25
100
AcDbLine
 10
281.843811
 20
12.781398
 30
0.0
 11
280.808535
 21
8.917695
 31
0.0
  0
LINE
  5
7CE
100
AcDbEntity
  8
3
370
    25
100
AcDbLine
 10
281.843811
 20
12.781398
 30
0.0
 11
282.879087
 21
8.917695
 31
0.0
  0
LINE
  5
7CF
100
AcDbEntity
  8
3
370
    25
100
AcDbLine
 10
280.808535
 20
8.917695
 30
0.0
 11
282.879087
 21
8.917695
 31
0.0
  0
LINE
  5
7D0
100
AcDbEntity
  8
3
370
    25
100
AcDbLine
 10
201.398505
 20
12.781398
 30
0.0
 11
283.843811
 21
12.781398
 31
0.0
  0
ENDBLK
  5
7D1
100
AcDbEntity
  8
3
100
AcDbBlockEnd
  0
BLOCK
  5
7D2
100
AcDbEntity
  8
3
100
AcDbBlockBegin
  2
*D7
 70
     1
 10
0.0
 20
0.0
 30
0.0
  3
*D7
  1

  0
LINE
  5
7D3
100
AcDbEntity
  8
3
370
    25
100
AcDbLine
 10
108.265361
 20
-175.126515
 30
0.0
 11
23.093758
 21
-175.126515
 31
0.0
  0
LINE
  5
7D4
100
AcDbEntity
  8
3
370
    25
100
AcDbLine
 10
25.093758
 20
-175.126515
 30
0.0
 11
26.129034
 21
-171.262812
 31
0.0
  0
LINE
  5
7D5
100
AcDbEntity
  8
3
370
    25
100
AcDbLine
 10
25.093758
 20
-175.126515
 30
0.0
 11
24.058481
 21
-171.262812
 31
0.0
  0
LINE
  5
7D6
100
AcDbEntity
  8
3
370
    25
100
AcDbLine
 10
26.129034
 20
-171.262812
 30
0.0
 11
24.058481
 21
-171.262812
 31
0.0
  0
LINE
  5
7D7
100
AcDbEntity
  8
3
370
    25
100
AcDbLine
 10
25.093758
 20
-175.126515
 30
0.0
 11
25.093758
 21
12.781398
 31
0.0
  0
LINE
  5
7D8
100
AcDbEntity
  8
3
370
    25
100
AcDbLine
 10
25.093758
 20
12.781398
 30
0.0
 11
24.058481
 21
8.917695
 31
0.0
  0
LINE
  5
7D9
100
AcDbEntity
  8
3
370
    25
100
AcDbLine
 10
25.093758
 20
12.781398
 30
0.0
 11
26.129034
 21
8.917695
 31
0.0
  0
LINE
  5
7DA
100
AcDbEntity
  8
3
370
    25
100
AcDbLine
 10
24.058481
 20
8.917695
 30
0.0
 11
26.129034
 21
8.917695
 31
0.0
  0
LINE
  5
7DB
100
AcDbEntity
  8
3
370
    25
100
AcDbLine
 10
149.598505
 20
12.781398
 30
0.0
 11
23.093758
 21
12.781398
 31
0.0
  0
ENDBLK
  5
7DC
100
AcDbEntity
  8
3
100
AcDbBlockEnd
  0
BLOCK
  5
7DD
100
AcDbEntity
  8
3
100
AcDbBlockBegin
  2
*D8
 70
     1
 10
0.0
 20
0.0
 30
0.0
  3
*D8
  1

  0
LINE
  5
7DE
100
AcDbEntity
  8
3
370
    25
100
AcDbLine
 10
-166.138101
 20
-3.518494
 30
0.0
 11
-196.280182
 21
-3.518494
 31
0.0
  0
LINE
  5
7DF
100
AcDbEntity
  8
3
370
    25
100
AcDbLine
 10
-194.280182
 20
-3.518494
 30
0.0
 11
-195.315458
 21
-7.382198
 31
0.0
  0
LINE
  5
7E0
100
AcDbEntity
  8
3
370
    25
100
AcDbLine
 10
-194.280182
 20
-3.518494
 30
0.0
 11
-193.244906
 21
-7.382198
 31
0.0
  0
LINE
  5
7E1
100
AcDbEntity
  8
3
370
    25
100
AcDbLine
 10
-195.315458
 20
-7.382198
 30
0.0
 11
-193.244906
 21
-7.382198
 31
0.0
  0
LINE
  5
7E2
100
AcDbEntity
  8
3
370
    25
100
AcDbLine
 10
-194.280182
 20
-13.518494
 30
0.0
 11
-194.280182
 21
83.781506
 31
0.0
  0
LINE
  5
7E3
100
AcDbEntity
  8
3
370
    25
100
AcDbLine
 10
-194.280182
 20
12.781506
 30
0.0
 11
-193.244906
 21
16.645209
 31
0.0
  0
LINE
  5
7E4
100
AcDbEntity
  8
3
370
    25
100
AcDbLine
 10
-194.280182
 20
12.781506
 30
0.0
 11
-195.315458
 21
16.645209
 31
0.0
  0
LINE
  5
7E5
100
AcDbEntity
  8
3
370
    25
100
AcDbLine
 10
-193.244906
 20
16.645209
 30
0.0
 11
-195.315458
 21
16.645209
 31
0.0
  0
LINE
  5
7E6
100
AcDbEntity
  8
3
370
    25
100
AcDbLine
 10
-165.386101
 20
12.781506
 30
0.0
 11
-196.280182
 21
12.781506
 31
0.0
  0
ENDBLK
  5
7E7
100
AcDbEntity
  8
3
100
AcDbBlockEnd
  0
BLOCK
  5
7E8
100
AcDbEntity
  8
3
100
AcDbBlockBegin
  2
*D9
 70
     1
 10
0.0
 20
0.0
 30
0.0
  3
*D9
  1

  0
TEXT
  5
7E9
100
AcDbEntity
  8
3
370
    25
100
AcDbText
 10
-149.586101
 20
179.042847
 30
0.0
 40
7.0
  1
φ５２
 72
     5
 11
-129.986101
 21
179.042847
 31
0.0
100
AcDbText
  0
LINE
  5
7EA
100
AcDbEntity
  8
3
370
    25
100
AcDbLine
 10
-113.086101
 20
163.354752
 30
0.0
 11
-113.086101
 21
180.042847
 31
0.0
  0
LINE
  5
7EB
100
AcDbEntity
  8
3
370
    25
100
AcDbLine
 10
-113.086101
 20
178.042847
 30
0.0
 11
-116.949804
 21
179.078123
 31
0.0
  0
LINE
  5
7EC
100
AcDbEntity
  8
3
370
    25
100
AcDbLine
 10
-113.086101
 20
178.042847
 30
0.0
 11
-116.949804
 21
177.007571
 31
0.0
  0
LINE
  5
7ED
100
AcDbEntity
  8
3
370
    25
100
AcDbLine
 10
-116.949804
 20
179.078123
 30
0.0
 11
-116.949804
 21
177.007571
 31
0.0
  0
LINE
  5
7EE
100
AcDbEntity
  8
3
370
    25
100
AcDbLine
 10
-113.086101
 20
178.042847
 30
0.0
 11
-165.086101
 21
178.042847
 31
0.0
  0
LINE
  5
7EF
100
AcDbEntity
  8
3
370
    25
100
AcDbLine
 10
-165.086101
 20
178.042847
 30
0.0
 11
-161.222397
 21
177.007571
 31
0.0
  0
LINE
  5
7F0
100
AcDbEntity
  8
3
370
    25
100
AcDbLine
 10
-165.086101
 20
178.042847
 30
0.0
 11
-161.222397
 21
179.078123
 31
0.0
  0
LINE
  5
7F1
100
AcDbEntity
  8
3
370
    25
100
AcDbLine
 10
-161.222397
 20
177.007571
 30
0.0
 11
-161.222397
 21
179.078123
 31
0.0
  0
LINE
  5
7F2
100
AcDbEntity
  8
3
370
    25
100
AcDbLine
 10
-165.086101
 20
163.354752
 30
0.0
 11
-165.086101
 21
180.042847
 31
0.0
  0
ENDBLK
  5
7F3
100
AcDbEntity
  8
3
100
AcDbBlockEnd
  0
BLOCK
  5
7F4
100
AcDbEntity
  8
3
100
AcDbBlockBegin
  2
*D10
 70
     1
 10
0.0
 20
0.0
 30
0.0
  3
*D10
  1

  0
TEXT
  5
7F5
100
AcDbEntity
  8
3
370
    25
100
AcDbText
 10
-295.000336
 20
67.62713
 30
0.0
 40
7.0
  1
３０゜
 72
     5
 11
-275.400336
 21
67.62713
 31
0.0
100
AcDbText
  0
LINE
  5
7F6
100
AcDbEntity
  8
3
370
    25
100
AcDbLine
 10
-320.339793
 20
83.272446
 30
0.0
 11
-323.944356
 21
69.820034
 31
0.0
  0
LINE
  5
7F7
100
AcDbEntity
  8
3
370
    25
100
AcDbLine
 10
-248.660879
 20
83.272446
 30
0.0
 11
-245.056315
 21
69.820034
 31
0.0
  0
LINE
  5
7F8
100
AcDbEntity
  8
3
370
    25
100
AcDbLine
 10
-323.426718
 20
71.751885
 30
0.0
 11
-319.937213
 21
69.796546
 31
0.0
  0
LINE
  5
7F9
100
AcDbEntity
  8
3
370
    25
100
AcDbLine
 10
-323.426718
 20
71.751885
 30
0.0
 11
-319.427048
 21
71.803264
 31
0.0
  0
LINE
  5
7FA
100
AcDbEntity
  8
3
370
    25
100
AcDbLine
 10
-319.937213
 20
69.796546
 30
0.0
 11
-319.427048
 21
71.803264
 31
0.0
  0
LINE
  5
7FB
100
AcDbEntity
  8
3
370
    25
100
AcDbLine
 10
-245.573954
 20
71.751885
 30
0.0
 11
-249.573624
 21
71.803264
 31
0.0
  0
LINE
  5
7FC
100
AcDbEntity
  8
3
370
    25
100
AcDbLine
 10
-245.573954
 20
71.751885
 30
0.0
 11
-249.063459
 21
69.796546
 31
0.0
  0
LINE
  5
7FD
100
AcDbEntity
  8
3
370
    25
100
AcDbLine
 10
-249.573624
 20
71.803264
 30
0.0
 11
-249.063459
 21
69.796546
 31
0.0
  0
ARC
  5
7FE
100
AcDbEntity
  8
3
370
    25
100
AcDbCircle
 10
-284.500336
 20
217.027122
 30
0.0
 40
150.399992
100
AcDbArc
 50
255.0
 51
285.0
  0
ENDBLK
  5
7FF
100
AcDbEntity
  8
3
100
AcDbBlockEnd
  0
BLOCK
  5
800
100
AcDbEntity
  8
3
100
AcDbBlockBegin
  2
*D11
 70
     1
 10
0.0
 20
0.0
 30
0.0
  3
*D11
  1

  0
TEXT
  5
801
100
AcDbEntity
  8
3
370
    25
100
AcDbText
 10
-270.096791
 20
122.703476
 30
0.0
 40
7.0
  1
３０゜
 50
15.0
 72
     5
 11
-251.164645
 21
127.776329
 31
0.0
100
AcDbText
  0
LINE
  5
802
100
AcDbEntity
  8
3
370
    25
100
AcDbLine
 10
-284.500336
 20
123.044974
 30
0.0
 11
-284.500336
 21
120.189564
 31
0.0
  0
LINE
  5
803
100
AcDbEntity
  8
3
370
    25
100
AcDbLine
 10
-239.377691
 20
138.872409
 30
0.0
 11
-236.081557
 21
133.163337
 31
0.0
  0
LINE
  5
804
100
AcDbEntity
  8
3
370
    25
100
AcDbLine
 10
-284.500336
 20
122.189564
 30
0.0
 11
-280.616345
 21
121.233207
 31
0.0
  0
LINE
  5
805
100
AcDbEntity
  8
3
370
    25
100
AcDbLine
 10
-284.500336
 20
122.189564
 30
0.0
 11
-280.658523
 21
123.30333
 31
0.0
  0
LINE
  5
806
100
AcDbEntity
  8
3
370
    25
100
AcDbLine
 10
-280.616345
 20
121.233207
 30
0.0
 11
-280.658523
 21
123.30333
 31
0.0
  0
LINE
  5
807
100
AcDbEntity
  8
3
370
    25
100
AcDbLine
 10
-237.081557
 20
134.895388
 30
0.0
 11
-240.965547
 21
133.939031
 31
0.0
  0
LINE
  5
808
100
AcDbEntity
  8
3
370
    25
100
AcDbLine
 10
-237.081557
 20
134.895388
 30
0.0
 11
-239.967013
 21
132.125163
 31
0.0
  0
LINE
  5
809
100
AcDbEntity
  8
3
370
    25
100
AcDbLine
 10
-240.965547
 20
133.939031
 30
0.0
 11
-239.967013
 21
132.125163
 31
0.0
  0
ARC
  5
80A
100
AcDbEntity
  8
3
370
    25
100
AcDbCircle
 10
-284.500336
 20
217.027122
 30
0.0
 40
94.837557
100
AcDbArc
 50
270.0
 51
300.0
  0
ENDBLK
  5
80B
100
AcDbEntity
  8
3
100
AcDbBlockEnd
  0
BLOCK
  5
80C
100
AcDbEntity
  8
3
100
AcDbBlockBegin
  2
*D12
 70
     1
 10
0.0
 20
0.0
 30
0.0
  3
*D12
  1

  0
TEXT
  5
80D
100
AcDbEntity
  8
3
370
    25
100
AcDbText
 10
-341.017054
 20
140.137294
 30
0.0
 40
7.0
  1
６０゜
 50
330.0
 72
     5
 11
-324.042956
 21
130.337294
 31
0.0
100
AcDbText
  0
LINE
  5
80E
100
AcDbEntity
  8
3
370
    25
100
AcDbLine
 10
-308.749047
 20
203.027122
 30
0.0
 11
-368.372214
 21
168.60367
 31
0.0
  0
LINE
  5
80F
100
AcDbEntity
  8
3
370
    25
100
AcDbLine
 10
-284.500336
 20
123.010482
 30
0.0
 11
-284.500336
 21
120.180219
 31
0.0
  0
LINE
  5
810
100
AcDbEntity
  8
3
370
    25
100
AcDbLine
 10
-366.640163
 20
169.60367
 30
0.0
 11
-365.526405
 21
165.761855
 31
0.0
  0
LINE
  5
811
100
AcDbEntity
  8
3
370
    25
100
AcDbLine
 10
-366.640163
 20
169.60367
 30
0.0
 11
-363.754713
 21
166.83344
 31
0.0
  0
LINE
  5
812
100
AcDbEntity
  8
3
370
    25
100
AcDbLine
 10
-365.526405
 20
165.761855
 30
0.0
 11
-363.754713
 21
166.83344
 31
0.0
  0
LINE
  5
813
100
AcDbEntity
  8
3
370
    25
100
AcDbLine
 10
-284.500336
 20
122.180219
 30
0.0
 11
-288.342151
 21
123.293977
 31
0.0
  0
LINE
  5
814
100
AcDbEntity
  8
3
370
    25
100
AcDbLine
 10
-284.500336
 20
122.180219
 30
0.0
 11
-288.384324
 21
121.223854
 31
0.0
  0
LINE
  5
815
100
AcDbEntity
  8
3
370
    25
100
AcDbLine
 10
-288.342151
 20
123.293977
 30
0.0
 11
-288.384324
 21
121.223854
 31
0.0
  0
ARC
  5
816
100
AcDbEntity
  8
3
370
    25
100
AcDbCircle
 10
-284.500336
 20
217.027122
 30
0.0
 40
94.846903
100
AcDbArc
 50
210.0
 51
270.0
  0
ENDBLK
  5
817
100
AcDbEntity
  8
3
100
AcDbBlockEnd
  0
BLOCK
  5
818
100
AcDbEntity
  8
3
100
AcDbBlockBegin
  2
*D13
 70
     1
 10
0.0
 20
0.0
 30
0.0
  3
*D13
  1

  0
LINE
  5
819
100
AcDbEntity
  8
3
370
    25
100
AcDbLine
 10
-165.138769
 20
-9.518494
 30
0.0
 11
-165.138769
 21
-27.392973
 31
0.0
  0
LINE
  5
81A
100
AcDbEntity
  8
3
370
    25
100
AcDbLine
 10
-165.138769
 20
-25.392973
 30
0.0
 11
-169.002472
 21
-24.357697
 31
0.0
  0
LINE
  5
81B
100
AcDbEntity
  8
3
370
    25
100
AcDbLine
 10
-165.138769
 20
-25.392973
 30
0.0
 11
-169.002472
 21
-26.428249
 31
0.0
  0
LINE
  5
81C
100
AcDbEntity
  8
3
370
    25
100
AcDbLine
 10
-169.002472
 20
-24.357697
 30
0.0
 11
-169.002472
 21
-26.428249
 31
0.0
  0
LINE
  5
81D
100
AcDbEntity
  8
3
370
    25
100
AcDbLine
 10
-194.138769
 20
-25.392973
 30
0.0
 11
-103.138769
 21
-25.392973
 31
0.0
  0
LINE
  5
81E
100
AcDbEntity
  8
3
370
    25
100
AcDbLine
 10
-113.138769
 20
-25.392973
 30
0.0
 11
-109.275066
 21
-26.428249
 31
0.0
  0
LINE
  5
81F
100
AcDbEntity
  8
3
370
    25
100
AcDbLine
 10
-113.138769
 20
-25.392973
 30
0.0
 11
-109.275066
 21
-24.357697
 31
0.0
  0
LINE
  5
820
100
AcDbEntity
  8
3
370
    25
100
AcDbLine
 10
-109.275066
 20
-26.428249
 30
0.0
 11
-109.275066
 21
-24.357697
 31
0.0
  0
LINE
  5
821
100
AcDbEntity
  8
3
370
    25
100
AcDbLine
 10
-113.138769
 20
-9.518494
 30
0.0
 11
-113.138769
 21
-27.392973
 31
0.0
  0
ENDBLK
  5
822
100
AcDbEntity
  8
3
100
AcDbBlockEnd
  0
ENDSEC
  0
SECTION
  2
ENTITIES
  0
LINE
  5
32
100
AcDbEntity
  8
1
370
   100
100
AcDbLine
 10
-373.02157
 20
275.028767
 30
0.0
 11
394.982385
 21
275.028767
 31
0.0
  0
LINE
  5
33
100
AcDbEntity
  8
1
370
   100
100
AcDbLine
 10
-373.02157
 20
275.028767
 30
0.0
 11
-373.02157
 21
-277.971881
 31
0.0
  0
LINE
  5
34
100
AcDbEntity
  8
1
370
   100
100
AcDbLine
 10
-373.02157
 20
-277.971881
 30
0.0
 11
394.982385
 21
-277.971881
 31
0.0
  0
LINE
  5
35
100
AcDbEntity
  8
1
370
   100
100
AcDbLine
 10
394.982385
 20
-277.971881
 30
0.0
 11
394.982385
 21
275.028767
 31
0.0
  0
TEXT
  5
36
100
AcDbEntity
  8
1
370
    50
100
AcDbText
 10
359.628442
 20
-226.252857
 30
0.0
 40
6.0
  1
設計
 72
     5
 11
370.428442
 21
-226.252857
 31
0.0
100
AcDbText
  0
TEXT
  5
37
100
AcDbEntity
  8
1
370
    50
100
AcDbText
 10
379.127478
 20
-226.099658
 30
0.0
 40
6.0
  1
製図
 72
     5
 11
389.927478
 21
-226.099658
 31
0.0
100
AcDbText
  0
TEXT
  5
38
100
AcDbEntity
  8
1
370
    50
100
AcDbText
 10
319.005745
 20
-226.252857
 30
0.0
 40
6.0
  1
承認
 72
     5
 11
329.805745
 21
-226.252857
 31
0.0
100
AcDbText
  0
TEXT
  5
39
100
AcDbEntity
  8
1
370
    50
100
AcDbText
 10
338.989679
 20
-226.19802
 30
0.0
 40
6.0
  1
検図
 72
     5
 11
349.789679
 21
-226.19802
 31
0.0
100
AcDbText
  0
LINE
  5
3A
100
AcDbEntity
  8
1
370
    25
100
AcDbLine
 10
284.982385
 20
-227.971881
 30
0.0
 11
394.982385
 21
-227.971881
 31
0.0
  0
LINE
  5
3B
100
AcDbEntity
  8
1
370
    25
100
AcDbLine
 10
342.482385
 20
-245.971881
 30
0.0
 11
342.482385
 21
-259.971881
 31
0.0
  0
TEXT
  5
3C
100
AcDbEntity
  8
1
370
    50
100
AcDbText
 10
319.55159
 20
-256.012528
 30
0.0
 40
6.0
  1
日　付
 72
     5
 11
336.35159
 21
-256.012528
 31
0.0
100
AcDbText
  0
LINE
  5
3D
100
AcDbEntity
  8
1
370
    50
100
AcDbLine
 10
40.982385
 20
-259.971881
 30
0.0
 11
394.982385
 21
-259.971881
 31
0.0
  0
TEXT
  5
3E
100
AcDbEntity
  8
1
370
    50
100
AcDbText
 10
287.775011
 20
-256.322406
 30
0.0
 40
6.0
  1
第三角法
 72
     5
 11
310.575011
 21
-256.322406
 31
0.0
100
AcDbText
  0
TEXT
  5
3F
100
AcDbEntity
  8
1
370
    50
100
AcDbText
 10
291.087419
 20
-225.99802
 30
0.0
 40
6.0
  1
尺　度
 72
     5
 11
307.887419
 21
-225.99802
 31
0.0
100
AcDbText
  0
LINE
  5
40
100
AcDbEntity
  8
1
370
   100
100
AcDbLine
 10
40.982385
 20
-217.971881
 30
0.0
 11
394.982385
 21
-217.971881
 31
0.0
  0
LINE
  5
41
100
AcDbEntity
  8
1
370
    50
100
AcDbLine
 10
211.982385
 20
-217.971881
 30
0.0
 11
211.982385
 21
-277.971881
 31
0.0
  0
LINE
  5
42
100
AcDbEntity
  8
1
370
    25
100
AcDbLine
 10
374.982385
 20
-245.971881
 30
0.0
 11
374.982385
 21
-217.971881
 31
0.0
  0
LINE
  5
43
100
AcDbEntity
  8
1
370
    25
100
AcDbLine
 10
354.982385
 20
-245.971881
 30
0.0
 11
354.982385
 21
-217.971881
 31
0.0
  0
LINE
  5
44
100
AcDbEntity
  8
1
370
    25
100
AcDbLine
 10
334.982385
 20
-245.971881
 30
0.0
 11
334.982385
 21
-217.971881
 31
0.0
  0
LINE
  5
45
100
AcDbEntity
  8
1
370
    50
100
AcDbLine
 10
284.982385
 20
-277.971881
 30
0.0
 11
284.982385
 21
-217.971881
 31
0.0
  0
LINE
  5
46
100
AcDbEntity
  8
1
370
    50
100
AcDbLine
 10
189.982385
 20
-217.971881
 30
0.0
 11
189.982385
 21
-277.971881
 31
0.0
  0
LINE
  5
47
100
AcDbEntity
  8
1
370
    50
100
AcDbLine
 10
62.982385
 20
-217.971881
 30
0.0
 11
62.982385
 21
-259.971881
 31
0.0
  0
LINE
  5
48
100
AcDbEntity
  8
1
370
    50
100
AcDbLine
 10
284.982385
 20
-245.971881
 30
0.0
 11
394.982385
 21
-245.971881
 31
0.0
  0
TEXT
  5
49
100
AcDbEntity
  8
1
370
    50
100
AcDbText
 10
287.101129
 20
-271.880939
 30
0.0
 40
6.0
  1
コードＮｏ
 41
0.9
 72
     5
 11
313.021129
 21
-271.880939
 31
0.0
100
AcDbText
  0
TEXT
  5
4A
100
AcDbEntity
  8
1
370
   100
100
AcDbText
 10
52.886774
 20
-272.875659
 30
0.0
 40
8.0
  1
ミズタニバルブ工業株式会社
 41
1.2
 72
     5
 11
175.766774
 21
-272.875659
 31
0.0
100
AcDbText
  0
LINE
  5
4B
100
AcDbEntity
  8
1
370
    50
100
AcDbLine
 10
40.982385
 20
-238.971881
 30
0.0
 11
284.982385
 21
-238.971881
 31
0.0
  0
LINE
  5
4C
100
AcDbEntity
  8
1
370
    50
100
AcDbLine
 10
115.482385
 20
-238.971881
 30
0.0
 11
115.482385
 21
-259.971881
 31
0.0
  0
LINE
  5
4D
100
AcDbEntity
  8
1
370
    50
100
AcDbLine
 10
137.482385
 20
-238.971881
 30
0.0
 11
137.482385
 21
-259.971881
 31
0.0
  0
LINE
  5
4E
100
AcDbEntity
  8
1
370
    50
100
AcDbLine
 10
314.982385
 20
-277.971881
 30
0.0
 11
314.982385
 21
-217.971881
 31
0.0
  0
TEXT
  5
4F
100
AcDbEntity
  8
1
370
    50
100
AcDbText
 10
345.098131
 20
-256.100293
 30
0.0
 40
6.0
  1
　　・　　・
 72
     5
 11
379.898131
 21
-256.100293
 31
0.0
100
AcDbText
  0
LINE
  5
50
100
AcDbEntity
  8
1
370
   100
100
AcDbLine
 10
40.982385
 20
-217.971881
 30
0.0
 11
40.982385
 21
-277.971881
 31
0.0
  0
TEXT
  5
51
100
AcDbEntity
  8
1
370
    50
100
AcDbText
 10
290.832582
 20
-240.013492
 30
0.0
 40
6.0
  1
　／ 
 72
     5
 11
301.632582
 21
-240.013492
 31
0.0
100
AcDbText
  0
TEXT
  5
52
100
AcDbEntity
  8
1
370
    50
100
AcDbText
 10
193.904123
 20
-272.024909
 30
0.0
 40
6.0
  1
備 考 
 72
     5
 11
207.704123
 21
-272.024909
 31
0.0
100
AcDbText
  0
TEXT
  5
53
100
AcDbEntity
  8
1
370
    50
100
AcDbText
 10
193.512534
 20
-230.89184
 30
0.0
 40
6.0
  1
仕 上
 72
     5
 11
207.312534
 21
-230.89184
 31
0.0
100
AcDbText
  0
TEXT
  5
54
100
AcDbEntity
  8
1
370
    50
100
AcDbText
 10
193.447176
 20
-248.891666
 30
0.0
 40
6.0
  1
表 面
 72
     5
 11
207.247176
 21
-248.891666
 31
0.0
100
AcDbText
  0
TEXT
  5
55
100
AcDbEntity
  8
1
370
    50
100
AcDbText
 10
193.447176
 20
-255.891666
 30
0.0
 40
6.0
  1
処 理
 72
     5
 11
207.247176
 21
-255.891666
 31
0.0
100
AcDbText
  0
TEXT
  5
56
100
AcDbEntity
  8
1
370
    50
100
AcDbText
 10
44.79335
 20
-231.693399
 30
0.0
 40
6.0
  1
品 名
 72
     5
 11
58.59335
 21
-231.693399
 31
0.0
100
AcDbText
  0
TEXT
  5
57
100
AcDbEntity
  8
1
370
    50
100
AcDbText
 10
44.397766
 20
-252.462534
 30
0.0
 40
6.0
  1
材 質
 72
     5
 11
58.197766
 21
-252.462534
 31
0.0
100
AcDbText
  0
TEXT
  5
58
100
AcDbEntity
  8
1
370
    50
100
AcDbText
 10
118.897766
 20
-252.462534
 30
0.0
 40
6.0
  1
規 格
 72
     5
 11
132.697766
 21
-252.462534
 31
0.0
100
AcDbText
  0
LINE
  5
59
100
AcDbEntity
  8
2
370
    50
100
AcDbLine
 10
151.598505
 20
12.781398
 30
0.0
 11
175.898505
 21
12.781398
 31
0.0
  0
LINE
  5
5A
100
AcDbEntity
  8
2
370
    50
100
AcDbLine
 10
151.398505
 20
13.281398
 30
0.0
 11
151.398505
 21
12.981398
 31
0.0
  0
LINE
  5
5B
100
AcDbEntity
  8
2
370
    50
100
AcDbLine
 10
151.398505
 20
12.981398
 30
0.0
 11
151.598505
 21
12.781398
 31
0.0
  0
LINE
  5
5C
100
AcDbEntity
  8
2
370
    50
100
AcDbLine
 10
200.198505
 20
12.781398
 30
0.0
 11
175.898505
 21
12.781398
 31
0.0
  0
LINE
  5
5D
100
AcDbEntity
  8
2
370
    50
100
AcDbLine
 10
200.398505
 20
13.281398
 30
0.0
 11
200.398505
 21
12.981398
 31
0.0
  0
LINE
  5
5E
100
AcDbEntity
  8
2
370
    50
100
AcDbLine
 10
200.398505
 20
12.981398
 30
0.0
 11
200.198505
 21
12.781398
 31
0.0
  0
LINE
  5
5F
100
AcDbEntity
  8
2
370
    50
100
AcDbLine
 10
159.192255
 20
-29.718602
 30
0.0
 11
175.898505
 21
-29.718602
 31
0.0
  0
LINE
  5
60
100
AcDbEntity
  8
2
370
    50
100
AcDbLine
 10
158.398505
 20
-28.924602
 30
0.0
 11
159.192505
 21
-29.718602
 31
0.0
  0
LINE
  5
61
100
AcDbEntity
  8
2
370
    50
100
AcDbLine
 10
153.898505
 20
12.781398
 30
0.0
 11
158.398505
 21
12.781398
 31
0.0
  0
LINE
  5
62
100
AcDbEntity
  8
2
370
    50
100
AcDbLine
 10
193.398505
 20
-28.924602
 30
0.0
 11
192.604505
 21
-29.718602
 31
0.0
  0
LINE
  5
63
100
AcDbEntity
  8
2
370
    50
100
AcDbLine
 10
197.898505
 20
12.781398
 30
0.0
 11
193.398505
 21
12.781398
 31
0.0
  0
LINE
  5
64
100
AcDbEntity
  8
2
370
    50
100
AcDbLine
 10
175.898505
 20
-29.718602
 30
0.0
 11
186.398505
 21
-29.718602
 31
0.0
  0
LINE
  5
65
100
AcDbEntity
  8
2
370
    50
100
AcDbLine
 10
186.398505
 20
-29.718602
 30
0.0
 11
192.604755
 21
-29.718602
 31
0.0
  0
LINE
  5
66
100
AcDbEntity
  8
2
370
    50
100
AcDbLine
 10
-163.386101
 20
12.781506
 30
0.0
 11
-139.086101
 21
12.781506
 31
0.0
  0
LINE
  5
67
100
AcDbEntity
  8
2
370
    50
100
AcDbLine
 10
-163.586101
 20
13.281506
 30
0.0
 11
-163.586101
 21
12.981506
 31
0.0
  0
LINE
  5
68
100
AcDbEntity
  8
2
370
    50
100
AcDbLine
 10
-163.586101
 20
12.981506
 30
0.0
 11
-163.386101
 21
12.781506
 31
0.0
  0
LINE
  5
69
100
AcDbEntity
  8
2
370
    50
100
AcDbLine
 10
-161.086101
 20
12.781506
 30
0.0
 11
-156.586101
 21
12.781506
 31
0.0
  0
LINE
  5
6A
100
AcDbEntity
  8
2
370
    25
100
AcDbLine
 10
-163.586101
 20
12.981506
 30
0.0
 11
-139.086101
 21
12.981506
 31
0.0
  0
LINE
  5
6B
100
AcDbEntity
  8
2
370
    50
100
AcDbLine
 10
-114.786101
 20
12.781506
 30
0.0
 11
-139.086101
 21
12.781506
 31
0.0
  0
LINE
  5
6C
100
AcDbEntity
  8
2
370
    50
100
AcDbLine
 10
-114.586101
 20
13.281506
 30
0.0
 11
-114.586101
 21
12.981506
 31
0.0
  0
LINE
  5
6D
100
AcDbEntity
  8
2
370
    50
100
AcDbLine
 10
-114.586101
 20
12.981506
 30
0.0
 11
-114.786101
 21
12.781506
 31
0.0
  0
LINE
  5
6E
100
AcDbEntity
  8
2
370
    50
100
AcDbLine
 10
-117.086101
 20
12.781506
 30
0.0
 11
-121.586101
 21
12.781506
 31
0.0
  0
LINE
  5
6F
100
AcDbEntity
  8
2
370
    25
100
AcDbLine
 10
-114.586101
 20
12.981506
 30
0.0
 11
-139.086101
 21
12.981506
 31
0.0
  0
LINE
  5
70
100
AcDbEntity
  8
2
370
    50
100
AcDbLine
 10
-122.379851
 20
-29.718494
 30
0.0
 11
-139.086101
 21
-29.718494
 31
0.0
  0
LINE
  5
71
100
AcDbEntity
  8
2
370
    50
100
AcDbLine
 10
-121.586101
 20
-28.924494
 30
0.0
 11
-122.380101
 21
-29.718494
 31
0.0
  0
LINE
  5
72
100
AcDbEntity
  8
2
370
    25
100
AcDbLine
 10
-121.586101
 20
-28.924494
 30
0.0
 11
-139.086101
 21
-28.924494
 31
0.0
  0
LINE
  5
73
100
AcDbEntity
  8
2
370
    50
100
AcDbLine
 10
-155.792351
 20
-29.718494
 30
0.0
 11
-139.086101
 21
-29.718494
 31
0.0
  0
LINE
  5
74
100
AcDbEntity
  8
2
370
    50
100
AcDbLine
 10
-156.586101
 20
-28.924494
 30
0.0
 11
-155.792101
 21
-29.718494
 31
0.0
  0
LINE
  5
75
100
AcDbEntity
  8
2
370
    25
100
AcDbLine
 10
-156.586101
 20
-28.924494
 30
0.0
 11
-139.086101
 21
-28.924494
 31
0.0
  0
LINE
  5
76
100
AcDbEntity
  8
2
370
    25
  6
CENTER
100
AcDbLine
 10
186.398505
 20
-43.299438
 30
0.0
 11
186.398505
 21
-58.984388
 31
0.0
  0
LINE
  5
77
100
AcDbEntity
  8
2
370
    50
100
AcDbLine
 10
177.648505
 20
-100.218602
 30
0.0
 11
183.398505
 21
-100.218602
 31
0.0
  0
ARC
  5
78
100
AcDbEntity
  8
2
370
    50
100
AcDbCircle
 10
183.398505
 20
-103.531102
 30
0.0
 40
3.3125
100
AcDbArc
 50
90.0
 51
121.890792
  0
LINE
  5
79
100
AcDbEntity
  8
2
370
    50
100
AcDbLine
 10
181.648505
 20
-100.718602
 30
0.0
 11
181.648505
 21
-115.218602
 31
0.0
  0
ARC
  5
7A
100
AcDbEntity
  8
2
370
    50
100
AcDbCircle
 10
183.398505
 20
-112.406102
 30
0.0
 40
3.3125
100
AcDbArc
 50
238.109208
 51
270.0
  0
LINE
  5
7B
100
AcDbEntity
  8
2
370
    50
100
AcDbLine
 10
179.077353
 20
-115.218602
 30
0.0
 11
181.648505
 21
-115.218602
 31
0.0
  0
LINE
  5
7C
100
AcDbEntity
  8
2
370
    50
100
AcDbLine
 10
179.077353
 20
-100.718602
 30
0.0
 11
181.648505
 21
-100.718602
 31
0.0
  0
LINE
  5
7D
100
AcDbEntity
  8
2
370
    50
100
AcDbLine
 10
179.077353
 20
-100.718602
 30
0.0
 11
179.077353
 21
-115.218602
 31
0.0
  0
ARC
  5
7E
100
AcDbEntity
  8
2
370
    50
100
AcDbCircle
 10
178.202353
 20
-101.234227
 30
0.0
 40
1.015625
100
AcDbArc
 50
30.510237
 51
149.489763
  0
LINE
  5
7F
100
AcDbEntity
  8
2
370
    50
100
AcDbLine
 10
177.148505
 20
-100.718602
 30
0.0
 11
177.148505
 21
-115.218602
 31
0.0
  0
LINE
  5
80
100
AcDbEntity
  8
2
370
    50
100
AcDbLine
 10
177.327353
 20
-100.718602
 30
0.0
 11
177.327353
 21
-115.218602
 31
0.0
  0
LINE
  5
81
100
AcDbEntity
  8
2
370
    50
100
AcDbLine
 10
177.648505
 20
-100.218602
 30
0.0
 11
177.148505
 21
-100.718602
 31
0.0
  0
LINE
  5
82
100
AcDbEntity
  8
2
370
    50
100
AcDbLine
 10
177.148505
 20
-100.718602
 30
0.0
 11
177.327353
 21
-100.718602
 31
0.0
  0
LINE
  5
83
100
AcDbEntity
  8
2
370
    50
100
AcDbLine
 10
177.648505
 20
-115.718602
 30
0.0
 11
183.398505
 21
-115.718602
 31
0.0
  0
LINE
  5
84
100
AcDbEntity
  8
2
370
    50
100
AcDbLine
 10
177.648505
 20
-115.718602
 30
0.0
 11
177.148505
 21
-115.218602
 31
0.0
  0
LINE
  5
85
100
AcDbEntity
  8
2
370
    50
100
AcDbLine
 10
177.148505
 20
-115.218602
 30
0.0
 11
177.327353
 21
-115.218602
 31
0.0
  0
ARC
  5
86
100
AcDbEntity
  8
2
370
    50
100
AcDbCircle
 10
178.202353
 20
-114.702977
 30
0.0
 40
1.015625
100
AcDbArc
 50
210.510237
 51
329.489763
  0
LINE
  5
87
100
AcDbEntity
  8
2
370
    50
100
AcDbLine
 10
190.398505
 20
-29.718602
 30
0.0
 11
190.398505
 21
-46.759026
 31
0.0
  0
LINE
  5
88
100
AcDbEntity
  8
2
370
    50
100
AcDbLine
 10
182.398505
 20
-29.718602
 30
0.0
 11
182.398505
 21
-46.812881
 31
0.0
  0
LINE
  5
89
100
AcDbEntity
  8
2
370
    50
100
AcDbLine
 10
179.398505
 20
-29.718602
 30
0.0
 11
179.398505
 21
-100.218602
 31
0.0
  0
LINE
  5
8A
100
AcDbEntity
  8
2
370
    50
100
AcDbLine
 10
-150.086101
 20
-29.718494
 30
0.0
 11
-150.086101
 21
-100.218691
 31
0.0
  0
LINE
  5
8B
100
AcDbEntity
  8
2
370
    50
100
AcDbLine
 10
-142.086101
 20
-63.565117
 30
0.0
 11
-142.086101
 21
-100.218691
 31
0.0
  0
LINE
  5
8C
100
AcDbEntity
  8
2
370
    50
100
AcDbLine
 10
-136.086101
 20
-61.314877
 30
0.0
 11
-136.086101
 21
-110.218691
 31
0.0
  0
LINE
  5
8D
100
AcDbEntity
  8
2
370
    50
100
AcDbLine
 10
-128.086101
 20
-29.718494
 30
0.0
 11
-128.086101
 21
-110.218691
 31
0.0
  0
LINE
  5
8E
100
AcDbEntity
  8
2
370
    50
100
AcDbLine
 10
-137.836101
 20
-125.718691
 30
0.0
 11
-131.586101
 21
-125.718691
 31
0.0
  0
ARC
  5
8F
100
AcDbEntity
  8
2
370
    50
100
AcDbCircle
 10
-132.086101
 20
-122.406191
 30
0.0
 40
3.3125
100
AcDbArc
 50
270.0
 51
301.890792
  0
LINE
  5
90
100
AcDbEntity
  8
2
370
    50
100
AcDbLine
 10
-138.336101
 20
-110.718691
 30
0.0
 11
-138.336101
 21
-125.218691
 31
0.0
  0
LINE
  5
91
100
AcDbEntity
  8
2
370
    50
100
AcDbLine
 10
-137.836101
 20
-125.718691
 30
0.0
 11
-138.336101
 21
-125.218691
 31
0.0
  0
LINE
  5
92
100
AcDbEntity
  8
2
370
    50
100
AcDbLine
 10
-133.836101
 20
-110.718691
 30
0.0
 11
-133.836101
 21
-125.218691
 31
0.0
  0
LINE
  5
93
100
AcDbEntity
  8
2
370
    50
100
AcDbLine
 10
-136.407253
 20
-110.718691
 30
0.0
 11
-136.407253
 21
-125.218691
 31
0.0
  0
LINE
  5
94
100
AcDbEntity
  8
2
370
    50
100
AcDbLine
 10
-138.157253
 20
-110.718691
 30
0.0
 11
-138.157253
 21
-125.218691
 31
0.0
  0
LINE
  5
95
100
AcDbEntity
  8
2
370
    50
100
AcDbLine
 10
-138.336101
 20
-125.218691
 30
0.0
 11
-138.157253
 21
-125.218691
 31
0.0
  0
LINE
  5
96
100
AcDbEntity
  8
2
370
    50
100
AcDbLine
 10
-136.407253
 20
-125.218691
 30
0.0
 11
-133.836101
 21
-125.218691
 31
0.0
  0
ARC
  5
97
100
AcDbEntity
  8
2
370
    50
100
AcDbCircle
 10
-132.086101
 20
-122.406191
 30
0.0
 40
3.3125
100
AcDbArc
 50
238.109208
 51
270.0
  0
ARC
  5
98
100
AcDbEntity
  8
2
370
    50
100
AcDbCircle
 10
-137.282253
 20
-124.703066
 30
0.0
 40
1.015625
100
AcDbArc
 50
210.510237
 51
329.489763
  0
ARC
  5
99
100
AcDbEntity
  8
2
370
    50
100
AcDbCircle
 10
-132.086101
 20
-113.531191
 30
0.0
 40
3.3125
100
AcDbArc
 50
58.109208
 51
90.0
  0
LINE
  5
9A
100
AcDbEntity
  8
2
370
    50
100
AcDbLine
 10
-136.407253
 20
-110.718691
 30
0.0
 11
-133.836101
 21
-110.718691
 31
0.0
  0
ARC
  5
9B
100
AcDbEntity
  8
2
370
    50
100
AcDbCircle
 10
-137.282253
 20
-111.234316
 30
0.0
 40
1.015625
100
AcDbArc
 50
30.510237
 51
149.489763
  0
ARC
  5
9C
100
AcDbEntity
  8
2
370
    50
100
AcDbCircle
 10
-132.086101
 20
-113.531191
 30
0.0
 40
3.3125
100
AcDbArc
 50
90.0
 51
121.890792
  0
LINE
  5
9D
100
AcDbEntity
  8
2
370
    50
100
AcDbLine
 10
-137.836101
 20
-110.218691
 30
0.0
 11
-138.336101
 21
-110.718691
 31
0.0
  0
LINE
  5
9E
100
AcDbEntity
  8
2
370
    50
100
AcDbLine
 10
-138.336101
 20
-110.718691
 30
0.0
 11
-138.157253
 21
-110.718691
 31
0.0
  0
LINE
  5
9F
100
AcDbEntity
  8
2
370
    50
100
AcDbLine
 10
-130.336101
 20
-110.718691
 30
0.0
 11
-130.336101
 21
-125.218691
 31
0.0
  0
LINE
  5
A0
100
AcDbEntity
  8
2
370
    50
100
AcDbLine
 10
-126.336101
 20
-125.718691
 30
0.0
 11
-132.586101
 21
-125.718691
 31
0.0
  0
LINE
  5
A1
100
AcDbEntity
  8
2
370
    50
100
AcDbLine
 10
-126.336101
 20
-125.718691
 30
0.0
 11
-132.586101
 21
-125.718691
 31
0.0
  0
LINE
  5
A2
100
AcDbEntity
  8
2
370
    50
100
AcDbLine
 10
-125.836101
 20
-110.718691
 30
0.0
 11
-125.836101
 21
-125.218691
 31
0.0
  0
LINE
  5
A3
100
AcDbEntity
  8
2
370
    50
100
AcDbLine
 10
-126.336101
 20
-125.718691
 30
0.0
 11
-125.836101
 21
-125.218691
 31
0.0
  0
LINE
  5
A4
100
AcDbEntity
  8
2
370
    50
100
AcDbLine
 10
-126.014948
 20
-110.718691
 30
0.0
 11
-126.014948
 21
-125.218691
 31
0.0
  0
LINE
  5
A5
100
AcDbEntity
  8
2
370
    50
100
AcDbLine
 10
-125.836101
 20
-125.218691
 30
0.0
 11
-126.014948
 21
-125.218691
 31
0.0
  0
ARC
  5
A6
100
AcDbEntity
  8
2
370
    50
100
AcDbCircle
 10
-126.889948
 20
-124.703066
 30
0.0
 40
1.015625
100
AcDbArc
 50
210.510237
 51
329.489763
  0
LINE
  5
A7
100
AcDbEntity
  8
2
370
    50
100
AcDbLine
 10
-125.836101
 20
-110.718691
 30
0.0
 11
-125.836101
 21
-125.218691
 31
0.0
  0
LINE
  5
A8
100
AcDbEntity
  8
2
370
    50
100
AcDbLine
 10
-126.014948
 20
-110.718691
 30
0.0
 11
-126.014948
 21
-125.218691
 31
0.0
  0
ARC
  5
A9
100
AcDbEntity
  8
2
370
    50
100
AcDbCircle
 10
-126.889948
 20
-111.234316
 30
0.0
 40
1.015625
100
AcDbArc
 50
30.510237
 51
149.489763
  0
LINE
  5
AA
100
AcDbEntity
  8
2
370
    50
100
AcDbLine
 10
-126.336101
 20
-110.218691
 30
0.0
 11
-125.836101
 21
-110.718691
 31
0.0
  0
LINE
  5
AB
100
AcDbEntity
  8
2
370
    50
100
AcDbLine
 10
-127.764948
 20
-110.718691
 30
0.0
 11
-130.336101
 21
-110.718691
 31
0.0
  0
LINE
  5
AC
100
AcDbEntity
  8
2
370
    50
100
AcDbLine
 10
-126.336101
 20
-110.218691
 30
0.0
 11
-137.836101
 21
-110.218691
 31
0.0
  0
LINE
  5
AD
100
AcDbEntity
  8
2
370
    50
100
AcDbLine
 10
-127.764948
 20
-110.718691
 30
0.0
 11
-127.764948
 21
-125.218691
 31
0.0
  0
LINE
  5
AE
100
AcDbEntity
  8
2
370
    50
100
AcDbLine
 10
-127.764948
 20
-125.218691
 30
0.0
 11
-130.336101
 21
-125.218691
 31
0.0
  0
LINE
  5
AF
100
AcDbEntity
  8
2
370
    50
100
AcDbLine
 10
-140.336101
 20
-115.718691
 30
0.0
 11
-146.586101
 21
-115.718691
 31
0.0
  0
ARC
  5
B0
100
AcDbEntity
  8
2
370
    50
100
AcDbCircle
 10
-146.086101
 20
-112.406191
 30
0.0
 40
3.3125
100
AcDbArc
 50
238.109208
 51
270.0
  0
LINE
  5
B1
100
AcDbEntity
  8
2
370
    50
100
AcDbLine
 10
-139.836101
 20
-100.718691
 30
0.0
 11
-139.836101
 21
-115.218691
 31
0.0
  0
LINE
  5
B2
100
AcDbEntity
  8
2
370
    50
100
AcDbLine
 10
-140.336101
 20
-115.718691
 30
0.0
 11
-139.836101
 21
-115.218691
 31
0.0
  0
LINE
  5
B3
100
AcDbEntity
  8
2
370
    50
100
AcDbLine
 10
-144.336101
 20
-100.718691
 30
0.0
 11
-144.336101
 21
-115.218691
 31
0.0
  0
LINE
  5
B4
100
AcDbEntity
  8
2
370
    50
100
AcDbLine
 10
-141.764948
 20
-100.718691
 30
0.0
 11
-141.764948
 21
-115.218691
 31
0.0
  0
LINE
  5
B5
100
AcDbEntity
  8
2
370
    50
100
AcDbLine
 10
-140.014948
 20
-100.718691
 30
0.0
 11
-140.014948
 21
-115.218691
 31
0.0
  0
LINE
  5
B6
100
AcDbEntity
  8
2
370
    50
100
AcDbLine
 10
-139.836101
 20
-115.218691
 30
0.0
 11
-140.014948
 21
-115.218691
 31
0.0
  0
LINE
  5
B7
100
AcDbEntity
  8
2
370
    50
100
AcDbLine
 10
-141.764948
 20
-115.218691
 30
0.0
 11
-144.336101
 21
-115.218691
 31
0.0
  0
ARC
  5
B8
100
AcDbEntity
  8
2
370
    50
100
AcDbCircle
 10
-146.086101
 20
-112.406191
 30
0.0
 40
3.3125
100
AcDbArc
 50
270.0
 51
301.890792
  0
ARC
  5
B9
100
AcDbEntity
  8
2
370
    50
100
AcDbCircle
 10
-140.889948
 20
-114.703066
 30
0.0
 40
1.015625
100
AcDbArc
 50
210.510237
 51
329.489763
  0
ARC
  5
BA
100
AcDbEntity
  8
2
370
    50
100
AcDbCircle
 10
-146.086101
 20
-103.531191
 30
0.0
 40
3.3125
100
AcDbArc
 50
90.0
 51
121.890792
  0
LINE
  5
BB
100
AcDbEntity
  8
2
370
    50
100
AcDbLine
 10
-141.764948
 20
-100.718691
 30
0.0
 11
-144.336101
 21
-100.718691
 31
0.0
  0
ARC
  5
BC
100
AcDbEntity
  8
2
370
    50
100
AcDbCircle
 10
-140.889948
 20
-101.234316
 30
0.0
 40
1.015625
100
AcDbArc
 50
30.510237
 51
149.489763
  0
ARC
  5
BD
100
AcDbEntity
  8
2
370
    50
100
AcDbCircle
 10
-146.086101
 20
-103.531191
 30
0.0
 40
3.3125
100
AcDbArc
 50
58.109208
 51
90.0
  0
LINE
  5
BE
100
AcDbEntity
  8
2
370
    50
100
AcDbLine
 10
-140.336101
 20
-100.218691
 30
0.0
 11
-139.836101
 21
-100.718691
 31
0.0
  0
LINE
  5
BF
100
AcDbEntity
  8
2
370
    50
100
AcDbLine
 10
-139.836101
 20
-100.718691
 30
0.0
 11
-140.014948
 21
-100.718691
 31
0.0
  0
LINE
  5
C0
100
AcDbEntity
  8
2
370
    50
100
AcDbLine
 10
-147.836101
 20
-100.718691
 30
0.0
 11
-147.836101
 21
-115.218691
 31
0.0
  0
LINE
  5
C1
100
AcDbEntity
  8
2
370
    50
100
AcDbLine
 10
-151.836101
 20
-115.718691
 30
0.0
 11
-145.586101
 21
-115.718691
 31
0.0
  0
LINE
  5
C2
100
AcDbEntity
  8
2
370
    50
100
AcDbLine
 10
-151.836101
 20
-115.718691
 30
0.0
 11
-145.586101
 21
-115.718691
 31
0.0
  0
LINE
  5
C3
100
AcDbEntity
  8
2
370
    50
100
AcDbLine
 10
-152.336101
 20
-100.718691
 30
0.0
 11
-152.336101
 21
-115.218691
 31
0.0
  0
LINE
  5
C4
100
AcDbEntity
  8
2
370
    50
100
AcDbLine
 10
-151.836101
 20
-115.718691
 30
0.0
 11
-152.336101
 21
-115.218691
 31
0.0
  0
LINE
  5
C5
100
AcDbEntity
  8
2
370
    50
100
AcDbLine
 10
-152.157253
 20
-100.718691
 30
0.0
 11
-152.157253
 21
-115.218691
 31
0.0
  0
LINE
  5
C6
100
AcDbEntity
  8
2
370
    50
100
AcDbLine
 10
-152.336101
 20
-115.218691
 30
0.0
 11
-152.157253
 21
-115.218691
 31
0.0
  0
ARC
  5
C7
100
AcDbEntity
  8
2
370
    50
100
AcDbCircle
 10
-151.282253
 20
-114.703066
 30
0.0
 40
1.015625
100
AcDbArc
 50
210.510237
 51
329.489763
  0
LINE
  5
C8
100
AcDbEntity
  8
2
370
    50
100
AcDbLine
 10
-152.336101
 20
-100.718691
 30
0.0
 11
-152.336101
 21
-115.218691
 31
0.0
  0
LINE
  5
C9
100
AcDbEntity
  8
2
370
    50
100
AcDbLine
 10
-152.157253
 20
-100.718691
 30
0.0
 11
-152.157253
 21
-115.218691
 31
0.0
  0
ARC
  5
CA
100
AcDbEntity
  8
2
370
    50
100
AcDbCircle
 10
-151.282253
 20
-101.234316
 30
0.0
 40
1.015625
100
AcDbArc
 50
30.510237
 51
149.489763
  0
LINE
  5
CB
100
AcDbEntity
  8
2
370
    50
100
AcDbLine
 10
-151.836101
 20
-100.218691
 30
0.0
 11
-152.336101
 21
-100.718691
 31
0.0
  0
LINE
  5
CC
100
AcDbEntity
  8
2
370
    50
100
AcDbLine
 10
-150.407253
 20
-100.718691
 30
0.0
 11
-147.836101
 21
-100.718691
 31
0.0
  0
LINE
  5
CD
100
AcDbEntity
  8
2
370
    50
100
AcDbLine
 10
-151.836101
 20
-100.218691
 30
0.0
 11
-140.336101
 21
-100.218691
 31
0.0
  0
LINE
  5
CE
100
AcDbEntity
  8
2
370
    50
100
AcDbLine
 10
-150.407253
 20
-100.718691
 30
0.0
 11
-150.407253
 21
-115.218691
 31
0.0
  0
LINE
  5
CF
100
AcDbEntity
  8
2
370
    50
100
AcDbLine
 10
-150.407253
 20
-115.218691
 30
0.0
 11
-147.836101
 21
-115.218691
 31
0.0
  0
POINT
  5
D0
100
AcDbEntity
  8
2
370
    50
100
AcDbPoint
 10
175.898505
 20
135.981398
 30
0.0
  0
LINE
  5
D1
100
AcDbEntity
  8
2
370
    50
100
AcDbLine
 10
159.398505
 20
132.981398
 30
0.0
 11
155.398505
 21
132.981398
 31
0.0
  0
LINE
  5
D2
100
AcDbEntity
  8
2
370
    50
100
AcDbLine
 10
157.898505
 20
132.981398
 30
0.0
 11
153.995604
 21
132.981398
 31
0.0
  0
ARC
  5
D3
100
AcDbEntity
  8
2
370
    50
100
AcDbCircle
 10
153.432732
 20
132.899059
 30
0.0
 40
1.0
100
AcDbArc
 50
175.27696
 51
179.5
  0
LINE
  5
D4
100
AcDbEntity
  8
2
370
    50
100
AcDbLine
 10
152.40985
 20
130.281398
 30
0.0
 11
152.43277
 21
132.907785
 31
0.0
  0
ARC
  5
D5
100
AcDbEntity
  8
2
370
    50
100
AcDbCircle
 10
105.38406
 20
98.903779
 30
0.0
 40
100.0
100
AcDbArc
 50
20.083343
 51
25.621167
  0
ARC
  5
D6
100
AcDbEntity
  8
2
370
    50
100
AcDbCircle
 10
198.364278
 20
132.899059
 30
0.0
 40
1.0
100
AcDbArc
 50
0.5
 51
20.083343
  0
LINE
  5
D7
100
AcDbEntity
  8
2
370
    50
100
AcDbLine
 10
199.38716
 20
130.281398
 30
0.0
 11
199.36424
 21
132.907785
 31
0.0
  0
LINE
  5
D8
100
AcDbEntity
  8
2
370
    50
100
AcDbLine
 10
143.898505
 20
79.077309
 30
0.0
 11
126.500444
 21
89.122085
 31
0.0
  0
LINE
  5
D9
100
AcDbEntity
  8
2
370
    50
100
AcDbLine
 10
111.390718
 20
63.550827
 30
0.0
 11
126.09094
 21
89.012358
 31
0.0
  0
LINE
  5
DA
100
AcDbEntity
  8
2
370
    50
100
AcDbLine
 10
126.500747
 20
89.122166
 30
0.0
 11
126.09094
 21
89.012358
 31
0.0
  0
LINE
  5
DB
100
AcDbEntity
  8
2
370
    50
100
AcDbLine
 10
111.500444
 20
63.141322
 30
0.0
 11
123.105432
 21
56.44118
 31
0.0
  0
LINE
  5
DC
100
AcDbEntity
  8
2
370
    50
100
AcDbLine
 10
128.301832
 20
53.441037
 30
0.0
 11
144.898505
 21
43.858943
 31
0.0
  0
LINE
  5
DD
100
AcDbEntity
  8
2
370
    50
100
AcDbLine
 10
111.390718
 20
63.550827
 30
0.0
 11
111.500525
 21
63.141019
 31
0.0
  0
ELLIPSE
  5
DE
100
AcDbEntity
  8
2
370
    50
100
AcDbEllipse
 10
125.704125
 20
54.940631
 30
0.0
 11
2.5987770000000001
 21
-1.500405
 31
0.0
210
0.0
220
0.0
230
1.0
 40
0.066649
 41
0.032847
 42
3.1415929999999999
  0
LINE
  5
DF
100
AcDbEntity
  8
2
370
    50
100
AcDbLine
 10
201.898505
 20
13.581398
 30
0.0
 11
201.898505
 21
130.081398
 31
0.0
  0
LINE
  5
E0
100
AcDbEntity
  8
2
370
    50
100
AcDbLine
 10
201.898505
 20
13.581398
 30
0.0
 11
201.598505
 21
13.281398
 31
0.0
  0
LINE
  5
E1
100
AcDbEntity
  8
2
370
    50
100
AcDbLine
 10
175.898505
 20
130.281398
 30
0.0
 11
201.698505
 21
130.281398
 31
0.0
  0
LINE
  5
E2
100
AcDbEntity
  8
2
370
    50
100
AcDbLine
 10
201.598505
 20
13.281398
 30
0.0
 11
175.898505
 21
13.281398
 31
0.0
  0
LINE
  5
E3
100
AcDbEntity
  8
2
370
    50
100
AcDbLine
 10
201.698505
 20
130.281398
 30
0.0
 11
201.898505
 21
130.081398
 31
0.0
  0
LINE
  5
E4
100
AcDbEntity
  8
2
370
    50
100
AcDbLine
 10
175.898505
 20
130.281398
 30
0.0
 11
150.098505
 21
130.281398
 31
0.0
  0
LINE
  5
E5
100
AcDbEntity
  8
2
370
    50
100
AcDbLine
 10
150.098505
 20
130.281398
 30
0.0
 11
149.898505
 21
130.081398
 31
0.0
  0
LINE
  5
E6
100
AcDbEntity
  8
2
370
    50
100
AcDbLine
 10
149.898505
 20
82.541411
 30
0.0
 11
149.898505
 21
130.081398
 31
0.0
  0
LINE
  5
E7
100
AcDbEntity
  8
2
370
    50
100
AcDbLine
 10
149.898505
 20
13.581398
 30
0.0
 11
149.898505
 21
35.198689
 31
0.0
  0
LINE
  5
E8
100
AcDbEntity
  8
2
370
    50
100
AcDbLine
 10
149.898505
 20
13.581398
 30
0.0
 11
149.898505
 21
34.240141
 31
0.0
  0
LINE
  5
E9
100
AcDbEntity
  8
2
370
    50
100
AcDbLine
 10
149.898505
 20
13.581398
 30
0.0
 11
150.198505
 21
13.281398
 31
0.0
  0
LINE
  5
EA
100
AcDbEntity
  8
2
370
    50
100
AcDbLine
 10
150.198505
 20
13.281398
 30
0.0
 11
175.898505
 21
13.281398
 31
0.0
  0
ARC
  5
EB
100
AcDbEntity
  8
2
370
    50
100
AcDbCircle
 10
139.898505
 20
35.198689
 30
0.0
 40
10.0
100
AcDbArc
 50
0.0
 51
60.0
  0
ARC
  5
EC
100
AcDbEntity
  8
2
370
    50
100
AcDbCircle
 10
145.898505
 20
82.541411
 30
0.0
 40
4.0
100
AcDbArc
 50
240.0
 51
360.0
  0
LINE
  5
ED
100
AcDbEntity
  8
2
370
    50
100
AcDbLine
 10
-113.086101
 20
13.581506
 30
0.0
 11
-113.086101
 21
130.081506
 31
0.0
  0
LINE
  5
EE
100
AcDbEntity
  8
2
370
    50
100
AcDbLine
 10
-113.286101
 20
130.281506
 30
0.0
 11
-113.086101
 21
130.081506
 31
0.0
  0
LINE
  5
EF
100
AcDbEntity
  8
2
370
    50
100
AcDbLine
 10
-139.086101
 20
130.281506
 30
0.0
 11
-113.286101
 21
130.281506
 31
0.0
  0
LINE
  5
F0
100
AcDbEntity
  8
2
370
    25
100
AcDbLine
 10
-139.086101
 20
130.081506
 30
0.0
 11
-113.086101
 21
130.081506
 31
0.0
  0
LINE
  5
F1
100
AcDbEntity
  8
2
370
    50
100
AcDbLine
 10
-165.086101
 20
13.581506
 30
0.0
 11
-165.086101
 21
130.081506
 31
0.0
  0
LINE
  5
F2
100
AcDbEntity
  8
2
370
    50
100
AcDbLine
 10
-165.086101
 20
130.081506
 30
0.0
 11
-164.886101
 21
130.281506
 31
0.0
  0
LINE
  5
F3
100
AcDbEntity
  8
2
370
    50
100
AcDbLine
 10
-164.886101
 20
130.281506
 30
0.0
 11
-139.086101
 21
130.281506
 31
0.0
  0
LINE
  5
F4
100
AcDbEntity
  8
2
370
    25
100
AcDbLine
 10
-165.086101
 20
130.081506
 30
0.0
 11
-139.086101
 21
130.081506
 31
0.0
  0
LINE
  5
F5
100
AcDbEntity
  8
2
370
    50
100
AcDbLine
 10
-113.086101
 20
13.581506
 30
0.0
 11
-113.386101
 21
13.281506
 31
0.0
  0
LINE
  5
F6
100
AcDbEntity
  8
2
370
    50
100
AcDbLine
 10
-113.386101
 20
13.281506
 30
0.0
 11
-139.086101
 21
13.281506
 31
0.0
  0
LINE
  5
F7
100
AcDbEntity
  8
2
370
    25
100
AcDbLine
 10
-113.086101
 20
13.581506
 30
0.0
 11
-139.086101
 21
13.581506
 31
0.0
  0
LINE
  5
F8
100
AcDbEntity
  8
2
370
    50
100
AcDbLine
 10
-165.086101
 20
13.581506
 30
0.0
 11
-164.786101
 21
13.281506
 31
0.0
  0
LINE
  5
F9
100
AcDbEntity
  8
2
370
    50
100
AcDbLine
 10
-164.786101
 20
13.281506
 30
0.0
 11
-139.086101
 21
13.281506
 31
0.0
  0
LINE
  5
FA
100
AcDbEntity
  8
2
370
    25
100
AcDbLine
 10
-165.086101
 20
13.581506
 30
0.0
 11
-139.086101
 21
13.581506
 31
0.0
  0
POINT
  5
FB
100
AcDbEntity
  8
2
370
    50
100
AcDbPoint
 10
-139.086101
 20
76.281593
 30
0.0
  0
LINE
  5
FC
100
AcDbEntity
  8
2
370
    50
100
AcDbLine
 10
-124.086101
 20
115.915354
 30
0.0
 11
-124.086101
 21
48.189189
 31
0.0
  0
LINE
  5
FD
100
AcDbEntity
  8
2
370
    50
100
AcDbLine
 10
-154.086101
 20
115.915354
 30
0.0
 11
-154.086101
 21
48.189189
 31
0.0
  0
LINE
  5
FE
100
AcDbEntity
  8
2
370
    50
100
AcDbLine
 10
-141.136101
 20
61.041212
 30
0.0
 11
-141.136101
 21
63.412981
 31
0.0
  0
LINE
  5
FF
100
AcDbEntity
  8
2
370
    50
100
AcDbLine
 10
-137.036101
 20
61.041212
 30
0.0
 11
-137.036101
 21
63.412981
 31
0.0
  0
LINE
  5
100
100
AcDbEntity
  8
2
370
    50
100
AcDbLine
 10
-137.036101
 20
61.041212
 30
0.0
 11
-141.136101
 21
61.041212
 31
0.0
  0
LINE
  5
101
100
AcDbEntity
  8
2
370
    50
100
AcDbLine
 10
-137.036101
 20
63.33369
 30
0.0
 11
-141.136101
 21
63.33369
 31
0.0
  0
ELLIPSE
  5
102
100
AcDbEntity
  8
2
370
    50
100
AcDbEllipse
 10
-139.086101
 20
54.941124
 30
0.0
 11
3.0
 21
0.0
 31
0.0
210
0.0
220
0.0
230
1.0
 40
0.5
 41
0.0
 42
6.2831849999999996
  0
POINT
  5
103
100
AcDbEntity
  8
2
370
    50
100
AcDbPoint
 10
-139.086101
 20
63.291093
 30
0.0
  0
ELLIPSE
  5
104
100
AcDbEntity
  8
2
370
    50
100
AcDbEllipse
 10
-139.086101
 20
56.281712
 30
0.0
 11
15.0
 21
0.0
 31
0.0
210
0.0
220
0.0
230
1.0
 40
0.866033
 41
4.442456
 42
4.9823219999999999
  0
ELLIPSE
  5
105
100
AcDbEntity
  8
2
370
    50
100
AcDbEllipse
 10
-139.086101
 20
58.281712
 30
0.0
 11
15.0
 21
0.0
 31
0.0
210
0.0
220
0.0
230
1.0
 40
0.866033
 41
4.442456
 42
4.9823219999999999
  0
LINE
  5
106
100
AcDbEntity
  8
2
370
    50
100
AcDbLine
 10
-143.086101
 20
43.761613
 30
0.0
 11
-143.086101
 21
45.761613
 31
0.0
  0
LINE
  5
107
100
AcDbEntity
  8
2
370
    50
100
AcDbLine
 10
-135.086101
 20
43.761613
 30
0.0
 11
-135.086101
 21
45.761613
 31
0.0
  0
ELLIPSE
  5
108
100
AcDbEntity
  8
2
370
    25
100
AcDbEllipse
 10
-139.086101
 20
48.189189
 30
0.0
 11
15.0
 21
0.0
 31
0.0
210
0.0
220
0.0
230
1.0
 40
0.866033
 41
3.4961850000000001
 42
6.0077850000000002
  0
LINE
  5
109
100
AcDbEntity
  8
2
370
    50
100
AcDbLine
 10
175.898505
 20
132.981398
 30
0.0
 11
150.398505
 21
132.981398
 31
0.0
  0
LINE
  5
10A
100
AcDbEntity
  8
2
370
    50
100
AcDbLine
 10
149.898505
 20
133.481398
 30
0.0
 11
149.898505
 21
151.381398
 31
0.0
  0
LINE
  5
10B
100
AcDbEntity
  8
2
370
    50
100
AcDbLine
 10
149.898505
 20
159.581398
 30
0.0
 11
149.898505
 21
161.354752
 31
0.0
  0
ARC
  5
10C
100
AcDbEntity
  8
2
370
    50
100
AcDbCircle
 10
150.398505
 20
133.481398
 30
0.0
 40
0.5
100
AcDbArc
 50
180.0
 51
270.0
  0
LINE
  5
10D
100
AcDbEntity
  8
2
370
    50
100
AcDbLine
 10
175.898505
 20
132.981398
 30
0.0
 11
201.898505
 21
145.105397
 31
0.0
  0
ARC
  5
10E
100
AcDbEntity
  8
2
370
    50
100
AcDbCircle
 10
175.898505
 20
-337.018602
 30
0.0
 40
500.0
100
AcDbArc
 50
87.128268
 51
92.871732
  0
ARC
  5
10F
100
AcDbEntity
  8
2
370
    50
100
AcDbCircle
 10
200.898505
 20
161.354752
 30
0.0
 40
1.0
100
AcDbArc
 50
0.0
 51
87.128268
  0
ARC
  5
110
100
AcDbEntity
  8
2
370
    50
100
AcDbCircle
 10
150.898505
 20
161.354752
 30
0.0
 40
1.0
100
AcDbArc
 50
92.871732
 51
180.0
  0
ARC
  5
111
100
AcDbEntity
  8
2
370
    50
100
AcDbCircle
 10
125.236997
 20
155.481398
 30
0.0
 40
25.0
100
AcDbArc
 50
350.560853
 51
360.0
  0
ARC
  5
112
100
AcDbEntity
  8
2
370
    50
100
AcDbCircle
 10
125.236997
 20
155.481398
 30
0.0
 40
25.0
100
AcDbArc
 50
360.0
 51
9.439147
  0
LINE
  5
113
100
AcDbEntity
  8
2
370
    50
100
AcDbLine
 10
201.898505
 20
145.105397
 30
0.0
 11
201.898505
 21
152.011247
 31
0.0
  0
LINE
  5
114
100
AcDbEntity
  8
2
370
    50
100
AcDbLine
 10
201.898505
 20
152.011247
 30
0.0
 11
201.898505
 21
161.354752
 31
0.0
  0
LINE
  5
115
100
AcDbEntity
  8
2
370
    50
100
AcDbLine
 10
-113.586101
 20
132.981398
 30
0.0
 11
-164.586101
 21
132.981398
 31
0.0
  0
LINE
  5
116
100
AcDbEntity
  8
2
370
    25
  6
CENTER
100
AcDbLine
 10
-132.337982
 20
155.481398
 30
0.0
 11
-145.980408
 21
155.481398
 31
0.0
  0
CIRCLE
  5
117
100
AcDbEntity
  8
2
370
    50
100
AcDbCircle
 10
-139.086101
 20
155.481398
 30
0.0
 40
4.1
  0
LINE
  5
118
100
AcDbEntity
  8
2
370
    50
100
AcDbLine
 10
-165.086101
 20
161.354752
 30
0.0
 11
-165.086101
 21
133.481398
 31
0.0
  0
LINE
  5
119
100
AcDbEntity
  8
2
370
    50
100
AcDbLine
 10
-113.086101
 20
161.354752
 30
0.0
 11
-113.086101
 21
133.481398
 31
0.0
  0
ARC
  5
11A
100
AcDbEntity
  8
2
370
    50
100
AcDbCircle
 10
-164.586101
 20
133.481398
 30
0.0
 40
0.5
100
AcDbArc
 50
180.0
 51
270.0
  0
ARC
  5
11B
100
AcDbEntity
  8
2
370
    50
100
AcDbCircle
 10
-113.586101
 20
133.481398
 30
0.0
 40
0.5
100
AcDbArc
 50
270.0
 51
360.0
  0
ARC
  5
11C
100
AcDbEntity
  8
2
370
    50
100
AcDbCircle
 10
-139.086101
 20
-337.018602
 30
0.0
 40
500.0
100
AcDbArc
 50
87.128268
 51
92.871732
  0
ARC
  5
11D
100
AcDbEntity
  8
2
370
    50
100
AcDbCircle
 10
-114.086101
 20
161.354752
 30
0.0
 40
1.0
100
AcDbArc
 50
0.0
 51
87.128268
  0
ARC
  5
11E
100
AcDbEntity
  8
2
370
    50
100
AcDbCircle
 10
-164.086101
 20
161.354752
 30
0.0
 40
1.0
100
AcDbArc
 50
92.871732
 51
180.0
  0
LINE
  5
11F
100
AcDbEntity
  8
2
370
    25
100
AcDbLine
 10
-162.894356
 20
162.30494
 30
0.0
 11
-115.668442
 21
162.30494
 31
0.0
  0
POINT
  5
120
100
AcDbEntity
  8
2
370
    50
100
AcDbPoint
 10
-139.086101
 20
132.831506
 30
0.0
  0
LINE
  5
121
100
AcDbEntity
  8
2
370
    25
  6
CENTER
100
AcDbLine
 10
171.398505
 20
-76.438927
 30
0.0
 11
171.398505
 21
-202.231171
 31
0.0
  0
LINE
  5
122
100
AcDbEntity
  8
2
370
    50
100
AcDbLine
 10
90.898505
 20
151.981398
 30
0.0
 11
90.898505
 21
158.981398
 31
0.0
  0
LINE
  5
123
100
AcDbEntity
  8
2
370
    50
100
AcDbLine
 10
91.398505
 20
151.481398
 30
0.0
 11
149.914922
 21
151.481398
 31
0.0
  0
LINE
  5
124
100
AcDbEntity
  8
2
370
    50
100
AcDbLine
 10
91.398505
 20
159.481398
 30
0.0
 11
149.914922
 21
159.481398
 31
0.0
  0
LINE
  5
125
100
AcDbEntity
  8
2
370
    50
100
AcDbLine
 10
90.898505
 20
151.981398
 30
0.0
 11
91.398505
 21
151.481398
 31
0.0
  0
LINE
  5
126
100
AcDbEntity
  8
2
370
    50
100
AcDbLine
 10
90.898505
 20
158.981398
 30
0.0
 11
91.398505
 21
159.481398
 31
0.0
  0
CIRCLE
  5
127
100
AcDbEntity
  8
2
370
    50
100
AcDbCircle
 10
-139.086101
 20
155.481398
 30
0.0
 40
4.0
  0
CIRCLE
  5
128
100
AcDbEntity
  8
2
370
    25
100
AcDbCircle
 10
-139.086101
 20
155.481398
 30
0.0
 40
3.5
  0
ARC
  5
129
100
AcDbEntity
  8
2
370
    50
100
AcDbCircle
 10
194.470302
 20
154.981398
 30
0.0
 40
8.0
100
AcDbArc
 50
338.206107
 51
21.793893
  0
LINE
  5
12A
100
AcDbEntity
  8
2
370
    25
100
AcDbLine
 10
91.398505
 20
159.481398
 30
0.0
 11
91.398505
 21
151.481398
 31
0.0
  0
LINE
  5
12B
100
AcDbEntity
  8
2
370
    25
100
AcDbLine
 10
194.015419
 20
162.30494
 30
0.0
 11
156.013708
 21
162.30494
 31
0.0
  0
LINE
  5
12C
100
AcDbEntity
  8
2
370
    25
100
AcDbLine
 10
198.827583
 20
133.079912
 30
0.0
 11
176.10977
 21
133.079912
 31
0.0
  0
LINE
  5
12D
100
AcDbEntity
  8
2
370
    25
100
AcDbLine
 10
149.898505
 20
130.081398
 30
0.0
 11
201.898505
 21
130.081398
 31
0.0
  0
LINE
  5
12E
100
AcDbEntity
  8
2
370
    25
100
AcDbLine
 10
149.898505
 20
13.581398
 30
0.0
 11
201.898505
 21
13.581398
 31
0.0
  0
LINE
  5
12F
100
AcDbEntity
  8
2
370
    25
100
AcDbLine
 10
200.398505
 20
12.981398
 30
0.0
 11
151.398505
 21
12.981398
 31
0.0
  0
LINE
  5
130
100
AcDbEntity
  8
2
370
    25
100
AcDbLine
 10
126.500444
 20
89.122085
 30
0.0
 11
111.500444
 21
63.141322
 31
0.0
  0
ARC
  5
131
100
AcDbEntity
  8
2
370
    25
100
AcDbCircle
 10
120.788951
 20
58.2927
 30
0.0
 40
33.872793
100
AcDbArc
 50
334.896666
 51
30.567732
  0
LINE
  5
132
100
AcDbEntity
  8
2
370
    50
100
AcDbLine
 10
105.624236
 20
186.404875
 30
0.0
 11
108.582563
 21
192.749029
 31
0.0
  0
LINE
  5
133
100
AcDbEntity
  8
2
370
    50
100
AcDbLine
 10
105.86608
 20
185.740412
 30
0.0
 11
145.933244
 21
167.056786
 31
0.0
  0
LINE
  5
134
100
AcDbEntity
  8
2
370
    50
100
AcDbLine
 10
109.247026
 20
192.990874
 30
0.0
 11
156.165621
 21
171.112374
 31
0.0
  0
LINE
  5
135
100
AcDbEntity
  8
2
370
    50
100
AcDbLine
 10
105.624236
 20
186.404875
 30
0.0
 11
105.86608
 21
185.740412
 31
0.0
  0
LINE
  5
136
100
AcDbEntity
  8
2
370
    50
100
AcDbLine
 10
108.582563
 20
192.749029
 30
0.0
 11
109.247026
 21
192.990874
 31
0.0
  0
LINE
  5
137
100
AcDbEntity
  8
2
370
    25
100
AcDbLine
 10
109.247026
 20
192.990874
 30
0.0
 11
105.86608
 21
185.740412
 31
0.0
  0
LINE
  5
138
100
AcDbEntity
  8
2
370
    50
100
AcDbLine
 10
98.776691
 20
77.901717
 30
0.0
 11
95.916191
 21
72.947185
 31
0.0
  0
LINE
  5
139
100
AcDbEntity
  8
2
370
    50
100
AcDbLine
 10
95.31259
 20
79.901717
 30
0.0
 11
92.45209
 21
74.947185
 31
0.0
  0
LINE
  5
13A
100
AcDbEntity
  8
2
370
    50
100
AcDbLine
 10
92.635103
 20
74.264173
 30
0.0
 11
95.233179
 21
72.764173
 31
0.0
  0
ARC
  5
13B
100
AcDbEntity
  8
2
370
    50
100
AcDbCircle
 10
95.483179
 20
73.197185
 30
0.0
 40
0.5
100
AcDbArc
 50
240.0
 51
330.0
  0
ARC
  5
13C
100
AcDbEntity
  8
2
370
    50
100
AcDbCircle
 10
92.885103
 20
74.697185
 30
0.0
 40
0.5
100
AcDbArc
 50
150.0
 51
240.0
  0
LINE
  5
13D
100
AcDbEntity
  8
2
370
    50
100
AcDbLine
 10
46.278409
 20
100.797364
 30
0.0
 11
42.82528
 21
102.791029
 31
0.0
  0
LINE
  5
13E
100
AcDbEntity
  8
2
370
    50
100
AcDbLine
 10
57.825244
 20
128.77173
 30
0.0
 11
125.807816
 21
89.521974
 31
0.0
  0
LINE
  5
13F
100
AcDbEntity
  8
2
370
    50
100
AcDbLine
 10
56.459219
 20
128.405704
 30
0.0
 11
42.459219
 21
104.156993
 31
0.0
  0
ARC
  5
140
100
AcDbEntity
  8
2
370
    50
100
AcDbCircle
 10
43.325244
 20
103.656993
 30
0.0
 40
1.0
100
AcDbArc
 50
150.0
 51
240.0
  0
LINE
  5
141
100
AcDbEntity
  8
2
370
    50
100
AcDbLine
 10
67.070539
 20
88.79294
 30
0.0
 11
91.842282
 21
74.490967
 31
0.0
  0
LINE
  5
142
100
AcDbEntity
  8
2
370
    50
100
AcDbLine
 10
95.825999
 20
72.190967
 30
0.0
 11
110.807816
 21
63.541212
 31
0.0
  0
ARC
  5
143
100
AcDbEntity
  8
2
370
    50
100
AcDbCircle
 10
91.942282
 20
74.664173
 30
0.0
 40
0.2
100
AcDbArc
 50
240.0
 51
330.0
  0
LINE
  5
144
100
AcDbEntity
  8
2
370
    50
100
AcDbLine
 10
95.225987
 20
79.951717
 30
0.0
 11
92.115487
 21
74.564173
 31
0.0
  0
LINE
  5
145
100
AcDbEntity
  8
2
370
    50
100
AcDbLine
 10
98.863294
 20
77.851717
 30
0.0
 11
95.752794
 21
72.464173
 31
0.0
  0
ARC
  5
146
100
AcDbEntity
  8
2
370
    50
100
AcDbCircle
 10
95.925999
 20
72.364173
 30
0.0
 40
0.2
100
AcDbArc
 50
150.0
 51
240.0
  0
ARC
  5
147
100
AcDbEntity
  8
2
370
    50
100
AcDbCircle
 10
125.557601
 20
89.088588
 30
0.0
 40
0.5
100
AcDbArc
 50
330.0
 51
60.0
  0
ARC
  5
148
100
AcDbEntity
  8
2
370
    50
100
AcDbCircle
 10
57.325244
 20
127.905704
 30
0.0
 40
1.0
100
AcDbArc
 50
60.0
 51
150.0
  0
ARC
  5
149
100
AcDbEntity
  8
2
370
    50
100
AcDbCircle
 10
111.057816
 20
63.974224
 30
0.0
 40
0.5
100
AcDbArc
 50
240.0
 51
330.0
  0
LINE
  5
14A
100
AcDbEntity
  8
2
370
    25
  6
CENTER
100
AcDbLine
 10
54.325991
 20
89.710174
 30
0.0
 11
54.303942
 21
89.66289
 31
0.0
  0
LINE
  5
14B
100
AcDbEntity
  8
2
370
    50
100
AcDbLine
 10
44.338165
 20
94.319353
 30
0.0
 11
54.307551
 21
89.670552
 31
0.0
  0
LINE
  5
14C
100
AcDbEntity
  8
2
370
    50
100
AcDbLine
 10
46.924408
 20
101.048668
 30
0.0
 11
44.09632
 21
94.983816
 31
0.0
  0
LINE
  5
14D
100
AcDbEntity
  8
2
370
    50
100
AcDbLine
 10
64.276937
 20
85.021751
 30
0.0
 11
54.307551
 21
89.670552
 31
0.0
  0
LINE
  5
14E
100
AcDbEntity
  8
2
370
    50
100
AcDbLine
 10
66.917672
 20
89.501726
 30
0.0
 11
64.9414
 21
85.263596
 31
0.0
  0
LINE
  5
14F
100
AcDbEntity
  8
2
370
    50
100
AcDbLine
 10
95.225987
 20
79.951717
 30
0.0
 11
98.863294
 21
77.851717
 31
0.0
  0
ARC
  5
150
100
AcDbEntity
  8
2
370
    50
100
AcDbCircle
 10
51.858386
 20
87.409538
 30
0.0
 40
14.504138
100
AcDbArc
 50
60.0
 51
112.626124
  0
ARC
  5
151
100
AcDbEntity
  8
2
370
    50
100
AcDbCircle
 10
50.851659
 20
85.665836
 30
0.0
 40
16.517592
100
AcDbArc
 50
10.913082
 51
60.0
  0
LINE
  5
152
100
AcDbEntity
  8
2
370
    50
100
AcDbLine
 10
64.9414
 20
85.263596
 30
0.0
 11
64.276937
 21
85.021751
 31
0.0
  0
LINE
  5
153
100
AcDbEntity
  8
2
370
    50
100
AcDbLine
 10
44.09632
 20
94.983816
 30
0.0
 11
44.338165
 21
94.319353
 31
0.0
  0
LINE
  5
154
100
AcDbEntity
  8
2
370
    50
100
AcDbLine
 10
44.09632
 20
94.983816
 30
0.0
 11
64.9414
 21
85.263596
 31
0.0
  0
LINE
  5
155
100
AcDbEntity
  8
2
370
    50
100
AcDbLine
 10
-157.086101
 20
132.981398
 30
0.0
 11
-160.989002
 21
132.981398
 31
0.0
  0
ARC
  5
156
100
AcDbEntity
  8
2
370
    50
100
AcDbCircle
 10
-161.551874
 20
132.899059
 30
0.0
 40
1.0
100
AcDbArc
 50
175.27696
 51
179.5
  0
LINE
  5
157
100
AcDbEntity
  8
2
370
    50
100
AcDbLine
 10
-162.574756
 20
130.281398
 30
0.0
 11
-162.551836
 21
132.907785
 31
0.0
  0
LINE
  5
158
100
AcDbEntity
  8
2
370
    50
100
AcDbLine
 10
-121.086101
 20
132.981398
 30
0.0
 11
-117.1832
 21
132.981398
 31
0.0
  0
ARC
  5
159
100
AcDbEntity
  8
2
370
    50
100
AcDbCircle
 10
-116.620328
 20
132.899059
 30
0.0
 40
1.0
100
AcDbArc
 50
0.5
 51
4.72304
  0
LINE
  5
15A
100
AcDbEntity
  8
2
370
    50
100
AcDbLine
 10
-115.597446
 20
130.281398
 30
0.0
 11
-115.620366
 21
132.907785
 31
0.0
  0
LINE
  5
15B
100
AcDbEntity
  8
2
370
    25
  6
CENTER
100
AcDbLine
 10
61.144514
 20
104.332466
 30
0.0
 11
51.87036
 21
84.44398
 31
0.0
  0
ELLIPSE
  5
15C
100
AcDbEntity
  8
2
370
    50
100
AcDbEllipse
 10
-139.086101
 20
115.915354
 30
0.0
 11
15.0
 21
0.0
 31
0.0
210
0.0
220
0.0
230
1.0
 40
0.866023
 41
0.0
 42
6.2831849999999996
  0
LINE
  5
15D
100
AcDbEntity
  8
2
370
    50
100
AcDbLine
 10
-150.586101
 20
94.418777
 30
0.0
 11
-150.586101
 21
89.30454
 31
0.0
  0
LINE
  5
15E
100
AcDbEntity
  8
2
370
    50
100
AcDbLine
 10
-127.586101
 20
94.418777
 30
0.0
 11
-127.586101
 21
89.30454
 31
0.0
  0
ELLIPSE
  5
15F
100
AcDbEntity
  8
2
370
    50
100
AcDbEllipse
 10
-139.086101
 20
89.30454
 30
0.0
 11
11.5
 21
0.0
 31
0.0
210
0.0
220
0.0
230
1.0
 40
0.422617
 41
0.0
 42
6.2831849999999996
  0
ELLIPSE
  5
160
100
AcDbEntity
  8
2
370
    50
100
AcDbEllipse
 10
-139.086101
 20
94.418777
 30
0.0
 11
11.800000000000001
 21
0.0
 31
0.0
210
0.0
220
0.0
230
1.0
 40
0.50191
 41
6.0572109999999997
 42
3.3675670000000002
  0
ELLIPSE
  5
161
100
AcDbEntity
  8
2
370
    50
100
AcDbEllipse
 10
-139.086101
 20
94.418777
 30
0.0
 11
11.5
 21
0.0
 31
0.0
210
0.0
220
0.0
230
1.0
 40
0.501908
 41
0.0
 42
3.1415929999999999
  0
ELLIPSE
  5
162
100
AcDbEntity
  8
2
370
    50
100
AcDbEllipse
 10
-139.086101
 20
89.350093
 30
0.0
 11
9.4499999999999993
 21
0.0
 31
0.0
210
0.0
220
0.0
230
1.0
 40
0.422618
 41
0.0
 42
6.2831849999999996
  0
ELLIPSE
  5
163
100
AcDbEntity
  8
2
370
    50
100
AcDbEllipse
 10
-139.086101
 20
84.915323
 30
0.0
 11
15.0
 21
0.0
 31
0.0
210
0.0
220
0.0
230
1.0
 40
0.866025
 41
3.785094
 42
5.6396839999999999
  0
ELLIPSE
  5
164
100
AcDbEntity
  8
2
370
    50
100
AcDbEllipse
 10
-139.086101
 20
87.015363
 30
0.0
 11
15.0
 21
0.0
 31
0.0
210
0.0
220
0.0
230
1.0
 40
0.866028
 41
3.785094
 42
5.6396839999999999
  0
LINE
  5
165
100
AcDbEntity
  8
2
370
    50
100
AcDbLine
 10
-151.086101
 20
77.121095
 30
0.0
 11
-151.086101
 21
79.221111
 31
0.0
  0
LINE
  5
166
100
AcDbEntity
  8
2
370
    50
100
AcDbLine
 10
-127.186101
 20
79.106957
 30
0.0
 11
-127.186101
 21
77.344792
 31
0.0
  0
LINE
  5
167
100
AcDbEntity
  8
2
370
    50
100
AcDbLine
 10
-150.986101
 20
79.106957
 30
0.0
 11
-150.986101
 21
77.344792
 31
0.0
  0
ELLIPSE
  5
168
100
AcDbEntity
  8
2
370
    50
100
AcDbEllipse
 10
-139.086101
 20
84.965323
 30
0.0
 11
14.800000000000001
 21
0.0
 31
0.0
210
0.0
220
0.0
230
1.0
 40
0.866025
 41
3.7783060000000002
 42
5.6464720000000002
  0
LINE
  5
169
100
AcDbEntity
  8
2
370
    50
100
AcDbLine
 10
-137.136101
 20
61.053167
 30
0.0
 11
-141.036101
 21
61.053167
 31
0.0
  0
LINE
  5
16A
100
AcDbEntity
  8
2
370
    50
100
AcDbLine
 10
-137.136101
 20
63.035603
 30
0.0
 11
-137.136101
 21
61.053167
 31
0.0
  0
LINE
  5
16B
100
AcDbEntity
  8
2
370
    50
100
AcDbLine
 10
-141.036101
 20
63.035603
 30
0.0
 11
-141.036101
 21
61.053167
 31
0.0
  0
ELLIPSE
  5
16C
100
AcDbEntity
  8
2
370
    50
100
AcDbEllipse
 10
-139.086101
 20
76.281593
 30
0.0
 11
15.0
 21
0.0
 31
0.0
210
0.0
220
0.0
230
1.0
 40
0.866033
 41
4.8494849999999996
 42
0.0
  0
ELLIPSE
  5
16D
100
AcDbEntity
  8
2
370
    50
100
AcDbEllipse
 10
-139.086101
 20
76.281593
 30
0.0
 11
15.0
 21
0.0
 31
0.0
210
0.0
220
0.0
230
1.0
 40
0.866033
 41
3.1415929999999999
 42
4.5752930000000003
  0
LINE
  5
16E
100
AcDbEntity
  8
2
370
    50
100
AcDbLine
 10
-127.086101
 20
77.121095
 30
0.0
 11
-127.086101
 21
79.221111
 31
0.0
  0
LINE
  5
16F
100
AcDbEntity
  8
2
370
    50
100
AcDbLine
 10
150.898505
 20
-5.518602
 30
0.0
 11
150.898505
 21
-3.518602
 31
0.0
  0
LINE
  5
170
100
AcDbEntity
  8
2
370
    50
100
AcDbLine
 10
200.898505
 20
-5.518602
 30
0.0
 11
200.898505
 21
-3.518602
 31
0.0
  0
LINE
  5
171
100
AcDbEntity
  8
2
370
    50
100
AcDbLine
 10
150.898505
 20
-5.018602
 30
0.0
 11
200.898505
 21
-5.018602
 31
0.0
  0
LINE
  5
172
100
AcDbEntity
  8
2
370
    50
100
AcDbLine
 10
200.898505
 20
-3.518602
 30
0.0
 11
150.898505
 21
-3.518602
 31
0.0
  0
LINE
  5
173
100
AcDbEntity
  8
2
370
    50
100
AcDbLine
 10
149.898505
 20
-5.518602
 30
0.0
 11
201.898505
 21
-5.518602
 31
0.0
  0
LINE
  5
174
100
AcDbEntity
  8
2
370
    50
100
AcDbLine
 10
152.398505
 20
12.781398
 30
0.0
 11
199.398505
 21
12.781398
 31
0.0
  0
LINE
  5
175
100
AcDbEntity
  8
2
370
    50
100
AcDbLine
 10
199.398505
 20
12.781398
 30
0.0
 11
199.398505
 21
9.781398
 31
0.0
  0
LINE
  5
176
100
AcDbEntity
  8
2
370
    50
100
AcDbLine
 10
152.398505
 20
12.781398
 30
0.0
 11
152.398505
 21
9.781398
 31
0.0
  0
LINE
  5
177
100
AcDbEntity
  8
2
370
    50
100
AcDbLine
 10
193.648505
 20
12.781398
 30
0.0
 11
199.398505
 21
12.781398
 31
0.0
  0
LINE
  5
178
100
AcDbEntity
  8
2
370
    50
100
AcDbLine
 10
152.398505
 20
9.781398
 30
0.0
 11
199.398505
 21
9.781398
 31
0.0
  0
LINE
  5
179
100
AcDbEntity
  8
2
370
    50
100
AcDbLine
 10
193.398505
 20
-5.518602
 30
0.0
 11
201.898505
 21
-5.518602
 31
0.0
  0
HATCH
  5
17A
100
AcDbEntity
  8
2
370
    25
100
AcDbHatch
 10
0.0
 20
0.0
 30
0.0
210
0.0
220
0.0
230
1.0
  2
_U
 70
     0
 71
     1
 91
        1
 92
        1
 93
        4
 72
     1
 10
200.898505
 20
-3.518602
 11
150.898505
 21
-3.518602
 72
     1
 10
150.898505
 20
-3.518602
 11
150.898505
 21
-5.0186019999999996
 72
     1
 10
150.898505
 20
-5.0186019999999996
 11
200.898505
 21
-5.0186019999999996
 72
     1
 10
200.898505
 20
-5.0186019999999996
 11
200.898505
 21
-3.518602
 97
        4
330
0
330
0
330
0
330
0
 75
     0
 76
     0
 52
45.0
 41
1.0
 77
     0
 78
     1
 53
45.0
 43
0.0
 44
0.0
 45
-0.282843
 46
0.282843
 79
     0
 98
        1
 10
0.0
 20
0.0
  0
HATCH
  5
17B
100
AcDbEntity
  8
2
370
    25
100
AcDbHatch
 10
0.0
 20
0.0
 30
0.0
210
0.0
220
0.0
230
1.0
  2
_U
 70
     0
 71
     1
 91
        1
 92
        1
 93
        6
 72
     1
 10
199.398505
 20
12.781397999999999
 11
199.398505
 21
9.7813979999999994
 72
     1
 10
199.398505
 20
9.7813979999999994
 11
152.398505
 21
9.7813979999999994
 72
     1
 10
152.398505
 20
9.7813979999999994
 11
152.398505
 21
12.781397999999999
 72
     1
 10
152.398505
 20
12.781397999999999
 11
199.448656
 21
12.781397999999999
 72
     1
 10
199.448656
 20
12.781397999999999
 11
193.648505
 21
12.781397999999999
 72
     1
 10
193.648505
 20
12.781397999999999
 11
199.398505
 21
12.781397999999999
 97
        6
330
0
330
0
330
0
330
0
330
0
330
0
 75
     0
 76
     0
 52
45.0
 41
1.0
 77
     0
 78
     1
 53
45.0
 43
0.0
 44
0.0
 45
-0.707107
 46
0.707107
 79
     0
 98
        1
 10
0.0
 20
0.0
  0
LINE
  5
17C
100
AcDbEntity
  8
2
370
    50
100
AcDbLine
 10
204.590176
 20
-5.518602
 30
0.0
 11
147.207136
 21
-5.518602
 31
0.0
  0
LINE
  5
17D
100
AcDbEntity
  8
2
370
    50
100
AcDbLine
 10
147.207136
 20
-17.555897
 30
0.0
 11
147.207136
 21
-5.518602
 31
0.0
  0
LINE
  5
17E
100
AcDbEntity
  8
2
370
    50
100
AcDbLine
 10
160.607835
 20
-7.725642
 30
0.0
 11
147.207136
 21
-7.725642
 31
0.0
  0
LINE
  5
17F
100
AcDbEntity
  8
2
370
    50
100
AcDbLine
 10
160.607835
 20
-17.555897
 30
0.0
 11
160.607835
 21
-7.725642
 31
0.0
  0
LINE
  5
180
100
AcDbEntity
  8
2
370
    50
100
AcDbLine
 10
162.519187
 20
-17.555897
 30
0.0
 11
162.519187
 21
-7.725642
 31
0.0
  0
LINE
  5
181
100
AcDbEntity
  8
2
370
    50
100
AcDbLine
 10
189.278125
 20
-7.725642
 30
0.0
 11
162.519187
 21
-7.725642
 31
0.0
  0
LINE
  5
182
100
AcDbEntity
  8
2
370
    50
100
AcDbLine
 10
191.189478
 20
-17.555897
 30
0.0
 11
191.189478
 21
-7.725642
 31
0.0
  0
LINE
  5
183
100
AcDbEntity
  8
2
370
    50
100
AcDbLine
 10
189.278125
 20
-17.555897
 30
0.0
 11
189.278125
 21
-7.725642
 31
0.0
  0
LINE
  5
184
100
AcDbEntity
  8
2
370
    50
100
AcDbLine
 10
204.590176
 20
-7.725642
 30
0.0
 11
191.189478
 21
-7.725642
 31
0.0
  0
LINE
  5
185
100
AcDbEntity
  8
2
370
    50
100
AcDbLine
 10
204.590176
 20
-17.555897
 30
0.0
 11
204.590176
 21
-5.518602
 31
0.0
  0
ARC
  5
186
100
AcDbEntity
  8
2
370
    50
100
AcDbCircle
 10
197.889827
 20
0.470974
 30
0.0
 40
19.231816
100
AcDbArc
 50
249.610566
 51
290.389434
  0
ARC
  5
187
100
AcDbEntity
  8
2
370
    50
100
AcDbCircle
 10
175.898656
 20
56.123089
 30
0.0
 40
74.883932
100
AcDbArc
 50
259.707733
 51
280.292267
  0
LINE
  5
188
100
AcDbEntity
  8
2
370
    50
100
AcDbLine
 10
191.189478
 20
-17.555897
 30
0.0
 11
189.278125
 21
-17.555897
 31
0.0
  0
LINE
  5
189
100
AcDbEntity
  8
2
370
    50
100
AcDbLine
 10
162.519187
 20
-17.555897
 30
0.0
 11
160.607835
 21
-17.555897
 31
0.0
  0
ARC
  5
18A
100
AcDbEntity
  8
2
370
    50
100
AcDbCircle
 10
175.898656
 20
56.123089
 30
0.0
 40
74.883932
100
AcDbArc
 50
259.707733
 51
280.292267
  0
ARC
  5
18B
100
AcDbEntity
  8
2
370
    50
100
AcDbCircle
 10
153.907486
 20
0.470974
 30
0.0
 40
19.231816
100
AcDbArc
 50
249.610566
 51
290.389434
  0
LINE
  5
18C
100
AcDbEntity
  8
2
370
    50
100
AcDbLine
 10
201.279616
 20
-18.760842
 30
0.0
 11
150.517696
 21
-18.760842
 31
0.0
  0
LINE
  5
18D
100
AcDbEntity
  8
2
370
    50
100
AcDbLine
 10
150.517696
 20
-18.760842
 30
0.0
 11
147.207136
 21
-17.555897
 31
0.0
  0
LINE
  5
18E
100
AcDbEntity
  8
2
370
    50
100
AcDbLine
 10
201.279616
 20
-18.760842
 30
0.0
 11
204.590176
 21
-17.555897
 31
0.0
  0
LINE
  5
18F
100
AcDbEntity
  8
2
370
    50
100
AcDbLine
 10
193.398505
 20
-28.924602
 30
0.0
 11
193.398505
 21
-18.760842
 31
0.0
  0
LINE
  5
190
100
AcDbEntity
  8
2
370
    50
100
AcDbLine
 10
193.398505
 20
-3.518602
 30
0.0
 11
193.398505
 21
9.781398
 31
0.0
  0
LINE
  5
191
100
AcDbEntity
  8
2
370
    25
100
AcDbLine
 10
192.604755
 20
-29.718352
 30
0.0
 11
192.604755
 21
-18.760842
 31
0.0
  0
LINE
  5
192
100
AcDbEntity
  8
2
370
    25
100
AcDbLine
 10
192.604755
 20
-3.518602
 30
0.0
 11
192.604755
 21
9.781398
 31
0.0
  0
LINE
  5
193
100
AcDbEntity
  8
2
370
    25
100
AcDbLine
 10
159.192255
 20
-29.718352
 30
0.0
 11
159.192255
 21
-18.760842
 31
0.0
  0
LINE
  5
194
100
AcDbEntity
  8
2
370
    25
100
AcDbLine
 10
159.192255
 20
-3.518602
 30
0.0
 11
159.192255
 21
9.781398
 31
0.0
  0
LINE
  5
195
100
AcDbEntity
  8
2
370
    50
100
AcDbLine
 10
158.398505
 20
-28.924602
 30
0.0
 11
158.398505
 21
-18.760842
 31
0.0
  0
LINE
  5
196
100
AcDbEntity
  8
2
370
    50
100
AcDbLine
 10
158.398505
 20
-3.518602
 30
0.0
 11
158.398505
 21
9.781398
 31
0.0
  0
LINE
  5
197
100
AcDbEntity
  8
2
370
    25
100
AcDbLine
 10
158.398505
 20
-28.924602
 30
0.0
 11
193.398505
 21
-28.924602
 31
0.0
  0
LINE
  5
198
100
AcDbEntity
  8
2
370
    25
  6
CENTER
100
AcDbLine
 10
247.776259
 20
4.705917
 30
0.0
 11
247.776259
 21
-24.814289
 31
0.0
  0
LINE
  5
199
100
AcDbEntity
  8
2
370
    25
  6
DASHED
100
AcDbLine
 10
247.776259
 20
-80.213578
 30
0.0
 11
251.776493
 21
-80.213578
 31
0.0
  0
LINE
  5
19A
100
AcDbEntity
  8
2
370
    50
100
AcDbLine
 10
251.776259
 20
-18.450596
 30
0.0
 11
251.776259
 21
-54.713578
 31
0.0
  0
LINE
  5
19B
100
AcDbEntity
  8
2
370
    50
100
AcDbLine
 10
243.776259
 20
-18.475422
 30
0.0
 11
243.776259
 21
-54.713578
 31
0.0
  0
ARC
  5
19C
100
AcDbEntity
  8
2
370
    50
100
AcDbCircle
 10
184.398505
 20
-44.112829
 30
0.0
 40
3.333333
100
AcDbArc
 50
233.130102
 51
306.869898
  0
ARC
  5
19D
100
AcDbEntity
  8
2
370
    50
100
AcDbCircle
 10
188.398505
 20
-49.446162
 30
0.0
 40
3.333333
100
AcDbArc
 50
53.130102
 51
126.869898
  0
ARC
  5
19E
100
AcDbEntity
  8
2
370
    50
100
AcDbCircle
 10
184.398505
 20
-49.446162
 30
0.0
 40
3.333333
100
AcDbArc
 50
53.130102
 51
126.869898
  0
ARC
  5
19F
100
AcDbEntity
  8
2
370
    50
100
AcDbCircle
 10
245.776259
 20
-15.820001
 30
0.0
 40
3.333333
100
AcDbArc
 50
233.130102
 51
306.869898
  0
ARC
  5
1A0
100
AcDbEntity
  8
2
370
    50
100
AcDbCircle
 10
249.776259
 20
-21.153334
 30
0.0
 40
3.333333
100
AcDbArc
 50
53.130102
 51
126.869898
  0
ARC
  5
1A1
100
AcDbEntity
  8
2
370
    50
100
AcDbCircle
 10
249.776259
 20
-15.820001
 30
0.0
 40
3.333333
100
AcDbArc
 50
233.130102
 51
306.869898
  0
LINE
  5
1A2
100
AcDbEntity
  8
2
370
    50
100
AcDbLine
 10
189.148505
 20
-100.218602
 30
0.0
 11
183.398505
 21
-100.218602
 31
0.0
  0
ARC
  5
1A3
100
AcDbEntity
  8
2
370
    50
100
AcDbCircle
 10
183.398505
 20
-103.531102
 30
0.0
 40
3.3125
100
AcDbArc
 50
58.109208
 51
90.0
  0
LINE
  5
1A4
100
AcDbEntity
  8
2
370
    50
100
AcDbLine
 10
185.148505
 20
-100.718602
 30
0.0
 11
185.148505
 21
-115.218602
 31
0.0
  0
ARC
  5
1A5
100
AcDbEntity
  8
2
370
    50
100
AcDbCircle
 10
183.398505
 20
-112.406102
 30
0.0
 40
3.3125
100
AcDbArc
 50
270.0
 51
301.890792
  0
LINE
  5
1A6
100
AcDbEntity
  8
2
370
    50
100
AcDbLine
 10
187.719658
 20
-115.218602
 30
0.0
 11
185.148505
 21
-115.218602
 31
0.0
  0
LINE
  5
1A7
100
AcDbEntity
  8
2
370
    50
100
AcDbLine
 10
187.719658
 20
-100.718602
 30
0.0
 11
185.148505
 21
-100.718602
 31
0.0
  0
LINE
  5
1A8
100
AcDbEntity
  8
2
370
    50
100
AcDbLine
 10
187.719658
 20
-100.718602
 30
0.0
 11
187.719658
 21
-115.218602
 31
0.0
  0
ARC
  5
1A9
100
AcDbEntity
  8
2
370
    50
100
AcDbCircle
 10
188.594658
 20
-101.234227
 30
0.0
 40
1.015625
100
AcDbArc
 50
30.510237
 51
149.489763
  0
LINE
  5
1AA
100
AcDbEntity
  8
2
370
    50
100
AcDbLine
 10
189.648505
 20
-100.718602
 30
0.0
 11
189.648505
 21
-115.218602
 31
0.0
  0
LINE
  5
1AB
100
AcDbEntity
  8
2
370
    50
100
AcDbLine
 10
189.469658
 20
-100.718602
 30
0.0
 11
189.469658
 21
-115.218602
 31
0.0
  0
LINE
  5
1AC
100
AcDbEntity
  8
2
370
    50
100
AcDbLine
 10
189.148505
 20
-100.218602
 30
0.0
 11
189.648505
 21
-100.718602
 31
0.0
  0
LINE
  5
1AD
100
AcDbEntity
  8
2
370
    50
100
AcDbLine
 10
189.648505
 20
-100.718602
 30
0.0
 11
189.469658
 21
-100.718602
 31
0.0
  0
LINE
  5
1AE
100
AcDbEntity
  8
2
370
    50
100
AcDbLine
 10
189.148505
 20
-115.718602
 30
0.0
 11
183.398505
 21
-115.718602
 31
0.0
  0
LINE
  5
1AF
100
AcDbEntity
  8
2
370
    50
100
AcDbLine
 10
189.148505
 20
-115.718602
 30
0.0
 11
189.648505
 21
-115.218602
 31
0.0
  0
LINE
  5
1B0
100
AcDbEntity
  8
2
370
    50
100
AcDbLine
 10
189.648505
 20
-115.218602
 30
0.0
 11
189.469658
 21
-115.218602
 31
0.0
  0
ARC
  5
1B1
100
AcDbEntity
  8
2
370
    50
100
AcDbCircle
 10
188.594658
 20
-114.702977
 30
0.0
 40
1.015625
100
AcDbArc
 50
210.510237
 51
329.489763
  0
LINE
  5
1B2
100
AcDbEntity
  8
2
370
    50
100
AcDbLine
 10
187.398505
 20
-46.229893
 30
0.0
 11
187.398505
 21
-100.218602
 31
0.0
  0
LINE
  5
1B3
100
AcDbEntity
  8
2
370
    50
100
AcDbLine
 10
164.398505
 20
-76.913037
 30
0.0
 11
164.398505
 21
-74.276884
 31
0.0
  0
ARC
  5
1B4
100
AcDbEntity
  8
2
370
    50
100
AcDbCircle
 10
164.598505
 20
-74.276884
 30
0.0
 40
0.2
100
AcDbArc
 50
99.5
 51
180.0
  0
LINE
  5
1B5
100
AcDbEntity
  8
2
370
    50
100
AcDbLine
 10
165.198505
 20
-73.973318
 30
0.0
 11
165.198505
 21
-72.959413
 31
0.0
  0
LINE
  5
1B6
100
AcDbEntity
  8
2
370
    50
100
AcDbLine
 10
178.16549
 20
-71.803389
 30
0.0
 11
164.565493
 21
-74.079646
 31
0.0
  0
LINE
  5
1B7
100
AcDbEntity
  8
2
370
    50
100
AcDbLine
 10
164.398505
 20
-72.857037
 30
0.0
 11
164.398505
 21
-70.220884
 31
0.0
  0
ARC
  5
1B8
100
AcDbEntity
  8
2
370
    50
100
AcDbCircle
 10
164.598505
 20
-70.220884
 30
0.0
 40
0.2
100
AcDbArc
 50
99.5
 51
180.0
  0
LINE
  5
1B9
100
AcDbEntity
  8
2
370
    50
100
AcDbLine
 10
164.631515
 20
-73.054295
 30
0.0
 11
178.231515
 21
-70.778435
 31
0.0
  0
ARC
  5
1BA
100
AcDbEntity
  8
2
370
    50
100
AcDbCircle
 10
164.598505
 20
-72.857037
 30
0.0
 40
0.2
100
AcDbArc
 50
180.0
 51
279.5
  0
LINE
  5
1BB
100
AcDbEntity
  8
2
370
    50
100
AcDbLine
 10
165.198505
 20
-69.917318
 30
0.0
 11
165.198505
 21
-68.903413
 31
0.0
  0
LINE
  5
1BC
100
AcDbEntity
  8
2
370
    50
100
AcDbLine
 10
178.16549
 20
-67.747389
 30
0.0
 11
164.565493
 21
-70.023646
 31
0.0
  0
LINE
  5
1BD
100
AcDbEntity
  8
2
370
    50
100
AcDbLine
 10
164.398505
 20
-68.801037
 30
0.0
 11
164.398505
 21
-66.164884
 31
0.0
  0
ARC
  5
1BE
100
AcDbEntity
  8
2
370
    50
100
AcDbCircle
 10
164.598505
 20
-66.164884
 30
0.0
 40
0.2
100
AcDbArc
 50
99.5
 51
180.0
  0
LINE
  5
1BF
100
AcDbEntity
  8
2
370
    50
100
AcDbLine
 10
164.631515
 20
-68.998295
 30
0.0
 11
178.231515
 21
-66.722435
 31
0.0
  0
ARC
  5
1C0
100
AcDbEntity
  8
2
370
    50
100
AcDbCircle
 10
164.598505
 20
-68.801037
 30
0.0
 40
0.2
100
AcDbArc
 50
180.0
 51
279.5
  0
LINE
  5
1C1
100
AcDbEntity
  8
2
370
    50
100
AcDbLine
 10
165.198505
 20
-65.861318
 30
0.0
 11
165.198505
 21
-64.847413
 31
0.0
  0
LINE
  5
1C2
100
AcDbEntity
  8
2
370
    50
100
AcDbLine
 10
178.16549
 20
-63.691389
 30
0.0
 11
164.565493
 21
-65.967646
 31
0.0
  0
LINE
  5
1C3
100
AcDbEntity
  8
2
370
    50
100
AcDbLine
 10
164.398505
 20
-64.745037
 30
0.0
 11
164.398505
 21
-62.108884
 31
0.0
  0
ARC
  5
1C4
100
AcDbEntity
  8
2
370
    50
100
AcDbCircle
 10
164.598505
 20
-62.108884
 30
0.0
 40
0.2
100
AcDbArc
 50
99.5
 51
180.0
  0
LINE
  5
1C5
100
AcDbEntity
  8
2
370
    50
100
AcDbLine
 10
164.631515
 20
-64.942295
 30
0.0
 11
178.231515
 21
-62.666435
 31
0.0
  0
ARC
  5
1C6
100
AcDbEntity
  8
2
370
    50
100
AcDbCircle
 10
164.598505
 20
-64.745037
 30
0.0
 40
0.2
100
AcDbArc
 50
180.0
 51
279.5
  0
LINE
  5
1C7
100
AcDbEntity
  8
2
370
    50
100
AcDbLine
 10
165.198505
 20
-61.805318
 30
0.0
 11
165.198505
 21
-60.791413
 31
0.0
  0
LINE
  5
1C8
100
AcDbEntity
  8
2
370
    50
100
AcDbLine
 10
178.16549
 20
-59.635389
 30
0.0
 11
164.565493
 21
-61.911646
 31
0.0
  0
LINE
  5
1C9
100
AcDbEntity
  8
2
370
    50
100
AcDbLine
 10
164.398505
 20
-60.689037
 30
0.0
 11
164.398505
 21
-58.052884
 31
0.0
  0
ARC
  5
1CA
100
AcDbEntity
  8
2
370
    50
100
AcDbCircle
 10
164.598505
 20
-58.052884
 30
0.0
 40
0.2
100
AcDbArc
 50
99.5
 51
180.0
  0
LINE
  5
1CB
100
AcDbEntity
  8
2
370
    50
100
AcDbLine
 10
164.631515
 20
-60.886295
 30
0.0
 11
178.231515
 21
-58.610435
 31
0.0
  0
ARC
  5
1CC
100
AcDbEntity
  8
2
370
    50
100
AcDbCircle
 10
164.598505
 20
-60.689037
 30
0.0
 40
0.2
100
AcDbArc
 50
180.0
 51
279.5
  0
LINE
  5
1CD
100
AcDbEntity
  8
2
370
    50
100
AcDbLine
 10
165.198505
 20
-57.749318
 30
0.0
 11
165.198505
 21
-56.735413
 31
0.0
  0
LINE
  5
1CE
100
AcDbEntity
  8
2
370
    50
100
AcDbLine
 10
178.16549
 20
-55.579389
 30
0.0
 11
164.565493
 21
-57.855646
 31
0.0
  0
LINE
  5
1CF
100
AcDbEntity
  8
2
370
    50
100
AcDbLine
 10
164.398505
 20
-56.633037
 30
0.0
 11
164.398505
 21
-53.996884
 31
0.0
  0
ARC
  5
1D0
100
AcDbEntity
  8
2
370
    50
100
AcDbCircle
 10
164.598505
 20
-53.996884
 30
0.0
 40
0.2
100
AcDbArc
 50
99.5
 51
180.0
  0
LINE
  5
1D1
100
AcDbEntity
  8
2
370
    50
100
AcDbLine
 10
164.631515
 20
-56.830295
 30
0.0
 11
178.231515
 21
-54.554435
 31
0.0
  0
ARC
  5
1D2
100
AcDbEntity
  8
2
370
    50
100
AcDbCircle
 10
164.598505
 20
-56.633037
 30
0.0
 40
0.2
100
AcDbArc
 50
180.0
 51
279.5
  0
LINE
  5
1D3
100
AcDbEntity
  8
2
370
    50
100
AcDbLine
 10
165.198505
 20
-53.693318
 30
0.0
 11
165.198505
 21
-52.679413
 31
0.0
  0
LINE
  5
1D4
100
AcDbEntity
  8
2
370
    50
100
AcDbLine
 10
178.16549
 20
-51.523389
 30
0.0
 11
164.565493
 21
-53.799646
 31
0.0
  0
LINE
  5
1D5
100
AcDbEntity
  8
2
370
    50
100
AcDbLine
 10
164.398505
 20
-52.577037
 30
0.0
 11
164.398505
 21
-49.940884
 31
0.0
  0
ARC
  5
1D6
100
AcDbEntity
  8
2
370
    50
100
AcDbCircle
 10
164.598505
 20
-49.940884
 30
0.0
 40
0.2
100
AcDbArc
 50
99.5
 51
180.0
  0
LINE
  5
1D7
100
AcDbEntity
  8
2
370
    50
100
AcDbLine
 10
164.631515
 20
-52.774295
 30
0.0
 11
178.231515
 21
-50.498435
 31
0.0
  0
ARC
  5
1D8
100
AcDbEntity
  8
2
370
    50
100
AcDbCircle
 10
164.598505
 20
-52.577037
 30
0.0
 40
0.2
100
AcDbArc
 50
180.0
 51
279.5
  0
LINE
  5
1D9
100
AcDbEntity
  8
2
370
    50
100
AcDbLine
 10
165.198505
 20
-49.637318
 30
0.0
 11
165.198505
 21
-48.623413
 31
0.0
  0
LINE
  5
1DA
100
AcDbEntity
  8
2
370
    50
100
AcDbLine
 10
178.16549
 20
-47.467389
 30
0.0
 11
164.565493
 21
-49.743646
 31
0.0
  0
LINE
  5
1DB
100
AcDbEntity
  8
2
370
    50
100
AcDbLine
 10
164.398505
 20
-48.521037
 30
0.0
 11
164.398505
 21
-45.884884
 31
0.0
  0
ARC
  5
1DC
100
AcDbEntity
  8
2
370
    50
100
AcDbCircle
 10
164.598505
 20
-45.884884
 30
0.0
 40
0.2
100
AcDbArc
 50
99.5
 51
180.0
  0
LINE
  5
1DD
100
AcDbEntity
  8
2
370
    50
100
AcDbLine
 10
164.631515
 20
-48.718295
 30
0.0
 11
178.231515
 21
-46.442435
 31
0.0
  0
ARC
  5
1DE
100
AcDbEntity
  8
2
370
    50
100
AcDbCircle
 10
164.598505
 20
-48.521037
 30
0.0
 40
0.2
100
AcDbArc
 50
180.0
 51
279.5
  0
LINE
  5
1DF
100
AcDbEntity
  8
2
370
    50
100
AcDbLine
 10
165.198505
 20
-45.581318
 30
0.0
 11
165.198505
 21
-44.567413
 31
0.0
  0
LINE
  5
1E0
100
AcDbEntity
  8
2
370
    50
100
AcDbLine
 10
178.16549
 20
-43.411389
 30
0.0
 11
164.565493
 21
-45.687646
 31
0.0
  0
LINE
  5
1E1
100
AcDbEntity
  8
2
370
    50
100
AcDbLine
 10
164.631515
 20
-44.662295
 30
0.0
 11
178.231515
 21
-42.386435
 31
0.0
  0
LINE
  5
1E2
100
AcDbEntity
  8
2
370
    50
100
AcDbLine
 10
164.398505
 20
-44.465037
 30
0.0
 11
164.398505
 21
-41.828884
 31
0.0
  0
ARC
  5
1E3
100
AcDbEntity
  8
2
370
    50
100
AcDbCircle
 10
164.598505
 20
-44.465037
 30
0.0
 40
0.2
100
AcDbArc
 50
180.0
 51
279.5
  0
LINE
  5
1E4
100
AcDbEntity
  8
2
370
    50
100
AcDbLine
 10
178.16549
 20
-39.355389
 30
0.0
 11
164.565493
 21
-41.631646
 31
0.0
  0
ARC
  5
1E5
100
AcDbEntity
  8
2
370
    50
100
AcDbCircle
 10
164.598505
 20
-41.828884
 30
0.0
 40
0.2
100
AcDbArc
 50
99.5
 51
180.0
  0
LINE
  5
1E6
100
AcDbEntity
  8
2
370
    50
100
AcDbLine
 10
165.198505
 20
-41.525318
 30
0.0
 11
165.198505
 21
-40.511413
 31
0.0
  0
LINE
  5
1E7
100
AcDbEntity
  8
2
370
    50
100
AcDbLine
 10
165.198505
 20
-37.469318
 30
0.0
 11
165.198505
 21
-36.455413
 31
0.0
  0
ARC
  5
1E8
100
AcDbEntity
  8
2
370
    50
100
AcDbCircle
 10
164.598505
 20
-37.772884
 30
0.0
 40
0.2
100
AcDbArc
 50
99.5
 51
180.0
  0
LINE
  5
1E9
100
AcDbEntity
  8
2
370
    50
100
AcDbLine
 10
164.398505
 20
-40.409037
 30
0.0
 11
164.398505
 21
-37.772884
 31
0.0
  0
ARC
  5
1EA
100
AcDbEntity
  8
2
370
    50
100
AcDbCircle
 10
164.598505
 20
-40.409037
 30
0.0
 40
0.2
100
AcDbArc
 50
180.0
 51
279.5
  0
LINE
  5
1EB
100
AcDbEntity
  8
2
370
    50
100
AcDbLine
 10
164.631515
 20
-40.606295
 30
0.0
 11
178.231515
 21
-38.330435
 31
0.0
  0
LINE
  5
1EC
100
AcDbEntity
  8
2
370
    50
100
AcDbLine
 10
164.398505
 20
-36.353037
 30
0.0
 11
164.398505
 21
-33.716884
 31
0.0
  0
ARC
  5
1ED
100
AcDbEntity
  8
2
370
    50
100
AcDbCircle
 10
164.598505
 20
-36.353037
 30
0.0
 40
0.2
100
AcDbArc
 50
180.0
 51
279.5
  0
ARC
  5
1EE
100
AcDbEntity
  8
2
370
    50
100
AcDbCircle
 10
164.598505
 20
-33.716884
 30
0.0
 40
0.2
100
AcDbArc
 50
99.5
 51
180.0
  0
LINE
  5
1EF
100
AcDbEntity
  8
2
370
    50
100
AcDbLine
 10
165.198505
 20
-33.413318
 30
0.0
 11
165.198505
 21
-32.399413
 31
0.0
  0
LINE
  5
1F0
100
AcDbEntity
  8
2
370
    50
100
AcDbLine
 10
178.16549
 20
-35.299389
 30
0.0
 11
164.565493
 21
-37.575646
 31
0.0
  0
LINE
  5
1F1
100
AcDbEntity
  8
2
370
    50
100
AcDbLine
 10
164.631515
 20
-36.550295
 30
0.0
 11
178.231515
 21
-34.274435
 31
0.0
  0
LINE
  5
1F2
100
AcDbEntity
  8
2
370
    50
100
AcDbLine
 10
164.565493
 20
-33.519646
 30
0.0
 11
178.16549
 21
-31.243389
 31
0.0
  0
ARC
  5
1F3
100
AcDbEntity
  8
2
370
    50
100
AcDbCircle
 10
164.598505
 20
-32.297037
 30
0.0
 40
0.2
100
AcDbArc
 50
180.0
 51
279.5
  0
LINE
  5
1F4
100
AcDbEntity
  8
2
370
    50
100
AcDbLine
 10
164.631515
 20
-32.494295
 30
0.0
 11
178.231515
 21
-30.218435
 31
0.0
  0
LINE
  5
1F5
100
AcDbEntity
  8
2
370
    50
100
AcDbLine
 10
164.398505
 20
-76.913037
 30
0.0
 11
164.398505
 21
-84.634125
 31
0.0
  0
LINE
  5
1F6
100
AcDbEntity
  8
2
370
    50
100
AcDbLine
 10
164.398505
 20
-32.353037
 30
0.0
 11
164.398505
 21
-29.718602
 31
0.0
  0
LINE
  5
1F7
100
AcDbEntity
  8
2
370
    50
100
AcDbLine
 10
178.398505
 20
-70.581178
 30
0.0
 11
178.398505
 21
-67.944645
 31
0.0
  0
LINE
  5
1F8
100
AcDbEntity
  8
2
370
    50
100
AcDbLine
 10
178.398505
 20
-66.525178
 30
0.0
 11
178.398505
 21
-63.888645
 31
0.0
  0
LINE
  5
1F9
100
AcDbEntity
  8
2
370
    50
100
AcDbLine
 10
178.398505
 20
-62.469178
 30
0.0
 11
178.398505
 21
-59.832645
 31
0.0
  0
LINE
  5
1FA
100
AcDbEntity
  8
2
370
    50
100
AcDbLine
 10
178.398505
 20
-58.413178
 30
0.0
 11
178.398505
 21
-55.776645
 31
0.0
  0
LINE
  5
1FB
100
AcDbEntity
  8
2
370
    50
100
AcDbLine
 10
178.398505
 20
-54.357178
 30
0.0
 11
178.398505
 21
-51.720645
 31
0.0
  0
LINE
  5
1FC
100
AcDbEntity
  8
2
370
    50
100
AcDbLine
 10
178.398505
 20
-50.301178
 30
0.0
 11
178.398505
 21
-47.664645
 31
0.0
  0
LINE
  5
1FD
100
AcDbEntity
  8
2
370
    50
100
AcDbLine
 10
178.398505
 20
-46.245178
 30
0.0
 11
178.398505
 21
-43.608645
 31
0.0
  0
LINE
  5
1FE
100
AcDbEntity
  8
2
370
    50
100
AcDbLine
 10
178.398505
 20
-42.189178
 30
0.0
 11
178.398505
 21
-39.552645
 31
0.0
  0
LINE
  5
1FF
100
AcDbEntity
  8
2
370
    50
100
AcDbLine
 10
178.398505
 20
-38.133178
 30
0.0
 11
178.398505
 21
-35.496645
 31
0.0
  0
LINE
  5
200
100
AcDbEntity
  8
2
370
    50
100
AcDbLine
 10
178.398505
 20
-34.077178
 30
0.0
 11
178.398505
 21
-31.440645
 31
0.0
  0
LINE
  5
201
100
AcDbEntity
  8
2
370
    50
100
AcDbLine
 10
178.398505
 20
-30.021178
 30
0.0
 11
178.398505
 21
-29.718602
 31
0.0
  0
LINE
  5
202
100
AcDbEntity
  8
2
370
    50
100
AcDbLine
 10
177.598505
 20
-31.338286
 30
0.0
 11
177.598505
 21
-30.324365
 31
0.0
  0
LINE
  5
203
100
AcDbEntity
  8
2
370
    50
100
AcDbLine
 10
177.598505
 20
-35.394286
 30
0.0
 11
177.598505
 21
-34.380365
 31
0.0
  0
LINE
  5
204
100
AcDbEntity
  8
2
370
    50
100
AcDbLine
 10
177.598505
 20
-39.450286
 30
0.0
 11
177.598505
 21
-38.436365
 31
0.0
  0
LINE
  5
205
100
AcDbEntity
  8
2
370
    50
100
AcDbLine
 10
177.598505
 20
-43.506286
 30
0.0
 11
177.598505
 21
-42.492365
 31
0.0
  0
LINE
  5
206
100
AcDbEntity
  8
2
370
    50
100
AcDbLine
 10
177.598505
 20
-47.562286
 30
0.0
 11
177.598505
 21
-46.548365
 31
0.0
  0
LINE
  5
207
100
AcDbEntity
  8
2
370
    50
100
AcDbLine
 10
177.598505
 20
-51.618286
 30
0.0
 11
177.598505
 21
-50.604365
 31
0.0
  0
LINE
  5
208
100
AcDbEntity
  8
2
370
    50
100
AcDbLine
 10
177.598505
 20
-55.674286
 30
0.0
 11
177.598505
 21
-54.660365
 31
0.0
  0
LINE
  5
209
100
AcDbEntity
  8
2
370
    50
100
AcDbLine
 10
177.598505
 20
-59.730286
 30
0.0
 11
177.598505
 21
-58.716365
 31
0.0
  0
LINE
  5
20A
100
AcDbEntity
  8
2
370
    50
100
AcDbLine
 10
177.598505
 20
-63.786286
 30
0.0
 11
177.598505
 21
-62.772365
 31
0.0
  0
LINE
  5
20B
100
AcDbEntity
  8
2
370
    50
100
AcDbLine
 10
177.598505
 20
-71.898286
 30
0.0
 11
177.598505
 21
-70.884365
 31
0.0
  0
LINE
  5
20C
100
AcDbEntity
  8
2
370
    50
100
AcDbLine
 10
177.598505
 20
-67.842286
 30
0.0
 11
177.598505
 21
-66.828365
 31
0.0
  0
ARC
  5
20D
100
AcDbEntity
  8
2
370
    50
100
AcDbCircle
 10
178.198505
 20
-30.021178
 30
0.0
 40
0.2
100
AcDbArc
 50
279.5
 51
360.0
  0
ARC
  5
20E
100
AcDbEntity
  8
2
370
    50
100
AcDbCircle
 10
178.198505
 20
-31.440645
 30
0.0
 40
0.2
100
AcDbArc
 50
0.0
 51
99.501632
  0
ARC
  5
20F
100
AcDbEntity
  8
2
370
    50
100
AcDbCircle
 10
178.198505
 20
-34.077178
 30
0.0
 40
0.2
100
AcDbArc
 50
279.5
 51
360.0
  0
ARC
  5
210
100
AcDbEntity
  8
2
370
    50
100
AcDbCircle
 10
178.198505
 20
-35.496645
 30
0.0
 40
0.2
100
AcDbArc
 50
360.0
 51
99.501632
  0
ARC
  5
211
100
AcDbEntity
  8
2
370
    50
100
AcDbCircle
 10
178.198505
 20
-38.133178
 30
0.0
 40
0.2
100
AcDbArc
 50
279.5
 51
0.0
  0
ARC
  5
212
100
AcDbEntity
  8
2
370
    50
100
AcDbCircle
 10
178.198505
 20
-39.552645
 30
0.0
 40
0.2
100
AcDbArc
 50
0.0
 51
99.501632
  0
ARC
  5
213
100
AcDbEntity
  8
2
370
    50
100
AcDbCircle
 10
178.198505
 20
-42.189178
 30
0.0
 40
0.2
100
AcDbArc
 50
279.5
 51
360.0
  0
ARC
  5
214
100
AcDbEntity
  8
2
370
    50
100
AcDbCircle
 10
178.198505
 20
-43.608645
 30
0.0
 40
0.2
100
AcDbArc
 50
0.0
 51
99.501632
  0
ARC
  5
215
100
AcDbEntity
  8
2
370
    50
100
AcDbCircle
 10
178.198505
 20
-46.245178
 30
0.0
 40
0.2
100
AcDbArc
 50
279.5
 51
360.0
  0
ARC
  5
216
100
AcDbEntity
  8
2
370
    50
100
AcDbCircle
 10
178.198505
 20
-47.664645
 30
0.0
 40
0.2
100
AcDbArc
 50
360.0
 51
99.501632
  0
ARC
  5
217
100
AcDbEntity
  8
2
370
    50
100
AcDbCircle
 10
178.198505
 20
-50.301178
 30
0.0
 40
0.2
100
AcDbArc
 50
279.5
 51
360.0
  0
ARC
  5
218
100
AcDbEntity
  8
2
370
    50
100
AcDbCircle
 10
178.198505
 20
-51.720645
 30
0.0
 40
0.2
100
AcDbArc
 50
360.0
 51
99.501632
  0
ARC
  5
219
100
AcDbEntity
  8
2
370
    50
100
AcDbCircle
 10
178.198505
 20
-54.357178
 30
0.0
 40
0.2
100
AcDbArc
 50
279.5
 51
0.0
  0
ARC
  5
21A
100
AcDbEntity
  8
2
370
    50
100
AcDbCircle
 10
178.198505
 20
-55.776645
 30
0.0
 40
0.2
100
AcDbArc
 50
0.0
 51
99.501632
  0
ARC
  5
21B
100
AcDbEntity
  8
2
370
    50
100
AcDbCircle
 10
178.198505
 20
-58.413178
 30
0.0
 40
0.2
100
AcDbArc
 50
279.5
 51
360.0
  0
ARC
  5
21C
100
AcDbEntity
  8
2
370
    50
100
AcDbCircle
 10
178.198505
 20
-59.832645
 30
0.0
 40
0.2
100
AcDbArc
 50
0.0
 51
99.501632
  0
ARC
  5
21D
100
AcDbEntity
  8
2
370
    50
100
AcDbCircle
 10
178.198505
 20
-62.469178
 30
0.0
 40
0.2
100
AcDbArc
 50
279.5
 51
360.0
  0
ARC
  5
21E
100
AcDbEntity
  8
2
370
    50
100
AcDbCircle
 10
178.198505
 20
-63.888645
 30
0.0
 40
0.2
100
AcDbArc
 50
0.0
 51
99.501632
  0
ARC
  5
21F
100
AcDbEntity
  8
2
370
    50
100
AcDbCircle
 10
178.198505
 20
-66.525178
 30
0.0
 40
0.2
100
AcDbArc
 50
279.5
 51
360.0
  0
ARC
  5
220
100
AcDbEntity
  8
2
370
    50
100
AcDbCircle
 10
178.198505
 20
-67.944645
 30
0.0
 40
0.2
100
AcDbArc
 50
0.0
 51
99.501632
  0
ARC
  5
221
100
AcDbEntity
  8
2
370
    50
100
AcDbCircle
 10
178.198505
 20
-70.581178
 30
0.0
 40
0.2
100
AcDbArc
 50
279.5
 51
360.0
  0
ARC
  5
222
100
AcDbEntity
  8
2
370
    50
100
AcDbCircle
 10
178.198505
 20
-72.000645
 30
0.0
 40
0.2
100
AcDbArc
 50
0.0
 51
99.501632
  0
LINE
  5
223
100
AcDbEntity
  8
2
370
    50
100
AcDbLine
 10
178.398505
 20
-84.743309
 30
0.0
 11
178.398505
 21
-75.474998
 31
0.0
  0
LINE
  5
224
100
AcDbEntity
  8
2
370
    50
100
AcDbLine
 10
178.398505
 20
-75.474998
 30
0.0
 11
178.398505
 21
-72.000645
 31
0.0
  0
LINE
  5
225
100
AcDbEntity
  8
2
370
    50
100
AcDbLine
 10
256.776829
 20
-62.913578
 30
0.0
 11
256.776829
 21
-64.713578
 31
0.0
  0
LINE
  5
226
100
AcDbEntity
  8
2
370
    50
100
AcDbLine
 10
247.776259
 20
-64.913578
 30
0.0
 11
256.576829
 21
-64.913578
 31
0.0
  0
LINE
  5
227
100
AcDbEntity
  8
2
370
    50
100
AcDbLine
 10
247.776259
 20
-68.913578
 30
0.0
 11
257.176259
 21
-68.913578
 31
0.0
  0
LINE
  5
228
100
AcDbEntity
  8
2
370
    50
100
AcDbLine
 10
256.576829
 20
-62.713578
 30
0.0
 11
256.776829
 21
-62.913578
 31
0.0
  0
LINE
  5
229
100
AcDbEntity
  8
2
370
    50
100
AcDbLine
 10
247.776259
 20
-62.713578
 30
0.0
 11
256.576829
 21
-62.713578
 31
0.0
  0
LINE
  5
22A
100
AcDbEntity
  8
2
370
    50
100
AcDbLine
 10
257.676259
 20
-69.413578
 30
0.0
 11
257.676259
 21
-107.213578
 31
0.0
  0
LINE
  5
22B
100
AcDbEntity
  8
2
370
    50
100
AcDbLine
 10
257.176259
 20
-107.713578
 30
0.0
 11
247.776259
 21
-107.713578
 31
0.0
  0
LINE
  5
22C
100
AcDbEntity
  8
2
370
    50
100
AcDbLine
 10
257.176259
 20
-107.713578
 30
0.0
 11
257.676259
 21
-107.213578
 31
0.0
  0
LINE
  5
22D
100
AcDbEntity
  8
2
370
    25
100
AcDbLine
 10
256.776829
 20
-62.913578
 30
0.0
 11
247.776259
 21
-62.913578
 31
0.0
  0
LINE
  5
22E
100
AcDbEntity
  8
2
370
    50
100
AcDbLine
 10
256.776829
 20
-64.713578
 30
0.0
 11
256.576829
 21
-64.913578
 31
0.0
  0
LINE
  5
22F
100
AcDbEntity
  8
2
370
    25
100
AcDbLine
 10
256.776829
 20
-64.713578
 30
0.0
 11
247.776259
 21
-64.713578
 31
0.0
  0
LINE
  5
230
100
AcDbEntity
  8
2
370
    50
100
AcDbLine
 10
257.176259
 20
-68.913578
 30
0.0
 11
257.676259
 21
-69.413578
 31
0.0
  0
LINE
  5
231
100
AcDbEntity
  8
2
370
    25
100
AcDbLine
 10
257.676259
 20
-69.413578
 30
0.0
 11
251.900578
 21
-69.413578
 31
0.0
  0
LINE
  5
232
100
AcDbEntity
  8
2
370
    25
100
AcDbLine
 10
257.676259
 20
-107.213578
 30
0.0
 11
247.776259
 21
-107.213578
 31
0.0
  0
LINE
  5
233
100
AcDbEntity
  8
2
370
    50
100
AcDbLine
 10
247.776259
 20
-78.913578
 30
0.0
 11
251.900578
 21
-78.913578
 31
0.0
  0
LINE
  5
234
100
AcDbEntity
  8
2
370
    50
100
AcDbLine
 10
251.900578
 20
-68.913578
 30
0.0
 11
251.900578
 21
-78.913578
 31
0.0
  0
LINE
  5
235
100
AcDbEntity
  8
2
370
    50
100
AcDbLine
 10
238.77569
 20
-62.913578
 30
0.0
 11
238.77569
 21
-64.713578
 31
0.0
  0
LINE
  5
236
100
AcDbEntity
  8
2
370
    50
100
AcDbLine
 10
247.776259
 20
-64.913578
 30
0.0
 11
238.97569
 21
-64.913578
 31
0.0
  0
LINE
  5
237
100
AcDbEntity
  8
2
370
    50
100
AcDbLine
 10
247.776259
 20
-68.913578
 30
0.0
 11
238.376259
 21
-68.913578
 31
0.0
  0
LINE
  5
238
100
AcDbEntity
  8
2
370
    50
100
AcDbLine
 10
238.97569
 20
-62.713578
 30
0.0
 11
238.77569
 21
-62.913578
 31
0.0
  0
LINE
  5
239
100
AcDbEntity
  8
2
370
    50
100
AcDbLine
 10
247.776259
 20
-62.713578
 30
0.0
 11
238.97569
 21
-62.713578
 31
0.0
  0
LINE
  5
23A
100
AcDbEntity
  8
2
370
    50
100
AcDbLine
 10
237.876259
 20
-69.413578
 30
0.0
 11
237.876259
 21
-107.213578
 31
0.0
  0
LINE
  5
23B
100
AcDbEntity
  8
2
370
    50
100
AcDbLine
 10
238.376259
 20
-107.713578
 30
0.0
 11
247.776259
 21
-107.713578
 31
0.0
  0
LINE
  5
23C
100
AcDbEntity
  8
2
370
    50
100
AcDbLine
 10
238.376259
 20
-107.713578
 30
0.0
 11
237.876259
 21
-107.213578
 31
0.0
  0
LINE
  5
23D
100
AcDbEntity
  8
2
370
    25
100
AcDbLine
 10
238.77569
 20
-62.913578
 30
0.0
 11
247.776259
 21
-62.913578
 31
0.0
  0
LINE
  5
23E
100
AcDbEntity
  8
2
370
    50
100
AcDbLine
 10
238.77569
 20
-64.713578
 30
0.0
 11
238.97569
 21
-64.913578
 31
0.0
  0
LINE
  5
23F
100
AcDbEntity
  8
2
370
    25
100
AcDbLine
 10
238.77569
 20
-64.713578
 30
0.0
 11
247.776259
 21
-64.713578
 31
0.0
  0
LINE
  5
240
100
AcDbEntity
  8
2
370
    50
100
AcDbLine
 10
238.376259
 20
-68.913578
 30
0.0
 11
237.876259
 21
-69.413578
 31
0.0
  0
LINE
  5
241
100
AcDbEntity
  8
2
370
    25
100
AcDbLine
 10
237.876259
 20
-69.413578
 30
0.0
 11
243.651941
 21
-69.413578
 31
0.0
  0
LINE
  5
242
100
AcDbEntity
  8
2
370
    25
100
AcDbLine
 10
237.876259
 20
-107.213578
 30
0.0
 11
247.776259
 21
-107.213578
 31
0.0
  0
LINE
  5
243
100
AcDbEntity
  8
2
370
    50
100
AcDbLine
 10
247.776259
 20
-78.913578
 30
0.0
 11
243.651941
 21
-78.913578
 31
0.0
  0
LINE
  5
244
100
AcDbEntity
  8
2
370
    50
100
AcDbLine
 10
243.651941
 20
-68.913578
 30
0.0
 11
243.651941
 21
-78.913578
 31
0.0
  0
LINE
  5
245
100
AcDbEntity
  8
2
370
    50
100
AcDbLine
 10
239.176259
 20
-62.513578
 30
0.0
 11
239.176259
 21
-60.113578
 31
0.0
  0
LINE
  5
246
100
AcDbEntity
  8
2
370
    50
100
AcDbLine
 10
254.776259
 20
-54.713578
 30
0.0
 11
240.776259
 21
-54.713578
 31
0.0
  0
LINE
  5
247
100
AcDbEntity
  8
2
370
    50
100
AcDbLine
 10
240.776259
 20
-54.713578
 30
0.0
 11
240.276259
 21
-55.213578
 31
0.0
  0
LINE
  5
248
100
AcDbEntity
  8
2
370
    50
100
AcDbLine
 10
255.276259
 20
-55.213578
 30
0.0
 11
254.776259
 21
-54.713578
 31
0.0
  0
LINE
  5
249
100
AcDbEntity
  8
2
370
    50
100
AcDbLine
 10
240.276259
 20
-59.913578
 30
0.0
 11
239.376259
 21
-59.913578
 31
0.0
  0
LINE
  5
24A
100
AcDbEntity
  8
2
370
    50
100
AcDbLine
 10
256.375792
 20
-62.513578
 30
0.0
 11
256.375792
 21
-60.113578
 31
0.0
  0
LINE
  5
24B
100
AcDbEntity
  8
2
370
    50
100
AcDbLine
 10
247.776259
 20
-59.913578
 30
0.0
 11
256.175792
 21
-59.913578
 31
0.0
  0
LINE
  5
24C
100
AcDbEntity
  8
2
370
    50
100
AcDbLine
 10
239.376259
 20
-62.713578
 30
0.0
 11
242.776259
 21
-62.713578
 31
0.0
  0
LINE
  5
24D
100
AcDbEntity
  8
2
370
    50
100
AcDbLine
 10
247.776259
 20
-62.713578
 30
0.0
 11
256.175792
 21
-62.713578
 31
0.0
  0
LINE
  5
24E
100
AcDbEntity
  8
2
370
    50
100
AcDbLine
 10
256.175792
 20
-59.913578
 30
0.0
 11
256.375792
 21
-60.113578
 31
0.0
  0
LINE
  5
24F
100
AcDbEntity
  8
2
370
    50
100
AcDbLine
 10
256.375792
 20
-62.513578
 30
0.0
 11
256.175792
 21
-62.713578
 31
0.0
  0
LINE
  5
250
100
AcDbEntity
  8
2
370
    50
100
AcDbLine
 10
239.176259
 20
-60.113578
 30
0.0
 11
239.376259
 21
-59.913578
 31
0.0
  0
LINE
  5
251
100
AcDbEntity
  8
2
370
    50
100
AcDbLine
 10
239.176259
 20
-62.513578
 30
0.0
 11
239.376259
 21
-62.713578
 31
0.0
  0
LINE
  5
252
100
AcDbEntity
  8
2
370
    25
100
AcDbLine
 10
255.276259
 20
-55.213578
 30
0.0
 11
247.776259
 21
-55.213578
 31
0.0
  0
LINE
  5
253
100
AcDbEntity
  8
2
370
    25
100
AcDbLine
 10
256.375792
 20
-60.113578
 30
0.0
 11
247.776259
 21
-60.113578
 31
0.0
  0
LINE
  5
254
100
AcDbEntity
  8
2
370
    25
100
AcDbLine
 10
256.375792
 20
-62.513578
 30
0.0
 11
247.776259
 21
-62.513578
 31
0.0
  0
LINE
  5
255
100
AcDbEntity
  8
2
370
    25
100
AcDbLine
 10
240.276259
 20
-55.213578
 30
0.0
 11
247.776259
 21
-55.213578
 31
0.0
  0
LINE
  5
256
100
AcDbEntity
  8
2
370
    50
100
AcDbLine
 10
247.776259
 20
-59.913578
 30
0.0
 11
239.376727
 21
-59.913578
 31
0.0
  0
LINE
  5
257
100
AcDbEntity
  8
2
370
    25
100
AcDbLine
 10
239.176727
 20
-60.113578
 30
0.0
 11
247.776259
 21
-60.113578
 31
0.0
  0
LINE
  5
258
100
AcDbEntity
  8
2
370
    25
100
AcDbLine
 10
239.176727
 20
-62.513578
 30
0.0
 11
247.776259
 21
-62.513578
 31
0.0
  0
LINE
  5
259
100
AcDbEntity
  8
2
370
    50
100
AcDbLine
 10
247.776259
 20
-62.713578
 30
0.0
 11
239.376727
 21
-62.713578
 31
0.0
  0
POINT
  5
25A
100
AcDbEntity
  8
2
370
    50
100
AcDbPoint
 10
247.776259
 20
-80.213578
 30
0.0
  0
LINE
  5
25B
100
AcDbEntity
  8
2
370
    25
100
AcDbLine
 10
247.776259
 20
-107.713578
 30
0.0
 11
247.776259
 21
-112.663818
 31
0.0
  0
LINE
  5
25C
100
AcDbEntity
  8
2
370
    50
100
AcDbLine
 10
239.776259
 20
-112.663818
 30
0.0
 11
239.776259
 21
-107.713578
 31
0.0
  0
LINE
  5
25D
100
AcDbEntity
  8
2
370
    25
100
AcDbLine
 10
248.776259
 20
-107.713578
 30
0.0
 11
248.776259
 21
-112.663818
 31
0.0
  0
LINE
  5
25E
100
AcDbEntity
  8
2
370
    25
100
AcDbLine
 10
249.776259
 20
-107.713578
 30
0.0
 11
249.776259
 21
-112.663818
 31
0.0
  0
LINE
  5
25F
100
AcDbEntity
  8
2
370
    25
100
AcDbLine
 10
250.776259
 20
-107.713578
 30
0.0
 11
250.776259
 21
-112.663818
 31
0.0
  0
LINE
  5
260
100
AcDbEntity
  8
2
370
    25
100
AcDbLine
 10
251.776259
 20
-107.713578
 30
0.0
 11
251.776259
 21
-112.663818
 31
0.0
  0
LINE
  5
261
100
AcDbEntity
  8
2
370
    25
100
AcDbLine
 10
252.526259
 20
-107.713578
 30
0.0
 11
252.526259
 21
-112.663818
 31
0.0
  0
LINE
  5
262
100
AcDbEntity
  8
2
370
    25
100
AcDbLine
 10
253.276259
 20
-107.713578
 30
0.0
 11
253.276259
 21
-112.663818
 31
0.0
  0
LINE
  5
263
100
AcDbEntity
  8
2
370
    25
100
AcDbLine
 10
254.026259
 20
-107.713578
 30
0.0
 11
254.026259
 21
-112.663818
 31
0.0
  0
LINE
  5
264
100
AcDbEntity
  8
2
370
    25
100
AcDbLine
 10
254.526259
 20
-107.713578
 30
0.0
 11
254.526259
 21
-112.663818
 31
0.0
  0
LINE
  5
265
100
AcDbEntity
  8
2
370
    25
100
AcDbLine
 10
255.026259
 20
-107.713578
 30
0.0
 11
255.026259
 21
-112.663818
 31
0.0
  0
LINE
  5
266
100
AcDbEntity
  8
2
370
    25
100
AcDbLine
 10
255.526259
 20
-107.713578
 30
0.0
 11
255.526259
 21
-112.663818
 31
0.0
  0
LINE
  5
267
100
AcDbEntity
  8
2
370
    50
100
AcDbLine
 10
255.776259
 20
-107.713578
 30
0.0
 11
255.776259
 21
-112.663818
 31
0.0
  0
LINE
  5
268
100
AcDbEntity
  8
2
370
    50
100
AcDbLine
 10
255.476259
 20
-112.963818
 30
0.0
 11
247.776259
 21
-112.963818
 31
0.0
  0
LINE
  5
269
100
AcDbEntity
  8
2
370
    50
100
AcDbLine
 10
239.776259
 20
-112.663818
 30
0.0
 11
240.076259
 21
-112.963818
 31
0.0
  0
LINE
  5
26A
100
AcDbEntity
  8
2
370
    50
100
AcDbLine
 10
255.476259
 20
-112.963818
 30
0.0
 11
255.776259
 21
-112.663818
 31
0.0
  0
LINE
  5
26B
100
AcDbEntity
  8
2
370
    25
100
AcDbLine
 10
255.776259
 20
-112.663818
 30
0.0
 11
239.776259
 21
-112.663818
 31
0.0
  0
LINE
  5
26C
100
AcDbEntity
  8
2
370
    50
100
AcDbLine
 10
239.776259
 20
-120.763818
 30
0.0
 11
239.776259
 21
-113.163818
 31
0.0
  0
LINE
  5
26D
100
AcDbEntity
  8
2
370
    50
100
AcDbLine
 10
255.776259
 20
-120.763818
 30
0.0
 11
255.776259
 21
-113.163818
 31
0.0
  0
LINE
  5
26E
100
AcDbEntity
  8
2
370
    50
100
AcDbLine
 10
239.776259
 20
-113.163818
 30
0.0
 11
239.976259
 21
-112.963818
 31
0.0
  0
LINE
  5
26F
100
AcDbEntity
  8
2
370
    50
100
AcDbLine
 10
239.776259
 20
-120.763818
 30
0.0
 11
239.976259
 21
-120.963818
 31
0.0
  0
LINE
  5
270
100
AcDbEntity
  8
2
370
    50
100
AcDbLine
 10
255.576259
 20
-120.963818
 30
0.0
 11
255.776259
 21
-120.763818
 31
0.0
  0
LINE
  5
271
100
AcDbEntity
  8
2
370
    50
100
AcDbLine
 10
255.776259
 20
-113.163818
 30
0.0
 11
255.576259
 21
-112.963818
 31
0.0
  0
LINE
  5
272
100
AcDbEntity
  8
2
370
    50
100
AcDbLine
 10
255.576259
 20
-120.963818
 30
0.0
 11
239.976259
 21
-120.963818
 31
0.0
  0
LINE
  5
273
100
AcDbEntity
  8
2
370
    50
100
AcDbLine
 10
255.576259
 20
-112.963818
 30
0.0
 11
239.976259
 21
-112.963818
 31
0.0
  0
LINE
  5
274
100
AcDbEntity
  8
2
370
    50
100
AcDbLine
 10
255.776259
 20
-113.163818
 30
0.0
 11
239.776259
 21
-113.163818
 31
0.0
  0
LINE
  5
275
100
AcDbEntity
  8
2
370
    50
100
AcDbLine
 10
255.776259
 20
-120.763818
 30
0.0
 11
239.776259
 21
-120.763818
 31
0.0
  0
LINE
  5
276
100
AcDbEntity
  8
2
370
    25
100
AcDbLine
 10
246.776259
 20
-107.713578
 30
0.0
 11
246.776259
 21
-112.663818
 31
0.0
  0
LINE
  5
277
100
AcDbEntity
  8
2
370
    25
100
AcDbLine
 10
245.776259
 20
-107.713578
 30
0.0
 11
245.776259
 21
-112.663818
 31
0.0
  0
LINE
  5
278
100
AcDbEntity
  8
2
370
    25
100
AcDbLine
 10
244.776259
 20
-107.713578
 30
0.0
 11
244.776259
 21
-112.663818
 31
0.0
  0
LINE
  5
279
100
AcDbEntity
  8
2
370
    25
100
AcDbLine
 10
243.776259
 20
-107.713578
 30
0.0
 11
243.776259
 21
-112.663818
 31
0.0
  0
LINE
  5
27A
100
AcDbEntity
  8
2
370
    25
100
AcDbLine
 10
243.026259
 20
-107.713578
 30
0.0
 11
243.026259
 21
-112.663818
 31
0.0
  0
LINE
  5
27B
100
AcDbEntity
  8
2
370
    25
100
AcDbLine
 10
242.276259
 20
-107.713578
 30
0.0
 11
242.276259
 21
-112.663818
 31
0.0
  0
LINE
  5
27C
100
AcDbEntity
  8
2
370
    25
100
AcDbLine
 10
241.526259
 20
-107.713578
 30
0.0
 11
241.526259
 21
-112.663818
 31
0.0
  0
LINE
  5
27D
100
AcDbEntity
  8
2
370
    25
100
AcDbLine
 10
241.026259
 20
-107.713578
 30
0.0
 11
241.026259
 21
-112.663818
 31
0.0
  0
LINE
  5
27E
100
AcDbEntity
  8
2
370
    25
100
AcDbLine
 10
240.526259
 20
-107.713578
 30
0.0
 11
240.526259
 21
-112.663818
 31
0.0
  0
LINE
  5
27F
100
AcDbEntity
  8
2
370
    25
100
AcDbLine
 10
240.026259
 20
-107.713578
 30
0.0
 11
240.026259
 21
-112.663818
 31
0.0
  0
LINE
  5
280
100
AcDbEntity
  8
2
370
    50
100
AcDbLine
 10
233.277145
 20
-68.013578
 30
0.0
 11
233.277145
 21
-57.013578
 31
0.0
  0
LINE
  5
281
100
AcDbEntity
  8
2
370
    50
100
AcDbLine
 10
236.777145
 20
-60.513578
 30
0.0
 11
236.777145
 21
-64.513578
 31
0.0
  0
LINE
  5
282
100
AcDbEntity
  8
2
370
    50
100
AcDbLine
 10
263.277145
 20
-67.513578
 30
0.0
 11
263.277145
 21
-55.513578
 31
0.0
  0
ARC
  5
283
100
AcDbEntity
  8
2
370
    50
100
AcDbCircle
 10
237.777145
 20
-60.513578
 30
0.0
 40
1.0
100
AcDbArc
 50
90.0
 51
180.0
  0
ARC
  5
284
100
AcDbEntity
  8
2
370
    50
100
AcDbCircle
 10
237.777145
 20
-64.513578
 30
0.0
 40
1.0
100
AcDbArc
 50
180.0
 51
270.0
  0
ARC
  5
285
100
AcDbEntity
  8
2
370
    50
100
AcDbCircle
 10
262.277145
 20
-67.513578
 30
0.0
 40
1.0
100
AcDbArc
 50
270.0
 51
360.0
  0
ARC
  5
286
100
AcDbEntity
  8
2
370
    50
100
AcDbCircle
 10
233.777145
 20
-57.013578
 30
0.0
 40
0.5
100
AcDbArc
 50
90.0
 51
180.0
  0
ARC
  5
287
100
AcDbEntity
  8
2
370
    50
100
AcDbCircle
 10
233.777145
 20
-68.013578
 30
0.0
 40
0.5
100
AcDbArc
 50
180.0
 51
270.0
  0
LINE
  5
288
100
AcDbEntity
  8
2
370
    50
100
AcDbLine
 10
257.277145
 20
-56.513578
 30
0.0
 11
233.777145
 21
-56.513578
 31
0.0
  0
LINE
  5
289
100
AcDbEntity
  8
2
370
    50
100
AcDbLine
 10
262.277145
 20
-68.513578
 30
0.0
 11
233.777145
 21
-68.513578
 31
0.0
  0
LINE
  5
28A
100
AcDbEntity
  8
2
370
    50
100
AcDbLine
 10
257.277145
 20
-59.513578
 30
0.0
 11
237.777145
 21
-59.513578
 31
0.0
  0
LINE
  5
28B
100
AcDbEntity
  8
2
370
    50
100
AcDbLine
 10
257.277145
 20
-65.513578
 30
0.0
 11
237.777145
 21
-65.513578
 31
0.0
  0
LINE
  5
28C
100
AcDbEntity
  8
2
370
    50
100
AcDbLine
 10
255.276259
 20
-59.913578
 30
0.0
 11
255.276259
 21
-59.513578
 31
0.0
  0
LINE
  5
28D
100
AcDbEntity
  8
2
370
    50
100
AcDbLine
 10
255.276259
 20
-56.513578
 30
0.0
 11
255.276259
 21
-55.213578
 31
0.0
  0
LINE
  5
28E
100
AcDbEntity
  8
2
370
    50
100
AcDbLine
 10
240.276259
 20
-59.913578
 30
0.0
 11
240.276259
 21
-59.513578
 31
0.0
  0
LINE
  5
28F
100
AcDbEntity
  8
2
370
    50
100
AcDbLine
 10
240.276259
 20
-56.513578
 30
0.0
 11
240.276259
 21
-55.213578
 31
0.0
  0
LINE
  5
290
100
AcDbEntity
  8
2
370
    50
100
AcDbLine
 10
240.27569
 20
-68.913578
 30
0.0
 11
240.27569
 21
-68.513578
 31
0.0
  0
LINE
  5
291
100
AcDbEntity
  8
2
370
    50
100
AcDbLine
 10
240.27569
 20
-65.513578
 30
0.0
 11
240.27569
 21
-64.913578
 31
0.0
  0
LINE
  5
292
100
AcDbEntity
  8
2
370
    50
100
AcDbLine
 10
255.276829
 20
-68.913578
 30
0.0
 11
255.276829
 21
-68.513578
 31
0.0
  0
LINE
  5
293
100
AcDbEntity
  8
2
370
    50
100
AcDbLine
 10
255.276829
 20
-65.513578
 30
0.0
 11
255.276829
 21
-64.913578
 31
0.0
  0
LINE
  5
294
100
AcDbEntity
  8
2
370
    50
100
AcDbLine
 10
256.276025
 20
-68.513578
 30
0.0
 11
256.276025
 21
-65.513578
 31
0.0
  0
LINE
  5
295
100
AcDbEntity
  8
2
370
    50
100
AcDbLine
 10
256.276025
 20
-59.513578
 30
0.0
 11
256.276025
 21
-56.513578
 31
0.0
  0
LINE
  5
296
100
AcDbEntity
  8
2
370
    50
100
AcDbLine
 10
239.276025
 20
-68.513578
 30
0.0
 11
239.276025
 21
-65.513578
 31
0.0
  0
LINE
  5
297
100
AcDbEntity
  8
2
370
    50
100
AcDbLine
 10
239.276025
 20
-59.513578
 30
0.0
 11
239.276025
 21
-56.513578
 31
0.0
  0
LINE
  5
298
100
AcDbEntity
  8
2
370
    50
100
AcDbLine
 10
262.277145
 20
-54.513578
 30
0.0
 11
258.277145
 21
-54.513578
 31
0.0
  0
LINE
  5
299
100
AcDbEntity
  8
2
370
    50
100
AcDbLine
 10
257.277145
 20
-67.513578
 30
0.0
 11
257.277145
 21
-55.513578
 31
0.0
  0
ARC
  5
29A
100
AcDbEntity
  8
2
370
    50
100
AcDbCircle
 10
258.277145
 20
-55.513578
 30
0.0
 40
1.0
100
AcDbArc
 50
90.0
 51
180.0
  0
ARC
  5
29B
100
AcDbEntity
  8
2
370
    50
100
AcDbCircle
 10
262.277145
 20
-55.513578
 30
0.0
 40
1.0
100
AcDbArc
 50
0.0
 51
90.0
  0
ARC
  5
29C
100
AcDbEntity
  8
2
370
    50
100
AcDbCircle
 10
258.277145
 20
-67.513578
 30
0.0
 40
1.0
100
AcDbArc
 50
180.0
 51
270.0
  0
POINT
  5
29D
100
AcDbEntity
  8
2
370
    50
100
AcDbPoint
 10
247.776259
 20
-54.713578
 30
0.0
  0
POINT
  5
29E
100
AcDbEntity
  8
2
370
    50
100
AcDbPoint
 10
247.776259
 20
-54.713578
 30
0.0
  0
LINE
  5
29F
100
AcDbEntity
  8
2
370
    50
100
AcDbLine
 10
-115.586101
 20
9.781506
 30
0.0
 11
-162.586101
 21
9.781506
 31
0.0
  0
LINE
  5
2A0
100
AcDbEntity
  8
2
370
    50
100
AcDbLine
 10
-115.586101
 20
12.781506
 30
0.0
 11
-115.586101
 21
9.781506
 31
0.0
  0
LINE
  5
2A1
100
AcDbEntity
  8
2
370
    50
100
AcDbLine
 10
-162.586101
 20
12.781506
 30
0.0
 11
-162.586101
 21
9.781506
 31
0.0
  0
HATCH
  5
2A2
100
AcDbEntity
  8
2
370
    25
100
AcDbHatch
 10
0.0
 20
0.0
 30
0.0
210
0.0
220
0.0
230
1.0
  2
_U
 70
     0
 71
     1
 91
        1
 92
        1
 93
        4
 72
     1
 10
-115.586101
 20
9.7815060000000003
 11
-162.58610100000001
 21
9.7815060000000003
 72
     1
 10
-162.58610100000001
 20
9.7815060000000003
 11
-162.58610100000001
 21
12.781506
 72
     1
 10
-162.58610100000001
 20
12.781506
 11
-115.586101
 21
12.781506
 72
     1
 10
-115.586101
 20
12.781506
 11
-115.586101
 21
9.7815060000000003
 97
        4
330
0
330
0
330
0
330
0
 75
     0
 76
     0
 52
45.0
 41
1.0
 77
     0
 78
     1
 53
45.0
 43
0.0
 44
0.0
 45
-0.707107
 46
0.707107
 79
     0
 98
        1
 10
0.0
 20
0.0
  0
LINE
  5
2A3
100
AcDbEntity
  8
2
370
    50
100
AcDbLine
 10
-164.138101
 20
-3.518494
 30
0.0
 11
-164.138101
 21
-5.518494
 31
0.0
  0
LINE
  5
2A4
100
AcDbEntity
  8
2
370
    50
100
AcDbLine
 10
-114.138101
 20
-3.518494
 30
0.0
 11
-114.138101
 21
-5.518494
 31
0.0
  0
LINE
  5
2A5
100
AcDbEntity
  8
2
370
    50
100
AcDbLine
 10
-114.138101
 20
-3.518494
 30
0.0
 11
-164.138101
 21
-3.518494
 31
0.0
  0
LINE
  5
2A6
100
AcDbEntity
  8
2
370
    50
100
AcDbLine
 10
-164.138101
 20
-5.018494
 30
0.0
 11
-114.138101
 21
-5.018494
 31
0.0
  0
HATCH
  5
2A7
100
AcDbEntity
  8
2
370
    25
100
AcDbHatch
 10
0.0
 20
0.0
 30
0.0
210
0.0
220
0.0
230
1.0
  2
_U
 70
     0
 71
     1
 91
        1
 92
        1
 93
        4
 72
     1
 10
-114.13810100000001
 20
-3.518494
 11
-164.13810100000001
 21
-3.518494
 72
     1
 10
-164.13810100000001
 20
-3.518494
 11
-164.13810100000001
 21
-5.0184939999999996
 72
     1
 10
-164.13810100000001
 20
-5.0184939999999996
 11
-114.13810100000001
 21
-5.0184939999999996
 72
     1
 10
-114.13810100000001
 20
-5.0184939999999996
 11
-114.13810100000001
 21
-3.518494
 97
        4
330
0
330
0
330
0
330
0
 75
     0
 76
     0
 52
45.0
 41
1.0
 77
     0
 78
     1
 53
45.0
 43
0.0
 44
0.0
 45
-0.282843
 46
0.282843
 79
     0
 98
        1
 10
0.0
 20
0.0
  0
LINE
  5
2A8
100
AcDbEntity
  8
2
370
    50
100
AcDbLine
 10
-162.586101
 20
12.781506
 30
0.0
 11
-115.586101
 21
12.781506
 31
0.0
  0
LINE
  5
2A9
100
AcDbEntity
  8
2
370
    50
100
AcDbLine
 10
-113.138769
 20
-5.518494
 30
0.0
 11
-165.138769
 21
-5.518494
 31
0.0
  0
LINE
  5
2AA
100
AcDbEntity
  8
2
370
    50
100
AcDbLine
 10
-116.138769
 20
-17.518494
 30
0.0
 11
-162.138769
 21
-17.518494
 31
0.0
  0
LINE
  5
2AB
100
AcDbEntity
  8
2
370
    50
100
AcDbLine
 10
-165.138769
 20
-7.518494
 30
0.0
 11
-165.138769
 21
-5.518494
 31
0.0
  0
LINE
  5
2AC
100
AcDbEntity
  8
2
370
    50
100
AcDbLine
 10
-113.138769
 20
-7.518494
 30
0.0
 11
-113.138769
 21
-5.518494
 31
0.0
  0
LINE
  5
2AD
100
AcDbEntity
  8
2
370
    50
100
AcDbLine
 10
-162.138769
 20
-17.518494
 30
0.0
 11
-162.138769
 21
-9.518494
 31
0.0
  0
LINE
  5
2AE
100
AcDbEntity
  8
2
370
    50
100
AcDbLine
 10
-116.138769
 20
-17.518494
 30
0.0
 11
-116.138769
 21
-9.518494
 31
0.0
  0
LINE
  5
2AF
100
AcDbEntity
  8
2
370
    50
100
AcDbLine
 10
-114.138769
 20
-8.518494
 30
0.0
 11
-164.138769
 21
-8.518494
 31
0.0
  0
LINE
  5
2B0
100
AcDbEntity
  8
2
370
    50
100
AcDbLine
 10
-161.138769
 20
-16.426494
 30
0.0
 11
-161.138769
 21
-8.518494
 31
0.0
  0
LINE
  5
2B1
100
AcDbEntity
  8
2
370
    50
100
AcDbLine
 10
-117.138769
 20
-16.426494
 30
0.0
 11
-117.138769
 21
-8.518494
 31
0.0
  0
LINE
  5
2B2
100
AcDbEntity
  8
2
370
    50
100
AcDbLine
 10
-138.138769
 20
-16.426494
 30
0.0
 11
-138.138769
 21
-8.518494
 31
0.0
  0
LINE
  5
2B3
100
AcDbEntity
  8
2
370
    50
100
AcDbLine
 10
-140.138769
 20
-16.426494
 30
0.0
 11
-140.138769
 21
-8.518494
 31
0.0
  0
LINE
  5
2B4
100
AcDbEntity
  8
2
370
    50
100
AcDbLine
 10
-161.138769
 20
-16.426494
 30
0.0
 11
-162.138769
 21
-16.426494
 31
0.0
  0
LINE
  5
2B5
100
AcDbEntity
  8
2
370
    50
100
AcDbLine
 10
-116.138769
 20
-16.426494
 30
0.0
 11
-117.138769
 21
-16.426494
 31
0.0
  0
LINE
  5
2B6
100
AcDbEntity
  8
2
370
    50
100
AcDbLine
 10
-138.138769
 20
-16.426494
 30
0.0
 11
-140.138769
 21
-16.426494
 31
0.0
  0
ARC
  5
2B7
100
AcDbEntity
  8
2
370
    50
100
AcDbCircle
 10
-150.638769
 20
33.508275
 30
0.0
 40
51.026769
100
AcDbArc
 50
258.125168
 51
281.874832
  0
ARC
  5
2B8
100
AcDbEntity
  8
2
370
    50
100
AcDbCircle
 10
-127.638769
 20
33.508275
 30
0.0
 40
51.026769
100
AcDbArc
 50
258.125168
 51
281.874832
  0
ARC
  5
2B9
100
AcDbEntity
  8
2
370
    50
100
AcDbCircle
 10
-163.138769
 20
-9.518494
 30
0.0
 40
1.0
100
AcDbArc
 50
0.0
 51
90.0
  0
ARC
  5
2BA
100
AcDbEntity
  8
2
370
    50
100
AcDbCircle
 10
-115.138769
 20
-9.518494
 30
0.0
 40
1.0
100
AcDbArc
 50
90.0
 51
180.0
  0
ARC
  5
2BB
100
AcDbEntity
  8
2
370
    50
100
AcDbCircle
 10
-164.138769
 20
-7.518494
 30
0.0
 40
1.0
100
AcDbArc
 50
180.0
 51
270.0
  0
ARC
  5
2BC
100
AcDbEntity
  8
2
370
    50
100
AcDbCircle
 10
-114.138769
 20
-7.518494
 30
0.0
 40
1.0
100
AcDbArc
 50
270.0
 51
360.0
  0
POINT
  5
2BD
100
AcDbEntity
  8
2
370
    50
100
AcDbPoint
 10
-139.086101
 20
12.781506
 30
0.0
  0
LINE
  5
2BE
100
AcDbEntity
  8
2
370
    50
100
AcDbLine
 10
-121.586101
 20
-28.924494
 30
0.0
 11
-121.586101
 21
-17.518494
 31
0.0
  0
LINE
  5
2BF
100
AcDbEntity
  8
2
370
    50
100
AcDbLine
 10
-121.586101
 20
-3.518494
 30
0.0
 11
-121.586101
 21
9.781506
 31
0.0
  0
LINE
  5
2C0
100
AcDbEntity
  8
2
370
    25
100
AcDbLine
 10
-122.379851
 20
-29.718244
 30
0.0
 11
-122.379851
 21
-17.518494
 31
0.0
  0
LINE
  5
2C1
100
AcDbEntity
  8
2
370
    25
100
AcDbLine
 10
-122.379851
 20
-3.518494
 30
0.0
 11
-122.379851
 21
9.781506
 31
0.0
  0
LINE
  5
2C2
100
AcDbEntity
  8
2
370
    25
100
AcDbLine
 10
-155.792351
 20
-29.718244
 30
0.0
 11
-155.792351
 21
-17.518494
 31
0.0
  0
LINE
  5
2C3
100
AcDbEntity
  8
2
370
    25
100
AcDbLine
 10
-155.792351
 20
-3.518494
 30
0.0
 11
-155.792351
 21
9.781506
 31
0.0
  0
LINE
  5
2C4
100
AcDbEntity
  8
2
370
    50
100
AcDbLine
 10
-156.586101
 20
-28.924494
 30
0.0
 11
-156.586101
 21
-17.518494
 31
0.0
  0
LINE
  5
2C5
100
AcDbEntity
  8
2
370
    50
100
AcDbLine
 10
-156.586101
 20
-3.518494
 30
0.0
 11
-156.586101
 21
9.781506
 31
0.0
  0
LINE
  5
2C6
100
AcDbEntity
  8
2
370
    50
100
AcDbLine
 10
-145.33855
 20
-37.166634
 30
0.0
 11
-145.33855
 21
-36.152729
 31
0.0
  0
LINE
  5
2C7
100
AcDbEntity
  8
2
370
    50
100
AcDbLine
 10
-132.93855
 20
-35.091603
 30
0.0
 11
-132.93855
 21
-34.077681
 31
0.0
  0
LINE
  5
2C8
100
AcDbEntity
  8
2
370
    50
100
AcDbLine
 10
-146.13855
 20
-36.050354
 30
0.0
 11
-146.13855
 21
-33.414201
 31
0.0
  0
LINE
  5
2C9
100
AcDbEntity
  8
2
370
    50
100
AcDbLine
 10
-145.905541
 20
-36.247611
 30
0.0
 11
-132.305541
 21
-33.971752
 31
0.0
  0
ARC
  5
2CA
100
AcDbEntity
  8
2
370
    50
100
AcDbCircle
 10
-145.93855
 20
-36.050354
 30
0.0
 40
0.2
100
AcDbArc
 50
180.0
 51
279.5
  0
LINE
  5
2CB
100
AcDbEntity
  8
2
370
    50
100
AcDbLine
 10
-132.13855
 20
-33.774494
 30
0.0
 11
-132.13855
 21
-31.138341
 31
0.0
  0
ARC
  5
2CC
100
AcDbEntity
  8
2
370
    50
100
AcDbCircle
 10
-132.33855
 20
-33.774494
 30
0.0
 40
0.2
100
AcDbArc
 50
279.5
 51
360.0
  0
ARC
  5
2CD
100
AcDbEntity
  8
2
370
    50
100
AcDbCircle
 10
-132.33855
 20
-31.138341
 30
0.0
 40
0.2
100
AcDbArc
 50
0.0
 51
99.5
  0
LINE
  5
2CE
100
AcDbEntity
  8
2
370
    50
100
AcDbLine
 10
-132.37156
 20
-30.940704
 30
0.0
 11
-145.971562
 21
-33.216962
 31
0.0
  0
LINE
  5
2CF
100
AcDbEntity
  8
2
370
    50
100
AcDbLine
 10
-145.33855
 20
-41.222634
 30
0.0
 11
-145.33855
 21
-40.208729
 31
0.0
  0
LINE
  5
2D0
100
AcDbEntity
  8
2
370
    50
100
AcDbLine
 10
-132.93855
 20
-39.147603
 30
0.0
 11
-132.93855
 21
-38.133681
 31
0.0
  0
LINE
  5
2D1
100
AcDbEntity
  8
2
370
    50
100
AcDbLine
 10
-146.13855
 20
-40.106354
 30
0.0
 11
-146.13855
 21
-37.470201
 31
0.0
  0
LINE
  5
2D2
100
AcDbEntity
  8
2
370
    50
100
AcDbLine
 10
-145.905541
 20
-40.303611
 30
0.0
 11
-132.305541
 21
-38.027752
 31
0.0
  0
ARC
  5
2D3
100
AcDbEntity
  8
2
370
    50
100
AcDbCircle
 10
-145.93855
 20
-40.106354
 30
0.0
 40
0.2
100
AcDbArc
 50
180.0
 51
279.5
  0
LINE
  5
2D4
100
AcDbEntity
  8
2
370
    50
100
AcDbLine
 10
-132.13855
 20
-37.830494
 30
0.0
 11
-132.13855
 21
-35.194341
 31
0.0
  0
ARC
  5
2D5
100
AcDbEntity
  8
2
370
    50
100
AcDbCircle
 10
-132.33855
 20
-37.830494
 30
0.0
 40
0.2
100
AcDbArc
 50
279.5
 51
360.0
  0
ARC
  5
2D6
100
AcDbEntity
  8
2
370
    50
100
AcDbCircle
 10
-132.33855
 20
-35.194341
 30
0.0
 40
0.2
100
AcDbArc
 50
0.0
 51
99.5
  0
LINE
  5
2D7
100
AcDbEntity
  8
2
370
    50
100
AcDbLine
 10
-132.37156
 20
-34.996704
 30
0.0
 11
-145.971562
 21
-37.272962
 31
0.0
  0
LINE
  5
2D8
100
AcDbEntity
  8
2
370
    50
100
AcDbLine
 10
-145.33855
 20
-45.278634
 30
0.0
 11
-145.33855
 21
-44.264729
 31
0.0
  0
LINE
  5
2D9
100
AcDbEntity
  8
2
370
    50
100
AcDbLine
 10
-132.93855
 20
-43.203603
 30
0.0
 11
-132.93855
 21
-42.189681
 31
0.0
  0
LINE
  5
2DA
100
AcDbEntity
  8
2
370
    50
100
AcDbLine
 10
-146.13855
 20
-44.162354
 30
0.0
 11
-146.13855
 21
-41.526201
 31
0.0
  0
LINE
  5
2DB
100
AcDbEntity
  8
2
370
    50
100
AcDbLine
 10
-145.905541
 20
-44.359611
 30
0.0
 11
-132.305541
 21
-42.083752
 31
0.0
  0
ARC
  5
2DC
100
AcDbEntity
  8
2
370
    50
100
AcDbCircle
 10
-145.93855
 20
-44.162354
 30
0.0
 40
0.2
100
AcDbArc
 50
180.0
 51
279.5
  0
LINE
  5
2DD
100
AcDbEntity
  8
2
370
    50
100
AcDbLine
 10
-132.13855
 20
-41.886494
 30
0.0
 11
-132.13855
 21
-39.250341
 31
0.0
  0
ARC
  5
2DE
100
AcDbEntity
  8
2
370
    50
100
AcDbCircle
 10
-132.33855
 20
-41.886494
 30
0.0
 40
0.2
100
AcDbArc
 50
279.5
 51
360.0
  0
ARC
  5
2DF
100
AcDbEntity
  8
2
370
    50
100
AcDbCircle
 10
-132.33855
 20
-39.250341
 30
0.0
 40
0.2
100
AcDbArc
 50
0.0
 51
99.5
  0
LINE
  5
2E0
100
AcDbEntity
  8
2
370
    50
100
AcDbLine
 10
-132.37156
 20
-39.052704
 30
0.0
 11
-145.971562
 21
-41.328962
 31
0.0
  0
LINE
  5
2E1
100
AcDbEntity
  8
2
370
    50
100
AcDbLine
 10
-145.33855
 20
-49.334634
 30
0.0
 11
-145.33855
 21
-48.320729
 31
0.0
  0
LINE
  5
2E2
100
AcDbEntity
  8
2
370
    50
100
AcDbLine
 10
-132.93855
 20
-47.259603
 30
0.0
 11
-132.93855
 21
-46.245681
 31
0.0
  0
LINE
  5
2E3
100
AcDbEntity
  8
2
370
    50
100
AcDbLine
 10
-146.13855
 20
-48.218354
 30
0.0
 11
-146.13855
 21
-45.582201
 31
0.0
  0
LINE
  5
2E4
100
AcDbEntity
  8
2
370
    50
100
AcDbLine
 10
-145.905541
 20
-48.415611
 30
0.0
 11
-132.305541
 21
-46.139752
 31
0.0
  0
ARC
  5
2E5
100
AcDbEntity
  8
2
370
    50
100
AcDbCircle
 10
-145.93855
 20
-48.218354
 30
0.0
 40
0.2
100
AcDbArc
 50
180.0
 51
279.5
  0
LINE
  5
2E6
100
AcDbEntity
  8
2
370
    50
100
AcDbLine
 10
-132.13855
 20
-45.942494
 30
0.0
 11
-132.13855
 21
-43.306341
 31
0.0
  0
ARC
  5
2E7
100
AcDbEntity
  8
2
370
    50
100
AcDbCircle
 10
-132.33855
 20
-45.942494
 30
0.0
 40
0.2
100
AcDbArc
 50
279.5
 51
360.0
  0
ARC
  5
2E8
100
AcDbEntity
  8
2
370
    50
100
AcDbCircle
 10
-132.33855
 20
-43.306341
 30
0.0
 40
0.2
100
AcDbArc
 50
0.0
 51
99.5
  0
LINE
  5
2E9
100
AcDbEntity
  8
2
370
    50
100
AcDbLine
 10
-132.37156
 20
-43.108704
 30
0.0
 11
-145.971562
 21
-45.384962
 31
0.0
  0
LINE
  5
2EA
100
AcDbEntity
  8
2
370
    50
100
AcDbLine
 10
-145.33855
 20
-53.390634
 30
0.0
 11
-145.33855
 21
-52.376729
 31
0.0
  0
LINE
  5
2EB
100
AcDbEntity
  8
2
370
    50
100
AcDbLine
 10
-132.93855
 20
-51.315603
 30
0.0
 11
-132.93855
 21
-50.301681
 31
0.0
  0
LINE
  5
2EC
100
AcDbEntity
  8
2
370
    50
100
AcDbLine
 10
-146.13855
 20
-52.274354
 30
0.0
 11
-146.13855
 21
-49.638201
 31
0.0
  0
LINE
  5
2ED
100
AcDbEntity
  8
2
370
    50
100
AcDbLine
 10
-145.905541
 20
-52.471611
 30
0.0
 11
-132.305541
 21
-50.195752
 31
0.0
  0
ARC
  5
2EE
100
AcDbEntity
  8
2
370
    50
100
AcDbCircle
 10
-145.93855
 20
-52.274354
 30
0.0
 40
0.2
100
AcDbArc
 50
180.0
 51
279.5
  0
LINE
  5
2EF
100
AcDbEntity
  8
2
370
    50
100
AcDbLine
 10
-132.13855
 20
-49.998494
 30
0.0
 11
-132.13855
 21
-47.362341
 31
0.0
  0
ARC
  5
2F0
100
AcDbEntity
  8
2
370
    50
100
AcDbCircle
 10
-132.33855
 20
-49.998494
 30
0.0
 40
0.2
100
AcDbArc
 50
279.5
 51
360.0
  0
ARC
  5
2F1
100
AcDbEntity
  8
2
370
    50
100
AcDbCircle
 10
-132.33855
 20
-47.362341
 30
0.0
 40
0.2
100
AcDbArc
 50
0.0
 51
99.5
  0
LINE
  5
2F2
100
AcDbEntity
  8
2
370
    50
100
AcDbLine
 10
-132.37156
 20
-47.164704
 30
0.0
 11
-145.971562
 21
-49.440962
 31
0.0
  0
ARC
  5
2F3
100
AcDbEntity
  8
2
370
    50
100
AcDbCircle
 10
-145.93855
 20
-49.638201
 30
0.0
 40
0.2
100
AcDbArc
 50
99.5
 51
180.0
  0
ARC
  5
2F4
100
AcDbEntity
  8
2
370
    50
100
AcDbCircle
 10
-145.93855
 20
-45.582201
 30
0.0
 40
0.2
100
AcDbArc
 50
99.5
 51
180.0
  0
ARC
  5
2F5
100
AcDbEntity
  8
2
370
    50
100
AcDbCircle
 10
-145.93855
 20
-41.526201
 30
0.0
 40
0.2
100
AcDbArc
 50
99.5
 51
180.0
  0
ARC
  5
2F6
100
AcDbEntity
  8
2
370
    50
100
AcDbCircle
 10
-145.93855
 20
-37.470201
 30
0.0
 40
0.2
100
AcDbArc
 50
99.5
 51
180.0
  0
ARC
  5
2F7
100
AcDbEntity
  8
2
370
    50
100
AcDbCircle
 10
-145.93855
 20
-33.414201
 30
0.0
 40
0.2
100
AcDbArc
 50
99.5
 51
180.0
  0
LINE
  5
2F8
100
AcDbEntity
  8
2
370
    50
100
AcDbLine
 10
-145.33855
 20
-33.110634
 30
0.0
 11
-145.33855
 21
-32.096729
 31
0.0
  0
LINE
  5
2F9
100
AcDbEntity
  8
2
370
    50
100
AcDbLine
 10
-132.93855
 20
-31.035603
 30
0.0
 11
-132.93855
 21
-30.021681
 31
0.0
  0
LINE
  5
2FA
100
AcDbEntity
  8
2
370
    50
100
AcDbLine
 10
-146.13855
 20
-31.994354
 30
0.0
 11
-146.13855
 21
-29.718494
 31
0.0
  0
LINE
  5
2FB
100
AcDbEntity
  8
2
370
    50
100
AcDbLine
 10
-145.905541
 20
-32.191611
 30
0.0
 11
-132.305541
 21
-29.915752
 31
0.0
  0
ARC
  5
2FC
100
AcDbEntity
  8
2
370
    50
100
AcDbCircle
 10
-145.93855
 20
-31.994354
 30
0.0
 40
0.2
100
AcDbArc
 50
180.0
 51
279.5
  0
LINE
  5
2FD
100
AcDbEntity
  8
2
370
    50
100
AcDbLine
 10
-146.13855
 20
-56.888519
 30
0.0
 11
-146.13855
 21
-53.694201
 31
0.0
  0
ARC
  5
2FE
100
AcDbEntity
  8
2
370
    50
100
AcDbCircle
 10
-132.33855
 20
-51.418341
 30
0.0
 40
0.2
100
AcDbArc
 50
0.0
 51
99.5
  0
LINE
  5
2FF
100
AcDbEntity
  8
2
370
    50
100
AcDbLine
 10
-132.37156
 20
-51.220704
 30
0.0
 11
-145.971562
 21
-53.496962
 31
0.0
  0
ARC
  5
300
100
AcDbEntity
  8
2
370
    50
100
AcDbCircle
 10
-145.93855
 20
-53.694201
 30
0.0
 40
0.2
100
AcDbArc
 50
99.5
 51
180.0
  0
ARC
  5
301
100
AcDbEntity
  8
2
370
    50
100
AcDbCircle
 10
-132.33855
 20
-29.718494
 30
0.0
 40
0.2
100
AcDbArc
 50
279.5
 51
360.0
  0
LINE
  5
302
100
AcDbEntity
  8
2
370
    25
  6
CENTER
100
AcDbLine
 10
247.776259
 20
4.705917
 30
0.0
 11
186.398505
 21
-58.984388
 31
0.0
  0
LINE
  5
303
100
AcDbEntity
  8
2
370
    25
  6
CENTER
100
AcDbLine
 10
247.776259
 20
-134.136551
 30
0.0
 11
247.776259
 21
-202.231171
 31
0.0
  0
LINE
  5
304
100
AcDbEntity
  8
2
370
    25
  6
CENTER
100
AcDbLine
 10
-257.005508
 20
217.027122
 30
0.0
 11
-312.638672
 21
217.027122
 31
0.0
  0
LINE
  5
305
100
AcDbEntity
  8
2
370
    25
  6
CENTER
100
AcDbLine
 10
-284.500336
 20
244.342178
 30
0.0
 11
-284.500336
 21
80.554092
 31
0.0
  0
CIRCLE
  5
306
100
AcDbEntity
  8
2
370
    50
100
AcDbCircle
 10
-284.500336
 20
217.027122
 30
0.0
 40
26.0
  0
LINE
  5
307
100
AcDbEntity
  8
2
370
    50
100
AcDbLine
 10
-299.500336
 20
195.790361
 30
0.0
 11
-299.500336
 21
90.587835
 31
0.0
  0
LINE
  5
308
100
AcDbEntity
  8
2
370
    50
100
AcDbLine
 10
-269.500336
 20
183.046359
 30
0.0
 11
-269.500336
 21
90.587835
 31
0.0
  0
POINT
  5
309
100
AcDbEntity
  8
2
370
    50
100
AcDbPoint
 10
-284.500336
 20
159.869445
 30
0.0
  0
POINT
  5
30A
100
AcDbEntity
  8
2
370
    50
100
AcDbPoint
 10
56.959219
 20
129.27173
 30
0.0
  0
POINT
  5
30B
100
AcDbEntity
  8
2
370
    50
100
AcDbPoint
 10
41.959254
 20
103.291029
 30
0.0
  0
ELLIPSE
  5
30C
100
AcDbEntity
  8
2
370
    50
100
AcDbEllipse
 10
-284.500336
 20
90.587835
 30
0.0
 11
-15.0
 21
0.0
 31
0.0
210
0.0
220
0.0
230
1.0
 40
0.5
 41
0.0
 42
6.2831849999999996
  0
LINE
  5
30D
100
AcDbEntity
  8
2
370
    50
100
AcDbLine
 10
-288.500336
 20
191.336656
 30
0.0
 11
-288.500336
 21
132.527122
 31
0.0
  0
LINE
  5
30E
100
AcDbEntity
  8
2
370
    50
100
AcDbLine
 10
-280.500336
 20
191.336656
 30
0.0
 11
-280.500336
 21
132.527122
 31
0.0
  0
ELLIPSE
  5
30F
100
AcDbEntity
  8
2
370
    50
100
AcDbEllipse
 10
-284.500336
 20
159.869445
 30
0.0
 11
-15.0
 21
0.0
 31
0.0
210
0.0
220
0.0
230
1.0
 40
0.5
 41
3.1415929999999999
 42
4.442456
  0
ELLIPSE
  5
310
100
AcDbEntity
  8
2
370
    50
100
AcDbEllipse
 10
-284.500336
 20
159.869445
 30
0.0
 11
-15.0
 21
0.0
 31
0.0
210
0.0
220
0.0
230
1.0
 40
0.5
 41
4.9823219999999999
 42
0.0
  0
LINE
  5
311
100
AcDbEntity
  8
2
370
    50
100
AcDbLine
 10
-281.000336
 20
132.027122
 30
0.0
 11
-288.000336
 21
132.027122
 31
0.0
  0
LINE
  5
312
100
AcDbEntity
  8
2
370
    50
100
AcDbLine
 10
-288.500336
 20
132.527122
 30
0.0
 11
-288.000336
 21
132.027122
 31
0.0
  0
LINE
  5
313
100
AcDbEntity
  8
2
370
    50
100
AcDbLine
 10
-280.500336
 20
132.527122
 30
0.0
 11
-281.000336
 21
132.027122
 31
0.0
  0
LINE
  5
314
100
AcDbEntity
  8
2
370
    25
100
AcDbLine
 10
-288.500336
 20
132.527122
 30
0.0
 11
-280.500336
 21
132.527122
 31
0.0
  0
POINT
  5
315
100
AcDbEntity
  8
2
370
    50
100
AcDbPoint
 10
-284.500336
 20
217.027122
 30
0.0
  0
ELLIPSE
  5
316
100
AcDbEntity
  8
2
370
    25
  6
DASHED
100
AcDbEllipse
 10
-317.225231
 20
94.896149
 30
0.0
 11
-14.488887
 21
3.8822860000000001
 31
0.0
210
0.0
220
0.0
230
1.0
 40
0.5
 41
0.0
 42
6.2831849999999996
  0
LINE
  5
317
100
AcDbEntity
  8
2
370
    25
  6
DASHED
100
AcDbLine
 10
-324.92642
 20
124.110469
 30
0.0
 11
-331.714118
 21
98.778435
 31
0.0
  0
LINE
  5
318
100
AcDbEntity
  8
2
370
    25
  6
DASHED
100
AcDbLine
 10
-300.687157
 20
98.661531
 30
0.0
 11
-302.736344
 21
91.013864
 31
0.0
  0
LINE
  5
319
100
AcDbEntity
  8
2
370
    25
  6
CENTER
100
AcDbLine
 10
-310.093739
 20
121.51124
 30
0.0
 11
-319.822155
 21
85.204298
 31
0.0
  0
LINE
  5
31A
100
AcDbEntity
  8
2
370
    25
  6
CENTER
100
AcDbLine
 10
-258.922784
 20
121.570401
 30
0.0
 11
-249.178517
 21
85.204298
 31
0.0
  0
ELLIPSE
  5
31B
100
AcDbEntity
  8
2
370
    25
  6
DASHED
100
AcDbEllipse
 10
-251.77544
 20
94.896149
 30
0.0
 11
-14.488887
 21
-3.8822860000000001
 31
0.0
210
0.0
220
0.0
230
1.0
 40
0.5
 41
0.0
 42
6.2831849999999996
  0
LINE
  5
31C
100
AcDbEntity
  8
2
370
    25
  6
DASHED
100
AcDbLine
 10
-268.313514
 20
98.661531
 30
0.0
 11
-266.264328
 21
91.013864
 31
0.0
  0
LINE
  5
31D
100
AcDbEntity
  8
2
370
    25
  6
DASHED
100
AcDbLine
 10
-244.074251
 20
124.110469
 30
0.0
 11
-237.286553
 21
98.778435
 31
0.0
  0
LINE
  5
31E
100
AcDbEntity
  8
2
370
    50
100
AcDbLine
 10
-308.748931
 20
207.645991
 30
0.0
 11
-359.679482
 21
178.241223
 31
0.0
  0
LINE
  5
31F
100
AcDbEntity
  8
2
370
    50
100
AcDbLine
 10
-304.748931
 20
200.717787
 30
0.0
 11
-355.679482
 21
171.31302
 31
0.0
  0
LINE
  5
320
100
AcDbEntity
  8
2
370
    50
100
AcDbLine
 10
-356.362495
 20
171.496033
 30
0.0
 11
-359.862495
 21
177.55821
 31
0.0
  0
LINE
  5
321
100
AcDbEntity
  8
2
370
    50
100
AcDbLine
 10
-359.679482
 20
178.241223
 30
0.0
 11
-359.862495
 21
177.55821
 31
0.0
  0
LINE
  5
322
100
AcDbEntity
  8
2
370
    50
100
AcDbLine
 10
-355.679482
 20
171.31302
 30
0.0
 11
-356.362495
 21
171.496033
 31
0.0
  0
LINE
  5
323
100
AcDbEntity
  8
2
370
    25
100
AcDbLine
 10
-359.679482
 20
178.241223
 30
0.0
 11
-355.679482
 21
171.31302
 31
0.0
  0
LINE
  5
324
100
AcDbEntity
  8
2
370
    25
  6
CENTER
100
AcDbLine
 10
-307.016996
 20
204.027122
 30
0.0
 11
-360.922998
 21
172.904477
 31
0.0
  0
LINE
  5
325
100
AcDbEntity
  8
2
370
    50
100
AcDbLine
 10
-268.191002
 20
196.778526
 30
0.0
 11
-238.786234
 21
145.847975
 31
0.0
  0
LINE
  5
326
100
AcDbEntity
  8
2
370
    50
100
AcDbLine
 10
-275.119205
 20
192.778526
 30
0.0
 11
-245.714437
 21
141.847975
 31
0.0
  0
LINE
  5
327
100
AcDbEntity
  8
2
370
    50
100
AcDbLine
 10
-245.031425
 20
141.664962
 30
0.0
 11
-238.969247
 21
145.164962
 31
0.0
  0
LINE
  5
328
100
AcDbEntity
  8
2
370
    50
100
AcDbLine
 10
-238.786234
 20
145.847975
 30
0.0
 11
-238.969247
 21
145.164962
 31
0.0
  0
LINE
  5
329
100
AcDbEntity
  8
2
370
    50
100
AcDbLine
 10
-245.714437
 20
141.847975
 30
0.0
 11
-245.031425
 21
141.664962
 31
0.0
  0
LINE
  5
32A
100
AcDbEntity
  8
2
370
    25
100
AcDbLine
 10
-238.786234
 20
145.847975
 30
0.0
 11
-245.714437
 21
141.847975
 31
0.0
  0
LINE
  5
32B
100
AcDbEntity
  8
2
370
    25
  6
CENTER
100
AcDbLine
 10
-271.500336
 20
194.510461
 30
0.0
 11
-240.377691
 21
140.60446
 31
0.0
  0
POINT
  5
32C
100
AcDbEntity
  8
2
370
    50
100
AcDbPoint
 10
-304.500336
 20
217.027122
 30
0.0
  0
POINT
  5
32D
100
AcDbEntity
  8
2
370
    50
100
AcDbPoint
 10
-264.500336
 20
217.027122
 30
0.0
  0
ELLIPSE
  5
32E
100
AcDbEntity
  8
2
370
    50
100
AcDbEllipse
 10
-264.500336
 20
217.027122
 30
0.0
 11
-3.0
 21
0.0
 31
0.0
210
0.0
220
0.0
230
1.0
 40
0.833333
 41
3.7324769999999998
 42
2.6852770000000001
  0
LINE
  5
32F
100
AcDbEntity
  8
2
370
    50
100
AcDbLine
 10
-306.500336
 20
214.527122
 30
0.0
 11
-306.500336
 21
219.527122
 31
0.0
  0
LINE
  5
330
100
AcDbEntity
  8
2
370
    50
100
AcDbLine
 10
-302.500336
 20
214.527122
 30
0.0
 11
-302.500336
 21
219.527122
 31
0.0
  0
LINE
  5
331
100
AcDbEntity
  8
2
370
    50
100
AcDbLine
 10
-306.500336
 20
217.027122
 30
0.0
 11
-302.500336
 21
217.027122
 31
0.0
  0
LINE
  5
332
100
AcDbEntity
  8
2
370
    25
  6
CENTER
100
AcDbLine
 10
-139.086101
 20
-202.231171
 30
0.0
 11
247.776259
 21
-202.231171
 31
0.0
  0
LINE
  5
333
100
AcDbEntity
  8
2
370
    50
100
AcDbLine
 10
318.022926
 20
12.78106
 30
0.0
 11
342.322926
 21
12.78106
 31
0.0
  0
LINE
  5
334
100
AcDbEntity
  8
2
370
    50
100
AcDbLine
 10
317.822926
 20
13.28106
 30
0.0
 11
317.822926
 21
12.98106
 31
0.0
  0
LINE
  5
335
100
AcDbEntity
  8
2
370
    50
100
AcDbLine
 10
317.822926
 20
12.98106
 30
0.0
 11
318.022926
 21
12.78106
 31
0.0
  0
LINE
  5
336
100
AcDbEntity
  8
2
370
    50
100
AcDbLine
 10
320.322926
 20
12.78106
 30
0.0
 11
324.822926
 21
12.78106
 31
0.0
  0
LINE
  5
337
100
AcDbEntity
  8
2
370
    25
100
AcDbLine
 10
317.822926
 20
12.98106
 30
0.0
 11
342.322926
 21
12.98106
 31
0.0
  0
LINE
  5
338
100
AcDbEntity
  8
2
370
    50
100
AcDbLine
 10
366.622926
 20
12.78106
 30
0.0
 11
342.322926
 21
12.78106
 31
0.0
  0
LINE
  5
339
100
AcDbEntity
  8
2
370
    50
100
AcDbLine
 10
366.822926
 20
13.28106
 30
0.0
 11
366.822926
 21
12.98106
 31
0.0
  0
LINE
  5
33A
100
AcDbEntity
  8
2
370
    50
100
AcDbLine
 10
366.822926
 20
12.98106
 30
0.0
 11
366.622926
 21
12.78106
 31
0.0
  0
LINE
  5
33B
100
AcDbEntity
  8
2
370
    50
100
AcDbLine
 10
364.322926
 20
12.78106
 30
0.0
 11
359.822926
 21
12.78106
 31
0.0
  0
LINE
  5
33C
100
AcDbEntity
  8
2
370
    25
100
AcDbLine
 10
366.822926
 20
12.98106
 30
0.0
 11
342.322926
 21
12.98106
 31
0.0
  0
LINE
  5
33D
100
AcDbEntity
  8
2
370
    50
100
AcDbLine
 10
359.029176
 20
-29.71894
 30
0.0
 11
342.322926
 21
-29.71894
 31
0.0
  0
LINE
  5
33E
100
AcDbEntity
  8
2
370
    50
100
AcDbLine
 10
359.822926
 20
-28.92494
 30
0.0
 11
359.028926
 21
-29.71894
 31
0.0
  0
LINE
  5
33F
100
AcDbEntity
  8
2
370
    25
100
AcDbLine
 10
359.822926
 20
-28.92494
 30
0.0
 11
342.322926
 21
-28.92494
 31
0.0
  0
LINE
  5
340
100
AcDbEntity
  8
2
370
    50
100
AcDbLine
 10
325.616676
 20
-29.71894
 30
0.0
 11
342.322926
 21
-29.71894
 31
0.0
  0
LINE
  5
341
100
AcDbEntity
  8
2
370
    50
100
AcDbLine
 10
324.822926
 20
-28.92494
 30
0.0
 11
325.616926
 21
-29.71894
 31
0.0
  0
LINE
  5
342
100
AcDbEntity
  8
2
370
    25
100
AcDbLine
 10
324.822926
 20
-28.92494
 30
0.0
 11
342.322926
 21
-28.92494
 31
0.0
  0
LINE
  5
343
100
AcDbEntity
  8
2
370
    50
100
AcDbLine
 10
368.322926
 20
13.58106
 30
0.0
 11
368.322926
 21
130.08106
 31
0.0
  0
LINE
  5
344
100
AcDbEntity
  8
2
370
    50
100
AcDbLine
 10
368.122926
 20
130.28106
 30
0.0
 11
368.322926
 21
130.08106
 31
0.0
  0
LINE
  5
345
100
AcDbEntity
  8
2
370
    50
100
AcDbLine
 10
342.322926
 20
130.28106
 30
0.0
 11
368.122926
 21
130.28106
 31
0.0
  0
LINE
  5
346
100
AcDbEntity
  8
2
370
    25
100
AcDbLine
 10
342.322926
 20
130.08106
 30
0.0
 11
368.322926
 21
130.08106
 31
0.0
  0
LINE
  5
347
100
AcDbEntity
  8
2
370
    50
100
AcDbLine
 10
316.322926
 20
13.58106
 30
0.0
 11
316.322926
 21
130.08106
 31
0.0
  0
LINE
  5
348
100
AcDbEntity
  8
2
370
    50
100
AcDbLine
 10
316.322926
 20
130.08106
 30
0.0
 11
316.522926
 21
130.28106
 31
0.0
  0
LINE
  5
349
100
AcDbEntity
  8
2
370
    50
100
AcDbLine
 10
316.522926
 20
130.28106
 30
0.0
 11
342.322926
 21
130.28106
 31
0.0
  0
LINE
  5
34A
100
AcDbEntity
  8
2
370
    25
100
AcDbLine
 10
316.322926
 20
130.08106
 30
0.0
 11
342.322926
 21
130.08106
 31
0.0
  0
LINE
  5
34B
100
AcDbEntity
  8
2
370
    50
100
AcDbLine
 10
368.322926
 20
13.58106
 30
0.0
 11
368.022926
 21
13.28106
 31
0.0
  0
LINE
  5
34C
100
AcDbEntity
  8
2
370
    50
100
AcDbLine
 10
368.022926
 20
13.28106
 30
0.0
 11
342.322926
 21
13.28106
 31
0.0
  0
LINE
  5
34D
100
AcDbEntity
  8
2
370
    25
100
AcDbLine
 10
368.322926
 20
13.58106
 30
0.0
 11
342.322926
 21
13.58106
 31
0.0
  0
LINE
  5
34E
100
AcDbEntity
  8
2
370
    50
100
AcDbLine
 10
316.322926
 20
13.58106
 30
0.0
 11
316.622926
 21
13.28106
 31
0.0
  0
LINE
  5
34F
100
AcDbEntity
  8
2
370
    50
100
AcDbLine
 10
316.622926
 20
13.28106
 30
0.0
 11
342.322926
 21
13.28106
 31
0.0
  0
LINE
  5
350
100
AcDbEntity
  8
2
370
    25
100
AcDbLine
 10
316.322926
 20
13.58106
 30
0.0
 11
342.322926
 21
13.58106
 31
0.0
  0
LINE
  5
351
100
AcDbEntity
  8
2
370
    50
100
AcDbLine
 10
316.322926
 20
161.354307
 30
0.0
 11
316.322926
 21
133.480952
 31
0.0
  0
LINE
  5
352
100
AcDbEntity
  8
2
370
    50
100
AcDbLine
 10
368.322926
 20
161.354307
 30
0.0
 11
368.322926
 21
133.480952
 31
0.0
  0
ARC
  5
353
100
AcDbEntity
  8
2
370
    50
100
AcDbCircle
 10
316.822926
 20
133.480952
 30
0.0
 40
0.5
100
AcDbArc
 50
180.0
 51
270.0
  0
ARC
  5
354
100
AcDbEntity
  8
2
370
    50
100
AcDbCircle
 10
342.322926
 20
-337.019048
 30
0.0
 40
500.0
100
AcDbArc
 50
87.128268
 51
92.871732
  0
ARC
  5
355
100
AcDbEntity
  8
2
370
    50
100
AcDbCircle
 10
367.322926
 20
161.354307
 30
0.0
 40
1.0
100
AcDbArc
 50
0.0
 51
87.128268
  0
ARC
  5
356
100
AcDbEntity
  8
2
370
    50
100
AcDbCircle
 10
317.322926
 20
161.354307
 30
0.0
 40
1.0
100
AcDbArc
 50
92.871732
 51
180.0
  0
LINE
  5
357
100
AcDbEntity
  8
2
370
    25
100
AcDbLine
 10
318.514671
 20
162.304495
 30
0.0
 11
365.740585
 21
162.304495
 31
0.0
  0
POINT
  5
358
100
AcDbEntity
  8
2
370
    50
100
AcDbPoint
 10
342.322926
 20
132.83106
 30
0.0
  0
ARC
  5
359
100
AcDbEntity
  8
2
370
    50
100
AcDbCircle
 10
319.857153
 20
132.898613
 30
0.0
 40
1.0
100
AcDbArc
 50
159.916716
 51
179.5
  0
LINE
  5
35A
100
AcDbEntity
  8
2
370
    50
100
AcDbLine
 10
318.834271
 20
130.280952
 30
0.0
 11
318.857191
 21
132.90734
 31
0.0
  0
ARC
  5
35B
100
AcDbEntity
  8
2
370
    50
100
AcDbCircle
 10
364.788699
 20
132.898613
 30
0.0
 40
1.0
100
AcDbArc
 50
0.5
 51
20.083284
  0
LINE
  5
35C
100
AcDbEntity
  8
2
370
    50
100
AcDbLine
 10
365.811581
 20
130.280952
 30
0.0
 11
365.788661
 21
132.90734
 31
0.0
  0
LINE
  5
35D
100
AcDbEntity
  8
2
370
    50
100
AcDbLine
 10
365.822926
 20
9.78106
 30
0.0
 11
318.822926
 21
9.78106
 31
0.0
  0
LINE
  5
35E
100
AcDbEntity
  8
2
370
    50
100
AcDbLine
 10
365.822926
 20
12.78106
 30
0.0
 11
365.822926
 21
9.78106
 31
0.0
  0
LINE
  5
35F
100
AcDbEntity
  8
2
370
    50
100
AcDbLine
 10
318.822926
 20
12.78106
 30
0.0
 11
318.822926
 21
9.78106
 31
0.0
  0
HATCH
  5
360
100
AcDbEntity
  8
2
370
    25
100
AcDbHatch
 10
0.0
 20
0.0
 30
0.0
210
0.0
220
0.0
230
1.0
  2
_U
 70
     0
 71
     1
 91
        1
 92
        1
 93
        4
 72
     1
 10
365.822926
 20
9.7810600000000001
 11
318.822926
 21
9.7810600000000001
 72
     1
 10
318.822926
 20
9.7810600000000001
 11
318.822926
 21
12.78106
 72
     1
 10
318.822926
 20
12.78106
 11
365.822926
 21
12.78106
 72
     1
 10
365.822926
 20
12.78106
 11
365.822926
 21
9.7810600000000001
 97
        4
330
0
330
0
330
0
330
0
 75
     0
 76
     0
 52
45.0
 41
1.0
 77
     0
 78
     1
 53
45.0
 43
0.0
 44
0.0
 45
-0.707107
 46
0.707107
 79
     0
 98
        1
 10
0.0
 20
0.0
  0
LINE
  5
361
100
AcDbEntity
  8
2
370
    50
100
AcDbLine
 10
317.270926
 20
-3.51894
 30
0.0
 11
317.270926
 21
-5.51894
 31
0.0
  0
LINE
  5
362
100
AcDbEntity
  8
2
370
    50
100
AcDbLine
 10
367.270926
 20
-3.51894
 30
0.0
 11
367.270926
 21
-5.51894
 31
0.0
  0
LINE
  5
363
100
AcDbEntity
  8
2
370
    50
100
AcDbLine
 10
367.270926
 20
-3.51894
 30
0.0
 11
317.270926
 21
-3.51894
 31
0.0
  0
LINE
  5
364
100
AcDbEntity
  8
2
370
    50
100
AcDbLine
 10
317.270926
 20
-5.01894
 30
0.0
 11
367.270926
 21
-5.01894
 31
0.0
  0
HATCH
  5
365
100
AcDbEntity
  8
2
370
    25
100
AcDbHatch
 10
0.0
 20
0.0
 30
0.0
210
0.0
220
0.0
230
1.0
  2
_U
 70
     0
 71
     1
 91
        1
 92
        1
 93
        4
 72
     1
 10
367.27092599999997
 20
-3.5189400000000002
 11
317.27092599999997
 21
-3.5189400000000002
 72
     1
 10
317.27092599999997
 20
-3.5189400000000002
 11
317.27092599999997
 21
-5.0189399999999997
 72
     1
 10
317.27092599999997
 20
-5.0189399999999997
 11
367.27092599999997
 21
-5.0189399999999997
 72
     1
 10
367.27092599999997
 20
-5.0189399999999997
 11
367.27092599999997
 21
-3.5189400000000002
 97
        4
330
0
330
0
330
0
330
0
 75
     0
 76
     0
 52
45.0
 41
1.0
 77
     0
 78
     1
 53
45.0
 43
0.0
 44
0.0
 45
-0.282843
 46
0.282843
 79
     0
 98
        1
 10
0.0
 20
0.0
  0
LINE
  5
366
100
AcDbEntity
  8
2
370
    50
100
AcDbLine
 10
318.822926
 20
12.78106
 30
0.0
 11
365.822926
 21
12.78106
 31
0.0
  0
LINE
  5
367
100
AcDbEntity
  8
2
370
    50
100
AcDbLine
 10
368.270258
 20
-5.51894
 30
0.0
 11
316.270258
 21
-5.51894
 31
0.0
  0
LINE
  5
368
100
AcDbEntity
  8
2
370
    50
100
AcDbLine
 10
365.270258
 20
-17.51894
 30
0.0
 11
319.270258
 21
-17.51894
 31
0.0
  0
LINE
  5
369
100
AcDbEntity
  8
2
370
    50
100
AcDbLine
 10
316.270258
 20
-7.51894
 30
0.0
 11
316.270258
 21
-5.51894
 31
0.0
  0
LINE
  5
36A
100
AcDbEntity
  8
2
370
    50
100
AcDbLine
 10
368.270258
 20
-7.51894
 30
0.0
 11
368.270258
 21
-5.51894
 31
0.0
  0
LINE
  5
36B
100
AcDbEntity
  8
2
370
    50
100
AcDbLine
 10
319.270258
 20
-17.51894
 30
0.0
 11
319.270258
 21
-9.51894
 31
0.0
  0
LINE
  5
36C
100
AcDbEntity
  8
2
370
    50
100
AcDbLine
 10
365.270258
 20
-17.51894
 30
0.0
 11
365.270258
 21
-9.51894
 31
0.0
  0
LINE
  5
36D
100
AcDbEntity
  8
2
370
    50
100
AcDbLine
 10
367.270258
 20
-8.51894
 30
0.0
 11
317.270258
 21
-8.51894
 31
0.0
  0
LINE
  5
36E
100
AcDbEntity
  8
2
370
    50
100
AcDbLine
 10
320.270258
 20
-16.42694
 30
0.0
 11
320.270258
 21
-8.51894
 31
0.0
  0
LINE
  5
36F
100
AcDbEntity
  8
2
370
    50
100
AcDbLine
 10
364.270258
 20
-16.42694
 30
0.0
 11
364.270258
 21
-8.51894
 31
0.0
  0
LINE
  5
370
100
AcDbEntity
  8
2
370
    50
100
AcDbLine
 10
343.270258
 20
-16.42694
 30
0.0
 11
343.270258
 21
-8.51894
 31
0.0
  0
LINE
  5
371
100
AcDbEntity
  8
2
370
    50
100
AcDbLine
 10
341.270258
 20
-16.42694
 30
0.0
 11
341.270258
 21
-8.51894
 31
0.0
  0
LINE
  5
372
100
AcDbEntity
  8
2
370
    50
100
AcDbLine
 10
320.270258
 20
-16.42694
 30
0.0
 11
319.270258
 21
-16.42694
 31
0.0
  0
LINE
  5
373
100
AcDbEntity
  8
2
370
    50
100
AcDbLine
 10
365.270258
 20
-16.42694
 30
0.0
 11
364.270258
 21
-16.42694
 31
0.0
  0
LINE
  5
374
100
AcDbEntity
  8
2
370
    50
100
AcDbLine
 10
343.270258
 20
-16.42694
 30
0.0
 11
341.270258
 21
-16.42694
 31
0.0
  0
ARC
  5
375
100
AcDbEntity
  8
2
370
    50
100
AcDbCircle
 10
330.770258
 20
33.507829
 30
0.0
 40
51.026769
100
AcDbArc
 50
258.125168
 51
281.874832
  0
ARC
  5
376
100
AcDbEntity
  8
2
370
    50
100
AcDbCircle
 10
353.770258
 20
33.507829
 30
0.0
 40
51.026769
100
AcDbArc
 50
258.125168
 51
281.874832
  0
ARC
  5
377
100
AcDbEntity
  8
2
370
    50
100
AcDbCircle
 10
318.270258
 20
-9.51894
 30
0.0
 40
1.0
100
AcDbArc
 50
0.0
 51
90.0
  0
ARC
  5
378
100
AcDbEntity
  8
2
370
    50
100
AcDbCircle
 10
366.270258
 20
-9.51894
 30
0.0
 40
1.0
100
AcDbArc
 50
90.0
 51
180.0
  0
ARC
  5
379
100
AcDbEntity
  8
2
370
    50
100
AcDbCircle
 10
317.270258
 20
-7.51894
 30
0.0
 40
1.0
100
AcDbArc
 50
180.0
 51
270.0
  0
ARC
  5
37A
100
AcDbEntity
  8
2
370
    50
100
AcDbCircle
 10
367.270258
 20
-7.51894
 30
0.0
 40
1.0
100
AcDbArc
 50
270.0
 51
360.0
  0
POINT
  5
37B
100
AcDbEntity
  8
2
370
    50
100
AcDbPoint
 10
342.322926
 20
12.78106
 30
0.0
  0
LINE
  5
37C
100
AcDbEntity
  8
2
370
    50
100
AcDbLine
 10
359.822926
 20
-28.92494
 30
0.0
 11
359.822926
 21
-17.51894
 31
0.0
  0
LINE
  5
37D
100
AcDbEntity
  8
2
370
    50
100
AcDbLine
 10
359.822926
 20
-3.51894
 30
0.0
 11
359.822926
 21
9.78106
 31
0.0
  0
LINE
  5
37E
100
AcDbEntity
  8
2
370
    25
100
AcDbLine
 10
359.029176
 20
-29.71869
 30
0.0
 11
359.029176
 21
-17.51894
 31
0.0
  0
LINE
  5
37F
100
AcDbEntity
  8
2
370
    25
100
AcDbLine
 10
359.029176
 20
-3.51894
 30
0.0
 11
359.029176
 21
9.78106
 31
0.0
  0
LINE
  5
380
100
AcDbEntity
  8
2
370
    25
100
AcDbLine
 10
325.616676
 20
-29.71869
 30
0.0
 11
325.616676
 21
-17.51894
 31
0.0
  0
LINE
  5
381
100
AcDbEntity
  8
2
370
    25
100
AcDbLine
 10
325.616676
 20
-3.51894
 30
0.0
 11
325.616676
 21
9.78106
 31
0.0
  0
LINE
  5
382
100
AcDbEntity
  8
2
370
    50
100
AcDbLine
 10
324.822926
 20
-28.92494
 30
0.0
 11
324.822926
 21
-17.51894
 31
0.0
  0
LINE
  5
383
100
AcDbEntity
  8
2
370
    50
100
AcDbLine
 10
324.822926
 20
-3.51894
 30
0.0
 11
324.822926
 21
9.78106
 31
0.0
  0
LINE
  5
384
100
AcDbEntity
  8
2
370
    25
  6
CENTER
100
AcDbLine
 10
342.322926
 20
166.396065
 30
0.0
 11
342.322926
 21
-36.168686
 31
0.0
  0
ARC
  5
385
100
AcDbEntity
  8
2
370
    50
100
AcDbCircle
 10
342.322926
 20
111.165609
 30
0.0
 40
33.939788
100
AcDbArc
 50
40.349781
 51
139.650219
  0
ARC
  5
386
100
AcDbEntity
  8
2
370
    50
100
AcDbCircle
 10
412.837371
 20
98.903441
 30
0.0
 40
100.0
100
AcDbArc
 50
158.522374
 51
159.916657
  0
ARC
  5
387
100
AcDbEntity
  8
2
370
    50
100
AcDbCircle
 10
271.808481
 20
98.903441
 30
0.0
 40
100.0
100
AcDbArc
 50
20.083343
 51
21.477626
  0
LINE
  5
388
100
AcDbEntity
  8
2
370
    25
100
AcDbLine
 10
319.640427
 20
133.079577
 30
0.0
 11
365.047577
 21
133.079577
 31
0.0
  0
LINE
  5
389
100
AcDbEntity
  8
2
370
    50
100
AcDbLine
 10
316.822926
 20
132.980952
 30
0.0
 11
318.857834
 21
132.980952
 31
0.0
  0
LINE
  5
38A
100
AcDbEntity
  8
2
370
    50
100
AcDbLine
 10
367.822926
 20
132.980952
 30
0.0
 11
365.788019
 21
132.980952
 31
0.0
  0
ARC
  5
38B
100
AcDbEntity
  8
2
370
    50
100
AcDbCircle
 10
367.822926
 20
133.480952
 30
0.0
 40
0.5
100
AcDbArc
 50
270.0
 51
360.0
  0
ARC
  5
38C
100
AcDbEntity
  8
2
370
    50
100
AcDbCircle
 10
342.322926
 20
111.208314
 30
0.0
 40
33.15189
100
AcDbArc
 50
41.052788
 51
138.947212
  0
CIRCLE
  5
38D
100
AcDbEntity
  8
2
370
    50
100
AcDbCircle
 10
342.322926
 20
154.980608
 30
0.0
 40
4.0
  0
CIRCLE
  5
38E
100
AcDbEntity
  8
2
370
    50
100
AcDbCircle
 10
342.322926
 20
154.980608
 30
0.0
 40
4.25
  0
LINE
  5
38F
100
AcDbEntity
  8
2
370
    50
100
AcDbLine
 10
338.322926
 20
81.781201
 30
0.0
 11
346.322926
 21
81.781201
 31
0.0
  0
CIRCLE
  5
390
100
AcDbEntity
  8
2
370
    50
100
AcDbCircle
 10
342.322926
 20
22.781201
 30
0.0
 40
3.0
  0
LINE
  5
391
100
AcDbEntity
  8
2
370
    50
100
AcDbLine
 10
338.322926
 20
83.781201
 30
0.0
 11
346.322926
 21
83.781201
 31
0.0
  0
ARC
  5
392
100
AcDbEntity
  8
2
370
    50
100
AcDbCircle
 10
346.322926
 20
82.781201
 30
0.0
 40
1.0
100
AcDbArc
 50
270.0
 51
90.0
  0
ARC
  5
393
100
AcDbEntity
  8
2
370
    50
100
AcDbCircle
 10
338.322926
 20
82.781201
 30
0.0
 40
1.0
100
AcDbArc
 50
90.0
 51
270.0
  0
LINE
  5
394
100
AcDbEntity
  8
2
370
    50
100
AcDbLine
 10
189.148505
 20
-115.718602
 30
0.0
 11
182.898505
 21
-115.718602
 31
0.0
  0
LINE
  5
395
100
AcDbEntity
  8
2
370
    50
100
AcDbLine
 10
177.648505
 20
-115.718602
 30
0.0
 11
183.898505
 21
-115.718602
 31
0.0
  0
LINE
  5
396
100
AcDbEntity
  8
2
370
    50
100
AcDbLine
 10
177.648505
 20
-115.718602
 30
0.0
 11
183.898505
 21
-115.718602
 31
0.0
  0
POINT
  5
397
100
AcDbEntity
  8
2
370
    50
100
AcDbPoint
 10
183.398505
 20
-115.718602
 30
0.0
  0
LINE
  5
398
100
AcDbEntity
  8
2
370
    25
  6
CENTER
100
AcDbLine
 10
-139.086101
 20
-56.154148
 30
0.0
 11
-139.086101
 21
-202.231171
 31
0.0
  0
LINE
  5
399
100
AcDbEntity
  8
2
370
    50
100
AcDbLine
 10
-132.13855
 20
-51.418341
 30
0.0
 11
-132.13855
 21
-54.550125
 31
0.0
  0
LINE
  5
39A
100
AcDbEntity
  8
2
370
    50
100
AcDbLine
 10
-132.13855
 20
-54.550125
 30
0.0
 11
-132.13855
 21
-62.396755
 31
0.0
  0
LINE
  5
39B
100
AcDbEntity
  8
2
370
    50
100
AcDbLine
 10
-146.13855
 20
-56.940502
 30
0.0
 11
-146.13855
 21
-62.396755
 31
0.0
  0
ARC
  5
39C
100
AcDbEntity
  8
2
370
    50
100
AcDbCircle
 10
-142.612325
 20
-57.765446
 30
0.0
 40
5.877041
100
AcDbArc
 50
233.130102
 51
306.869898
  0
ARC
  5
39D
100
AcDbEntity
  8
2
370
    50
100
AcDbCircle
 10
-135.559876
 20
-67.168712
 30
0.0
 40
5.877041
100
AcDbArc
 50
53.130102
 51
126.869898
  0
ARC
  5
39E
100
AcDbEntity
  8
2
370
    50
100
AcDbCircle
 10
-142.612325
 20
-67.168712
 30
0.0
 40
5.877041
100
AcDbArc
 50
53.130102
 51
126.869898
  0
ARC
  5
39F
100
AcDbEntity
  8
2
370
    50
100
AcDbCircle
 10
167.898505
 20
-80.076642
 30
0.0
 40
5.833333
100
AcDbArc
 50
233.130102
 51
306.869898
  0
ARC
  5
3A0
100
AcDbEntity
  8
2
370
    50
100
AcDbCircle
 10
174.898505
 20
-89.409976
 30
0.0
 40
5.833333
100
AcDbArc
 50
53.130102
 51
126.869898
  0
ARC
  5
3A1
100
AcDbEntity
  8
2
370
    50
100
AcDbCircle
 10
167.898505
 20
-89.409976
 30
0.0
 40
5.833333
100
AcDbArc
 50
53.130102
 51
126.869898
  0
LINE
  5
3A2
100
AcDbEntity
  8
2
370
    25
  6
CENTER
100
AcDbLine
 10
183.398505
 20
-153.349926
 30
0.0
 11
183.398505
 21
-169.953072
 31
0.0
  0
ARC
  5
3A3
100
AcDbEntity
  8
2
370
    50
100
AcDbCircle
 10
104.464768
 20
-146.927198
 30
0.0
 40
0.2
100
AcDbArc
 50
180.0
 51
270.0
  0
ARC
  5
3A4
100
AcDbEntity
  8
2
370
    50
100
AcDbCircle
 10
116.064768
 20
-146.927198
 30
0.0
 40
0.2
100
AcDbArc
 50
270.0
 51
360.0
  0
LINE
  5
3A5
100
AcDbEntity
  8
2
370
    50
100
AcDbLine
 10
117.264768
 20
-147.127198
 30
0.0
 11
103.264768
 21
-147.127198
 31
0.0
  0
ARC
  5
3A6
100
AcDbEntity
  8
2
370
    50
100
AcDbCircle
 10
116.065361
 20
-146.926515
 30
0.0
 40
0.2
100
AcDbArc
 50
270.0
 51
360.0
  0
ARC
  5
3A7
100
AcDbEntity
  8
2
370
    50
100
AcDbCircle
 10
104.465361
 20
-146.926515
 30
0.0
 40
0.2
100
AcDbArc
 50
180.0
 51
270.0
  0
LINE
  5
3A8
100
AcDbEntity
  8
2
370
    50
100
AcDbLine
 10
103.265361
 20
-147.126515
 30
0.0
 11
117.265361
 21
-147.126515
 31
0.0
  0
LINE
  5
3A9
100
AcDbEntity
  8
2
370
    50
100
AcDbLine
 10
102.765361
 20
-147.626515
 30
0.0
 11
103.265361
 21
-147.126515
 31
0.0
  0
LINE
  5
3AA
100
AcDbEntity
  8
2
370
    25
100
AcDbLine
 10
103.7655
 20
-160.925893
 30
0.0
 11
103.7655
 21
-157.925893
 31
0.0
  0
LINE
  5
3AB
100
AcDbEntity
  8
2
370
    50
100
AcDbLine
 10
101.365361
 20
-152.52715
 30
0.0
 11
101.365361
 21
-154.92715
 31
0.0
  0
LINE
  5
3AC
100
AcDbEntity
  8
2
370
    50
100
AcDbLine
 10
101.565361
 20
-152.32715
 30
0.0
 11
101.365361
 21
-152.52715
 31
0.0
  0
LINE
  5
3AD
100
AcDbEntity
  8
2
370
    50
100
AcDbLine
 10
101.565361
 20
-155.12715
 30
0.0
 11
101.365361
 21
-154.92715
 31
0.0
  0
LINE
  5
3AE
100
AcDbEntity
  8
2
370
    50
100
AcDbLine
 10
102.765361
 20
-152.32715
 30
0.0
 11
102.765361
 21
-151.925893
 31
0.0
  0
LINE
  5
3AF
100
AcDbEntity
  8
2
370
    50
100
AcDbLine
 10
102.765361
 20
-147.626515
 30
0.0
 11
102.765361
 21
-148.925893
 31
0.0
  0
LINE
  5
3B0
100
AcDbEntity
  8
2
370
    50
100
AcDbLine
 10
119.165361
 20
-152.526515
 30
0.0
 11
119.165361
 21
-154.926515
 31
0.0
  0
LINE
  5
3B1
100
AcDbEntity
  8
2
370
    50
100
AcDbLine
 10
101.365361
 20
-152.526515
 30
0.0
 11
101.365361
 21
-154.926515
 31
0.0
  0
LINE
  5
3B2
100
AcDbEntity
  8
2
370
    50
100
AcDbLine
 10
101.565361
 20
-152.326515
 30
0.0
 11
101.365361
 21
-152.526515
 31
0.0
  0
LINE
  5
3B3
100
AcDbEntity
  8
2
370
    50
100
AcDbLine
 10
118.965361
 20
-152.326515
 30
0.0
 11
119.165361
 21
-152.526515
 31
0.0
  0
LINE
  5
3B4
100
AcDbEntity
  8
2
370
    50
100
AcDbLine
 10
118.965361
 20
-155.126515
 30
0.0
 11
119.165361
 21
-154.926515
 31
0.0
  0
LINE
  5
3B5
100
AcDbEntity
  8
2
370
    50
100
AcDbLine
 10
119.265361
 20
-160.926515
 30
0.0
 11
101.265361
 21
-160.926515
 31
0.0
  0
LINE
  5
3B6
100
AcDbEntity
  8
2
370
    50
100
AcDbLine
 10
118.565361
 20
-148.926515
 30
0.0
 11
101.965361
 21
-148.926515
 31
0.0
  0
LINE
  5
3B7
100
AcDbEntity
  8
2
370
    50
100
AcDbLine
 10
106.265361
 20
-149.926515
 30
0.0
 11
106.265361
 21
-159.926515
 31
0.0
  0
LINE
  5
3B8
100
AcDbEntity
  8
2
370
    50
100
AcDbLine
 10
114.265361
 20
-149.926515
 30
0.0
 11
114.265361
 21
-159.926515
 31
0.0
  0
LINE
  5
3B9
100
AcDbEntity
  8
2
370
    50
100
AcDbLine
 10
95.765361
 20
-147.926515
 30
0.0
 11
95.765361
 21
-159.926515
 31
0.0
  0
LINE
  5
3BA
100
AcDbEntity
  8
2
370
    50
100
AcDbLine
 10
124.765361
 20
-147.926515
 30
0.0
 11
124.765361
 21
-159.926515
 31
0.0
  0
ARC
  5
3BB
100
AcDbEntity
  8
2
370
    50
100
AcDbCircle
 10
123.765361
 20
-147.926515
 30
0.0
 40
1.0
100
AcDbArc
 50
0.0
 51
90.0
  0
ARC
  5
3BC
100
AcDbEntity
  8
2
370
    50
100
AcDbCircle
 10
96.765361
 20
-147.926515
 30
0.0
 40
1.0
100
AcDbArc
 50
90.0
 51
180.0
  0
ARC
  5
3BD
100
AcDbEntity
  8
2
370
    50
100
AcDbCircle
 10
96.765361
 20
-159.926515
 30
0.0
 40
1.0
100
AcDbArc
 50
180.0
 51
270.0
  0
ARC
  5
3BE
100
AcDbEntity
  8
2
370
    50
100
AcDbCircle
 10
123.765361
 20
-159.926515
 30
0.0
 40
1.0
100
AcDbArc
 50
270.0
 51
360.0
  0
LINE
  5
3BF
100
AcDbEntity
  8
2
370
    50
100
AcDbLine
 10
96.765361
 20
-146.926515
 30
0.0
 11
104.265361
 21
-146.926515
 31
0.0
  0
LINE
  5
3C0
100
AcDbEntity
  8
2
370
    50
100
AcDbLine
 10
116.265361
 20
-146.926515
 30
0.0
 11
123.765361
 21
-146.926515
 31
0.0
  0
LINE
  5
3C1
100
AcDbEntity
  8
2
370
    50
100
AcDbLine
 10
96.765361
 20
-160.926515
 30
0.0
 11
102.765361
 21
-160.926515
 31
0.0
  0
LINE
  5
3C2
100
AcDbEntity
  8
2
370
    50
100
AcDbLine
 10
118.565361
 20
-160.926515
 30
0.0
 11
123.765361
 21
-160.926515
 31
0.0
  0
LINE
  5
3C3
100
AcDbEntity
  8
2
370
    50
100
AcDbLine
 10
118.565361
 20
-151.926515
 30
0.0
 11
114.265361
 21
-151.926515
 31
0.0
  0
LINE
  5
3C4
100
AcDbEntity
  8
2
370
    50
100
AcDbLine
 10
106.265361
 20
-151.926515
 30
0.0
 11
101.965361
 21
-151.926515
 31
0.0
  0
LINE
  5
3C5
100
AcDbEntity
  8
2
370
    50
100
AcDbLine
 10
118.965361
 20
-152.326515
 30
0.0
 11
114.265361
 21
-152.326515
 31
0.0
  0
LINE
  5
3C6
100
AcDbEntity
  8
2
370
    50
100
AcDbLine
 10
106.265361
 20
-152.326515
 30
0.0
 11
101.565361
 21
-152.326515
 31
0.0
  0
LINE
  5
3C7
100
AcDbEntity
  8
2
370
    50
100
AcDbLine
 10
119.165361
 20
-152.526515
 30
0.0
 11
114.265361
 21
-152.526515
 31
0.0
  0
LINE
  5
3C8
100
AcDbEntity
  8
2
370
    50
100
AcDbLine
 10
106.265361
 20
-152.526515
 30
0.0
 11
101.365361
 21
-152.526515
 31
0.0
  0
LINE
  5
3C9
100
AcDbEntity
  8
2
370
    50
100
AcDbLine
 10
119.165361
 20
-154.926515
 30
0.0
 11
114.265361
 21
-154.926515
 31
0.0
  0
LINE
  5
3CA
100
AcDbEntity
  8
2
370
    50
100
AcDbLine
 10
106.265361
 20
-154.926515
 30
0.0
 11
101.365361
 21
-154.926515
 31
0.0
  0
LINE
  5
3CB
100
AcDbEntity
  8
2
370
    50
100
AcDbLine
 10
118.565361
 20
-157.926515
 30
0.0
 11
114.265361
 21
-157.926515
 31
0.0
  0
LINE
  5
3CC
100
AcDbEntity
  8
2
370
    50
100
AcDbLine
 10
106.265361
 20
-157.926515
 30
0.0
 11
101.965361
 21
-157.926515
 31
0.0
  0
ARC
  5
3CD
100
AcDbEntity
  8
2
370
    50
100
AcDbCircle
 10
113.265361
 20
-149.926515
 30
0.0
 40
1.0
100
AcDbArc
 50
0.0
 51
90.0
  0
ARC
  5
3CE
100
AcDbEntity
  8
2
370
    50
100
AcDbCircle
 10
107.265361
 20
-149.926515
 30
0.0
 40
1.0
100
AcDbArc
 50
90.0
 51
180.0
  0
ARC
  5
3CF
100
AcDbEntity
  8
2
370
    50
100
AcDbCircle
 10
107.265361
 20
-159.926515
 30
0.0
 40
1.0
100
AcDbArc
 50
180.0
 51
270.0
  0
ARC
  5
3D0
100
AcDbEntity
  8
2
370
    50
100
AcDbCircle
 10
113.265361
 20
-159.926515
 30
0.0
 40
1.0
100
AcDbArc
 50
270.0
 51
0.0
  0
LINE
  5
3D1
100
AcDbEntity
  8
2
370
    50
100
AcDbLine
 10
101.965361
 20
-148.926515
 30
0.0
 11
101.965361
 21
-151.926515
 31
0.0
  0
LINE
  5
3D2
100
AcDbEntity
  8
2
370
    50
100
AcDbLine
 10
118.565361
 20
-148.926515
 30
0.0
 11
118.565361
 21
-151.926515
 31
0.0
  0
LINE
  5
3D3
100
AcDbEntity
  8
2
370
    50
100
AcDbLine
 10
118.565361
 20
-157.926515
 30
0.0
 11
118.565361
 21
-160.926515
 31
0.0
  0
LINE
  5
3D4
100
AcDbEntity
  8
2
370
    50
100
AcDbLine
 10
101.965361
 20
-157.926515
 30
0.0
 11
101.965361
 21
-160.926515
 31
0.0
  0
LINE
  5
3D5
100
AcDbEntity
  8
2
370
    50
100
AcDbLine
 10
102.765361
 20
-152.326515
 30
0.0
 11
102.765361
 21
-151.926515
 31
0.0
  0
LINE
  5
3D6
100
AcDbEntity
  8
2
370
    50
100
AcDbLine
 10
117.765361
 20
-152.326515
 30
0.0
 11
117.765361
 21
-151.926515
 31
0.0
  0
LINE
  5
3D7
100
AcDbEntity
  8
2
370
    25
100
AcDbLine
 10
105.265361
 20
-160.627098
 30
0.0
 11
105.265361
 21
-158.321877
 31
0.0
  0
LINE
  5
3D8
100
AcDbEntity
  8
2
370
    25
100
AcDbLine
 10
105.26536
 20
-151.665329
 30
0.0
 11
105.265361
 21
-149.233124
 31
0.0
  0
LINE
  5
3D9
100
AcDbEntity
  8
2
370
    25
100
AcDbLine
 10
115.265361
 20
-160.627098
 30
0.0
 11
115.265361
 21
-158.321877
 31
0.0
  0
LINE
  5
3DA
100
AcDbEntity
  8
2
370
    25
100
AcDbLine
 10
115.265361
 20
-151.62265
 30
0.0
 11
115.265361
 21
-149.153603
 31
0.0
  0
LINE
  5
3DB
100
AcDbEntity
  8
2
370
    50
100
AcDbLine
 10
101.465361
 20
-159.926515
 30
0.0
 11
101.465361
 21
-157.326515
 31
0.0
  0
LINE
  5
3DC
100
AcDbEntity
  8
2
370
    50
100
AcDbLine
 10
101.465361
 20
-152.426515
 30
0.0
 11
101.465361
 21
-147.926515
 31
0.0
  0
LINE
  5
3DD
100
AcDbEntity
  8
2
370
    50
100
AcDbLine
 10
119.065361
 20
-159.926515
 30
0.0
 11
119.065361
 21
-157.326515
 31
0.0
  0
LINE
  5
3DE
100
AcDbEntity
  8
2
370
    50
100
AcDbLine
 10
119.065361
 20
-152.426515
 30
0.0
 11
119.065361
 21
-147.926515
 31
0.0
  0
ARC
  5
3DF
100
AcDbEntity
  8
2
370
    50
100
AcDbCircle
 10
102.465361
 20
-147.926515
 30
0.0
 40
1.0
100
AcDbArc
 50
90.0
 51
180.0
  0
ARC
  5
3E0
100
AcDbEntity
  8
2
370
    50
100
AcDbCircle
 10
118.065361
 20
-147.926515
 30
0.0
 40
1.0
100
AcDbArc
 50
0.0
 51
90.0
  0
ARC
  5
3E1
100
AcDbEntity
  8
2
370
    50
100
AcDbCircle
 10
100.465361
 20
-159.926515
 30
0.0
 40
1.0
100
AcDbArc
 50
270.0
 51
0.0
  0
ARC
  5
3E2
100
AcDbEntity
  8
2
370
    50
100
AcDbCircle
 10
120.065361
 20
-159.926515
 30
0.0
 40
1.0
100
AcDbArc
 50
180.0
 51
270.0
  0
LINE
  5
3E3
100
AcDbEntity
  8
2
370
    50
100
AcDbLine
 10
117.765361
 20
-147.626515
 30
0.0
 11
117.765361
 21
-148.925893
 31
0.0
  0
ARC
  5
3E4
100
AcDbEntity
  8
2
370
    50
100
AcDbCircle
 10
118.065361
 20
-147.926515
 30
0.0
 40
1.0
100
AcDbArc
 50
0.0
 51
90.0
  0
LINE
  5
3E5
100
AcDbEntity
  8
2
370
    50
100
AcDbLine
 10
117.765361
 20
-147.626515
 30
0.0
 11
117.265361
 21
-147.126515
 31
0.0
  0
LINE
  5
3E6
100
AcDbEntity
  8
2
370
    50
100
AcDbLine
 10
119.265361
 20
-155.326515
 30
0.0
 11
119.265361
 21
-157.126515
 31
0.0
  0
LINE
  5
3E7
100
AcDbEntity
  8
2
370
    50
100
AcDbLine
 10
101.265361
 20
-155.326515
 30
0.0
 11
101.265361
 21
-157.126515
 31
0.0
  0
LINE
  5
3E8
100
AcDbEntity
  8
2
370
    50
100
AcDbLine
 10
101.265361
 20
-161.326515
 30
0.0
 11
100.265361
 21
-162.326515
 31
0.0
  0
LINE
  5
3E9
100
AcDbEntity
  8
2
370
    50
100
AcDbLine
 10
119.265361
 20
-161.326515
 30
0.0
 11
120.265361
 21
-162.326515
 31
0.0
  0
LINE
  5
3EA
100
AcDbEntity
  8
2
370
    50
100
AcDbLine
 10
119.265361
 20
-161.326515
 30
0.0
 11
101.265361
 21
-161.326515
 31
0.0
  0
LINE
  5
3EB
100
AcDbEntity
  8
2
370
    50
100
AcDbLine
 10
119.065361
 20
-155.126515
 30
0.0
 11
119.265361
 21
-155.326515
 31
0.0
  0
LINE
  5
3EC
100
AcDbEntity
  8
2
370
    50
100
AcDbLine
 10
119.265361
 20
-157.126515
 30
0.0
 11
119.065361
 21
-157.326515
 31
0.0
  0
LINE
  5
3ED
100
AcDbEntity
  8
2
370
    50
100
AcDbLine
 10
101.465361
 20
-155.126515
 30
0.0
 11
101.265361
 21
-155.326515
 31
0.0
  0
LINE
  5
3EE
100
AcDbEntity
  8
2
370
    50
100
AcDbLine
 10
101.265361
 20
-157.126515
 30
0.0
 11
101.465361
 21
-157.326515
 31
0.0
  0
LINE
  5
3EF
100
AcDbEntity
  8
2
370
    25
100
AcDbLine
 10
100.265361
 20
-162.326515
 30
0.0
 11
120.265361
 21
-162.326515
 31
0.0
  0
LINE
  5
3F0
100
AcDbEntity
  8
2
370
    50
100
AcDbLine
 10
102.765361
 20
-161.326515
 30
0.0
 11
102.765361
 21
-160.926515
 31
0.0
  0
LINE
  5
3F1
100
AcDbEntity
  8
2
370
    50
100
AcDbLine
 10
102.765361
 20
-157.926515
 30
0.0
 11
102.765361
 21
-157.326515
 31
0.0
  0
LINE
  5
3F2
100
AcDbEntity
  8
2
370
    50
100
AcDbLine
 10
117.765361
 20
-161.326515
 30
0.0
 11
117.765361
 21
-160.926515
 31
0.0
  0
LINE
  5
3F3
100
AcDbEntity
  8
2
370
    50
100
AcDbLine
 10
117.765361
 20
-157.926515
 30
0.0
 11
117.765361
 21
-157.326515
 31
0.0
  0
LINE
  5
3F4
100
AcDbEntity
  8
2
370
    50
100
AcDbLine
 10
119.065361
 20
-157.326515
 30
0.0
 11
114.265361
 21
-157.326515
 31
0.0
  0
LINE
  5
3F5
100
AcDbEntity
  8
2
370
    50
100
AcDbLine
 10
106.265361
 20
-157.326515
 30
0.0
 11
101.465361
 21
-157.326515
 31
0.0
  0
LINE
  5
3F6
100
AcDbEntity
  8
2
370
    50
100
AcDbLine
 10
119.265361
 20
-157.126515
 30
0.0
 11
114.265361
 21
-157.126515
 31
0.0
  0
LINE
  5
3F7
100
AcDbEntity
  8
2
370
    50
100
AcDbLine
 10
106.265361
 20
-157.126515
 30
0.0
 11
101.265361
 21
-157.126515
 31
0.0
  0
LINE
  5
3F8
100
AcDbEntity
  8
2
370
    50
100
AcDbLine
 10
119.265361
 20
-155.326515
 30
0.0
 11
114.265361
 21
-155.326515
 31
0.0
  0
LINE
  5
3F9
100
AcDbEntity
  8
2
370
    50
100
AcDbLine
 10
106.265361
 20
-155.326515
 30
0.0
 11
101.265361
 21
-155.326515
 31
0.0
  0
LINE
  5
3FA
100
AcDbEntity
  8
2
370
    50
100
AcDbLine
 10
119.065361
 20
-155.126515
 30
0.0
 11
114.265361
 21
-155.126515
 31
0.0
  0
LINE
  5
3FB
100
AcDbEntity
  8
2
370
    50
100
AcDbLine
 10
106.265361
 20
-155.126515
 30
0.0
 11
101.465361
 21
-155.126515
 31
0.0
  0
LINE
  5
3FC
100
AcDbEntity
  8
2
370
    25
100
AcDbLine
 10
116.765221
 20
-160.925893
 30
0.0
 11
116.765221
 21
-157.925893
 31
0.0
  0
LINE
  5
3FD
100
AcDbEntity
  8
2
370
    25
100
AcDbLine
 10
103.7655
 20
-151.926515
 30
0.0
 11
103.7655
 21
-148.926515
 31
0.0
  0
LINE
  5
3FE
100
AcDbEntity
  8
2
370
    25
100
AcDbLine
 10
116.765221
 20
-151.926515
 30
0.0
 11
116.765221
 21
-148.926515
 31
0.0
  0
LINE
  5
3FF
100
AcDbEntity
  8
2
370
    50
100
AcDbLine
 10
120.265361
 20
-162.326515
 30
0.0
 11
120.265361
 21
-171.126515
 31
0.0
  0
LINE
  5
400
100
AcDbEntity
  8
2
370
    50
100
AcDbLine
 10
100.265361
 20
-162.326515
 30
0.0
 11
100.265361
 21
-171.126515
 31
0.0
  0
LINE
  5
401
100
AcDbEntity
  8
2
370
    50
100
AcDbLine
 10
122.265361
 20
-171.126515
 30
0.0
 11
98.265361
 21
-171.126515
 31
0.0
  0
LINE
  5
402
100
AcDbEntity
  8
2
370
    50
100
AcDbLine
 10
123.265361
 20
-172.126515
 30
0.0
 11
123.265361
 21
-181.126515
 31
0.0
  0
LINE
  5
403
100
AcDbEntity
  8
2
370
    50
100
AcDbLine
 10
122.265361
 20
-171.126515
 30
0.0
 11
123.265361
 21
-172.126515
 31
0.0
  0
LINE
  5
404
100
AcDbEntity
  8
2
370
    50
100
AcDbLine
 10
97.265361
 20
-172.126515
 30
0.0
 11
97.265361
 21
-181.126515
 31
0.0
  0
LINE
  5
405
100
AcDbEntity
  8
2
370
    50
100
AcDbLine
 10
98.265361
 20
-171.126515
 30
0.0
 11
97.265361
 21
-172.126515
 31
0.0
  0
LINE
  5
406
100
AcDbEntity
  8
2
370
    50
100
AcDbLine
 10
103.33697
 20
-181.126515
 30
0.0
 11
103.33697
 21
-172.126515
 31
0.0
  0
LINE
  5
407
100
AcDbEntity
  8
2
370
    50
100
AcDbLine
 10
117.193751
 20
-181.126515
 30
0.0
 11
117.193751
 21
-172.126515
 31
0.0
  0
ARC
  5
408
100
AcDbEntity
  8
2
370
    50
100
AcDbCircle
 10
110.265361
 20
-195.627812
 30
0.0
 40
24.501296
100
AcDbArc
 50
73.574016
 51
106.425984
  0
ARC
  5
409
100
AcDbEntity
  8
2
370
    50
100
AcDbCircle
 10
120.229556
 20
-176.234571
 30
0.0
 40
5.108056
100
AcDbArc
 50
53.536034
 51
126.463966
  0
ARC
  5
40A
100
AcDbEntity
  8
2
370
    50
100
AcDbCircle
 10
100.301166
 20
-176.234571
 30
0.0
 40
5.108056
100
AcDbArc
 50
53.536034
 51
126.463966
  0
LINE
  5
40B
100
AcDbEntity
  8
2
370
    50
100
AcDbLine
 10
123.265361
 20
-172.126515
 30
0.0
 11
123.265361
 21
-180.126515
 31
0.0
  0
LINE
  5
40C
100
AcDbEntity
  8
2
370
    50
100
AcDbLine
 10
122.265361
 20
-182.126515
 30
0.0
 11
123.265361
 21
-181.126515
 31
0.0
  0
LINE
  5
40D
100
AcDbEntity
  8
2
370
    50
100
AcDbLine
 10
97.265361
 20
-172.126515
 30
0.0
 11
97.265361
 21
-180.126515
 31
0.0
  0
LINE
  5
40E
100
AcDbEntity
  8
2
370
    50
100
AcDbLine
 10
98.265361
 20
-182.126515
 30
0.0
 11
97.265361
 21
-181.126515
 31
0.0
  0
LINE
  5
40F
100
AcDbEntity
  8
2
370
    50
100
AcDbLine
 10
122.265361
 20
-182.126515
 30
0.0
 11
98.265361
 21
-182.126515
 31
0.0
  0
LINE
  5
410
100
AcDbEntity
  8
2
370
    50
100
AcDbLine
 10
103.33697
 20
-180.126515
 30
0.0
 11
103.33697
 21
-172.126515
 31
0.0
  0
LINE
  5
411
100
AcDbEntity
  8
2
370
    50
100
AcDbLine
 10
117.193751
 20
-180.126515
 30
0.0
 11
117.193751
 21
-172.126515
 31
0.0
  0
ARC
  5
412
100
AcDbEntity
  8
2
370
    50
100
AcDbCircle
 10
110.265361
 20
-157.625219
 30
0.0
 40
24.501296
100
AcDbArc
 50
253.574016
 51
286.425984
  0
ARC
  5
413
100
AcDbEntity
  8
2
370
    50
100
AcDbCircle
 10
100.301166
 20
-177.01846
 30
0.0
 40
5.108056
100
AcDbArc
 50
233.536034
 51
306.463966
  0
ARC
  5
414
100
AcDbEntity
  8
2
370
    50
100
AcDbCircle
 10
120.229556
 20
-177.01846
 30
0.0
 40
5.108056
100
AcDbArc
 50
233.536034
 51
306.463966
  0
LINE
  5
415
100
AcDbEntity
  8
2
370
    25
  6
CENTER
100
AcDbLine
 10
110.264768
 20
-100.782543
 30
0.0
 11
110.264768
 21
-81.494942
 31
0.0
  0
LINE
  5
416
100
AcDbEntity
  8
2
370
    25
  6
CENTER
100
AcDbLine
 10
110.264768
 20
-81.494942
 30
0.0
 11
183.398505
 21
-169.953072
 31
0.0
  0
LINE
  5
417
100
AcDbEntity
  8
2
370
    50
100
AcDbLine
 10
177.398505
 20
-121.329927
 30
0.0
 11
177.398505
 21
-116.007277
 31
0.0
  0
LINE
  5
418
100
AcDbEntity
  8
2
370
    50
100
AcDbLine
 10
189.398505
 20
-121.329927
 30
0.0
 11
189.398505
 21
-116.007277
 31
0.0
  0
LINE
  5
419
100
AcDbEntity
  8
2
370
    50
100
AcDbLine
 10
185.796421
 20
-116.007277
 30
0.0
 11
185.796421
 21
-121.329927
 31
0.0
  0
LINE
  5
41A
100
AcDbEntity
  8
2
370
    50
100
AcDbLine
 10
186.962687
 20
-116.007277
 30
0.0
 11
186.962687
 21
-121.329927
 31
0.0
  0
LINE
  5
41B
100
AcDbEntity
  8
2
370
    50
100
AcDbLine
 10
189.360603
 20
-116.007277
 30
0.0
 11
189.360603
 21
-121.329927
 31
0.0
  0
LINE
  5
41C
100
AcDbEntity
  8
2
370
    50
100
AcDbLine
 10
188.898505
 20
-121.618602
 30
0.0
 11
189.398505
 21
-121.329927
 31
0.0
  0
LINE
  5
41D
100
AcDbEntity
  8
2
370
    50
100
AcDbLine
 10
186.962687
 20
-121.329927
 30
0.0
 11
185.796421
 21
-121.329927
 31
0.0
  0
LINE
  5
41E
100
AcDbEntity
  8
2
370
    50
100
AcDbLine
 10
177.398505
 20
-121.329927
 30
0.0
 11
177.898505
 21
-121.618602
 31
0.0
  0
ARC
  5
41F
100
AcDbEntity
  8
2
370
    50
100
AcDbCircle
 10
183.398505
 20
-111.514972
 30
0.0
 40
10.10363
100
AcDbArc
 50
270.0
 51
283.729133
  0
ARC
  5
420
100
AcDbEntity
  8
2
370
    50
100
AcDbCircle
 10
183.398505
 20
-125.822232
 30
0.0
 40
10.10363
100
AcDbArc
 50
76.270867
 51
90.0
  0
LINE
  5
421
100
AcDbEntity
  8
2
370
    50
100
AcDbLine
 10
186.962687
 20
-116.007277
 30
0.0
 11
185.796421
 21
-116.007277
 31
0.0
  0
LINE
  5
422
100
AcDbEntity
  8
2
370
    50
100
AcDbLine
 10
189.398505
 20
-121.329927
 30
0.0
 11
189.360603
 21
-121.329927
 31
0.0
  0
ARC
  5
423
100
AcDbEntity
  8
2
370
    50
100
AcDbCircle
 10
188.161645
 20
-118.984442
 30
0.0
 40
2.634161
100
AcDbArc
 50
242.924933
 51
297.075067
  0
ARC
  5
424
100
AcDbEntity
  8
2
370
    50
100
AcDbCircle
 10
188.161645
 20
-118.352763
 30
0.0
 40
2.634161
100
AcDbArc
 50
62.924933
 51
117.075067
  0
ARC
  5
425
100
AcDbEntity
  8
2
370
    50
100
AcDbCircle
 10
183.398505
 20
-111.514972
 30
0.0
 40
10.10363
100
AcDbArc
 50
256.270867
 51
270.0
  0
LINE
  5
426
100
AcDbEntity
  8
2
370
    50
100
AcDbLine
 10
179.834323
 20
-121.329927
 30
0.0
 11
181.000589
 21
-121.329927
 31
0.0
  0
ARC
  5
427
100
AcDbEntity
  8
2
370
    50
100
AcDbCircle
 10
178.635365
 20
-118.984442
 30
0.0
 40
2.634161
100
AcDbArc
 50
242.924933
 51
297.075067
  0
LINE
  5
428
100
AcDbEntity
  8
2
370
    50
100
AcDbLine
 10
177.436408
 20
-121.329927
 30
0.0
 11
177.398505
 21
-121.329927
 31
0.0
  0
LINE
  5
429
100
AcDbEntity
  8
2
370
    50
100
AcDbLine
 10
177.898505
 20
-121.618602
 30
0.0
 11
188.898505
 21
-121.618602
 31
0.0
  0
LINE
  5
42A
100
AcDbEntity
  8
2
370
    50
100
AcDbLine
 10
176.798505
 20
-150.618602
 30
0.0
 11
183.398505
 21
-150.618602
 31
0.0
  0
LINE
  5
42B
100
AcDbEntity
  8
2
370
    50
100
AcDbLine
 10
176.798505
 20
-145.118602
 30
0.0
 11
183.398505
 21
-145.118602
 31
0.0
  0
LINE
  5
42C
100
AcDbEntity
  8
2
370
    50
100
AcDbLine
 10
176.798505
 20
-143.118602
 30
0.0
 11
183.398505
 21
-143.118602
 31
0.0
  0
LINE
  5
42D
100
AcDbEntity
  8
2
370
    50
100
AcDbLine
 10
176.798505
 20
-138.118602
 30
0.0
 11
183.398505
 21
-138.118602
 31
0.0
  0
LINE
  5
42E
100
AcDbEntity
  8
2
370
    50
100
AcDbLine
 10
176.798505
 20
-136.118602
 30
0.0
 11
183.398505
 21
-136.118602
 31
0.0
  0
LINE
  5
42F
100
AcDbEntity
  8
2
370
    50
100
AcDbLine
 10
176.798505
 20
-131.118602
 30
0.0
 11
183.398505
 21
-131.118602
 31
0.0
  0
LINE
  5
430
100
AcDbEntity
  8
2
370
    50
100
AcDbLine
 10
176.798505
 20
-129.118602
 30
0.0
 11
183.398505
 21
-129.118602
 31
0.0
  0
LINE
  5
431
100
AcDbEntity
  8
2
370
    50
100
AcDbLine
 10
176.398505
 20
-149.818602
 30
0.0
 11
176.398505
 21
-145.918602
 31
0.0
  0
LINE
  5
432
100
AcDbEntity
  8
2
370
    50
100
AcDbLine
 10
176.398505
 20
-142.318602
 30
0.0
 11
176.398505
 21
-138.918602
 31
0.0
  0
LINE
  5
433
100
AcDbEntity
  8
2
370
    50
100
AcDbLine
 10
176.398505
 20
-135.318602
 30
0.0
 11
176.398505
 21
-131.918602
 31
0.0
  0
LINE
  5
434
100
AcDbEntity
  8
2
370
    50
100
AcDbLine
 10
176.398505
 20
-128.318602
 30
0.0
 11
176.398505
 21
-122.418602
 31
0.0
  0
LINE
  5
435
100
AcDbEntity
  8
2
370
    50
100
AcDbLine
 10
176.798505
 20
-131.118602
 30
0.0
 11
176.798505
 21
-129.118602
 31
0.0
  0
LINE
  5
436
100
AcDbEntity
  8
2
370
    50
100
AcDbLine
 10
176.798505
 20
-145.118602
 30
0.0
 11
176.798505
 21
-143.118602
 31
0.0
  0
LINE
  5
437
100
AcDbEntity
  8
2
370
    50
100
AcDbLine
 10
176.798505
 20
-138.118602
 30
0.0
 11
176.798505
 21
-136.118602
 31
0.0
  0
ARC
  5
438
100
AcDbEntity
  8
2
370
    50
100
AcDbCircle
 10
177.398505
 20
-128.318602
 30
0.0
 40
1.0
100
AcDbArc
 50
180.0
 51
233.130102
  0
ARC
  5
439
100
AcDbEntity
  8
2
370
    50
100
AcDbCircle
 10
177.398505
 20
-131.918602
 30
0.0
 40
1.0
100
AcDbArc
 50
126.869898
 51
180.0
  0
ARC
  5
43A
100
AcDbEntity
  8
2
370
    50
100
AcDbCircle
 10
177.398505
 20
-135.318602
 30
0.0
 40
1.0
100
AcDbArc
 50
180.0
 51
233.130102
  0
ARC
  5
43B
100
AcDbEntity
  8
2
370
    50
100
AcDbCircle
 10
177.398505
 20
-138.918602
 30
0.0
 40
1.0
100
AcDbArc
 50
126.869898
 51
180.0
  0
ARC
  5
43C
100
AcDbEntity
  8
2
370
    50
100
AcDbCircle
 10
177.398505
 20
-142.318602
 30
0.0
 40
1.0
100
AcDbArc
 50
180.0
 51
233.130102
  0
ARC
  5
43D
100
AcDbEntity
  8
2
370
    50
100
AcDbCircle
 10
177.398505
 20
-145.918602
 30
0.0
 40
1.0
100
AcDbArc
 50
126.869898
 51
180.0
  0
ARC
  5
43E
100
AcDbEntity
  8
2
370
    50
100
AcDbCircle
 10
177.398505
 20
-149.818602
 30
0.0
 40
1.0
100
AcDbArc
 50
180.0
 51
233.130102
  0
LINE
  5
43F
100
AcDbEntity
  8
2
370
    50
100
AcDbLine
 10
189.998505
 20
-150.618602
 30
0.0
 11
183.398505
 21
-150.618602
 31
0.0
  0
ARC
  5
440
100
AcDbEntity
  8
2
370
    50
100
AcDbCircle
 10
189.398505
 20
-149.818602
 30
0.0
 40
1.0
100
AcDbArc
 50
306.869898
 51
360.0
  0
LINE
  5
441
100
AcDbEntity
  8
2
370
    50
100
AcDbLine
 10
190.398505
 20
-149.818602
 30
0.0
 11
190.398505
 21
-145.918602
 31
0.0
  0
ARC
  5
442
100
AcDbEntity
  8
2
370
    50
100
AcDbCircle
 10
189.398505
 20
-145.918602
 30
0.0
 40
1.0
100
AcDbArc
 50
360.0
 51
53.130102
  0
LINE
  5
443
100
AcDbEntity
  8
2
370
    50
100
AcDbLine
 10
189.998505
 20
-145.118602
 30
0.0
 11
189.998505
 21
-143.118602
 31
0.0
  0
LINE
  5
444
100
AcDbEntity
  8
2
370
    50
100
AcDbLine
 10
189.998505
 20
-145.118602
 30
0.0
 11
183.398505
 21
-145.118602
 31
0.0
  0
LINE
  5
445
100
AcDbEntity
  8
2
370
    50
100
AcDbLine
 10
189.998505
 20
-143.118602
 30
0.0
 11
183.398505
 21
-143.118602
 31
0.0
  0
ARC
  5
446
100
AcDbEntity
  8
2
370
    50
100
AcDbCircle
 10
189.398505
 20
-142.318602
 30
0.0
 40
1.0
100
AcDbArc
 50
306.869898
 51
360.0
  0
LINE
  5
447
100
AcDbEntity
  8
2
370
    50
100
AcDbLine
 10
190.398505
 20
-142.318602
 30
0.0
 11
190.398505
 21
-138.918602
 31
0.0
  0
ARC
  5
448
100
AcDbEntity
  8
2
370
    50
100
AcDbCircle
 10
189.398505
 20
-138.918602
 30
0.0
 40
1.0
100
AcDbArc
 50
360.0
 51
53.130102
  0
LINE
  5
449
100
AcDbEntity
  8
2
370
    50
100
AcDbLine
 10
189.998505
 20
-138.118602
 30
0.0
 11
183.398505
 21
-138.118602
 31
0.0
  0
LINE
  5
44A
100
AcDbEntity
  8
2
370
    50
100
AcDbLine
 10
189.998505
 20
-138.118602
 30
0.0
 11
189.998505
 21
-136.118602
 31
0.0
  0
LINE
  5
44B
100
AcDbEntity
  8
2
370
    50
100
AcDbLine
 10
189.998505
 20
-136.118602
 30
0.0
 11
183.398505
 21
-136.118602
 31
0.0
  0
ARC
  5
44C
100
AcDbEntity
  8
2
370
    50
100
AcDbCircle
 10
189.398505
 20
-135.318602
 30
0.0
 40
1.0
100
AcDbArc
 50
306.869898
 51
360.0
  0
LINE
  5
44D
100
AcDbEntity
  8
2
370
    50
100
AcDbLine
 10
190.398505
 20
-135.318602
 30
0.0
 11
190.398505
 21
-131.918602
 31
0.0
  0
ARC
  5
44E
100
AcDbEntity
  8
2
370
    50
100
AcDbCircle
 10
189.398505
 20
-131.918602
 30
0.0
 40
1.0
100
AcDbArc
 50
360.0
 51
53.130102
  0
LINE
  5
44F
100
AcDbEntity
  8
2
370
    50
100
AcDbLine
 10
189.998505
 20
-131.118602
 30
0.0
 11
183.398505
 21
-131.118602
 31
0.0
  0
LINE
  5
450
100
AcDbEntity
  8
2
370
    50
100
AcDbLine
 10
189.998505
 20
-131.118602
 30
0.0
 11
189.998505
 21
-129.118602
 31
0.0
  0
LINE
  5
451
100
AcDbEntity
  8
2
370
    50
100
AcDbLine
 10
189.998505
 20
-129.118602
 30
0.0
 11
183.398505
 21
-129.118602
 31
0.0
  0
ARC
  5
452
100
AcDbEntity
  8
2
370
    50
100
AcDbCircle
 10
189.398505
 20
-128.318602
 30
0.0
 40
1.0
100
AcDbArc
 50
306.869898
 51
360.0
  0
LINE
  5
453
100
AcDbEntity
  8
2
370
    50
100
AcDbLine
 10
190.398505
 20
-128.318602
 30
0.0
 11
190.398505
 21
-122.418602
 31
0.0
  0
ARC
  5
454
100
AcDbEntity
  8
2
370
    50
100
AcDbCircle
 10
189.398505
 20
-122.418602
 30
0.0
 40
1.0
100
AcDbArc
 50
360.0
 51
53.130102
  0
LINE
  5
455
100
AcDbEntity
  8
2
370
    50
100
AcDbLine
 10
176.798505
 20
-121.618602
 30
0.0
 11
189.998505
 21
-121.618602
 31
0.0
  0
ARC
  5
456
100
AcDbEntity
  8
2
370
    50
100
AcDbCircle
 10
177.398505
 20
-122.418602
 30
0.0
 40
1.0
100
AcDbArc
 50
126.869898
 51
180.0
  0
LINE
  5
457
100
AcDbEntity
  8
2
370
    50
100
AcDbLine
 10
176.948505
 20
-157.966609
 30
0.0
 11
176.948505
 21
-150.618602
 31
0.0
  0
LINE
  5
458
100
AcDbEntity
  8
2
370
    50
100
AcDbLine
 10
189.848505
 20
-157.966609
 30
0.0
 11
189.848505
 21
-150.618602
 31
0.0
  0
ARC
  5
459
100
AcDbEntity
  8
2
370
    50
100
AcDbCircle
 10
183.398505
 20
-125.822232
 30
0.0
 40
10.10363
100
AcDbArc
 50
90.0
 51
103.729133
  0
LINE
  5
45A
100
AcDbEntity
  8
2
370
    50
100
AcDbLine
 10
179.834323
 20
-116.007277
 30
0.0
 11
181.000589
 21
-116.007277
 31
0.0
  0
ARC
  5
45B
100
AcDbEntity
  8
2
370
    50
100
AcDbCircle
 10
178.635365
 20
-118.352763
 30
0.0
 40
2.634161
100
AcDbArc
 50
62.924933
 51
117.075067
  0
LINE
  5
45C
100
AcDbEntity
  8
2
370
    50
100
AcDbLine
 10
181.000589
 20
-116.007277
 30
0.0
 11
181.000589
 21
-121.329927
 31
0.0
  0
LINE
  5
45D
100
AcDbEntity
  8
2
370
    50
100
AcDbLine
 10
179.834323
 20
-116.007277
 30
0.0
 11
179.834323
 21
-121.329927
 31
0.0
  0
LINE
  5
45E
100
AcDbEntity
  8
2
370
    50
100
AcDbLine
 10
177.436408
 20
-116.007277
 30
0.0
 11
177.436408
 21
-121.329927
 31
0.0
  0
ARC
  5
45F
100
AcDbEntity
  8
2
370
    50
100
AcDbCircle
 10
180.17355
 20
-153.666549
 30
0.0
 40
5.375075
100
AcDbArc
 50
233.130102
 51
306.869898
  0
ARC
  5
460
100
AcDbEntity
  8
2
370
    50
100
AcDbCircle
 10
186.623641
 20
-162.266669
 30
0.0
 40
5.375075
100
AcDbArc
 50
53.130102
 51
126.869898
  0
ARC
  5
461
100
AcDbEntity
  8
2
370
    50
100
AcDbCircle
 10
180.17355
 20
-162.266669
 30
0.0
 40
5.375075
100
AcDbArc
 50
53.130102
 51
126.869898
  0
LINE
  5
462
100
AcDbEntity
  8
2
370
    50
100
AcDbLine
 10
177.898505
 20
-115.718602
 30
0.0
 11
177.398505
 21
-116.007277
 31
0.0
  0
LINE
  5
463
100
AcDbEntity
  8
2
370
    50
100
AcDbLine
 10
110.265021
 20
-146.125417
 30
0.0
 11
103.664768
 21
-146.125417
 31
0.0
  0
LINE
  5
464
100
AcDbEntity
  8
2
370
    50
100
AcDbLine
 10
110.265021
 20
-146.125417
 30
0.0
 11
116.864768
 21
-146.125417
 31
0.0
  0
LINE
  5
465
100
AcDbEntity
  8
2
370
    50
100
AcDbLine
 10
103.664768
 20
-117.125417
 30
0.0
 11
110.264768
 21
-117.125417
 31
0.0
  0
LINE
  5
466
100
AcDbEntity
  8
2
370
    50
100
AcDbLine
 10
103.664768
 20
-122.625417
 30
0.0
 11
110.264768
 21
-122.625417
 31
0.0
  0
LINE
  5
467
100
AcDbEntity
  8
2
370
    50
100
AcDbLine
 10
103.664768
 20
-124.625417
 30
0.0
 11
110.264768
 21
-124.625417
 31
0.0
  0
LINE
  5
468
100
AcDbEntity
  8
2
370
    50
100
AcDbLine
 10
103.664768
 20
-129.625417
 30
0.0
 11
110.264768
 21
-129.625417
 31
0.0
  0
LINE
  5
469
100
AcDbEntity
  8
2
370
    50
100
AcDbLine
 10
103.664768
 20
-131.625417
 30
0.0
 11
110.264768
 21
-131.625417
 31
0.0
  0
LINE
  5
46A
100
AcDbEntity
  8
2
370
    50
100
AcDbLine
 10
103.664768
 20
-136.625417
 30
0.0
 11
110.264768
 21
-136.625417
 31
0.0
  0
LINE
  5
46B
100
AcDbEntity
  8
2
370
    50
100
AcDbLine
 10
103.664768
 20
-138.625417
 30
0.0
 11
110.264768
 21
-138.625417
 31
0.0
  0
LINE
  5
46C
100
AcDbEntity
  8
2
370
    50
100
AcDbLine
 10
103.264768
 20
-117.925417
 30
0.0
 11
103.264768
 21
-121.825417
 31
0.0
  0
LINE
  5
46D
100
AcDbEntity
  8
2
370
    50
100
AcDbLine
 10
103.264768
 20
-125.425417
 30
0.0
 11
103.264768
 21
-128.825417
 31
0.0
  0
LINE
  5
46E
100
AcDbEntity
  8
2
370
    50
100
AcDbLine
 10
103.264768
 20
-132.425417
 30
0.0
 11
103.264768
 21
-135.825417
 31
0.0
  0
LINE
  5
46F
100
AcDbEntity
  8
2
370
    50
100
AcDbLine
 10
103.264768
 20
-139.425417
 30
0.0
 11
103.264768
 21
-145.325417
 31
0.0
  0
LINE
  5
470
100
AcDbEntity
  8
2
370
    50
100
AcDbLine
 10
103.664768
 20
-136.625417
 30
0.0
 11
103.664768
 21
-138.625417
 31
0.0
  0
LINE
  5
471
100
AcDbEntity
  8
2
370
    50
100
AcDbLine
 10
103.664768
 20
-122.625417
 30
0.0
 11
103.664768
 21
-124.625417
 31
0.0
  0
LINE
  5
472
100
AcDbEntity
  8
2
370
    50
100
AcDbLine
 10
103.664768
 20
-129.625417
 30
0.0
 11
103.664768
 21
-131.625417
 31
0.0
  0
ARC
  5
473
100
AcDbEntity
  8
2
370
    50
100
AcDbCircle
 10
104.264768
 20
-139.425417
 30
0.0
 40
1.0
100
AcDbArc
 50
126.869898
 51
180.0
  0
ARC
  5
474
100
AcDbEntity
  8
2
370
    50
100
AcDbCircle
 10
104.264768
 20
-135.825417
 30
0.0
 40
1.0
100
AcDbArc
 50
180.0
 51
233.130102
  0
ARC
  5
475
100
AcDbEntity
  8
2
370
    50
100
AcDbCircle
 10
104.264768
 20
-132.425417
 30
0.0
 40
1.0
100
AcDbArc
 50
126.869898
 51
180.0
  0
ARC
  5
476
100
AcDbEntity
  8
2
370
    50
100
AcDbCircle
 10
104.264768
 20
-128.825417
 30
0.0
 40
1.0
100
AcDbArc
 50
180.0
 51
233.130102
  0
ARC
  5
477
100
AcDbEntity
  8
2
370
    50
100
AcDbCircle
 10
104.264768
 20
-125.425417
 30
0.0
 40
1.0
100
AcDbArc
 50
126.869898
 51
180.0
  0
ARC
  5
478
100
AcDbEntity
  8
2
370
    50
100
AcDbCircle
 10
104.264768
 20
-121.825417
 30
0.0
 40
1.0
100
AcDbArc
 50
180.0
 51
233.130102
  0
ARC
  5
479
100
AcDbEntity
  8
2
370
    50
100
AcDbCircle
 10
104.264768
 20
-117.925417
 30
0.0
 40
1.0
100
AcDbArc
 50
126.869898
 51
180.0
  0
LINE
  5
47A
100
AcDbEntity
  8
2
370
    50
100
AcDbLine
 10
116.864768
 20
-117.125417
 30
0.0
 11
110.264768
 21
-117.125417
 31
0.0
  0
ARC
  5
47B
100
AcDbEntity
  8
2
370
    50
100
AcDbCircle
 10
116.264768
 20
-117.925417
 30
0.0
 40
1.0
100
AcDbArc
 50
0.0
 51
53.130102
  0
LINE
  5
47C
100
AcDbEntity
  8
2
370
    50
100
AcDbLine
 10
117.264768
 20
-117.925417
 30
0.0
 11
117.264768
 21
-121.825417
 31
0.0
  0
ARC
  5
47D
100
AcDbEntity
  8
2
370
    50
100
AcDbCircle
 10
116.264768
 20
-121.825417
 30
0.0
 40
1.0
100
AcDbArc
 50
306.869898
 51
0.0
  0
LINE
  5
47E
100
AcDbEntity
  8
2
370
    50
100
AcDbLine
 10
116.864768
 20
-122.625417
 30
0.0
 11
116.864768
 21
-124.625417
 31
0.0
  0
LINE
  5
47F
100
AcDbEntity
  8
2
370
    50
100
AcDbLine
 10
116.864768
 20
-122.625417
 30
0.0
 11
110.264768
 21
-122.625417
 31
0.0
  0
LINE
  5
480
100
AcDbEntity
  8
2
370
    50
100
AcDbLine
 10
116.864768
 20
-124.625417
 30
0.0
 11
110.264768
 21
-124.625417
 31
0.0
  0
ARC
  5
481
100
AcDbEntity
  8
2
370
    50
100
AcDbCircle
 10
116.264768
 20
-125.425417
 30
0.0
 40
1.0
100
AcDbArc
 50
0.0
 51
53.130102
  0
LINE
  5
482
100
AcDbEntity
  8
2
370
    50
100
AcDbLine
 10
117.264768
 20
-125.425417
 30
0.0
 11
117.264768
 21
-128.825417
 31
0.0
  0
ARC
  5
483
100
AcDbEntity
  8
2
370
    50
100
AcDbCircle
 10
116.264768
 20
-128.825417
 30
0.0
 40
1.0
100
AcDbArc
 50
306.869898
 51
0.0
  0
LINE
  5
484
100
AcDbEntity
  8
2
370
    50
100
AcDbLine
 10
116.864768
 20
-129.625417
 30
0.0
 11
110.264768
 21
-129.625417
 31
0.0
  0
LINE
  5
485
100
AcDbEntity
  8
2
370
    50
100
AcDbLine
 10
116.864768
 20
-129.625417
 30
0.0
 11
116.864768
 21
-131.625417
 31
0.0
  0
LINE
  5
486
100
AcDbEntity
  8
2
370
    50
100
AcDbLine
 10
116.864768
 20
-131.625417
 30
0.0
 11
110.264768
 21
-131.625417
 31
0.0
  0
ARC
  5
487
100
AcDbEntity
  8
2
370
    50
100
AcDbCircle
 10
116.264768
 20
-132.425417
 30
0.0
 40
1.0
100
AcDbArc
 50
0.0
 51
53.130102
  0
LINE
  5
488
100
AcDbEntity
  8
2
370
    50
100
AcDbLine
 10
117.264768
 20
-132.425417
 30
0.0
 11
117.264768
 21
-135.825417
 31
0.0
  0
ARC
  5
489
100
AcDbEntity
  8
2
370
    50
100
AcDbCircle
 10
116.264768
 20
-135.825417
 30
0.0
 40
1.0
100
AcDbArc
 50
306.869898
 51
0.0
  0
LINE
  5
48A
100
AcDbEntity
  8
2
370
    50
100
AcDbLine
 10
116.864768
 20
-136.625417
 30
0.0
 11
110.264768
 21
-136.625417
 31
0.0
  0
LINE
  5
48B
100
AcDbEntity
  8
2
370
    50
100
AcDbLine
 10
116.864768
 20
-136.625417
 30
0.0
 11
116.864768
 21
-138.625417
 31
0.0
  0
LINE
  5
48C
100
AcDbEntity
  8
2
370
    50
100
AcDbLine
 10
116.864768
 20
-138.625417
 30
0.0
 11
110.264768
 21
-138.625417
 31
0.0
  0
ARC
  5
48D
100
AcDbEntity
  8
2
370
    50
100
AcDbCircle
 10
116.264768
 20
-139.425417
 30
0.0
 40
1.0
100
AcDbArc
 50
0.0
 51
53.130102
  0
LINE
  5
48E
100
AcDbEntity
  8
2
370
    50
100
AcDbLine
 10
117.264768
 20
-139.425417
 30
0.0
 11
117.264768
 21
-145.325417
 31
0.0
  0
ARC
  5
48F
100
AcDbEntity
  8
2
370
    50
100
AcDbCircle
 10
104.264768
 20
-145.325417
 30
0.0
 40
1.0
100
AcDbArc
 50
180.0
 51
233.130102
  0
ARC
  5
490
100
AcDbEntity
  8
2
370
    50
100
AcDbCircle
 10
116.264768
 20
-145.325417
 30
0.0
 40
1.0
100
AcDbArc
 50
306.869898
 51
0.0
  0
LINE
  5
491
100
AcDbEntity
  8
2
370
    50
100
AcDbLine
 10
103.814768
 20
-117.125417
 30
0.0
 11
103.814768
 21
-98.614601
 31
0.0
  0
LINE
  5
492
100
AcDbEntity
  8
2
370
    50
100
AcDbLine
 10
116.714768
 20
-117.125417
 30
0.0
 11
116.714768
 21
-98.614601
 31
0.0
  0
LINE
  5
493
100
AcDbEntity
  8
2
370
    50
100
AcDbLine
 10
104.014768
 20
-147.125417
 30
0.0
 11
104.014768
 21
-146.125417
 31
0.0
  0
LINE
  5
494
100
AcDbEntity
  8
2
370
    50
100
AcDbLine
 10
116.514768
 20
-147.125417
 30
0.0
 11
116.514768
 21
-146.125417
 31
0.0
  0
ARC
  5
495
100
AcDbEntity
  8
2
370
    50
100
AcDbCircle
 10
107.039768
 20
-94.314601
 30
0.0
 40
5.375
100
AcDbArc
 50
233.130102
 51
306.869898
  0
ARC
  5
496
100
AcDbEntity
  8
2
370
    50
100
AcDbCircle
 10
113.489768
 20
-102.914601
 30
0.0
 40
5.375
100
AcDbArc
 50
53.130102
 51
126.869898
  0
ARC
  5
497
100
AcDbEntity
  8
2
370
    50
100
AcDbCircle
 10
113.489768
 20
-94.314601
 30
0.0
 40
5.375
100
AcDbArc
 50
233.130102
 51
306.869898
  0
LINE
  5
498
100
AcDbEntity
  8
2
370
    25
  6
CENTER
100
AcDbLine
 10
-146.086101
 20
-99.16663
 30
0.0
 11
-146.086101
 21
-120.715321
 31
0.0
  0
LINE
  5
499
100
AcDbEntity
  8
2
370
    50
100
AcDbLine
 10
-137.836101
 20
-125.718691
 30
0.0
 11
-131.586101
 21
-125.718691
 31
0.0
  0
LINE
  5
49A
100
AcDbEntity
  8
2
370
    50
100
AcDbLine
 10
-126.336101
 20
-125.718691
 30
0.0
 11
-132.586101
 21
-125.718691
 31
0.0
  0
LINE
  5
49B
100
AcDbEntity
  8
2
370
    50
100
AcDbLine
 10
-126.336101
 20
-125.718691
 30
0.0
 11
-132.586101
 21
-125.718691
 31
0.0
  0
LINE
  5
49C
100
AcDbEntity
  8
2
370
    50
100
AcDbLine
 10
-137.836101
 20
-125.718691
 30
0.0
 11
-131.586101
 21
-125.718691
 31
0.0
  0
LINE
  5
49D
100
AcDbEntity
  8
2
370
    50
100
AcDbLine
 10
-126.336101
 20
-125.718691
 30
0.0
 11
-132.586101
 21
-125.718691
 31
0.0
  0
LINE
  5
49E
100
AcDbEntity
  8
2
370
    50
100
AcDbLine
 10
-126.336101
 20
-125.718691
 30
0.0
 11
-132.586101
 21
-125.718691
 31
0.0
  0
LINE
  5
49F
100
AcDbEntity
  8
2
370
    25
  6
CENTER
100
AcDbLine
 10
-146.086101
 20
-160.234852
 30
0.0
 11
-146.086101
 21
-187.218694
 31
0.0
  0
LINE
  5
4A0
100
AcDbEntity
  8
2
370
    25
  6
CENTER
100
AcDbLine
 10
-204.219838
 20
-81.055919
 30
0.0
 11
-204.219838
 21
-101.335339
 31
0.0
  0
ARC
  5
4A1
100
AcDbEntity
  8
2
370
    50
100
AcDbCircle
 10
-210.019838
 20
-146.927286
 30
0.0
 40
0.2
100
AcDbArc
 50
180.0
 51
270.0
  0
ARC
  5
4A2
100
AcDbEntity
  8
2
370
    50
100
AcDbCircle
 10
-198.419838
 20
-146.927286
 30
0.0
 40
0.2
100
AcDbArc
 50
270.0
 51
360.0
  0
LINE
  5
4A3
100
AcDbEntity
  8
2
370
    50
100
AcDbLine
 10
-197.219838
 20
-147.127286
 30
0.0
 11
-211.219838
 21
-147.127286
 31
0.0
  0
ARC
  5
4A4
100
AcDbEntity
  8
2
370
    50
100
AcDbCircle
 10
-198.419245
 20
-146.926604
 30
0.0
 40
0.2
100
AcDbArc
 50
270.0
 51
360.0
  0
ARC
  5
4A5
100
AcDbEntity
  8
2
370
    50
100
AcDbCircle
 10
-210.019245
 20
-146.926604
 30
0.0
 40
0.2
100
AcDbArc
 50
180.0
 51
270.0
  0
LINE
  5
4A6
100
AcDbEntity
  8
2
370
    50
100
AcDbLine
 10
-211.219245
 20
-147.126604
 30
0.0
 11
-197.219245
 21
-147.126604
 31
0.0
  0
LINE
  5
4A7
100
AcDbEntity
  8
2
370
    50
100
AcDbLine
 10
-211.719245
 20
-147.626604
 30
0.0
 11
-211.219245
 21
-147.126604
 31
0.0
  0
LINE
  5
4A8
100
AcDbEntity
  8
2
370
    25
100
AcDbLine
 10
-210.719105
 20
-160.925982
 30
0.0
 11
-210.719105
 21
-157.925982
 31
0.0
  0
LINE
  5
4A9
100
AcDbEntity
  8
2
370
    50
100
AcDbLine
 10
-213.119245
 20
-152.527239
 30
0.0
 11
-213.119245
 21
-154.927239
 31
0.0
  0
LINE
  5
4AA
100
AcDbEntity
  8
2
370
    50
100
AcDbLine
 10
-212.919245
 20
-152.327239
 30
0.0
 11
-213.119245
 21
-152.527239
 31
0.0
  0
LINE
  5
4AB
100
AcDbEntity
  8
2
370
    50
100
AcDbLine
 10
-212.919245
 20
-155.127239
 30
0.0
 11
-213.119245
 21
-154.927239
 31
0.0
  0
LINE
  5
4AC
100
AcDbEntity
  8
2
370
    50
100
AcDbLine
 10
-211.719245
 20
-152.327239
 30
0.0
 11
-211.719245
 21
-151.925982
 31
0.0
  0
LINE
  5
4AD
100
AcDbEntity
  8
2
370
    50
100
AcDbLine
 10
-211.719245
 20
-147.626604
 30
0.0
 11
-211.719245
 21
-148.925982
 31
0.0
  0
LINE
  5
4AE
100
AcDbEntity
  8
2
370
    50
100
AcDbLine
 10
-195.319245
 20
-152.526604
 30
0.0
 11
-195.319245
 21
-154.926604
 31
0.0
  0
LINE
  5
4AF
100
AcDbEntity
  8
2
370
    50
100
AcDbLine
 10
-213.119245
 20
-152.526604
 30
0.0
 11
-213.119245
 21
-154.926604
 31
0.0
  0
LINE
  5
4B0
100
AcDbEntity
  8
2
370
    50
100
AcDbLine
 10
-212.919245
 20
-152.326604
 30
0.0
 11
-213.119245
 21
-152.526604
 31
0.0
  0
LINE
  5
4B1
100
AcDbEntity
  8
2
370
    50
100
AcDbLine
 10
-195.519245
 20
-152.326604
 30
0.0
 11
-195.319245
 21
-152.526604
 31
0.0
  0
LINE
  5
4B2
100
AcDbEntity
  8
2
370
    50
100
AcDbLine
 10
-195.519245
 20
-155.126604
 30
0.0
 11
-195.319245
 21
-154.926604
 31
0.0
  0
LINE
  5
4B3
100
AcDbEntity
  8
2
370
    50
100
AcDbLine
 10
-195.219245
 20
-160.926604
 30
0.0
 11
-213.219245
 21
-160.926604
 31
0.0
  0
LINE
  5
4B4
100
AcDbEntity
  8
2
370
    50
100
AcDbLine
 10
-195.919245
 20
-148.926604
 30
0.0
 11
-212.519245
 21
-148.926604
 31
0.0
  0
LINE
  5
4B5
100
AcDbEntity
  8
2
370
    50
100
AcDbLine
 10
-208.219245
 20
-149.926604
 30
0.0
 11
-208.219245
 21
-159.926604
 31
0.0
  0
LINE
  5
4B6
100
AcDbEntity
  8
2
370
    50
100
AcDbLine
 10
-200.219245
 20
-149.926604
 30
0.0
 11
-200.219245
 21
-159.926604
 31
0.0
  0
LINE
  5
4B7
100
AcDbEntity
  8
2
370
    50
100
AcDbLine
 10
-218.719245
 20
-147.926604
 30
0.0
 11
-218.719245
 21
-159.926604
 31
0.0
  0
LINE
  5
4B8
100
AcDbEntity
  8
2
370
    50
100
AcDbLine
 10
-189.719245
 20
-147.926604
 30
0.0
 11
-189.719245
 21
-159.926604
 31
0.0
  0
ARC
  5
4B9
100
AcDbEntity
  8
2
370
    50
100
AcDbCircle
 10
-190.719245
 20
-147.926604
 30
0.0
 40
1.0
100
AcDbArc
 50
0.0
 51
90.0
  0
ARC
  5
4BA
100
AcDbEntity
  8
2
370
    50
100
AcDbCircle
 10
-217.719245
 20
-147.926604
 30
0.0
 40
1.0
100
AcDbArc
 50
90.0
 51
180.0
  0
ARC
  5
4BB
100
AcDbEntity
  8
2
370
    50
100
AcDbCircle
 10
-217.719245
 20
-159.926604
 30
0.0
 40
1.0
100
AcDbArc
 50
180.0
 51
270.0
  0
ARC
  5
4BC
100
AcDbEntity
  8
2
370
    50
100
AcDbCircle
 10
-190.719245
 20
-159.926604
 30
0.0
 40
1.0
100
AcDbArc
 50
270.0
 51
360.0
  0
LINE
  5
4BD
100
AcDbEntity
  8
2
370
    50
100
AcDbLine
 10
-217.719245
 20
-146.926604
 30
0.0
 11
-210.219245
 21
-146.926604
 31
0.0
  0
LINE
  5
4BE
100
AcDbEntity
  8
2
370
    50
100
AcDbLine
 10
-198.219245
 20
-146.926604
 30
0.0
 11
-190.719245
 21
-146.926604
 31
0.0
  0
LINE
  5
4BF
100
AcDbEntity
  8
2
370
    50
100
AcDbLine
 10
-217.719245
 20
-160.926604
 30
0.0
 11
-211.719245
 21
-160.926604
 31
0.0
  0
LINE
  5
4C0
100
AcDbEntity
  8
2
370
    50
100
AcDbLine
 10
-195.919245
 20
-160.926604
 30
0.0
 11
-190.719245
 21
-160.926604
 31
0.0
  0
LINE
  5
4C1
100
AcDbEntity
  8
2
370
    50
100
AcDbLine
 10
-195.919245
 20
-151.926604
 30
0.0
 11
-200.219245
 21
-151.926604
 31
0.0
  0
LINE
  5
4C2
100
AcDbEntity
  8
2
370
    50
100
AcDbLine
 10
-208.219245
 20
-151.926604
 30
0.0
 11
-212.519245
 21
-151.926604
 31
0.0
  0
LINE
  5
4C3
100
AcDbEntity
  8
2
370
    50
100
AcDbLine
 10
-195.519245
 20
-152.326604
 30
0.0
 11
-200.219245
 21
-152.326604
 31
0.0
  0
LINE
  5
4C4
100
AcDbEntity
  8
2
370
    50
100
AcDbLine
 10
-208.219245
 20
-152.326604
 30
0.0
 11
-212.919245
 21
-152.326604
 31
0.0
  0
LINE
  5
4C5
100
AcDbEntity
  8
2
370
    50
100
AcDbLine
 10
-195.319245
 20
-152.526604
 30
0.0
 11
-200.219245
 21
-152.526604
 31
0.0
  0
LINE
  5
4C6
100
AcDbEntity
  8
2
370
    50
100
AcDbLine
 10
-208.219245
 20
-152.526604
 30
0.0
 11
-213.119245
 21
-152.526604
 31
0.0
  0
LINE
  5
4C7
100
AcDbEntity
  8
2
370
    50
100
AcDbLine
 10
-195.319245
 20
-154.926604
 30
0.0
 11
-200.219245
 21
-154.926604
 31
0.0
  0
LINE
  5
4C8
100
AcDbEntity
  8
2
370
    50
100
AcDbLine
 10
-208.219245
 20
-154.926604
 30
0.0
 11
-213.119245
 21
-154.926604
 31
0.0
  0
LINE
  5
4C9
100
AcDbEntity
  8
2
370
    50
100
AcDbLine
 10
-195.919245
 20
-157.926604
 30
0.0
 11
-200.219245
 21
-157.926604
 31
0.0
  0
LINE
  5
4CA
100
AcDbEntity
  8
2
370
    50
100
AcDbLine
 10
-208.219245
 20
-157.926604
 30
0.0
 11
-212.519245
 21
-157.926604
 31
0.0
  0
ARC
  5
4CB
100
AcDbEntity
  8
2
370
    50
100
AcDbCircle
 10
-201.219245
 20
-149.926604
 30
0.0
 40
1.0
100
AcDbArc
 50
0.0
 51
90.0
  0
ARC
  5
4CC
100
AcDbEntity
  8
2
370
    50
100
AcDbCircle
 10
-207.219245
 20
-149.926604
 30
0.0
 40
1.0
100
AcDbArc
 50
90.0
 51
180.0
  0
ARC
  5
4CD
100
AcDbEntity
  8
2
370
    50
100
AcDbCircle
 10
-207.219245
 20
-159.926604
 30
0.0
 40
1.0
100
AcDbArc
 50
180.0
 51
270.0
  0
ARC
  5
4CE
100
AcDbEntity
  8
2
370
    50
100
AcDbCircle
 10
-201.219245
 20
-159.926604
 30
0.0
 40
1.0
100
AcDbArc
 50
270.0
 51
0.0
  0
LINE
  5
4CF
100
AcDbEntity
  8
2
370
    50
100
AcDbLine
 10
-212.519245
 20
-148.926604
 30
0.0
 11
-212.519245
 21
-151.926604
 31
0.0
  0
LINE
  5
4D0
100
AcDbEntity
  8
2
370
    50
100
AcDbLine
 10
-195.919245
 20
-148.926604
 30
0.0
 11
-195.919245
 21
-151.926604
 31
0.0
  0
LINE
  5
4D1
100
AcDbEntity
  8
2
370
    50
100
AcDbLine
 10
-195.919245
 20
-157.926604
 30
0.0
 11
-195.919245
 21
-160.926604
 31
0.0
  0
LINE
  5
4D2
100
AcDbEntity
  8
2
370
    50
100
AcDbLine
 10
-212.519245
 20
-157.926604
 30
0.0
 11
-212.519245
 21
-160.926604
 31
0.0
  0
LINE
  5
4D3
100
AcDbEntity
  8
2
370
    50
100
AcDbLine
 10
-211.719245
 20
-152.326604
 30
0.0
 11
-211.719245
 21
-151.926604
 31
0.0
  0
LINE
  5
4D4
100
AcDbEntity
  8
2
370
    50
100
AcDbLine
 10
-196.719245
 20
-152.326604
 30
0.0
 11
-196.719245
 21
-151.926604
 31
0.0
  0
LINE
  5
4D5
100
AcDbEntity
  8
2
370
    25
100
AcDbLine
 10
-209.219245
 20
-160.627187
 30
0.0
 11
-209.219245
 21
-158.321965
 31
0.0
  0
LINE
  5
4D6
100
AcDbEntity
  8
2
370
    25
100
AcDbLine
 10
-209.219245
 20
-151.665418
 30
0.0
 11
-209.219245
 21
-149.233212
 31
0.0
  0
LINE
  5
4D7
100
AcDbEntity
  8
2
370
    25
100
AcDbLine
 10
-199.219245
 20
-160.627187
 30
0.0
 11
-199.219245
 21
-158.321965
 31
0.0
  0
LINE
  5
4D8
100
AcDbEntity
  8
2
370
    25
100
AcDbLine
 10
-199.219245
 20
-151.622739
 30
0.0
 11
-199.219245
 21
-149.153691
 31
0.0
  0
LINE
  5
4D9
100
AcDbEntity
  8
2
370
    50
100
AcDbLine
 10
-213.019245
 20
-159.926604
 30
0.0
 11
-213.019245
 21
-157.326604
 31
0.0
  0
LINE
  5
4DA
100
AcDbEntity
  8
2
370
    50
100
AcDbLine
 10
-213.019245
 20
-152.426604
 30
0.0
 11
-213.019245
 21
-147.926604
 31
0.0
  0
LINE
  5
4DB
100
AcDbEntity
  8
2
370
    50
100
AcDbLine
 10
-195.419245
 20
-159.926604
 30
0.0
 11
-195.419245
 21
-157.326604
 31
0.0
  0
LINE
  5
4DC
100
AcDbEntity
  8
2
370
    50
100
AcDbLine
 10
-195.419245
 20
-152.426604
 30
0.0
 11
-195.419245
 21
-147.926604
 31
0.0
  0
ARC
  5
4DD
100
AcDbEntity
  8
2
370
    50
100
AcDbCircle
 10
-212.019245
 20
-147.926604
 30
0.0
 40
1.0
100
AcDbArc
 50
90.0
 51
180.0
  0
ARC
  5
4DE
100
AcDbEntity
  8
2
370
    50
100
AcDbCircle
 10
-196.419245
 20
-147.926604
 30
0.0
 40
1.0
100
AcDbArc
 50
0.0
 51
90.0
  0
ARC
  5
4DF
100
AcDbEntity
  8
2
370
    50
100
AcDbCircle
 10
-214.019245
 20
-159.926604
 30
0.0
 40
1.0
100
AcDbArc
 50
270.0
 51
0.0
  0
ARC
  5
4E0
100
AcDbEntity
  8
2
370
    50
100
AcDbCircle
 10
-194.419245
 20
-159.926604
 30
0.0
 40
1.0
100
AcDbArc
 50
180.0
 51
270.0
  0
LINE
  5
4E1
100
AcDbEntity
  8
2
370
    50
100
AcDbLine
 10
-196.719245
 20
-147.626604
 30
0.0
 11
-196.719245
 21
-148.925982
 31
0.0
  0
ARC
  5
4E2
100
AcDbEntity
  8
2
370
    50
100
AcDbCircle
 10
-196.419245
 20
-147.926604
 30
0.0
 40
1.0
100
AcDbArc
 50
0.0
 51
90.0
  0
LINE
  5
4E3
100
AcDbEntity
  8
2
370
    50
100
AcDbLine
 10
-196.719245
 20
-147.626604
 30
0.0
 11
-197.219245
 21
-147.126604
 31
0.0
  0
LINE
  5
4E4
100
AcDbEntity
  8
2
370
    50
100
AcDbLine
 10
-195.219245
 20
-155.326604
 30
0.0
 11
-195.219245
 21
-157.126604
 31
0.0
  0
LINE
  5
4E5
100
AcDbEntity
  8
2
370
    50
100
AcDbLine
 10
-213.219245
 20
-155.326604
 30
0.0
 11
-213.219245
 21
-157.126604
 31
0.0
  0
LINE
  5
4E6
100
AcDbEntity
  8
2
370
    50
100
AcDbLine
 10
-213.219245
 20
-161.326604
 30
0.0
 11
-214.219245
 21
-162.326604
 31
0.0
  0
LINE
  5
4E7
100
AcDbEntity
  8
2
370
    50
100
AcDbLine
 10
-195.219245
 20
-161.326604
 30
0.0
 11
-194.219245
 21
-162.326604
 31
0.0
  0
LINE
  5
4E8
100
AcDbEntity
  8
2
370
    50
100
AcDbLine
 10
-195.219245
 20
-161.326604
 30
0.0
 11
-213.219245
 21
-161.326604
 31
0.0
  0
LINE
  5
4E9
100
AcDbEntity
  8
2
370
    50
100
AcDbLine
 10
-195.419245
 20
-155.126604
 30
0.0
 11
-195.219245
 21
-155.326604
 31
0.0
  0
LINE
  5
4EA
100
AcDbEntity
  8
2
370
    50
100
AcDbLine
 10
-195.219245
 20
-157.126604
 30
0.0
 11
-195.419245
 21
-157.326604
 31
0.0
  0
LINE
  5
4EB
100
AcDbEntity
  8
2
370
    50
100
AcDbLine
 10
-213.019245
 20
-155.126604
 30
0.0
 11
-213.219245
 21
-155.326604
 31
0.0
  0
LINE
  5
4EC
100
AcDbEntity
  8
2
370
    50
100
AcDbLine
 10
-213.219245
 20
-157.126604
 30
0.0
 11
-213.019245
 21
-157.326604
 31
0.0
  0
LINE
  5
4ED
100
AcDbEntity
  8
2
370
    25
100
AcDbLine
 10
-214.219245
 20
-162.326604
 30
0.0
 11
-194.219245
 21
-162.326604
 31
0.0
  0
LINE
  5
4EE
100
AcDbEntity
  8
2
370
    50
100
AcDbLine
 10
-211.719245
 20
-161.326604
 30
0.0
 11
-211.719245
 21
-160.926604
 31
0.0
  0
LINE
  5
4EF
100
AcDbEntity
  8
2
370
    50
100
AcDbLine
 10
-211.719245
 20
-157.926604
 30
0.0
 11
-211.719245
 21
-157.326604
 31
0.0
  0
LINE
  5
4F0
100
AcDbEntity
  8
2
370
    50
100
AcDbLine
 10
-196.719245
 20
-161.326604
 30
0.0
 11
-196.719245
 21
-160.926604
 31
0.0
  0
LINE
  5
4F1
100
AcDbEntity
  8
2
370
    50
100
AcDbLine
 10
-196.719245
 20
-157.926604
 30
0.0
 11
-196.719245
 21
-157.326604
 31
0.0
  0
LINE
  5
4F2
100
AcDbEntity
  8
2
370
    50
100
AcDbLine
 10
-195.419245
 20
-157.326604
 30
0.0
 11
-200.219245
 21
-157.326604
 31
0.0
  0
LINE
  5
4F3
100
AcDbEntity
  8
2
370
    50
100
AcDbLine
 10
-208.219245
 20
-157.326604
 30
0.0
 11
-213.019245
 21
-157.326604
 31
0.0
  0
LINE
  5
4F4
100
AcDbEntity
  8
2
370
    50
100
AcDbLine
 10
-195.219245
 20
-157.126604
 30
0.0
 11
-200.219245
 21
-157.126604
 31
0.0
  0
LINE
  5
4F5
100
AcDbEntity
  8
2
370
    50
100
AcDbLine
 10
-208.219245
 20
-157.126604
 30
0.0
 11
-213.219245
 21
-157.126604
 31
0.0
  0
LINE
  5
4F6
100
AcDbEntity
  8
2
370
    50
100
AcDbLine
 10
-195.219245
 20
-155.326604
 30
0.0
 11
-200.219245
 21
-155.326604
 31
0.0
  0
LINE
  5
4F7
100
AcDbEntity
  8
2
370
    50
100
AcDbLine
 10
-208.219245
 20
-155.326604
 30
0.0
 11
-213.219245
 21
-155.326604
 31
0.0
  0
LINE
  5
4F8
100
AcDbEntity
  8
2
370
    50
100
AcDbLine
 10
-195.419245
 20
-155.126604
 30
0.0
 11
-200.219245
 21
-155.126604
 31
0.0
  0
LINE
  5
4F9
100
AcDbEntity
  8
2
370
    50
100
AcDbLine
 10
-208.219245
 20
-155.126604
 30
0.0
 11
-213.019245
 21
-155.126604
 31
0.0
  0
LINE
  5
4FA
100
AcDbEntity
  8
2
370
    25
100
AcDbLine
 10
-197.719385
 20
-160.925982
 30
0.0
 11
-197.719385
 21
-157.925982
 31
0.0
  0
LINE
  5
4FB
100
AcDbEntity
  8
2
370
    25
100
AcDbLine
 10
-210.719105
 20
-151.926604
 30
0.0
 11
-210.719105
 21
-148.926604
 31
0.0
  0
LINE
  5
4FC
100
AcDbEntity
  8
2
370
    25
100
AcDbLine
 10
-197.719385
 20
-151.926604
 30
0.0
 11
-197.719385
 21
-148.926604
 31
0.0
  0
LINE
  5
4FD
100
AcDbEntity
  8
2
370
    50
100
AcDbLine
 10
-194.219245
 20
-162.326604
 30
0.0
 11
-194.219245
 21
-171.126604
 31
0.0
  0
LINE
  5
4FE
100
AcDbEntity
  8
2
370
    50
100
AcDbLine
 10
-214.219245
 20
-162.326604
 30
0.0
 11
-214.219245
 21
-171.126604
 31
0.0
  0
LINE
  5
4FF
100
AcDbEntity
  8
2
370
    50
100
AcDbLine
 10
-192.219245
 20
-171.126604
 30
0.0
 11
-216.219245
 21
-171.126604
 31
0.0
  0
LINE
  5
500
100
AcDbEntity
  8
2
370
    50
100
AcDbLine
 10
-191.219245
 20
-172.126604
 30
0.0
 11
-191.219245
 21
-181.126604
 31
0.0
  0
LINE
  5
501
100
AcDbEntity
  8
2
370
    50
100
AcDbLine
 10
-192.219245
 20
-171.126604
 30
0.0
 11
-191.219245
 21
-172.126604
 31
0.0
  0
LINE
  5
502
100
AcDbEntity
  8
2
370
    50
100
AcDbLine
 10
-217.219245
 20
-172.126604
 30
0.0
 11
-217.219245
 21
-181.126604
 31
0.0
  0
LINE
  5
503
100
AcDbEntity
  8
2
370
    50
100
AcDbLine
 10
-216.219245
 20
-171.126604
 30
0.0
 11
-217.219245
 21
-172.126604
 31
0.0
  0
LINE
  5
504
100
AcDbEntity
  8
2
370
    50
100
AcDbLine
 10
-211.147635
 20
-181.126604
 30
0.0
 11
-211.147635
 21
-172.126604
 31
0.0
  0
LINE
  5
505
100
AcDbEntity
  8
2
370
    50
100
AcDbLine
 10
-197.290855
 20
-181.126604
 30
0.0
 11
-197.290855
 21
-172.126604
 31
0.0
  0
ARC
  5
506
100
AcDbEntity
  8
2
370
    50
100
AcDbCircle
 10
-204.219245
 20
-195.6279
 30
0.0
 40
24.501296
100
AcDbArc
 50
73.574016
 51
106.425984
  0
ARC
  5
507
100
AcDbEntity
  8
2
370
    50
100
AcDbCircle
 10
-194.25505
 20
-176.234659
 30
0.0
 40
5.108056
100
AcDbArc
 50
53.536034
 51
126.463966
  0
ARC
  5
508
100
AcDbEntity
  8
2
370
    50
100
AcDbCircle
 10
-214.18344
 20
-176.234659
 30
0.0
 40
5.108056
100
AcDbArc
 50
53.536034
 51
126.463966
  0
LINE
  5
509
100
AcDbEntity
  8
2
370
    50
100
AcDbLine
 10
-191.219245
 20
-172.126604
 30
0.0
 11
-191.219245
 21
-180.126604
 31
0.0
  0
LINE
  5
50A
100
AcDbEntity
  8
2
370
    50
100
AcDbLine
 10
-192.219245
 20
-182.126604
 30
0.0
 11
-191.219245
 21
-181.126604
 31
0.0
  0
LINE
  5
50B
100
AcDbEntity
  8
2
370
    50
100
AcDbLine
 10
-217.219245
 20
-172.126604
 30
0.0
 11
-217.219245
 21
-180.126604
 31
0.0
  0
LINE
  5
50C
100
AcDbEntity
  8
2
370
    50
100
AcDbLine
 10
-216.219245
 20
-182.126604
 30
0.0
 11
-217.219245
 21
-181.126604
 31
0.0
  0
LINE
  5
50D
100
AcDbEntity
  8
2
370
    50
100
AcDbLine
 10
-192.219245
 20
-182.126604
 30
0.0
 11
-216.219245
 21
-182.126604
 31
0.0
  0
LINE
  5
50E
100
AcDbEntity
  8
2
370
    50
100
AcDbLine
 10
-211.147635
 20
-180.126604
 30
0.0
 11
-211.147635
 21
-172.126604
 31
0.0
  0
LINE
  5
50F
100
AcDbEntity
  8
2
370
    50
100
AcDbLine
 10
-197.290855
 20
-180.126604
 30
0.0
 11
-197.290855
 21
-172.126604
 31
0.0
  0
ARC
  5
510
100
AcDbEntity
  8
2
370
    50
100
AcDbCircle
 10
-204.219245
 20
-157.625308
 30
0.0
 40
24.501296
100
AcDbArc
 50
253.574016
 51
286.425984
  0
ARC
  5
511
100
AcDbEntity
  8
2
370
    50
100
AcDbCircle
 10
-214.18344
 20
-177.018548
 30
0.0
 40
5.108056
100
AcDbArc
 50
233.536034
 51
306.463966
  0
ARC
  5
512
100
AcDbEntity
  8
2
370
    50
100
AcDbCircle
 10
-194.25505
 20
-177.018548
 30
0.0
 40
5.108056
100
AcDbArc
 50
233.536034
 51
306.463966
  0
LINE
  5
513
100
AcDbEntity
  8
2
370
    25
  6
CENTER
100
AcDbLine
 10
-132.086101
 20
-195.722031
 30
0.0
 11
-132.086101
 21
-171.100811
 31
0.0
  0
ARC
  5
514
100
AcDbEntity
  8
2
370
    50
100
AcDbCircle
 10
-68.152363
 20
-156.927286
 30
0.0
 40
0.2
100
AcDbArc
 50
270.0
 51
360.0
  0
ARC
  5
515
100
AcDbEntity
  8
2
370
    50
100
AcDbCircle
 10
-79.752363
 20
-156.927286
 30
0.0
 40
0.2
100
AcDbArc
 50
180.0
 51
270.0
  0
LINE
  5
516
100
AcDbEntity
  8
2
370
    50
100
AcDbLine
 10
-80.952363
 20
-157.127286
 30
0.0
 11
-66.952363
 21
-157.127286
 31
0.0
  0
ARC
  5
517
100
AcDbEntity
  8
2
370
    50
100
AcDbCircle
 10
-79.752956
 20
-156.926604
 30
0.0
 40
0.2
100
AcDbArc
 50
180.0
 51
270.0
  0
ARC
  5
518
100
AcDbEntity
  8
2
370
    50
100
AcDbCircle
 10
-68.152956
 20
-156.926604
 30
0.0
 40
0.2
100
AcDbArc
 50
270.0
 51
360.0
  0
LINE
  5
519
100
AcDbEntity
  8
2
370
    50
100
AcDbLine
 10
-66.952956
 20
-157.126604
 30
0.0
 11
-80.952956
 21
-157.126604
 31
0.0
  0
LINE
  5
51A
100
AcDbEntity
  8
2
370
    50
100
AcDbLine
 10
-66.452956
 20
-157.626604
 30
0.0
 11
-66.952956
 21
-157.126604
 31
0.0
  0
LINE
  5
51B
100
AcDbEntity
  8
2
370
    25
100
AcDbLine
 10
-67.453096
 20
-170.925982
 30
0.0
 11
-67.453096
 21
-167.925982
 31
0.0
  0
LINE
  5
51C
100
AcDbEntity
  8
2
370
    50
100
AcDbLine
 10
-65.052956
 20
-162.527239
 30
0.0
 11
-65.052956
 21
-164.927239
 31
0.0
  0
LINE
  5
51D
100
AcDbEntity
  8
2
370
    50
100
AcDbLine
 10
-65.252956
 20
-162.327239
 30
0.0
 11
-65.052956
 21
-162.527239
 31
0.0
  0
LINE
  5
51E
100
AcDbEntity
  8
2
370
    50
100
AcDbLine
 10
-65.252956
 20
-165.127239
 30
0.0
 11
-65.052956
 21
-164.927239
 31
0.0
  0
LINE
  5
51F
100
AcDbEntity
  8
2
370
    50
100
AcDbLine
 10
-66.452956
 20
-162.327239
 30
0.0
 11
-66.452956
 21
-161.925982
 31
0.0
  0
LINE
  5
520
100
AcDbEntity
  8
2
370
    50
100
AcDbLine
 10
-66.452956
 20
-157.626604
 30
0.0
 11
-66.452956
 21
-158.925982
 31
0.0
  0
LINE
  5
521
100
AcDbEntity
  8
2
370
    50
100
AcDbLine
 10
-82.852956
 20
-162.526604
 30
0.0
 11
-82.852956
 21
-164.926604
 31
0.0
  0
LINE
  5
522
100
AcDbEntity
  8
2
370
    50
100
AcDbLine
 10
-65.052956
 20
-162.526604
 30
0.0
 11
-65.052956
 21
-164.926604
 31
0.0
  0
LINE
  5
523
100
AcDbEntity
  8
2
370
    50
100
AcDbLine
 10
-65.252956
 20
-162.326604
 30
0.0
 11
-65.052956
 21
-162.526604
 31
0.0
  0
LINE
  5
524
100
AcDbEntity
  8
2
370
    50
100
AcDbLine
 10
-82.652956
 20
-162.326604
 30
0.0
 11
-82.852956
 21
-162.526604
 31
0.0
  0
LINE
  5
525
100
AcDbEntity
  8
2
370
    50
100
AcDbLine
 10
-82.652956
 20
-165.126604
 30
0.0
 11
-82.852956
 21
-164.926604
 31
0.0
  0
LINE
  5
526
100
AcDbEntity
  8
2
370
    50
100
AcDbLine
 10
-82.952956
 20
-170.926604
 30
0.0
 11
-64.952956
 21
-170.926604
 31
0.0
  0
LINE
  5
527
100
AcDbEntity
  8
2
370
    50
100
AcDbLine
 10
-82.252956
 20
-158.926604
 30
0.0
 11
-65.652956
 21
-158.926604
 31
0.0
  0
LINE
  5
528
100
AcDbEntity
  8
2
370
    50
100
AcDbLine
 10
-69.952956
 20
-159.926604
 30
0.0
 11
-69.952956
 21
-169.926604
 31
0.0
  0
LINE
  5
529
100
AcDbEntity
  8
2
370
    50
100
AcDbLine
 10
-77.952956
 20
-159.926604
 30
0.0
 11
-77.952956
 21
-169.926604
 31
0.0
  0
LINE
  5
52A
100
AcDbEntity
  8
2
370
    50
100
AcDbLine
 10
-59.452956
 20
-157.926604
 30
0.0
 11
-59.452956
 21
-169.926604
 31
0.0
  0
LINE
  5
52B
100
AcDbEntity
  8
2
370
    50
100
AcDbLine
 10
-88.452956
 20
-157.926604
 30
0.0
 11
-88.452956
 21
-169.926604
 31
0.0
  0
ARC
  5
52C
100
AcDbEntity
  8
2
370
    50
100
AcDbCircle
 10
-87.452956
 20
-157.926604
 30
0.0
 40
1.0
100
AcDbArc
 50
90.0
 51
180.0
  0
ARC
  5
52D
100
AcDbEntity
  8
2
370
    50
100
AcDbCircle
 10
-60.452956
 20
-157.926604
 30
0.0
 40
1.0
100
AcDbArc
 50
360.0
 51
90.0
  0
ARC
  5
52E
100
AcDbEntity
  8
2
370
    50
100
AcDbCircle
 10
-60.452956
 20
-169.926604
 30
0.0
 40
1.0
100
AcDbArc
 50
270.0
 51
360.0
  0
ARC
  5
52F
100
AcDbEntity
  8
2
370
    50
100
AcDbCircle
 10
-87.452956
 20
-169.926604
 30
0.0
 40
1.0
100
AcDbArc
 50
180.0
 51
270.0
  0
LINE
  5
530
100
AcDbEntity
  8
2
370
    50
100
AcDbLine
 10
-60.452956
 20
-156.926604
 30
0.0
 11
-67.952956
 21
-156.926604
 31
0.0
  0
LINE
  5
531
100
AcDbEntity
  8
2
370
    50
100
AcDbLine
 10
-79.952956
 20
-156.926604
 30
0.0
 11
-87.452956
 21
-156.926604
 31
0.0
  0
LINE
  5
532
100
AcDbEntity
  8
2
370
    50
100
AcDbLine
 10
-60.452956
 20
-170.926604
 30
0.0
 11
-66.452956
 21
-170.926604
 31
0.0
  0
LINE
  5
533
100
AcDbEntity
  8
2
370
    50
100
AcDbLine
 10
-82.252956
 20
-170.926604
 30
0.0
 11
-87.452956
 21
-170.926604
 31
0.0
  0
LINE
  5
534
100
AcDbEntity
  8
2
370
    50
100
AcDbLine
 10
-82.252956
 20
-161.926604
 30
0.0
 11
-77.952956
 21
-161.926604
 31
0.0
  0
LINE
  5
535
100
AcDbEntity
  8
2
370
    50
100
AcDbLine
 10
-69.952956
 20
-161.926604
 30
0.0
 11
-65.652956
 21
-161.926604
 31
0.0
  0
LINE
  5
536
100
AcDbEntity
  8
2
370
    50
100
AcDbLine
 10
-82.652956
 20
-162.326604
 30
0.0
 11
-77.952956
 21
-162.326604
 31
0.0
  0
LINE
  5
537
100
AcDbEntity
  8
2
370
    50
100
AcDbLine
 10
-69.952956
 20
-162.326604
 30
0.0
 11
-65.252956
 21
-162.326604
 31
0.0
  0
LINE
  5
538
100
AcDbEntity
  8
2
370
    50
100
AcDbLine
 10
-82.852956
 20
-162.526604
 30
0.0
 11
-77.952956
 21
-162.526604
 31
0.0
  0
LINE
  5
539
100
AcDbEntity
  8
2
370
    50
100
AcDbLine
 10
-69.952956
 20
-162.526604
 30
0.0
 11
-65.052956
 21
-162.526604
 31
0.0
  0
LINE
  5
53A
100
AcDbEntity
  8
2
370
    50
100
AcDbLine
 10
-82.852956
 20
-164.926604
 30
0.0
 11
-77.952956
 21
-164.926604
 31
0.0
  0
LINE
  5
53B
100
AcDbEntity
  8
2
370
    50
100
AcDbLine
 10
-69.952956
 20
-164.926604
 30
0.0
 11
-65.052956
 21
-164.926604
 31
0.0
  0
LINE
  5
53C
100
AcDbEntity
  8
2
370
    50
100
AcDbLine
 10
-82.252956
 20
-167.926604
 30
0.0
 11
-77.952956
 21
-167.926604
 31
0.0
  0
LINE
  5
53D
100
AcDbEntity
  8
2
370
    50
100
AcDbLine
 10
-69.952956
 20
-167.926604
 30
0.0
 11
-65.652956
 21
-167.926604
 31
0.0
  0
ARC
  5
53E
100
AcDbEntity
  8
2
370
    50
100
AcDbCircle
 10
-76.952956
 20
-159.926604
 30
0.0
 40
1.0
100
AcDbArc
 50
90.0
 51
180.0
  0
ARC
  5
53F
100
AcDbEntity
  8
2
370
    50
100
AcDbCircle
 10
-70.952956
 20
-159.926604
 30
0.0
 40
1.0
100
AcDbArc
 50
360.0
 51
90.0
  0
ARC
  5
540
100
AcDbEntity
  8
2
370
    50
100
AcDbCircle
 10
-70.952956
 20
-169.926604
 30
0.0
 40
1.0
100
AcDbArc
 50
270.0
 51
0.0
  0
ARC
  5
541
100
AcDbEntity
  8
2
370
    50
100
AcDbCircle
 10
-76.952956
 20
-169.926604
 30
0.0
 40
1.0
100
AcDbArc
 50
180.0
 51
270.0
  0
LINE
  5
542
100
AcDbEntity
  8
2
370
    50
100
AcDbLine
 10
-65.652956
 20
-158.926604
 30
0.0
 11
-65.652956
 21
-161.926604
 31
0.0
  0
LINE
  5
543
100
AcDbEntity
  8
2
370
    50
100
AcDbLine
 10
-82.252956
 20
-158.926604
 30
0.0
 11
-82.252956
 21
-161.926604
 31
0.0
  0
LINE
  5
544
100
AcDbEntity
  8
2
370
    50
100
AcDbLine
 10
-82.252956
 20
-167.926604
 30
0.0
 11
-82.252956
 21
-170.926604
 31
0.0
  0
LINE
  5
545
100
AcDbEntity
  8
2
370
    50
100
AcDbLine
 10
-65.652956
 20
-167.926604
 30
0.0
 11
-65.652956
 21
-170.926604
 31
0.0
  0
LINE
  5
546
100
AcDbEntity
  8
2
370
    50
100
AcDbLine
 10
-66.452956
 20
-162.326604
 30
0.0
 11
-66.452956
 21
-161.926604
 31
0.0
  0
LINE
  5
547
100
AcDbEntity
  8
2
370
    50
100
AcDbLine
 10
-81.452956
 20
-162.326604
 30
0.0
 11
-81.452956
 21
-161.926604
 31
0.0
  0
LINE
  5
548
100
AcDbEntity
  8
2
370
    25
100
AcDbLine
 10
-68.952956
 20
-170.627187
 30
0.0
 11
-68.952956
 21
-168.321965
 31
0.0
  0
LINE
  5
549
100
AcDbEntity
  8
2
370
    25
100
AcDbLine
 10
-68.952956
 20
-161.665418
 30
0.0
 11
-68.952956
 21
-159.233212
 31
0.0
  0
LINE
  5
54A
100
AcDbEntity
  8
2
370
    25
100
AcDbLine
 10
-78.952956
 20
-170.627187
 30
0.0
 11
-78.952956
 21
-168.321965
 31
0.0
  0
LINE
  5
54B
100
AcDbEntity
  8
2
370
    25
100
AcDbLine
 10
-78.952956
 20
-161.622739
 30
0.0
 11
-78.952956
 21
-159.153691
 31
0.0
  0
LINE
  5
54C
100
AcDbEntity
  8
2
370
    50
100
AcDbLine
 10
-65.152956
 20
-169.926604
 30
0.0
 11
-65.152956
 21
-167.326604
 31
0.0
  0
LINE
  5
54D
100
AcDbEntity
  8
2
370
    50
100
AcDbLine
 10
-65.152956
 20
-162.426604
 30
0.0
 11
-65.152956
 21
-157.926604
 31
0.0
  0
LINE
  5
54E
100
AcDbEntity
  8
2
370
    50
100
AcDbLine
 10
-82.752956
 20
-169.926604
 30
0.0
 11
-82.752956
 21
-167.326604
 31
0.0
  0
LINE
  5
54F
100
AcDbEntity
  8
2
370
    50
100
AcDbLine
 10
-82.752956
 20
-162.426604
 30
0.0
 11
-82.752956
 21
-157.926604
 31
0.0
  0
ARC
  5
550
100
AcDbEntity
  8
2
370
    50
100
AcDbCircle
 10
-66.152956
 20
-157.926604
 30
0.0
 40
1.0
100
AcDbArc
 50
360.0
 51
90.0
  0
ARC
  5
551
100
AcDbEntity
  8
2
370
    50
100
AcDbCircle
 10
-81.752956
 20
-157.926604
 30
0.0
 40
1.0
100
AcDbArc
 50
90.0
 51
180.0
  0
ARC
  5
552
100
AcDbEntity
  8
2
370
    50
100
AcDbCircle
 10
-64.152956
 20
-169.926604
 30
0.0
 40
1.0
100
AcDbArc
 50
180.0
 51
270.0
  0
ARC
  5
553
100
AcDbEntity
  8
2
370
    50
100
AcDbCircle
 10
-83.752956
 20
-169.926604
 30
0.0
 40
1.0
100
AcDbArc
 50
270.0
 51
360.0
  0
LINE
  5
554
100
AcDbEntity
  8
2
370
    50
100
AcDbLine
 10
-81.452956
 20
-157.626604
 30
0.0
 11
-81.452956
 21
-158.925982
 31
0.0
  0
ARC
  5
555
100
AcDbEntity
  8
2
370
    50
100
AcDbCircle
 10
-81.752956
 20
-157.926604
 30
0.0
 40
1.0
100
AcDbArc
 50
90.0
 51
180.0
  0
LINE
  5
556
100
AcDbEntity
  8
2
370
    50
100
AcDbLine
 10
-81.452956
 20
-157.626604
 30
0.0
 11
-80.952956
 21
-157.126604
 31
0.0
  0
LINE
  5
557
100
AcDbEntity
  8
2
370
    50
100
AcDbLine
 10
-82.952956
 20
-165.326604
 30
0.0
 11
-82.952956
 21
-167.126604
 31
0.0
  0
LINE
  5
558
100
AcDbEntity
  8
2
370
    50
100
AcDbLine
 10
-64.952956
 20
-165.326604
 30
0.0
 11
-64.952956
 21
-167.126604
 31
0.0
  0
LINE
  5
559
100
AcDbEntity
  8
2
370
    50
100
AcDbLine
 10
-64.952956
 20
-171.326604
 30
0.0
 11
-63.952956
 21
-172.326604
 31
0.0
  0
LINE
  5
55A
100
AcDbEntity
  8
2
370
    50
100
AcDbLine
 10
-82.952956
 20
-171.326604
 30
0.0
 11
-83.952956
 21
-172.326604
 31
0.0
  0
LINE
  5
55B
100
AcDbEntity
  8
2
370
    50
100
AcDbLine
 10
-82.952956
 20
-171.326604
 30
0.0
 11
-64.952956
 21
-171.326604
 31
0.0
  0
LINE
  5
55C
100
AcDbEntity
  8
2
370
    50
100
AcDbLine
 10
-82.752956
 20
-165.126604
 30
0.0
 11
-82.952956
 21
-165.326604
 31
0.0
  0
LINE
  5
55D
100
AcDbEntity
  8
2
370
    50
100
AcDbLine
 10
-82.952956
 20
-167.126604
 30
0.0
 11
-82.752956
 21
-167.326604
 31
0.0
  0
LINE
  5
55E
100
AcDbEntity
  8
2
370
    50
100
AcDbLine
 10
-65.152956
 20
-165.126604
 30
0.0
 11
-64.952956
 21
-165.326604
 31
0.0
  0
LINE
  5
55F
100
AcDbEntity
  8
2
370
    50
100
AcDbLine
 10
-64.952956
 20
-167.126604
 30
0.0
 11
-65.152956
 21
-167.326604
 31
0.0
  0
LINE
  5
560
100
AcDbEntity
  8
2
370
    25
100
AcDbLine
 10
-63.952956
 20
-172.326604
 30
0.0
 11
-83.952956
 21
-172.326604
 31
0.0
  0
LINE
  5
561
100
AcDbEntity
  8
2
370
    50
100
AcDbLine
 10
-66.452956
 20
-171.326604
 30
0.0
 11
-66.452956
 21
-170.926604
 31
0.0
  0
LINE
  5
562
100
AcDbEntity
  8
2
370
    50
100
AcDbLine
 10
-66.452956
 20
-167.926604
 30
0.0
 11
-66.452956
 21
-167.326604
 31
0.0
  0
LINE
  5
563
100
AcDbEntity
  8
2
370
    50
100
AcDbLine
 10
-81.452956
 20
-171.326604
 30
0.0
 11
-81.452956
 21
-170.926604
 31
0.0
  0
LINE
  5
564
100
AcDbEntity
  8
2
370
    50
100
AcDbLine
 10
-81.452956
 20
-167.926604
 30
0.0
 11
-81.452956
 21
-167.326604
 31
0.0
  0
LINE
  5
565
100
AcDbEntity
  8
2
370
    50
100
AcDbLine
 10
-82.752956
 20
-167.326604
 30
0.0
 11
-77.952956
 21
-167.326604
 31
0.0
  0
LINE
  5
566
100
AcDbEntity
  8
2
370
    50
100
AcDbLine
 10
-69.952956
 20
-167.326604
 30
0.0
 11
-65.152956
 21
-167.326604
 31
0.0
  0
LINE
  5
567
100
AcDbEntity
  8
2
370
    50
100
AcDbLine
 10
-82.952956
 20
-167.126604
 30
0.0
 11
-77.952956
 21
-167.126604
 31
0.0
  0
LINE
  5
568
100
AcDbEntity
  8
2
370
    50
100
AcDbLine
 10
-69.952956
 20
-167.126604
 30
0.0
 11
-64.952956
 21
-167.126604
 31
0.0
  0
LINE
  5
569
100
AcDbEntity
  8
2
370
    50
100
AcDbLine
 10
-82.952956
 20
-165.326604
 30
0.0
 11
-77.952956
 21
-165.326604
 31
0.0
  0
LINE
  5
56A
100
AcDbEntity
  8
2
370
    50
100
AcDbLine
 10
-69.952956
 20
-165.326604
 30
0.0
 11
-64.952956
 21
-165.326604
 31
0.0
  0
LINE
  5
56B
100
AcDbEntity
  8
2
370
    50
100
AcDbLine
 10
-82.752956
 20
-165.126604
 30
0.0
 11
-77.952956
 21
-165.126604
 31
0.0
  0
LINE
  5
56C
100
AcDbEntity
  8
2
370
    50
100
AcDbLine
 10
-69.952956
 20
-165.126604
 30
0.0
 11
-65.152956
 21
-165.126604
 31
0.0
  0
LINE
  5
56D
100
AcDbEntity
  8
2
370
    25
100
AcDbLine
 10
-80.452817
 20
-170.925982
 30
0.0
 11
-80.452817
 21
-167.925982
 31
0.0
  0
LINE
  5
56E
100
AcDbEntity
  8
2
370
    25
100
AcDbLine
 10
-67.453096
 20
-161.926604
 30
0.0
 11
-67.453096
 21
-158.926604
 31
0.0
  0
LINE
  5
56F
100
AcDbEntity
  8
2
370
    25
100
AcDbLine
 10
-80.452817
 20
-161.926604
 30
0.0
 11
-80.452817
 21
-158.926604
 31
0.0
  0
LINE
  5
570
100
AcDbEntity
  8
2
370
    50
100
AcDbLine
 10
-83.952956
 20
-172.326604
 30
0.0
 11
-83.952956
 21
-181.126604
 31
0.0
  0
LINE
  5
571
100
AcDbEntity
  8
2
370
    50
100
AcDbLine
 10
-63.952956
 20
-172.326604
 30
0.0
 11
-63.952956
 21
-181.126604
 31
0.0
  0
LINE
  5
572
100
AcDbEntity
  8
2
370
    50
100
AcDbLine
 10
-85.952956
 20
-181.126604
 30
0.0
 11
-61.952956
 21
-181.126604
 31
0.0
  0
LINE
  5
573
100
AcDbEntity
  8
2
370
    50
100
AcDbLine
 10
-86.952956
 20
-182.126604
 30
0.0
 11
-86.952956
 21
-191.126604
 31
0.0
  0
LINE
  5
574
100
AcDbEntity
  8
2
370
    50
100
AcDbLine
 10
-85.952956
 20
-181.126604
 30
0.0
 11
-86.952956
 21
-182.126604
 31
0.0
  0
LINE
  5
575
100
AcDbEntity
  8
2
370
    50
100
AcDbLine
 10
-60.952956
 20
-182.126604
 30
0.0
 11
-60.952956
 21
-191.126604
 31
0.0
  0
LINE
  5
576
100
AcDbEntity
  8
2
370
    50
100
AcDbLine
 10
-61.952956
 20
-181.126604
 30
0.0
 11
-60.952956
 21
-182.126604
 31
0.0
  0
LINE
  5
577
100
AcDbEntity
  8
2
370
    50
100
AcDbLine
 10
-67.024566
 20
-191.126604
 30
0.0
 11
-67.024566
 21
-182.126604
 31
0.0
  0
LINE
  5
578
100
AcDbEntity
  8
2
370
    50
100
AcDbLine
 10
-80.881347
 20
-191.126604
 30
0.0
 11
-80.881347
 21
-182.126604
 31
0.0
  0
ARC
  5
579
100
AcDbEntity
  8
2
370
    50
100
AcDbCircle
 10
-73.952956
 20
-205.6279
 30
0.0
 40
24.501296
100
AcDbArc
 50
73.574016
 51
106.425984
  0
ARC
  5
57A
100
AcDbEntity
  8
2
370
    50
100
AcDbCircle
 10
-83.917151
 20
-186.234659
 30
0.0
 40
5.108056
100
AcDbArc
 50
53.536034
 51
126.463966
  0
ARC
  5
57B
100
AcDbEntity
  8
2
370
    50
100
AcDbCircle
 10
-63.988761
 20
-186.234659
 30
0.0
 40
5.108056
100
AcDbArc
 50
53.536034
 51
126.463966
  0
LINE
  5
57C
100
AcDbEntity
  8
2
370
    50
100
AcDbLine
 10
-86.952956
 20
-182.126604
 30
0.0
 11
-86.952956
 21
-190.126604
 31
0.0
  0
LINE
  5
57D
100
AcDbEntity
  8
2
370
    50
100
AcDbLine
 10
-85.952956
 20
-192.126604
 30
0.0
 11
-86.952956
 21
-191.126604
 31
0.0
  0
LINE
  5
57E
100
AcDbEntity
  8
2
370
    50
100
AcDbLine
 10
-60.952956
 20
-182.126604
 30
0.0
 11
-60.952956
 21
-190.126604
 31
0.0
  0
LINE
  5
57F
100
AcDbEntity
  8
2
370
    50
100
AcDbLine
 10
-61.952956
 20
-192.126604
 30
0.0
 11
-60.952956
 21
-191.126604
 31
0.0
  0
LINE
  5
580
100
AcDbEntity
  8
2
370
    50
100
AcDbLine
 10
-85.952956
 20
-192.126604
 30
0.0
 11
-61.952956
 21
-192.126604
 31
0.0
  0
LINE
  5
581
100
AcDbEntity
  8
2
370
    50
100
AcDbLine
 10
-67.024566
 20
-190.126604
 30
0.0
 11
-67.024566
 21
-182.126604
 31
0.0
  0
LINE
  5
582
100
AcDbEntity
  8
2
370
    50
100
AcDbLine
 10
-80.881347
 20
-190.126604
 30
0.0
 11
-80.881347
 21
-182.126604
 31
0.0
  0
ARC
  5
583
100
AcDbEntity
  8
2
370
    50
100
AcDbCircle
 10
-73.952956
 20
-167.625308
 30
0.0
 40
24.501296
100
AcDbArc
 50
253.574016
 51
286.425984
  0
ARC
  5
584
100
AcDbEntity
  8
2
370
    50
100
AcDbCircle
 10
-63.988761
 20
-187.018548
 30
0.0
 40
5.108056
100
AcDbArc
 50
233.536034
 51
306.463966
  0
ARC
  5
585
100
AcDbEntity
  8
2
370
    50
100
AcDbCircle
 10
-83.917151
 20
-187.018548
 30
0.0
 40
5.108056
100
AcDbArc
 50
233.536034
 51
306.463966
  0
LINE
  5
586
100
AcDbEntity
  8
2
370
    25
  6
CENTER
100
AcDbLine
 10
-73.952363
 20
-91.055919
 30
0.0
 11
-73.952363
 21
-110.115314
 31
0.0
  0
LINE
  5
587
100
AcDbEntity
  8
2
370
    25
  6
CENTER
100
AcDbLine
 10
-73.952363
 20
-91.055919
 30
0.0
 11
-132.086101
 21
-195.722031
 31
0.0
  0
LINE
  5
588
100
AcDbEntity
  8
2
370
    25
  6
CENTER
100
AcDbLine
 10
-204.219838
 20
-81.055919
 30
0.0
 11
-146.086101
 21
-187.218694
 31
0.0
  0
LINE
  5
589
100
AcDbEntity
  8
2
370
    50
100
AcDbLine
 10
-152.086101
 20
-121.330015
 30
0.0
 11
-152.086101
 21
-116.007366
 31
0.0
  0
LINE
  5
58A
100
AcDbEntity
  8
2
370
    50
100
AcDbLine
 10
-140.086101
 20
-121.330015
 30
0.0
 11
-140.086101
 21
-116.007366
 31
0.0
  0
LINE
  5
58B
100
AcDbEntity
  8
2
370
    50
100
AcDbLine
 10
-143.688185
 20
-116.007366
 30
0.0
 11
-143.688185
 21
-121.330015
 31
0.0
  0
LINE
  5
58C
100
AcDbEntity
  8
2
370
    50
100
AcDbLine
 10
-142.521919
 20
-116.007366
 30
0.0
 11
-142.521919
 21
-121.330015
 31
0.0
  0
LINE
  5
58D
100
AcDbEntity
  8
2
370
    50
100
AcDbLine
 10
-140.124003
 20
-116.007366
 30
0.0
 11
-140.124003
 21
-121.330015
 31
0.0
  0
LINE
  5
58E
100
AcDbEntity
  8
2
370
    50
100
AcDbLine
 10
-140.586101
 20
-121.618691
 30
0.0
 11
-140.086101
 21
-121.330015
 31
0.0
  0
LINE
  5
58F
100
AcDbEntity
  8
2
370
    50
100
AcDbLine
 10
-142.521919
 20
-121.330015
 30
0.0
 11
-143.688185
 21
-121.330015
 31
0.0
  0
LINE
  5
590
100
AcDbEntity
  8
2
370
    50
100
AcDbLine
 10
-152.086101
 20
-121.330015
 30
0.0
 11
-151.586101
 21
-121.618691
 31
0.0
  0
ARC
  5
591
100
AcDbEntity
  8
2
370
    50
100
AcDbCircle
 10
-146.086101
 20
-111.515061
 30
0.0
 40
10.10363
100
AcDbArc
 50
270.0
 51
283.729133
  0
ARC
  5
592
100
AcDbEntity
  8
2
370
    50
100
AcDbCircle
 10
-146.086101
 20
-125.82232
 30
0.0
 40
10.10363
100
AcDbArc
 50
76.270867
 51
90.0
  0
LINE
  5
593
100
AcDbEntity
  8
2
370
    50
100
AcDbLine
 10
-142.521919
 20
-116.007366
 30
0.0
 11
-143.688185
 21
-116.007366
 31
0.0
  0
ARC
  5
594
100
AcDbEntity
  8
2
370
    50
100
AcDbCircle
 10
-141.322961
 20
-118.98453
 30
0.0
 40
2.634161
100
AcDbArc
 50
242.924933
 51
297.075067
  0
ARC
  5
595
100
AcDbEntity
  8
2
370
    50
100
AcDbCircle
 10
-141.322961
 20
-118.352851
 30
0.0
 40
2.634161
100
AcDbArc
 50
62.924933
 51
117.075067
  0
LINE
  5
596
100
AcDbEntity
  8
2
370
    50
100
AcDbLine
 10
-140.586101
 20
-115.718691
 30
0.0
 11
-140.086101
 21
-116.007366
 31
0.0
  0
ARC
  5
597
100
AcDbEntity
  8
2
370
    50
100
AcDbCircle
 10
-146.086101
 20
-111.515061
 30
0.0
 40
10.10363
100
AcDbArc
 50
256.270867
 51
270.0
  0
LINE
  5
598
100
AcDbEntity
  8
2
370
    50
100
AcDbLine
 10
-149.650283
 20
-121.330015
 30
0.0
 11
-148.484016
 21
-121.330015
 31
0.0
  0
ARC
  5
599
100
AcDbEntity
  8
2
370
    50
100
AcDbCircle
 10
-150.84924
 20
-118.98453
 30
0.0
 40
2.634161
100
AcDbArc
 50
242.924933
 51
297.075067
  0
LINE
  5
59A
100
AcDbEntity
  8
2
370
    50
100
AcDbLine
 10
-152.048198
 20
-121.330015
 30
0.0
 11
-152.086101
 21
-121.330015
 31
0.0
  0
LINE
  5
59B
100
AcDbEntity
  8
2
370
    50
100
AcDbLine
 10
-151.586101
 20
-121.618691
 30
0.0
 11
-140.586101
 21
-121.618691
 31
0.0
  0
LINE
  5
59C
100
AcDbEntity
  8
2
370
    50
100
AcDbLine
 10
-152.686101
 20
-150.618691
 30
0.0
 11
-146.086101
 21
-150.618691
 31
0.0
  0
LINE
  5
59D
100
AcDbEntity
  8
2
370
    50
100
AcDbLine
 10
-152.686101
 20
-145.118691
 30
0.0
 11
-146.086101
 21
-145.118691
 31
0.0
  0
LINE
  5
59E
100
AcDbEntity
  8
2
370
    50
100
AcDbLine
 10
-152.686101
 20
-143.118691
 30
0.0
 11
-146.086101
 21
-143.118691
 31
0.0
  0
LINE
  5
59F
100
AcDbEntity
  8
2
370
    50
100
AcDbLine
 10
-152.686101
 20
-138.118691
 30
0.0
 11
-146.086101
 21
-138.118691
 31
0.0
  0
LINE
  5
5A0
100
AcDbEntity
  8
2
370
    50
100
AcDbLine
 10
-152.686101
 20
-136.118691
 30
0.0
 11
-146.086101
 21
-136.118691
 31
0.0
  0
LINE
  5
5A1
100
AcDbEntity
  8
2
370
    50
100
AcDbLine
 10
-152.686101
 20
-131.118691
 30
0.0
 11
-146.086101
 21
-131.118691
 31
0.0
  0
LINE
  5
5A2
100
AcDbEntity
  8
2
370
    50
100
AcDbLine
 10
-152.686101
 20
-129.118691
 30
0.0
 11
-146.086101
 21
-129.118691
 31
0.0
  0
LINE
  5
5A3
100
AcDbEntity
  8
2
370
    50
100
AcDbLine
 10
-153.086101
 20
-149.818691
 30
0.0
 11
-153.086101
 21
-145.918691
 31
0.0
  0
LINE
  5
5A4
100
AcDbEntity
  8
2
370
    50
100
AcDbLine
 10
-153.086101
 20
-142.318691
 30
0.0
 11
-153.086101
 21
-138.918691
 31
0.0
  0
LINE
  5
5A5
100
AcDbEntity
  8
2
370
    50
100
AcDbLine
 10
-153.086101
 20
-135.318691
 30
0.0
 11
-153.086101
 21
-131.918691
 31
0.0
  0
LINE
  5
5A6
100
AcDbEntity
  8
2
370
    50
100
AcDbLine
 10
-153.086101
 20
-128.318691
 30
0.0
 11
-153.086101
 21
-122.418691
 31
0.0
  0
LINE
  5
5A7
100
AcDbEntity
  8
2
370
    50
100
AcDbLine
 10
-152.686101
 20
-131.118691
 30
0.0
 11
-152.686101
 21
-129.118691
 31
0.0
  0
LINE
  5
5A8
100
AcDbEntity
  8
2
370
    50
100
AcDbLine
 10
-152.686101
 20
-145.118691
 30
0.0
 11
-152.686101
 21
-143.118691
 31
0.0
  0
LINE
  5
5A9
100
AcDbEntity
  8
2
370
    50
100
AcDbLine
 10
-152.686101
 20
-138.118691
 30
0.0
 11
-152.686101
 21
-136.118691
 31
0.0
  0
ARC
  5
5AA
100
AcDbEntity
  8
2
370
    50
100
AcDbCircle
 10
-152.086101
 20
-128.318691
 30
0.0
 40
1.0
100
AcDbArc
 50
180.0
 51
233.130102
  0
ARC
  5
5AB
100
AcDbEntity
  8
2
370
    50
100
AcDbCircle
 10
-152.086101
 20
-131.918691
 30
0.0
 40
1.0
100
AcDbArc
 50
126.869898
 51
180.0
  0
ARC
  5
5AC
100
AcDbEntity
  8
2
370
    50
100
AcDbCircle
 10
-152.086101
 20
-135.318691
 30
0.0
 40
1.0
100
AcDbArc
 50
180.0
 51
233.130102
  0
ARC
  5
5AD
100
AcDbEntity
  8
2
370
    50
100
AcDbCircle
 10
-152.086101
 20
-138.918691
 30
0.0
 40
1.0
100
AcDbArc
 50
126.869898
 51
180.0
  0
ARC
  5
5AE
100
AcDbEntity
  8
2
370
    50
100
AcDbCircle
 10
-152.086101
 20
-142.318691
 30
0.0
 40
1.0
100
AcDbArc
 50
180.0
 51
233.130102
  0
ARC
  5
5AF
100
AcDbEntity
  8
2
370
    50
100
AcDbCircle
 10
-152.086101
 20
-145.918691
 30
0.0
 40
1.0
100
AcDbArc
 50
126.869898
 51
180.0
  0
ARC
  5
5B0
100
AcDbEntity
  8
2
370
    50
100
AcDbCircle
 10
-152.086101
 20
-149.818691
 30
0.0
 40
1.0
100
AcDbArc
 50
180.0
 51
233.130102
  0
LINE
  5
5B1
100
AcDbEntity
  8
2
370
    50
100
AcDbLine
 10
-139.486101
 20
-150.618691
 30
0.0
 11
-146.086101
 21
-150.618691
 31
0.0
  0
ARC
  5
5B2
100
AcDbEntity
  8
2
370
    50
100
AcDbCircle
 10
-140.086101
 20
-149.818691
 30
0.0
 40
1.0
100
AcDbArc
 50
306.869898
 51
360.0
  0
LINE
  5
5B3
100
AcDbEntity
  8
2
370
    50
100
AcDbLine
 10
-139.086101
 20
-149.818691
 30
0.0
 11
-139.086101
 21
-145.918691
 31
0.0
  0
ARC
  5
5B4
100
AcDbEntity
  8
2
370
    50
100
AcDbCircle
 10
-140.086101
 20
-145.918691
 30
0.0
 40
1.0
100
AcDbArc
 50
360.0
 51
53.130102
  0
LINE
  5
5B5
100
AcDbEntity
  8
2
370
    50
100
AcDbLine
 10
-139.486101
 20
-145.118691
 30
0.0
 11
-139.486101
 21
-143.118691
 31
0.0
  0
LINE
  5
5B6
100
AcDbEntity
  8
2
370
    50
100
AcDbLine
 10
-139.486101
 20
-145.118691
 30
0.0
 11
-146.086101
 21
-145.118691
 31
0.0
  0
LINE
  5
5B7
100
AcDbEntity
  8
2
370
    50
100
AcDbLine
 10
-139.486101
 20
-143.118691
 30
0.0
 11
-146.086101
 21
-143.118691
 31
0.0
  0
ARC
  5
5B8
100
AcDbEntity
  8
2
370
    50
100
AcDbCircle
 10
-140.086101
 20
-142.318691
 30
0.0
 40
1.0
100
AcDbArc
 50
306.869898
 51
360.0
  0
LINE
  5
5B9
100
AcDbEntity
  8
2
370
    50
100
AcDbLine
 10
-139.086101
 20
-142.318691
 30
0.0
 11
-139.086101
 21
-138.918691
 31
0.0
  0
ARC
  5
5BA
100
AcDbEntity
  8
2
370
    50
100
AcDbCircle
 10
-140.086101
 20
-138.918691
 30
0.0
 40
1.0
100
AcDbArc
 50
360.0
 51
53.130102
  0
LINE
  5
5BB
100
AcDbEntity
  8
2
370
    50
100
AcDbLine
 10
-139.486101
 20
-138.118691
 30
0.0
 11
-146.086101
 21
-138.118691
 31
0.0
  0
LINE
  5
5BC
100
AcDbEntity
  8
2
370
    50
100
AcDbLine
 10
-139.486101
 20
-138.118691
 30
0.0
 11
-139.486101
 21
-136.118691
 31
0.0
  0
LINE
  5
5BD
100
AcDbEntity
  8
2
370
    50
100
AcDbLine
 10
-139.486101
 20
-136.118691
 30
0.0
 11
-146.086101
 21
-136.118691
 31
0.0
  0
ARC
  5
5BE
100
AcDbEntity
  8
2
370
    50
100
AcDbCircle
 10
-140.086101
 20
-135.318691
 30
0.0
 40
1.0
100
AcDbArc
 50
306.869898
 51
360.0
  0
LINE
  5
5BF
100
AcDbEntity
  8
2
370
    50
100
AcDbLine
 10
-139.086101
 20
-135.318691
 30
0.0
 11
-139.086101
 21
-131.918691
 31
0.0
  0
ARC
  5
5C0
100
AcDbEntity
  8
2
370
    50
100
AcDbCircle
 10
-140.086101
 20
-131.918691
 30
0.0
 40
1.0
100
AcDbArc
 50
360.0
 51
53.130102
  0
LINE
  5
5C1
100
AcDbEntity
  8
2
370
    50
100
AcDbLine
 10
-139.486101
 20
-131.118691
 30
0.0
 11
-146.086101
 21
-131.118691
 31
0.0
  0
LINE
  5
5C2
100
AcDbEntity
  8
2
370
    50
100
AcDbLine
 10
-139.486101
 20
-131.118691
 30
0.0
 11
-139.486101
 21
-129.118691
 31
0.0
  0
LINE
  5
5C3
100
AcDbEntity
  8
2
370
    50
100
AcDbLine
 10
-139.486101
 20
-129.118691
 30
0.0
 11
-146.086101
 21
-129.118691
 31
0.0
  0
ARC
  5
5C4
100
AcDbEntity
  8
2
370
    50
100
AcDbCircle
 10
-140.086101
 20
-128.318691
 30
0.0
 40
1.0
100
AcDbArc
 50
306.869898
 51
360.0
  0
LINE
  5
5C5
100
AcDbEntity
  8
2
370
    50
100
AcDbLine
 10
-139.086101
 20
-128.318691
 30
0.0
 11
-139.086101
 21
-122.418691
 31
0.0
  0
ARC
  5
5C6
100
AcDbEntity
  8
2
370
    50
100
AcDbCircle
 10
-140.086101
 20
-122.418691
 30
0.0
 40
1.0
100
AcDbArc
 50
360.0
 51
53.130102
  0
LINE
  5
5C7
100
AcDbEntity
  8
2
370
    50
100
AcDbLine
 10
-152.686101
 20
-121.618691
 30
0.0
 11
-139.486101
 21
-121.618691
 31
0.0
  0
ARC
  5
5C8
100
AcDbEntity
  8
2
370
    50
100
AcDbCircle
 10
-152.086101
 20
-122.418691
 30
0.0
 40
1.0
100
AcDbArc
 50
126.869898
 51
180.0
  0
LINE
  5
5C9
100
AcDbEntity
  8
2
370
    50
100
AcDbLine
 10
-152.536101
 20
-157.966697
 30
0.0
 11
-152.536101
 21
-150.618691
 31
0.0
  0
LINE
  5
5CA
100
AcDbEntity
  8
2
370
    50
100
AcDbLine
 10
-139.636101
 20
-157.966697
 30
0.0
 11
-139.636101
 21
-150.618691
 31
0.0
  0
ARC
  5
5CB
100
AcDbEntity
  8
2
370
    50
100
AcDbCircle
 10
-146.086101
 20
-125.82232
 30
0.0
 40
10.10363
100
AcDbArc
 50
90.0
 51
103.729133
  0
LINE
  5
5CC
100
AcDbEntity
  8
2
370
    50
100
AcDbLine
 10
-149.650283
 20
-116.007366
 30
0.0
 11
-148.484016
 21
-116.007366
 31
0.0
  0
ARC
  5
5CD
100
AcDbEntity
  8
2
370
    50
100
AcDbCircle
 10
-150.84924
 20
-118.352851
 30
0.0
 40
2.634161
100
AcDbArc
 50
62.924933
 51
117.075067
  0
LINE
  5
5CE
100
AcDbEntity
  8
2
370
    50
100
AcDbLine
 10
-148.484016
 20
-116.007366
 30
0.0
 11
-148.484016
 21
-121.330015
 31
0.0
  0
LINE
  5
5CF
100
AcDbEntity
  8
2
370
    50
100
AcDbLine
 10
-149.650283
 20
-116.007366
 30
0.0
 11
-149.650283
 21
-121.330015
 31
0.0
  0
LINE
  5
5D0
100
AcDbEntity
  8
2
370
    50
100
AcDbLine
 10
-152.048198
 20
-116.007366
 30
0.0
 11
-152.048198
 21
-121.330015
 31
0.0
  0
ARC
  5
5D1
100
AcDbEntity
  8
2
370
    50
100
AcDbCircle
 10
-149.311055
 20
-153.666637
 30
0.0
 40
5.375075
100
AcDbArc
 50
233.130102
 51
306.869898
  0
ARC
  5
5D2
100
AcDbEntity
  8
2
370
    50
100
AcDbCircle
 10
-142.860965
 20
-162.266758
 30
0.0
 40
5.375075
100
AcDbArc
 50
53.130102
 51
126.869898
  0
ARC
  5
5D3
100
AcDbEntity
  8
2
370
    50
100
AcDbCircle
 10
-149.311055
 20
-162.266758
 30
0.0
 40
5.375075
100
AcDbArc
 50
53.130102
 51
126.869898
  0
LINE
  5
5D4
100
AcDbEntity
  8
2
370
    50
100
AcDbLine
 10
-151.586101
 20
-115.718691
 30
0.0
 11
-152.086101
 21
-116.007366
 31
0.0
  0
LINE
  5
5D5
100
AcDbEntity
  8
2
370
    50
100
AcDbLine
 10
-138.086101
 20
-131.330015
 30
0.0
 11
-138.086101
 21
-126.007366
 31
0.0
  0
LINE
  5
5D6
100
AcDbEntity
  8
2
370
    50
100
AcDbLine
 10
-126.086101
 20
-131.330015
 30
0.0
 11
-126.086101
 21
-126.007366
 31
0.0
  0
LINE
  5
5D7
100
AcDbEntity
  8
2
370
    50
100
AcDbLine
 10
-129.688185
 20
-126.007366
 30
0.0
 11
-129.688185
 21
-131.330015
 31
0.0
  0
LINE
  5
5D8
100
AcDbEntity
  8
2
370
    50
100
AcDbLine
 10
-128.521919
 20
-126.007366
 30
0.0
 11
-128.521919
 21
-131.330015
 31
0.0
  0
LINE
  5
5D9
100
AcDbEntity
  8
2
370
    50
100
AcDbLine
 10
-126.124003
 20
-126.007366
 30
0.0
 11
-126.124003
 21
-131.330015
 31
0.0
  0
LINE
  5
5DA
100
AcDbEntity
  8
2
370
    50
100
AcDbLine
 10
-126.586101
 20
-131.618691
 30
0.0
 11
-126.086101
 21
-131.330015
 31
0.0
  0
LINE
  5
5DB
100
AcDbEntity
  8
2
370
    50
100
AcDbLine
 10
-128.521919
 20
-131.330015
 30
0.0
 11
-129.688185
 21
-131.330015
 31
0.0
  0
LINE
  5
5DC
100
AcDbEntity
  8
2
370
    50
100
AcDbLine
 10
-138.086101
 20
-131.330015
 30
0.0
 11
-137.586101
 21
-131.618691
 31
0.0
  0
ARC
  5
5DD
100
AcDbEntity
  8
2
370
    50
100
AcDbCircle
 10
-132.086101
 20
-121.515061
 30
0.0
 40
10.10363
100
AcDbArc
 50
270.0
 51
283.729133
  0
ARC
  5
5DE
100
AcDbEntity
  8
2
370
    50
100
AcDbCircle
 10
-132.086101
 20
-135.82232
 30
0.0
 40
10.10363
100
AcDbArc
 50
76.270867
 51
90.0
  0
LINE
  5
5DF
100
AcDbEntity
  8
2
370
    50
100
AcDbLine
 10
-128.521919
 20
-126.007366
 30
0.0
 11
-129.688185
 21
-126.007366
 31
0.0
  0
LINE
  5
5E0
100
AcDbEntity
  8
2
370
    50
100
AcDbLine
 10
-126.086101
 20
-131.330015
 30
0.0
 11
-126.124003
 21
-131.330015
 31
0.0
  0
ARC
  5
5E1
100
AcDbEntity
  8
2
370
    50
100
AcDbCircle
 10
-127.322961
 20
-128.98453
 30
0.0
 40
2.634161
100
AcDbArc
 50
242.924933
 51
297.075067
  0
ARC
  5
5E2
100
AcDbEntity
  8
2
370
    50
100
AcDbCircle
 10
-127.322961
 20
-128.352851
 30
0.0
 40
2.634161
100
AcDbArc
 50
62.924933
 51
117.075067
  0
LINE
  5
5E3
100
AcDbEntity
  8
2
370
    50
100
AcDbLine
 10
-126.586101
 20
-125.718691
 30
0.0
 11
-126.086101
 21
-126.007366
 31
0.0
  0
ARC
  5
5E4
100
AcDbEntity
  8
2
370
    50
100
AcDbCircle
 10
-132.086101
 20
-121.515061
 30
0.0
 40
10.10363
100
AcDbArc
 50
256.270867
 51
270.0
  0
LINE
  5
5E5
100
AcDbEntity
  8
2
370
    50
100
AcDbLine
 10
-135.650283
 20
-131.330015
 30
0.0
 11
-134.484016
 21
-131.330015
 31
0.0
  0
ARC
  5
5E6
100
AcDbEntity
  8
2
370
    50
100
AcDbCircle
 10
-136.84924
 20
-128.98453
 30
0.0
 40
2.634161
100
AcDbArc
 50
242.924933
 51
297.075067
  0
LINE
  5
5E7
100
AcDbEntity
  8
2
370
    50
100
AcDbLine
 10
-138.048198
 20
-131.330015
 30
0.0
 11
-138.086101
 21
-131.330015
 31
0.0
  0
LINE
  5
5E8
100
AcDbEntity
  8
2
370
    50
100
AcDbLine
 10
-137.586101
 20
-131.618691
 30
0.0
 11
-126.586101
 21
-131.618691
 31
0.0
  0
LINE
  5
5E9
100
AcDbEntity
  8
2
370
    50
100
AcDbLine
 10
-138.686101
 20
-160.618691
 30
0.0
 11
-132.086101
 21
-160.618691
 31
0.0
  0
LINE
  5
5EA
100
AcDbEntity
  8
2
370
    50
100
AcDbLine
 10
-138.686101
 20
-155.118691
 30
0.0
 11
-132.086101
 21
-155.118691
 31
0.0
  0
LINE
  5
5EB
100
AcDbEntity
  8
2
370
    50
100
AcDbLine
 10
-138.686101
 20
-153.118691
 30
0.0
 11
-132.086101
 21
-153.118691
 31
0.0
  0
LINE
  5
5EC
100
AcDbEntity
  8
2
370
    50
100
AcDbLine
 10
-138.686101
 20
-148.118691
 30
0.0
 11
-132.086101
 21
-148.118691
 31
0.0
  0
LINE
  5
5ED
100
AcDbEntity
  8
2
370
    50
100
AcDbLine
 10
-138.686101
 20
-146.118691
 30
0.0
 11
-132.086101
 21
-146.118691
 31
0.0
  0
LINE
  5
5EE
100
AcDbEntity
  8
2
370
    50
100
AcDbLine
 10
-138.686101
 20
-141.118691
 30
0.0
 11
-132.086101
 21
-141.118691
 31
0.0
  0
LINE
  5
5EF
100
AcDbEntity
  8
2
370
    50
100
AcDbLine
 10
-138.686101
 20
-139.118691
 30
0.0
 11
-132.086101
 21
-139.118691
 31
0.0
  0
LINE
  5
5F0
100
AcDbEntity
  8
2
370
    50
100
AcDbLine
 10
-139.086101
 20
-159.818691
 30
0.0
 11
-139.086101
 21
-155.918691
 31
0.0
  0
LINE
  5
5F1
100
AcDbEntity
  8
2
370
    50
100
AcDbLine
 10
-139.086101
 20
-152.318691
 30
0.0
 11
-139.086101
 21
-148.918691
 31
0.0
  0
LINE
  5
5F2
100
AcDbEntity
  8
2
370
    50
100
AcDbLine
 10
-139.086101
 20
-145.318691
 30
0.0
 11
-139.086101
 21
-141.918691
 31
0.0
  0
LINE
  5
5F3
100
AcDbEntity
  8
2
370
    50
100
AcDbLine
 10
-139.086101
 20
-138.318691
 30
0.0
 11
-139.086101
 21
-132.418691
 31
0.0
  0
LINE
  5
5F4
100
AcDbEntity
  8
2
370
    50
100
AcDbLine
 10
-138.686101
 20
-141.118691
 30
0.0
 11
-138.686101
 21
-139.118691
 31
0.0
  0
LINE
  5
5F5
100
AcDbEntity
  8
2
370
    50
100
AcDbLine
 10
-138.686101
 20
-155.118691
 30
0.0
 11
-138.686101
 21
-153.118691
 31
0.0
  0
LINE
  5
5F6
100
AcDbEntity
  8
2
370
    50
100
AcDbLine
 10
-138.686101
 20
-148.118691
 30
0.0
 11
-138.686101
 21
-146.118691
 31
0.0
  0
ARC
  5
5F7
100
AcDbEntity
  8
2
370
    50
100
AcDbCircle
 10
-138.086101
 20
-138.318691
 30
0.0
 40
1.0
100
AcDbArc
 50
180.0
 51
233.130102
  0
ARC
  5
5F8
100
AcDbEntity
  8
2
370
    50
100
AcDbCircle
 10
-138.086101
 20
-141.918691
 30
0.0
 40
1.0
100
AcDbArc
 50
126.869898
 51
180.0
  0
ARC
  5
5F9
100
AcDbEntity
  8
2
370
    50
100
AcDbCircle
 10
-138.086101
 20
-145.318691
 30
0.0
 40
1.0
100
AcDbArc
 50
180.0
 51
233.130102
  0
ARC
  5
5FA
100
AcDbEntity
  8
2
370
    50
100
AcDbCircle
 10
-138.086101
 20
-148.918691
 30
0.0
 40
1.0
100
AcDbArc
 50
126.869898
 51
180.0
  0
ARC
  5
5FB
100
AcDbEntity
  8
2
370
    50
100
AcDbCircle
 10
-138.086101
 20
-152.318691
 30
0.0
 40
1.0
100
AcDbArc
 50
180.0
 51
233.130102
  0
ARC
  5
5FC
100
AcDbEntity
  8
2
370
    50
100
AcDbCircle
 10
-138.086101
 20
-155.918691
 30
0.0
 40
1.0
100
AcDbArc
 50
126.869898
 51
180.0
  0
ARC
  5
5FD
100
AcDbEntity
  8
2
370
    50
100
AcDbCircle
 10
-138.086101
 20
-159.818691
 30
0.0
 40
1.0
100
AcDbArc
 50
180.0
 51
233.130102
  0
LINE
  5
5FE
100
AcDbEntity
  8
2
370
    50
100
AcDbLine
 10
-125.486101
 20
-160.618691
 30
0.0
 11
-132.086101
 21
-160.618691
 31
0.0
  0
ARC
  5
5FF
100
AcDbEntity
  8
2
370
    50
100
AcDbCircle
 10
-126.086101
 20
-159.818691
 30
0.0
 40
1.0
100
AcDbArc
 50
306.869898
 51
360.0
  0
LINE
  5
600
100
AcDbEntity
  8
2
370
    50
100
AcDbLine
 10
-125.086101
 20
-159.818691
 30
0.0
 11
-125.086101
 21
-155.918691
 31
0.0
  0
ARC
  5
601
100
AcDbEntity
  8
2
370
    50
100
AcDbCircle
 10
-126.086101
 20
-155.918691
 30
0.0
 40
1.0
100
AcDbArc
 50
360.0
 51
53.130102
  0
LINE
  5
602
100
AcDbEntity
  8
2
370
    50
100
AcDbLine
 10
-125.486101
 20
-155.118691
 30
0.0
 11
-125.486101
 21
-153.118691
 31
0.0
  0
LINE
  5
603
100
AcDbEntity
  8
2
370
    50
100
AcDbLine
 10
-125.486101
 20
-155.118691
 30
0.0
 11
-132.086101
 21
-155.118691
 31
0.0
  0
LINE
  5
604
100
AcDbEntity
  8
2
370
    50
100
AcDbLine
 10
-125.486101
 20
-153.118691
 30
0.0
 11
-132.086101
 21
-153.118691
 31
0.0
  0
ARC
  5
605
100
AcDbEntity
  8
2
370
    50
100
AcDbCircle
 10
-126.086101
 20
-152.318691
 30
0.0
 40
1.0
100
AcDbArc
 50
306.869898
 51
360.0
  0
LINE
  5
606
100
AcDbEntity
  8
2
370
    50
100
AcDbLine
 10
-125.086101
 20
-152.318691
 30
0.0
 11
-125.086101
 21
-148.918691
 31
0.0
  0
ARC
  5
607
100
AcDbEntity
  8
2
370
    50
100
AcDbCircle
 10
-126.086101
 20
-148.918691
 30
0.0
 40
1.0
100
AcDbArc
 50
360.0
 51
53.130102
  0
LINE
  5
608
100
AcDbEntity
  8
2
370
    50
100
AcDbLine
 10
-125.486101
 20
-148.118691
 30
0.0
 11
-132.086101
 21
-148.118691
 31
0.0
  0
LINE
  5
609
100
AcDbEntity
  8
2
370
    50
100
AcDbLine
 10
-125.486101
 20
-148.118691
 30
0.0
 11
-125.486101
 21
-146.118691
 31
0.0
  0
LINE
  5
60A
100
AcDbEntity
  8
2
370
    50
100
AcDbLine
 10
-125.486101
 20
-146.118691
 30
0.0
 11
-132.086101
 21
-146.118691
 31
0.0
  0
ARC
  5
60B
100
AcDbEntity
  8
2
370
    50
100
AcDbCircle
 10
-126.086101
 20
-145.318691
 30
0.0
 40
1.0
100
AcDbArc
 50
306.869898
 51
360.0
  0
LINE
  5
60C
100
AcDbEntity
  8
2
370
    50
100
AcDbLine
 10
-125.086101
 20
-145.318691
 30
0.0
 11
-125.086101
 21
-141.918691
 31
0.0
  0
ARC
  5
60D
100
AcDbEntity
  8
2
370
    50
100
AcDbCircle
 10
-126.086101
 20
-141.918691
 30
0.0
 40
1.0
100
AcDbArc
 50
360.0
 51
53.130102
  0
LINE
  5
60E
100
AcDbEntity
  8
2
370
    50
100
AcDbLine
 10
-125.486101
 20
-141.118691
 30
0.0
 11
-132.086101
 21
-141.118691
 31
0.0
  0
LINE
  5
60F
100
AcDbEntity
  8
2
370
    50
100
AcDbLine
 10
-125.486101
 20
-141.118691
 30
0.0
 11
-125.486101
 21
-139.118691
 31
0.0
  0
LINE
  5
610
100
AcDbEntity
  8
2
370
    50
100
AcDbLine
 10
-125.486101
 20
-139.118691
 30
0.0
 11
-132.086101
 21
-139.118691
 31
0.0
  0
ARC
  5
611
100
AcDbEntity
  8
2
370
    50
100
AcDbCircle
 10
-126.086101
 20
-138.318691
 30
0.0
 40
1.0
100
AcDbArc
 50
306.869898
 51
360.0
  0
LINE
  5
612
100
AcDbEntity
  8
2
370
    50
100
AcDbLine
 10
-125.086101
 20
-138.318691
 30
0.0
 11
-125.086101
 21
-132.418691
 31
0.0
  0
ARC
  5
613
100
AcDbEntity
  8
2
370
    50
100
AcDbCircle
 10
-126.086101
 20
-132.418691
 30
0.0
 40
1.0
100
AcDbArc
 50
360.0
 51
53.130102
  0
LINE
  5
614
100
AcDbEntity
  8
2
370
    50
100
AcDbLine
 10
-138.686101
 20
-131.618691
 30
0.0
 11
-125.486101
 21
-131.618691
 31
0.0
  0
ARC
  5
615
100
AcDbEntity
  8
2
370
    50
100
AcDbCircle
 10
-138.086101
 20
-132.418691
 30
0.0
 40
1.0
100
AcDbArc
 50
126.869898
 51
180.0
  0
LINE
  5
616
100
AcDbEntity
  8
2
370
    50
100
AcDbLine
 10
-138.536101
 20
-167.966697
 30
0.0
 11
-138.536101
 21
-160.618691
 31
0.0
  0
LINE
  5
617
100
AcDbEntity
  8
2
370
    50
100
AcDbLine
 10
-125.636101
 20
-167.966697
 30
0.0
 11
-125.636101
 21
-160.618691
 31
0.0
  0
ARC
  5
618
100
AcDbEntity
  8
2
370
    50
100
AcDbCircle
 10
-132.086101
 20
-135.82232
 30
0.0
 40
10.10363
100
AcDbArc
 50
90.0
 51
103.729133
  0
LINE
  5
619
100
AcDbEntity
  8
2
370
    50
100
AcDbLine
 10
-135.650283
 20
-126.007366
 30
0.0
 11
-134.484016
 21
-126.007366
 31
0.0
  0
ARC
  5
61A
100
AcDbEntity
  8
2
370
    50
100
AcDbCircle
 10
-136.84924
 20
-128.352851
 30
0.0
 40
2.634161
100
AcDbArc
 50
62.924933
 51
117.075067
  0
LINE
  5
61B
100
AcDbEntity
  8
2
370
    50
100
AcDbLine
 10
-134.484016
 20
-126.007366
 30
0.0
 11
-134.484016
 21
-131.330015
 31
0.0
  0
LINE
  5
61C
100
AcDbEntity
  8
2
370
    50
100
AcDbLine
 10
-135.650283
 20
-126.007366
 30
0.0
 11
-135.650283
 21
-131.330015
 31
0.0
  0
LINE
  5
61D
100
AcDbEntity
  8
2
370
    50
100
AcDbLine
 10
-138.048198
 20
-126.007366
 30
0.0
 11
-138.048198
 21
-131.330015
 31
0.0
  0
ARC
  5
61E
100
AcDbEntity
  8
2
370
    50
100
AcDbCircle
 10
-135.311055
 20
-163.666637
 30
0.0
 40
5.375075
100
AcDbArc
 50
233.130102
 51
306.869898
  0
ARC
  5
61F
100
AcDbEntity
  8
2
370
    50
100
AcDbCircle
 10
-128.860965
 20
-172.266758
 30
0.0
 40
5.375075
100
AcDbArc
 50
53.130102
 51
126.869898
  0
ARC
  5
620
100
AcDbEntity
  8
2
370
    50
100
AcDbCircle
 10
-135.311055
 20
-172.266758
 30
0.0
 40
5.375075
100
AcDbArc
 50
53.130102
 51
126.869898
  0
LINE
  5
621
100
AcDbEntity
  8
2
370
    50
100
AcDbLine
 10
-137.586101
 20
-125.718691
 30
0.0
 11
-138.086101
 21
-126.007366
 31
0.0
  0
LINE
  5
622
100
AcDbEntity
  8
2
370
    50
100
AcDbLine
 10
-204.219584
 20
-146.125506
 30
0.0
 11
-210.819838
 21
-146.125506
 31
0.0
  0
LINE
  5
623
100
AcDbEntity
  8
2
370
    50
100
AcDbLine
 10
-204.219584
 20
-146.125506
 30
0.0
 11
-197.619838
 21
-146.125506
 31
0.0
  0
LINE
  5
624
100
AcDbEntity
  8
2
370
    50
100
AcDbLine
 10
-210.819838
 20
-117.125506
 30
0.0
 11
-204.219838
 21
-117.125506
 31
0.0
  0
LINE
  5
625
100
AcDbEntity
  8
2
370
    50
100
AcDbLine
 10
-210.819838
 20
-122.625506
 30
0.0
 11
-204.219838
 21
-122.625506
 31
0.0
  0
LINE
  5
626
100
AcDbEntity
  8
2
370
    50
100
AcDbLine
 10
-210.819838
 20
-124.625506
 30
0.0
 11
-204.219838
 21
-124.625506
 31
0.0
  0
LINE
  5
627
100
AcDbEntity
  8
2
370
    50
100
AcDbLine
 10
-210.819838
 20
-129.625506
 30
0.0
 11
-204.219838
 21
-129.625506
 31
0.0
  0
LINE
  5
628
100
AcDbEntity
  8
2
370
    50
100
AcDbLine
 10
-210.819838
 20
-131.625506
 30
0.0
 11
-204.219838
 21
-131.625506
 31
0.0
  0
LINE
  5
629
100
AcDbEntity
  8
2
370
    50
100
AcDbLine
 10
-210.819838
 20
-136.625506
 30
0.0
 11
-204.219838
 21
-136.625506
 31
0.0
  0
LINE
  5
62A
100
AcDbEntity
  8
2
370
    50
100
AcDbLine
 10
-210.819838
 20
-138.625506
 30
0.0
 11
-204.219838
 21
-138.625506
 31
0.0
  0
LINE
  5
62B
100
AcDbEntity
  8
2
370
    50
100
AcDbLine
 10
-211.219838
 20
-117.925506
 30
0.0
 11
-211.219838
 21
-121.825506
 31
0.0
  0
LINE
  5
62C
100
AcDbEntity
  8
2
370
    50
100
AcDbLine
 10
-211.219838
 20
-125.425506
 30
0.0
 11
-211.219838
 21
-128.825506
 31
0.0
  0
LINE
  5
62D
100
AcDbEntity
  8
2
370
    50
100
AcDbLine
 10
-211.219838
 20
-132.425506
 30
0.0
 11
-211.219838
 21
-135.825506
 31
0.0
  0
LINE
  5
62E
100
AcDbEntity
  8
2
370
    50
100
AcDbLine
 10
-211.219838
 20
-139.425506
 30
0.0
 11
-211.219838
 21
-145.325506
 31
0.0
  0
LINE
  5
62F
100
AcDbEntity
  8
2
370
    50
100
AcDbLine
 10
-210.819838
 20
-136.625506
 30
0.0
 11
-210.819838
 21
-138.625506
 31
0.0
  0
LINE
  5
630
100
AcDbEntity
  8
2
370
    50
100
AcDbLine
 10
-210.819838
 20
-122.625506
 30
0.0
 11
-210.819838
 21
-124.625506
 31
0.0
  0
LINE
  5
631
100
AcDbEntity
  8
2
370
    50
100
AcDbLine
 10
-210.819838
 20
-129.625506
 30
0.0
 11
-210.819838
 21
-131.625506
 31
0.0
  0
ARC
  5
632
100
AcDbEntity
  8
2
370
    50
100
AcDbCircle
 10
-210.219838
 20
-139.425506
 30
0.0
 40
1.0
100
AcDbArc
 50
126.869898
 51
180.0
  0
ARC
  5
633
100
AcDbEntity
  8
2
370
    50
100
AcDbCircle
 10
-210.219838
 20
-135.825506
 30
0.0
 40
1.0
100
AcDbArc
 50
180.0
 51
233.130102
  0
ARC
  5
634
100
AcDbEntity
  8
2
370
    50
100
AcDbCircle
 10
-210.219838
 20
-132.425506
 30
0.0
 40
1.0
100
AcDbArc
 50
126.869898
 51
180.0
  0
ARC
  5
635
100
AcDbEntity
  8
2
370
    50
100
AcDbCircle
 10
-210.219838
 20
-128.825506
 30
0.0
 40
1.0
100
AcDbArc
 50
180.0
 51
233.130102
  0
ARC
  5
636
100
AcDbEntity
  8
2
370
    50
100
AcDbCircle
 10
-210.219838
 20
-125.425506
 30
0.0
 40
1.0
100
AcDbArc
 50
126.869898
 51
180.0
  0
ARC
  5
637
100
AcDbEntity
  8
2
370
    50
100
AcDbCircle
 10
-210.219838
 20
-121.825506
 30
0.0
 40
1.0
100
AcDbArc
 50
180.0
 51
233.130102
  0
ARC
  5
638
100
AcDbEntity
  8
2
370
    50
100
AcDbCircle
 10
-210.219838
 20
-117.925506
 30
0.0
 40
1.0
100
AcDbArc
 50
126.869898
 51
180.0
  0
LINE
  5
639
100
AcDbEntity
  8
2
370
    50
100
AcDbLine
 10
-197.619838
 20
-117.125506
 30
0.0
 11
-204.219838
 21
-117.125506
 31
0.0
  0
ARC
  5
63A
100
AcDbEntity
  8
2
370
    50
100
AcDbCircle
 10
-198.219838
 20
-117.925506
 30
0.0
 40
1.0
100
AcDbArc
 50
0.0
 51
53.130102
  0
LINE
  5
63B
100
AcDbEntity
  8
2
370
    50
100
AcDbLine
 10
-197.219838
 20
-117.925506
 30
0.0
 11
-197.219838
 21
-121.825506
 31
0.0
  0
ARC
  5
63C
100
AcDbEntity
  8
2
370
    50
100
AcDbCircle
 10
-198.219838
 20
-121.825506
 30
0.0
 40
1.0
100
AcDbArc
 50
306.869898
 51
0.0
  0
LINE
  5
63D
100
AcDbEntity
  8
2
370
    50
100
AcDbLine
 10
-197.619838
 20
-122.625506
 30
0.0
 11
-197.619838
 21
-124.625506
 31
0.0
  0
LINE
  5
63E
100
AcDbEntity
  8
2
370
    50
100
AcDbLine
 10
-197.619838
 20
-122.625506
 30
0.0
 11
-204.219838
 21
-122.625506
 31
0.0
  0
LINE
  5
63F
100
AcDbEntity
  8
2
370
    50
100
AcDbLine
 10
-197.619838
 20
-124.625506
 30
0.0
 11
-204.219838
 21
-124.625506
 31
0.0
  0
ARC
  5
640
100
AcDbEntity
  8
2
370
    50
100
AcDbCircle
 10
-198.219838
 20
-125.425506
 30
0.0
 40
1.0
100
AcDbArc
 50
0.0
 51
53.130102
  0
LINE
  5
641
100
AcDbEntity
  8
2
370
    50
100
AcDbLine
 10
-197.219838
 20
-125.425506
 30
0.0
 11
-197.219838
 21
-128.825506
 31
0.0
  0
ARC
  5
642
100
AcDbEntity
  8
2
370
    50
100
AcDbCircle
 10
-198.219838
 20
-128.825506
 30
0.0
 40
1.0
100
AcDbArc
 50
306.869898
 51
0.0
  0
LINE
  5
643
100
AcDbEntity
  8
2
370
    50
100
AcDbLine
 10
-197.619838
 20
-129.625506
 30
0.0
 11
-204.219838
 21
-129.625506
 31
0.0
  0
LINE
  5
644
100
AcDbEntity
  8
2
370
    50
100
AcDbLine
 10
-197.619838
 20
-129.625506
 30
0.0
 11
-197.619838
 21
-131.625506
 31
0.0
  0
LINE
  5
645
100
AcDbEntity
  8
2
370
    50
100
AcDbLine
 10
-197.619838
 20
-131.625506
 30
0.0
 11
-204.219838
 21
-131.625506
 31
0.0
  0
ARC
  5
646
100
AcDbEntity
  8
2
370
    50
100
AcDbCircle
 10
-198.219838
 20
-132.425506
 30
0.0
 40
1.0
100
AcDbArc
 50
0.0
 51
53.130102
  0
LINE
  5
647
100
AcDbEntity
  8
2
370
    50
100
AcDbLine
 10
-197.219838
 20
-132.425506
 30
0.0
 11
-197.219838
 21
-135.825506
 31
0.0
  0
ARC
  5
648
100
AcDbEntity
  8
2
370
    50
100
AcDbCircle
 10
-198.219838
 20
-135.825506
 30
0.0
 40
1.0
100
AcDbArc
 50
306.869898
 51
0.0
  0
LINE
  5
649
100
AcDbEntity
  8
2
370
    50
100
AcDbLine
 10
-197.619838
 20
-136.625506
 30
0.0
 11
-204.219838
 21
-136.625506
 31
0.0
  0
LINE
  5
64A
100
AcDbEntity
  8
2
370
    50
100
AcDbLine
 10
-197.619838
 20
-136.625506
 30
0.0
 11
-197.619838
 21
-138.625506
 31
0.0
  0
LINE
  5
64B
100
AcDbEntity
  8
2
370
    50
100
AcDbLine
 10
-197.619838
 20
-138.625506
 30
0.0
 11
-204.219838
 21
-138.625506
 31
0.0
  0
ARC
  5
64C
100
AcDbEntity
  8
2
370
    50
100
AcDbCircle
 10
-198.219838
 20
-139.425506
 30
0.0
 40
1.0
100
AcDbArc
 50
0.0
 51
53.130102
  0
LINE
  5
64D
100
AcDbEntity
  8
2
370
    50
100
AcDbLine
 10
-197.219838
 20
-139.425506
 30
0.0
 11
-197.219838
 21
-145.325506
 31
0.0
  0
ARC
  5
64E
100
AcDbEntity
  8
2
370
    50
100
AcDbCircle
 10
-210.219838
 20
-145.325506
 30
0.0
 40
1.0
100
AcDbArc
 50
180.0
 51
233.130102
  0
ARC
  5
64F
100
AcDbEntity
  8
2
370
    50
100
AcDbCircle
 10
-198.219838
 20
-145.325506
 30
0.0
 40
1.0
100
AcDbArc
 50
306.869898
 51
0.0
  0
LINE
  5
650
100
AcDbEntity
  8
2
370
    50
100
AcDbLine
 10
-210.669838
 20
-117.125506
 30
0.0
 11
-210.669838
 21
-98.614689
 31
0.0
  0
LINE
  5
651
100
AcDbEntity
  8
2
370
    50
100
AcDbLine
 10
-197.769838
 20
-117.125506
 30
0.0
 11
-197.769838
 21
-98.614689
 31
0.0
  0
LINE
  5
652
100
AcDbEntity
  8
2
370
    50
100
AcDbLine
 10
-210.469838
 20
-147.125506
 30
0.0
 11
-210.469838
 21
-146.125506
 31
0.0
  0
LINE
  5
653
100
AcDbEntity
  8
2
370
    50
100
AcDbLine
 10
-197.969838
 20
-147.125506
 30
0.0
 11
-197.969838
 21
-146.125506
 31
0.0
  0
ARC
  5
654
100
AcDbEntity
  8
2
370
    50
100
AcDbCircle
 10
-207.444838
 20
-94.314689
 30
0.0
 40
5.375
100
AcDbArc
 50
233.130102
 51
306.869898
  0
ARC
  5
655
100
AcDbEntity
  8
2
370
    50
100
AcDbCircle
 10
-200.994838
 20
-102.914689
 30
0.0
 40
5.375
100
AcDbArc
 50
53.130102
 51
126.869898
  0
ARC
  5
656
100
AcDbEntity
  8
2
370
    50
100
AcDbCircle
 10
-200.994838
 20
-94.314689
 30
0.0
 40
5.375
100
AcDbArc
 50
233.130102
 51
306.869898
  0
LINE
  5
657
100
AcDbEntity
  8
2
370
    50
100
AcDbLine
 10
-73.952109
 20
-156.125506
 30
0.0
 11
-80.552363
 21
-156.125506
 31
0.0
  0
LINE
  5
658
100
AcDbEntity
  8
2
370
    50
100
AcDbLine
 10
-73.952109
 20
-156.125506
 30
0.0
 11
-67.352363
 21
-156.125506
 31
0.0
  0
LINE
  5
659
100
AcDbEntity
  8
2
370
    50
100
AcDbLine
 10
-80.552363
 20
-127.125506
 30
0.0
 11
-73.952363
 21
-127.125506
 31
0.0
  0
LINE
  5
65A
100
AcDbEntity
  8
2
370
    50
100
AcDbLine
 10
-80.552363
 20
-132.625506
 30
0.0
 11
-73.952363
 21
-132.625506
 31
0.0
  0
LINE
  5
65B
100
AcDbEntity
  8
2
370
    50
100
AcDbLine
 10
-80.552363
 20
-134.625506
 30
0.0
 11
-73.952363
 21
-134.625506
 31
0.0
  0
LINE
  5
65C
100
AcDbEntity
  8
2
370
    50
100
AcDbLine
 10
-80.552363
 20
-139.625506
 30
0.0
 11
-73.952363
 21
-139.625506
 31
0.0
  0
LINE
  5
65D
100
AcDbEntity
  8
2
370
    50
100
AcDbLine
 10
-80.552363
 20
-141.625506
 30
0.0
 11
-73.952363
 21
-141.625506
 31
0.0
  0
LINE
  5
65E
100
AcDbEntity
  8
2
370
    50
100
AcDbLine
 10
-80.552363
 20
-146.625506
 30
0.0
 11
-73.952363
 21
-146.625506
 31
0.0
  0
LINE
  5
65F
100
AcDbEntity
  8
2
370
    50
100
AcDbLine
 10
-80.552363
 20
-148.625506
 30
0.0
 11
-73.952363
 21
-148.625506
 31
0.0
  0
LINE
  5
660
100
AcDbEntity
  8
2
370
    50
100
AcDbLine
 10
-80.952363
 20
-127.925506
 30
0.0
 11
-80.952363
 21
-131.825506
 31
0.0
  0
LINE
  5
661
100
AcDbEntity
  8
2
370
    50
100
AcDbLine
 10
-80.952363
 20
-135.425506
 30
0.0
 11
-80.952363
 21
-138.825506
 31
0.0
  0
LINE
  5
662
100
AcDbEntity
  8
2
370
    50
100
AcDbLine
 10
-80.952363
 20
-142.425506
 30
0.0
 11
-80.952363
 21
-145.825506
 31
0.0
  0
LINE
  5
663
100
AcDbEntity
  8
2
370
    50
100
AcDbLine
 10
-80.952363
 20
-149.425506
 30
0.0
 11
-80.952363
 21
-155.325506
 31
0.0
  0
LINE
  5
664
100
AcDbEntity
  8
2
370
    50
100
AcDbLine
 10
-80.552363
 20
-146.625506
 30
0.0
 11
-80.552363
 21
-148.625506
 31
0.0
  0
LINE
  5
665
100
AcDbEntity
  8
2
370
    50
100
AcDbLine
 10
-80.552363
 20
-132.625506
 30
0.0
 11
-80.552363
 21
-134.625506
 31
0.0
  0
LINE
  5
666
100
AcDbEntity
  8
2
370
    50
100
AcDbLine
 10
-80.552363
 20
-139.625506
 30
0.0
 11
-80.552363
 21
-141.625506
 31
0.0
  0
ARC
  5
667
100
AcDbEntity
  8
2
370
    50
100
AcDbCircle
 10
-79.952363
 20
-149.425506
 30
0.0
 40
1.0
100
AcDbArc
 50
126.869898
 51
180.0
  0
ARC
  5
668
100
AcDbEntity
  8
2
370
    50
100
AcDbCircle
 10
-79.952363
 20
-145.825506
 30
0.0
 40
1.0
100
AcDbArc
 50
180.0
 51
233.130102
  0
ARC
  5
669
100
AcDbEntity
  8
2
370
    50
100
AcDbCircle
 10
-79.952363
 20
-142.425506
 30
0.0
 40
1.0
100
AcDbArc
 50
126.869898
 51
180.0
  0
ARC
  5
66A
100
AcDbEntity
  8
2
370
    50
100
AcDbCircle
 10
-79.952363
 20
-138.825506
 30
0.0
 40
1.0
100
AcDbArc
 50
180.0
 51
233.130102
  0
ARC
  5
66B
100
AcDbEntity
  8
2
370
    50
100
AcDbCircle
 10
-79.952363
 20
-135.425506
 30
0.0
 40
1.0
100
AcDbArc
 50
126.869898
 51
180.0
  0
ARC
  5
66C
100
AcDbEntity
  8
2
370
    50
100
AcDbCircle
 10
-79.952363
 20
-131.825506
 30
0.0
 40
1.0
100
AcDbArc
 50
180.0
 51
233.130102
  0
ARC
  5
66D
100
AcDbEntity
  8
2
370
    50
100
AcDbCircle
 10
-79.952363
 20
-127.925506
 30
0.0
 40
1.0
100
AcDbArc
 50
126.869898
 51
180.0
  0
LINE
  5
66E
100
AcDbEntity
  8
2
370
    50
100
AcDbLine
 10
-67.352363
 20
-127.125506
 30
0.0
 11
-73.952363
 21
-127.125506
 31
0.0
  0
ARC
  5
66F
100
AcDbEntity
  8
2
370
    50
100
AcDbCircle
 10
-67.952363
 20
-127.925506
 30
0.0
 40
1.0
100
AcDbArc
 50
0.0
 51
53.130102
  0
LINE
  5
670
100
AcDbEntity
  8
2
370
    50
100
AcDbLine
 10
-66.952363
 20
-127.925506
 30
0.0
 11
-66.952363
 21
-131.825506
 31
0.0
  0
ARC
  5
671
100
AcDbEntity
  8
2
370
    50
100
AcDbCircle
 10
-67.952363
 20
-131.825506
 30
0.0
 40
1.0
100
AcDbArc
 50
306.869898
 51
0.0
  0
LINE
  5
672
100
AcDbEntity
  8
2
370
    50
100
AcDbLine
 10
-67.352363
 20
-132.625506
 30
0.0
 11
-67.352363
 21
-134.625506
 31
0.0
  0
LINE
  5
673
100
AcDbEntity
  8
2
370
    50
100
AcDbLine
 10
-67.352363
 20
-132.625506
 30
0.0
 11
-73.952363
 21
-132.625506
 31
0.0
  0
LINE
  5
674
100
AcDbEntity
  8
2
370
    50
100
AcDbLine
 10
-67.352363
 20
-134.625506
 30
0.0
 11
-73.952363
 21
-134.625506
 31
0.0
  0
ARC
  5
675
100
AcDbEntity
  8
2
370
    50
100
AcDbCircle
 10
-67.952363
 20
-135.425506
 30
0.0
 40
1.0
100
AcDbArc
 50
0.0
 51
53.130102
  0
LINE
  5
676
100
AcDbEntity
  8
2
370
    50
100
AcDbLine
 10
-66.952363
 20
-135.425506
 30
0.0
 11
-66.952363
 21
-138.825506
 31
0.0
  0
ARC
  5
677
100
AcDbEntity
  8
2
370
    50
100
AcDbCircle
 10
-67.952363
 20
-138.825506
 30
0.0
 40
1.0
100
AcDbArc
 50
306.869898
 51
0.0
  0
LINE
  5
678
100
AcDbEntity
  8
2
370
    50
100
AcDbLine
 10
-67.352363
 20
-139.625506
 30
0.0
 11
-73.952363
 21
-139.625506
 31
0.0
  0
LINE
  5
679
100
AcDbEntity
  8
2
370
    50
100
AcDbLine
 10
-67.352363
 20
-139.625506
 30
0.0
 11
-67.352363
 21
-141.625506
 31
0.0
  0
LINE
  5
67A
100
AcDbEntity
  8
2
370
    50
100
AcDbLine
 10
-67.352363
 20
-141.625506
 30
0.0
 11
-73.952363
 21
-141.625506
 31
0.0
  0
ARC
  5
67B
100
AcDbEntity
  8
2
370
    50
100
AcDbCircle
 10
-67.952363
 20
-142.425506
 30
0.0
 40
1.0
100
AcDbArc
 50
0.0
 51
53.130102
  0
LINE
  5
67C
100
AcDbEntity
  8
2
370
    50
100
AcDbLine
 10
-66.952363
 20
-142.425506
 30
0.0
 11
-66.952363
 21
-145.825506
 31
0.0
  0
ARC
  5
67D
100
AcDbEntity
  8
2
370
    50
100
AcDbCircle
 10
-67.952363
 20
-145.825506
 30
0.0
 40
1.0
100
AcDbArc
 50
306.869898
 51
0.0
  0
LINE
  5
67E
100
AcDbEntity
  8
2
370
    50
100
AcDbLine
 10
-67.352363
 20
-146.625506
 30
0.0
 11
-73.952363
 21
-146.625506
 31
0.0
  0
LINE
  5
67F
100
AcDbEntity
  8
2
370
    50
100
AcDbLine
 10
-67.352363
 20
-146.625506
 30
0.0
 11
-67.352363
 21
-148.625506
 31
0.0
  0
LINE
  5
680
100
AcDbEntity
  8
2
370
    50
100
AcDbLine
 10
-67.352363
 20
-148.625506
 30
0.0
 11
-73.952363
 21
-148.625506
 31
0.0
  0
ARC
  5
681
100
AcDbEntity
  8
2
370
    50
100
AcDbCircle
 10
-67.952363
 20
-149.425506
 30
0.0
 40
1.0
100
AcDbArc
 50
0.0
 51
53.130102
  0
LINE
  5
682
100
AcDbEntity
  8
2
370
    50
100
AcDbLine
 10
-66.952363
 20
-149.425506
 30
0.0
 11
-66.952363
 21
-155.325506
 31
0.0
  0
ARC
  5
683
100
AcDbEntity
  8
2
370
    50
100
AcDbCircle
 10
-79.952363
 20
-155.325506
 30
0.0
 40
1.0
100
AcDbArc
 50
180.0
 51
233.130102
  0
ARC
  5
684
100
AcDbEntity
  8
2
370
    50
100
AcDbCircle
 10
-67.952363
 20
-155.325506
 30
0.0
 40
1.0
100
AcDbArc
 50
306.869898
 51
0.0
  0
LINE
  5
685
100
AcDbEntity
  8
2
370
    50
100
AcDbLine
 10
-80.402363
 20
-127.125506
 30
0.0
 11
-80.402363
 21
-108.614689
 31
0.0
  0
LINE
  5
686
100
AcDbEntity
  8
2
370
    50
100
AcDbLine
 10
-67.502363
 20
-127.125506
 30
0.0
 11
-67.502363
 21
-108.614689
 31
0.0
  0
LINE
  5
687
100
AcDbEntity
  8
2
370
    50
100
AcDbLine
 10
-80.202363
 20
-157.125506
 30
0.0
 11
-80.202363
 21
-156.125506
 31
0.0
  0
LINE
  5
688
100
AcDbEntity
  8
2
370
    50
100
AcDbLine
 10
-67.702363
 20
-157.125506
 30
0.0
 11
-67.702363
 21
-156.125506
 31
0.0
  0
ARC
  5
689
100
AcDbEntity
  8
2
370
    50
100
AcDbCircle
 10
-77.177363
 20
-104.314689
 30
0.0
 40
5.375
100
AcDbArc
 50
233.130102
 51
306.869898
  0
ARC
  5
68A
100
AcDbEntity
  8
2
370
    50
100
AcDbCircle
 10
-70.727363
 20
-112.914689
 30
0.0
 40
5.375
100
AcDbArc
 50
53.130102
 51
126.869898
  0
ARC
  5
68B
100
AcDbEntity
  8
2
370
    50
100
AcDbCircle
 10
-70.727363
 20
-104.314689
 30
0.0
 40
5.375
100
AcDbArc
 50
233.130102
 51
306.869898
  0
LINE
  5
68C
100
AcDbEntity
  8
2
370
    50
100
AcDbLine
 10
-143.086101
 20
-163.258133
 30
0.0
 11
-143.086101
 21
-157.152912
 31
0.0
  0
ARC
  5
68D
100
AcDbEntity
  8
2
370
    50
100
AcDbCircle
 10
-141.086101
 20
-161.022065
 30
0.0
 40
3.0
100
AcDbArc
 50
228.189685
 51
311.810315
  0
ARC
  5
68E
100
AcDbEntity
  8
2
370
    50
100
AcDbCircle
 10
-141.086101
 20
-165.494201
 30
0.0
 40
3.0
100
AcDbArc
 50
48.189685
 51
131.810315
  0
ARC
  5
68F
100
AcDbEntity
  8
2
370
    50
100
AcDbCircle
 10
-137.086101
 20
-165.494201
 30
0.0
 40
3.0
100
AcDbArc
 50
118.903335
 51
131.810315
  0
LINE
  5
690
100
AcDbEntity
  8
2
370
    50
100
AcDbLine
 10
241.576259
 20
-130.425256
 30
0.0
 11
241.576259
 21
-129.411351
 31
0.0
  0
ARC
  5
691
100
AcDbEntity
  8
2
370
    50
100
AcDbCircle
 10
240.976259
 20
-130.728823
 30
0.0
 40
0.2
100
AcDbArc
 50
99.5
 51
180.0
  0
LINE
  5
692
100
AcDbEntity
  8
2
370
    50
100
AcDbLine
 10
253.976259
 20
-128.350225
 30
0.0
 11
253.976259
 21
-127.336303
 31
0.0
  0
ARC
  5
693
100
AcDbEntity
  8
2
370
    50
100
AcDbCircle
 10
254.576259
 20
-128.452963
 30
0.0
 40
0.2
100
AcDbArc
 50
0.0
 51
99.5
  0
LINE
  5
694
100
AcDbEntity
  8
2
370
    50
100
AcDbLine
 10
240.943247
 20
-130.531584
 30
0.0
 11
254.54325
 21
-128.255326
 31
0.0
  0
LINE
  5
695
100
AcDbEntity
  8
2
370
    50
100
AcDbLine
 10
254.776259
 20
-130.361069
 30
0.0
 11
254.776259
 21
-128.452963
 31
0.0
  0
LINE
  5
696
100
AcDbEntity
  8
2
370
    50
100
AcDbLine
 10
240.776259
 20
-129.308976
 30
0.0
 11
240.776259
 21
-126.672823
 31
0.0
  0
ARC
  5
697
100
AcDbEntity
  8
2
370
    50
100
AcDbCircle
 10
240.976259
 20
-129.308976
 30
0.0
 40
0.2
100
AcDbArc
 50
180.0
 51
279.5
  0
ARC
  5
698
100
AcDbEntity
  8
2
370
    50
100
AcDbCircle
 10
240.976259
 20
-126.672823
 30
0.0
 40
0.2
100
AcDbArc
 50
99.5
 51
180.0
  0
LINE
  5
699
100
AcDbEntity
  8
2
370
    50
100
AcDbLine
 10
241.576259
 20
-126.369256
 30
0.0
 11
241.576259
 21
-125.355351
 31
0.0
  0
LINE
  5
69A
100
AcDbEntity
  8
2
370
    50
100
AcDbLine
 10
253.976259
 20
-124.294225
 30
0.0
 11
253.976259
 21
-123.280303
 31
0.0
  0
ARC
  5
69B
100
AcDbEntity
  8
2
370
    50
100
AcDbCircle
 10
254.576259
 20
-124.396963
 30
0.0
 40
0.2
100
AcDbArc
 50
0.0
 51
99.5
  0
LINE
  5
69C
100
AcDbEntity
  8
2
370
    50
100
AcDbLine
 10
254.776259
 20
-127.033116
 30
0.0
 11
254.776259
 21
-124.396963
 31
0.0
  0
ARC
  5
69D
100
AcDbEntity
  8
2
370
    50
100
AcDbCircle
 10
254.576259
 20
-127.033116
 30
0.0
 40
0.2
100
AcDbArc
 50
279.5
 51
360.0
  0
LINE
  5
69E
100
AcDbEntity
  8
2
370
    50
100
AcDbLine
 10
241.009269
 20
-129.506233
 30
0.0
 11
254.609269
 21
-127.230374
 31
0.0
  0
LINE
  5
69F
100
AcDbEntity
  8
2
370
    50
100
AcDbLine
 10
240.943247
 20
-126.475584
 30
0.0
 11
254.54325
 21
-124.199326
 31
0.0
  0
LINE
  5
6A0
100
AcDbEntity
  8
2
370
    50
100
AcDbLine
 10
240.776259
 20
-125.252976
 30
0.0
 11
240.776259
 21
-122.616823
 31
0.0
  0
ARC
  5
6A1
100
AcDbEntity
  8
2
370
    50
100
AcDbCircle
 10
240.976259
 20
-125.252976
 30
0.0
 40
0.2
100
AcDbArc
 50
180.0
 51
279.5
  0
ARC
  5
6A2
100
AcDbEntity
  8
2
370
    50
100
AcDbCircle
 10
240.976259
 20
-122.616823
 30
0.0
 40
0.2
100
AcDbArc
 50
99.5
 51
180.0
  0
LINE
  5
6A3
100
AcDbEntity
  8
2
370
    50
100
AcDbLine
 10
241.576259
 20
-122.313256
 30
0.0
 11
241.576259
 21
-121.299351
 31
0.0
  0
LINE
  5
6A4
100
AcDbEntity
  8
2
370
    50
100
AcDbLine
 10
254.776259
 20
-122.977116
 30
0.0
 11
254.776259
 21
-120.963818
 31
0.0
  0
ARC
  5
6A5
100
AcDbEntity
  8
2
370
    50
100
AcDbCircle
 10
254.576259
 20
-122.977116
 30
0.0
 40
0.2
100
AcDbArc
 50
279.5
 51
360.0
  0
LINE
  5
6A6
100
AcDbEntity
  8
2
370
    50
100
AcDbLine
 10
241.009269
 20
-125.450233
 30
0.0
 11
254.609269
 21
-123.174374
 31
0.0
  0
LINE
  5
6A7
100
AcDbEntity
  8
2
370
    50
100
AcDbLine
 10
240.943247
 20
-122.419584
 30
0.0
 11
249.641045
 21
-120.963818
 31
0.0
  0
ARC
  5
6A8
100
AcDbEntity
  8
2
370
    50
100
AcDbCircle
 10
240.976259
 20
-121.196976
 30
0.0
 40
0.2
100
AcDbArc
 50
180.0
 51
279.5
  0
LINE
  5
6A9
100
AcDbEntity
  8
2
370
    50
100
AcDbLine
 10
241.009269
 20
-121.394233
 30
0.0
 11
243.581329
 21
-120.963818
 31
0.0
  0
LINE
  5
6AA
100
AcDbEntity
  8
2
370
    50
100
AcDbLine
 10
240.776259
 20
-120.963818
 30
0.0
 11
240.776259
 21
-121.196976
 31
0.0
  0
LINE
  5
6AB
100
AcDbEntity
  8
2
370
    50
100
AcDbLine
 10
254.776259
 20
-130.549896
 30
0.0
 11
254.776259
 21
-136.84343
 31
0.0
  0
LINE
  5
6AC
100
AcDbEntity
  8
2
370
    50
100
AcDbLine
 10
240.776259
 20
-132.564194
 30
0.0
 11
240.776259
 21
-136.844528
 31
0.0
  0
LINE
  5
6AD
100
AcDbEntity
  8
2
370
    50
100
AcDbLine
 10
240.776259
 20
-130.728823
 30
0.0
 11
240.776259
 21
-132.438293
 31
0.0
  0
ARC
  5
6AE
100
AcDbEntity
  8
2
370
    50
100
AcDbCircle
 10
244.276259
 20
-132.14504
 30
0.0
 40
5.833333
100
AcDbArc
 50
233.130102
 51
306.869898
  0
ARC
  5
6AF
100
AcDbEntity
  8
2
370
    50
100
AcDbCircle
 10
251.276259
 20
-141.478373
 30
0.0
 40
5.833333
100
AcDbArc
 50
53.130102
 51
126.869898
  0
ARC
  5
6B0
100
AcDbEntity
  8
2
370
    50
100
AcDbCircle
 10
244.276259
 20
-141.478373
 30
0.0
 40
5.833333
100
AcDbArc
 50
53.130102
 51
126.869898
  0
LINE
  5
6B1
100
AcDbEntity
  8
2
370
    50
100
AcDbLine
 10
232.717899
 20
-176.897607
 30
0.0
 11
232.948966
 21
-178.278407
 31
0.0
  0
LINE
  5
6B2
100
AcDbEntity
  8
2
370
    50
100
AcDbLine
 10
232.882147
 20
-176.66734
 30
0.0
 11
262.076201
 21
-171.781931
 31
0.0
  0
LINE
  5
6B3
100
AcDbEntity
  8
2
370
    50
100
AcDbLine
 10
233.179233
 20
-178.442654
 30
0.0
 11
262.373286
 21
-173.557245
 31
0.0
  0
LINE
  5
6B4
100
AcDbEntity
  8
2
370
    50
100
AcDbLine
 10
262.306467
 20
-171.946179
 30
0.0
 11
262.537534
 21
-173.326979
 31
0.0
  0
ARC
  5
6B5
100
AcDbEntity
  8
2
370
    50
100
AcDbCircle
 10
262.10921
 20
-171.979188
 30
0.0
 40
0.2
100
AcDbArc
 50
9.5
 51
99.5
  0
ARC
  5
6B6
100
AcDbEntity
  8
2
370
    50
100
AcDbCircle
 10
262.340277
 20
-173.359988
 30
0.0
 40
0.2
100
AcDbArc
 50
279.5
 51
9.5
  0
ARC
  5
6B7
100
AcDbEntity
  8
2
370
    50
100
AcDbCircle
 10
232.915156
 20
-176.864597
 30
0.0
 40
0.2
100
AcDbArc
 50
99.5
 51
189.5
  0
ARC
  5
6B8
100
AcDbEntity
  8
2
370
    50
100
AcDbCircle
 10
233.146223
 20
-178.245397
 30
0.0
 40
0.2
100
AcDbArc
 50
189.5
 51
279.5
  0
LINE
  5
6B9
100
AcDbEntity
  8
2
370
    50
100
AcDbLine
 10
241.576401
 20
-191.461252
 30
0.0
 11
241.576401
 21
-190.447347
 31
0.0
  0
LINE
  5
6BA
100
AcDbEntity
  8
2
370
    50
100
AcDbLine
 10
240.776401
 20
-190.344972
 30
0.0
 11
240.776401
 21
-187.708818
 31
0.0
  0
ARC
  5
6BB
100
AcDbEntity
  8
2
370
    50
100
AcDbCircle
 10
240.976401
 20
-187.708818
 30
0.0
 40
0.2
100
AcDbArc
 50
99.5
 51
180.0
  0
LINE
  5
6BC
100
AcDbEntity
  8
2
370
    50
100
AcDbLine
 10
241.009411
 20
-190.542229
 30
0.0
 11
254.609411
 21
-188.266369
 31
0.0
  0
ARC
  5
6BD
100
AcDbEntity
  8
2
370
    50
100
AcDbCircle
 10
240.976401
 20
-190.344972
 30
0.0
 40
0.2
100
AcDbArc
 50
180.0
 51
279.5
  0
LINE
  5
6BE
100
AcDbEntity
  8
2
370
    50
100
AcDbLine
 10
241.576401
 20
-187.405252
 30
0.0
 11
241.576401
 21
-186.391347
 31
0.0
  0
LINE
  5
6BF
100
AcDbEntity
  8
2
370
    50
100
AcDbLine
 10
254.543386
 20
-185.235323
 30
0.0
 11
240.943389
 21
-187.51158
 31
0.0
  0
LINE
  5
6C0
100
AcDbEntity
  8
2
370
    50
100
AcDbLine
 10
240.776401
 20
-186.288972
 30
0.0
 11
240.776401
 21
-183.652818
 31
0.0
  0
ARC
  5
6C1
100
AcDbEntity
  8
2
370
    50
100
AcDbCircle
 10
240.976401
 20
-183.652818
 30
0.0
 40
0.2
100
AcDbArc
 50
99.5
 51
180.0
  0
LINE
  5
6C2
100
AcDbEntity
  8
2
370
    50
100
AcDbLine
 10
241.009411
 20
-186.486229
 30
0.0
 11
254.609411
 21
-184.210369
 31
0.0
  0
ARC
  5
6C3
100
AcDbEntity
  8
2
370
    50
100
AcDbCircle
 10
240.976401
 20
-186.288972
 30
0.0
 40
0.2
100
AcDbArc
 50
180.0
 51
279.5
  0
LINE
  5
6C4
100
AcDbEntity
  8
2
370
    50
100
AcDbLine
 10
241.576401
 20
-183.349252
 30
0.0
 11
241.576401
 21
-182.335347
 31
0.0
  0
LINE
  5
6C5
100
AcDbEntity
  8
2
370
    50
100
AcDbLine
 10
254.543386
 20
-181.179323
 30
0.0
 11
240.943389
 21
-183.45558
 31
0.0
  0
LINE
  5
6C6
100
AcDbEntity
  8
2
370
    50
100
AcDbLine
 10
240.776401
 20
-182.232972
 30
0.0
 11
240.776401
 21
-179.596818
 31
0.0
  0
ARC
  5
6C7
100
AcDbEntity
  8
2
370
    50
100
AcDbCircle
 10
240.976401
 20
-179.596818
 30
0.0
 40
0.2
100
AcDbArc
 50
99.5
 51
180.0
  0
LINE
  5
6C8
100
AcDbEntity
  8
2
370
    50
100
AcDbLine
 10
241.009411
 20
-182.430229
 30
0.0
 11
254.609411
 21
-180.154369
 31
0.0
  0
ARC
  5
6C9
100
AcDbEntity
  8
2
370
    50
100
AcDbCircle
 10
240.976401
 20
-182.232972
 30
0.0
 40
0.2
100
AcDbArc
 50
180.0
 51
279.5
  0
LINE
  5
6CA
100
AcDbEntity
  8
2
370
    50
100
AcDbLine
 10
241.576401
 20
-179.293252
 30
0.0
 11
241.576401
 21
-178.279347
 31
0.0
  0
LINE
  5
6CB
100
AcDbEntity
  8
2
370
    50
100
AcDbLine
 10
254.543386
 20
-177.123323
 30
0.0
 11
240.943389
 21
-179.39958
 31
0.0
  0
LINE
  5
6CC
100
AcDbEntity
  8
2
370
    50
100
AcDbLine
 10
240.776401
 20
-178.176972
 30
0.0
 11
240.776401
 21
-177.171324
 31
0.0
  0
LINE
  5
6CD
100
AcDbEntity
  8
2
370
    50
100
AcDbLine
 10
241.009411
 20
-178.374229
 30
0.0
 11
254.609411
 21
-176.098369
 31
0.0
  0
ARC
  5
6CE
100
AcDbEntity
  8
2
370
    50
100
AcDbCircle
 10
240.976401
 20
-178.176972
 30
0.0
 40
0.2
100
AcDbArc
 50
180.0
 51
279.5
  0
LINE
  5
6CF
100
AcDbEntity
  8
2
370
    50
100
AcDbLine
 10
241.576401
 20
-175.237252
 30
0.0
 11
241.576401
 21
-174.223347
 31
0.0
  0
LINE
  5
6D0
100
AcDbEntity
  8
2
370
    50
100
AcDbLine
 10
240.776401
 20
-174.120972
 30
0.0
 11
240.776401
 21
-171.484818
 31
0.0
  0
ARC
  5
6D1
100
AcDbEntity
  8
2
370
    50
100
AcDbCircle
 10
240.976401
 20
-171.484818
 30
0.0
 40
0.2
100
AcDbArc
 50
99.5
 51
180.0
  0
LINE
  5
6D2
100
AcDbEntity
  8
2
370
    50
100
AcDbLine
 10
241.009411
 20
-174.318229
 30
0.0
 11
254.609411
 21
-172.042369
 31
0.0
  0
ARC
  5
6D3
100
AcDbEntity
  8
2
370
    50
100
AcDbCircle
 10
240.976401
 20
-174.120972
 30
0.0
 40
0.2
100
AcDbArc
 50
180.0
 51
279.5
  0
LINE
  5
6D4
100
AcDbEntity
  8
2
370
    50
100
AcDbLine
 10
241.576401
 20
-171.181252
 30
0.0
 11
241.576401
 21
-170.167347
 31
0.0
  0
LINE
  5
6D5
100
AcDbEntity
  8
2
370
    50
100
AcDbLine
 10
254.543386
 20
-169.011323
 30
0.0
 11
240.943389
 21
-171.28758
 31
0.0
  0
LINE
  5
6D6
100
AcDbEntity
  8
2
370
    50
100
AcDbLine
 10
240.776401
 20
-170.064972
 30
0.0
 11
240.776401
 21
-167.428818
 31
0.0
  0
ARC
  5
6D7
100
AcDbEntity
  8
2
370
    50
100
AcDbCircle
 10
240.976401
 20
-167.428818
 30
0.0
 40
0.2
100
AcDbArc
 50
99.5
 51
180.0
  0
LINE
  5
6D8
100
AcDbEntity
  8
2
370
    50
100
AcDbLine
 10
241.009411
 20
-170.262229
 30
0.0
 11
254.609411
 21
-167.986369
 31
0.0
  0
ARC
  5
6D9
100
AcDbEntity
  8
2
370
    50
100
AcDbCircle
 10
240.976401
 20
-170.064972
 30
0.0
 40
0.2
100
AcDbArc
 50
180.0
 51
279.5
  0
LINE
  5
6DA
100
AcDbEntity
  8
2
370
    50
100
AcDbLine
 10
241.576401
 20
-167.125252
 30
0.0
 11
241.576401
 21
-166.111347
 31
0.0
  0
LINE
  5
6DB
100
AcDbEntity
  8
2
370
    50
100
AcDbLine
 10
254.543386
 20
-164.955323
 30
0.0
 11
240.943389
 21
-167.23158
 31
0.0
  0
LINE
  5
6DC
100
AcDbEntity
  8
2
370
    50
100
AcDbLine
 10
240.776401
 20
-166.008972
 30
0.0
 11
240.776401
 21
-163.372818
 31
0.0
  0
ARC
  5
6DD
100
AcDbEntity
  8
2
370
    50
100
AcDbCircle
 10
240.976401
 20
-163.372818
 30
0.0
 40
0.2
100
AcDbArc
 50
99.5
 51
180.0
  0
LINE
  5
6DE
100
AcDbEntity
  8
2
370
    50
100
AcDbLine
 10
241.009411
 20
-166.206229
 30
0.0
 11
254.609411
 21
-163.930369
 31
0.0
  0
ARC
  5
6DF
100
AcDbEntity
  8
2
370
    50
100
AcDbCircle
 10
240.976401
 20
-166.008972
 30
0.0
 40
0.2
100
AcDbArc
 50
180.0
 51
279.5
  0
LINE
  5
6E0
100
AcDbEntity
  8
2
370
    50
100
AcDbLine
 10
241.576401
 20
-163.069252
 30
0.0
 11
241.576401
 21
-162.055347
 31
0.0
  0
LINE
  5
6E1
100
AcDbEntity
  8
2
370
    50
100
AcDbLine
 10
254.543386
 20
-160.899323
 30
0.0
 11
240.943389
 21
-163.17558
 31
0.0
  0
LINE
  5
6E2
100
AcDbEntity
  8
2
370
    50
100
AcDbLine
 10
241.009411
 20
-162.150229
 30
0.0
 11
254.609411
 21
-159.874369
 31
0.0
  0
LINE
  5
6E3
100
AcDbEntity
  8
2
370
    50
100
AcDbLine
 10
240.776401
 20
-161.952972
 30
0.0
 11
240.776401
 21
-159.316818
 31
0.0
  0
ARC
  5
6E4
100
AcDbEntity
  8
2
370
    50
100
AcDbCircle
 10
240.976401
 20
-161.952972
 30
0.0
 40
0.2
100
AcDbArc
 50
180.0
 51
279.5
  0
LINE
  5
6E5
100
AcDbEntity
  8
2
370
    50
100
AcDbLine
 10
254.776401
 20
-188.069112
 30
0.0
 11
254.776401
 21
-185.432579
 31
0.0
  0
LINE
  5
6E6
100
AcDbEntity
  8
2
370
    50
100
AcDbLine
 10
254.776401
 20
-184.013112
 30
0.0
 11
254.776401
 21
-181.376579
 31
0.0
  0
LINE
  5
6E7
100
AcDbEntity
  8
2
370
    50
100
AcDbLine
 10
254.776401
 20
-179.957112
 30
0.0
 11
254.776401
 21
-177.320579
 31
0.0
  0
LINE
  5
6E8
100
AcDbEntity
  8
2
370
    50
100
AcDbLine
 10
254.776401
 20
-175.901112
 30
0.0
 11
254.776401
 21
-174.828528
 31
0.0
  0
LINE
  5
6E9
100
AcDbEntity
  8
2
370
    50
100
AcDbLine
 10
254.776401
 20
-171.845112
 30
0.0
 11
254.776401
 21
-169.208579
 31
0.0
  0
LINE
  5
6EA
100
AcDbEntity
  8
2
370
    50
100
AcDbLine
 10
254.776401
 20
-167.789112
 30
0.0
 11
254.776401
 21
-165.152579
 31
0.0
  0
LINE
  5
6EB
100
AcDbEntity
  8
2
370
    50
100
AcDbLine
 10
254.776401
 20
-163.733112
 30
0.0
 11
254.776401
 21
-161.096579
 31
0.0
  0
LINE
  5
6EC
100
AcDbEntity
  8
2
370
    50
100
AcDbLine
 10
254.776401
 20
-159.677112
 30
0.0
 11
254.776401
 21
-159.31461
 31
0.0
  0
LINE
  5
6ED
100
AcDbEntity
  8
2
370
    50
100
AcDbLine
 10
253.976401
 20
-160.99422
 30
0.0
 11
253.976401
 21
-159.980299
 31
0.0
  0
LINE
  5
6EE
100
AcDbEntity
  8
2
370
    50
100
AcDbLine
 10
253.976401
 20
-165.05022
 30
0.0
 11
253.976401
 21
-164.036299
 31
0.0
  0
LINE
  5
6EF
100
AcDbEntity
  8
2
370
    50
100
AcDbLine
 10
253.976401
 20
-169.10622
 30
0.0
 11
253.976401
 21
-168.092299
 31
0.0
  0
LINE
  5
6F0
100
AcDbEntity
  8
2
370
    50
100
AcDbLine
 10
253.976401
 20
-173.16222
 30
0.0
 11
253.976401
 21
-172.148299
 31
0.0
  0
LINE
  5
6F1
100
AcDbEntity
  8
2
370
    50
100
AcDbLine
 10
253.976401
 20
-177.21822
 30
0.0
 11
253.976401
 21
-176.204299
 31
0.0
  0
LINE
  5
6F2
100
AcDbEntity
  8
2
370
    50
100
AcDbLine
 10
253.976401
 20
-181.27422
 30
0.0
 11
253.976401
 21
-180.260299
 31
0.0
  0
LINE
  5
6F3
100
AcDbEntity
  8
2
370
    50
100
AcDbLine
 10
253.976401
 20
-189.38622
 30
0.0
 11
253.976401
 21
-188.372299
 31
0.0
  0
LINE
  5
6F4
100
AcDbEntity
  8
2
370
    50
100
AcDbLine
 10
253.976401
 20
-185.33022
 30
0.0
 11
253.976401
 21
-184.316299
 31
0.0
  0
ARC
  5
6F5
100
AcDbEntity
  8
2
370
    50
100
AcDbCircle
 10
254.576401
 20
-159.677112
 30
0.0
 40
0.2
100
AcDbArc
 50
279.5
 51
360.0
  0
ARC
  5
6F6
100
AcDbEntity
  8
2
370
    50
100
AcDbCircle
 10
254.576401
 20
-161.096579
 30
0.0
 40
0.2
100
AcDbArc
 50
0.0
 51
99.501632
  0
ARC
  5
6F7
100
AcDbEntity
  8
2
370
    50
100
AcDbCircle
 10
254.576401
 20
-163.733112
 30
0.0
 40
0.2
100
AcDbArc
 50
279.5
 51
360.0
  0
ARC
  5
6F8
100
AcDbEntity
  8
2
370
    50
100
AcDbCircle
 10
254.576401
 20
-165.152579
 30
0.0
 40
0.2
100
AcDbArc
 50
360.0
 51
99.501632
  0
ARC
  5
6F9
100
AcDbEntity
  8
2
370
    50
100
AcDbCircle
 10
254.576401
 20
-167.789112
 30
0.0
 40
0.2
100
AcDbArc
 50
279.5
 51
360.0
  0
ARC
  5
6FA
100
AcDbEntity
  8
2
370
    50
100
AcDbCircle
 10
254.576401
 20
-169.208579
 30
0.0
 40
0.2
100
AcDbArc
 50
360.0
 51
99.501632
  0
ARC
  5
6FB
100
AcDbEntity
  8
2
370
    50
100
AcDbCircle
 10
254.576401
 20
-171.845112
 30
0.0
 40
0.2
100
AcDbArc
 50
279.5
 51
0.0
  0
ARC
  5
6FC
100
AcDbEntity
  8
2
370
    50
100
AcDbCircle
 10
254.576401
 20
-175.901112
 30
0.0
 40
0.2
100
AcDbArc
 50
279.5
 51
360.0
  0
ARC
  5
6FD
100
AcDbEntity
  8
2
370
    50
100
AcDbCircle
 10
254.576401
 20
-177.320579
 30
0.0
 40
0.2
100
AcDbArc
 50
0.0
 51
99.501632
  0
ARC
  5
6FE
100
AcDbEntity
  8
2
370
    50
100
AcDbCircle
 10
254.576401
 20
-179.957112
 30
0.0
 40
0.2
100
AcDbArc
 50
279.5
 51
360.0
  0
ARC
  5
6FF
100
AcDbEntity
  8
2
370
    50
100
AcDbCircle
 10
254.576401
 20
-181.376579
 30
0.0
 40
0.2
100
AcDbArc
 50
0.0
 51
99.501632
  0
ARC
  5
700
100
AcDbEntity
  8
2
370
    50
100
AcDbCircle
 10
254.576401
 20
-184.013112
 30
0.0
 40
0.2
100
AcDbArc
 50
279.5
 51
360.0
  0
ARC
  5
701
100
AcDbEntity
  8
2
370
    50
100
AcDbCircle
 10
254.576401
 20
-185.432579
 30
0.0
 40
0.2
100
AcDbArc
 50
0.0
 51
99.501632
  0
ARC
  5
702
100
AcDbEntity
  8
2
370
    50
100
AcDbCircle
 10
254.576401
 20
-188.069112
 30
0.0
 40
0.2
100
AcDbArc
 50
279.5
 51
360.0
  0
ARC
  5
703
100
AcDbEntity
  8
2
370
    50
100
AcDbCircle
 10
244.276188
 20
-154.650057
 30
0.0
 40
5.833452
100
AcDbArc
 50
233.130102
 51
306.869898
  0
ARC
  5
704
100
AcDbEntity
  8
2
370
    50
100
AcDbCircle
 10
251.27633
 20
-163.98358
 30
0.0
 40
5.833452
100
AcDbArc
 50
53.130102
 51
126.869898
  0
ARC
  5
705
100
AcDbEntity
  8
2
370
    50
100
AcDbCircle
 10
244.276188
 20
-163.98358
 30
0.0
 40
5.833452
100
AcDbArc
 50
53.130102
 51
126.869898
  0
POINT
  5
706
100
AcDbEntity
  8
3
370
    50
100
AcDbPoint
 10
54.307551
 20
89.670552
 30
0.0
  0
TEXT
  5
707
100
AcDbEntity
  8
3
370
    50
100
AcDbText
 10
104.603028
 20
3.762348
 30
0.0
 40
7.0
  1
１２２
 72
     5
 11
124.203028
 21
3.762348
 31
0.0
100
AcDbText
  0
DIMENSION
  5
708
100
AcDbEntity
  8
3
370
    25
100
AcDbDimension
  2
*D0
 10
175.898505
 20
2.762348
 30
0.0
 11
115.103028
 21
4.762348
 31
0.0
 71
     0
 72
     0
 41
0.0
 42
0.0
  3
Standard
100
AcDbAlignedDimension
 13
54.307551
 23
89.670552
 33
0.0
 14
175.898505
 24
1.371016
 34
0.0
100
AcDbRotatedDimension
  0
TEXT
  5
709
100
AcDbEntity
  8
3
370
    50
100
AcDbText
 10
24.093758
 20
44.225975
 30
0.0
 40
7.0
  1
７７
 50
90.0
 72
     5
 11
24.093758
 21
56.825975
 31
0.0
100
AcDbText
  0
DIMENSION
  5
70A
100
AcDbEntity
  8
3
370
    25
100
AcDbDimension
  2
*D1
 10
25.093758
 20
89.670552
 30
0.0
 11
22.593758
 21
51.225975
 31
0.0
 71
     0
 72
     0
 41
0.0
 42
0.0
  3
Standard
100
AcDbAlignedDimension
 13
153.898505
 23
12.781398
 33
0.0
 14
54.307551
 24
89.670552
 34
0.0
 50
90.0
100
AcDbRotatedDimension
  0
DIMENSION
  5
70B
100
AcDbEntity
  8
3
370
    25
100
AcDbDimension
  2
*D2
 10
54.307551
 20
89.665084
 30
0.0
 11
52.941117
 21
34.994591
 31
0.0
 70
     2
 71
     0
 72
     0
 41
0.0
 42
0.0
  3
Standard
100
AcDb2LineAngularDimension
 13
54.30524
 23
89.665597
 33
0.0
 14
54.307551
 24
89.670552
 34
0.0
 15
54.307551
 25
89.670552
 35
0.0
 16
42.473569
 26
36.290911
 36
0.0
1001
ACAD
1000
DSTYLE
1002
{
1070
   275
1070
     0
1070
   179
1070
     2
1002
}
  0
POINT
  5
70C
100
AcDbEntity
  8
3
370
    50
100
AcDbPoint
 10
175.898505
 20
162.981398
 30
0.0
  0
TEXT
  5
70D
100
AcDbEntity
  8
3
370
    50
100
AcDbText
 10
10.528389
 20
77.381398
 30
0.0
 40
7.0
  1
１５１
 50
90.0
 72
     5
 11
10.528389
 21
96.981398
 31
0.0
100
AcDbText
  0
DIMENSION
  5
70E
100
AcDbEntity
  8
3
370
    25
100
AcDbDimension
  2
*D3
 10
11.528389
 20
162.981398
 30
0.0
 11
9.028389
 21
87.881398
 31
0.0
 71
     0
 72
     0
 41
0.0
 42
0.0
  3
Standard
100
AcDbAlignedDimension
 13
152.398505
 23
12.781398
 33
0.0
 14
175.898505
 24
162.981398
 34
0.0
 50
90.0
100
AcDbRotatedDimension
  0
POINT
  5
70F
100
AcDbEntity
  8
3
370
    50
100
AcDbPoint
 10
108.793872
 20
193.202183
 30
0.0
  0
TEXT
  5
710
100
AcDbEntity
  8
3
370
    50
100
AcDbText
 10
-3.325867
 20
92.49179
 30
0.0
 40
7.0
  1
１８１
 50
90.0
 72
     5
 11
-3.325867
 21
112.09179
 31
0.0
100
AcDbText
  0
DIMENSION
  5
711
100
AcDbEntity
  8
3
370
    25
100
AcDbDimension
  2
*D4
 10
-2.325867
 20
193.202183
 30
0.0
 11
-4.825867
 21
102.99179
 31
0.0
 71
     0
 72
     0
 41
0.0
 42
0.0
  3
Standard
100
AcDbAlignedDimension
 13
151.598505
 23
12.781398
 33
0.0
 14
108.793872
 24
193.202183
 34
0.0
 50
90.0
100
AcDbRotatedDimension
  0
DIMENSION
  5
712
100
AcDbEntity
  8
3
370
    25
100
AcDbDimension
  2
*D5
 10
106.798524
 20
159.481398
 30
0.0
 11
79.786329
 21
192.698879
 31
0.0
 70
     2
 71
     0
 72
     0
 41
0.0
 42
0.0
  3
Standard
100
AcDb2LineAngularDimension
 13
132.647593
 23
182.079011
 33
0.0
 14
181.10833
 24
159.481398
 34
0.0
 15
181.10833
 25
159.481398
 35
0.0
 16
78.490009
 26
182.231332
 36
0.0
1001
ACAD
1000
DSTYLE
1002
{
1070
   275
1070
     0
1070
   179
1070
     2
1002
}
  0
TEXT
  5
713
100
AcDbEntity
  8
3
370
    50
100
AcDbText
 10
73.965321
 20
150.104462
 30
0.0
 40
7.0
  1
止水
 72
     5
 11
86.565321
 21
150.104462
 31
0.0
100
AcDbText
  0
TEXT
  5
714
100
AcDbEntity
  8
3
370
    50
100
AcDbText
 10
110.614449
 20
196.30719
 30
0.0
 40
7.0
  1
吐水
 72
     5
 11
123.214449
 21
196.30719
 31
0.0
100
AcDbText
  0
POINT
  5
715
100
AcDbEntity
  8
3
370
    50
100
AcDbPoint
 10
-204.219245
 20
-175.126604
 30
0.0
  0
POINT
  5
716
100
AcDbEntity
  8
3
370
    50
100
AcDbPoint
 10
-73.952956
 20
-185.126604
 30
0.0
  0
TEXT
  5
717
100
AcDbEntity
  8
3
370
    50
100
AcDbText
 10
280.843811
 20
-72.21609
 30
0.0
 40
7.0
  1
２０７（金具先端まで）
 50
90.0
 72
     5
 11
280.843811
 21
3.38391
 31
0.0
100
AcDbText
  0
DIMENSION
  5
718
100
AcDbEntity
  8
3
370
    25
100
AcDbDimension
  2
*D6
 10
281.843811
 20
12.781398
 30
0.0
 11
279.343811
 21
-33.71609
 31
0.0
 71
     0
 72
     0
 41
0.0
 42
0.0
  3
Standard
100
AcDbAlignedDimension
 13
247.776259
 23
-80.213578
 33
0.0
 14
199.398505
 24
12.781398
 34
0.0
 50
90.0
100
AcDbRotatedDimension
  0
POINT
  5
719
100
AcDbEntity
  8
3
370
    50
100
AcDbPoint
 10
110.265361
 20
-175.126515
 30
0.0
  0
TEXT
  5
71A
100
AcDbEntity
  8
3
370
    50
100
AcDbText
 10
24.093758
 20
-151.172559
 30
0.0
 40
7.0
  1
湯側：４１６　水側：４２６（シートまで）
 50
90.0
 72
     5
 11
24.093758
 21
-12.572559
 31
0.0
100
AcDbText
  0
DIMENSION
  5
71B
100
AcDbEntity
  8
3
370
    25
100
AcDbDimension
  2
*D7
 10
25.093758
 20
12.781398
 30
0.0
 11
22.593758
 21
-81.172559
 31
0.0
 71
     0
 72
     0
 41
0.0
 42
0.0
  3
Standard
100
AcDbAlignedDimension
 13
110.265361
 23
-175.126515
 33
0.0
 14
151.598505
 24
12.781398
 34
0.0
 50
90.0
100
AcDbRotatedDimension
  0
TEXT
  5
71C
100
AcDbEntity
  8
3
370
    50
100
AcDbText
 10
272.705444
 20
-107.452614
 30
0.0
 40
7.0
  1
逆止弁内蔵
 72
     5
 11
306.305444
 21
-107.452614
 31
0.0
100
AcDbText
  0
LWPOLYLINE
  5
71D
100
AcDbEntity
  8
3
370
    25
100
AcDbPolyline
 90
        3
 70
     0
 10
252.398621
 20
-97.899567
 10
270.316437
 20
-109.243835
 10
309.735626
 20
-109.243835
  0
LINE
  5
722
100
AcDbEntity
  8
3
370
    25
100
AcDbLine
 10
255.663054
 20
-99.96637
 30
0.0
 11
256.216852
 21
-99.091668
 31
0.0
  0
LINE
  5
723
100
AcDbEntity
  8
3
370
    25
100
AcDbLine
 10
256.216852
 20
-99.091668
 30
0.0
 11
252.398621
 21
-97.899567
 31
0.0
  0
LINE
  5
724
100
AcDbEntity
  8
3
370
    25
100
AcDbLine
 10
252.398621
 20
-97.899567
 30
0.0
 11
255.109256
 21
-100.841073
 31
0.0
  0
LINE
  5
725
100
AcDbEntity
  8
3
370
    25
100
AcDbLine
 10
255.109256
 20
-100.841073
 30
0.0
 11
255.663054
 21
-99.96637
 31
0.0
  0
TEXT
  5
726
100
AcDbEntity
  8
3
370
    50
100
AcDbText
 10
-185.734238
 20
-186.286835
 30
0.0
 40
7.0
  1
２４六角
 72
     5
 11
-159.134238
 21
-186.286835
 31
0.0
100
AcDbText
  0
TEXT
  5
727
100
AcDbEntity
  8
3
370
    50
100
AcDbText
 10
-188.709167
 20
-201.404694
 30
0.0
 40
7.0
  1
Ｇ１／２
 72
     5
 11
-162.109167
 21
-201.404694
 31
0.0
100
AcDbText
  0
LWPOLYLINE
  5
728
100
AcDbEntity
  8
3
370
    25
100
AcDbPolyline
 90
        3
 70
     0
 10
-193.131683
 20
-177.721878
 10
-185.071854
 20
-187.289764
 10
-156.98848
 20
-187.289764
  0
LINE
  5
72D
100
AcDbEntity
  8
3
370
    25
100
AcDbLine
 10
-190.642453
 20
-180.676863
 30
0.0
 11
-189.850667
 21
-180.009876
 31
0.0
  0
LINE
  5
72E
100
AcDbEntity
  8
3
370
    25
100
AcDbLine
 10
-189.850667
 20
-180.009876
 30
0.0
 11
-193.131683
 21
-177.721878
 31
0.0
  0
LINE
  5
72F
100
AcDbEntity
  8
3
370
    25
100
AcDbLine
 10
-193.131683
 20
-177.721878
 30
0.0
 11
-191.434239
 21
-181.34385
 31
0.0
  0
LINE
  5
730
100
AcDbEntity
  8
3
370
    25
100
AcDbLine
 10
-191.434239
 20
-181.34385
 30
0.0
 11
-190.642453
 21
-180.676863
 31
0.0
  0
LWPOLYLINE
  5
731
100
AcDbEntity
  8
3
370
    25
100
AcDbPolyline
 90
        3
 70
     0
 10
-210.636627
 20
-182.126604
 10
-189.101761
 20
-202.900604
 10
-160.892441
 20
-202.900604
  0
LINE
  5
736
100
AcDbEntity
  8
3
370
    25
100
AcDbLine
 10
-207.855894
 20
-184.809089
 30
0.0
 11
-207.137124
 21
-184.063993
 31
0.0
  0
LINE
  5
737
100
AcDbEntity
  8
3
370
    25
100
AcDbLine
 10
-207.137124
 20
-184.063993
 30
0.0
 11
-210.636627
 21
-182.126604
 31
0.0
  0
LINE
  5
738
100
AcDbEntity
  8
3
370
    25
100
AcDbLine
 10
-210.636627
 20
-182.126604
 30
0.0
 11
-208.574664
 21
-185.554184
 31
0.0
  0
LINE
  5
739
100
AcDbEntity
  8
3
370
    25
100
AcDbLine
 10
-208.574664
 20
-185.554184
 30
0.0
 11
-207.855894
 21
-184.809089
 31
0.0
  0
TEXT
  5
73A
100
AcDbEntity
  8
3
370
    50
100
AcDbText
 10
-195.280182
 20
20.781506
 30
0.0
 40
7.0
  1
取付穴径φ３７±２
 50
90.0
 72
     5
 11
-195.280182
 21
82.381506
 31
0.0
100
AcDbText
  0
DIMENSION
  5
73B
100
AcDbEntity
  8
3
370
    25
100
AcDbDimension
  2
*D8
 10
-194.280182
 20
12.781506
 30
0.0
 11
-196.780182
 21
48.281506
 31
0.0
 71
     0
 72
     0
 41
0.0
 42
0.0
  3
Standard
100
AcDbAlignedDimension
 13
-164.138101
 23
-3.518494
 33
0.0
 14
-163.386101
 24
12.781506
 34
0.0
 50
90.0
100
AcDbRotatedDimension
  0
TEXT
  5
73C
100
AcDbEntity
  8
3
370
    50
100
AcDbText
 10
-185.511642
 20
21.068501
 30
0.0
 40
7.0
  1
取付厚さ５～３０
 50
90.0
 72
     5
 11
-185.511642
 21
75.668501
 31
0.0
100
AcDbText
  0
TEXT
  5
73D
100
AcDbEntity
  8
3
370
    50
100
AcDbText
 10
-99.825607
 20
-4.372349
 30
0.0
 40
7.0
  1
Ｗ３５山１６
 72
     5
 11
-59.225607
 21
-4.372349
 31
0.0
100
AcDbText
  0
TEXT
  5
73E
100
AcDbEntity
  8
3
370
    50
100
AcDbText
 10
-95.443489
 20
-25.235712
 30
0.0
 40
7.0
  1
４６六角
 72
     5
 11
-68.843489
 21
-25.235712
 31
0.0
100
AcDbText
  0
LWPOLYLINE
  5
73F
100
AcDbEntity
  8
3
370
    25
100
AcDbPolyline
 90
        3
 70
     0
 10
-121.586101
 20
5.199641
 10
-99.999687
 20
-5.416584
 10
-58.913963
 20
-5.416584
  0
LINE
  5
744
100
AcDbEntity
  8
3
370
    25
100
AcDbLine
 10
-118.119004
 20
3.494519
 30
0.0
 11
-117.662118
 21
4.423524
 31
0.0
  0
LINE
  5
745
100
AcDbEntity
  8
3
370
    25
100
AcDbLine
 10
-117.662118
 20
4.423524
 30
0.0
 11
-121.586101
 21
5.199641
 31
0.0
  0
LINE
  5
746
100
AcDbEntity
  8
3
370
    25
100
AcDbLine
 10
-121.586101
 20
5.199641
 30
0.0
 11
-118.57589
 21
2.565513
 31
0.0
  0
LINE
  5
747
100
AcDbEntity
  8
3
370
    25
100
AcDbLine
 10
-118.57589
 20
2.565513
 30
0.0
 11
-118.119004
 21
3.494519
 31
0.0
  0
DIMENSION
  5
748
100
AcDbEntity
  8
3
370
    25
100
AcDbDimension
  2
*D9
 10
-165.086101
 20
178.042847
 30
0.0
 11
-139.086101
 21
182.542847
 31
0.0
 70
     1
 71
     0
 72
     0
 41
0.0
 42
0.0
  3
Standard
100
AcDbAlignedDimension
 13
-113.086101
 23
161.354752
 33
0.0
 14
-165.086101
 24
161.354752
 34
0.0
  0
TEXT
  5
749
100
AcDbEntity
  8
3
370
    50
100
AcDbText
 10
-251.125732
 20
229.704163
 30
0.0
 40
7.0
  1
水表示
 72
     5
 11
-231.525732
 21
229.704163
 31
0.0
100
AcDbText
  0
TEXT
  5
74A
100
AcDbEntity
  8
3
370
    50
100
AcDbText
 10
-338.665588
 20
229.260742
 30
0.0
 40
7.0
  1
湯表示
 72
     5
 11
-319.065588
 21
229.260742
 31
0.0
100
AcDbText
  0
LWPOLYLINE
  5
74B
100
AcDbEntity
  8
3
370
    25
100
AcDbPolyline
 90
        3
 70
     0
 10
-308.204102
 20
219.800064
 10
-316.928528
 20
228.225983
 10
-339.700714
 20
228.225983
  0
LINE
  5
750
100
AcDbEntity
  8
3
370
    25
100
AcDbLine
 10
-310.983284
 20
222.484156
 30
0.0
 11
-311.702484
 21
221.739476
 31
0.0
  0
LINE
  5
751
100
AcDbEntity
  8
3
370
    25
100
AcDbLine
 10
-311.702484
 20
221.739476
 30
0.0
 11
-308.204102
 21
219.800064
 31
0.0
  0
LINE
  5
752
100
AcDbEntity
  8
3
370
    25
100
AcDbLine
 10
-308.204102
 20
219.800064
 30
0.0
 11
-310.264083
 21
223.228836
 31
0.0
  0
LINE
  5
753
100
AcDbEntity
  8
3
370
    25
100
AcDbLine
 10
-310.264083
 20
223.228836
 30
0.0
 11
-310.983284
 21
222.484156
 31
0.0
  0
LWPOLYLINE
  5
754
100
AcDbEntity
  8
3
370
    25
100
AcDbPolyline
 90
        3
 70
     0
 10
-260.589508
 20
219.9478
 10
-251.865082
 20
227.930313
 10
-229.980133
 20
227.930313
  0
LINE
  5
759
100
AcDbEntity
  8
3
370
    25
100
AcDbLine
 10
-257.738943
 20
222.555957
 30
0.0
 11
-258.437797
 21
223.319763
 31
0.0
  0
LINE
  5
75A
100
AcDbEntity
  8
3
370
    25
100
AcDbLine
 10
-258.437797
 20
223.319763
 30
0.0
 11
-260.589508
 21
219.9478
 31
0.0
  0
LINE
  5
75B
100
AcDbEntity
  8
3
370
    25
100
AcDbLine
 10
-260.589508
 20
219.9478
 30
0.0
 11
-257.04009
 21
221.79215
 31
0.0
  0
LINE
  5
75C
100
AcDbEntity
  8
3
370
    25
100
AcDbLine
 10
-257.04009
 20
221.79215
 30
0.0
 11
-257.738943
 21
222.555957
 31
0.0
  0
DIMENSION
  5
75D
100
AcDbEntity
  8
3
370
    25
100
AcDbDimension
  2
*D10
 10
-252.78308
 20
98.656711
 30
0.0
 11
-274.000336
 21
67.62713
 31
0.0
 70
     2
 71
     0
 72
     0
 41
0.0
 42
0.0
  3
Standard
100
AcDb2LineAngularDimension
 13
-316.217592
 23
98.656711
 33
0.0
 14
-284.500336
 24
217.027122
 34
0.0
 15
-284.500336
 25
217.027122
 35
0.0
 16
-284.500336
 26
66.62713
 36
0.0
1001
ACAD
1000
DSTYLE
1002
{
1070
   275
1070
     0
1070
   179
1070
     2
1002
}
  0
TEXT
  5
75E
100
AcDbEntity
  8
3
370
    50
100
AcDbText
 10
-318.824768
 20
111.048889
 30
0.0
 40
7.0
  1
（ハンドル回転角度）
 72
     5
 11
-250.224768
 21
111.048889
 31
0.0
100
AcDbText
  0
TEXT
  5
75F
100
AcDbEntity
  8
3
370
    50
100
AcDbText
 10
-316.927277
 20
57.556778
 30
0.0
 40
7.0
  1
（パイプ回転角度）
 72
     5
 11
-255.327277
 21
57.556778
 31
0.0
100
AcDbText
  0
TEXT
  5
760
100
AcDbEntity
  8
3
370
    50
100
AcDbText
 10
235.185699
 20
-271.966614
 30
0.0
 40
6.0
  1
外観寸法図
 72
     5
 11
263.985699
 21
-271.966614
 31
0.0
100
AcDbText
  0
TEXT
  5
761
100
AcDbEntity
  8
3
370
    50
100
AcDbText
 10
288.648407
 20
-240.026993
 30
0.0
 40
7.0
  1
１　２
 72
     5
 11
308.248407
 21
-240.026993
 31
0.0
100
AcDbText
  0
TEXT
  5
762
100
AcDbEntity
  8
3
370
    50
100
AcDbText
 10
66.115341
 20
-227.034576
 30
0.0
 40
6.4
  1
台付シングルレバー湯水混合水栓
 72
     5
 11
160.835341
 21
-227.034576
 31
0.0
100
AcDbText
  0
TEXT
  5
763
100
AcDbEntity
  8
3
370
    50
100
AcDbText
 10
-21.726778
 20
-198.868256
 30
0.0
 40
7.0
  1
外径φ１４、Ｌ＝１０００
 72
     5
 11
60.873222
 21
-198.868256
 31
0.0
100
AcDbText
  0
DIMENSION
  5
764
100
AcDbEntity
  8
3
370
    25
100
AcDbDimension
  2
*D11
 10
-243.673825
 20
146.313531
 30
0.0
 11
-249.812349
 21
128.138676
 31
0.0
 70
     2
 71
     0
 72
     0
 41
0.0
 42
0.0
  3
Standard
100
AcDb2LineAngularDimension
 13
-284.500336
 23
127.900384
 33
0.0
 14
-284.500336
 24
217.027122
 34
0.0
 15
-284.500336
 25
217.027122
 35
0.0
 16
-259.95457
 26
125.421076
 36
0.0
1001
ACAD
1000
DSTYLE
1002
{
1070
   275
1070
     0
1070
   179
1070
     2
1002
}
  0
DIMENSION
  5
765
100
AcDbEntity
  8
3
370
    25
100
AcDbDimension
  2
*D12
 10
-284.500336
 20
127.840745
 30
0.0
 11
-322.83052
 21
129.637294
 31
0.0
 70
     2
 71
     0
 72
     0
 41
0.0
 42
0.0
  3
Standard
100
AcDb2LineAngularDimension
 13
-284.50855
 23
217.022379
 33
0.0
 14
-284.500336
 24
217.027122
 34
0.0
 15
-284.500336
 25
217.027122
 35
0.0
 16
-331.923787
 26
134.887294
 36
0.0
1001
ACAD
1000
DSTYLE
1002
{
1070
   275
1070
     0
1070
   179
1070
     2
1002
}
  0
LINE
  5
766
100
AcDbEntity
  8
3
370
    25
  6
CENTER
100
AcDbLine
 10
-253.996723
 20
-55.890887
 30
0.0
 11
-293.942078
 21
-55.890887
 31
0.0
  0
LINE
  5
767
100
AcDbEntity
  8
3
370
    25
  6
CENTER
100
AcDbLine
 10
-273.996723
 20
-35.890887
 30
0.0
 11
-273.996723
 21
-75.890887
 31
0.0
  0
ARC
  5
768
100
AcDbEntity
  8
3
370
    50
100
AcDbCircle
 10
-273.996723
 20
-55.890887
 30
0.0
 40
6.0
100
AcDbArc
 50
312.73211
 51
227.26789
  0
ARC
  5
769
100
AcDbEntity
  8
3
370
    50
100
AcDbCircle
 10
-273.996723
 20
-55.890887
 30
0.0
 40
15.0
100
AcDbArc
 50
348.00227
 51
191.99773
  0
LINE
  5
76A
100
AcDbEntity
  8
3
370
    50
100
AcDbLine
 10
-270.246723
 20
-61.710172
 30
0.0
 11
-270.246723
 21
-61.032628
 31
0.0
  0
LINE
  5
76B
100
AcDbEntity
  8
3
370
    50
100
AcDbLine
 10
-277.746723
 20
-61.032628
 30
0.0
 11
-277.746723
 21
-61.710172
 31
0.0
  0
ARC
  5
76C
100
AcDbEntity
  8
3
370
    50
100
AcDbCircle
 10
-283.204647
 20
-67.890887
 30
0.0
 40
3.0
100
AcDbArc
 50
197.810394
 51
316.626915
  0
ARC
  5
76D
100
AcDbEntity
  8
3
370
    50
100
AcDbCircle
 10
-264.788799
 20
-67.890887
 30
0.0
 40
3.0
100
AcDbArc
 50
223.373085
 51
342.189606
  0
ARC
  5
76E
100
AcDbEntity
  8
3
370
    50
100
AcDbCircle
 10
-289.746723
 20
-61.710172
 30
0.0
 40
12.0
100
AcDbArc
 50
316.626915
 51
360.0
  0
ARC
  5
76F
100
AcDbEntity
  8
3
370
    50
100
AcDbCircle
 10
-258.246723
 20
-61.710172
 30
0.0
 40
12.0
100
AcDbArc
 50
180.0
 51
223.373085
  0
ARC
  5
770
100
AcDbEntity
  8
3
370
    50
100
AcDbCircle
 10
-357.139969
 20
-38.221688
 30
0.0
 40
100.0
100
AcDbArc
 50
342.189606
 51
348.00227
  0
ARC
  5
771
100
AcDbEntity
  8
3
370
    50
100
AcDbCircle
 10
-190.853477
 20
-38.221688
 30
0.0
 40
100.0
100
AcDbArc
 50
191.99773
 51
197.810394
  0
ARC
  5
772
100
AcDbEntity
  8
3
370
    50
100
AcDbCircle
 10
-269.246723
 20
-61.032628
 30
0.0
 40
1.0
100
AcDbArc
 50
132.73211
 51
180.0
  0
ARC
  5
773
100
AcDbEntity
  8
3
370
    50
100
AcDbCircle
 10
-278.746723
 20
-61.032628
 30
0.0
 40
1.0
100
AcDbArc
 50
0.0
 51
47.26789
  0
TEXT
  5
774
100
AcDbEntity
  8
3
370
    50
100
AcDbText
 10
-309.773544
 20
-18.621048
 30
0.0
 40
7.0
  1
ホース用抜ケ止メリング
 72
     5
 11
-234.173544
 21
-18.621048
 31
0.0
100
AcDbText
  0
TEXT
  5
775
100
AcDbEntity
  8
3
370
    50
100
AcDbText
 10
-309.174789
 20
-30.140339
 30
0.0
 40
7.0
  1
　　（同梱部品）
 72
     5
 11
-254.574789
 21
-30.140339
 31
0.0
100
AcDbText
  0
LWPOLYLINE
  5
776
100
AcDbEntity
  8
3
370
    25
100
AcDbPolyline
 90
        3
 70
     0
 10
-116.1548
 20
-11.159444
 10
-94.564209
 20
-26.129679
 10
-66.064621
 20
-26.129679
  0
LINE
  5
77B
100
AcDbEntity
  8
3
370
    25
100
AcDbLine
 10
-112.979671
 20
-13.360979
 30
0.0
 11
-112.389771
 21
-12.510205
 31
0.0
  0
LINE
  5
77C
100
AcDbEntity
  8
3
370
    25
100
AcDbLine
 10
-112.389771
 20
-12.510205
 30
0.0
 11
-116.1548
 21
-11.159444
 31
0.0
  0
LINE
  5
77D
100
AcDbEntity
  8
3
370
    25
100
AcDbLine
 10
-116.1548
 20
-11.159444
 30
0.0
 11
-113.56957
 21
-14.211752
 31
0.0
  0
LINE
  5
77E
100
AcDbEntity
  8
3
370
    25
100
AcDbLine
 10
-113.56957
 20
-14.211752
 30
0.0
 11
-112.979671
 21
-13.360979
 31
0.0
  0
TEXT
  5
77F
100
AcDbEntity
  8
3
370
    50
100
AcDbText
 10
-194.138769
 20
-24.392973
 30
0.0
 40
7.0
  1
φ５２
 72
     5
 11
-174.538769
 21
-24.392973
 31
0.0
100
AcDbText
  0
DIMENSION
  5
780
100
AcDbEntity
  8
3
370
    25
100
AcDbDimension
  2
*D13
 10
-113.138769
 20
-25.392973
 30
0.0
 11
-139.138769
 21
-23.392973
 31
0.0
 71
     0
 72
     0
 41
0.0
 42
0.0
  3
Standard
100
AcDbAlignedDimension
 13
-165.138769
 23
-7.518494
 33
0.0
 14
-113.138769
 24
-7.518494
 34
0.0
100
AcDbRotatedDimension
  0
TEXT
  5
781
100
AcDbEntity
  8
3
370
    50
100
AcDbText
 10
66.115341
 20
-236.268692
 30
0.0
 40
6.4
  1
ＭＬＺ６５３１ＭＭＥ
 72
     5
 11
128.835341
 21
-236.268692
 31
0.0
100
AcDbText
  0
TEXT
  5
782
100
AcDbEntity
  8
3
370
    50
100
AcDbText
 10
322.103027
 20
-273.591248
 30
0.0
 40
10.5
  1
１１０２５１
 72
     5
 11
383.003027
 21
-273.591248
 31
0.0
100
AcDbText
  0
TEXT
  5
783
100
AcDbEntity
  8
3
370
    50
100
AcDbText
 10
344.851013
 20
-255.798859
 30
0.0
 40
6.0
  1
２０　０９　２５
 72
     5
 11
391.651013
 21
-255.798859
 31
0.0
100
AcDbText
  0
ENDSEC
  0
SECTION
  2
OBJECTS
  0
DICTIONARY
  5
823
100
AcDbDictionary
280
     0
281
     1
  3
ACAD_GROUP
350
824
  3
ACAD_MLINESTYLE
350
825
  0
DICTIONARY
  5
824
102
{ACAD_REACTORS
330
823
102
}
100
AcDbDictionary
280
     0
281
     1
  0
DICTIONARY
  5
825
102
{ACAD_REACTORS
330
823
102
}
100
AcDbDictionary
280
     0
281
     1
  3
Standard
350
826
  0
MLINESTYLE
  5
826
102
{ACAD_REACTORS
330
825
102
}
100
AcDbMlineStyle
  2
Standard
 70
     0
  3

 62
     0
 51
90.0
 52
90.0
 71
     2
 49
0.5
 62
   256
  6
ByLayer
 49
-0.5
 62
   256
  6
ByLayer
  0
ENDSEC
  0
EOF
