  0
SECTION
  2
HEADER
  9
$ACADVER
  1
AC1015
  9
$ACADMAINTVER
 70
     6
  9
$DWGCODEPAGE
  3
ANSI_932
  9
$INSBASE
 10
0.0
 20
0.0
 30
0.0
  9
$EXTMIN
 10
-1189.0
 20
-841.0
 30
1.000000E+20
  9
$EXTMAX
 10
1189.0
 20
841.0
 30
-1.000000E+20
  9
$LIMMIN
 10
-1189.0
 20
-841.0
  9
$LIMMAX
 10
1189.0
 20
841.0
  9
$ORTHOMODE
 70
     0
  9
$REGENMODE
 70
     1
  9
$FILLMODE
 70
     1
  9
$QTEXTMODE
 70
     0
  9
$MIRRTEXT
 70
     1
  9
$LTSCALE
 40
1.0
  9
$ATTMODE
 70
     1
  9
$TEXTSIZE
 40
0.2
  9
$TRACEWID
 40
0.05
  9
$TEXTSTYLE
  7
STANDARD
  9
$CLAYER
  8
0
  9
$CELTYPE
  6
CONTINUOUS
  9
$CECOLOR
 62
   256
  9
$CELTSCALE
 40
1.0
  9
$DISPSILH
 70
     0
  9
$DIMSCALE
 40
2.0
  9
$DIMASZ
 40
2.0
  9
$DIMEXO
 40
1.0
  9
$DIMDLI
 40
0.38
  9
$DIMRND
 40
0.0
  9
$DIMDLE
 40
0.0
  9
$DIMEXE
 40
2.0
  9
$DIMTP
 40
0.0
  9
$DIMTM
 40
0.0
  9
$DIMTXT
 40
3.5
  9
$DIMCEN
 40
0.09
  9
$DIMTSZ
 40
0.0
  9
$DIMTOL
 70
     0
  9
$DIMLIM
 70
     0
  9
$DIMTIH
 70
     0
  9
$DIMTOH
 70
     0
  9
$DIMSE1
 70
     0
  9
$DIMSE2
 70
     0
  9
$DIMTAD
 70
     1
  9
$DIMZIN
 70
     0
  9
$DIMBLK
  1

  9
$DIMASO
 70
     1
  9
$DIMSHO
 70
     1
  9
$DIMPOST
  1

  9
$DIMAPOST
  1

  9
$DIMALT
 70
     0
  9
$DIMALTD
 70
     2
  9
$DIMALTF
 40
25.4
  9
$DIMLFAC
 40
1.0
  9
$DIMTOFL
 70
     0
  9
$DIMTVP
 40
0.0
  9
$DIMTIX
 70
     0
  9
$DIMSOXD
 70
     0
  9
$DIMSAH
 70
     0
  9
$DIMBLK1
  1

  9
$DIMBLK2
  1

  9
$DIMSTYLE
  2
Standard
  9
$DIMCLRD
 70
     0
  9
$DIMCLRE
 70
     0
  9
$DIMCLRT
 70
     0
  9
$DIMTFAC
 40
1.0
  9
$DIMGAP
 40
0.5
  9
$DIMJUST
 70
     0
  9
$DIMSD1
 70
     0
  9
$DIMSD2
 70
     0
  9
$DIMTOLJ
 70
     1
  9
$DIMTZIN
 70
     0
  9
$DIMALTZ
 70
     0
  9
$DIMALTTZ
 70
     0
  9
$DIMUPT
 70
     0
  9
$DIMDEC
 70
     3
  9
$DIMTDEC
 70
     4
  9
$DIMALTU
 70
     2
  9
$DIMALTTD
 70
     2
  9
$DIMTXSTY
  7
STANDARD
  9
$DIMAUNIT
 70
     0
  9
$DIMADEC
 70
     0
  9
$DIMALTRND
 40
0.0
  9
$DIMAZIN
 70
     0
  9
$DIMDSEP
 70
     0
  9
$DIMATFIT
 70
     3
  9
$DIMFRAC
 70
     0
  9
$DIMLDRBLK
  1

  9
$DIMLUNIT
 70
     2
  9
$DIMLWD
 70
     0
  9
$DIMLWE
 70
     0
  9
$DIMTMOVE
 70
     0
  9
$LUNITS
 70
     2
  9
$LUPREC
 70
     4
  9
$SKETCHINC
 40
0.1
  9
$FILLETRAD
 40
0.0
  9
$AUNITS
 70
     0
  9
$AUPREC
 70
     0
  9
$MENU
  1
acad
  9
$ELEVATION
 40
0.0
  9
$PELEVATION
 40
0.0
  9
$THICKNESS
 40
0.0
  9
$LIMCHECK
 70
     0
  9
$CHAMFERA
 40
0.0
  9
$CHAMFERB
 40
0.0
  9
$CHAMFERC
 40
0.0
  9
$CHAMFERD
 40
0.0
  9
$SKPOLY
 70
     0
  9
$TDCREATE
 40
2453383.000000000
  9
$TDUCREATE
 40
0.000000000
  9
$TDUPDATE
 40
0.000000000
  9
$TDUUPDATE
 40
2447892.625000000
  9
$TDINDWG
 40
0.0000000000
  9
$TDUSRTIMER
 40
0.0000000000
  9
$USRTIMER
 70
     1
  9
$ANGBASE
 50
0.0
  9
$ANGDIR
 70
     0
  9
$PDMODE
 70
     0
  9
$PDSIZE
 40
0.0
  9
$PLINEWID
 40
0.0
  9
$SPLFRAME
 70
     0
  9
$SPLINETYPE
 70
     6
  9
$SPLINESEGS
 70
     8
  9
$HANDSEED
  5
4A8
  9
$SURFTAB1
 70
     6
  9
$SURFTAB2
 70
     6
  9
$SURFTYPE
 70
     6
  9
$SURFU
 70
     6
  9
$SURFV
 70
     6
  9
$UCSBASE
  2

  9
$UCSNAME
  2

  9
$UCSORG
 10
0.0
 20
0.0
 30
0.0
  9
$UCSXDIR
 10
1.0
 20
0.0
 30
0.0
  9
$UCSYDIR
 10
0.0
 20
1.0
 30
0.0
  9
$UCSORTHOREF
  2

  9
$UCSORTHOVIEW
 70
     0
  9
$UCSORGTOP
 10
0.0
 20
0.0
 30
0.0
  9
$UCSORGBOTTOM
 10
0.0
 20
0.0
 30
0.0
  9
$UCSORGLEFT
 10
0.0
 20
0.0
 30
0.0
  9
$UCSORGRIGHT
 10
0.0
 20
0.0
 30
0.0
  9
$UCSORGFRONT
 10
0.0
 20
0.0
 30
0.0
  9
$UCSORGBACK
 10
0.0
 20
0.0
 30
0.0
  9
$PUCSBASE
  2

  9
$PUCSNAME
  2

  9
$PUCSORG
 10
0.0
 20
0.0
 30
0.0
  9
$PUCSXDIR
 10
1.0
 20
0.0
 30
0.0
  9
$PUCSYDIR
 10
0.0
 20
1.0
 30
0.0
  9
$PUCSORTHOREF
  2

  9
$PUCSORTHOVIEW
 70
     0
  9
$PUCSORGTOP
 10
0.0
 20
0.0
 30
0.0
  9
$PUCSORGBOTTOM
 10
0.0
 20
0.0
 30
0.0
  9
$PUCSORGLEFT
 10
0.0
 20
0.0
 30
0.0
  9
$PUCSORGRIGHT
 10
0.0
 20
0.0
 30
0.0
  9
$PUCSORGFRONT
 10
0.0
 20
0.0
 30
0.0
  9
$PUCSORGBACK
 10
0.0
 20
0.0
 30
0.0
  9
$USERI1
 70
     0
  9
$USERI2
 70
     0
  9
$USERI3
 70
     0
  9
$USERI4
 70
     0
  9
$USERI5
 70
     0
  9
$USERR1
 40
0.0
  9
$USERR2
 40
0.0
  9
$USERR3
 40
0.0
  9
$USERR4
 40
0.0
  9
$USERR5
 40
0.0
  9
$WORLDVIEW
 70
     1
  9
$SHADEDGE
 70
     3
  9
$SHADEDIF
 70
    70
  9
$TILEMODE
 70
     1
  9
$MAXACTVP
 70
    16
  9
$PINSBASE
 10
0.0
 20
0.0
 30
0.0
  9
$PLIMCHECK
 70
     0
  9
$PEXTMIN
 10
1.000000E+20
 20
1.000000E+20
 30
1.000000E+20
  9
$PEXTMAX
 10
-1.000000E+20
 20
-1.000000E+20
 30
-1.000000E+20
  9
$PLIMMIN
 10
0.0
 20
0.0
  9
$PLIMMAX
 10
12.0
 20
9.0
  9
$UNITMODE
 70
     0
  9
$VISRETAIN
 70
     0
  9
$PLINEGEN
 70
     1
  9
$PSLTSCALE
 70
     0
  9
$TREEDEPTH
 70
  3020
  9
$CMLSTYLE
  2
Standard
  9
$CMLJUST
 70
     0
  9
$CMLSCALE
 40
1.0
  9
$PROXYGRAPHICS
 70
     0
  9
$MEASUREMENT
 70
     0
  9
$CELWEIGHT
370
     0
  9
$ENDCAPS
280
     0
  9
$JOINSTYLE
280
     0
  9
$LWDISPLAY
290
     0
  9
$INSUNITS
 70
     0
  9
$HYPERLINKBASE
  1

  9
$STYLESHEET
  1

  9
$XEDIT
290
     1
  9
$CEPSNTYPE
380
     0
  9
$PSTYLEMODE
290
     1
  9
$FINGERPRINTGUID
  2

  9
$VERSIONGUID
  2

  9
$EXTNAMES
290
     1
  9
$PSVPSCALE
 40
0.0
  0
ENDSEC
  0
SECTION
  2
CLASSES
  0
CLASS
  1
LWPOLYLINE
  2
AcDbPolyline
  3
AutoCAD 2000
 90
        0
280
     0
281
     1
  0
CLASS
  1
IMAGE
  2
AcDbRasterImage
  3
ISM
 90
      127
280
     0
281
     1
  0
CLASS
  1
OLE2FRAME
  2
AcDbOle2Frame
  3
AutoCAD 2000
 90
        0
280
     0
281
     1
  0
CLASS
  1
HATCH
  2
AcDbHatch
  3
AutoCAD 2000
 90
        0
280
     0
281
     1
  0
CLASS
  1
DICTIONARYVAR
  2
AcDbDictionaryVar
  3
AutoCAD 2000
 90
        0
280
     0
281
     0
  0
CLASS
  1
RASTERVARIABLES
  2
AcDbRasterVariables
  3
ISM
 90
        0
280
     0
281
     0
  0
CLASS
  1
IMAGEDEF
  2
AcDbRasterImageDef
  3
ISM
 90
        0
280
     0
281
     0
  0
CLASS
  1
IMAGEDEF_REACTOR
  2
AcDbRasterImageDefReactor
  3
ISM
 90
        1
280
     0
281
     0
  0
CLASS
  1
IDBUFFER
  2
AcDbIdBuffer
  3
AutoCAD 2000
 90
        0
280
     0
281
     0
  0
CLASS
  1
SPATIAL_FILTER
  2
AcDbSpatialFilter
  3
AutoCAD 2000
 90
        0
280
     0
281
     0
  0
CLASS
  1
XRECORD
  2
AcDbXrecord
  3
AutoCAD 2000
 90
        0
280
     0
281
     0
  0
CLASS
  1
SORTENTSTABLE
  2
AcDbSortentsTable
  3
AutoCAD 2000
 90
        0
280
     0
281
     0
  0
CLASS
  1
LAYER_INDEX
  2
AcDbLayerIndex
  3
AutoCAD 2000
 90
        0
280
     0
281
     0
  0
CLASS
  1
SPATIAL_INDEX
  2
AcDbSpatialIndex
  3
AutoCAD 2000
 90
        0
280
     0
281
     0
  0
CLASS
  1
OBJECT_PTR
  2
CAseDLPNTableRecord
  3
"ASE-LPNTableRecord"
 90
        1
280
     0
281
     0
  0
CLASS
  1
LAYOUT
  2
AcDbLayout
  3
AutoCAD 2000
 90
        0
280
     0
281
     0
  0
CLASS
  1
PLOTSETTINGS
  2
AcDbPlotSettings
  3
AutoCAD 2000
 90
        0
280
     0
281
     0
  0
CLASS
  1
ACDBDICTIONARYWDFLT
  2
AcDbDictionaryWithDefault
  3
AutoCAD 2000
 90
        0
280
     0
281
     0
  0
CLASS
  1
ACDBPLACEHOLDER
  2
AcDbPlaceHolder
  3
AutoCAD 2000
 90
        0
280
     0
281
     0
  0
CLASS
  1
VBA_PROJECT
  2
AcDbVbaProject
  3
acadvba
 90
        0
280
     0
281
     0
  0
CLASS
  1
WIPEOUT
  2
AcDbWipeout
  3
WipeOut|AutoCAD Express Tool|expresstools@autodesk.com
 90
      127
280
     0
281
     1
  0
CLASS
  1
WIPEOUTVARIABLES
  2
AcDbWipeoutVariables
  3
WipeOut|AutoCAD Express Tool|expresstools@autodesk.com
 90
        0
280
     0
281
     0
  0
CLASS
  1
RTEXT
  2
RText
  3
RText|AutoCAD Express Tool|expresstools@autodesk.com
 90
        0
280
     0
281
     1
  0
CLASS
  1
ARCALIGNEDTEXT
  2
AcDbArcAlignedText
  3
ATEXT|AutoCAD Express Tool|expresstools@autodesk.com
 90
        0
280
     0
281
     1
  0
ENDSEC
  0
SECTION
  2
TABLES
  0
TABLE
  2
VPORT
  5
6
100
AcDbSymbolTable
 70
     1
  0
VPORT
  5
19
100
AcDbSymbolTableRecord
100
AcDbViewportTableRecord
  2
*ACTIVE
 70
     0
 10
0.0
 20
0.0
 11
1.0
 21
1.0
 12
0.0
 22
0.0
 13
0.0
 23
0.0
 14
1.0
 24
1.0
 15
0.0
 25
0.0
 16
0.0
 26
0.0
 36
1.0
 17
0.0
 27
0.0
 37
0.0
 40
1682.0
 41
1.413793
 42
50.0
 43
0.0
 44
0.0
 50
0.0
 51
0.0
 71
     0
 72
   500
 73
     1
 74
     1
 75
     0
 76
     0
 77
     0
 78
     0
281
     0
 65
     0
110
0.0
120
0.0
130
0.0
111
1.0
121
0.0
131
0.0
112
0.0
122
1.0
132
0.0
345
0
346
0
 79
     0
146
0.0
  0
ENDTAB
  0
TABLE
  2
LTYPE
  5
3
100
AcDbSymbolTable
 70
     9
  0
LTYPE
  5
C
100
AcDbSymbolTableRecord
100
AcDbLinetypeTableRecord
  2
ByBlock
 70
    64
  3

 72
    65
 73
     0
 40
0.0
  0
LTYPE
  5
D
100
AcDbSymbolTableRecord
100
AcDbLinetypeTableRecord
  2
ByLayer
 70
    64
  3

 72
    65
 73
     0
 40
0.0
  0
LTYPE
  5
E
100
AcDbSymbolTableRecord
100
AcDbLinetypeTableRecord
  2
CONTINUOUS
 70
     0
  3
Solid line
 72
    65
 73
     0
 40
0.0
  0
LTYPE
  5
F
100
AcDbSymbolTableRecord
100
AcDbLinetypeTableRecord
  2
DASHED
 70
     0
  3
__ __ __ __ __ __ __ __ __ __ __ __ __ __ __
 72
    65
 73
     2
 40
2.0
 49
1.2
 74
     0
 49
-0.8
 74
     0
  0
LTYPE
  5
10
100
AcDbSymbolTableRecord
100
AcDbLinetypeTableRecord
  2
CENTER
 70
     0
  3
____ _ ____ _ ____ _ ____ _ ____ _ ____ _ ____
 72
    65
 73
     4
 40
12.0
 49
9.0
 74
     0
 49
-1.0
 74
     0
 49
1.0
 74
     0
 49
-1.0
 74
     0
  0
LTYPE
  5
11
100
AcDbSymbolTableRecord
100
AcDbLinetypeTableRecord
  2
HIDDEN
 70
     0
  3
_ _ _ _ _ _ _ _ _ _ _ _ _ _ _ _ _ _ _ _ _ _ _
 72
    65
 73
     2
 40
3.2
 49
2.4
 74
     0
 49
-0.8
 74
     0
  0
LTYPE
  5
12
100
AcDbSymbolTableRecord
100
AcDbLinetypeTableRecord
  2
PHANTOM
 70
     0
  3
_____ _ _ _____ _ _ _____ _ _ _____ _ _ _____
 72
    65
 73
     6
 40
13.5
 49
9.0
 74
     0
 49
-1.0
 74
     0
 49
1.0
 74
     0
 49
-0.5
 74
     0
 49
1.0
 74
     0
 49
-1.0
 74
     0
  0
LTYPE
  5
13
100
AcDbSymbolTableRecord
100
AcDbLinetypeTableRecord
  2
DOT
 70
     0
  3
...............................................
 72
    65
 73
     2
 40
1.0
 49
0.5
 74
     0
 49
-0.5
 74
     0
  0
LTYPE
  5
14
100
AcDbSymbolTableRecord
100
AcDbLinetypeTableRecord
  2
DASHDOT
 70
     0
  3
__ . __ . __ . __ . __ . __ . __ . __ . __ . __
 72
    65
 73
     4
 40
8.0
 49
5.0
 74
     0
 49
-1.0
 74
     0
 49
1.0
 74
     0
 49
-1.0
 74
     0
  0
ENDTAB
  0
TABLE
  2
LAYER
  5
1
100
AcDbSymbolTable
 70
     4
  0
LAYER
  5
15
100
AcDbSymbolTableRecord
100
AcDbLayerTableRecord
  2
0
 70
     0
 62
     7
  6
CONTINUOUS
290
     1
370
    -3
390
0
  0
LAYER
  5
16
100
AcDbSymbolTableRecord
100
AcDbLayerTableRecord
  2
1
 70
     0
 62
     7
  6
CONTINUOUS
290
     1
370
    -3
390
0
  0
LAYER
  5
17
100
AcDbSymbolTableRecord
100
AcDbLayerTableRecord
  2
2
 70
     0
 62
     7
  6
CONTINUOUS
290
     1
370
    -3
390
0
  0
LAYER
  5
18
100
AcDbSymbolTableRecord
100
AcDbLayerTableRecord
  2
3
 70
     0
 62
     7
  6
CONTINUOUS
290
     1
370
    -3
390
0
  0
ENDTAB
  0
TABLE
  2
STYLE
  5
2
100
AcDbSymbolTable
 70
     1
  0
STYLE
  5
1B
100
AcDbSymbolTableRecord
100
AcDbTextStyleTableRecord
  2
STANDARD
 70
    64
 40
0.0
 41
1.0
 50
0.0
 71
     0
 42
1.0
  3
txt
  4
BIGFONT
  0
ENDTAB
  0
TABLE
  2
VIEW
  5
4
100
AcDbSymbolTable
 70
     0
  0
ENDTAB
  0
TABLE
  2
UCS
  5
5
100
AcDbSymbolTable
 70
     0
  0
ENDTAB
  0
TABLE
  2
APPID
  5
7
100
AcDbSymbolTable
 70
     1
  0
APPID
  5
1A
100
AcDbSymbolTableRecord
100
AcDbRegAppTableRecord
  2
ACAD
 70
     0
  0
ENDTAB
  0
TABLE
  2
DIMSTYLE
  5
8
100
AcDbSymbolTable
 70
     1
100
AcDbDimStyleTable
 71
     0
  0
DIMSTYLE
105
30
100
AcDbSymbolTableRecord
100
AcDbDimStyleTableRecord
  2
Standard
 70
     0
  3

  4

 40
2.0
 41
2.0
 42
1.0
 43
0.38
 44
2.0
 45
0.0
 46
0.0
 47
0.0
 48
0.0
 71
     0
 72
     0
 73
     0
 74
     0
 75
     0
 76
     0
 77
     1
 78
     0
 79
     0
140
3.5
141
0.09
142
0.0
143
25.4
144
1.0
145
0.0
146
1.0
147
0.5
148
0.0
170
     0
171
     2
172
     0
173
     0
174
     0
175
     0
176
     0
177
     0
178
     0
179
     0
271
     3
272
     4
273
     2
274
     2
275
     0
276
     0
277
     2
278
    46
279
     0
280
     0
281
     0
282
     0
283
     1
284
     0
285
     0
286
     0
288
     0
289
     3
340
1B
341
0
342
0
343
0
344
0
371
    -2
372
    -2
  0
ENDTAB
  0
TABLE
  2
BLOCK_RECORD
  5
2B
100
AcDbSymbolTable
 70
    13
  0
BLOCK_RECORD
  5
29
100
AcDbSymbolTableRecord
100
AcDbBlockTableRecord
  2
*Model_Space
340
0
  0
BLOCK_RECORD
  5
2A
100
AcDbSymbolTableRecord
100
AcDbBlockTableRecord
  2
*Paper_Space
340
0
  0
BLOCK_RECORD
  5
1C
100
AcDbSymbolTableRecord
100
AcDbBlockTableRecord
  2
*D0
340
0
  0
BLOCK_RECORD
  5
1D
100
AcDbSymbolTableRecord
100
AcDbBlockTableRecord
  2
*D1
340
0
  0
BLOCK_RECORD
  5
1E
100
AcDbSymbolTableRecord
100
AcDbBlockTableRecord
  2
*D2
340
0
  0
BLOCK_RECORD
  5
1F
100
AcDbSymbolTableRecord
100
AcDbBlockTableRecord
  2
*D3
340
0
  0
BLOCK_RECORD
  5
20
100
AcDbSymbolTableRecord
100
AcDbBlockTableRecord
  2
*D4
340
0
  0
BLOCK_RECORD
  5
21
100
AcDbSymbolTableRecord
100
AcDbBlockTableRecord
  2
*D5
340
0
  0
BLOCK_RECORD
  5
22
100
AcDbSymbolTableRecord
100
AcDbBlockTableRecord
  2
*D6
340
0
  0
BLOCK_RECORD
  5
23
100
AcDbSymbolTableRecord
100
AcDbBlockTableRecord
  2
*D7
340
0
  0
BLOCK_RECORD
  5
24
100
AcDbSymbolTableRecord
100
AcDbBlockTableRecord
  2
*D8
340
0
  0
BLOCK_RECORD
  5
25
100
AcDbSymbolTableRecord
100
AcDbBlockTableRecord
  2
*D9
340
0
  0
BLOCK_RECORD
  5
26
100
AcDbSymbolTableRecord
100
AcDbBlockTableRecord
  2
*D10
340
0
  0
BLOCK_RECORD
  5
27
100
AcDbSymbolTableRecord
100
AcDbBlockTableRecord
  2
*D11
340
0
  0
BLOCK_RECORD
  5
28
100
AcDbSymbolTableRecord
100
AcDbBlockTableRecord
  2
*D12
340
0
  0
ENDTAB
  0
ENDSEC
  0
SECTION
  2
BLOCKS
  0
BLOCK
  5
2C
100
AcDbEntity
  8
0
390
0
100
AcDbBlockBegin
  2
*Model_Space
 70
     0
 10
0.0
 20
0.0
 30
0.0
  3
*Model_Space
  1

  0
ENDBLK
  5
2D
100
AcDbEntity
  8
0
390
0
100
AcDbBlockEnd
  0
BLOCK
  5
2E
100
AcDbEntity
 67
     1
  8
0
390
0
100
AcDbBlockBegin
  2
*Paper_Space
 70
     0
 10
0.0
 20
0.0
 30
0.0
  3
*Paper_Space
  1

  0
ENDBLK
  5
2F
100
AcDbEntity
 67
     1
  8
0
390
0
100
AcDbBlockEnd
  0
BLOCK
  5
40B
100
AcDbEntity
  8
3
100
AcDbBlockBegin
  2
*D0
 70
     1
 10
0.0
 20
0.0
 30
0.0
  3
*D0
  1

  0
TEXT
  5
40C
100
AcDbEntity
  8
3
370
    25
100
AcDbText
 10
247.27037
 20
-102.665206
 30
0.0
 40
7.0
  1
７０
 50
90.0
 72
     5
 11
247.27037
 21
-90.065206
 31
0.0
100
AcDbText
  0
LINE
  5
40D
100
AcDbEntity
  8
3
370
    25
100
AcDbLine
 10
140.560192
 20
-130.665206
 30
0.0
 11
250.27037
 21
-130.665206
 31
0.0
  0
LINE
  5
40E
100
AcDbEntity
  8
3
370
    25
100
AcDbLine
 10
248.27037
 20
-130.665206
 30
0.0
 11
249.305647
 21
-126.801503
 31
0.0
  0
LINE
  5
40F
100
AcDbEntity
  8
3
370
    25
100
AcDbLine
 10
248.27037
 20
-130.665206
 30
0.0
 11
247.235094
 21
-126.801503
 31
0.0
  0
LINE
  5
410
100
AcDbEntity
  8
3
370
    25
100
AcDbLine
 10
249.305647
 20
-126.801503
 30
0.0
 11
247.235094
 21
-126.801503
 31
0.0
  0
LINE
  5
411
100
AcDbEntity
  8
3
370
    25
100
AcDbLine
 10
248.27037
 20
-130.665206
 30
0.0
 11
248.27037
 21
-60.665206
 31
0.0
  0
LINE
  5
412
100
AcDbEntity
  8
3
370
    25
100
AcDbLine
 10
248.27037
 20
-60.665206
 30
0.0
 11
247.235094
 21
-64.528909
 31
0.0
  0
LINE
  5
413
100
AcDbEntity
  8
3
370
    25
100
AcDbLine
 10
248.27037
 20
-60.665206
 30
0.0
 11
249.305647
 21
-64.528909
 31
0.0
  0
LINE
  5
414
100
AcDbEntity
  8
3
370
    25
100
AcDbLine
 10
247.235094
 20
-64.528909
 30
0.0
 11
249.305647
 21
-64.528909
 31
0.0
  0
LINE
  5
415
100
AcDbEntity
  8
3
370
    25
100
AcDbLine
 10
139.163086
 20
-60.665206
 30
0.0
 11
250.27037
 21
-60.665206
 31
0.0
  0
ENDBLK
  5
416
100
AcDbEntity
  8
3
100
AcDbBlockEnd
  0
BLOCK
  5
417
100
AcDbEntity
  8
3
100
AcDbBlockBegin
  2
*D1
 70
     1
 10
0.0
 20
0.0
 30
0.0
  3
*D1
  1

  0
TEXT
  5
418
100
AcDbEntity
  8
3
370
    25
100
AcDbText
 10
-206.864411
 20
-116.279977
 30
0.0
 40
7.0
  1
φ４７．８
 72
     5
 11
-173.264411
 21
-116.279977
 31
0.0
100
AcDbText
  0
LINE
  5
419
100
AcDbEntity
  8
3
370
    25
100
AcDbLine
 10
-214.864411
 20
-128.165206
 30
0.0
 11
-214.864411
 21
-115.279977
 31
0.0
  0
LINE
  5
41A
100
AcDbEntity
  8
3
370
    25
100
AcDbLine
 10
-214.864411
 20
-117.279977
 30
0.0
 11
-211.000708
 21
-118.315253
 31
0.0
  0
LINE
  5
41B
100
AcDbEntity
  8
3
370
    25
100
AcDbLine
 10
-214.864411
 20
-117.279977
 30
0.0
 11
-211.000708
 21
-116.244701
 31
0.0
  0
LINE
  5
41C
100
AcDbEntity
  8
3
370
    25
100
AcDbLine
 10
-211.000708
 20
-118.315253
 30
0.0
 11
-211.000708
 21
-116.244701
 31
0.0
  0
LINE
  5
41D
100
AcDbEntity
  8
3
370
    25
100
AcDbLine
 10
-171.864411
 20
-117.279977
 30
0.0
 11
-272.664411
 21
-117.279977
 31
0.0
  0
LINE
  5
41E
100
AcDbEntity
  8
3
370
    25
100
AcDbLine
 10
-262.664411
 20
-117.279977
 30
0.0
 11
-266.528114
 21
-116.244701
 31
0.0
  0
LINE
  5
41F
100
AcDbEntity
  8
3
370
    25
100
AcDbLine
 10
-262.664411
 20
-117.279977
 30
0.0
 11
-266.528114
 21
-118.315253
 31
0.0
  0
LINE
  5
420
100
AcDbEntity
  8
3
370
    25
100
AcDbLine
 10
-266.528114
 20
-116.244701
 30
0.0
 11
-266.528114
 21
-118.315253
 31
0.0
  0
LINE
  5
421
100
AcDbEntity
  8
3
370
    25
100
AcDbLine
 10
-262.664411
 20
-128.165206
 30
0.0
 11
-262.664411
 21
-115.279977
 31
0.0
  0
ENDBLK
  5
422
100
AcDbEntity
  8
3
100
AcDbBlockEnd
  0
BLOCK
  5
423
100
AcDbEntity
  8
3
100
AcDbBlockBegin
  2
*D2
 70
     1
 10
0.0
 20
0.0
 30
0.0
  3
*D2
  1

  0
LINE
  5
424
100
AcDbEntity
  8
3
370
    25
100
AcDbLine
 10
95.960192
 20
-157.477021
 30
0.0
 11
4.08427
 21
-157.477021
 31
0.0
  0
LINE
  5
425
100
AcDbEntity
  8
3
370
    25
100
AcDbLine
 10
6.08427
 20
-157.477021
 30
0.0
 11
7.119546
 21
-153.613318
 31
0.0
  0
LINE
  5
426
100
AcDbEntity
  8
3
370
    25
100
AcDbLine
 10
6.08427
 20
-157.477021
 30
0.0
 11
5.048993
 21
-153.613318
 31
0.0
  0
LINE
  5
427
100
AcDbEntity
  8
3
370
    25
100
AcDbLine
 10
7.119546
 20
-153.613318
 30
0.0
 11
5.048993
 21
-153.613318
 31
0.0
  0
LINE
  5
428
100
AcDbEntity
  8
3
370
    25
100
AcDbLine
 10
6.08427
 20
-157.477021
 30
0.0
 11
6.08427
 21
-130.665206
 31
0.0
  0
LINE
  5
429
100
AcDbEntity
  8
3
370
    25
100
AcDbLine
 10
6.08427
 20
-130.665206
 30
0.0
 11
5.048993
 21
-134.52891
 31
0.0
  0
LINE
  5
42A
100
AcDbEntity
  8
3
370
    25
100
AcDbLine
 10
6.08427
 20
-130.665206
 30
0.0
 11
7.119546
 21
-134.52891
 31
0.0
  0
LINE
  5
42B
100
AcDbEntity
  8
3
370
    25
100
AcDbLine
 10
5.048993
 20
-134.52891
 30
0.0
 11
7.119546
 21
-134.52891
 31
0.0
  0
LINE
  5
42C
100
AcDbEntity
  8
3
370
    25
100
AcDbLine
 10
89.760192
 20
-130.665206
 30
0.0
 11
4.08427
 21
-130.665206
 31
0.0
  0
ENDBLK
  5
42D
100
AcDbEntity
  8
3
100
AcDbBlockEnd
  0
BLOCK
  5
42E
100
AcDbEntity
  8
3
100
AcDbBlockBegin
  2
*D3
 70
     1
 10
0.0
 20
0.0
 30
0.0
  3
*D3
  1

  0
LINE
  5
42F
100
AcDbEntity
  8
3
370
    25
100
AcDbLine
 10
-179.264411
 20
-249.645521
 30
0.0
 11
-102.266991
 21
-249.645521
 31
0.0
  0
LINE
  5
430
100
AcDbEntity
  8
3
370
    25
100
AcDbLine
 10
-104.266991
 20
-249.645521
 30
0.0
 11
-103.231714
 21
-245.781818
 31
0.0
  0
LINE
  5
431
100
AcDbEntity
  8
3
370
    25
100
AcDbLine
 10
-104.266991
 20
-249.645521
 30
0.0
 11
-105.302267
 21
-245.781818
 31
0.0
  0
LINE
  5
432
100
AcDbEntity
  8
3
370
    25
100
AcDbLine
 10
-103.231714
 20
-245.781818
 30
0.0
 11
-105.302267
 21
-245.781818
 31
0.0
  0
LINE
  5
433
100
AcDbEntity
  8
3
370
    25
100
AcDbLine
 10
-104.266991
 20
-249.645521
 30
0.0
 11
-104.266991
 21
-130.665206
 31
0.0
  0
LINE
  5
434
100
AcDbEntity
  8
3
370
    25
100
AcDbLine
 10
-104.266991
 20
-130.665206
 30
0.0
 11
-105.302267
 21
-134.52891
 31
0.0
  0
LINE
  5
435
100
AcDbEntity
  8
3
370
    25
100
AcDbLine
 10
-104.266991
 20
-130.665206
 30
0.0
 11
-103.231714
 21
-134.52891
 31
0.0
  0
LINE
  5
436
100
AcDbEntity
  8
3
370
    25
100
AcDbLine
 10
-105.302267
 20
-134.52891
 30
0.0
 11
-103.231714
 21
-134.52891
 31
0.0
  0
LINE
  5
437
100
AcDbEntity
  8
3
370
    25
100
AcDbLine
 10
-213.364411
 20
-130.665206
 30
0.0
 11
-102.266991
 21
-130.665206
 31
0.0
  0
ENDBLK
  5
438
100
AcDbEntity
  8
3
100
AcDbBlockEnd
  0
BLOCK
  5
439
100
AcDbEntity
  8
3
100
AcDbBlockBegin
  2
*D4
 70
     1
 10
0.0
 20
0.0
 30
0.0
  3
*D4
  1

  0
TEXT
  5
43A
100
AcDbEntity
  8
3
370
    25
100
AcDbText
 10
-39.306907
 20
229.981207
 30
0.0
 40
7.0
  1
４０゜
 50
290.0
 72
     5
 11
-32.603313
 21
211.563232
 31
0.0
100
AcDbText
  0
LINE
  5
43B
100
AcDbEntity
  8
3
370
    25
100
AcDbLine
 10
-21.506432
 20
275.028767
 30
0.0
 11
-47.398574
 21
275.028767
 31
0.0
  0
LINE
  5
43C
100
AcDbEntity
  8
3
370
    25
100
AcDbLine
 10
18.171245
 20
193.645377
 30
0.0
 11
-9.367048
 21
170.538006
 31
0.0
  0
LINE
  5
43D
100
AcDbEntity
  8
3
370
    25
100
AcDbLine
 10
-45.398574
 20
275.028767
 30
0.0
 11
-46.387287
 21
271.152887
 31
0.0
  0
LINE
  5
43E
100
AcDbEntity
  8
3
370
    25
100
AcDbLine
 10
-45.398574
 20
275.028767
 30
0.0
 11
-44.316885
 21
271.1778
 31
0.0
  0
LINE
  5
43F
100
AcDbEntity
  8
3
370
    25
100
AcDbLine
 10
-46.387287
 20
271.152887
 30
0.0
 11
-44.316885
 21
271.1778
 31
0.0
  0
LINE
  5
440
100
AcDbEntity
  8
3
370
    25
100
AcDbLine
 10
-7.834959
 20
171.823581
 30
0.0
 11
-9.48169
 21
175.46889
 31
0.0
  0
LINE
  5
441
100
AcDbEntity
  8
3
370
    25
100
AcDbLine
 10
-7.834959
 20
171.823581
 30
0.0
 11
-11.083724
 21
174.157145
 31
0.0
  0
LINE
  5
442
100
AcDbEntity
  8
3
370
    25
100
AcDbLine
 10
-9.48169
 20
175.46889
 30
0.0
 11
-11.083724
 21
174.157145
 31
0.0
  0
ARC
  5
443
100
AcDbEntity
  8
3
370
    25
100
AcDbCircle
 10
115.160192
 20
275.028767
 30
0.0
 40
160.558767
100
AcDbArc
 50
180.0
 51
220.0
  0
ENDBLK
  5
444
100
AcDbEntity
  8
3
100
AcDbBlockEnd
  0
BLOCK
  5
445
100
AcDbEntity
  8
3
100
AcDbBlockBegin
  2
*D5
 70
     1
 10
0.0
 20
0.0
 30
0.0
  3
*D5
  1

  0
TEXT
  5
446
100
AcDbEntity
  8
3
370
    25
100
AcDbText
 10
33.563025
 20
-16.348388
 30
0.0
 40
7.0
  1
２０゜
 50
55.0
 72
     5
 11
44.805123
 21
-0.293008
 31
0.0
100
AcDbText
  0
LINE
  5
447
100
AcDbEntity
  8
3
370
    25
100
AcDbLine
 10
54.323023
 20
0.171962
 30
0.0
 11
48.508612
 21
5.986374
 31
0.0
  0
LINE
  5
448
100
AcDbEntity
  8
3
370
    25
100
AcDbLine
 10
37.675314
 20
-24.533415
 30
0.0
 11
29.73201
 21
-20.829392
 31
0.0
  0
LINE
  5
449
100
AcDbEntity
  8
3
370
    25
100
AcDbLine
 10
49.922825
 20
4.57216
 30
0.0
 11
46.501362
 21
2.500063
 31
0.0
  0
LINE
  5
44A
100
AcDbEntity
  8
3
370
    25
100
AcDbLine
 10
49.922825
 20
4.57216
 30
0.0
 11
47.9958
 21
1.06694
 31
0.0
  0
LINE
  5
44B
100
AcDbEntity
  8
3
370
    25
100
AcDbLine
 10
46.501362
 20
2.500063
 30
0.0
 11
47.9958
 21
1.06694
 31
0.0
  0
LINE
  5
44C
100
AcDbEntity
  8
3
370
    25
100
AcDbLine
 10
31.544626
 20
-21.674628
 30
0.0
 11
34.179374
 21
-18.664961
 31
0.0
  0
LINE
  5
44D
100
AcDbEntity
  8
3
370
    25
100
AcDbLine
 10
31.544626
 20
-21.674628
 30
0.0
 11
32.321551
 21
-17.750805
 31
0.0
  0
LINE
  5
44E
100
AcDbEntity
  8
3
370
    25
100
AcDbLine
 10
34.179374
 20
-18.664961
 30
0.0
 11
32.321551
 21
-17.750805
 31
0.0
  0
ARC
  5
44F
100
AcDbEntity
  8
3
370
    25
100
AcDbCircle
 10
115.160192
 20
-60.665206
 30
0.0
 40
92.259569
100
AcDbArc
 50
135.0
 51
155.0
  0
ENDBLK
  5
450
100
AcDbEntity
  8
3
100
AcDbBlockEnd
  0
BLOCK
  5
451
100
AcDbEntity
  8
3
100
AcDbBlockBegin
  2
*D6
 70
     1
 10
0.0
 20
0.0
 30
0.0
  3
*D6
  1

  0
TEXT
  5
452
100
AcDbEntity
  8
3
370
    25
100
AcDbText
 10
80.880619
 20
26.69902
 30
0.0
 40
7.0
  1
６０゜
 50
15.0
 72
     5
 11
99.812765
 21
31.771873
 31
0.0
100
AcDbText
  0
LINE
  5
453
100
AcDbEntity
  8
3
370
    25
100
AcDbLine
 10
136.601628
 20
19.355321
 30
0.0
 11
139.556364
 21
30.382545
 31
0.0
  0
LINE
  5
454
100
AcDbEntity
  8
3
370
    25
100
AcDbLine
 10
54.323023
 20
0.171962
 30
0.0
 11
48.508612
 21
5.986374
 31
0.0
  0
LINE
  5
455
100
AcDbEntity
  8
3
370
    25
100
AcDbLine
 10
139.038726
 20
28.450693
 30
0.0
 11
135.533505
 21
30.377719
 31
0.0
  0
LINE
  5
456
100
AcDbEntity
  8
3
370
    25
100
AcDbLine
 10
139.038726
 20
28.450693
 30
0.0
 11
135.039603
 21
28.366936
 31
0.0
  0
LINE
  5
457
100
AcDbEntity
  8
3
370
    25
100
AcDbLine
 10
135.533505
 20
30.377719
 30
0.0
 11
135.039603
 21
28.366936
 31
0.0
  0
LINE
  5
458
100
AcDbEntity
  8
3
370
    25
100
AcDbLine
 10
49.922825
 20
4.57216
 30
0.0
 11
53.428046
 21
6.499186
 31
0.0
  0
LINE
  5
459
100
AcDbEntity
  8
3
370
    25
100
AcDbLine
 10
49.922825
 20
4.57216
 30
0.0
 11
51.994923
 21
7.993624
 31
0.0
  0
LINE
  5
45A
100
AcDbEntity
  8
3
370
    25
100
AcDbLine
 10
53.428046
 20
6.499186
 30
0.0
 11
51.994923
 21
7.993624
 31
0.0
  0
ARC
  5
45B
100
AcDbEntity
  8
3
370
    25
100
AcDbCircle
 10
115.160192
 20
-60.665207
 30
0.0
 40
92.259569
100
AcDbArc
 50
74.999999
 51
135.0
  0
ENDBLK
  5
45C
100
AcDbEntity
  8
3
100
AcDbBlockEnd
  0
BLOCK
  5
45D
100
AcDbEntity
  8
3
100
AcDbBlockBegin
  2
*D7
 70
     1
 10
0.0
 20
0.0
 30
0.0
  3
*D7
  1

  0
TEXT
  5
45E
100
AcDbEntity
  8
3
370
    25
100
AcDbText
 10
-193.410718
 20
-103.51719
 30
0.0
 40
7.0
  1
１１２
 72
     5
 11
-173.810718
 21
-103.51719
 31
0.0
100
AcDbText
  0
LINE
  5
45F
100
AcDbEntity
  8
3
370
    25
100
AcDbLine
 10
-238.764411
 20
-104.51719
 30
0.0
 11
-234.900708
 21
-105.552467
 31
0.0
  0
LINE
  5
460
100
AcDbEntity
  8
3
370
    25
100
AcDbLine
 10
-238.764411
 20
-104.51719
 30
0.0
 11
-234.900708
 21
-103.481914
 31
0.0
  0
LINE
  5
461
100
AcDbEntity
  8
3
370
    25
100
AcDbLine
 10
-234.900708
 20
-105.552467
 30
0.0
 11
-234.900708
 21
-103.481914
 31
0.0
  0
LINE
  5
462
100
AcDbEntity
  8
3
370
    25
100
AcDbLine
 10
-238.764411
 20
-104.51719
 30
0.0
 11
-127.057026
 21
-104.51719
 31
0.0
  0
LINE
  5
463
100
AcDbEntity
  8
3
370
    25
100
AcDbLine
 10
-127.057026
 20
-104.51719
 30
0.0
 11
-130.920729
 21
-103.481914
 31
0.0
  0
LINE
  5
464
100
AcDbEntity
  8
3
370
    25
100
AcDbLine
 10
-127.057026
 20
-104.51719
 30
0.0
 11
-130.920729
 21
-105.552467
 31
0.0
  0
LINE
  5
465
100
AcDbEntity
  8
3
370
    25
100
AcDbLine
 10
-130.920729
 20
-103.481914
 30
0.0
 11
-130.920729
 21
-105.552467
 31
0.0
  0
LINE
  5
466
100
AcDbEntity
  8
3
370
    25
100
AcDbLine
 10
-127.057026
 20
-15.331386
 30
0.0
 11
-127.057026
 21
-106.51719
 31
0.0
  0
ENDBLK
  5
467
100
AcDbEntity
  8
3
100
AcDbBlockEnd
  0
BLOCK
  5
468
100
AcDbEntity
  8
3
100
AcDbBlockBegin
  2
*D8
 70
     1
 10
0.0
 20
0.0
 30
0.0
  3
*D8
  1

  0
TEXT
  5
469
100
AcDbEntity
  8
3
370
    25
100
AcDbText
 10
-137.679687
 20
21.199515
 30
0.0
 40
7.0
  1
２２゜
 50
333.923074
 72
     5
 11
-120.074875
 21
12.583796
 31
0.0
100
AcDbText
  0
LINE
  5
46A
100
AcDbEntity
  8
3
370
    25
100
AcDbLine
 10
-123.329598
 20
-8.398715
 30
0.0
 11
-110.792907
 21
8.191644
 31
0.0
  0
LINE
  5
46B
100
AcDbEntity
  8
3
370
    25
100
AcDbLine
 10
-148.379831
 20
14.845711
 30
0.0
 11
-145.5854
 21
25.21894
 31
0.0
  0
LINE
  5
46C
100
AcDbEntity
  8
3
370
    25
100
AcDbLine
 10
-111.998681
 20
6.595991
 30
0.0
 11
-114.51789
 21
9.703013
 31
0.0
  0
LINE
  5
46D
100
AcDbEntity
  8
3
370
    25
100
AcDbLine
 10
-111.998681
 20
6.595991
 30
0.0
 11
-115.733891
 21
8.027146
 31
0.0
  0
LINE
  5
46E
100
AcDbEntity
  8
3
370
    25
100
AcDbLine
 10
-114.51789
 20
9.703013
 30
0.0
 11
-115.733891
 21
8.027146
 31
0.0
  0
LINE
  5
46F
100
AcDbEntity
  8
3
370
    25
100
AcDbLine
 10
-146.105632
 20
23.287785
 30
0.0
 11
-142.683791
 21
21.216311
 31
0.0
  0
LINE
  5
470
100
AcDbEntity
  8
3
370
    25
100
AcDbLine
 10
-146.105632
 20
23.287785
 30
0.0
 11
-142.106494
 21
23.204756
 31
0.0
  0
LINE
  5
471
100
AcDbEntity
  8
3
370
    25
100
AcDbLine
 10
-142.683791
 20
21.216311
 30
0.0
 11
-142.106494
 21
23.204756
 31
0.0
  0
ARC
  5
472
100
AcDbEntity
  8
3
370
    25
100
AcDbCircle
 10
-171.988075
 20
-72.790638
 30
0.0
 40
99.503589
100
AcDbArc
 50
52.923074
 51
74.923074
  0
ENDBLK
  5
473
100
AcDbEntity
  8
3
100
AcDbBlockEnd
  0
BLOCK
  5
474
100
AcDbEntity
  8
3
100
AcDbBlockBegin
  2
*D9
 70
     1
 10
0.0
 20
0.0
 30
0.0
  3
*D9
  1

  0
TEXT
  5
475
100
AcDbEntity
  8
3
370
    25
100
AcDbText
 10
-210.743016
 20
-93.663316
 30
0.0
 40
7.0
  1
７０
 72
     5
 11
-198.143016
 21
-93.663316
 31
0.0
100
AcDbText
  0
LINE
  5
476
100
AcDbEntity
  8
3
370
    25
100
AcDbLine
 10
-238.764411
 20
-94.663316
 30
0.0
 11
-234.900708
 21
-95.698592
 31
0.0
  0
LINE
  5
477
100
AcDbEntity
  8
3
370
    25
100
AcDbLine
 10
-238.764411
 20
-94.663316
 30
0.0
 11
-234.900708
 21
-93.62804
 31
0.0
  0
LINE
  5
478
100
AcDbEntity
  8
3
370
    25
100
AcDbLine
 10
-234.900708
 20
-95.698592
 30
0.0
 11
-234.900708
 21
-93.62804
 31
0.0
  0
LINE
  5
479
100
AcDbEntity
  8
3
370
    25
100
AcDbLine
 10
-238.764411
 20
-94.663316
 30
0.0
 11
-168.721621
 21
-94.663316
 31
0.0
  0
LINE
  5
47A
100
AcDbEntity
  8
3
370
    25
100
AcDbLine
 10
-168.721621
 20
-94.663316
 30
0.0
 11
-172.585324
 21
-93.62804
 31
0.0
  0
LINE
  5
47B
100
AcDbEntity
  8
3
370
    25
100
AcDbLine
 10
-168.721621
 20
-94.663316
 30
0.0
 11
-172.585324
 21
-95.698592
 31
0.0
  0
LINE
  5
47C
100
AcDbEntity
  8
3
370
    25
100
AcDbLine
 10
-172.585324
 20
-93.62804
 30
0.0
 11
-172.585324
 21
-95.698592
 31
0.0
  0
LINE
  5
47D
100
AcDbEntity
  8
3
370
    25
100
AcDbLine
 10
-168.721621
 20
-62.665207
 30
0.0
 11
-168.721621
 21
-96.663316
 31
0.0
  0
ENDBLK
  5
47E
100
AcDbEntity
  8
3
100
AcDbBlockEnd
  0
BLOCK
  5
47F
100
AcDbEntity
  8
3
100
AcDbBlockBegin
  2
*D10
 70
     1
 10
0.0
 20
0.0
 30
0.0
  3
*D10
  1

  0
TEXT
  5
480
100
AcDbEntity
  8
3
370
    25
100
AcDbText
 10
-31.540785
 20
-76.402593
 30
0.0
 40
7.0
  1
１５８
 50
90.0
 72
     5
 11
-31.540785
 21
-56.802593
 31
0.0
100
AcDbText
  0
LINE
  5
481
100
AcDbEntity
  8
3
370
    25
100
AcDbLine
 10
89.760192
 20
-130.665206
 30
0.0
 11
-32.540785
 21
-130.665206
 31
0.0
  0
LINE
  5
482
100
AcDbEntity
  8
3
370
    25
100
AcDbLine
 10
-30.540785
 20
-130.665206
 30
0.0
 11
-29.505509
 21
-126.801503
 31
0.0
  0
LINE
  5
483
100
AcDbEntity
  8
3
370
    25
100
AcDbLine
 10
-30.540785
 20
-130.665206
 30
0.0
 11
-31.576061
 21
-126.801503
 31
0.0
  0
LINE
  5
484
100
AcDbEntity
  8
3
370
    25
100
AcDbLine
 10
-29.505509
 20
-126.801503
 30
0.0
 11
-31.576061
 21
-126.801503
 31
0.0
  0
LINE
  5
485
100
AcDbEntity
  8
3
370
    25
100
AcDbLine
 10
-30.540785
 20
-130.665206
 30
0.0
 11
-30.540785
 21
26.86002
 31
0.0
  0
LINE
  5
486
100
AcDbEntity
  8
3
370
    25
100
AcDbLine
 10
-30.540785
 20
26.86002
 30
0.0
 11
-31.576061
 21
22.996317
 31
0.0
  0
LINE
  5
487
100
AcDbEntity
  8
3
370
    25
100
AcDbLine
 10
-30.540785
 20
26.86002
 30
0.0
 11
-29.505509
 21
22.996317
 31
0.0
  0
LINE
  5
488
100
AcDbEntity
  8
3
370
    25
100
AcDbLine
 10
-31.576061
 20
22.996317
 30
0.0
 11
-29.505509
 21
22.996317
 31
0.0
  0
LINE
  5
489
100
AcDbEntity
  8
3
370
    25
100
AcDbLine
 10
3.160192
 20
26.86002
 30
0.0
 11
-32.540785
 21
26.86002
 31
0.0
  0
ENDBLK
  5
48A
100
AcDbEntity
  8
3
100
AcDbBlockEnd
  0
BLOCK
  5
48B
100
AcDbEntity
  8
3
100
AcDbBlockBegin
  2
*D11
 70
     1
 10
0.0
 20
0.0
 30
0.0
  3
*D11
  1

  0
TEXT
  5
48C
100
AcDbEntity
  8
3
370
    25
100
AcDbText
 10
290.369537
 20
-2.276267
 30
0.0
 40
7.0
  1
３０６
 50
90.0
 72
     5
 11
290.369537
 21
17.323733
 31
0.0
100
AcDbText
  0
LINE
  5
48D
100
AcDbEntity
  8
3
370
    25
100
AcDbLine
 10
140.560192
 20
-130.665206
 30
0.0
 11
293.369537
 21
-130.665206
 31
0.0
  0
LINE
  5
48E
100
AcDbEntity
  8
3
370
    25
100
AcDbLine
 10
291.369537
 20
-130.665206
 30
0.0
 11
292.404814
 21
-126.801503
 31
0.0
  0
LINE
  5
48F
100
AcDbEntity
  8
3
370
    25
100
AcDbLine
 10
291.369537
 20
-130.665206
 30
0.0
 11
290.334261
 21
-126.801503
 31
0.0
  0
LINE
  5
490
100
AcDbEntity
  8
3
370
    25
100
AcDbLine
 10
292.404814
 20
-126.801503
 30
0.0
 11
290.334261
 21
-126.801503
 31
0.0
  0
LINE
  5
491
100
AcDbEntity
  8
3
370
    25
100
AcDbLine
 10
291.369537
 20
-130.665206
 30
0.0
 11
291.369537
 21
175.112672
 31
0.0
  0
LINE
  5
492
100
AcDbEntity
  8
3
370
    25
100
AcDbLine
 10
291.369537
 20
175.112672
 30
0.0
 11
290.334261
 21
171.248969
 31
0.0
  0
LINE
  5
493
100
AcDbEntity
  8
3
370
    25
100
AcDbLine
 10
291.369537
 20
175.112672
 30
0.0
 11
292.404814
 21
171.248969
 31
0.0
  0
LINE
  5
494
100
AcDbEntity
  8
3
370
    25
100
AcDbLine
 10
290.334261
 20
171.248969
 30
0.0
 11
292.404814
 21
171.248969
 31
0.0
  0
LINE
  5
495
100
AcDbEntity
  8
3
370
    25
100
AcDbLine
 10
82.160192
 20
175.112672
 30
0.0
 11
293.369537
 21
175.112672
 31
0.0
  0
ENDBLK
  5
496
100
AcDbEntity
  8
3
100
AcDbBlockEnd
  0
BLOCK
  5
497
100
AcDbEntity
  8
3
100
AcDbBlockBegin
  2
*D12
 70
     1
 10
0.0
 20
0.0
 30
0.0
  3
*D12
  1

  0
TEXT
  5
498
100
AcDbEntity
  8
3
370
    25
100
AcDbText
 10
-16.618795
 20
-36.187664
 30
0.0
 40
7.0
  1
２０゜
 50
350.0
 72
     5
 11
2.683437
 21
-39.591168
 31
0.0
100
AcDbText
  0
LINE
  5
499
100
AcDbEntity
  8
3
370
    25
100
AcDbLine
 10
1.515829
 20
16.847213
 30
0.0
 11
-18.395326
 21
-37.858236
 31
0.0
  0
LINE
  5
49A
100
AcDbEntity
  8
3
370
    25
100
AcDbLine
 10
5.160192
 20
24.86002
 30
0.0
 11
5.160192
 21
-42.011709
 31
0.0
  0
LINE
  5
49B
100
AcDbEntity
  8
3
370
    25
100
AcDbLine
 10
-17.711286
 20
-35.978851
 30
0.0
 11
-14.369765
 21
-38.177541
 31
0.0
  0
LINE
  5
49C
100
AcDbEntity
  8
3
370
    25
100
AcDbLine
 10
-17.711286
 20
-35.978851
 30
0.0
 11
-13.718099
 21
-36.212212
 31
0.0
  0
LINE
  5
49D
100
AcDbEntity
  8
3
370
    25
100
AcDbLine
 10
-14.369765
 20
-38.177541
 30
0.0
 11
-13.718099
 21
-36.212212
 31
0.0
  0
LINE
  5
49E
100
AcDbEntity
  8
3
370
    25
100
AcDbLine
 10
5.160192
 20
-40.011709
 30
0.0
 11
1.32801
 21
-38.865247
 31
0.0
  0
LINE
  5
49F
100
AcDbEntity
  8
3
370
    25
100
AcDbLine
 10
5.160192
 20
-40.011709
 30
0.0
 11
1.268194
 21
-40.934935
 31
0.0
  0
LINE
  5
4A0
100
AcDbEntity
  8
3
370
    25
100
AcDbLine
 10
1.32801
 20
-38.865247
 30
0.0
 11
1.268194
 21
-40.934935
 31
0.0
  0
ARC
  5
4A1
100
AcDbEntity
  8
3
370
    25
100
AcDbCircle
 10
5.160192
 20
26.86002
 30
0.0
 40
66.871729
100
AcDbArc
 50
250.0
 51
270.0
  0
ENDBLK
  5
4A2
100
AcDbEntity
  8
3
100
AcDbBlockEnd
  0
ENDSEC
  0
SECTION
  2
ENTITIES
  0
LINE
  5
31
100
AcDbEntity
  8
1
370
   100
100
AcDbLine
 10
-373.02157
 20
275.028767
 30
0.0
 11
394.982385
 21
275.028767
 31
0.0
  0
LINE
  5
32
100
AcDbEntity
  8
1
370
   100
100
AcDbLine
 10
-373.02157
 20
275.028767
 30
0.0
 11
-373.02157
 21
-277.971881
 31
0.0
  0
LINE
  5
33
100
AcDbEntity
  8
1
370
   100
100
AcDbLine
 10
-373.02157
 20
-277.971881
 30
0.0
 11
394.982385
 21
-277.971881
 31
0.0
  0
LINE
  5
34
100
AcDbEntity
  8
1
370
   100
100
AcDbLine
 10
394.982385
 20
-277.971881
 30
0.0
 11
394.982385
 21
275.028767
 31
0.0
  0
TEXT
  5
35
100
AcDbEntity
  8
1
370
    50
100
AcDbText
 10
359.628442
 20
-226.252857
 30
0.0
 40
6.0
  1
設計
 72
     5
 11
370.428442
 21
-226.252857
 31
0.0
100
AcDbText
  0
TEXT
  5
36
100
AcDbEntity
  8
1
370
    50
100
AcDbText
 10
379.127478
 20
-226.099658
 30
0.0
 40
6.0
  1
製図
 72
     5
 11
389.927478
 21
-226.099658
 31
0.0
100
AcDbText
  0
TEXT
  5
37
100
AcDbEntity
  8
1
370
    50
100
AcDbText
 10
319.005745
 20
-226.252857
 30
0.0
 40
6.0
  1
承認
 72
     5
 11
329.805745
 21
-226.252857
 31
0.0
100
AcDbText
  0
TEXT
  5
38
100
AcDbEntity
  8
1
370
    50
100
AcDbText
 10
338.989679
 20
-226.19802
 30
0.0
 40
6.0
  1
検図
 72
     5
 11
349.789679
 21
-226.19802
 31
0.0
100
AcDbText
  0
LINE
  5
39
100
AcDbEntity
  8
1
370
    25
100
AcDbLine
 10
284.982385
 20
-227.971881
 30
0.0
 11
394.982385
 21
-227.971881
 31
0.0
  0
LINE
  5
3A
100
AcDbEntity
  8
1
370
    25
100
AcDbLine
 10
342.482385
 20
-245.971881
 30
0.0
 11
342.482385
 21
-259.971881
 31
0.0
  0
TEXT
  5
3B
100
AcDbEntity
  8
1
370
    50
100
AcDbText
 10
319.55159
 20
-256.012528
 30
0.0
 40
6.0
  1
日　付
 72
     5
 11
336.35159
 21
-256.012528
 31
0.0
100
AcDbText
  0
LINE
  5
3C
100
AcDbEntity
  8
1
370
    50
100
AcDbLine
 10
40.982385
 20
-259.971881
 30
0.0
 11
394.982385
 21
-259.971881
 31
0.0
  0
TEXT
  5
3D
100
AcDbEntity
  8
1
370
    50
100
AcDbText
 10
287.775011
 20
-256.322406
 30
0.0
 40
6.0
  1
第三角法
 72
     5
 11
310.575011
 21
-256.322406
 31
0.0
100
AcDbText
  0
TEXT
  5
3E
100
AcDbEntity
  8
1
370
    50
100
AcDbText
 10
291.087419
 20
-225.99802
 30
0.0
 40
6.0
  1
尺　度
 72
     5
 11
307.887419
 21
-225.99802
 31
0.0
100
AcDbText
  0
LINE
  5
3F
100
AcDbEntity
  8
1
370
   100
100
AcDbLine
 10
40.982385
 20
-217.971881
 30
0.0
 11
394.982385
 21
-217.971881
 31
0.0
  0
LINE
  5
40
100
AcDbEntity
  8
1
370
    50
100
AcDbLine
 10
211.982385
 20
-217.971881
 30
0.0
 11
211.982385
 21
-277.971881
 31
0.0
  0
LINE
  5
41
100
AcDbEntity
  8
1
370
    25
100
AcDbLine
 10
374.982385
 20
-245.971881
 30
0.0
 11
374.982385
 21
-217.971881
 31
0.0
  0
LINE
  5
42
100
AcDbEntity
  8
1
370
    25
100
AcDbLine
 10
354.982385
 20
-245.971881
 30
0.0
 11
354.982385
 21
-217.971881
 31
0.0
  0
LINE
  5
43
100
AcDbEntity
  8
1
370
    25
100
AcDbLine
 10
334.982385
 20
-245.971881
 30
0.0
 11
334.982385
 21
-217.971881
 31
0.0
  0
LINE
  5
44
100
AcDbEntity
  8
1
370
    50
100
AcDbLine
 10
284.982385
 20
-277.971881
 30
0.0
 11
284.982385
 21
-217.971881
 31
0.0
  0
LINE
  5
45
100
AcDbEntity
  8
1
370
    50
100
AcDbLine
 10
189.982385
 20
-217.971881
 30
0.0
 11
189.982385
 21
-277.971881
 31
0.0
  0
LINE
  5
46
100
AcDbEntity
  8
1
370
    50
100
AcDbLine
 10
62.982385
 20
-217.971881
 30
0.0
 11
62.982385
 21
-259.971881
 31
0.0
  0
LINE
  5
47
100
AcDbEntity
  8
1
370
    50
100
AcDbLine
 10
284.982385
 20
-245.971881
 30
0.0
 11
394.982385
 21
-245.971881
 31
0.0
  0
TEXT
  5
48
100
AcDbEntity
  8
1
370
    50
100
AcDbText
 10
287.101129
 20
-271.880939
 30
0.0
 40
6.0
  1
コードＮｏ
 41
0.9
 72
     5
 11
313.021129
 21
-271.880939
 31
0.0
100
AcDbText
  0
TEXT
  5
49
100
AcDbEntity
  8
1
370
   100
100
AcDbText
 10
52.886774
 20
-272.875659
 30
0.0
 40
8.0
  1
ミズタニバルブ工業株式会社
 41
1.2
 72
     5
 11
175.766774
 21
-272.875659
 31
0.0
100
AcDbText
  0
LINE
  5
4A
100
AcDbEntity
  8
1
370
    50
100
AcDbLine
 10
40.982385
 20
-238.971881
 30
0.0
 11
284.982385
 21
-238.971881
 31
0.0
  0
LINE
  5
4B
100
AcDbEntity
  8
1
370
    50
100
AcDbLine
 10
115.482385
 20
-238.971881
 30
0.0
 11
115.482385
 21
-259.971881
 31
0.0
  0
LINE
  5
4C
100
AcDbEntity
  8
1
370
    50
100
AcDbLine
 10
137.482385
 20
-238.971881
 30
0.0
 11
137.482385
 21
-259.971881
 31
0.0
  0
LINE
  5
4D
100
AcDbEntity
  8
1
370
    50
100
AcDbLine
 10
314.982385
 20
-277.971881
 30
0.0
 11
314.982385
 21
-217.971881
 31
0.0
  0
TEXT
  5
4E
100
AcDbEntity
  8
1
370
    50
100
AcDbText
 10
345.098131
 20
-256.100293
 30
0.0
 40
6.0
  1
　　・　　・
 72
     5
 11
379.898131
 21
-256.100293
 31
0.0
100
AcDbText
  0
LINE
  5
4F
100
AcDbEntity
  8
1
370
   100
100
AcDbLine
 10
40.982385
 20
-217.971881
 30
0.0
 11
40.982385
 21
-277.971881
 31
0.0
  0
TEXT
  5
50
100
AcDbEntity
  8
1
370
    50
100
AcDbText
 10
290.832582
 20
-240.013492
 30
0.0
 40
6.0
  1
　／ 
 72
     5
 11
301.632582
 21
-240.013492
 31
0.0
100
AcDbText
  0
TEXT
  5
51
100
AcDbEntity
  8
1
370
    50
100
AcDbText
 10
193.904123
 20
-272.024909
 30
0.0
 40
6.0
  1
備 考 
 72
     5
 11
207.704123
 21
-272.024909
 31
0.0
100
AcDbText
  0
TEXT
  5
52
100
AcDbEntity
  8
1
370
    50
100
AcDbText
 10
193.512534
 20
-230.89184
 30
0.0
 40
6.0
  1
仕 上
 72
     5
 11
207.312534
 21
-230.89184
 31
0.0
100
AcDbText
  0
TEXT
  5
53
100
AcDbEntity
  8
1
370
    50
100
AcDbText
 10
193.447176
 20
-248.891666
 30
0.0
 40
6.0
  1
表 面
 72
     5
 11
207.247176
 21
-248.891666
 31
0.0
100
AcDbText
  0
TEXT
  5
54
100
AcDbEntity
  8
1
370
    50
100
AcDbText
 10
193.447176
 20
-255.891666
 30
0.0
 40
6.0
  1
処 理
 72
     5
 11
207.247176
 21
-255.891666
 31
0.0
100
AcDbText
  0
TEXT
  5
55
100
AcDbEntity
  8
1
370
    50
100
AcDbText
 10
44.79335
 20
-231.693399
 30
0.0
 40
6.0
  1
品 名
 72
     5
 11
58.59335
 21
-231.693399
 31
0.0
100
AcDbText
  0
TEXT
  5
56
100
AcDbEntity
  8
1
370
    50
100
AcDbText
 10
44.397766
 20
-252.462534
 30
0.0
 40
6.0
  1
材 質
 72
     5
 11
58.197766
 21
-252.462534
 31
0.0
100
AcDbText
  0
TEXT
  5
57
100
AcDbEntity
  8
1
370
    50
100
AcDbText
 10
118.897766
 20
-252.462534
 30
0.0
 40
6.0
  1
規 格
 72
     5
 11
132.697766
 21
-252.462534
 31
0.0
100
AcDbText
  0
LINE
  5
58
100
AcDbEntity
  8
2
370
    25
  6
CENTER
100
AcDbLine
 10
-259.48233
 20
-60.665207
 30
0.0
 11
-167.114623
 21
-60.665205
 31
0.0
  0
LINE
  5
59
100
AcDbEntity
  8
2
370
    25
  6
CENTER
100
AcDbLine
 10
-238.764411
 20
-43.165207
 30
0.0
 11
-238.764411
 21
-199.266176
 31
0.0
  0
LINE
  5
5A
100
AcDbEntity
  8
2
370
    50
100
AcDbLine
 10
-256.264411
 20
-18.465207
 30
0.0
 11
-256.264411
 21
-125.865206
 31
0.0
  0
LINE
  5
5B
100
AcDbEntity
  8
2
370
    50
100
AcDbLine
 10
-216.264411
 20
-78.165207
 30
0.0
 11
-198.264413
 21
-78.165207
 31
0.0
  0
LINE
  5
5C
100
AcDbEntity
  8
2
370
    50
100
AcDbLine
 10
-198.264411
 20
-43.165207
 30
0.0
 11
-216.264411
 21
-43.165207
 31
0.0
  0
LINE
  5
5D
100
AcDbEntity
  8
2
370
    50
100
AcDbLine
 10
-197.764411
 20
-77.665207
 30
0.0
 11
-198.264412
 21
-78.165206
 31
0.0
  0
LINE
  5
5E
100
AcDbEntity
  8
2
370
    50
100
AcDbLine
 10
-197.76441
 20
-43.665207
 30
0.0
 11
-197.76441
 21
-77.665207
 31
0.0
  0
LINE
  5
5F
100
AcDbEntity
  8
2
370
    50
100
AcDbLine
 10
-198.264411
 20
-43.165207
 30
0.0
 11
-197.76441
 21
-43.665207
 31
0.0
  0
LINE
  5
60
100
AcDbEntity
  8
2
370
    50
100
AcDbLine
 10
-221.264411
 20
-125.865206
 30
0.0
 11
-221.264411
 21
-83.165206
 31
0.0
  0
LINE
  5
61
100
AcDbEntity
  8
2
370
    50
100
AcDbLine
 10
-221.264411
 20
-38.165207
 30
0.0
 11
-221.264411
 21
-18.465207
 31
0.0
  0
ARC
  5
62
100
AcDbEntity
  8
2
370
    50
100
AcDbCircle
 10
-216.264411
 20
-38.165207
 30
0.0
 40
5.0
100
AcDbArc
 50
180.0
 51
270.0
  0
ARC
  5
63
100
AcDbEntity
  8
2
370
    50
100
AcDbCircle
 10
-216.264411
 20
-83.165206
 30
0.0
 40
5.0
100
AcDbArc
 50
90.0
 51
180.0
  0
LINE
  5
64
100
AcDbEntity
  8
2
370
    50
100
AcDbLine
 10
-221.564411
 20
-126.165206
 30
0.0
 11
-221.264411
 21
-125.865206
 31
0.0
  0
LINE
  5
65
100
AcDbEntity
  8
2
370
    50
100
AcDbLine
 10
-255.964411
 20
-126.165206
 30
0.0
 11
-256.264411
 21
-125.865206
 31
0.0
  0
LINE
  5
66
100
AcDbEntity
  8
2
370
    25
  6
CENTER
100
AcDbLine
 10
-238.764412
 20
184.323441
 30
0.0
 11
-238.764412
 21
-43.165207
 31
0.0
  0
LINE
  5
67
100
AcDbEntity
  8
2
370
    50
100
AcDbLine
 10
-260.764411
 20
-133.665206
 30
0.0
 11
-260.764411
 21
-130.665206
 31
0.0
  0
LINE
  5
68
100
AcDbEntity
  8
2
370
    50
100
AcDbLine
 10
-216.764411
 20
-133.665206
 30
0.0
 11
-260.764411
 21
-133.665206
 31
0.0
  0
LINE
  5
69
100
AcDbEntity
  8
2
370
    50
100
AcDbLine
 10
-262.164411
 20
-130.665206
 30
0.0
 11
-215.364411
 21
-130.665206
 31
0.0
  0
LINE
  5
6A
100
AcDbEntity
  8
2
370
    50
100
AcDbLine
 10
-216.764411
 20
-133.665206
 30
0.0
 11
-216.764411
 21
-130.665206
 31
0.0
  0
LINE
  5
6B
100
AcDbEntity
  8
2
370
    50
100
AcDbLine
 10
-255.764411
 20
-134.165206
 30
0.0
 11
-255.764411
 21
-133.665206
 31
0.0
  0
LINE
  5
6C
100
AcDbEntity
  8
2
370
    50
100
AcDbLine
 10
-255.264411
 20
-134.665206
 30
0.0
 11
-222.264411
 21
-134.665206
 31
0.0
  0
LINE
  5
6D
100
AcDbEntity
  8
2
370
    50
100
AcDbLine
 10
-262.664411
 20
-130.165206
 30
0.0
 11
-262.664411
 21
-126.665206
 31
0.0
  0
LINE
  5
6E
100
AcDbEntity
  8
2
370
    50
100
AcDbLine
 10
-262.164411
 20
-126.165206
 30
0.0
 11
-215.364411
 21
-126.165206
 31
0.0
  0
LINE
  5
6F
100
AcDbEntity
  8
2
370
    50
100
AcDbLine
 10
-262.164411
 20
-126.165206
 30
0.0
 11
-262.664411
 21
-126.665206
 31
0.0
  0
LINE
  5
70
100
AcDbEntity
  8
2
370
    50
100
AcDbLine
 10
-262.164411
 20
-130.665206
 30
0.0
 11
-262.664411
 21
-130.165206
 31
0.0
  0
LINE
  5
71
100
AcDbEntity
  8
2
370
    50
100
AcDbLine
 10
-255.764411
 20
-134.165206
 30
0.0
 11
-255.264411
 21
-134.665206
 31
0.0
  0
LINE
  5
72
100
AcDbEntity
  8
2
370
    50
100
AcDbLine
 10
-221.764411
 20
-134.165206
 30
0.0
 11
-221.764411
 21
-133.665206
 31
0.0
  0
LINE
  5
73
100
AcDbEntity
  8
2
370
    50
100
AcDbLine
 10
-214.864411
 20
-130.165206
 30
0.0
 11
-214.864411
 21
-126.665206
 31
0.0
  0
LINE
  5
74
100
AcDbEntity
  8
2
370
    50
100
AcDbLine
 10
-215.364411
 20
-126.165206
 30
0.0
 11
-214.864411
 21
-126.665206
 31
0.0
  0
LINE
  5
75
100
AcDbEntity
  8
2
370
    50
100
AcDbLine
 10
-215.364411
 20
-130.665206
 30
0.0
 11
-214.864411
 21
-130.165206
 31
0.0
  0
LINE
  5
76
100
AcDbEntity
  8
2
370
    50
100
AcDbLine
 10
-221.764411
 20
-134.165206
 30
0.0
 11
-222.264411
 21
-134.665206
 31
0.0
  0
LINE
  5
77
100
AcDbEntity
  8
2
370
    50
100
AcDbLine
 10
132.660192
 20
-18.465207
 30
0.0
 11
132.660192
 21
-126.165206
 31
0.0
  0
LINE
  5
78
100
AcDbEntity
  8
2
370
    50
100
AcDbLine
 10
93.160192
 20
-133.665206
 30
0.0
 11
93.160192
 21
-130.665206
 31
0.0
  0
LINE
  5
79
100
AcDbEntity
  8
2
370
    50
100
AcDbLine
 10
137.160192
 20
-133.665206
 30
0.0
 11
93.160192
 21
-133.665206
 31
0.0
  0
LINE
  5
7A
100
AcDbEntity
  8
2
370
    50
100
AcDbLine
 10
137.160192
 20
-133.665206
 30
0.0
 11
137.160192
 21
-130.665206
 31
0.0
  0
LINE
  5
7B
100
AcDbEntity
  8
2
370
    50
100
AcDbLine
 10
138.560192
 20
-130.665206
 30
0.0
 11
91.760192
 21
-130.665206
 31
0.0
  0
LINE
  5
7C
100
AcDbEntity
  8
2
370
    50
100
AcDbLine
 10
91.260192
 20
-130.165206
 30
0.0
 11
91.260192
 21
-126.665206
 31
0.0
  0
LINE
  5
7D
100
AcDbEntity
  8
2
370
    50
100
AcDbLine
 10
91.760192
 20
-126.165206
 30
0.0
 11
138.560192
 21
-126.165206
 31
0.0
  0
LINE
  5
7E
100
AcDbEntity
  8
2
370
    50
100
AcDbLine
 10
91.760192
 20
-126.165206
 30
0.0
 11
91.260192
 21
-126.665206
 31
0.0
  0
LINE
  5
7F
100
AcDbEntity
  8
2
370
    50
100
AcDbLine
 10
91.760192
 20
-130.665206
 30
0.0
 11
91.260192
 21
-130.165206
 31
0.0
  0
LINE
  5
80
100
AcDbEntity
  8
2
370
    50
100
AcDbLine
 10
139.060192
 20
-130.165206
 30
0.0
 11
139.060192
 21
-126.665206
 31
0.0
  0
LINE
  5
81
100
AcDbEntity
  8
2
370
    50
100
AcDbLine
 10
138.560192
 20
-126.165206
 30
0.0
 11
139.060192
 21
-126.665206
 31
0.0
  0
LINE
  5
82
100
AcDbEntity
  8
2
370
    50
100
AcDbLine
 10
138.560192
 20
-130.665206
 30
0.0
 11
139.060192
 21
-130.165206
 31
0.0
  0
LINE
  5
83
100
AcDbEntity
  8
2
370
    50
100
AcDbLine
 10
139.060192
 20
-126.665206
 30
0.0
 11
91.260192
 21
-126.665206
 31
0.0
  0
LINE
  5
84
100
AcDbEntity
  8
2
370
    50
100
AcDbLine
 10
91.260192
 20
-130.165206
 30
0.0
 11
139.060192
 21
-130.165206
 31
0.0
  0
LINE
  5
85
100
AcDbEntity
  8
2
370
    50
100
AcDbLine
 10
98.160192
 20
-134.165206
 30
0.0
 11
98.160192
 21
-133.665206
 31
0.0
  0
LINE
  5
86
100
AcDbEntity
  8
2
370
    50
100
AcDbLine
 10
98.160192
 20
-134.165206
 30
0.0
 11
98.660192
 21
-134.665206
 31
0.0
  0
LINE
  5
87
100
AcDbEntity
  8
2
370
    50
100
AcDbLine
 10
132.160192
 20
-134.165206
 30
0.0
 11
132.160192
 21
-133.665206
 31
0.0
  0
LINE
  5
88
100
AcDbEntity
  8
2
370
    50
100
AcDbLine
 10
131.660192
 20
-134.665206
 30
0.0
 11
98.660192
 21
-134.665206
 31
0.0
  0
LINE
  5
89
100
AcDbEntity
  8
2
370
    50
100
AcDbLine
 10
132.160192
 20
-134.165206
 30
0.0
 11
131.660192
 21
-134.665206
 31
0.0
  0
LINE
  5
8A
100
AcDbEntity
  8
2
370
    50
100
AcDbLine
 10
132.160192
 20
-134.165206
 30
0.0
 11
98.160192
 21
-134.165206
 31
0.0
  0
LINE
  5
8B
100
AcDbEntity
  8
2
370
    50
100
AcDbLine
 10
-198.264411
 20
-43.165207
 30
0.0
 11
-198.264411
 21
-78.165207
 31
0.0
  0
LINE
  5
8C
100
AcDbEntity
  8
2
370
    50
100
AcDbLine
 10
-262.664411
 20
-126.665206
 30
0.0
 11
-214.864411
 21
-126.665206
 31
0.0
  0
LINE
  5
8D
100
AcDbEntity
  8
2
370
    50
100
AcDbLine
 10
-214.864411
 20
-130.165206
 30
0.0
 11
-262.664411
 21
-130.165206
 31
0.0
  0
LINE
  5
8E
100
AcDbEntity
  8
2
370
    50
100
AcDbLine
 10
-221.264411
 20
-125.865206
 30
0.0
 11
-256.264411
 21
-125.865206
 31
0.0
  0
LINE
  5
8F
100
AcDbEntity
  8
2
370
    50
100
AcDbLine
 10
-221.764411
 20
-134.165206
 30
0.0
 11
-255.764411
 21
-134.165206
 31
0.0
  0
LINE
  5
90
100
AcDbEntity
  8
2
370
    25
  6
CENTER
100
AcDbLine
 10
124.660193
 20
-132.055589
 30
0.0
 11
124.660192
 21
-213.564667
 31
0.0
  0
LINE
  5
91
100
AcDbEntity
  8
2
370
    50
100
AcDbLine
 10
97.960192
 20
-161.477021
 30
0.0
 11
137.960192
 21
-161.477021
 31
0.0
  0
LINE
  5
92
100
AcDbEntity
  8
2
370
    50
100
AcDbLine
 10
97.960192
 20
-157.477021
 30
0.0
 11
97.960192
 21
-161.477021
 31
0.0
  0
LINE
  5
93
100
AcDbEntity
  8
2
370
    50
100
AcDbLine
 10
137.960192
 20
-161.477021
 30
0.0
 11
137.960192
 21
-157.477021
 31
0.0
  0
LINE
  5
94
100
AcDbEntity
  8
2
370
    50
100
AcDbLine
 10
128.660192
 20
-157.477021
 30
0.0
 11
128.660192
 21
-134.665206
 31
0.0
  0
LINE
  5
95
100
AcDbEntity
  8
2
370
    50
100
AcDbLine
 10
128.035192
 20
-157.477021
 30
0.0
 11
128.035192
 21
-134.665206
 31
0.0
  0
LINE
  5
96
100
AcDbEntity
  8
2
370
    50
100
AcDbLine
 10
121.285192
 20
-157.477021
 30
0.0
 11
121.285192
 21
-134.665206
 31
0.0
  0
LINE
  5
97
100
AcDbEntity
  8
2
370
    50
100
AcDbLine
 10
120.660192
 20
-157.477021
 30
0.0
 11
120.660192
 21
-134.665206
 31
0.0
  0
LINE
  5
98
100
AcDbEntity
  8
2
370
    50
100
AcDbLine
 10
-263.264543
 20
-157.477021
 30
0.0
 11
-263.264543
 21
-161.477021
 31
0.0
  0
LINE
  5
99
100
AcDbEntity
  8
2
370
    50
100
AcDbLine
 10
-214.264543
 20
-157.477021
 30
0.0
 11
-214.264543
 21
-161.477021
 31
0.0
  0
LINE
  5
9A
100
AcDbEntity
  8
2
370
    50
100
AcDbLine
 10
-263.264543
 20
-157.477021
 30
0.0
 11
-252.76433
 21
-157.477021
 31
0.0
  0
LINE
  5
9B
100
AcDbEntity
  8
2
370
    50
100
AcDbLine
 10
-239.764492
 20
-157.477021
 30
0.0
 11
-237.764492
 21
-157.477021
 31
0.0
  0
LINE
  5
9C
100
AcDbEntity
  8
2
370
    50
100
AcDbLine
 10
-224.764492
 20
-157.477021
 30
0.0
 11
-214.264543
 21
-157.477021
 31
0.0
  0
LINE
  5
9D
100
AcDbEntity
  8
2
370
    50
100
AcDbLine
 10
-225.514492
 20
-161.477021
 30
0.0
 11
-214.264543
 21
-161.477021
 31
0.0
  0
LINE
  5
9E
100
AcDbEntity
  8
2
370
    50
100
AcDbLine
 10
-263.264543
 20
-161.477021
 30
0.0
 11
-252.01433
 21
-161.477021
 31
0.0
  0
LINE
  5
9F
100
AcDbEntity
  8
2
370
    50
100
AcDbLine
 10
-240.51433
 20
-161.477021
 30
0.0
 11
-237.014492
 21
-161.477021
 31
0.0
  0
LINE
  5
A0
100
AcDbEntity
  8
2
370
    50
100
AcDbLine
 10
-237.264492
 20
-140.276531
 30
0.0
 11
-237.264492
 21
-134.953881
 31
0.0
  0
LINE
  5
A1
100
AcDbEntity
  8
2
370
    50
100
AcDbLine
 10
-225.264492
 20
-140.276531
 30
0.0
 11
-225.264492
 21
-134.953881
 31
0.0
  0
LINE
  5
A2
100
AcDbEntity
  8
2
370
    50
100
AcDbLine
 10
-225.464492
 20
-140.565206
 30
0.0
 11
-237.064492
 21
-140.565206
 31
0.0
  0
LINE
  5
A3
100
AcDbEntity
  8
2
370
    50
100
AcDbLine
 10
-228.866576
 20
-134.953881
 30
0.0
 11
-228.866576
 21
-140.276531
 31
0.0
  0
LINE
  5
A4
100
AcDbEntity
  8
2
370
    50
100
AcDbLine
 10
-227.70031
 20
-134.953881
 30
0.0
 11
-227.70031
 21
-140.276531
 31
0.0
  0
LINE
  5
A5
100
AcDbEntity
  8
2
370
    50
100
AcDbLine
 10
-225.302395
 20
-134.953881
 30
0.0
 11
-225.302395
 21
-140.276531
 31
0.0
  0
LINE
  5
A6
100
AcDbEntity
  8
2
370
    50
100
AcDbLine
 10
-225.764492
 20
-140.565206
 30
0.0
 11
-225.264492
 21
-140.276531
 31
0.0
  0
LINE
  5
A7
100
AcDbEntity
  8
2
370
    50
100
AcDbLine
 10
-227.70031
 20
-140.276531
 30
0.0
 11
-228.866576
 21
-140.276531
 31
0.0
  0
LINE
  5
A8
100
AcDbEntity
  8
2
370
    50
100
AcDbLine
 10
-237.264492
 20
-140.276531
 30
0.0
 11
-236.764492
 21
-140.565206
 31
0.0
  0
LINE
  5
A9
100
AcDbEntity
  8
2
370
    50
100
AcDbLine
 10
-237.264492
 20
-134.953881
 30
0.0
 11
-236.764492
 21
-134.665206
 31
0.0
  0
ARC
  5
AA
100
AcDbEntity
  8
2
370
    50
100
AcDbCircle
 10
-231.264492
 20
-130.461577
 30
0.0
 40
10.10363
100
AcDbArc
 50
270.0
 51
283.729133
  0
ARC
  5
AB
100
AcDbEntity
  8
2
370
    50
100
AcDbCircle
 10
-231.264492
 20
-144.768836
 30
0.0
 40
10.10363
100
AcDbArc
 50
76.270867
 51
90.0
  0
LINE
  5
AC
100
AcDbEntity
  8
2
370
    50
100
AcDbLine
 10
-227.70031
 20
-134.953881
 30
0.0
 11
-228.866576
 21
-134.953881
 31
0.0
  0
LINE
  5
AD
100
AcDbEntity
  8
2
370
    50
100
AcDbLine
 10
-225.264492
 20
-140.276531
 30
0.0
 11
-225.302395
 21
-140.276531
 31
0.0
  0
ARC
  5
AE
100
AcDbEntity
  8
2
370
    50
100
AcDbCircle
 10
-226.501352
 20
-137.931046
 30
0.0
 40
2.634161
100
AcDbArc
 50
242.924933
 51
297.075067
  0
ARC
  5
AF
100
AcDbEntity
  8
2
370
    50
100
AcDbCircle
 10
-226.501352
 20
-137.299367
 30
0.0
 40
2.634161
100
AcDbArc
 50
62.924933
 51
117.075067
  0
LINE
  5
B0
100
AcDbEntity
  8
2
370
    50
100
AcDbLine
 10
-225.764492
 20
-134.665206
 30
0.0
 11
-225.264492
 21
-134.953881
 31
0.0
  0
LINE
  5
B1
100
AcDbEntity
  8
2
370
    50
100
AcDbLine
 10
-237.764492
 20
-157.565206
 30
0.0
 11
-224.764492
 21
-157.565206
 31
0.0
  0
LINE
  5
B2
100
AcDbEntity
  8
2
370
    50
100
AcDbLine
 10
-237.764492
 20
-157.565206
 30
0.0
 11
-237.764492
 21
-145.065206
 31
0.0
  0
LINE
  5
B3
100
AcDbEntity
  8
2
370
    50
100
AcDbLine
 10
-224.764492
 20
-157.565206
 30
0.0
 11
-224.764492
 21
-145.065206
 31
0.0
  0
LINE
  5
B4
100
AcDbEntity
  8
2
370
    50
100
AcDbLine
 10
-235.138822
 20
-143.565206
 30
0.0
 11
-235.138822
 21
-141.065206
 31
0.0
  0
LINE
  5
B5
100
AcDbEntity
  8
2
370
    50
100
AcDbLine
 10
-235.845929
 20
-143.565206
 30
0.0
 11
-235.845929
 21
-141.065206
 31
0.0
  0
LINE
  5
B6
100
AcDbEntity
  8
2
370
    50
100
AcDbLine
 10
-237.264492
 20
-143.565206
 30
0.0
 11
-237.264492
 21
-140.765206
 31
0.0
  0
LINE
  5
B7
100
AcDbEntity
  8
2
370
    50
100
AcDbLine
 10
-231.764492
 20
-143.565206
 30
0.0
 11
-231.764492
 21
-141.065206
 31
0.0
  0
LINE
  5
B8
100
AcDbEntity
  8
2
370
    50
100
AcDbLine
 10
-230.764492
 20
-143.565206
 30
0.0
 11
-230.764492
 21
-141.065206
 31
0.0
  0
LINE
  5
B9
100
AcDbEntity
  8
2
370
    50
100
AcDbLine
 10
-227.390162
 20
-143.565206
 30
0.0
 11
-227.390162
 21
-141.065206
 31
0.0
  0
LINE
  5
BA
100
AcDbEntity
  8
2
370
    50
100
AcDbLine
 10
-226.683055
 20
-143.565206
 30
0.0
 11
-226.683055
 21
-141.065206
 31
0.0
  0
LINE
  5
BB
100
AcDbEntity
  8
2
370
    50
100
AcDbLine
 10
-225.264492
 20
-143.565206
 30
0.0
 11
-225.264492
 21
-140.765206
 31
0.0
  0
LINE
  5
BC
100
AcDbEntity
  8
2
370
    50
100
AcDbLine
 10
-225.285362
 20
-143.565206
 30
0.0
 11
-225.285362
 21
-141.065206
 31
0.0
  0
LINE
  5
BD
100
AcDbEntity
  8
2
370
    50
100
AcDbLine
 10
-235.845929
 20
-141.065206
 30
0.0
 11
-237.264492
 21
-141.065206
 31
0.0
  0
LINE
  5
BE
100
AcDbEntity
  8
2
370
    50
100
AcDbLine
 10
-231.764492
 20
-141.065206
 30
0.0
 11
-235.138822
 21
-141.065206
 31
0.0
  0
LINE
  5
BF
100
AcDbEntity
  8
2
370
    50
100
AcDbLine
 10
-225.264492
 20
-141.065206
 30
0.0
 11
-226.683055
 21
-141.065206
 31
0.0
  0
LINE
  5
C0
100
AcDbEntity
  8
2
370
    50
100
AcDbLine
 10
-227.390162
 20
-141.065206
 30
0.0
 11
-230.764492
 21
-141.065206
 31
0.0
  0
LINE
  5
C1
100
AcDbEntity
  8
2
370
    50
100
AcDbLine
 10
-235.845929
 20
-143.565206
 30
0.0
 11
-237.264492
 21
-143.565206
 31
0.0
  0
LINE
  5
C2
100
AcDbEntity
  8
2
370
    50
100
AcDbLine
 10
-231.764492
 20
-143.565206
 30
0.0
 11
-235.138822
 21
-143.565206
 31
0.0
  0
LINE
  5
C3
100
AcDbEntity
  8
2
370
    50
100
AcDbLine
 10
-225.264492
 20
-143.565206
 30
0.0
 11
-226.683055
 21
-143.565206
 31
0.0
  0
LINE
  5
C4
100
AcDbEntity
  8
2
370
    50
100
AcDbLine
 10
-227.390162
 20
-143.565206
 30
0.0
 11
-230.764492
 21
-143.565206
 31
0.0
  0
ARC
  5
C5
100
AcDbEntity
  8
2
370
    50
100
AcDbCircle
 10
-225.464492
 20
-140.765206
 30
0.0
 40
0.2
100
AcDbArc
 50
0.0
 51
90.0
  0
ARC
  5
C6
100
AcDbEntity
  8
2
370
    50
100
AcDbCircle
 10
-237.064492
 20
-140.765206
 30
0.0
 40
0.2
100
AcDbArc
 50
90.0
 51
180.0
  0
ARC
  5
C7
100
AcDbEntity
  8
2
370
    50
100
AcDbCircle
 10
-235.264492
 20
-145.065206
 30
0.0
 40
2.5
100
AcDbArc
 50
143.130102
 51
180.0
  0
ARC
  5
C8
100
AcDbEntity
  8
2
370
    50
100
AcDbCircle
 10
-227.264492
 20
-145.065206
 30
0.0
 40
2.5
100
AcDbArc
 50
0.0
 51
36.869898
  0
LINE
  5
C9
100
AcDbEntity
  8
2
370
    25
100
AcDbLine
 10
-237.745233
 20
-157.565206
 30
0.0
 11
-237.745233
 21
-145.065206
 31
0.0
  0
LINE
  5
CA
100
AcDbEntity
  8
2
370
    25
100
AcDbLine
 10
-236.200621
 20
-157.565206
 30
0.0
 11
-236.200621
 21
-145.065206
 31
0.0
  0
LINE
  5
CB
100
AcDbEntity
  8
2
370
    25
100
AcDbLine
 10
-235.493514
 20
-157.565206
 30
0.0
 11
-235.493514
 21
-145.065206
 31
0.0
  0
LINE
  5
CC
100
AcDbEntity
  8
2
370
    25
100
AcDbLine
 10
-231.764492
 20
-157.565206
 30
0.0
 11
-231.764492
 21
-145.065206
 31
0.0
  0
LINE
  5
CD
100
AcDbEntity
  8
2
370
    25
100
AcDbLine
 10
-230.764492
 20
-157.565206
 30
0.0
 11
-230.764492
 21
-145.065206
 31
0.0
  0
LINE
  5
CE
100
AcDbEntity
  8
2
370
    25
100
AcDbLine
 10
-227.03547
 20
-157.565206
 30
0.0
 11
-227.03547
 21
-145.065206
 31
0.0
  0
LINE
  5
CF
100
AcDbEntity
  8
2
370
    25
100
AcDbLine
 10
-226.328363
 20
-157.565206
 30
0.0
 11
-226.328363
 21
-145.065206
 31
0.0
  0
LINE
  5
D0
100
AcDbEntity
  8
2
370
    25
100
AcDbLine
 10
-224.783751
 20
-157.565206
 30
0.0
 11
-224.783751
 21
-145.065206
 31
0.0
  0
LINE
  5
D1
100
AcDbEntity
  8
2
370
    50
100
AcDbLine
 10
-237.014492
 20
-203.565206
 30
0.0
 11
-237.014492
 21
-157.565206
 31
0.0
  0
LINE
  5
D2
100
AcDbEntity
  8
2
370
    50
100
AcDbLine
 10
-225.514492
 20
-203.565206
 30
0.0
 11
-225.514492
 21
-157.565206
 31
0.0
  0
LINE
  5
D3
100
AcDbEntity
  8
2
370
    50
100
AcDbLine
 10
-237.22659
 20
-140.276531
 30
0.0
 11
-237.264492
 21
-140.276531
 31
0.0
  0
POINT
  5
D4
100
AcDbEntity
  8
2
370
    50
100
AcDbPoint
 10
-231.264411
 20
-134.665206
 30
0.0
  0
ARC
  5
D5
100
AcDbEntity
  8
2
370
    50
100
AcDbCircle
 10
-231.26433
 20
-130.461577
 30
0.0
 40
10.10363
100
AcDbArc
 50
256.270867
 51
270.0
  0
LINE
  5
D6
100
AcDbEntity
  8
2
370
    50
100
AcDbLine
 10
-234.828511
 20
-140.276531
 30
0.0
 11
-233.662245
 21
-140.276531
 31
0.0
  0
ARC
  5
D7
100
AcDbEntity
  8
2
370
    50
100
AcDbCircle
 10
-236.027469
 20
-137.931046
 30
0.0
 40
2.634161
100
AcDbArc
 50
242.924933
 51
297.075067
  0
LINE
  5
D8
100
AcDbEntity
  8
2
370
    50
100
AcDbLine
 10
-234.828511
 20
-134.953881
 30
0.0
 11
-234.828511
 21
-140.276531
 31
0.0
  0
LINE
  5
D9
100
AcDbEntity
  8
2
370
    50
100
AcDbLine
 10
-233.662245
 20
-134.953881
 30
0.0
 11
-233.662245
 21
-140.276531
 31
0.0
  0
LINE
  5
DA
100
AcDbEntity
  8
2
370
    50
100
AcDbLine
 10
-237.226427
 20
-134.953881
 30
0.0
 11
-237.226427
 21
-140.276531
 31
0.0
  0
ARC
  5
DB
100
AcDbEntity
  8
2
370
    50
100
AcDbCircle
 10
-231.26433
 20
-144.768836
 30
0.0
 40
10.10363
100
AcDbArc
 50
90.0
 51
103.729133
  0
LINE
  5
DC
100
AcDbEntity
  8
2
370
    50
100
AcDbLine
 10
-234.828511
 20
-134.953881
 30
0.0
 11
-233.662245
 21
-134.953881
 31
0.0
  0
ARC
  5
DD
100
AcDbEntity
  8
2
370
    50
100
AcDbCircle
 10
-236.027469
 20
-137.299367
 30
0.0
 40
2.634161
100
AcDbArc
 50
62.924933
 51
117.075067
  0
LINE
  5
DE
100
AcDbEntity
  8
2
370
    50
100
AcDbLine
 10
-236.764492
 20
-134.665206
 30
0.0
 11
-225.764492
 21
-134.665206
 31
0.0
  0
LINE
  5
DF
100
AcDbEntity
  8
2
370
    50
100
AcDbLine
 10
-252.26433
 20
-140.276531
 30
0.0
 11
-252.26433
 21
-134.953881
 31
0.0
  0
LINE
  5
E0
100
AcDbEntity
  8
2
370
    50
100
AcDbLine
 10
-252.06433
 20
-140.565206
 30
0.0
 11
-240.464492
 21
-140.565206
 31
0.0
  0
LINE
  5
E1
100
AcDbEntity
  8
2
370
    50
100
AcDbLine
 10
-248.662245
 20
-134.953881
 30
0.0
 11
-248.662245
 21
-140.276531
 31
0.0
  0
LINE
  5
E2
100
AcDbEntity
  8
2
370
    50
100
AcDbLine
 10
-249.828511
 20
-134.953881
 30
0.0
 11
-249.828511
 21
-140.276531
 31
0.0
  0
LINE
  5
E3
100
AcDbEntity
  8
2
370
    50
100
AcDbLine
 10
-252.226427
 20
-134.953881
 30
0.0
 11
-252.226427
 21
-140.276531
 31
0.0
  0
LINE
  5
E4
100
AcDbEntity
  8
2
370
    50
100
AcDbLine
 10
-251.76433
 20
-140.565206
 30
0.0
 11
-252.26433
 21
-140.276531
 31
0.0
  0
LINE
  5
E5
100
AcDbEntity
  8
2
370
    50
100
AcDbLine
 10
-249.828511
 20
-140.276531
 30
0.0
 11
-248.662245
 21
-140.276531
 31
0.0
  0
ARC
  5
E6
100
AcDbEntity
  8
2
370
    50
100
AcDbCircle
 10
-246.26433
 20
-130.461577
 30
0.0
 40
10.10363
100
AcDbArc
 50
256.270867
 51
270.0
  0
ARC
  5
E7
100
AcDbEntity
  8
2
370
    50
100
AcDbCircle
 10
-246.26433
 20
-144.768836
 30
0.0
 40
10.10363
100
AcDbArc
 50
90.0
 51
103.729133
  0
LINE
  5
E8
100
AcDbEntity
  8
2
370
    50
100
AcDbLine
 10
-249.828511
 20
-134.953881
 30
0.0
 11
-248.662245
 21
-134.953881
 31
0.0
  0
LINE
  5
E9
100
AcDbEntity
  8
2
370
    50
100
AcDbLine
 10
-252.26433
 20
-140.276531
 30
0.0
 11
-252.226427
 21
-140.276531
 31
0.0
  0
ARC
  5
EA
100
AcDbEntity
  8
2
370
    50
100
AcDbCircle
 10
-251.027469
 20
-137.931046
 30
0.0
 40
2.634161
100
AcDbArc
 50
242.924933
 51
297.075067
  0
ARC
  5
EB
100
AcDbEntity
  8
2
370
    50
100
AcDbCircle
 10
-251.027469
 20
-137.299367
 30
0.0
 40
2.634161
100
AcDbArc
 50
62.924933
 51
117.075067
  0
LINE
  5
EC
100
AcDbEntity
  8
2
370
    50
100
AcDbLine
 10
-251.76433
 20
-134.665206
 30
0.0
 11
-252.26433
 21
-134.953881
 31
0.0
  0
LINE
  5
ED
100
AcDbEntity
  8
2
370
    50
100
AcDbLine
 10
-239.764492
 20
-157.565206
 30
0.0
 11
-252.76433
 21
-157.565206
 31
0.0
  0
LINE
  5
EE
100
AcDbEntity
  8
2
370
    50
100
AcDbLine
 10
-252.76433
 20
-157.565206
 30
0.0
 11
-252.76433
 21
-145.065206
 31
0.0
  0
LINE
  5
EF
100
AcDbEntity
  8
2
370
    50
100
AcDbLine
 10
-242.389999
 20
-143.565206
 30
0.0
 11
-242.389999
 21
-141.065206
 31
0.0
  0
LINE
  5
F0
100
AcDbEntity
  8
2
370
    50
100
AcDbLine
 10
-241.682893
 20
-143.565206
 30
0.0
 11
-241.682893
 21
-141.065206
 31
0.0
  0
LINE
  5
F1
100
AcDbEntity
  8
2
370
    50
100
AcDbLine
 10
-245.76433
 20
-143.565206
 30
0.0
 11
-245.76433
 21
-141.065206
 31
0.0
  0
LINE
  5
F2
100
AcDbEntity
  8
2
370
    50
100
AcDbLine
 10
-246.76433
 20
-143.565206
 30
0.0
 11
-246.76433
 21
-141.065206
 31
0.0
  0
LINE
  5
F3
100
AcDbEntity
  8
2
370
    50
100
AcDbLine
 10
-250.13866
 20
-143.565206
 30
0.0
 11
-250.13866
 21
-141.065206
 31
0.0
  0
LINE
  5
F4
100
AcDbEntity
  8
2
370
    50
100
AcDbLine
 10
-250.845767
 20
-143.565206
 30
0.0
 11
-250.845767
 21
-141.065206
 31
0.0
  0
LINE
  5
F5
100
AcDbEntity
  8
2
370
    50
100
AcDbLine
 10
-252.26433
 20
-143.565206
 30
0.0
 11
-252.26433
 21
-140.765206
 31
0.0
  0
LINE
  5
F6
100
AcDbEntity
  8
2
370
    50
100
AcDbLine
 10
-252.24346
 20
-143.565206
 30
0.0
 11
-252.24346
 21
-141.065206
 31
0.0
  0
LINE
  5
F7
100
AcDbEntity
  8
2
370
    50
100
AcDbLine
 10
-241.682893
 20
-141.065206
 30
0.0
 11
-241.615516
 21
-141.065206
 31
0.0
  0
LINE
  5
F8
100
AcDbEntity
  8
2
370
    50
100
AcDbLine
 10
-245.76433
 20
-141.065206
 30
0.0
 11
-242.389999
 21
-141.065206
 31
0.0
  0
LINE
  5
F9
100
AcDbEntity
  8
2
370
    50
100
AcDbLine
 10
-252.26433
 20
-141.065206
 30
0.0
 11
-250.845767
 21
-141.065206
 31
0.0
  0
LINE
  5
FA
100
AcDbEntity
  8
2
370
    50
100
AcDbLine
 10
-250.13866
 20
-141.065206
 30
0.0
 11
-246.76433
 21
-141.065206
 31
0.0
  0
LINE
  5
FB
100
AcDbEntity
  8
2
370
    50
100
AcDbLine
 10
-241.682893
 20
-143.565206
 30
0.0
 11
-241.615516
 21
-143.565206
 31
0.0
  0
LINE
  5
FC
100
AcDbEntity
  8
2
370
    50
100
AcDbLine
 10
-245.76433
 20
-143.565206
 30
0.0
 11
-242.389999
 21
-143.565206
 31
0.0
  0
LINE
  5
FD
100
AcDbEntity
  8
2
370
    50
100
AcDbLine
 10
-252.26433
 20
-143.565206
 30
0.0
 11
-250.845767
 21
-143.565206
 31
0.0
  0
LINE
  5
FE
100
AcDbEntity
  8
2
370
    50
100
AcDbLine
 10
-250.13866
 20
-143.565206
 30
0.0
 11
-246.76433
 21
-143.565206
 31
0.0
  0
ARC
  5
FF
100
AcDbEntity
  8
2
370
    50
100
AcDbCircle
 10
-252.06433
 20
-140.765206
 30
0.0
 40
0.2
100
AcDbArc
 50
90.0
 51
180.0
  0
ARC
  5
100
100
AcDbEntity
  8
2
370
    50
100
AcDbCircle
 10
-250.26433
 20
-145.065206
 30
0.0
 40
2.5
100
AcDbArc
 50
143.130102
 51
180.0
  0
LINE
  5
101
100
AcDbEntity
  8
2
370
    25
100
AcDbLine
 10
-245.76433
 20
-157.565206
 30
0.0
 11
-245.76433
 21
-145.065206
 31
0.0
  0
LINE
  5
102
100
AcDbEntity
  8
2
370
    25
100
AcDbLine
 10
-246.76433
 20
-157.565206
 30
0.0
 11
-246.76433
 21
-145.065206
 31
0.0
  0
LINE
  5
103
100
AcDbEntity
  8
2
370
    25
100
AcDbLine
 10
-250.493352
 20
-157.565206
 30
0.0
 11
-250.493352
 21
-145.065206
 31
0.0
  0
LINE
  5
104
100
AcDbEntity
  8
2
370
    25
100
AcDbLine
 10
-251.200459
 20
-157.565206
 30
0.0
 11
-251.200459
 21
-145.065206
 31
0.0
  0
LINE
  5
105
100
AcDbEntity
  8
2
370
    25
100
AcDbLine
 10
-252.74507
 20
-157.565206
 30
0.0
 11
-252.74507
 21
-145.065206
 31
0.0
  0
LINE
  5
106
100
AcDbEntity
  8
2
370
    50
100
AcDbLine
 10
-240.51433
 20
-203.565206
 30
0.0
 11
-240.51433
 21
-157.565206
 31
0.0
  0
LINE
  5
107
100
AcDbEntity
  8
2
370
    50
100
AcDbLine
 10
-252.01433
 20
-203.565206
 30
0.0
 11
-252.01433
 21
-157.565206
 31
0.0
  0
POINT
  5
108
100
AcDbEntity
  8
2
370
    50
100
AcDbPoint
 10
-246.264411
 20
-134.665206
 30
0.0
  0
ARC
  5
109
100
AcDbEntity
  8
2
370
    50
100
AcDbCircle
 10
-246.264492
 20
-130.461577
 30
0.0
 40
10.10363
100
AcDbArc
 50
270.0
 51
283.729133
  0
LINE
  5
10A
100
AcDbEntity
  8
2
370
    50
100
AcDbLine
 10
-242.70031
 20
-140.276531
 30
0.0
 11
-243.866576
 21
-140.276531
 31
0.0
  0
ARC
  5
10B
100
AcDbEntity
  8
2
370
    50
100
AcDbCircle
 10
-241.501352
 20
-137.931046
 30
0.0
 40
2.634161
100
AcDbArc
 50
242.924933
 51
297.075067
  0
LINE
  5
10C
100
AcDbEntity
  8
2
370
    50
100
AcDbLine
 10
-242.70031
 20
-134.953881
 30
0.0
 11
-242.70031
 21
-140.276531
 31
0.0
  0
LINE
  5
10D
100
AcDbEntity
  8
2
370
    50
100
AcDbLine
 10
-243.866576
 20
-134.953881
 30
0.0
 11
-243.866576
 21
-140.276531
 31
0.0
  0
ARC
  5
10E
100
AcDbEntity
  8
2
370
    50
100
AcDbCircle
 10
-246.264492
 20
-144.768836
 30
0.0
 40
10.10363
100
AcDbArc
 50
76.270867
 51
90.0
  0
LINE
  5
10F
100
AcDbEntity
  8
2
370
    50
100
AcDbLine
 10
-242.70031
 20
-134.953881
 30
0.0
 11
-243.866576
 21
-134.953881
 31
0.0
  0
ARC
  5
110
100
AcDbEntity
  8
2
370
    50
100
AcDbCircle
 10
-241.501352
 20
-137.299367
 30
0.0
 40
2.634161
100
AcDbArc
 50
62.924933
 51
117.075067
  0
LINE
  5
111
100
AcDbEntity
  8
2
370
    50
100
AcDbLine
 10
-240.76433
 20
-134.665206
 30
0.0
 11
-251.76433
 21
-134.665206
 31
0.0
  0
LINE
  5
112
100
AcDbEntity
  8
2
370
    25
  6
CENTER
100
AcDbLine
 10
-231.264411
 20
-229.609988
 30
0.0
 11
-181.264411
 21
-158.144156
 31
0.0
  0
LINE
  5
113
100
AcDbEntity
  8
2
370
    50
100
AcDbLine
 10
-187.764411
 20
-207.146269
 30
0.0
 11
-174.764411
 21
-207.146269
 31
0.0
  0
LINE
  5
114
100
AcDbEntity
  8
2
370
    50
100
AcDbLine
 10
-185.845848
 20
-221.146269
 30
0.0
 11
-187.264411
 21
-221.146269
 31
0.0
  0
LINE
  5
115
100
AcDbEntity
  8
2
370
    50
100
AcDbLine
 10
-185.845848
 20
-223.646269
 30
0.0
 11
-187.264411
 21
-223.646269
 31
0.0
  0
ARC
  5
116
100
AcDbEntity
  8
2
370
    50
100
AcDbCircle
 10
-187.064411
 20
-223.946269
 30
0.0
 40
0.2
100
AcDbArc
 50
180.0
 51
270.0
  0
LINE
  5
117
100
AcDbEntity
  8
2
370
    50
100
AcDbLine
 10
-181.764411
 20
-223.646269
 30
0.0
 11
-185.138741
 21
-223.646269
 31
0.0
  0
LINE
  5
118
100
AcDbEntity
  8
2
370
    50
100
AcDbLine
 10
-181.764411
 20
-221.146269
 30
0.0
 11
-185.138741
 21
-221.146269
 31
0.0
  0
LINE
  5
119
100
AcDbEntity
  8
2
370
    50
100
AcDbLine
 10
-177.390081
 20
-223.646269
 30
0.0
 11
-180.764411
 21
-223.646269
 31
0.0
  0
LINE
  5
11A
100
AcDbEntity
  8
2
370
    50
100
AcDbLine
 10
-177.390081
 20
-221.146269
 30
0.0
 11
-180.764411
 21
-221.146269
 31
0.0
  0
LINE
  5
11B
100
AcDbEntity
  8
2
370
    50
100
AcDbLine
 10
-175.264411
 20
-223.646269
 30
0.0
 11
-176.682974
 21
-223.646269
 31
0.0
  0
LINE
  5
11C
100
AcDbEntity
  8
2
370
    50
100
AcDbLine
 10
-175.264411
 20
-221.146269
 30
0.0
 11
-176.682974
 21
-221.146269
 31
0.0
  0
ARC
  5
11D
100
AcDbEntity
  8
2
370
    50
100
AcDbCircle
 10
-175.464411
 20
-223.946269
 30
0.0
 40
0.2
100
AcDbArc
 50
270.0
 51
360.0
  0
LINE
  5
11E
100
AcDbEntity
  8
2
370
    50
100
AcDbLine
 10
-175.264411
 20
-221.146269
 30
0.0
 11
-175.264411
 21
-223.946269
 31
0.0
  0
LINE
  5
11F
100
AcDbEntity
  8
2
370
    50
100
AcDbLine
 10
-175.285281
 20
-221.146269
 30
0.0
 11
-175.285281
 21
-223.646269
 31
0.0
  0
ARC
  5
120
100
AcDbEntity
  8
2
370
    50
100
AcDbCircle
 10
-177.264411
 20
-219.646269
 30
0.0
 40
2.5
100
AcDbArc
 50
323.130102
 51
360.0
  0
LINE
  5
121
100
AcDbEntity
  8
2
370
    50
100
AcDbLine
 10
-176.682974
 20
-221.146269
 30
0.0
 11
-176.682974
 21
-223.646269
 31
0.0
  0
LINE
  5
122
100
AcDbEntity
  8
2
370
    50
100
AcDbLine
 10
-177.390081
 20
-221.146269
 30
0.0
 11
-177.390081
 21
-223.646269
 31
0.0
  0
LINE
  5
123
100
AcDbEntity
  8
2
370
    50
100
AcDbLine
 10
-180.764411
 20
-221.146269
 30
0.0
 11
-180.764411
 21
-223.646269
 31
0.0
  0
LINE
  5
124
100
AcDbEntity
  8
2
370
    50
100
AcDbLine
 10
-181.764411
 20
-221.146269
 30
0.0
 11
-181.764411
 21
-223.646269
 31
0.0
  0
LINE
  5
125
100
AcDbEntity
  8
2
370
    50
100
AcDbLine
 10
-185.845848
 20
-221.146269
 30
0.0
 11
-185.845848
 21
-223.646269
 31
0.0
  0
LINE
  5
126
100
AcDbEntity
  8
2
370
    50
100
AcDbLine
 10
-185.138741
 20
-221.146269
 30
0.0
 11
-185.138741
 21
-223.646269
 31
0.0
  0
LINE
  5
127
100
AcDbEntity
  8
2
370
    50
100
AcDbLine
 10
-187.264411
 20
-221.146269
 30
0.0
 11
-187.264411
 21
-223.946269
 31
0.0
  0
LINE
  5
128
100
AcDbEntity
  8
2
370
    50
100
AcDbLine
 10
-187.243541
 20
-221.146269
 30
0.0
 11
-187.243541
 21
-223.646269
 31
0.0
  0
ARC
  5
129
100
AcDbEntity
  8
2
370
    50
100
AcDbCircle
 10
-185.264411
 20
-219.646269
 30
0.0
 40
2.5
100
AcDbArc
 50
180.0
 51
216.869898
  0
LINE
  5
12A
100
AcDbEntity
  8
2
370
    50
100
AcDbLine
 10
-187.764411
 20
-207.146269
 30
0.0
 11
-187.764411
 21
-219.646269
 31
0.0
  0
LINE
  5
12B
100
AcDbEntity
  8
2
370
    25
100
AcDbLine
 10
-174.78367
 20
-207.146269
 30
0.0
 11
-174.78367
 21
-219.646269
 31
0.0
  0
LINE
  5
12C
100
AcDbEntity
  8
2
370
    50
100
AcDbLine
 10
-174.764411
 20
-207.146269
 30
0.0
 11
-174.764411
 21
-219.646269
 31
0.0
  0
LINE
  5
12D
100
AcDbEntity
  8
2
370
    50
100
AcDbLine
 10
-174.264411
 20
-224.146269
 30
0.0
 11
-188.264411
 21
-224.146269
 31
0.0
  0
LINE
  5
12E
100
AcDbEntity
  8
2
370
    50
100
AcDbLine
 10
-173.764411
 20
-224.646269
 30
0.0
 11
-174.264411
 21
-224.146269
 31
0.0
  0
LINE
  5
12F
100
AcDbEntity
  8
2
370
    50
100
AcDbLine
 10
-187.014411
 20
-207.146269
 30
0.0
 11
-187.014411
 21
-171.654411
 31
0.0
  0
LINE
  5
130
100
AcDbEntity
  8
2
370
    50
100
AcDbLine
 10
-175.514411
 20
-207.146269
 30
0.0
 11
-175.514411
 21
-171.802471
 31
0.0
  0
LINE
  5
131
100
AcDbEntity
  8
2
370
    25
100
AcDbLine
 10
-174.764551
 20
-237.945647
 30
0.0
 11
-174.764551
 21
-234.945647
 31
0.0
  0
LINE
  5
132
100
AcDbEntity
  8
2
370
    50
100
AcDbLine
 10
-172.364411
 20
-229.546904
 30
0.0
 11
-172.364411
 21
-231.946904
 31
0.0
  0
LINE
  5
133
100
AcDbEntity
  8
2
370
    50
100
AcDbLine
 10
-172.564411
 20
-229.346904
 30
0.0
 11
-172.364411
 21
-229.546904
 31
0.0
  0
LINE
  5
134
100
AcDbEntity
  8
2
370
    50
100
AcDbLine
 10
-172.564411
 20
-232.146904
 30
0.0
 11
-172.364411
 21
-231.946904
 31
0.0
  0
LINE
  5
135
100
AcDbEntity
  8
2
370
    50
100
AcDbLine
 10
-173.764411
 20
-229.346904
 30
0.0
 11
-173.764411
 21
-228.945647
 31
0.0
  0
LINE
  5
136
100
AcDbEntity
  8
2
370
    50
100
AcDbLine
 10
-173.764411
 20
-224.646269
 30
0.0
 11
-173.764411
 21
-225.945647
 31
0.0
  0
LINE
  5
137
100
AcDbEntity
  8
2
370
    50
100
AcDbLine
 10
-190.164411
 20
-229.546269
 30
0.0
 11
-190.164411
 21
-231.946269
 31
0.0
  0
LINE
  5
138
100
AcDbEntity
  8
2
370
    50
100
AcDbLine
 10
-172.364411
 20
-229.546269
 30
0.0
 11
-172.364411
 21
-231.946269
 31
0.0
  0
LINE
  5
139
100
AcDbEntity
  8
2
370
    50
100
AcDbLine
 10
-172.564411
 20
-229.346269
 30
0.0
 11
-172.364411
 21
-229.546269
 31
0.0
  0
LINE
  5
13A
100
AcDbEntity
  8
2
370
    50
100
AcDbLine
 10
-189.964411
 20
-229.346269
 30
0.0
 11
-190.164411
 21
-229.546269
 31
0.0
  0
LINE
  5
13B
100
AcDbEntity
  8
2
370
    50
100
AcDbLine
 10
-189.964411
 20
-232.146269
 30
0.0
 11
-190.164411
 21
-231.946269
 31
0.0
  0
LINE
  5
13C
100
AcDbEntity
  8
2
370
    50
100
AcDbLine
 10
-190.264411
 20
-237.946269
 30
0.0
 11
-172.264411
 21
-237.946269
 31
0.0
  0
LINE
  5
13D
100
AcDbEntity
  8
2
370
    50
100
AcDbLine
 10
-189.564411
 20
-225.946269
 30
0.0
 11
-172.964411
 21
-225.946269
 31
0.0
  0
LINE
  5
13E
100
AcDbEntity
  8
2
370
    50
100
AcDbLine
 10
-177.264411
 20
-226.946269
 30
0.0
 11
-177.264411
 21
-236.946269
 31
0.0
  0
LINE
  5
13F
100
AcDbEntity
  8
2
370
    50
100
AcDbLine
 10
-185.264411
 20
-226.946269
 30
0.0
 11
-185.264411
 21
-236.946269
 31
0.0
  0
ARC
  5
140
100
AcDbEntity
  8
2
370
    50
100
AcDbCircle
 10
-167.764411
 20
-224.946269
 30
0.0
 40
1.0
100
AcDbArc
 50
0.0
 51
90.0
  0
ARC
  5
141
100
AcDbEntity
  8
2
370
    50
100
AcDbCircle
 10
-167.764411
 20
-236.946269
 30
0.0
 40
1.0
100
AcDbArc
 50
270.0
 51
360.0
  0
LINE
  5
142
100
AcDbEntity
  8
2
370
    50
100
AcDbLine
 10
-167.764411
 20
-223.946269
 30
0.0
 11
-175.264411
 21
-223.946269
 31
0.0
  0
LINE
  5
143
100
AcDbEntity
  8
2
370
    50
100
AcDbLine
 10
-187.264411
 20
-223.946269
 30
0.0
 11
-194.764411
 21
-223.946269
 31
0.0
  0
LINE
  5
144
100
AcDbEntity
  8
2
370
    50
100
AcDbLine
 10
-167.764411
 20
-237.946269
 30
0.0
 11
-173.764411
 21
-237.946269
 31
0.0
  0
LINE
  5
145
100
AcDbEntity
  8
2
370
    50
100
AcDbLine
 10
-189.564411
 20
-237.946269
 30
0.0
 11
-194.764411
 21
-237.946269
 31
0.0
  0
LINE
  5
146
100
AcDbEntity
  8
2
370
    50
100
AcDbLine
 10
-189.564411
 20
-228.946269
 30
0.0
 11
-185.264411
 21
-228.946269
 31
0.0
  0
LINE
  5
147
100
AcDbEntity
  8
2
370
    50
100
AcDbLine
 10
-177.264411
 20
-228.946269
 30
0.0
 11
-172.964411
 21
-228.946269
 31
0.0
  0
LINE
  5
148
100
AcDbEntity
  8
2
370
    50
100
AcDbLine
 10
-189.964411
 20
-229.346269
 30
0.0
 11
-185.264411
 21
-229.346269
 31
0.0
  0
LINE
  5
149
100
AcDbEntity
  8
2
370
    50
100
AcDbLine
 10
-177.264411
 20
-229.346269
 30
0.0
 11
-172.564411
 21
-229.346269
 31
0.0
  0
LINE
  5
14A
100
AcDbEntity
  8
2
370
    50
100
AcDbLine
 10
-190.164411
 20
-229.546269
 30
0.0
 11
-185.264411
 21
-229.546269
 31
0.0
  0
LINE
  5
14B
100
AcDbEntity
  8
2
370
    50
100
AcDbLine
 10
-177.264411
 20
-229.546269
 30
0.0
 11
-172.364411
 21
-229.546269
 31
0.0
  0
LINE
  5
14C
100
AcDbEntity
  8
2
370
    50
100
AcDbLine
 10
-190.164411
 20
-231.946269
 30
0.0
 11
-185.264411
 21
-231.946269
 31
0.0
  0
LINE
  5
14D
100
AcDbEntity
  8
2
370
    50
100
AcDbLine
 10
-177.264411
 20
-231.946269
 30
0.0
 11
-172.364411
 21
-231.946269
 31
0.0
  0
LINE
  5
14E
100
AcDbEntity
  8
2
370
    50
100
AcDbLine
 10
-189.564411
 20
-234.946269
 30
0.0
 11
-185.264411
 21
-234.946269
 31
0.0
  0
LINE
  5
14F
100
AcDbEntity
  8
2
370
    50
100
AcDbLine
 10
-177.264411
 20
-234.946269
 30
0.0
 11
-172.964411
 21
-234.946269
 31
0.0
  0
ARC
  5
150
100
AcDbEntity
  8
2
370
    50
100
AcDbCircle
 10
-184.264411
 20
-226.946269
 30
0.0
 40
1.0
100
AcDbArc
 50
90.0
 51
180.0
  0
ARC
  5
151
100
AcDbEntity
  8
2
370
    50
100
AcDbCircle
 10
-178.264411
 20
-226.946269
 30
0.0
 40
1.0
100
AcDbArc
 50
0.0
 51
90.0
  0
ARC
  5
152
100
AcDbEntity
  8
2
370
    50
100
AcDbCircle
 10
-178.264411
 20
-236.946269
 30
0.0
 40
1.0
100
AcDbArc
 50
270.0
 51
0.0
  0
ARC
  5
153
100
AcDbEntity
  8
2
370
    50
100
AcDbCircle
 10
-184.264411
 20
-236.946269
 30
0.0
 40
1.0
100
AcDbArc
 50
180.0
 51
270.0
  0
LINE
  5
154
100
AcDbEntity
  8
2
370
    50
100
AcDbLine
 10
-172.964411
 20
-225.946269
 30
0.0
 11
-172.964411
 21
-228.946269
 31
0.0
  0
LINE
  5
155
100
AcDbEntity
  8
2
370
    50
100
AcDbLine
 10
-189.564411
 20
-225.946269
 30
0.0
 11
-189.564411
 21
-228.946269
 31
0.0
  0
LINE
  5
156
100
AcDbEntity
  8
2
370
    50
100
AcDbLine
 10
-189.564411
 20
-234.946269
 30
0.0
 11
-189.564411
 21
-237.946269
 31
0.0
  0
LINE
  5
157
100
AcDbEntity
  8
2
370
    50
100
AcDbLine
 10
-172.964411
 20
-234.946269
 30
0.0
 11
-172.964411
 21
-237.946269
 31
0.0
  0
LINE
  5
158
100
AcDbEntity
  8
2
370
    50
100
AcDbLine
 10
-173.764411
 20
-229.346269
 30
0.0
 11
-173.764411
 21
-228.946269
 31
0.0
  0
LINE
  5
159
100
AcDbEntity
  8
2
370
    50
100
AcDbLine
 10
-188.764411
 20
-229.346269
 30
0.0
 11
-188.764411
 21
-228.946269
 31
0.0
  0
LINE
  5
15A
100
AcDbEntity
  8
2
370
    25
100
AcDbLine
 10
-176.264411
 20
-237.646852
 30
0.0
 11
-176.264411
 21
-235.341631
 31
0.0
  0
LINE
  5
15B
100
AcDbEntity
  8
2
370
    25
100
AcDbLine
 10
-176.264411
 20
-228.685083
 30
0.0
 11
-176.264411
 21
-226.252878
 31
0.0
  0
LINE
  5
15C
100
AcDbEntity
  8
2
370
    25
100
AcDbLine
 10
-186.264411
 20
-237.646852
 30
0.0
 11
-186.264411
 21
-235.341631
 31
0.0
  0
LINE
  5
15D
100
AcDbEntity
  8
2
370
    25
100
AcDbLine
 10
-186.264411
 20
-228.642404
 30
0.0
 11
-186.264411
 21
-226.173357
 31
0.0
  0
LINE
  5
15E
100
AcDbEntity
  8
2
370
    50
100
AcDbLine
 10
-172.464411
 20
-236.946269
 30
0.0
 11
-172.464411
 21
-234.346269
 31
0.0
  0
LINE
  5
15F
100
AcDbEntity
  8
2
370
    50
100
AcDbLine
 10
-172.464411
 20
-229.446269
 30
0.0
 11
-172.464411
 21
-224.946269
 31
0.0
  0
LINE
  5
160
100
AcDbEntity
  8
2
370
    50
100
AcDbLine
 10
-190.064411
 20
-236.946269
 30
0.0
 11
-190.064411
 21
-234.346269
 31
0.0
  0
LINE
  5
161
100
AcDbEntity
  8
2
370
    50
100
AcDbLine
 10
-190.064411
 20
-229.446269
 30
0.0
 11
-190.064411
 21
-224.946269
 31
0.0
  0
ARC
  5
162
100
AcDbEntity
  8
2
370
    50
100
AcDbCircle
 10
-173.464411
 20
-224.946269
 30
0.0
 40
1.0
100
AcDbArc
 50
0.0
 51
90.0
  0
ARC
  5
163
100
AcDbEntity
  8
2
370
    50
100
AcDbCircle
 10
-189.064411
 20
-224.946269
 30
0.0
 40
1.0
100
AcDbArc
 50
90.0
 51
180.0
  0
ARC
  5
164
100
AcDbEntity
  8
2
370
    50
100
AcDbCircle
 10
-171.464411
 20
-236.946269
 30
0.0
 40
1.0
100
AcDbArc
 50
180.0
 51
270.0
  0
ARC
  5
165
100
AcDbEntity
  8
2
370
    50
100
AcDbCircle
 10
-191.064411
 20
-236.946269
 30
0.0
 40
1.0
100
AcDbArc
 50
270.0
 51
360.0
  0
LINE
  5
166
100
AcDbEntity
  8
2
370
    50
100
AcDbLine
 10
-188.764411
 20
-224.646269
 30
0.0
 11
-188.764411
 21
-225.945647
 31
0.0
  0
ARC
  5
167
100
AcDbEntity
  8
2
370
    50
100
AcDbCircle
 10
-189.064411
 20
-224.946269
 30
0.0
 40
1.0
100
AcDbArc
 50
90.0
 51
180.0
  0
LINE
  5
168
100
AcDbEntity
  8
2
370
    50
100
AcDbLine
 10
-188.764411
 20
-224.646269
 30
0.0
 11
-188.264411
 21
-224.146269
 31
0.0
  0
LINE
  5
169
100
AcDbEntity
  8
2
370
    50
100
AcDbLine
 10
-190.264411
 20
-232.346269
 30
0.0
 11
-190.264411
 21
-234.146269
 31
0.0
  0
LINE
  5
16A
100
AcDbEntity
  8
2
370
    50
100
AcDbLine
 10
-172.264411
 20
-232.346269
 30
0.0
 11
-172.264411
 21
-234.146269
 31
0.0
  0
LINE
  5
16B
100
AcDbEntity
  8
2
370
    50
100
AcDbLine
 10
-190.064411
 20
-232.146269
 30
0.0
 11
-190.264411
 21
-232.346269
 31
0.0
  0
LINE
  5
16C
100
AcDbEntity
  8
2
370
    50
100
AcDbLine
 10
-190.264411
 20
-234.146269
 30
0.0
 11
-190.064411
 21
-234.346269
 31
0.0
  0
LINE
  5
16D
100
AcDbEntity
  8
2
370
    50
100
AcDbLine
 10
-172.464411
 20
-232.146269
 30
0.0
 11
-172.264411
 21
-232.346269
 31
0.0
  0
LINE
  5
16E
100
AcDbEntity
  8
2
370
    50
100
AcDbLine
 10
-172.264411
 20
-234.146269
 30
0.0
 11
-172.464411
 21
-234.346269
 31
0.0
  0
LINE
  5
16F
100
AcDbEntity
  8
2
370
    50
100
AcDbLine
 10
-173.764411
 20
-238.346269
 30
0.0
 11
-173.764411
 21
-237.946269
 31
0.0
  0
LINE
  5
170
100
AcDbEntity
  8
2
370
    50
100
AcDbLine
 10
-173.764411
 20
-234.946269
 30
0.0
 11
-173.764411
 21
-234.346269
 31
0.0
  0
LINE
  5
171
100
AcDbEntity
  8
2
370
    50
100
AcDbLine
 10
-188.764411
 20
-238.346269
 30
0.0
 11
-188.764411
 21
-237.946269
 31
0.0
  0
LINE
  5
172
100
AcDbEntity
  8
2
370
    50
100
AcDbLine
 10
-188.764411
 20
-234.946269
 30
0.0
 11
-188.764411
 21
-234.346269
 31
0.0
  0
LINE
  5
173
100
AcDbEntity
  8
2
370
    50
100
AcDbLine
 10
-190.064411
 20
-234.346269
 30
0.0
 11
-185.264411
 21
-234.346269
 31
0.0
  0
LINE
  5
174
100
AcDbEntity
  8
2
370
    50
100
AcDbLine
 10
-177.264411
 20
-234.346269
 30
0.0
 11
-172.464411
 21
-234.346269
 31
0.0
  0
LINE
  5
175
100
AcDbEntity
  8
2
370
    50
100
AcDbLine
 10
-190.264411
 20
-234.146269
 30
0.0
 11
-185.264411
 21
-234.146269
 31
0.0
  0
LINE
  5
176
100
AcDbEntity
  8
2
370
    50
100
AcDbLine
 10
-177.264411
 20
-234.146269
 30
0.0
 11
-172.264411
 21
-234.146269
 31
0.0
  0
LINE
  5
177
100
AcDbEntity
  8
2
370
    50
100
AcDbLine
 10
-190.264411
 20
-232.346269
 30
0.0
 11
-185.264411
 21
-232.346269
 31
0.0
  0
LINE
  5
178
100
AcDbEntity
  8
2
370
    50
100
AcDbLine
 10
-177.264411
 20
-232.346269
 30
0.0
 11
-172.264411
 21
-232.346269
 31
0.0
  0
LINE
  5
179
100
AcDbEntity
  8
2
370
    50
100
AcDbLine
 10
-190.064411
 20
-232.146269
 30
0.0
 11
-185.264411
 21
-232.146269
 31
0.0
  0
LINE
  5
17A
100
AcDbEntity
  8
2
370
    50
100
AcDbLine
 10
-177.264411
 20
-232.146269
 30
0.0
 11
-172.464411
 21
-232.146269
 31
0.0
  0
LINE
  5
17B
100
AcDbEntity
  8
2
370
    25
100
AcDbLine
 10
-187.764271
 20
-237.945647
 30
0.0
 11
-187.764271
 21
-234.945647
 31
0.0
  0
LINE
  5
17C
100
AcDbEntity
  8
2
370
    25
100
AcDbLine
 10
-174.764551
 20
-228.946269
 30
0.0
 11
-174.764551
 21
-225.946269
 31
0.0
  0
LINE
  5
17D
100
AcDbEntity
  8
2
370
    25
100
AcDbLine
 10
-187.764271
 20
-228.946269
 30
0.0
 11
-187.764271
 21
-225.946269
 31
0.0
  0
LINE
  5
17E
100
AcDbEntity
  8
2
370
    25
100
AcDbLine
 10
-177.198547
 20
-198.462704
 30
0.0
 11
-185.330275
 21
-190.330976
 31
0.0
  0
LINE
  5
17F
100
AcDbEntity
  8
2
370
    25
100
AcDbLine
 10
-177.198547
 20
-190.330976
 30
0.0
 11
-185.330275
 21
-198.462704
 31
0.0
  0
LINE
  5
180
100
AcDbEntity
  8
2
370
    25
100
AcDbLine
 10
-177.967613
 20
-199.107851
 30
0.0
 11
-185.975422
 21
-191.100043
 31
0.0
  0
LINE
  5
181
100
AcDbEntity
  8
2
370
    25
100
AcDbLine
 10
-178.866637
 20
-199.623041
 30
0.0
 11
-186.490612
 21
-191.999066
 31
0.0
  0
LINE
  5
182
100
AcDbEntity
  8
2
370
    25
100
AcDbLine
 10
-179.917122
 20
-199.98677
 30
0.0
 11
-186.85434
 21
-193.049551
 31
0.0
  0
LINE
  5
183
100
AcDbEntity
  8
2
370
    25
100
AcDbLine
 10
-181.172008
 20
-200.146098
 30
0.0
 11
-187.013668
 21
-194.304437
 31
0.0
  0
LINE
  5
184
100
AcDbEntity
  8
2
370
    25
100
AcDbLine
 10
-182.792148
 20
-199.940171
 30
0.0
 11
-186.807742
 21
-195.924577
 31
0.0
  0
LINE
  5
185
100
AcDbEntity
  8
2
370
    25
100
AcDbLine
 10
-176.5534
 20
-197.693638
 30
0.0
 11
-184.561208
 21
-189.685829
 31
0.0
  0
LINE
  5
186
100
AcDbEntity
  8
2
370
    25
100
AcDbLine
 10
-176.03821
 20
-196.794614
 30
0.0
 11
-183.662185
 21
-189.170639
 31
0.0
  0
LINE
  5
187
100
AcDbEntity
  8
2
370
    25
100
AcDbLine
 10
-175.674481
 20
-195.744129
 30
0.0
 11
-182.6117
 21
-188.806911
 31
0.0
  0
LINE
  5
188
100
AcDbEntity
  8
2
370
    25
100
AcDbLine
 10
-175.515153
 20
-194.489243
 30
0.0
 11
-181.356814
 21
-188.647583
 31
0.0
  0
LINE
  5
189
100
AcDbEntity
  8
2
370
    25
100
AcDbLine
 10
-175.72108
 20
-192.869104
 30
0.0
 11
-179.736674
 21
-188.853509
 31
0.0
  0
LINE
  5
18A
100
AcDbEntity
  8
2
370
    25
100
AcDbLine
 10
-177.967613
 20
-189.685829
 30
0.0
 11
-185.975422
 21
-197.693638
 31
0.0
  0
LINE
  5
18B
100
AcDbEntity
  8
2
370
    25
100
AcDbLine
 10
-178.866637
 20
-189.170639
 30
0.0
 11
-186.490612
 21
-196.794614
 31
0.0
  0
LINE
  5
18C
100
AcDbEntity
  8
2
370
    25
100
AcDbLine
 10
-179.917122
 20
-188.806911
 30
0.0
 11
-186.85434
 21
-195.744129
 31
0.0
  0
LINE
  5
18D
100
AcDbEntity
  8
2
370
    25
100
AcDbLine
 10
-181.172008
 20
-188.647583
 30
0.0
 11
-187.013668
 21
-194.489243
 31
0.0
  0
LINE
  5
18E
100
AcDbEntity
  8
2
370
    25
100
AcDbLine
 10
-182.792148
 20
-188.853509
 30
0.0
 11
-186.807742
 21
-192.869104
 31
0.0
  0
LINE
  5
18F
100
AcDbEntity
  8
2
370
    25
100
AcDbLine
 10
-176.5534
 20
-191.100043
 30
0.0
 11
-184.561208
 21
-199.107851
 31
0.0
  0
LINE
  5
190
100
AcDbEntity
  8
2
370
    25
100
AcDbLine
 10
-176.03821
 20
-191.999066
 30
0.0
 11
-183.662185
 21
-199.623041
 31
0.0
  0
LINE
  5
191
100
AcDbEntity
  8
2
370
    25
100
AcDbLine
 10
-175.674481
 20
-193.049551
 30
0.0
 11
-182.6117
 21
-199.98677
 31
0.0
  0
LINE
  5
192
100
AcDbEntity
  8
2
370
    25
100
AcDbLine
 10
-175.515153
 20
-194.304437
 30
0.0
 11
-181.356814
 21
-200.146098
 31
0.0
  0
LINE
  5
193
100
AcDbEntity
  8
2
370
    25
100
AcDbLine
 10
-175.72108
 20
-195.924577
 30
0.0
 11
-179.736674
 21
-199.940171
 31
0.0
  0
LINE
  5
194
100
AcDbEntity
  8
2
370
    50
100
AcDbLine
 10
-195.764411
 20
-224.946269
 30
0.0
 11
-195.764411
 21
-236.946269
 31
0.0
  0
ARC
  5
195
100
AcDbEntity
  8
2
370
    50
100
AcDbCircle
 10
-194.764411
 20
-224.946269
 30
0.0
 40
1.0
100
AcDbArc
 50
90.0
 51
180.0
  0
ARC
  5
196
100
AcDbEntity
  8
2
370
    50
100
AcDbCircle
 10
-194.764411
 20
-236.946269
 30
0.0
 40
1.0
100
AcDbArc
 50
180.0
 51
270.0
  0
LINE
  5
197
100
AcDbEntity
  8
2
370
    25
  6
CENTER
100
AcDbLine
 10
-181.264411
 20
-158.144156
 30
0.0
 11
-181.264411
 21
-261.027714
 31
0.0
  0
ARC
  5
198
100
AcDbEntity
  8
2
370
    50
100
AcDbCircle
 10
-184.139411
 20
-167.801623
 30
0.0
 40
4.791667
100
AcDbArc
 50
233.130102
 51
306.869898
  0
ARC
  5
199
100
AcDbEntity
  8
2
370
    50
100
AcDbCircle
 10
-178.389411
 20
-175.468289
 30
0.0
 40
4.791667
100
AcDbArc
 50
53.130102
 51
126.869898
  0
ARC
  5
19A
100
AcDbEntity
  8
2
370
    50
100
AcDbCircle
 10
-184.139411
 20
-175.468289
 30
0.0
 40
4.791667
100
AcDbArc
 50
53.130102
 51
126.869898
  0
LINE
  5
19B
100
AcDbEntity
  8
2
370
    50
100
AcDbLine
 10
-166.764411
 20
-224.946269
 30
0.0
 11
-166.764411
 21
-236.946269
 31
0.0
  0
LINE
  5
19C
100
AcDbEntity
  8
2
370
    25
  6
CENTER
100
AcDbLine
 10
-246.264411
 20
-229.609988
 30
0.0
 11
-296.264411
 21
-158.144156
 31
0.0
  0
LINE
  5
19D
100
AcDbEntity
  8
2
370
    50
100
AcDbLine
 10
-289.764411
 20
-207.146269
 30
0.0
 11
-302.764411
 21
-207.146269
 31
0.0
  0
LINE
  5
19E
100
AcDbEntity
  8
2
370
    50
100
AcDbLine
 10
-291.682974
 20
-221.146269
 30
0.0
 11
-290.264411
 21
-221.146269
 31
0.0
  0
LINE
  5
19F
100
AcDbEntity
  8
2
370
    50
100
AcDbLine
 10
-291.682974
 20
-223.646269
 30
0.0
 11
-290.264411
 21
-223.646269
 31
0.0
  0
ARC
  5
1A0
100
AcDbEntity
  8
2
370
    50
100
AcDbCircle
 10
-290.464411
 20
-223.946269
 30
0.0
 40
0.2
100
AcDbArc
 50
270.0
 51
360.0
  0
LINE
  5
1A1
100
AcDbEntity
  8
2
370
    50
100
AcDbLine
 10
-295.764411
 20
-223.646269
 30
0.0
 11
-292.390081
 21
-223.646269
 31
0.0
  0
LINE
  5
1A2
100
AcDbEntity
  8
2
370
    50
100
AcDbLine
 10
-295.764411
 20
-221.146269
 30
0.0
 11
-292.390081
 21
-221.146269
 31
0.0
  0
LINE
  5
1A3
100
AcDbEntity
  8
2
370
    50
100
AcDbLine
 10
-300.138741
 20
-223.646269
 30
0.0
 11
-296.764411
 21
-223.646269
 31
0.0
  0
LINE
  5
1A4
100
AcDbEntity
  8
2
370
    50
100
AcDbLine
 10
-300.138741
 20
-221.146269
 30
0.0
 11
-296.764411
 21
-221.146269
 31
0.0
  0
LINE
  5
1A5
100
AcDbEntity
  8
2
370
    50
100
AcDbLine
 10
-302.264411
 20
-223.646269
 30
0.0
 11
-300.845848
 21
-223.646269
 31
0.0
  0
LINE
  5
1A6
100
AcDbEntity
  8
2
370
    50
100
AcDbLine
 10
-302.264411
 20
-221.146269
 30
0.0
 11
-300.845848
 21
-221.146269
 31
0.0
  0
ARC
  5
1A7
100
AcDbEntity
  8
2
370
    50
100
AcDbCircle
 10
-302.064411
 20
-223.946269
 30
0.0
 40
0.2
100
AcDbArc
 50
180.0
 51
270.0
  0
LINE
  5
1A8
100
AcDbEntity
  8
2
370
    50
100
AcDbLine
 10
-302.264411
 20
-221.146269
 30
0.0
 11
-302.264411
 21
-223.946269
 31
0.0
  0
LINE
  5
1A9
100
AcDbEntity
  8
2
370
    50
100
AcDbLine
 10
-302.243541
 20
-221.146269
 30
0.0
 11
-302.243541
 21
-223.646269
 31
0.0
  0
ARC
  5
1AA
100
AcDbEntity
  8
2
370
    50
100
AcDbCircle
 10
-300.264411
 20
-219.646269
 30
0.0
 40
2.5
100
AcDbArc
 50
180.0
 51
216.869898
  0
LINE
  5
1AB
100
AcDbEntity
  8
2
370
    50
100
AcDbLine
 10
-300.845848
 20
-221.146269
 30
0.0
 11
-300.845848
 21
-223.646269
 31
0.0
  0
LINE
  5
1AC
100
AcDbEntity
  8
2
370
    50
100
AcDbLine
 10
-300.138741
 20
-221.146269
 30
0.0
 11
-300.138741
 21
-223.646269
 31
0.0
  0
LINE
  5
1AD
100
AcDbEntity
  8
2
370
    50
100
AcDbLine
 10
-296.764411
 20
-221.146269
 30
0.0
 11
-296.764411
 21
-223.646269
 31
0.0
  0
LINE
  5
1AE
100
AcDbEntity
  8
2
370
    50
100
AcDbLine
 10
-295.764411
 20
-221.146269
 30
0.0
 11
-295.764411
 21
-223.646269
 31
0.0
  0
LINE
  5
1AF
100
AcDbEntity
  8
2
370
    50
100
AcDbLine
 10
-291.682974
 20
-221.146269
 30
0.0
 11
-291.682974
 21
-223.646269
 31
0.0
  0
LINE
  5
1B0
100
AcDbEntity
  8
2
370
    50
100
AcDbLine
 10
-292.390081
 20
-221.146269
 30
0.0
 11
-292.390081
 21
-223.646269
 31
0.0
  0
LINE
  5
1B1
100
AcDbEntity
  8
2
370
    50
100
AcDbLine
 10
-290.264411
 20
-221.146269
 30
0.0
 11
-290.264411
 21
-223.946269
 31
0.0
  0
LINE
  5
1B2
100
AcDbEntity
  8
2
370
    50
100
AcDbLine
 10
-290.285281
 20
-221.146269
 30
0.0
 11
-290.285281
 21
-223.646269
 31
0.0
  0
ARC
  5
1B3
100
AcDbEntity
  8
2
370
    50
100
AcDbCircle
 10
-292.264411
 20
-219.646269
 30
0.0
 40
2.5
100
AcDbArc
 50
323.130102
 51
360.0
  0
LINE
  5
1B4
100
AcDbEntity
  8
2
370
    50
100
AcDbLine
 10
-289.764411
 20
-207.146269
 30
0.0
 11
-289.764411
 21
-219.646269
 31
0.0
  0
LINE
  5
1B5
100
AcDbEntity
  8
2
370
    25
100
AcDbLine
 10
-302.745152
 20
-207.146269
 30
0.0
 11
-302.745152
 21
-219.646269
 31
0.0
  0
LINE
  5
1B6
100
AcDbEntity
  8
2
370
    50
100
AcDbLine
 10
-302.764411
 20
-207.146269
 30
0.0
 11
-302.764411
 21
-219.646269
 31
0.0
  0
LINE
  5
1B7
100
AcDbEntity
  8
2
370
    50
100
AcDbLine
 10
-303.264411
 20
-224.146269
 30
0.0
 11
-289.264411
 21
-224.146269
 31
0.0
  0
LINE
  5
1B8
100
AcDbEntity
  8
2
370
    50
100
AcDbLine
 10
-303.764411
 20
-224.646269
 30
0.0
 11
-303.264411
 21
-224.146269
 31
0.0
  0
LINE
  5
1B9
100
AcDbEntity
  8
2
370
    50
100
AcDbLine
 10
-290.514411
 20
-207.146269
 30
0.0
 11
-290.514411
 21
-171.654411
 31
0.0
  0
LINE
  5
1BA
100
AcDbEntity
  8
2
370
    50
100
AcDbLine
 10
-302.014411
 20
-207.146269
 30
0.0
 11
-302.014411
 21
-171.802471
 31
0.0
  0
LINE
  5
1BB
100
AcDbEntity
  8
2
370
    25
100
AcDbLine
 10
-302.764271
 20
-237.945647
 30
0.0
 11
-302.764271
 21
-234.945647
 31
0.0
  0
LINE
  5
1BC
100
AcDbEntity
  8
2
370
    50
100
AcDbLine
 10
-305.164411
 20
-229.546904
 30
0.0
 11
-305.164411
 21
-231.946904
 31
0.0
  0
LINE
  5
1BD
100
AcDbEntity
  8
2
370
    50
100
AcDbLine
 10
-304.964411
 20
-229.346904
 30
0.0
 11
-305.164411
 21
-229.546904
 31
0.0
  0
LINE
  5
1BE
100
AcDbEntity
  8
2
370
    50
100
AcDbLine
 10
-304.964411
 20
-232.146904
 30
0.0
 11
-305.164411
 21
-231.946904
 31
0.0
  0
LINE
  5
1BF
100
AcDbEntity
  8
2
370
    50
100
AcDbLine
 10
-303.764411
 20
-229.346904
 30
0.0
 11
-303.764411
 21
-228.945647
 31
0.0
  0
LINE
  5
1C0
100
AcDbEntity
  8
2
370
    50
100
AcDbLine
 10
-303.764411
 20
-224.646269
 30
0.0
 11
-303.764411
 21
-225.945647
 31
0.0
  0
LINE
  5
1C1
100
AcDbEntity
  8
2
370
    50
100
AcDbLine
 10
-287.364411
 20
-229.546269
 30
0.0
 11
-287.364411
 21
-231.946269
 31
0.0
  0
LINE
  5
1C2
100
AcDbEntity
  8
2
370
    50
100
AcDbLine
 10
-305.164411
 20
-229.546269
 30
0.0
 11
-305.164411
 21
-231.946269
 31
0.0
  0
LINE
  5
1C3
100
AcDbEntity
  8
2
370
    50
100
AcDbLine
 10
-304.964411
 20
-229.346269
 30
0.0
 11
-305.164411
 21
-229.546269
 31
0.0
  0
LINE
  5
1C4
100
AcDbEntity
  8
2
370
    50
100
AcDbLine
 10
-287.564411
 20
-229.346269
 30
0.0
 11
-287.364411
 21
-229.546269
 31
0.0
  0
LINE
  5
1C5
100
AcDbEntity
  8
2
370
    50
100
AcDbLine
 10
-287.564411
 20
-232.146269
 30
0.0
 11
-287.364411
 21
-231.946269
 31
0.0
  0
LINE
  5
1C6
100
AcDbEntity
  8
2
370
    50
100
AcDbLine
 10
-287.264411
 20
-237.946269
 30
0.0
 11
-305.264411
 21
-237.946269
 31
0.0
  0
LINE
  5
1C7
100
AcDbEntity
  8
2
370
    50
100
AcDbLine
 10
-287.964411
 20
-225.946269
 30
0.0
 11
-304.564411
 21
-225.946269
 31
0.0
  0
LINE
  5
1C8
100
AcDbEntity
  8
2
370
    50
100
AcDbLine
 10
-300.264411
 20
-226.946269
 30
0.0
 11
-300.264411
 21
-236.946269
 31
0.0
  0
LINE
  5
1C9
100
AcDbEntity
  8
2
370
    50
100
AcDbLine
 10
-292.264411
 20
-226.946269
 30
0.0
 11
-292.264411
 21
-236.946269
 31
0.0
  0
ARC
  5
1CA
100
AcDbEntity
  8
2
370
    50
100
AcDbCircle
 10
-309.764411
 20
-224.946269
 30
0.0
 40
1.0
100
AcDbArc
 50
90.0
 51
180.0
  0
ARC
  5
1CB
100
AcDbEntity
  8
2
370
    50
100
AcDbCircle
 10
-309.764411
 20
-236.946269
 30
0.0
 40
1.0
100
AcDbArc
 50
180.0
 51
270.0
  0
LINE
  5
1CC
100
AcDbEntity
  8
2
370
    50
100
AcDbLine
 10
-309.764411
 20
-223.946269
 30
0.0
 11
-302.264411
 21
-223.946269
 31
0.0
  0
LINE
  5
1CD
100
AcDbEntity
  8
2
370
    50
100
AcDbLine
 10
-290.264411
 20
-223.946269
 30
0.0
 11
-282.764411
 21
-223.946269
 31
0.0
  0
LINE
  5
1CE
100
AcDbEntity
  8
2
370
    50
100
AcDbLine
 10
-309.764411
 20
-237.946269
 30
0.0
 11
-303.764411
 21
-237.946269
 31
0.0
  0
LINE
  5
1CF
100
AcDbEntity
  8
2
370
    50
100
AcDbLine
 10
-287.964411
 20
-237.946269
 30
0.0
 11
-282.764411
 21
-237.946269
 31
0.0
  0
LINE
  5
1D0
100
AcDbEntity
  8
2
370
    50
100
AcDbLine
 10
-287.964411
 20
-228.946269
 30
0.0
 11
-292.264411
 21
-228.946269
 31
0.0
  0
LINE
  5
1D1
100
AcDbEntity
  8
2
370
    50
100
AcDbLine
 10
-300.264411
 20
-228.946269
 30
0.0
 11
-304.564411
 21
-228.946269
 31
0.0
  0
LINE
  5
1D2
100
AcDbEntity
  8
2
370
    50
100
AcDbLine
 10
-287.564411
 20
-229.346269
 30
0.0
 11
-292.264411
 21
-229.346269
 31
0.0
  0
LINE
  5
1D3
100
AcDbEntity
  8
2
370
    50
100
AcDbLine
 10
-300.264411
 20
-229.346269
 30
0.0
 11
-304.964411
 21
-229.346269
 31
0.0
  0
LINE
  5
1D4
100
AcDbEntity
  8
2
370
    50
100
AcDbLine
 10
-287.364411
 20
-229.546269
 30
0.0
 11
-292.264411
 21
-229.546269
 31
0.0
  0
LINE
  5
1D5
100
AcDbEntity
  8
2
370
    50
100
AcDbLine
 10
-300.264411
 20
-229.546269
 30
0.0
 11
-305.164411
 21
-229.546269
 31
0.0
  0
LINE
  5
1D6
100
AcDbEntity
  8
2
370
    50
100
AcDbLine
 10
-287.364411
 20
-231.946269
 30
0.0
 11
-292.264411
 21
-231.946269
 31
0.0
  0
LINE
  5
1D7
100
AcDbEntity
  8
2
370
    50
100
AcDbLine
 10
-300.264411
 20
-231.946269
 30
0.0
 11
-305.164411
 21
-231.946269
 31
0.0
  0
LINE
  5
1D8
100
AcDbEntity
  8
2
370
    50
100
AcDbLine
 10
-287.964411
 20
-234.946269
 30
0.0
 11
-292.264411
 21
-234.946269
 31
0.0
  0
LINE
  5
1D9
100
AcDbEntity
  8
2
370
    50
100
AcDbLine
 10
-300.264411
 20
-234.946269
 30
0.0
 11
-304.564411
 21
-234.946269
 31
0.0
  0
ARC
  5
1DA
100
AcDbEntity
  8
2
370
    50
100
AcDbCircle
 10
-293.264411
 20
-226.946269
 30
0.0
 40
1.0
100
AcDbArc
 50
0.0
 51
90.0
  0
ARC
  5
1DB
100
AcDbEntity
  8
2
370
    50
100
AcDbCircle
 10
-299.264411
 20
-226.946269
 30
0.0
 40
1.0
100
AcDbArc
 50
90.0
 51
180.0
  0
ARC
  5
1DC
100
AcDbEntity
  8
2
370
    50
100
AcDbCircle
 10
-299.264411
 20
-236.946269
 30
0.0
 40
1.0
100
AcDbArc
 50
180.0
 51
270.0
  0
ARC
  5
1DD
100
AcDbEntity
  8
2
370
    50
100
AcDbCircle
 10
-293.264411
 20
-236.946269
 30
0.0
 40
1.0
100
AcDbArc
 50
270.0
 51
0.0
  0
LINE
  5
1DE
100
AcDbEntity
  8
2
370
    50
100
AcDbLine
 10
-304.564411
 20
-225.946269
 30
0.0
 11
-304.564411
 21
-228.946269
 31
0.0
  0
LINE
  5
1DF
100
AcDbEntity
  8
2
370
    50
100
AcDbLine
 10
-287.964411
 20
-225.946269
 30
0.0
 11
-287.964411
 21
-228.946269
 31
0.0
  0
LINE
  5
1E0
100
AcDbEntity
  8
2
370
    50
100
AcDbLine
 10
-287.964411
 20
-234.946269
 30
0.0
 11
-287.964411
 21
-237.946269
 31
0.0
  0
LINE
  5
1E1
100
AcDbEntity
  8
2
370
    50
100
AcDbLine
 10
-304.564411
 20
-234.946269
 30
0.0
 11
-304.564411
 21
-237.946269
 31
0.0
  0
LINE
  5
1E2
100
AcDbEntity
  8
2
370
    50
100
AcDbLine
 10
-303.764411
 20
-229.346269
 30
0.0
 11
-303.764411
 21
-228.946269
 31
0.0
  0
LINE
  5
1E3
100
AcDbEntity
  8
2
370
    50
100
AcDbLine
 10
-288.764411
 20
-229.346269
 30
0.0
 11
-288.764411
 21
-228.946269
 31
0.0
  0
LINE
  5
1E4
100
AcDbEntity
  8
2
370
    25
100
AcDbLine
 10
-301.264411
 20
-237.646852
 30
0.0
 11
-301.264411
 21
-235.341631
 31
0.0
  0
LINE
  5
1E5
100
AcDbEntity
  8
2
370
    25
100
AcDbLine
 10
-301.264411
 20
-228.685083
 30
0.0
 11
-301.264411
 21
-226.252878
 31
0.0
  0
LINE
  5
1E6
100
AcDbEntity
  8
2
370
    25
100
AcDbLine
 10
-291.264411
 20
-237.646852
 30
0.0
 11
-291.264411
 21
-235.341631
 31
0.0
  0
LINE
  5
1E7
100
AcDbEntity
  8
2
370
    25
100
AcDbLine
 10
-291.264411
 20
-228.642404
 30
0.0
 11
-291.264411
 21
-226.173357
 31
0.0
  0
LINE
  5
1E8
100
AcDbEntity
  8
2
370
    50
100
AcDbLine
 10
-305.064411
 20
-236.946269
 30
0.0
 11
-305.064411
 21
-234.346269
 31
0.0
  0
LINE
  5
1E9
100
AcDbEntity
  8
2
370
    50
100
AcDbLine
 10
-305.064411
 20
-229.446269
 30
0.0
 11
-305.064411
 21
-224.946269
 31
0.0
  0
LINE
  5
1EA
100
AcDbEntity
  8
2
370
    50
100
AcDbLine
 10
-287.464411
 20
-236.946269
 30
0.0
 11
-287.464411
 21
-234.346269
 31
0.0
  0
LINE
  5
1EB
100
AcDbEntity
  8
2
370
    50
100
AcDbLine
 10
-287.464411
 20
-229.446269
 30
0.0
 11
-287.464411
 21
-224.946269
 31
0.0
  0
ARC
  5
1EC
100
AcDbEntity
  8
2
370
    50
100
AcDbCircle
 10
-304.064411
 20
-224.946269
 30
0.0
 40
1.0
100
AcDbArc
 50
90.0
 51
180.0
  0
ARC
  5
1ED
100
AcDbEntity
  8
2
370
    50
100
AcDbCircle
 10
-288.464411
 20
-224.946269
 30
0.0
 40
1.0
100
AcDbArc
 50
0.0
 51
90.0
  0
ARC
  5
1EE
100
AcDbEntity
  8
2
370
    50
100
AcDbCircle
 10
-306.064411
 20
-236.946269
 30
0.0
 40
1.0
100
AcDbArc
 50
270.0
 51
0.0
  0
ARC
  5
1EF
100
AcDbEntity
  8
2
370
    50
100
AcDbCircle
 10
-286.464411
 20
-236.946269
 30
0.0
 40
1.0
100
AcDbArc
 50
180.0
 51
270.0
  0
LINE
  5
1F0
100
AcDbEntity
  8
2
370
    50
100
AcDbLine
 10
-288.764411
 20
-224.646269
 30
0.0
 11
-288.764411
 21
-225.945647
 31
0.0
  0
ARC
  5
1F1
100
AcDbEntity
  8
2
370
    50
100
AcDbCircle
 10
-288.464411
 20
-224.946269
 30
0.0
 40
1.0
100
AcDbArc
 50
0.0
 51
90.0
  0
LINE
  5
1F2
100
AcDbEntity
  8
2
370
    50
100
AcDbLine
 10
-288.764411
 20
-224.646269
 30
0.0
 11
-289.264411
 21
-224.146269
 31
0.0
  0
LINE
  5
1F3
100
AcDbEntity
  8
2
370
    50
100
AcDbLine
 10
-287.264411
 20
-232.346269
 30
0.0
 11
-287.264411
 21
-234.146269
 31
0.0
  0
LINE
  5
1F4
100
AcDbEntity
  8
2
370
    50
100
AcDbLine
 10
-305.264411
 20
-232.346269
 30
0.0
 11
-305.264411
 21
-234.146269
 31
0.0
  0
LINE
  5
1F5
100
AcDbEntity
  8
2
370
    50
100
AcDbLine
 10
-287.464411
 20
-232.146269
 30
0.0
 11
-287.264411
 21
-232.346269
 31
0.0
  0
LINE
  5
1F6
100
AcDbEntity
  8
2
370
    50
100
AcDbLine
 10
-287.264411
 20
-234.146269
 30
0.0
 11
-287.464411
 21
-234.346269
 31
0.0
  0
LINE
  5
1F7
100
AcDbEntity
  8
2
370
    50
100
AcDbLine
 10
-305.064411
 20
-232.146269
 30
0.0
 11
-305.264411
 21
-232.346269
 31
0.0
  0
LINE
  5
1F8
100
AcDbEntity
  8
2
370
    50
100
AcDbLine
 10
-305.264411
 20
-234.146269
 30
0.0
 11
-305.064411
 21
-234.346269
 31
0.0
  0
LINE
  5
1F9
100
AcDbEntity
  8
2
370
    50
100
AcDbLine
 10
-303.764411
 20
-238.346269
 30
0.0
 11
-303.764411
 21
-237.946269
 31
0.0
  0
LINE
  5
1FA
100
AcDbEntity
  8
2
370
    50
100
AcDbLine
 10
-303.764411
 20
-234.946269
 30
0.0
 11
-303.764411
 21
-234.346269
 31
0.0
  0
LINE
  5
1FB
100
AcDbEntity
  8
2
370
    50
100
AcDbLine
 10
-288.764411
 20
-238.346269
 30
0.0
 11
-288.764411
 21
-237.946269
 31
0.0
  0
LINE
  5
1FC
100
AcDbEntity
  8
2
370
    50
100
AcDbLine
 10
-288.764411
 20
-234.946269
 30
0.0
 11
-288.764411
 21
-234.346269
 31
0.0
  0
LINE
  5
1FD
100
AcDbEntity
  8
2
370
    50
100
AcDbLine
 10
-287.464411
 20
-234.346269
 30
0.0
 11
-292.264411
 21
-234.346269
 31
0.0
  0
LINE
  5
1FE
100
AcDbEntity
  8
2
370
    50
100
AcDbLine
 10
-300.264411
 20
-234.346269
 30
0.0
 11
-305.064411
 21
-234.346269
 31
0.0
  0
LINE
  5
1FF
100
AcDbEntity
  8
2
370
    50
100
AcDbLine
 10
-287.264411
 20
-234.146269
 30
0.0
 11
-292.264411
 21
-234.146269
 31
0.0
  0
LINE
  5
200
100
AcDbEntity
  8
2
370
    50
100
AcDbLine
 10
-300.264411
 20
-234.146269
 30
0.0
 11
-305.264411
 21
-234.146269
 31
0.0
  0
LINE
  5
201
100
AcDbEntity
  8
2
370
    50
100
AcDbLine
 10
-287.264411
 20
-232.346269
 30
0.0
 11
-292.264411
 21
-232.346269
 31
0.0
  0
LINE
  5
202
100
AcDbEntity
  8
2
370
    50
100
AcDbLine
 10
-300.264411
 20
-232.346269
 30
0.0
 11
-305.264411
 21
-232.346269
 31
0.0
  0
LINE
  5
203
100
AcDbEntity
  8
2
370
    50
100
AcDbLine
 10
-287.464411
 20
-232.146269
 30
0.0
 11
-292.264411
 21
-232.146269
 31
0.0
  0
LINE
  5
204
100
AcDbEntity
  8
2
370
    50
100
AcDbLine
 10
-300.264411
 20
-232.146269
 30
0.0
 11
-305.064411
 21
-232.146269
 31
0.0
  0
LINE
  5
205
100
AcDbEntity
  8
2
370
    25
100
AcDbLine
 10
-289.764551
 20
-237.945647
 30
0.0
 11
-289.764551
 21
-234.945647
 31
0.0
  0
LINE
  5
206
100
AcDbEntity
  8
2
370
    25
100
AcDbLine
 10
-302.764271
 20
-228.946269
 30
0.0
 11
-302.764271
 21
-225.946269
 31
0.0
  0
LINE
  5
207
100
AcDbEntity
  8
2
370
    25
100
AcDbLine
 10
-289.764551
 20
-228.946269
 30
0.0
 11
-289.764551
 21
-225.946269
 31
0.0
  0
LINE
  5
208
100
AcDbEntity
  8
2
370
    25
100
AcDbLine
 10
-300.330275
 20
-198.462704
 30
0.0
 11
-292.198547
 21
-190.330976
 31
0.0
  0
LINE
  5
209
100
AcDbEntity
  8
2
370
    25
100
AcDbLine
 10
-300.330275
 20
-190.330976
 30
0.0
 11
-292.198547
 21
-198.462704
 31
0.0
  0
LINE
  5
20A
100
AcDbEntity
  8
2
370
    25
100
AcDbLine
 10
-299.561208
 20
-199.107851
 30
0.0
 11
-291.5534
 21
-191.100043
 31
0.0
  0
LINE
  5
20B
100
AcDbEntity
  8
2
370
    25
100
AcDbLine
 10
-298.662185
 20
-199.623041
 30
0.0
 11
-291.03821
 21
-191.999066
 31
0.0
  0
LINE
  5
20C
100
AcDbEntity
  8
2
370
    25
100
AcDbLine
 10
-297.6117
 20
-199.98677
 30
0.0
 11
-290.674481
 21
-193.049551
 31
0.0
  0
LINE
  5
20D
100
AcDbEntity
  8
2
370
    25
100
AcDbLine
 10
-296.356814
 20
-200.146098
 30
0.0
 11
-290.515153
 21
-194.304437
 31
0.0
  0
LINE
  5
20E
100
AcDbEntity
  8
2
370
    25
100
AcDbLine
 10
-294.736674
 20
-199.940171
 30
0.0
 11
-290.72108
 21
-195.924577
 31
0.0
  0
LINE
  5
20F
100
AcDbEntity
  8
2
370
    25
100
AcDbLine
 10
-300.975422
 20
-197.693638
 30
0.0
 11
-292.967613
 21
-189.685829
 31
0.0
  0
LINE
  5
210
100
AcDbEntity
  8
2
370
    25
100
AcDbLine
 10
-301.490612
 20
-196.794614
 30
0.0
 11
-293.866637
 21
-189.170639
 31
0.0
  0
LINE
  5
211
100
AcDbEntity
  8
2
370
    25
100
AcDbLine
 10
-301.85434
 20
-195.744129
 30
0.0
 11
-294.917122
 21
-188.806911
 31
0.0
  0
LINE
  5
212
100
AcDbEntity
  8
2
370
    25
100
AcDbLine
 10
-302.013668
 20
-194.489243
 30
0.0
 11
-296.172008
 21
-188.647583
 31
0.0
  0
LINE
  5
213
100
AcDbEntity
  8
2
370
    25
100
AcDbLine
 10
-301.807742
 20
-192.869104
 30
0.0
 11
-297.792148
 21
-188.853509
 31
0.0
  0
LINE
  5
214
100
AcDbEntity
  8
2
370
    25
100
AcDbLine
 10
-299.561208
 20
-189.685829
 30
0.0
 11
-291.5534
 21
-197.693638
 31
0.0
  0
LINE
  5
215
100
AcDbEntity
  8
2
370
    25
100
AcDbLine
 10
-298.662185
 20
-189.170639
 30
0.0
 11
-291.03821
 21
-196.794614
 31
0.0
  0
LINE
  5
216
100
AcDbEntity
  8
2
370
    25
100
AcDbLine
 10
-297.6117
 20
-188.806911
 30
0.0
 11
-290.674481
 21
-195.744129
 31
0.0
  0
LINE
  5
217
100
AcDbEntity
  8
2
370
    25
100
AcDbLine
 10
-296.356814
 20
-188.647583
 30
0.0
 11
-290.515153
 21
-194.489243
 31
0.0
  0
LINE
  5
218
100
AcDbEntity
  8
2
370
    25
100
AcDbLine
 10
-294.736674
 20
-188.853509
 30
0.0
 11
-290.72108
 21
-192.869104
 31
0.0
  0
LINE
  5
219
100
AcDbEntity
  8
2
370
    25
100
AcDbLine
 10
-300.975422
 20
-191.100043
 30
0.0
 11
-292.967613
 21
-199.107851
 31
0.0
  0
LINE
  5
21A
100
AcDbEntity
  8
2
370
    25
100
AcDbLine
 10
-301.490612
 20
-191.999066
 30
0.0
 11
-293.866637
 21
-199.623041
 31
0.0
  0
LINE
  5
21B
100
AcDbEntity
  8
2
370
    25
100
AcDbLine
 10
-301.85434
 20
-193.049551
 30
0.0
 11
-294.917122
 21
-199.98677
 31
0.0
  0
LINE
  5
21C
100
AcDbEntity
  8
2
370
    25
100
AcDbLine
 10
-302.013668
 20
-194.304437
 30
0.0
 11
-296.172008
 21
-200.146098
 31
0.0
  0
LINE
  5
21D
100
AcDbEntity
  8
2
370
    25
100
AcDbLine
 10
-301.807742
 20
-195.924577
 30
0.0
 11
-297.792148
 21
-199.940171
 31
0.0
  0
LINE
  5
21E
100
AcDbEntity
  8
2
370
    50
100
AcDbLine
 10
-281.764411
 20
-224.946269
 30
0.0
 11
-281.764411
 21
-236.946269
 31
0.0
  0
ARC
  5
21F
100
AcDbEntity
  8
2
370
    50
100
AcDbCircle
 10
-282.764411
 20
-224.946269
 30
0.0
 40
1.0
100
AcDbArc
 50
0.0
 51
90.0
  0
ARC
  5
220
100
AcDbEntity
  8
2
370
    50
100
AcDbCircle
 10
-282.764411
 20
-236.946269
 30
0.0
 40
1.0
100
AcDbArc
 50
270.0
 51
360.0
  0
LINE
  5
221
100
AcDbEntity
  8
2
370
    25
  6
CENTER
100
AcDbLine
 10
-296.264411
 20
-158.144156
 30
0.0
 11
-296.264411
 21
-262.042118
 31
0.0
  0
ARC
  5
222
100
AcDbEntity
  8
2
370
    50
100
AcDbCircle
 10
-299.139411
 20
-167.801623
 30
0.0
 40
4.791667
100
AcDbArc
 50
233.130102
 51
306.869898
  0
ARC
  5
223
100
AcDbEntity
  8
2
370
    50
100
AcDbCircle
 10
-293.389411
 20
-175.468289
 30
0.0
 40
4.791667
100
AcDbArc
 50
53.130102
 51
126.869898
  0
ARC
  5
224
100
AcDbEntity
  8
2
370
    50
100
AcDbCircle
 10
-299.139411
 20
-175.468289
 30
0.0
 40
4.791667
100
AcDbArc
 50
53.130102
 51
126.869898
  0
LINE
  5
225
100
AcDbEntity
  8
2
370
    50
100
AcDbLine
 10
-310.764411
 20
-224.946269
 30
0.0
 11
-310.764411
 21
-236.946269
 31
0.0
  0
LINE
  5
226
100
AcDbEntity
  8
2
370
    25
100
AcDbLine
 10
-176.328282
 20
-219.646269
 30
0.0
 11
-176.328282
 21
-218.396269
 31
0.0
  0
LINE
  5
227
100
AcDbEntity
  8
2
370
    25
100
AcDbLine
 10
-176.328282
 20
-208.396269
 30
0.0
 11
-176.328282
 21
-207.146269
 31
0.0
  0
LINE
  5
228
100
AcDbEntity
  8
2
370
    25
100
AcDbLine
 10
-177.035389
 20
-219.646269
 30
0.0
 11
-177.035389
 21
-218.396269
 31
0.0
  0
LINE
  5
229
100
AcDbEntity
  8
2
370
    25
100
AcDbLine
 10
-177.035389
 20
-208.396269
 30
0.0
 11
-177.035389
 21
-207.146269
 31
0.0
  0
LINE
  5
22A
100
AcDbEntity
  8
2
370
    25
100
AcDbLine
 10
-180.764411
 20
-219.646269
 30
0.0
 11
-180.764411
 21
-218.396269
 31
0.0
  0
LINE
  5
22B
100
AcDbEntity
  8
2
370
    25
100
AcDbLine
 10
-180.764411
 20
-208.396269
 30
0.0
 11
-180.764411
 21
-207.146269
 31
0.0
  0
LINE
  5
22C
100
AcDbEntity
  8
2
370
    25
100
AcDbLine
 10
-181.764411
 20
-219.646269
 30
0.0
 11
-181.764411
 21
-218.396269
 31
0.0
  0
LINE
  5
22D
100
AcDbEntity
  8
2
370
    25
100
AcDbLine
 10
-181.764411
 20
-208.396269
 30
0.0
 11
-181.764411
 21
-207.146269
 31
0.0
  0
LINE
  5
22E
100
AcDbEntity
  8
2
370
    25
100
AcDbLine
 10
-185.493433
 20
-219.646269
 30
0.0
 11
-185.493433
 21
-218.396269
 31
0.0
  0
LINE
  5
22F
100
AcDbEntity
  8
2
370
    25
100
AcDbLine
 10
-185.493433
 20
-208.396269
 30
0.0
 11
-185.493433
 21
-207.146269
 31
0.0
  0
LINE
  5
230
100
AcDbEntity
  8
2
370
    25
100
AcDbLine
 10
-186.20054
 20
-219.646269
 30
0.0
 11
-186.20054
 21
-218.396269
 31
0.0
  0
LINE
  5
231
100
AcDbEntity
  8
2
370
    25
100
AcDbLine
 10
-186.20054
 20
-208.396269
 30
0.0
 11
-186.20054
 21
-207.146269
 31
0.0
  0
LINE
  5
232
100
AcDbEntity
  8
2
370
    25
100
AcDbLine
 10
-291.328282
 20
-219.646269
 30
0.0
 11
-291.328282
 21
-218.396269
 31
0.0
  0
LINE
  5
233
100
AcDbEntity
  8
2
370
    25
100
AcDbLine
 10
-291.328282
 20
-208.396269
 30
0.0
 11
-291.328282
 21
-207.146269
 31
0.0
  0
LINE
  5
234
100
AcDbEntity
  8
2
370
    25
100
AcDbLine
 10
-292.035389
 20
-219.646269
 30
0.0
 11
-292.035389
 21
-218.396269
 31
0.0
  0
LINE
  5
235
100
AcDbEntity
  8
2
370
    25
100
AcDbLine
 10
-292.035389
 20
-208.396269
 30
0.0
 11
-292.035389
 21
-207.146269
 31
0.0
  0
LINE
  5
236
100
AcDbEntity
  8
2
370
    25
100
AcDbLine
 10
-295.764411
 20
-219.646269
 30
0.0
 11
-295.764411
 21
-218.396269
 31
0.0
  0
LINE
  5
237
100
AcDbEntity
  8
2
370
    25
100
AcDbLine
 10
-295.764411
 20
-208.396269
 30
0.0
 11
-295.764411
 21
-207.146269
 31
0.0
  0
LINE
  5
238
100
AcDbEntity
  8
2
370
    25
100
AcDbLine
 10
-296.764411
 20
-219.646269
 30
0.0
 11
-296.764411
 21
-218.396269
 31
0.0
  0
LINE
  5
239
100
AcDbEntity
  8
2
370
    25
100
AcDbLine
 10
-296.764411
 20
-208.396269
 30
0.0
 11
-296.764411
 21
-207.146269
 31
0.0
  0
LINE
  5
23A
100
AcDbEntity
  8
2
370
    25
100
AcDbLine
 10
-300.493433
 20
-219.646269
 30
0.0
 11
-300.493433
 21
-218.396269
 31
0.0
  0
LINE
  5
23B
100
AcDbEntity
  8
2
370
    25
100
AcDbLine
 10
-300.493433
 20
-208.396269
 30
0.0
 11
-300.493433
 21
-207.146269
 31
0.0
  0
LINE
  5
23C
100
AcDbEntity
  8
2
370
    25
100
AcDbLine
 10
-301.20054
 20
-219.646269
 30
0.0
 11
-301.20054
 21
-218.396269
 31
0.0
  0
LINE
  5
23D
100
AcDbEntity
  8
2
370
    25
100
AcDbLine
 10
-301.20054
 20
-208.396269
 30
0.0
 11
-301.20054
 21
-207.146269
 31
0.0
  0
POINT
  5
23E
100
AcDbEntity
  8
2
370
    50
100
AcDbPoint
 10
-302.764411
 20
-208.396269
 30
0.0
  0
LINE
  5
23F
100
AcDbEntity
  8
2
370
    50
100
AcDbLine
 10
-172.264205
 20
-238.345521
 30
0.0
 11
-171.264205
 21
-239.345521
 31
0.0
  0
LINE
  5
240
100
AcDbEntity
  8
2
370
    50
100
AcDbLine
 10
-190.264205
 20
-238.345521
 30
0.0
 11
-191.264205
 21
-239.345521
 31
0.0
  0
LINE
  5
241
100
AcDbEntity
  8
2
370
    50
100
AcDbLine
 10
-190.264205
 20
-238.345521
 30
0.0
 11
-172.264205
 21
-238.345521
 31
0.0
  0
LINE
  5
242
100
AcDbEntity
  8
2
370
    50
100
AcDbLine
 10
-171.264205
 20
-239.345521
 30
0.0
 11
-191.264205
 21
-239.345521
 31
0.0
  0
LINE
  5
243
100
AcDbEntity
  8
2
370
    50
100
AcDbLine
 10
-173.764205
 20
-238.345521
 30
0.0
 11
-173.764205
 21
-237.945521
 31
0.0
  0
LINE
  5
244
100
AcDbEntity
  8
2
370
    50
100
AcDbLine
 10
-188.764205
 20
-238.345521
 30
0.0
 11
-188.764205
 21
-237.945521
 31
0.0
  0
LINE
  5
245
100
AcDbEntity
  8
2
370
    50
100
AcDbLine
 10
-171.264205
 20
-239.345521
 30
0.0
 11
-171.264205
 21
-248.145521
 31
0.0
  0
LINE
  5
246
100
AcDbEntity
  8
2
370
    50
100
AcDbLine
 10
-191.264205
 20
-239.345521
 30
0.0
 11
-191.264205
 21
-248.145521
 31
0.0
  0
LINE
  5
247
100
AcDbEntity
  8
2
370
    50
100
AcDbLine
 10
-191.591073
 20
-248.145521
 30
0.0
 11
-169.264205
 21
-248.145521
 31
0.0
  0
LINE
  5
248
100
AcDbEntity
  8
2
370
    50
100
AcDbLine
 10
-167.407799
 20
-250.001928
 30
0.0
 11
-167.407799
 21
-257.289115
 31
0.0
  0
LINE
  5
249
100
AcDbEntity
  8
2
370
    50
100
AcDbLine
 10
-195.120612
 20
-257.289115
 30
0.0
 11
-195.120612
 21
-250.001928
 31
0.0
  0
LINE
  5
24A
100
AcDbEntity
  8
2
370
    50
100
AcDbLine
 10
-193.264205
 20
-259.145521
 30
0.0
 11
-169.264205
 21
-259.145521
 31
0.0
  0
LINE
  5
24B
100
AcDbEntity
  8
2
370
    50
100
AcDbLine
 10
-174.336002
 20
-257.289115
 30
0.0
 11
-174.336002
 21
-250.001928
 31
0.0
  0
LINE
  5
24C
100
AcDbEntity
  8
2
370
    50
100
AcDbLine
 10
-188.192408
 20
-257.289115
 30
0.0
 11
-188.192408
 21
-250.001928
 31
0.0
  0
LINE
  5
24D
100
AcDbEntity
  8
2
370
    50
100
AcDbLine
 10
-193.264205
 20
-248.145521
 30
0.0
 11
-169.264205
 21
-248.145521
 31
0.0
  0
LINE
  5
24E
100
AcDbEntity
  8
2
370
    50
100
AcDbLine
 10
-169.264205
 20
-248.145521
 30
0.0
 11
-167.407799
 21
-250.001928
 31
0.0
  0
LINE
  5
24F
100
AcDbEntity
  8
2
370
    50
100
AcDbLine
 10
-193.264205
 20
-259.145521
 30
0.0
 11
-195.120612
 21
-257.289115
 31
0.0
  0
LINE
  5
250
100
AcDbEntity
  8
2
370
    50
100
AcDbLine
 10
-193.264205
 20
-248.145521
 30
0.0
 11
-195.120612
 21
-250.001928
 31
0.0
  0
LINE
  5
251
100
AcDbEntity
  8
2
370
    50
100
AcDbLine
 10
-169.264205
 20
-259.145521
 30
0.0
 11
-167.407799
 21
-257.289115
 31
0.0
  0
ARC
  5
252
100
AcDbEntity
  8
2
370
    50
100
AcDbCircle
 10
-181.264205
 20
-262.001928
 30
0.0
 40
13.856406
100
AcDbArc
 50
60.0
 51
120.0
  0
ARC
  5
253
100
AcDbEntity
  8
2
370
    50
100
AcDbCircle
 10
-181.264205
 20
-245.289115
 30
0.0
 40
13.856406
100
AcDbArc
 50
240.0
 51
300.0
  0
ARC
  5
254
100
AcDbEntity
  8
2
370
    50
100
AcDbCircle
 10
-170.937338
 20
-252.184821
 30
0.0
 40
4.039299
100
AcDbArc
 50
45.0
 51
147.288191
  0
ARC
  5
255
100
AcDbEntity
  8
2
370
    50
100
AcDbCircle
 10
-170.937338
 20
-255.106222
 30
0.0
 40
4.039299
100
AcDbArc
 50
212.711809
 51
315.0
  0
ARC
  5
256
100
AcDbEntity
  8
2
370
    50
100
AcDbCircle
 10
-191.591073
 20
-252.184821
 30
0.0
 40
4.039299
100
AcDbArc
 50
32.711809
 51
135.0
  0
ARC
  5
257
100
AcDbEntity
  8
2
370
    50
100
AcDbCircle
 10
-191.591073
 20
-255.106222
 30
0.0
 40
4.039299
100
AcDbArc
 50
225.0
 51
327.288191
  0
POINT
  5
258
100
AcDbEntity
  8
2
370
    50
100
AcDbPoint
 10
-181.264411
 20
-238.346269
 30
0.0
  0
POINT
  5
259
100
AcDbEntity
  8
2
370
    50
100
AcDbPoint
 10
-181.264205
 20
-238.345521
 30
0.0
  0
LINE
  5
25A
100
AcDbEntity
  8
2
370
    50
100
AcDbLine
 10
-305.264145
 20
-238.345521
 30
0.0
 11
-306.264145
 21
-239.345521
 31
0.0
  0
LINE
  5
25B
100
AcDbEntity
  8
2
370
    50
100
AcDbLine
 10
-287.264145
 20
-238.345521
 30
0.0
 11
-286.264145
 21
-239.345521
 31
0.0
  0
LINE
  5
25C
100
AcDbEntity
  8
2
370
    50
100
AcDbLine
 10
-306.264145
 20
-239.345521
 30
0.0
 11
-286.264145
 21
-239.345521
 31
0.0
  0
LINE
  5
25D
100
AcDbEntity
  8
2
370
    50
100
AcDbLine
 10
-306.264145
 20
-239.345521
 30
0.0
 11
-306.264145
 21
-248.145521
 31
0.0
  0
LINE
  5
25E
100
AcDbEntity
  8
2
370
    50
100
AcDbLine
 10
-286.264145
 20
-239.345521
 30
0.0
 11
-286.264145
 21
-248.145521
 31
0.0
  0
LINE
  5
25F
100
AcDbEntity
  8
2
370
    50
100
AcDbLine
 10
-285.937278
 20
-248.145521
 30
0.0
 11
-308.264145
 21
-248.145521
 31
0.0
  0
LINE
  5
260
100
AcDbEntity
  8
2
370
    50
100
AcDbLine
 10
-310.120552
 20
-250.001928
 30
0.0
 11
-310.120552
 21
-257.289115
 31
0.0
  0
LINE
  5
261
100
AcDbEntity
  8
2
370
    50
100
AcDbLine
 10
-282.407739
 20
-257.289115
 30
0.0
 11
-282.407739
 21
-250.001928
 31
0.0
  0
LINE
  5
262
100
AcDbEntity
  8
2
370
    50
100
AcDbLine
 10
-284.264145
 20
-259.145521
 30
0.0
 11
-308.264145
 21
-259.145521
 31
0.0
  0
LINE
  5
263
100
AcDbEntity
  8
2
370
    50
100
AcDbLine
 10
-303.192349
 20
-257.289115
 30
0.0
 11
-303.192349
 21
-250.001928
 31
0.0
  0
LINE
  5
264
100
AcDbEntity
  8
2
370
    50
100
AcDbLine
 10
-289.335942
 20
-257.289115
 30
0.0
 11
-289.335942
 21
-250.001928
 31
0.0
  0
LINE
  5
265
100
AcDbEntity
  8
2
370
    50
100
AcDbLine
 10
-284.264145
 20
-248.145521
 30
0.0
 11
-308.264145
 21
-248.145521
 31
0.0
  0
LINE
  5
266
100
AcDbEntity
  8
2
370
    50
100
AcDbLine
 10
-308.264145
 20
-248.145521
 30
0.0
 11
-310.120552
 21
-250.001928
 31
0.0
  0
LINE
  5
267
100
AcDbEntity
  8
2
370
    50
100
AcDbLine
 10
-284.264145
 20
-259.145521
 30
0.0
 11
-282.407739
 21
-257.289115
 31
0.0
  0
LINE
  5
268
100
AcDbEntity
  8
2
370
    50
100
AcDbLine
 10
-284.264145
 20
-248.145521
 30
0.0
 11
-282.407739
 21
-250.001928
 31
0.0
  0
LINE
  5
269
100
AcDbEntity
  8
2
370
    50
100
AcDbLine
 10
-308.264145
 20
-259.145521
 30
0.0
 11
-310.120552
 21
-257.289115
 31
0.0
  0
ARC
  5
26A
100
AcDbEntity
  8
2
370
    50
100
AcDbCircle
 10
-296.264145
 20
-262.001928
 30
0.0
 40
13.856406
100
AcDbArc
 50
60.0
 51
120.0
  0
ARC
  5
26B
100
AcDbEntity
  8
2
370
    50
100
AcDbCircle
 10
-296.264145
 20
-245.289115
 30
0.0
 40
13.856406
100
AcDbArc
 50
240.0
 51
300.0
  0
ARC
  5
26C
100
AcDbEntity
  8
2
370
    50
100
AcDbCircle
 10
-306.591013
 20
-252.184821
 30
0.0
 40
4.039299
100
AcDbArc
 50
32.711809
 51
135.0
  0
ARC
  5
26D
100
AcDbEntity
  8
2
370
    50
100
AcDbCircle
 10
-306.591013
 20
-255.106222
 30
0.0
 40
4.039299
100
AcDbArc
 50
225.0
 51
327.288191
  0
ARC
  5
26E
100
AcDbEntity
  8
2
370
    50
100
AcDbCircle
 10
-285.937278
 20
-252.184821
 30
0.0
 40
4.039299
100
AcDbArc
 50
45.0
 51
147.288191
  0
ARC
  5
26F
100
AcDbEntity
  8
2
370
    50
100
AcDbCircle
 10
-285.937278
 20
-255.106222
 30
0.0
 40
4.039299
100
AcDbArc
 50
212.711809
 51
315.0
  0
LINE
  5
270
100
AcDbEntity
  8
2
370
    50
100
AcDbLine
 10
-287.264145
 20
-238.345521
 30
0.0
 11
-305.264145
 21
-238.345521
 31
0.0
  0
LINE
  5
271
100
AcDbEntity
  8
2
370
    25
  6
CENTER
100
AcDbLine
 10
-231.264411
 20
-128.692213
 30
0.0
 11
-231.264411
 21
-229.609988
 31
0.0
  0
LINE
  5
272
100
AcDbEntity
  8
2
370
    25
  6
CENTER
100
AcDbLine
 10
-246.264411
 20
-128.692213
 30
0.0
 11
-246.264411
 21
-229.609988
 31
0.0
  0
LINE
  5
273
100
AcDbEntity
  8
2
370
    50
100
AcDbLine
 10
-240.764492
 20
-134.665206
 30
0.0
 11
-240.264492
 21
-134.953881
 31
0.0
  0
LINE
  5
274
100
AcDbEntity
  8
2
370
    50
100
AcDbLine
 10
-240.264492
 20
-140.276531
 30
0.0
 11
-240.264492
 21
-134.953881
 31
0.0
  0
LINE
  5
275
100
AcDbEntity
  8
2
370
    50
100
AcDbLine
 10
-240.302395
 20
-134.953881
 30
0.0
 11
-240.302395
 21
-140.276531
 31
0.0
  0
LINE
  5
276
100
AcDbEntity
  8
2
370
    50
100
AcDbLine
 10
-240.764492
 20
-140.565206
 30
0.0
 11
-240.264492
 21
-140.276531
 31
0.0
  0
ARC
  5
277
100
AcDbEntity
  8
2
370
    50
100
AcDbCircle
 10
-240.464492
 20
-140.765206
 30
0.0
 40
0.2
100
AcDbArc
 50
0.0
 51
90.0
  0
LINE
  5
278
100
AcDbEntity
  8
2
370
    50
100
AcDbLine
 10
-240.264492
 20
-143.565206
 30
0.0
 11
-240.264492
 21
-140.765206
 31
0.0
  0
LINE
  5
279
100
AcDbEntity
  8
2
370
    50
100
AcDbLine
 10
-240.264492
 20
-141.065206
 30
0.0
 11
-241.683055
 21
-141.065206
 31
0.0
  0
LINE
  5
27A
100
AcDbEntity
  8
2
370
    50
100
AcDbLine
 10
-240.264492
 20
-143.565206
 30
0.0
 11
-241.683055
 21
-143.565206
 31
0.0
  0
LINE
  5
27B
100
AcDbEntity
  8
2
370
    50
100
AcDbLine
 10
-240.285362
 20
-143.565206
 30
0.0
 11
-240.285362
 21
-141.065206
 31
0.0
  0
ARC
  5
27C
100
AcDbEntity
  8
2
370
    50
100
AcDbCircle
 10
-242.264492
 20
-145.065206
 30
0.0
 40
2.5
100
AcDbArc
 50
0.0
 51
36.869898
  0
LINE
  5
27D
100
AcDbEntity
  8
2
370
    25
100
AcDbLine
 10
-239.783751
 20
-157.565206
 30
0.0
 11
-239.783751
 21
-145.065206
 31
0.0
  0
LINE
  5
27E
100
AcDbEntity
  8
2
370
    50
100
AcDbLine
 10
-239.764492
 20
-157.565206
 30
0.0
 11
-239.764492
 21
-145.065206
 31
0.0
  0
LINE
  5
27F
100
AcDbEntity
  8
2
370
    25
100
AcDbLine
 10
-241.328363
 20
-157.565206
 30
0.0
 11
-241.328363
 21
-145.065206
 31
0.0
  0
LINE
  5
280
100
AcDbEntity
  8
2
370
    25
100
AcDbLine
 10
-242.03547
 20
-157.565206
 30
0.0
 11
-242.03547
 21
-145.065206
 31
0.0
  0
LINE
  5
281
100
AcDbEntity
  8
2
370
    50
100
AcDbLine
 10
-237.24346
 20
-143.565206
 30
0.0
 11
-237.24346
 21
-141.065206
 31
0.0
  0
POINT
  5
282
100
AcDbEntity
  8
2
370
    50
100
AcDbPoint
 10
-238.764411
 20
-134.665206
 30
0.0
  0
ARC
  5
283
100
AcDbEntity
  8
2
370
    50
100
AcDbCircle
 10
-234.13937
 20
-199.731927
 30
0.0
 40
4.791599
100
AcDbArc
 50
233.130102
 51
306.869898
  0
ARC
  5
284
100
AcDbEntity
  8
2
370
    50
100
AcDbCircle
 10
-228.389452
 20
-207.398485
 30
0.0
 40
4.791599
100
AcDbArc
 50
53.130102
 51
126.869898
  0
ARC
  5
285
100
AcDbEntity
  8
2
370
    50
100
AcDbCircle
 10
-228.389452
 20
-199.731927
 30
0.0
 40
4.791599
100
AcDbArc
 50
233.130102
 51
306.869898
  0
ARC
  5
286
100
AcDbEntity
  8
2
370
    50
100
AcDbCircle
 10
-249.139452
 20
-199.731819
 30
0.0
 40
4.791734
100
AcDbArc
 50
233.130102
 51
306.869898
  0
ARC
  5
287
100
AcDbEntity
  8
2
370
    50
100
AcDbCircle
 10
-243.38937
 20
-207.398594
 30
0.0
 40
4.791734
100
AcDbArc
 50
53.130102
 51
126.869898
  0
ARC
  5
288
100
AcDbEntity
  8
2
370
    50
100
AcDbCircle
 10
-243.38937
 20
-199.731819
 30
0.0
 40
4.791734
100
AcDbArc
 50
233.130102
 51
306.869898
  0
LINE
  5
289
100
AcDbEntity
  8
2
370
    50
100
AcDbLine
 10
118.160273
 20
-140.276531
 30
0.0
 11
118.160273
 21
-134.953882
 31
0.0
  0
LINE
  5
28A
100
AcDbEntity
  8
2
370
    50
100
AcDbLine
 10
106.160273
 20
-140.276531
 30
0.0
 11
106.160273
 21
-134.953882
 31
0.0
  0
LINE
  5
28B
100
AcDbEntity
  8
2
370
    50
100
AcDbLine
 10
106.360273
 20
-140.565206
 30
0.0
 11
117.960273
 21
-140.565206
 31
0.0
  0
LINE
  5
28C
100
AcDbEntity
  8
2
370
    50
100
AcDbLine
 10
109.762357
 20
-134.953882
 30
0.0
 11
109.762357
 21
-140.276531
 31
0.0
  0
LINE
  5
28D
100
AcDbEntity
  8
2
370
    50
100
AcDbLine
 10
108.596091
 20
-134.953882
 30
0.0
 11
108.596091
 21
-140.276531
 31
0.0
  0
LINE
  5
28E
100
AcDbEntity
  8
2
370
    50
100
AcDbLine
 10
106.198175
 20
-134.953882
 30
0.0
 11
106.198175
 21
-140.276531
 31
0.0
  0
LINE
  5
28F
100
AcDbEntity
  8
2
370
    50
100
AcDbLine
 10
106.660273
 20
-140.565206
 30
0.0
 11
106.160273
 21
-140.276531
 31
0.0
  0
LINE
  5
290
100
AcDbEntity
  8
2
370
    50
100
AcDbLine
 10
108.596091
 20
-140.276531
 30
0.0
 11
109.762357
 21
-140.276531
 31
0.0
  0
LINE
  5
291
100
AcDbEntity
  8
2
370
    50
100
AcDbLine
 10
118.160273
 20
-140.276531
 30
0.0
 11
117.660273
 21
-140.565206
 31
0.0
  0
LINE
  5
292
100
AcDbEntity
  8
2
370
    50
100
AcDbLine
 10
118.160273
 20
-134.953882
 30
0.0
 11
117.660273
 21
-134.665206
 31
0.0
  0
ARC
  5
293
100
AcDbEntity
  8
2
370
    50
100
AcDbCircle
 10
112.160273
 20
-130.461577
 30
0.0
 40
10.10363
100
AcDbArc
 50
256.270867
 51
270.0
  0
ARC
  5
294
100
AcDbEntity
  8
2
370
    50
100
AcDbCircle
 10
112.160273
 20
-144.768836
 30
0.0
 40
10.10363
100
AcDbArc
 50
90.0
 51
103.729133
  0
LINE
  5
295
100
AcDbEntity
  8
2
370
    50
100
AcDbLine
 10
108.596091
 20
-134.953882
 30
0.0
 11
109.762357
 21
-134.953882
 31
0.0
  0
LINE
  5
296
100
AcDbEntity
  8
2
370
    50
100
AcDbLine
 10
106.160273
 20
-140.276531
 30
0.0
 11
106.198175
 21
-140.276531
 31
0.0
  0
ARC
  5
297
100
AcDbEntity
  8
2
370
    50
100
AcDbCircle
 10
107.397133
 20
-137.931046
 30
0.0
 40
2.634161
100
AcDbArc
 50
242.924933
 51
297.075067
  0
ARC
  5
298
100
AcDbEntity
  8
2
370
    50
100
AcDbCircle
 10
107.397133
 20
-137.299367
 30
0.0
 40
2.634161
100
AcDbArc
 50
62.924933
 51
117.075067
  0
LINE
  5
299
100
AcDbEntity
  8
2
370
    50
100
AcDbLine
 10
106.660273
 20
-134.665206
 30
0.0
 11
106.160273
 21
-134.953882
 31
0.0
  0
LINE
  5
29A
100
AcDbEntity
  8
2
370
    50
100
AcDbLine
 10
118.660273
 20
-157.477021
 30
0.0
 11
118.660273
 21
-145.065206
 31
0.0
  0
LINE
  5
29B
100
AcDbEntity
  8
2
370
    50
100
AcDbLine
 10
105.660273
 20
-157.477021
 30
0.0
 11
105.660273
 21
-145.065206
 31
0.0
  0
LINE
  5
29C
100
AcDbEntity
  8
2
370
    50
100
AcDbLine
 10
116.034603
 20
-143.565206
 30
0.0
 11
116.034603
 21
-141.065206
 31
0.0
  0
LINE
  5
29D
100
AcDbEntity
  8
2
370
    50
100
AcDbLine
 10
116.74171
 20
-143.565206
 30
0.0
 11
116.74171
 21
-141.065206
 31
0.0
  0
LINE
  5
29E
100
AcDbEntity
  8
2
370
    50
100
AcDbLine
 10
118.139403
 20
-143.565206
 30
0.0
 11
118.139403
 21
-141.065206
 31
0.0
  0
LINE
  5
29F
100
AcDbEntity
  8
2
370
    50
100
AcDbLine
 10
118.160273
 20
-143.565206
 30
0.0
 11
118.160273
 21
-140.765206
 31
0.0
  0
LINE
  5
2A0
100
AcDbEntity
  8
2
370
    50
100
AcDbLine
 10
112.660273
 20
-143.565206
 30
0.0
 11
112.660273
 21
-141.065206
 31
0.0
  0
LINE
  5
2A1
100
AcDbEntity
  8
2
370
    50
100
AcDbLine
 10
111.660273
 20
-143.565206
 30
0.0
 11
111.660273
 21
-141.065206
 31
0.0
  0
LINE
  5
2A2
100
AcDbEntity
  8
2
370
    50
100
AcDbLine
 10
108.285943
 20
-143.565206
 30
0.0
 11
108.285943
 21
-141.065206
 31
0.0
  0
LINE
  5
2A3
100
AcDbEntity
  8
2
370
    50
100
AcDbLine
 10
107.578836
 20
-143.565206
 30
0.0
 11
107.578836
 21
-141.065206
 31
0.0
  0
LINE
  5
2A4
100
AcDbEntity
  8
2
370
    50
100
AcDbLine
 10
106.160273
 20
-143.565206
 30
0.0
 11
106.160273
 21
-140.765206
 31
0.0
  0
LINE
  5
2A5
100
AcDbEntity
  8
2
370
    50
100
AcDbLine
 10
106.181143
 20
-143.565206
 30
0.0
 11
106.181143
 21
-141.065206
 31
0.0
  0
LINE
  5
2A6
100
AcDbEntity
  8
2
370
    50
100
AcDbLine
 10
116.74171
 20
-141.065206
 30
0.0
 11
118.160273
 21
-141.065206
 31
0.0
  0
LINE
  5
2A7
100
AcDbEntity
  8
2
370
    50
100
AcDbLine
 10
112.660273
 20
-141.065206
 30
0.0
 11
116.034603
 21
-141.065206
 31
0.0
  0
LINE
  5
2A8
100
AcDbEntity
  8
2
370
    50
100
AcDbLine
 10
106.160273
 20
-141.065206
 30
0.0
 11
107.578836
 21
-141.065206
 31
0.0
  0
LINE
  5
2A9
100
AcDbEntity
  8
2
370
    50
100
AcDbLine
 10
108.285943
 20
-141.065206
 30
0.0
 11
111.660273
 21
-141.065206
 31
0.0
  0
LINE
  5
2AA
100
AcDbEntity
  8
2
370
    50
100
AcDbLine
 10
116.74171
 20
-143.565206
 30
0.0
 11
118.160273
 21
-143.565206
 31
0.0
  0
LINE
  5
2AB
100
AcDbEntity
  8
2
370
    50
100
AcDbLine
 10
112.660273
 20
-143.565206
 30
0.0
 11
116.034603
 21
-143.565206
 31
0.0
  0
LINE
  5
2AC
100
AcDbEntity
  8
2
370
    50
100
AcDbLine
 10
106.160273
 20
-143.565206
 30
0.0
 11
107.578836
 21
-143.565206
 31
0.0
  0
LINE
  5
2AD
100
AcDbEntity
  8
2
370
    50
100
AcDbLine
 10
108.285943
 20
-143.565206
 30
0.0
 11
111.660273
 21
-143.565206
 31
0.0
  0
ARC
  5
2AE
100
AcDbEntity
  8
2
370
    50
100
AcDbCircle
 10
106.360273
 20
-140.765206
 30
0.0
 40
0.2
100
AcDbArc
 50
90.0
 51
180.0
  0
ARC
  5
2AF
100
AcDbEntity
  8
2
370
    50
100
AcDbCircle
 10
117.960273
 20
-140.765206
 30
0.0
 40
0.2
100
AcDbArc
 50
0.0
 51
90.0
  0
ARC
  5
2B0
100
AcDbEntity
  8
2
370
    50
100
AcDbCircle
 10
116.160273
 20
-145.065206
 30
0.0
 40
2.5
100
AcDbArc
 50
0.0
 51
36.869898
  0
ARC
  5
2B1
100
AcDbEntity
  8
2
370
    50
100
AcDbCircle
 10
108.160273
 20
-145.065206
 30
0.0
 40
2.5
100
AcDbArc
 50
143.130102
 51
180.0
  0
LINE
  5
2B2
100
AcDbEntity
  8
2
370
    25
100
AcDbLine
 10
118.641014
 20
-157.477021
 30
0.0
 11
118.641014
 21
-145.065206
 31
0.0
  0
LINE
  5
2B3
100
AcDbEntity
  8
2
370
    25
100
AcDbLine
 10
117.096402
 20
-157.477021
 30
0.0
 11
117.096402
 21
-145.065206
 31
0.0
  0
LINE
  5
2B4
100
AcDbEntity
  8
2
370
    25
100
AcDbLine
 10
116.389295
 20
-157.477021
 30
0.0
 11
116.389295
 21
-145.065206
 31
0.0
  0
LINE
  5
2B5
100
AcDbEntity
  8
2
370
    25
100
AcDbLine
 10
112.660273
 20
-157.477021
 30
0.0
 11
112.660273
 21
-145.065206
 31
0.0
  0
LINE
  5
2B6
100
AcDbEntity
  8
2
370
    25
100
AcDbLine
 10
111.660273
 20
-157.477021
 30
0.0
 11
111.660273
 21
-145.065206
 31
0.0
  0
LINE
  5
2B7
100
AcDbEntity
  8
2
370
    25
100
AcDbLine
 10
107.931251
 20
-157.477021
 30
0.0
 11
107.931251
 21
-145.065206
 31
0.0
  0
LINE
  5
2B8
100
AcDbEntity
  8
2
370
    25
100
AcDbLine
 10
107.224144
 20
-157.477021
 30
0.0
 11
107.224144
 21
-145.065206
 31
0.0
  0
LINE
  5
2B9
100
AcDbEntity
  8
2
370
    25
100
AcDbLine
 10
105.679532
 20
-157.477021
 30
0.0
 11
105.679532
 21
-145.065206
 31
0.0
  0
LINE
  5
2BA
100
AcDbEntity
  8
2
370
    50
100
AcDbLine
 10
117.910273
 20
-203.565206
 30
0.0
 11
117.910273
 21
-161.477021
 31
0.0
  0
LINE
  5
2BB
100
AcDbEntity
  8
2
370
    50
100
AcDbLine
 10
106.410273
 20
-203.565206
 30
0.0
 11
106.410273
 21
-161.477021
 31
0.0
  0
LINE
  5
2BC
100
AcDbEntity
  8
2
370
    50
100
AcDbLine
 10
118.122371
 20
-140.276531
 30
0.0
 11
118.160273
 21
-140.276531
 31
0.0
  0
ARC
  5
2BD
100
AcDbEntity
  8
2
370
    50
100
AcDbCircle
 10
112.160111
 20
-130.461577
 30
0.0
 40
10.10363
100
AcDbArc
 50
270.0
 51
283.729133
  0
LINE
  5
2BE
100
AcDbEntity
  8
2
370
    50
100
AcDbLine
 10
115.724292
 20
-140.276531
 30
0.0
 11
114.558026
 21
-140.276531
 31
0.0
  0
ARC
  5
2BF
100
AcDbEntity
  8
2
370
    50
100
AcDbCircle
 10
116.92325
 20
-137.931046
 30
0.0
 40
2.634161
100
AcDbArc
 50
242.924933
 51
297.075067
  0
LINE
  5
2C0
100
AcDbEntity
  8
2
370
    50
100
AcDbLine
 10
115.724292
 20
-134.953882
 30
0.0
 11
115.724292
 21
-140.276531
 31
0.0
  0
LINE
  5
2C1
100
AcDbEntity
  8
2
370
    50
100
AcDbLine
 10
114.558026
 20
-134.953882
 30
0.0
 11
114.558026
 21
-140.276531
 31
0.0
  0
LINE
  5
2C2
100
AcDbEntity
  8
2
370
    50
100
AcDbLine
 10
118.122208
 20
-134.953882
 30
0.0
 11
118.122208
 21
-140.276531
 31
0.0
  0
ARC
  5
2C3
100
AcDbEntity
  8
2
370
    50
100
AcDbCircle
 10
112.160111
 20
-144.768836
 30
0.0
 40
10.10363
100
AcDbArc
 50
76.270867
 51
90.0
  0
LINE
  5
2C4
100
AcDbEntity
  8
2
370
    50
100
AcDbLine
 10
115.724292
 20
-134.953882
 30
0.0
 11
114.558026
 21
-134.953882
 31
0.0
  0
ARC
  5
2C5
100
AcDbEntity
  8
2
370
    50
100
AcDbCircle
 10
116.92325
 20
-137.299367
 30
0.0
 40
2.634161
100
AcDbArc
 50
62.924933
 51
117.075067
  0
LINE
  5
2C6
100
AcDbEntity
  8
2
370
    50
100
AcDbLine
 10
117.660273
 20
-134.665206
 30
0.0
 11
106.660273
 21
-134.665206
 31
0.0
  0
ARC
  5
2C7
100
AcDbEntity
  8
2
370
    50
100
AcDbCircle
 10
115.035273
 20
-207.566055
 30
0.0
 40
4.791667
100
AcDbArc
 50
53.130102
 51
126.869898
  0
ARC
  5
2C8
100
AcDbEntity
  8
2
370
    50
100
AcDbCircle
 10
109.285273
 20
-199.899388
 30
0.0
 40
4.791667
100
AcDbArc
 50
233.130102
 51
306.869898
  0
ARC
  5
2C9
100
AcDbEntity
  8
2
370
    50
100
AcDbCircle
 10
115.035273
 20
-199.899388
 30
0.0
 40
4.791667
100
AcDbArc
 50
233.130102
 51
306.869898
  0
LINE
  5
2CA
100
AcDbEntity
  8
2
370
    25
  6
CENTER
100
AcDbLine
 10
112.160192
 20
-132.055589
 30
0.0
 11
112.160192
 21
-207.613824
 31
0.0
  0
LINE
  5
2CB
100
AcDbEntity
  8
2
370
    50
100
AcDbLine
 10
97.960192
 20
-157.477021
 30
0.0
 11
137.960192
 21
-157.477021
 31
0.0
  0
HATCH
  5
2CC
100
AcDbEntity
  8
2
370
    25
100
AcDbHatch
 10
0.0
 20
0.0
 30
0.0
210
0.0
220
0.0
230
1.0
  2
_U
 70
     0
 71
     1
 91
        1
 92
        1
 93
        4
 72
     1
 10
-216.764411
 20
-130.66520600000001
 11
-260.764411
 21
-130.66520600000001
 72
     1
 10
-260.764411
 20
-130.66520600000001
 11
-260.764411
 21
-133.66520600000001
 72
     1
 10
-260.764411
 20
-133.66520600000001
 11
-216.764411
 21
-133.66520600000001
 72
     1
 10
-216.764411
 20
-133.66520600000001
 11
-216.764411
 21
-130.66520600000001
 97
        4
330
0
330
0
330
0
330
0
 75
     0
 76
     0
 52
45.0
 41
1.0
 77
     0
 78
     1
 53
45.0
 43
0.0
 44
0.0
 45
-1.4142140000000001
 46
1.4142140000000001
 79
     0
 98
        1
 10
0.0
 20
0.0
  0
HATCH
  5
2CD
100
AcDbEntity
  8
2
370
    25
100
AcDbHatch
 10
0.0
 20
0.0
 30
0.0
210
0.0
220
0.0
230
1.0
  2
_U
 70
     0
 71
     1
 91
        1
 92
        1
 93
        4
 72
     1
 10
137.160192
 20
-130.66520600000001
 11
93.160191999999995
 21
-130.66520600000001
 72
     1
 10
93.160191999999995
 20
-130.66520600000001
 11
93.160191999999995
 21
-133.66520600000001
 72
     1
 10
93.160191999999995
 20
-133.66520600000001
 11
137.160192
 21
-133.66520600000001
 72
     1
 10
137.160192
 20
-133.66520600000001
 11
137.160192
 21
-130.66520600000001
 97
        4
330
0
330
0
330
0
330
0
 75
     0
 76
     0
 52
45.0
 41
1.0
 77
     0
 78
     1
 53
45.0
 43
0.0
 44
0.0
 45
-1.4142140000000001
 46
1.4142140000000001
 79
     0
 98
        1
 10
0.0
 20
0.0
  0
LINE
  5
2CE
100
AcDbEntity
  8
2
370
    50
100
AcDbLine
 10
97.660192
 20
234.328767
 30
0.0
 11
132.660192
 21
234.328767
 31
0.0
  0
LINE
  5
2CF
100
AcDbEntity
  8
2
370
    50
100
AcDbLine
 10
97.660192
 20
265.503767
 30
0.0
 11
97.660192
 21
234.328767
 31
0.0
  0
LINE
  5
2D0
100
AcDbEntity
  8
2
370
    50
100
AcDbLine
 10
132.660192
 20
234.328767
 30
0.0
 11
132.660192
 21
275.028767
 31
0.0
  0
LINE
  5
2D1
100
AcDbEntity
  8
2
370
    50
100
AcDbLine
 10
132.360192
 20
234.028767
 30
0.0
 11
97.960192
 21
234.028767
 31
0.0
  0
LINE
  5
2D2
100
AcDbEntity
  8
2
370
    50
100
AcDbLine
 10
97.660192
 20
234.328767
 30
0.0
 11
97.960192
 21
234.028767
 31
0.0
  0
LINE
  5
2D3
100
AcDbEntity
  8
2
370
    50
100
AcDbLine
 10
132.360192
 20
234.028767
 30
0.0
 11
132.660192
 21
234.328767
 31
0.0
  0
LINE
  5
2D4
100
AcDbEntity
  8
2
370
    25
  6
CENTER
100
AcDbLine
 10
115.160192
 20
275.028767
 30
0.0
 11
115.160192
 21
203.15817
 31
0.0
  0
LINE
  5
2D5
100
AcDbEntity
  8
2
370
    50
100
AcDbLine
 10
132.660192
 20
212.178766
 30
0.0
 11
132.660192
 21
211.428766
 31
0.0
  0
LINE
  5
2D6
100
AcDbEntity
  8
2
370
    50
100
AcDbLine
 10
132.660192
 20
218.678766
 30
0.0
 11
132.660192
 21
219.428766
 31
0.0
  0
LINE
  5
2D7
100
AcDbEntity
  8
2
370
    50
100
AcDbLine
 10
132.660192
 20
224.00929
 30
0.0
 11
132.660192
 21
215.428766
 31
0.0
  0
ARC
  5
2D8
100
AcDbEntity
  8
2
370
    50
100
AcDbCircle
 10
115.160192
 20
275.028767
 30
0.0
 40
9.525
100
AcDbArc
 50
270.0
 51
360.0
  0
ARC
  5
2D9
100
AcDbEntity
  8
2
370
    50
100
AcDbCircle
 10
115.160192
 20
275.028767
 30
0.0
 40
9.6
100
AcDbArc
 50
262.833357
 51
360.0
  0
ARC
  5
2DA
100
AcDbEntity
  8
2
370
    50
100
AcDbCircle
 10
115.160192
 20
275.028767
 30
0.0
 40
17.2
100
AcDbArc
 50
213.626661
 51
360.0
  0
ARC
  5
2DB
100
AcDbEntity
  8
2
370
    50
100
AcDbCircle
 10
115.160192
 20
275.028767
 30
0.0
 40
17.5
100
AcDbArc
 50
212.975865
 51
360.0
  0
LINE
  5
2DC
100
AcDbEntity
  8
2
370
    50
100
AcDbLine
 10
-221.264411
 20
-18.465207
 30
0.0
 11
-221.564411
 21
-18.165207
 31
0.0
  0
LINE
  5
2DD
100
AcDbEntity
  8
2
370
    50
100
AcDbLine
 10
-255.964411
 20
-18.165207
 30
0.0
 11
-221.564411
 21
-18.165207
 31
0.0
  0
LINE
  5
2DE
100
AcDbEntity
  8
2
370
    50
100
AcDbLine
 10
-256.264412
 20
-18.465207
 30
0.0
 11
-255.964412
 21
-18.165207
 31
0.0
  0
LINE
  5
2DF
100
AcDbEntity
  8
2
370
    50
100
AcDbLine
 10
132.660192
 20
-18.465207
 30
0.0
 11
132.360192
 21
-18.165207
 31
0.0
  0
LINE
  5
2E0
100
AcDbEntity
  8
2
370
    50
100
AcDbLine
 10
-221.264411
 20
-18.465207
 30
0.0
 11
-256.264411
 21
-18.465207
 31
0.0
  0
LINE
  5
2E1
100
AcDbEntity
  8
2
370
    50
100
AcDbLine
 10
97.660192
 20
-8.465207
 30
0.0
 11
97.660192
 21
-16.68392
 31
0.0
  0
LINE
  5
2E2
100
AcDbEntity
  8
2
370
    50
100
AcDbLine
 10
132.660192
 20
-8.465207
 30
0.0
 11
132.660192
 21
-17.865207
 31
0.0
  0
LINE
  5
2E3
100
AcDbEntity
  8
2
370
    50
100
AcDbLine
 10
132.660192
 20
-17.865207
 30
0.0
 11
132.360192
 21
-18.165207
 31
0.0
  0
LINE
  5
2E4
100
AcDbEntity
  8
2
370
    50
100
AcDbLine
 10
132.360192
 20
-8.165207
 30
0.0
 11
132.660192
 21
-8.465207
 31
0.0
  0
LINE
  5
2E5
100
AcDbEntity
  8
2
370
    50
100
AcDbLine
 10
97.960192
 20
-8.165207
 30
0.0
 11
97.660192
 21
-8.465207
 31
0.0
  0
LINE
  5
2E6
100
AcDbEntity
  8
2
370
    50
100
AcDbLine
 10
-255.964411
 20
-8.165207
 30
0.0
 11
-221.564411
 21
-8.165207
 31
0.0
  0
LINE
  5
2E7
100
AcDbEntity
  8
2
370
    50
100
AcDbLine
 10
-221.264411
 20
-8.465207
 30
0.0
 11
-221.264411
 21
-17.865207
 31
0.0
  0
LINE
  5
2E8
100
AcDbEntity
  8
2
370
    50
100
AcDbLine
 10
-256.264411
 20
-8.465207
 30
0.0
 11
-256.264411
 21
-17.865207
 31
0.0
  0
LINE
  5
2E9
100
AcDbEntity
  8
2
370
    50
100
AcDbLine
 10
-221.264411
 20
-8.465207
 30
0.0
 11
-221.564411
 21
-8.165207
 31
0.0
  0
LINE
  5
2EA
100
AcDbEntity
  8
2
370
    50
100
AcDbLine
 10
-256.264411
 20
-8.465207
 30
0.0
 11
-255.964411
 21
-8.165207
 31
0.0
  0
LINE
  5
2EB
100
AcDbEntity
  8
2
370
    50
100
AcDbLine
 10
-221.264411
 20
-17.865207
 30
0.0
 11
-221.564411
 21
-18.165207
 31
0.0
  0
LINE
  5
2EC
100
AcDbEntity
  8
2
370
    50
100
AcDbLine
 10
-255.964411
 20
-18.165207
 30
0.0
 11
-256.264411
 21
-17.865207
 31
0.0
  0
LINE
  5
2ED
100
AcDbEntity
  8
2
370
    50
100
AcDbLine
 10
-221.264411
 20
-8.465207
 30
0.0
 11
-256.264411
 21
-8.465207
 31
0.0
  0
LINE
  5
2EE
100
AcDbEntity
  8
2
370
    50
100
AcDbLine
 10
-221.264411
 20
-17.865207
 30
0.0
 11
-256.264411
 21
-17.865207
 31
0.0
  0
LINE
  5
2EF
100
AcDbEntity
  8
2
370
    50
100
AcDbLine
 10
118.160193
 20
-166.477021
 30
0.0
 11
131.160193
 21
-166.477021
 31
0.0
  0
LINE
  5
2F0
100
AcDbEntity
  8
2
370
    50
100
AcDbLine
 10
117.154639
 20
-209.658322
 30
0.0
 11
117.154639
 21
-204.401056
 31
0.0
  0
LINE
  5
2F1
100
AcDbEntity
  8
2
370
    50
100
AcDbLine
 10
132.165746
 20
-209.658322
 30
0.0
 11
132.165746
 21
-167.482575
 31
0.0
  0
LINE
  5
2F2
100
AcDbEntity
  8
2
370
    50
100
AcDbLine
 10
131.160193
 20
-166.477021
 30
0.0
 11
132.165746
 21
-167.482575
 31
0.0
  0
LINE
  5
2F3
100
AcDbEntity
  8
2
370
    50
100
AcDbLine
 10
118.160193
 20
-166.477021
 30
0.0
 11
117.910273
 21
-166.726941
 31
0.0
  0
LINE
  5
2F4
100
AcDbEntity
  8
2
370
    50
100
AcDbLine
 10
128.412969
 20
-208.339846
 30
0.0
 11
128.412969
 21
-167.482575
 31
0.0
  0
ARC
  5
2F5
100
AcDbEntity
  8
2
370
    50
100
AcDbCircle
 10
130.253912
 20
-168.664975
 30
0.0
 40
2.187954
100
AcDbArc
 50
45.0
 51
147.288191
  0
ARC
  5
2F6
100
AcDbEntity
  8
2
370
    50
100
AcDbCircle
 10
124.660193
 20
-173.982575
 30
0.0
 40
7.505554
100
AcDbArc
 50
60.0
 51
120.0
  0
LINE
  5
2F7
100
AcDbEntity
  8
2
370
    50
100
AcDbLine
 10
118.660193
 20
-161.477021
 30
0.0
 11
130.660193
 21
-161.477021
 31
0.0
  0
LINE
  5
2F8
100
AcDbEntity
  8
2
370
    50
100
AcDbLine
 10
118.160193
 20
-166.477021
 30
0.0
 11
118.160193
 21
-161.977021
 31
0.0
  0
LINE
  5
2F9
100
AcDbEntity
  8
2
370
    50
100
AcDbLine
 10
131.160193
 20
-166.477021
 30
0.0
 11
131.160193
 21
-161.977021
 31
0.0
  0
LINE
  5
2FA
100
AcDbEntity
  8
2
370
    50
100
AcDbLine
 10
118.660193
 20
-161.477021
 30
0.0
 11
118.160193
 21
-161.977021
 31
0.0
  0
LINE
  5
2FB
100
AcDbEntity
  8
2
370
    50
100
AcDbLine
 10
130.660193
 20
-161.477021
 30
0.0
 11
131.160193
 21
-161.977021
 31
0.0
  0
LINE
  5
2FC
100
AcDbEntity
  8
2
370
    25
100
AcDbLine
 10
131.160193
 20
-161.977021
 30
0.0
 11
118.160193
 21
-161.977021
 31
0.0
  0
HATCH
  5
2FD
100
AcDbEntity
  8
2
370
    25
100
AcDbHatch
 10
0.0
 20
0.0
 30
0.0
210
0.0
220
0.0
230
1.0
  2
_U
 70
     0
 71
     1
 91
        1
 92
        1
 93
        1
 72
     2
 10
-201.264411
 20
-45.509762000000002
 40
1.0
 50
0.0
 51
360.0
 73
     1
 97
        1
330
0
 75
     0
 76
     0
 52
45.0
 41
1.0
 77
     0
 78
     1
 53
45.0
 43
0.0
 44
0.0
 45
-0.707107
 46
0.707107
 79
     0
 98
        1
 10
0.0
 20
0.0
  0
HATCH
  5
2FE
100
AcDbEntity
  8
2
370
    25
100
AcDbHatch
 10
0.0
 20
0.0
 30
0.0
210
0.0
220
0.0
230
1.0
  2
_U
 70
     0
 71
     1
 91
        1
 92
        1
 93
        1
 72
     2
 10
-201.264411
 20
-51.915207000000002
 40
1.0
 50
0.0
 51
360.0
 73
     1
 97
        1
330
0
 75
     0
 76
     0
 52
45.0
 41
1.0
 77
     0
 78
     1
 53
45.0
 43
0.0
 44
0.0
 45
-0.424264
 46
0.424264
 79
     0
 98
        1
 10
0.0
 20
0.0
  0
ARC
  5
2FF
100
AcDbEntity
  8
2
370
    50
100
AcDbCircle
 10
119.066473
 20
-168.664975
 30
0.0
 40
2.187954
100
AcDbArc
 50
32.711809
 51
121.015696
  0
LINE
  5
300
100
AcDbEntity
  8
2
370
    50
100
AcDbLine
 10
120.907416
 20
-210.976798
 30
0.0
 11
120.907416
 21
-167.482575
 31
0.0
  0
LINE
  5
301
100
AcDbEntity
  8
2
370
    50
100
AcDbLine
 10
-245.263964
 20
-231.477021
 30
0.0
 11
-232.264857
 21
-231.477021
 31
0.0
  0
LINE
  5
302
100
AcDbEntity
  8
2
370
    50
100
AcDbLine
 10
-240.51433
 20
-166.477021
 30
0.0
 11
-237.014492
 21
-166.477021
 31
0.0
  0
LINE
  5
303
100
AcDbEntity
  8
2
370
    50
100
AcDbLine
 10
-246.269964
 20
-230.471021
 30
0.0
 11
-246.269964
 21
-204.236383
 31
0.0
  0
LINE
  5
304
100
AcDbEntity
  8
2
370
    50
100
AcDbLine
 10
-231.258857
 20
-230.471021
 30
0.0
 11
-231.258857
 21
-203.808633
 31
0.0
  0
LINE
  5
305
100
AcDbEntity
  8
2
370
    50
100
AcDbLine
 10
-231.258857
 20
-230.471021
 30
0.0
 11
-232.264857
 21
-231.477021
 31
0.0
  0
LINE
  5
306
100
AcDbEntity
  8
2
370
    50
100
AcDbLine
 10
-246.269964
 20
-230.471021
 30
0.0
 11
-245.263964
 21
-231.477021
 31
0.0
  0
LINE
  5
307
100
AcDbEntity
  8
2
370
    50
100
AcDbLine
 10
-235.011634
 20
-230.471021
 30
0.0
 11
-235.011634
 21
-204.812189
 31
0.0
  0
ARC
  5
308
100
AcDbEntity
  8
2
370
    50
100
AcDbCircle
 10
-238.764411
 20
-173.982575
 30
0.0
 40
7.505554
100
AcDbArc
 50
76.517412
 51
103.482588
  0
ARC
  5
309
100
AcDbEntity
  8
2
370
    50
100
AcDbCircle
 10
-238.764411
 20
-223.974353
 30
0.0
 40
7.502669
100
AcDbArc
 50
239.98728
 51
300.01272
  0
ARC
  5
30A
100
AcDbEntity
  8
2
370
    50
100
AcDbCircle
 10
-233.170821
 20
-229.289831
 30
0.0
 40
2.187191
100
AcDbArc
 50
212.68699
 51
315.0
  0
LINE
  5
30B
100
AcDbEntity
  8
2
370
    25
  6
CENTER
100
AcDbLine
 10
-238.764411
 20
-231.85253
 30
0.0
 11
-238.764411
 21
-159.056736
 31
0.0
  0
LINE
  5
30C
100
AcDbEntity
  8
2
370
    25
100
AcDbLine
 10
-237.014492
 20
-161.977021
 30
0.0
 11
-240.51433
 21
-161.977021
 31
0.0
  0
LINE
  5
30D
100
AcDbEntity
  8
2
370
    50
100
AcDbLine
 10
-242.517188
 20
-230.471021
 30
0.0
 11
-242.517188
 21
-204.763299
 31
0.0
  0
ARC
  5
30E
100
AcDbEntity
  8
2
370
    50
100
AcDbCircle
 10
-244.358
 20
-229.289831
 30
0.0
 40
2.187191
100
AcDbArc
 50
225.0
 51
327.31301
  0
LINE
  5
30F
100
AcDbEntity
  8
2
370
    50
100
AcDbLine
 10
97.660192
 20
-126.165206
 30
0.0
 11
97.660192
 21
-68.297902
 31
0.0
  0
LINE
  5
310
100
AcDbEntity
  8
2
370
    50
100
AcDbLine
 10
97.660192
 20
-50.493102
 30
0.0
 11
97.660192
 21
-25.331111
 31
0.0
  0
ARC
  5
311
100
AcDbEntity
  8
2
370
    50
100
AcDbCircle
 10
-198.022896
 20
-102.165898
 30
0.0
 40
56.0
100
AcDbArc
 50
88.814623
 51
89.735531
  0
ARC
  5
312
100
AcDbEntity
  8
2
370
    50
100
AcDbCircle
 10
-198.022896
 20
-19.163786
 30
0.0
 40
56.0
100
AcDbArc
 50
270.264469
 51
277.02255
  0
LINE
  5
313
100
AcDbEntity
  8
2
370
    50
100
AcDbLine
 10
133.660192
 20
220.628767
 30
0.0
 11
132.660192
 21
220.628767
 31
0.0
  0
LINE
  5
314
100
AcDbEntity
  8
2
370
    50
100
AcDbLine
 10
132.660192
 20
218.628767
 30
0.0
 11
132.660192
 21
219.628767
 31
0.0
  0
LINE
  5
315
100
AcDbEntity
  8
2
370
    50
100
AcDbLine
 10
133.660192
 20
212.628767
 30
0.0
 11
132.660192
 21
212.628767
 31
0.0
  0
LINE
  5
316
100
AcDbEntity
  8
2
370
    50
100
AcDbLine
 10
133.660192
 20
212.628767
 30
0.0
 11
133.660192
 21
220.628767
 31
0.0
  0
ARC
  5
317
100
AcDbEntity
  8
2
370
    50
100
AcDbCircle
 10
126.731624
 20
216.628763
 30
0.0
 40
8.0
100
AcDbArc
 50
330.000002
 51
30.000002
  0
ARC
  5
318
100
AcDbEntity
  8
2
370
    50
100
AcDbCircle
 10
156.660884
 20
234.287252
 30
0.0
 40
56.0
100
AcDbArc
 50
180.264469
 51
181.185377
  0
ARC
  5
319
100
AcDbEntity
  8
2
370
    50
100
AcDbCircle
 10
73.658772
 20
234.287252
 30
0.0
 40
56.0
100
AcDbArc
 50
352.97745
 51
359.735531
  0
POINT
  5
31A
100
AcDbEntity
  8
2
370
    50
100
AcDbPoint
 10
115.160192
 20
207.628766
 30
0.0
  0
POINT
  5
31B
100
AcDbEntity
  8
2
370
    50
100
AcDbPoint
 10
115.160192
 20
233.128766
 30
0.0
  0
LINE
  5
31C
100
AcDbEntity
  8
2
370
    25
  6
CENTER
100
AcDbLine
 10
115.160192
 20
199.220494
 30
0.0
 11
115.160192
 21
237.445834
 31
0.0
  0
POINT
  5
31D
100
AcDbEntity
  8
2
370
    50
100
AcDbPoint
 10
115.160192
 20
233.128766
 30
0.0
  0
LINE
  5
31E
100
AcDbEntity
  8
2
370
    50
100
AcDbLine
 10
97.660192
 20
205.207479
 30
0.0
 11
97.660192
 21
233.128766
 31
0.0
  0
LINE
  5
31F
100
AcDbEntity
  8
2
370
    50
100
AcDbLine
 10
97.660192
 20
233.128766
 30
0.0
 11
115.160192
 21
233.128766
 31
0.0
  0
LINE
  5
320
100
AcDbEntity
  8
2
370
    50
100
AcDbLine
 10
115.160192
 20
233.128766
 30
0.0
 11
132.660192
 21
226.058307
 31
0.0
  0
LINE
  5
321
100
AcDbEntity
  8
2
370
    50
100
AcDbLine
 10
132.660192
 20
210.873773
 30
0.0
 11
132.660192
 21
226.058307
 31
0.0
  0
ARC
  5
322
100
AcDbEntity
  8
2
370
    50
100
AcDbCircle
 10
-439.985716
 20
2126.3951
 30
0.0
 40
2000.0
100
AcDbArc
 50
284.075162
 51
286.616596
  0
LINE
  5
323
100
AcDbEntity
  8
2
370
    50
100
AcDbLine
 10
45.160192
 20
190.503018
 30
0.0
 11
45.160192
 21
187.410016
 31
0.0
  0
ARC
  5
324
100
AcDbEntity
  8
2
370
    50
100
AcDbCircle
 10
-439.985716
 20
2126.3951
 30
0.0
 40
1995.0
100
AcDbArc
 50
284.096755
 51
285.822292
  0
LINE
  5
325
100
AcDbEntity
  8
2
370
    50
100
AcDbLine
 10
115.530192
 20
215.538766
 30
0.0
 11
110.100279
 21
210.452208
 31
0.0
  0
ARC
  5
326
100
AcDbEntity
  8
2
370
    50
100
AcDbCircle
 10
99.886915
 20
221.354999
 30
0.0
 40
14.939333
100
AcDbArc
 50
285.822292
 51
313.13
  0
ARC
  5
327
100
AcDbEntity
  8
2
370
    50
100
AcDbCircle
 10
46.160192
 20
187.410016
 30
0.0
 40
1.0
100
AcDbArc
 50
180.0
 51
284.075162
  0
ARC
  5
328
100
AcDbEntity
  8
2
370
    50
100
AcDbCircle
 10
131.660192
 20
210.873773
 30
0.0
 40
1.0
100
AcDbArc
 50
286.616596
 51
360.0
  0
ARC
  5
329
100
AcDbEntity
  8
2
370
    50
100
AcDbCircle
 10
46.160192
 20
190.503018
 30
0.0
 40
1.0
100
AcDbArc
 50
104.096755
 51
180.0
  0
POINT
  5
32A
100
AcDbEntity
  8
2
370
    50
100
AcDbPoint
 10
71.978198
 20
193.031981
 30
0.0
  0
POINT
  5
32B
100
AcDbEntity
  8
2
370
    50
100
AcDbPoint
 10
70.698289
 20
197.865389
 30
0.0
  0
LINE
  5
32C
100
AcDbEntity
  8
2
370
    25
  6
CENTER
100
AcDbLine
 10
62.000237
 20
-7.505251
 30
0.0
 11
115.160193
 21
-60.665207
 31
0.0
  0
ARC
  5
32D
100
AcDbEntity
  8
2
370
    50
100
AcDbCircle
 10
115.160193
 20
-60.665207
 30
0.0
 40
17.5
100
AcDbArc
 50
227.23929
 51
42.76071
  0
ARC
  5
32E
100
AcDbEntity
  8
2
370
    50
100
AcDbCircle
 10
277.794752
 20
-223.299767
 30
0.0
 40
300.0
100
AcDbArc
 50
132.850452
 51
137.149548
  0
ARC
  5
32F
100
AcDbEntity
  8
2
370
    50
100
AcDbCircle
 10
79.209311
 20
-9.225428
 30
0.0
 40
8.0
100
AcDbArc
 50
44.549344
 51
132.850452
  0
ARC
  5
330
100
AcDbEntity
  8
2
370
    50
100
AcDbCircle
 10
-1340.382609
 20
-1406.659784
 30
0.0
 40
2000.0
100
AcDbArc
 50
42.76071
 51
44.549344
  0
ARC
  5
331
100
AcDbEntity
  8
2
370
    50
100
AcDbCircle
 10
1461.15477
 20
1394.877595
 30
0.0
 40
2000.0
100
AcDbArc
 50
225.450656
 51
227.23929
  0
ARC
  5
332
100
AcDbEntity
  8
2
370
    50
100
AcDbCircle
 10
63.720413
 20
-24.714325
 30
0.0
 40
8.0
100
AcDbArc
 50
137.149548
 51
225.450656
  0
ARC
  5
333
100
AcDbEntity
  8
2
370
    50
100
AcDbCircle
 10
-1340.382609
 20
-1406.659784
 30
0.0
 40
1994.0
100
AcDbArc
 50
43.451183
 51
44.43566
  0
ARC
  5
334
100
AcDbEntity
  8
2
370
    50
100
AcDbCircle
 10
1461.15477
 20
1394.877595
 30
0.0
 40
1994.0
100
AcDbArc
 50
225.56434
 51
226.548817
  0
ARC
  5
335
100
AcDbEntity
  8
2
370
    50
100
AcDbCircle
 10
277.794752
 20
-223.299767
 30
0.0
 40
292.0
100
AcDbArc
 50
133.225657
 51
136.774343
  0
ARC
  5
336
100
AcDbEntity
  8
2
370
    50
100
AcDbCircle
 10
-40.049746
 20
94.544732
 30
0.0
 40
200.0
100
AcDbArc
 50
312.576808
 51
317.423192
  0
ARC
  5
337
100
AcDbEntity
  8
2
370
    50
100
AcDbCircle
 10
80.551191
 20
-13.445108
 30
0.0
 40
4.0
100
AcDbArc
 50
44.43566
 51
133.225657
  0
ARC
  5
338
100
AcDbEntity
  8
2
370
    50
100
AcDbCircle
 10
67.940094
 20
-26.056206
 30
0.0
 40
4.0
100
AcDbArc
 50
136.774343
 51
225.56434
  0
ARC
  5
339
100
AcDbEntity
  8
2
370
    50
100
AcDbCircle
 10
104.278971
 20
-38.064549
 30
0.0
 40
4.0
100
AcDbArc
 50
317.423192
 51
43.451183
  0
ARC
  5
33A
100
AcDbEntity
  8
2
370
    50
100
AcDbCircle
 10
92.559535
 20
-49.783986
 30
0.0
 40
4.0
100
AcDbArc
 50
226.548817
 51
312.576808
  0
POINT
  5
33B
100
AcDbEntity
  8
2
370
    50
100
AcDbPoint
 10
84.910483
 20
-3.613242
 30
0.0
  0
POINT
  5
33C
100
AcDbEntity
  8
2
370
    50
100
AcDbPoint
 10
73.768614
 20
-3.360377
 30
0.0
  0
ARC
  5
33D
100
AcDbEntity
  8
2
370
    25
  6
PHANTOM
100
AcDbCircle
 10
882.156406
 20
1767.454882
 30
0.0
 40
1994.0
100
AcDbArc
 50
245.56434
 51
246.548817
  0
ARC
  5
33E
100
AcDbEntity
  8
2
370
    25
  6
PHANTOM
100
AcDbCircle
 10
882.156406
 20
1767.454882
 30
0.0
 40
2000.0
100
AcDbArc
 50
245.450656
 51
247.23929
  0
ARC
  5
33F
100
AcDbEntity
  8
2
370
    25
  6
PHANTOM
100
AcDbCircle
 10
54.526686
 20
-44.475869
 30
0.0
 40
8.0
100
AcDbArc
 50
157.149548
 51
245.450656
  0
ARC
  5
340
100
AcDbEntity
  8
2
370
    25
  6
PHANTOM
100
AcDbCircle
 10
323.610984
 20
-157.867407
 30
0.0
 40
300.0
100
AcDbArc
 50
155.288907
 51
157.149548
  0
ARC
  5
341
100
AcDbEntity
  8
2
370
    25
  6
PHANTOM
100
AcDbCircle
 10
58.950838
 20
-44.293609
 30
0.0
 40
4.0
100
AcDbArc
 50
156.774343
 51
245.56434
  0
ARC
  5
342
100
AcDbEntity
  8
2
370
    25
  6
PHANTOM
100
AcDbCircle
 10
323.610984
 20
-157.867407
 30
0.0
 40
292.0
100
AcDbArc
 50
155.288907
 51
156.774343
  0
ARC
  5
343
100
AcDbEntity
  8
2
370
    25
  6
PHANTOM
100
AcDbCircle
 10
-1778.276706
 20
526.874547
 30
0.0
 40
2000.0
100
AcDbArc
 50
343.028747
 51
344.549344
  0
ARC
  5
344
100
AcDbEntity
  8
2
370
    25
  6
PHANTOM
100
AcDbCircle
 10
141.732907
 20
-3.810941
 30
0.0
 40
8.0
100
AcDbArc
 50
344.549344
 51
72.850452
  0
ARC
  5
345
100
AcDbEntity
  8
2
370
    25
  6
PHANTOM
100
AcDbCircle
 10
55.631812
 20
-282.828147
 30
0.0
 40
300.0
100
AcDbArc
 50
72.850452
 51
77.149548
  0
ARC
  5
346
100
AcDbEntity
  8
2
370
    25
  6
PHANTOM
100
AcDbCircle
 10
120.57468
 20
1.858389
 30
0.0
 40
8.0
100
AcDbArc
 50
77.149548
 51
165.450656
  0
ARC
  5
347
100
AcDbEntity
  8
2
370
    25
  6
PHANTOM
100
AcDbCircle
 10
2048.694524
 20
-498.559303
 30
0.0
 40
2000.0
100
AcDbArc
 50
165.450656
 51
166.230171
  0
ARC
  5
348
100
AcDbEntity
  8
2
370
    25
  6
PHANTOM
100
AcDbCircle
 10
2048.694524
 20
-498.559303
 30
0.0
 40
1994.0
100
AcDbArc
 50
165.56434
 51
166.230171
  0
ARC
  5
349
100
AcDbEntity
  8
2
370
    25
  6
PHANTOM
100
AcDbCircle
 10
121.522417
 20
-2.466901
 30
0.0
 40
4.0
100
AcDbArc
 50
76.774343
 51
165.56434
  0
ARC
  5
34A
100
AcDbEntity
  8
2
370
    25
  6
PHANTOM
100
AcDbCircle
 10
55.631812
 20
-282.828147
 30
0.0
 40
292.0
100
AcDbArc
 50
73.225657
 51
76.774343
  0
ARC
  5
34B
100
AcDbEntity
  8
2
370
    25
  6
PHANTOM
100
AcDbCircle
 10
138.749497
 20
-7.082883
 30
0.0
 40
4.0
100
AcDbArc
 50
344.43566
 51
73.225657
  0
ARC
  5
34C
100
AcDbEntity
  8
2
370
    25
  6
PHANTOM
100
AcDbCircle
 10
-1778.276706
 20
526.874547
 30
0.0
 40
1994.0
100
AcDbArc
 50
343.540678
 51
344.43566
  0
LINE
  5
34D
100
AcDbEntity
  8
2
370
    50
100
AcDbLine
 10
97.660192
 20
-8.465207
 30
0.0
 11
115.160193
 21
-8.465207
 31
0.0
  0
LINE
  5
34E
100
AcDbEntity
  8
2
370
    50
100
AcDbLine
 10
115.160193
 20
-8.465207
 30
0.0
 11
132.660192
 21
-8.465207
 31
0.0
  0
LINE
  5
34F
100
AcDbEntity
  8
2
370
    50
100
AcDbLine
 10
97.960192
 20
-8.165207
 30
0.0
 11
115.160193
 21
-8.165207
 31
0.0
  0
LINE
  5
350
100
AcDbEntity
  8
2
370
    50
100
AcDbLine
 10
115.160193
 20
-8.165207
 30
0.0
 11
132.360192
 21
-8.165207
 31
0.0
  0
LINE
  5
351
100
AcDbEntity
  8
2
370
    50
100
AcDbLine
 10
99.379807
 20
-18.465207
 30
0.0
 11
113.353298
 21
-18.465207
 31
0.0
  0
LINE
  5
352
100
AcDbEntity
  8
2
370
    50
100
AcDbLine
 10
113.353298
 20
-18.465207
 30
0.0
 11
132.660192
 21
-18.465207
 31
0.0
  0
LINE
  5
353
100
AcDbEntity
  8
2
370
    50
100
AcDbLine
 10
99.090492
 20
-18.165207
 30
0.0
 11
113.427743
 21
-18.165207
 31
0.0
  0
LINE
  5
354
100
AcDbEntity
  8
2
370
    50
100
AcDbLine
 10
113.427743
 20
-18.165207
 30
0.0
 11
132.360192
 21
-18.165207
 31
0.0
  0
LINE
  5
355
100
AcDbEntity
  8
2
370
    50
100
AcDbLine
 10
98.801056
 20
-17.865207
 30
0.0
 11
113.502237
 21
-17.865207
 31
0.0
  0
LINE
  5
356
100
AcDbEntity
  8
2
370
    50
100
AcDbLine
 10
113.502237
 20
-17.865207
 30
0.0
 11
132.660192
 21
-17.865207
 31
0.0
  0
LINE
  5
357
100
AcDbEntity
  8
2
370
    25
  6
CENTER
100
AcDbLine
 10
135.702663
 20
16.000336
 30
0.0
 11
115.160193
 21
-60.665207
 31
0.0
  0
LINE
  5
358
100
AcDbEntity
  8
2
370
    25
  6
CENTER
100
AcDbLine
 10
42.897968
 20
-26.968778
 30
0.0
 11
115.160193
 21
-60.665207
 31
0.0
  0
LINE
  5
359
100
AcDbEntity
  8
2
370
    50
100
AcDbLine
 10
-168.943123
 20
-43.165207
 30
0.0
 11
-196.86441
 21
-43.165207
 31
0.0
  0
LINE
  5
35A
100
AcDbEntity
  8
2
370
    50
100
AcDbLine
 10
-196.86441
 20
-43.165207
 30
0.0
 11
-196.86441
 21
-60.665207
 31
0.0
  0
LINE
  5
35B
100
AcDbEntity
  8
2
370
    50
100
AcDbLine
 10
-196.86441
 20
-60.665207
 30
0.0
 11
-189.793952
 21
-78.165207
 31
0.0
  0
LINE
  5
35C
100
AcDbEntity
  8
2
370
    50
100
AcDbLine
 10
-174.609417
 20
-78.165207
 30
0.0
 11
-189.793952
 21
-78.165207
 31
0.0
  0
ARC
  5
35D
100
AcDbEntity
  8
2
370
    50
100
AcDbCircle
 10
-2090.130745
 20
494.480702
 30
0.0
 40
2000.0
100
AcDbArc
 50
343.383404
 51
345.924838
  0
LINE
  5
35E
100
AcDbEntity
  8
2
370
    50
100
AcDbLine
 10
-154.238662
 20
9.334793
 30
0.0
 11
-151.145661
 21
9.334793
 31
0.0
  0
ARC
  5
35F
100
AcDbEntity
  8
2
370
    50
100
AcDbCircle
 10
-2090.130745
 20
494.480702
 30
0.0
 40
1995.0
100
AcDbArc
 50
344.177708
 51
345.903245
  0
LINE
  5
360
100
AcDbEntity
  8
2
370
    50
100
AcDbLine
 10
-179.27441
 20
-61.035207
 30
0.0
 11
-174.187852
 21
-55.605293
 31
0.0
  0
ARC
  5
361
100
AcDbEntity
  8
2
370
    50
100
AcDbCircle
 10
-185.090643
 20
-45.391929
 30
0.0
 40
14.939333
100
AcDbArc
 50
316.87
 51
344.177708
  0
ARC
  5
362
100
AcDbEntity
  8
2
370
    50
100
AcDbCircle
 10
-151.145661
 20
8.334793
 30
0.0
 40
1.0
100
AcDbArc
 50
345.924838
 51
90.0
  0
ARC
  5
363
100
AcDbEntity
  8
2
370
    50
100
AcDbCircle
 10
-174.609417
 20
-77.165207
 30
0.0
 40
1.0
100
AcDbArc
 50
270.0
 51
343.383404
  0
ARC
  5
364
100
AcDbEntity
  8
2
370
    50
100
AcDbCircle
 10
-154.238662
 20
8.334793
 30
0.0
 40
1.0
100
AcDbArc
 50
90.0
 51
165.903245
  0
POINT
  5
365
100
AcDbEntity
  8
2
370
    50
100
AcDbPoint
 10
-196.76441
 20
-60.665207
 30
0.0
  0
ARC
  5
366
100
AcDbEntity
  8
2
370
    25
  6
PHANTOM
100
AcDbCircle
 10
-1744.301788
 20
1163.32463
 30
0.0
 40
1995.0
100
AcDbArc
 50
322.429265
 51
323.903245
  0
ARC
  5
367
100
AcDbEntity
  8
2
370
    25
  6
PHANTOM
100
AcDbCircle
 10
-1744.301788
 20
1163.32463
 30
0.0
 40
2000.0
100
AcDbArc
 50
321.383404
 51
321.462693
  0
ARC
  5
368
100
AcDbEntity
  8
2
370
    25
  6
PHANTOM
100
AcDbCircle
 10
-128.619587
 20
-13.778605
 30
0.0
 40
1.0
100
AcDbArc
 50
323.924838
 51
68.0
  0
LINE
  5
369
100
AcDbEntity
  8
2
370
    25
  6
PHANTOM
100
AcDbLine
 10
-131.112761
 20
-11.692762
 30
0.0
 11
-128.244981
 21
-12.851421
 31
0.0
  0
ARC
  5
36A
100
AcDbEntity
  8
2
370
    25
  6
PHANTOM
100
AcDbCircle
 10
-131.487368
 20
-12.619946
 30
0.0
 40
1.0
100
AcDbArc
 50
68.0
 51
143.903245
  0
LINE
  5
36B
100
AcDbEntity
  8
2
370
    25
  6
PHANTOM
100
AcDbLine
 10
-182.778274
 20
-85.19033
 30
0.0
 11
-196.857129
 21
-79.502104
 31
0.0
  0
LINE
  5
36C
100
AcDbEntity
  8
2
370
    25
  6
PHANTOM
100
AcDbLine
 10
-196.857129
 20
-76.757928
 30
0.0
 11
-196.857129
 21
-79.502104
 31
0.0
  0
ARC
  5
36D
100
AcDbEntity
  8
2
370
    25
  6
PHANTOM
100
AcDbCircle
 10
-182.403667
 20
-84.263147
 30
0.0
 40
1.0
100
AcDbArc
 50
248.0
 51
321.383404
  0
POINT
  5
36E
100
AcDbEntity
  8
2
370
    50
100
AcDbPoint
 10
-180.36441
 20
-78.165207
 30
0.0
  0
LINE
  5
36F
100
AcDbEntity
  8
2
370
    50
100
AcDbLine
 10
-184.364407
 20
-79.165208
 30
0.0
 11
-184.364407
 21
-78.165208
 31
0.0
  0
ARC
  5
370
100
AcDbEntity
  8
2
370
    50
100
AcDbCircle
 10
-180.364407
 20
-72.237005
 30
0.0
 40
8.0
100
AcDbArc
 50
239.999998
 51
299.999998
  0
LINE
  5
371
100
AcDbEntity
  8
2
370
    50
100
AcDbLine
 10
-176.364407
 20
-79.165208
 30
0.0
 11
-176.364407
 21
-78.165208
 31
0.0
  0
LINE
  5
372
100
AcDbEntity
  8
2
370
    50
100
AcDbLine
 10
-176.364407
 20
-79.165208
 30
0.0
 11
-184.364407
 21
-79.165208
 31
0.0
  0
LINE
  5
373
100
AcDbEntity
  8
2
370
    50
100
AcDbLine
 10
-184.364403
 20
-79.164843
 30
0.0
 11
-184.364403
 21
-78.164843
 31
0.0
  0
ARC
  5
374
100
AcDbEntity
  8
2
370
    50
100
AcDbCircle
 10
-180.364403
 20
-72.23664
 30
0.0
 40
8.0
100
AcDbArc
 50
239.999998
 51
299.999998
  0
LINE
  5
375
100
AcDbEntity
  8
2
370
    50
100
AcDbLine
 10
-176.364403
 20
-79.164843
 30
0.0
 11
-176.364403
 21
-78.164843
 31
0.0
  0
ARC
  5
376
100
AcDbEntity
  8
2
370
    25
  6
PHANTOM
100
AcDbCircle
 10
-185.893464
 20
-77.53794
 30
0.0
 40
8.0
100
AcDbArc
 50
217.999998
 51
277.999998
  0
LINE
  5
377
100
AcDbEntity
  8
2
370
    25
  6
PHANTOM
100
AcDbLine
 10
-184.780079
 20
-85.460084
 30
0.0
 11
-192.19755
 21
-82.463232
 31
0.0
  0
LINE
  5
378
100
AcDbEntity
  8
2
370
    25
  6
PHANTOM
100
AcDbLine
 10
-192.19755
 20
-82.463232
 30
0.0
 11
-191.822943
 21
-81.536048
 31
0.0
  0
LINE
  5
379
100
AcDbEntity
  8
2
370
    25
  6
PHANTOM
100
AcDbLine
 10
-184.780079
 20
-85.460084
 30
0.0
 11
-184.405472
 21
-84.532901
 31
0.0
  0
ARC
  5
37A
100
AcDbEntity
  8
2
370
    25
  6
PHANTOM
100
AcDbCircle
 10
-1744.301788
 20
1163.32463
 30
0.0
 40
2000.0
100
AcDbArc
 50
322.345285
 51
323.924838
  0
POINT
  5
37B
100
AcDbEntity
  8
2
370
    50
100
AcDbPoint
 10
-149.86441
 20
9.334793
 30
0.0
  0
POINT
  5
37C
100
AcDbEntity
  8
2
370
    50
100
AcDbPoint
 10
-127.057026
 20
-13.331386
 30
0.0
  0
POINT
  5
37D
100
AcDbEntity
  8
2
370
    50
100
AcDbPoint
 10
123.760192
 20
-8.165207
 30
0.0
  0
LINE
  5
37E
100
AcDbEntity
  8
2
370
    50
100
AcDbLine
 10
105.635192
 20
130.587672
 30
0.0
 11
105.635192
 21
-8.165207
 31
0.0
  0
LINE
  5
37F
100
AcDbEntity
  8
2
370
    50
100
AcDbLine
 10
124.685192
 20
130.587672
 30
0.0
 11
124.685192
 21
-8.165207
 31
0.0
  0
LINE
  5
380
100
AcDbEntity
  8
2
370
    50
100
AcDbLine
 10
38.320378
 20
145.816119
 30
0.0
 11
3.426245
 21
49.945276
 31
0.0
  0
LINE
  5
381
100
AcDbEntity
  8
2
370
    50
100
AcDbLine
 10
56.221523
 20
139.300635
 30
0.0
 11
21.32739
 21
43.429792
 31
0.0
  0
LINE
  5
382
100
AcDbEntity
  8
2
370
    50
100
AcDbLine
 10
21.303897
 20
43.438343
 30
0.0
 11
21.132887
 21
42.968497
 31
0.0
  0
LINE
  5
383
100
AcDbEntity
  8
2
370
    50
100
AcDbLine
 10
3.449738
 20
49.936726
 30
0.0
 11
3.278728
 21
49.466879
 31
0.0
  0
LINE
  5
384
100
AcDbEntity
  8
2
370
    50
100
AcDbLine
 10
4.172016
 20
48.503242
 30
0.0
 11
4.377228
 21
49.067058
 31
0.0
  0
LINE
  5
385
100
AcDbEntity
  8
2
370
    50
100
AcDbLine
 10
3.278728
 20
49.466879
 30
0.0
 11
21.132887
 21
42.968497
 31
0.0
  0
LINE
  5
386
100
AcDbEntity
  8
2
370
    50
100
AcDbLine
 10
4.377228
 20
49.067058
 30
0.0
 11
4.497535
 21
48.384763
 31
0.0
  0
LINE
  5
387
100
AcDbEntity
  8
2
370
    50
100
AcDbLine
 10
3.426245
 20
49.945276
 30
0.0
 11
21.32739
 21
43.429792
 31
0.0
  0
LINE
  5
388
100
AcDbEntity
  8
2
370
    50
100
AcDbLine
 10
20.756665
 20
41.934835
 30
0.0
 11
14.258282
 21
24.080675
 31
0.0
  0
LINE
  5
389
100
AcDbEntity
  8
2
370
    50
100
AcDbLine
 10
2.902505
 20
48.433217
 30
0.0
 11
-3.595877
 21
30.579058
 31
0.0
  0
LINE
  5
38A
100
AcDbEntity
  8
2
370
    50
100
AcDbLine
 10
13.617426
 20
23.781839
 30
0.0
 11
-3.297041
 21
29.938201
 31
0.0
  0
ARC
  5
38B
100
AcDbEntity
  8
2
370
    50
100
AcDbCircle
 10
-3.126031
 20
30.408048
 30
0.0
 40
0.5
100
AcDbArc
 50
160.0
 51
250.0
  0
ARC
  5
38C
100
AcDbEntity
  8
2
370
    50
100
AcDbCircle
 10
3.372352
 20
48.262207
 30
0.0
 40
0.5
100
AcDbArc
 50
70.0
 51
160.0
  0
ARC
  5
38D
100
AcDbEntity
  8
2
370
    50
100
AcDbCircle
 10
20.286819
 20
42.105845
 30
0.0
 40
0.5
100
AcDbArc
 50
340.0
 51
70.0
  0
LINE
  5
38E
100
AcDbEntity
  8
2
370
    50
100
AcDbLine
 10
20.457829
 20
42.575691
 30
0.0
 11
3.543362
 21
48.732054
 31
0.0
  0
ARC
  5
38F
100
AcDbEntity
  8
2
370
    50
100
AcDbCircle
 10
13.788436
 20
24.251685
 30
0.0
 40
0.5
100
AcDbArc
 50
250.0
 51
340.0
  0
LINE
  5
390
100
AcDbEntity
  8
2
370
    50
100
AcDbLine
 10
20.034387
 20
43.368318
 30
0.0
 11
19.503656
 21
42.922982
 31
0.0
  0
LINE
  5
391
100
AcDbEntity
  8
2
370
    50
100
AcDbLine
 10
19.829175
 20
42.804503
 30
0.0
 11
20.034387
 21
43.368318
 31
0.0
  0
LINE
  5
392
100
AcDbEntity
  8
2
370
    25
  6
CENTER
100
AcDbLine
 10
2.199869
 20
18.726598
 30
0.0
 11
47.270951
 21
142.558377
 31
0.0
  0
LINE
  5
393
100
AcDbEntity
  8
2
370
    25
  6
CENTER
100
AcDbLine
 10
115.160192
 20
130.587672
 30
0.0
 11
115.160193
 21
-140.256561
 31
0.0
  0
ARC
  5
394
100
AcDbEntity
  8
2
370
    25
  6
CENTER
100
AcDbCircle
 10
80.160192
 20
130.587672
 30
0.0
 40
35.0
100
AcDbArc
 50
0.0
 51
160.0
  0
ARC
  5
395
100
AcDbEntity
  8
2
370
    50
100
AcDbCircle
 10
80.160192
 20
130.587672
 30
0.0
 40
44.525
100
AcDbArc
 50
0.0
 51
160.0
  0
ARC
  5
396
100
AcDbEntity
  8
2
370
    50
100
AcDbCircle
 10
80.160192
 20
130.587672
 30
0.0
 40
25.475
100
AcDbArc
 50
0.0
 51
160.0
  0
POINT
  5
397
100
AcDbEntity
  8
2
370
    50
100
AcDbPoint
 10
120.907416
 20
-198.976798
 30
0.0
  0
ARC
  5
398
100
AcDbEntity
  8
2
370
    50
100
AcDbCircle
 10
120.907416
 20
-204.976798
 30
0.0
 40
6.0
100
AcDbArc
 50
231.283839
 51
308.716165
  0
ARC
  5
399
100
AcDbEntity
  8
2
370
    50
100
AcDbCircle
 10
128.412969
 20
-214.339846
 30
0.0
 40
6.0
100
AcDbArc
 50
51.283839
 51
128.716165
  0
ARC
  5
39A
100
AcDbEntity
  8
2
370
    50
100
AcDbCircle
 10
128.412969
 20
-204.976798
 30
0.0
 40
6.0
100
AcDbArc
 50
231.283835
 51
308.716162
  0
POINT
  5
39B
100
AcDbEntity
  8
2
370
    50
100
AcDbPoint
 10
80.160192
 20
175.112672
 30
0.0
  0
LINE
  5
39C
100
AcDbEntity
  8
2
370
    50
100
AcDbLine
 10
-229.239412
 20
165.587672
 30
0.0
 11
-229.239412
 21
-8.165207
 31
0.0
  0
LINE
  5
39D
100
AcDbEntity
  8
2
370
    50
100
AcDbLine
 10
-248.289412
 20
165.587672
 30
0.0
 11
-248.289412
 21
-8.165207
 31
0.0
  0
ARC
  5
39E
100
AcDbEntity
  8
2
370
    50
100
AcDbCircle
 10
-238.764412
 20
165.587672
 30
0.0
 40
9.525
100
AcDbArc
 50
0.0
 51
180.0
  0
ELLIPSE
  5
39F
100
AcDbEntity
  8
2
370
    50
100
AcDbEllipse
 10
-238.764412
 20
45.982888
 30
0.0
 11
9.5250000000000004
 21
0.0
 31
0.0
210
0.0
220
0.0
230
1.0
 40
0.422618
 41
6.2268689999999998
 42
3.1979090000000001
  0
ELLIPSE
  5
3A0
100
AcDbEntity
  8
2
370
    50
100
AcDbEllipse
 10
-238.764412
 20
45.529734
 30
0.0
 11
9.5250000000000004
 21
0.0
 31
0.0
210
0.0
220
0.0
230
1.0
 40
0.422618
 41
6.2155009999999997
 42
3.2092770000000002
  0
ELLIPSE
  5
3A1
100
AcDbEntity
  8
2
370
    50
100
AcDbEllipse
 10
-238.764412
 20
44.985949
 30
0.0
 11
9.5250000000000004
 21
0.0
 31
0.0
210
0.0
220
0.0
230
1.0
 40
0.421509
 41
0.0
 42
3.1415929999999999
  0
ELLIPSE
  5
3A2
100
AcDbEntity
  8
2
370
    50
100
AcDbEllipse
 10
-238.764412
 20
26.859794
 30
0.0
 11
9.0
 21
0.0
 31
0.0
210
0.0
220
0.0
230
1.0
 40
0.422618
 41
0.0
 42
6.2831849999999996
  0
ELLIPSE
  5
3A3
100
AcDbEntity
  8
2
370
    50
100
AcDbEllipse
 10
-238.764412
 20
27.312948
 30
0.0
 11
9.5250000000000004
 21
0.0
 31
0.0
210
0.0
220
0.0
230
1.0
 40
0.421509
 41
5.7277360000000002
 42
3.6970420000000002
  0
ELLIPSE
  5
3A4
100
AcDbEntity
  8
2
370
    50
100
AcDbEllipse
 10
-238.764412
 20
26.859794
 30
0.0
 11
7.75
 21
0.0
 31
0.0
210
0.0
220
0.0
230
1.0
 40
0.422618
 41
0.0
 42
6.2831849999999996
  0
ELLIPSE
  5
3A5
100
AcDbEntity
  8
2
370
    50
100
AcDbEllipse
 10
-238.764412
 20
26.859794
 30
0.0
 11
6.5
 21
0.0
 31
0.0
210
0.0
220
0.0
230
1.0
 40
0.394732
 41
0.0
 42
6.2831849999999996
  0
ELLIPSE
  5
3A6
100
AcDbEntity
  8
2
370
    50
100
AcDbEllipse
 10
5.160037
 20
275.028767
 30
0.0
 11
0.0
 21
9.5250000000000004
 31
0.0
210
0.0
220
0.0
230
1.0
 40
0.903929
 41
1.5707960000000001
 42
3.1415929999999999
  0
ELLIPSE
  5
3A7
100
AcDbEntity
  8
2
370
    50
100
AcDbEllipse
 10
13.612402
 20
275.028767
 30
0.0
 11
0.0
 21
9.5250000000000004
 31
0.0
210
0.0
220
0.0
230
1.0
 40
0.903929
 41
1.5707960000000001
 42
3.1563189999999999
  0
ELLIPSE
  5
3A8
100
AcDbEntity
  8
2
370
    50
100
AcDbEllipse
 10
13.865973
 20
275.028767
 30
0.0
 11
0.0
 21
9.5250000000000004
 31
0.0
210
0.0
220
0.0
230
1.0
 40
0.903929
 41
1.5707960000000001
 42
3.1415929999999999
  0
ELLIPSE
  5
3A9
100
AcDbEntity
  8
2
370
    50
100
AcDbEllipse
 10
14.077282
 20
275.028767
 30
0.0
 11
0.0
 21
9.5250000000000004
 31
0.0
210
0.0
220
0.0
230
1.0
 40
0.903929
 41
1.5707960000000001
 42
3.1415929999999999
  0
LINE
  5
3AA
100
AcDbEntity
  8
2
370
    50
100
AcDbLine
 10
5.160037
 20
265.503767
 30
0.0
 11
115.160192
 21
265.503767
 31
0.0
  0
ELLIPSE
  5
3AB
100
AcDbEntity
  8
2
370
    25
  6
PHANTOM
100
AcDbEllipse
 10
30.895184
 20
204.32203
 30
0.0
 11
-6.1225519999999998
 21
7.2965730000000004
 31
0.0
210
0.0
220
0.0
230
1.0
 40
0.903929
 41
1.5707960000000001
 42
3.1415929999999999
  0
ELLIPSE
  5
3AC
100
AcDbEntity
  8
2
370
    25
  6
PHANTOM
100
AcDbEllipse
 10
37.370072
 20
209.755106
 30
0.0
 11
-6.1225519999999998
 21
7.2965730000000004
 31
0.0
210
0.0
220
0.0
230
1.0
 40
0.903929
 41
1.5707960000000001
 42
3.1563189999999999
  0
ELLIPSE
  5
3AD
100
AcDbEntity
  8
2
370
    25
  6
PHANTOM
100
AcDbEllipse
 10
37.564319
 20
209.918098
 30
0.0
 11
-6.1225519999999998
 21
7.2965730000000004
 31
0.0
210
0.0
220
0.0
230
1.0
 40
0.903929
 41
1.5707960000000001
 42
3.1415929999999999
  0
ELLIPSE
  5
3AE
100
AcDbEntity
  8
2
370
    25
  6
PHANTOM
100
AcDbEllipse
 10
37.726191
 20
210.053925
 30
0.0
 11
-6.1225519999999998
 21
7.2965730000000004
 31
0.0
210
0.0
220
0.0
230
1.0
 40
0.903929
 41
1.5707960000000001
 42
3.1415929999999999
  0
LINE
  5
3AF
100
AcDbEntity
  8
2
370
    25
  6
PHANTOM
100
AcDbLine
 10
37.017736
 20
197.025457
 30
0.0
 11
43.492624
 21
202.458533
 31
0.0
  0
LINE
  5
3B0
100
AcDbEntity
  8
2
370
    25
  6
PHANTOM
100
AcDbLine
 10
43.686871
 20
202.621525
 30
0.0
 11
106.738326
 21
255.527978
 31
0.0
  0
ELLIPSE
  5
3B1
100
AcDbEntity
  8
2
370
    25
  6
PHANTOM
100
AcDbEllipse
 10
30.895184
 20
204.32203
 30
0.0
 11
-6.1225519999999998
 21
7.2965730000000004
 31
0.0
210
0.0
220
0.0
230
1.0
 40
0.903929
 41
0.0
 42
1.5707960000000001
  0
ELLIPSE
  5
3B2
100
AcDbEntity
  8
2
370
    25
  6
PHANTOM
100
AcDbEllipse
 10
37.370072
 20
209.755106
 30
0.0
 11
-6.1225519999999998
 21
7.2965730000000004
 31
0.0
210
0.0
220
0.0
230
1.0
 40
0.903929
 41
6.268459
 42
1.5707960000000001
  0
ELLIPSE
  5
3B3
100
AcDbEntity
  8
2
370
    25
  6
PHANTOM
100
AcDbEllipse
 10
37.564319
 20
209.918098
 30
0.0
 11
-6.1225519999999998
 21
7.2965730000000004
 31
0.0
210
0.0
220
0.0
230
1.0
 40
0.903929
 41
0.0
 42
1.5707960000000001
  0
ELLIPSE
  5
3B4
100
AcDbEntity
  8
2
370
    25
  6
PHANTOM
100
AcDbEllipse
 10
37.726191
 20
210.053925
 30
0.0
 11
-6.1225519999999998
 21
7.2965730000000004
 31
0.0
210
0.0
220
0.0
230
1.0
 40
0.903929
 41
0.0
 42
1.5707960000000001
  0
LINE
  5
3B5
100
AcDbEntity
  8
2
370
    25
  6
PHANTOM
100
AcDbLine
 10
24.772632
 20
211.618604
 30
0.0
 11
31.24752
 21
217.051679
 31
0.0
  0
LINE
  5
3B6
100
AcDbEntity
  8
2
370
    25
  6
PHANTOM
100
AcDbLine
 10
31.441767
 20
217.214671
 30
0.0
 11
94.493222
 21
270.121124
 31
0.0
  0
TEXT
  5
3B7
100
AcDbEntity
  8
3
370
    50
100
AcDbText
 10
143.996262
 20
-202.194681
 30
0.0
 40
6.0
  1
１３六角
 72
     5
 11
166.796262
 21
-202.194681
 31
0.0
100
AcDbText
  0
TEXT
  5
3B8
100
AcDbEntity
  8
3
370
    50
100
AcDbText
 10
-157.980895
 20
-258.858067
 30
0.0
 40
7.0
  1
２４六角
 72
     5
 11
-131.380895
 21
-258.858067
 31
0.0
100
AcDbText
  0
TEXT
  5
3B9
100
AcDbEntity
  8
3
370
    50
100
AcDbText
 10
-162.511572
 20
-271.716786
 30
0.0
 40
7.0
  1
Ｇ１/２
 72
     5
 11
-139.411572
 21
-271.716786
 31
0.0
100
AcDbText
  0
LWPOLYLINE
  5
3BA
100
AcDbEntity
  8
3
370
    25
100
AcDbPolyline
 90
        3
 70
     0
 10
-171.94657
 20
-259.145521
 10
-163.211394
 20
-272.664356
 10
-139.141867
 20
-272.664356
  0
LINE
  5
3BF
100
AcDbEntity
  8
3
370
    25
100
AcDbLine
 10
-169.849691
 20
-262.390718
 30
0.0
 11
-168.980143
 21
-261.828861
 31
0.0
  0
LINE
  5
3C0
100
AcDbEntity
  8
3
370
    25
100
AcDbLine
 10
-168.980143
 20
-261.828861
 30
0.0
 11
-171.94657
 21
-259.145521
 31
0.0
  0
LINE
  5
3C1
100
AcDbEntity
  8
3
370
    25
100
AcDbLine
 10
-171.94657
 20
-259.145521
 30
0.0
 11
-170.719238
 21
-262.952575
 31
0.0
  0
LINE
  5
3C2
100
AcDbEntity
  8
3
370
    25
100
AcDbLine
 10
-170.719238
 20
-262.952575
 30
0.0
 11
-169.849691
 21
-262.390718
 31
0.0
  0
LWPOLYLINE
  5
3C3
100
AcDbEntity
  8
3
370
    25
100
AcDbPolyline
 90
        3
 70
     0
 10
-167.40821
 20
-251.869175
 10
-159.466812
 20
-259.505207
 10
-129.33432
 20
-259.505207
  0
LINE
  5
3C8
100
AcDbEntity
  8
3
370
    25
100
AcDbLine
 10
-164.623138
 20
-254.547155
 30
0.0
 11
-163.905575
 21
-253.800897
 31
0.0
  0
LINE
  5
3C9
100
AcDbEntity
  8
3
370
    25
100
AcDbLine
 10
-163.905575
 20
-253.800897
 30
0.0
 11
-167.40821
 21
-251.869175
 31
0.0
  0
LINE
  5
3CA
100
AcDbEntity
  8
3
370
    25
100
AcDbLine
 10
-167.40821
 20
-251.869175
 30
0.0
 11
-165.3407
 21
-255.293413
 31
0.0
  0
LINE
  5
3CB
100
AcDbEntity
  8
3
370
    25
100
AcDbLine
 10
-165.3407
 20
-255.293413
 30
0.0
 11
-164.623138
 21
-254.547155
 31
0.0
  0
TEXT
  5
3CC
100
AcDbEntity
  8
3
370
    50
100
AcDbText
 10
142.636749
 20
6.962937
 30
0.0
 40
7.0
  1
湯側
 72
     5
 11
155.236749
 21
6.962937
 31
0.0
100
AcDbText
  0
TEXT
  5
3CD
100
AcDbEntity
  8
3
370
    50
100
AcDbText
 10
32.599127
 20
-37.03528
 30
0.0
 40
7.0
  1
水側
 72
     5
 11
45.199127
 21
-37.03528
 31
0.0
100
AcDbText
  0
DIMENSION
  5
3CE
100
AcDbEntity
  8
3
370
    25
100
AcDbDimension
  2
*D0
 10
248.27037
 20
-60.665206
 30
0.0
 11
240.27037
 21
-95.665206
 31
0.0
 71
     0
 72
     0
 41
0.0
 42
0.0
  3
Standard
100
AcDbAlignedDimension
 13
138.560192
 23
-130.665206
 33
0.0
 14
137.163086
 24
-60.665206
 34
0.0
 50
90.0
100
AcDbRotatedDimension
  0
TEXT
  5
3CF
100
AcDbEntity
  8
3
370
    50
100
AcDbText
 10
-118.672249
 20
-20.783766
 30
0.0
 40
7.0
  1
吐水
 72
     5
 11
-106.072249
 21
-20.783766
 31
0.0
100
AcDbText
  0
TEXT
  5
3D0
100
AcDbEntity
  8
3
370
    50
100
AcDbText
 10
-175.252991
 20
14.403586
 30
0.0
 40
7.0
  1
止水
 72
     5
 11
-162.652991
 21
14.403586
 31
0.0
100
AcDbText
  0
DIMENSION
  5
3D1
100
AcDbEntity
  8
3
370
    25
100
AcDbDimension
  2
*D1
 10
-262.664411
 20
-117.279977
 30
0.0
 11
-189.364411
 21
-112.779977
 31
0.0
 70
     1
 71
     0
 72
     0
 41
0.0
 42
0.0
  3
Standard
100
AcDbAlignedDimension
 13
-214.864411
 23
-130.165206
 33
0.0
 14
-262.664411
 24
-130.165206
 34
0.0
  0
TEXT
  5
3D2
100
AcDbEntity
  8
3
370
    50
100
AcDbText
 10
-207.355759
 20
-126.974985
 30
0.0
 40
7.0
  1
（取付穴φ３６±１）
 72
     5
 11
-138.755759
 21
-126.974985
 31
0.0
100
AcDbText
  0
TEXT
  5
3D3
100
AcDbEntity
  8
3
370
    50
100
AcDbText
 10
5.084269
 20
-158.071114
 30
0.0
 40
7.0
  1
５～３０
 50
90.0
 72
     5
 11
5.084269
 21
-131.471114
 31
0.0
100
AcDbText
  0
DIMENSION
  5
3D4
100
AcDbEntity
  8
3
370
    25
100
AcDbDimension
  2
*D2
 10
6.08427
 20
-130.665206
 30
0.0
 11
3.58427
 21
-144.071114
 31
0.0
 71
     0
 72
     0
 41
0.0
 42
0.0
  3
Standard
100
AcDbAlignedDimension
 13
97.960192
 23
-157.477021
 33
0.0
 14
91.760192
 24
-130.665206
 34
0.0
 50
90.0
100
AcDbRotatedDimension
  0
TEXT
  5
3D5
100
AcDbEntity
  8
3
370
    50
100
AcDbText
 10
290.832582
 20
-240.013492
 30
0.0
 40
6.0
  1
１　２
 72
     5
 11
307.632582
 21
-240.013492
 31
0.0
100
AcDbText
  0
TEXT
  5
3D6
100
AcDbEntity
  8
3
370
    50
100
AcDbText
 10
-105.266991
 20
-200.655364
 30
0.0
 40
7.0
  1
３５９
 50
90.0
 72
     5
 11
-105.266991
 21
-181.055364
 31
0.0
100
AcDbText
  0
DIMENSION
  5
3D7
100
AcDbEntity
  8
3
370
    25
100
AcDbDimension
  2
*D3
 10
-104.266991
 20
-130.665206
 30
0.0
 11
-106.766991
 21
-190.155364
 31
0.0
 71
     0
 72
     0
 41
0.0
 42
0.0
  3
Standard
100
AcDbAlignedDimension
 13
-181.264411
 23
-249.645521
 33
0.0
 14
-215.364411
 24
-130.665206
 34
0.0
 50
90.0
100
AcDbRotatedDimension
  0
LINE
  5
3D8
100
AcDbEntity
  8
3
370
    25
  6
CENTER
100
AcDbLine
 10
19.703333
 20
194.930952
 30
0.0
 11
115.160192
 21
275.028767
 31
0.0
  0
DIMENSION
  5
3D9
100
AcDbEntity
  8
3
370
    25
100
AcDbDimension
  2
*D4
 10
47.241625
 20
218.038323
 30
0.0
 11
-32.124484
 21
210.247662
 31
0.0
 70
     2
 71
     0
 72
     0
 41
0.0
 42
0.0
  3
Standard
100
AcDb2LineAngularDimension
 13
6.385711
 23
275.028767
 33
0.0
 14
115.160192
 24
275.028767
 34
0.0
 15
115.160192
 25
275.028767
 35
0.0
 16
-35.715696
 26
220.114435
 36
0.0
1001
ACAD
1000
DSTYLE
1002
{
1070
   275
1070
     0
1070
   179
1070
     0
1002
}
  0
TEXT
  5
3DA
100
AcDbEntity
  8
3
370
    50
100
AcDbText
 10
-61.374466
 20
244.522934
 30
0.0
 40
7.0
  1
（左右合計８０°）
 50
295.0
 72
     5
 11
-35.341181
 21
188.694374
 31
0.0
100
AcDbText
  0
CIRCLE
  5
3DB
100
AcDbEntity
  8
3
370
    50
100
AcDbCircle
 10
-201.264411
 20
-45.509762
 30
0.0
 40
1.0
  0
CIRCLE
  5
3DC
100
AcDbEntity
  8
3
370
    50
100
AcDbCircle
 10
-201.264411
 20
-51.915207
 30
0.0
 40
1.0
  0
TEXT
  5
3DD
100
AcDbEntity
  8
3
370
    50
100
AcDbText
 10
-299.537506
 20
-56.540807
 30
0.0
 40
7.0
  1
青色
 72
     5
 11
-286.937506
 21
-56.540807
 31
0.0
100
AcDbText
  0
TEXT
  5
3DE
100
AcDbEntity
  8
3
370
    50
100
AcDbText
 10
-300.232534
 20
-65.324646
 30
0.0
 40
7.0
  1
（水表示）
 72
     5
 11
-266.632534
 21
-65.324646
 31
0.0
100
AcDbText
  0
TEXT
  5
3DF
100
AcDbEntity
  8
3
370
    50
100
AcDbText
 10
-298.937485
 20
-40.775264
 30
0.0
 40
7.0
  1
（湯表示）
 72
     5
 11
-265.337485
 21
-40.775264
 31
0.0
100
AcDbText
  0
TEXT
  5
3E0
100
AcDbEntity
  8
3
370
    50
100
AcDbText
 10
-299.559326
 20
-31.861343
 30
0.0
 40
7.0
  1
赤色
 72
     5
 11
-286.959326
 21
-31.861343
 31
0.0
100
AcDbText
  0
LWPOLYLINE
  5
3E1
100
AcDbEntity
  8
3
370
    25
100
AcDbPolyline
 90
        3
 70
     0
 10
-202.104115
 20
-44.966717
 10
-211.954727
 20
-31.806251
 10
-264.716873
 20
-31.806251
  0
LINE
  5
3E6
100
AcDbEntity
  8
3
370
    25
100
AcDbLine
 10
-204.419367
 20
-41.873529
 30
0.0
 11
-205.248184
 21
-42.493899
 31
0.0
  0
LINE
  5
3E7
100
AcDbEntity
  8
3
370
    25
100
AcDbLine
 10
-205.248184
 20
-42.493899
 30
0.0
 11
-202.104115
 21
-44.966717
 31
0.0
  0
LINE
  5
3E8
100
AcDbEntity
  8
3
370
    25
100
AcDbLine
 10
-202.104115
 20
-44.966717
 30
0.0
 11
-203.59055
 21
-41.25316
 31
0.0
  0
LINE
  5
3E9
100
AcDbEntity
  8
3
370
    25
100
AcDbLine
 10
-203.59055
 20
-41.25316
 30
0.0
 11
-204.419367
 21
-41.873529
 31
0.0
  0
LWPOLYLINE
  5
3EA
100
AcDbEntity
  8
3
370
    25
100
AcDbPolyline
 90
        3
 70
     0
 10
-201.688911
 20
-52.820635
 10
-206.867874
 20
-56.681905
 10
-264.78775
 20
-56.681905
  0
LINE
  5
3EF
100
AcDbEntity
  8
3
370
    25
100
AcDbLine
 10
-204.78645
 20
-55.130062
 30
0.0
 11
-204.167641
 21
-55.960045
 31
0.0
  0
LINE
  5
3F0
100
AcDbEntity
  8
3
370
    25
100
AcDbLine
 10
-204.167641
 20
-55.960045
 30
0.0
 11
-201.688911
 21
-52.820635
 31
0.0
  0
LINE
  5
3F1
100
AcDbEntity
  8
3
370
    25
100
AcDbLine
 10
-201.688911
 20
-52.820635
 30
0.0
 11
-205.405259
 21
-54.300078
 31
0.0
  0
LINE
  5
3F2
100
AcDbEntity
  8
3
370
    25
100
AcDbLine
 10
-205.405259
 20
-54.300078
 30
0.0
 11
-204.78645
 21
-55.130062
 31
0.0
  0
LWPOLYLINE
  5
3F3
100
AcDbEntity
  8
3
370
    25
100
AcDbPolyline
 90
        3
 70
     0
 10
132.165746
 20
-193.647882
 10
141.365891
 20
-203.180811
 10
169.314056
 20
-203.180811
  0
LINE
  5
3F8
100
AcDbEntity
  8
3
370
    25
100
AcDbLine
 10
134.84884
 20
-196.428028
 30
0.0
 11
135.593778
 21
-195.709095
 31
0.0
  0
LINE
  5
3F9
100
AcDbEntity
  8
3
370
    25
100
AcDbLine
 10
135.593778
 20
-195.709095
 30
0.0
 11
132.165746
 21
-193.647882
 31
0.0
  0
LINE
  5
3FA
100
AcDbEntity
  8
3
370
    25
100
AcDbLine
 10
132.165746
 20
-193.647882
 30
0.0
 11
134.103902
 21
-197.146961
 31
0.0
  0
LINE
  5
3FB
100
AcDbEntity
  8
3
370
    25
100
AcDbLine
 10
134.103902
 20
-197.146961
 30
0.0
 11
134.84884
 21
-196.428028
 31
0.0
  0
TEXT
  5
3FC
100
AcDbEntity
  8
3
370
    50
100
AcDbText
 10
66.170868
 20
-228.095123
 30
0.0
 40
7.0
  1
台付シングルレバー湯水混合水栓（共）
 72
     5
 11
190.770868
 21
-228.095123
 31
0.0
100
AcDbText
  0
TEXT
  5
3FD
100
AcDbEntity
  8
3
370
    50
100
AcDbText
 10
228.578979
 20
-272.715088
 30
0.0
 40
7.0
  1
外観寸法図
 72
     5
 11
262.178979
 21
-272.715088
 31
0.0
100
AcDbText
  0
DIMENSION
  5
3FE
100
AcDbEntity
  8
3
370
    25
100
AcDbDimension
  2
*D5
 10
47.431232
 20
-29.082674
 30
0.0
 11
45.60813
 21
0.853805
 31
0.0
 70
     2
 71
     0
 72
     0
 41
0.0
 42
0.0
  3
Standard
100
AcDb2LineAngularDimension
 13
61.551649
 23
-7.056663
 33
0.0
 14
115.160192
 24
-60.665206
 34
0.0
 15
115.160192
 25
-60.665206
 35
0.0
 16
39.585577
 26
-7.747292
 36
0.0
1001
ACAD
1000
DSTYLE
1002
{
1070
   275
1070
     0
1070
   179
1070
     0
1002
}
  0
DIMENSION
  5
3FF
100
AcDbEntity
  8
3
370
    25
100
AcDbDimension
  2
*D6
 10
61.551649
 20
-7.056663
 30
0.0
 11
101.165061
 21
32.134219
 31
0.0
 70
     2
 71
     0
 72
     0
 41
0.0
 42
0.0
  3
Standard
100
AcDb2LineAngularDimension
 13
133.129254
 23
6.396245
 33
0.0
 14
115.160192
 24
-60.665207
 34
0.0
 15
115.160192
 25
-60.665207
 35
0.0
 16
91.281659
 26
28.450694
 36
0.0
1001
ACAD
1000
DSTYLE
1002
{
1070
   275
1070
     0
1070
   179
1070
     0
1002
}
  0
TEXT
  5
400
100
AcDbEntity
  8
3
370
    50
100
AcDbText
 10
29.535319
 20
50.59077
 30
0.0
 40
7.0
  1
ハンドル回転角度：
 72
     5
 11
91.135319
 21
50.59077
 31
0.0
100
AcDbText
  0
TEXT
  5
401
100
AcDbEntity
  8
3
370
    50
100
AcDbText
 10
36.225876
 20
42.347563
 30
0.0
 40
7.0
  1
水側２０°湯側６０°
 72
     5
 11
104.825876
 21
42.347563
 31
0.0
100
AcDbText
  0
TEXT
  5
402
100
AcDbEntity
  8
3
370
    50
100
AcDbText
 10
345.098131
 20
-256.100293
 30
0.0
 40
6.0
  1
１９　１１　０５
 72
     5
 11
391.898131
 21
-256.100293
 31
0.0
100
AcDbText
  0
DIMENSION
  5
403
100
AcDbEntity
  8
3
370
    25
100
AcDbDimension
  2
*D7
 10
-127.057026
 20
-104.51719
 30
0.0
 11
-182.910718
 21
-100.01719
 31
0.0
 71
     0
 72
     0
 41
0.0
 42
0.0
  3
Standard
100
AcDbAlignedDimension
 13
-238.764411
 23
-104.51719
 33
0.0
 14
-127.057026
 24
-13.331386
 34
0.0
100
AcDbRotatedDimension
  0
DIMENSION
  5
404
100
AcDbEntity
  8
3
370
    25
100
AcDbDimension
  2
*D8
 10
-151.694494
 20
2.541327
 30
0.0
 11
-118.817389
 21
11.968387
 31
0.0
 70
     2
 71
     0
 72
     0
 41
0.0
 42
0.0
  3
Standard
100
AcDb2LineAngularDimension
 13
-137.072063
 23
-26.584729
 33
0.0
 14
-171.988075
 24
-72.790638
 34
0.0
 15
-171.988075
 25
-72.790638
 35
0.0
 16
-128.248538
 26
16.583951
 36
0.0
1001
ACAD
1000
DSTYLE
1002
{
1070
   275
1070
     0
1070
   179
1070
     0
1002
}
  0
DIMENSION
  5
405
100
AcDbEntity
  8
3
370
    25
100
AcDbDimension
  2
*D9
 10
-168.721621
 20
-94.663316
 30
0.0
 11
-203.743016
 21
-90.163316
 31
0.0
 71
     0
 72
     0
 41
0.0
 42
0.0
  3
Standard
100
AcDbAlignedDimension
 13
-238.764411
 23
-94.663316
 33
0.0
 14
-168.721621
 24
-60.665207
 34
0.0
100
AcDbRotatedDimension
  0
DIMENSION
  5
406
100
AcDbEntity
  8
3
370
    25
100
AcDbDimension
  2
*D10
 10
-30.540785
 20
26.86002
 30
0.0
 11
-42.040785
 21
-69.402593
 31
0.0
 71
     0
 72
     0
 41
0.0
 42
0.0
  3
Standard
100
AcDbAlignedDimension
 13
91.760192
 23
-130.665206
 33
0.0
 14
5.160192
 24
26.86002
 34
0.0
 50
90.0
100
AcDbRotatedDimension
  0
DIMENSION
  5
407
100
AcDbEntity
  8
3
370
    25
100
AcDbDimension
  2
*D11
 10
291.369537
 20
175.112672
 30
0.0
 11
279.869537
 21
4.723733
 31
0.0
 71
     0
 72
     0
 41
0.0
 42
0.0
  3
Standard
100
AcDbAlignedDimension
 13
138.560192
 23
-130.665206
 33
0.0
 14
80.160192
 24
175.112672
 34
0.0
 50
90.0
100
AcDbRotatedDimension
  0
DIMENSION
  5
408
100
AcDbEntity
  8
3
370
    25
100
AcDbDimension
  2
*D12
 10
5.160192
 20
26.853333
 30
0.0
 11
4.062168
 21
-39.834276
 31
0.0
 70
     2
 71
     0
 72
     0
 41
0.0
 42
0.0
  3
Standard
100
AcDb2LineAngularDimension
 13
5.157905
 23
26.853736
 33
0.0
 14
5.160192
 24
26.86002
 34
0.0
 15
5.160192
 25
26.86002
 35
0.0
 16
-6.451961
 26
-38.995778
 36
0.0
1001
ACAD
1000
DSTYLE
1002
{
1070
   275
1070
     0
1070
   179
1070
     0
1002
}
  0
TEXT
  5
409
100
AcDbEntity
  8
3
370
    50
100
AcDbText
 10
336.070276
 20
-271.880939
 30
0.0
 40
6.4
  1
１１０２３１
 72
     5
 11
373.190276
 21
-271.880939
 31
0.0
100
AcDbText
  0
TEXT
  5
40A
100
AcDbEntity
  8
3
370
    50
100
AcDbText
 10
66.170868
 20
-236.095123
 30
0.0
 40
7.0
  1
ＭＬＺ５４６４ＭＭＥ
 72
     5
 11
134.770868
 21
-236.095123
 31
0.0
100
AcDbText
  0
ENDSEC
  0
SECTION
  2
OBJECTS
  0
DICTIONARY
  5
4A3
100
AcDbDictionary
280
     0
281
     1
  3
ACAD_GROUP
350
4A4
  3
ACAD_MLINESTYLE
350
4A5
  0
DICTIONARY
  5
4A4
102
{ACAD_REACTORS
330
4A3
102
}
100
AcDbDictionary
280
     0
281
     1
  0
DICTIONARY
  5
4A5
102
{ACAD_REACTORS
330
4A3
102
}
100
AcDbDictionary
280
     0
281
     1
  3
Standard
350
4A6
  0
MLINESTYLE
  5
4A6
102
{ACAD_REACTORS
330
4A5
102
}
100
AcDbMlineStyle
  2
Standard
 70
     0
  3

 62
     0
 51
90.0
 52
90.0
 71
     2
 49
0.5
 62
   256
  6
ByLayer
 49
-0.5
 62
   256
  6
ByLayer
  0
ENDSEC
  0
EOF
