  0
SECTION
  2
HEADER
  9
$ACADVER
  1
AC1015
  9
$ACADMAINTVER
 70
     6
  9
$DWGCODEPAGE
  3
ANSI_932
  9
$INSBASE
 10
0.0
 20
0.0
 30
0.0
  9
$EXTMIN
 10
-1261.5
 20
-891.0
 30
1.000000E+20
  9
$EXTMAX
 10
1261.5
 20
891.0
 30
-1.000000E+20
  9
$LIMMIN
 10
-1261.5
 20
-891.0
  9
$LIMMAX
 10
1261.5
 20
891.0
  9
$ORTHOMODE
 70
     0
  9
$REGENMODE
 70
     1
  9
$FILLMODE
 70
     1
  9
$QTEXTMODE
 70
     0
  9
$MIRRTEXT
 70
     1
  9
$LTSCALE
 40
1.0
  9
$ATTMODE
 70
     1
  9
$TEXTSIZE
 40
0.2
  9
$TRACEWID
 40
0.05
  9
$TEXTSTYLE
  7
STANDARD
  9
$CLAYER
  8
0
  9
$CELTYPE
  6
CONTINUOUS
  9
$CECOLOR
 62
   256
  9
$CELTSCALE
 40
1.0
  9
$DISPSILH
 70
     0
  9
$DIMSCALE
 40
3.0
  9
$DIMASZ
 40
2.0
  9
$DIMEXO
 40
1.0
  9
$DIMDLI
 40
0.38
  9
$DIMRND
 40
0.0
  9
$DIMDLE
 40
0.0
  9
$DIMEXE
 40
2.0
  9
$DIMTP
 40
0.0
  9
$DIMTM
 40
0.0
  9
$DIMTXT
 40
3.5
  9
$DIMCEN
 40
0.09
  9
$DIMTSZ
 40
0.0
  9
$DIMTOL
 70
     0
  9
$DIMLIM
 70
     0
  9
$DIMTIH
 70
     0
  9
$DIMTOH
 70
     0
  9
$DIMSE1
 70
     0
  9
$DIMSE2
 70
     0
  9
$DIMTAD
 70
     1
  9
$DIMZIN
 70
     0
  9
$DIMBLK
  1

  9
$DIMASO
 70
     1
  9
$DIMSHO
 70
     1
  9
$DIMPOST
  1

  9
$DIMAPOST
  1

  9
$DIMALT
 70
     0
  9
$DIMALTD
 70
     2
  9
$DIMALTF
 40
25.4
  9
$DIMLFAC
 40
1.0
  9
$DIMTOFL
 70
     0
  9
$DIMTVP
 40
0.0
  9
$DIMTIX
 70
     0
  9
$DIMSOXD
 70
     0
  9
$DIMSAH
 70
     0
  9
$DIMBLK1
  1

  9
$DIMBLK2
  1

  9
$DIMSTYLE
  2
Standard
  9
$DIMCLRD
 70
     0
  9
$DIMCLRE
 70
     0
  9
$DIMCLRT
 70
     0
  9
$DIMTFAC
 40
1.0
  9
$DIMGAP
 40
0.5
  9
$DIMJUST
 70
     0
  9
$DIMSD1
 70
     0
  9
$DIMSD2
 70
     0
  9
$DIMTOLJ
 70
     1
  9
$DIMTZIN
 70
     0
  9
$DIMALTZ
 70
     0
  9
$DIMALTTZ
 70
     0
  9
$DIMUPT
 70
     0
  9
$DIMDEC
 70
     3
  9
$DIMTDEC
 70
     4
  9
$DIMALTU
 70
     2
  9
$DIMALTTD
 70
     2
  9
$DIMTXSTY
  7
STANDARD
  9
$DIMAUNIT
 70
     0
  9
$DIMADEC
 70
     0
  9
$DIMALTRND
 40
0.0
  9
$DIMAZIN
 70
     0
  9
$DIMDSEP
 70
     0
  9
$DIMATFIT
 70
     3
  9
$DIMFRAC
 70
     0
  9
$DIMLDRBLK
  1

  9
$DIMLUNIT
 70
     2
  9
$DIMLWD
 70
     0
  9
$DIMLWE
 70
     0
  9
$DIMTMOVE
 70
     0
  9
$LUNITS
 70
     2
  9
$LUPREC
 70
     4
  9
$SKETCHINC
 40
0.1
  9
$FILLETRAD
 40
0.0
  9
$AUNITS
 70
     0
  9
$AUPREC
 70
     0
  9
$MENU
  1
acad
  9
$ELEVATION
 40
0.0
  9
$PELEVATION
 40
0.0
  9
$THICKNESS
 40
0.0
  9
$LIMCHECK
 70
     0
  9
$CHAMFERA
 40
0.0
  9
$CHAMFERB
 40
0.0
  9
$CHAMFERC
 40
0.0
  9
$CHAMFERD
 40
0.0
  9
$SKPOLY
 70
     0
  9
$TDCREATE
 40
2454497.000000000
  9
$TDUCREATE
 40
0.000000000
  9
$TDUPDATE
 40
0.000000000
  9
$TDUUPDATE
 40
2447892.625000000
  9
$TDINDWG
 40
0.0000000000
  9
$TDUSRTIMER
 40
0.0000000000
  9
$USRTIMER
 70
     1
  9
$ANGBASE
 50
0.0
  9
$ANGDIR
 70
     0
  9
$PDMODE
 70
     0
  9
$PDSIZE
 40
0.0
  9
$PLINEWID
 40
0.0
  9
$SPLFRAME
 70
     0
  9
$SPLINETYPE
 70
     6
  9
$SPLINESEGS
 70
     8
  9
$HANDSEED
  5
6C4
  9
$SURFTAB1
 70
     6
  9
$SURFTAB2
 70
     6
  9
$SURFTYPE
 70
     6
  9
$SURFU
 70
     6
  9
$SURFV
 70
     6
  9
$UCSBASE
  2

  9
$UCSNAME
  2

  9
$UCSORG
 10
0.0
 20
0.0
 30
0.0
  9
$UCSXDIR
 10
1.0
 20
0.0
 30
0.0
  9
$UCSYDIR
 10
0.0
 20
1.0
 30
0.0
  9
$UCSORTHOREF
  2

  9
$UCSORTHOVIEW
 70
     0
  9
$UCSORGTOP
 10
0.0
 20
0.0
 30
0.0
  9
$UCSORGBOTTOM
 10
0.0
 20
0.0
 30
0.0
  9
$UCSORGLEFT
 10
0.0
 20
0.0
 30
0.0
  9
$UCSORGRIGHT
 10
0.0
 20
0.0
 30
0.0
  9
$UCSORGFRONT
 10
0.0
 20
0.0
 30
0.0
  9
$UCSORGBACK
 10
0.0
 20
0.0
 30
0.0
  9
$PUCSBASE
  2

  9
$PUCSNAME
  2

  9
$PUCSORG
 10
0.0
 20
0.0
 30
0.0
  9
$PUCSXDIR
 10
1.0
 20
0.0
 30
0.0
  9
$PUCSYDIR
 10
0.0
 20
1.0
 30
0.0
  9
$PUCSORTHOREF
  2

  9
$PUCSORTHOVIEW
 70
     0
  9
$PUCSORGTOP
 10
0.0
 20
0.0
 30
0.0
  9
$PUCSORGBOTTOM
 10
0.0
 20
0.0
 30
0.0
  9
$PUCSORGLEFT
 10
0.0
 20
0.0
 30
0.0
  9
$PUCSORGRIGHT
 10
0.0
 20
0.0
 30
0.0
  9
$PUCSORGFRONT
 10
0.0
 20
0.0
 30
0.0
  9
$PUCSORGBACK
 10
0.0
 20
0.0
 30
0.0
  9
$USERI1
 70
     0
  9
$USERI2
 70
     0
  9
$USERI3
 70
     0
  9
$USERI4
 70
     0
  9
$USERI5
 70
     0
  9
$USERR1
 40
0.0
  9
$USERR2
 40
0.0
  9
$USERR3
 40
0.0
  9
$USERR4
 40
0.0
  9
$USERR5
 40
0.0
  9
$WORLDVIEW
 70
     1
  9
$SHADEDGE
 70
     3
  9
$SHADEDIF
 70
    70
  9
$TILEMODE
 70
     1
  9
$MAXACTVP
 70
    16
  9
$PINSBASE
 10
0.0
 20
0.0
 30
0.0
  9
$PLIMCHECK
 70
     0
  9
$PEXTMIN
 10
1.000000E+20
 20
1.000000E+20
 30
1.000000E+20
  9
$PEXTMAX
 10
-1.000000E+20
 20
-1.000000E+20
 30
-1.000000E+20
  9
$PLIMMIN
 10
0.0
 20
0.0
  9
$PLIMMAX
 10
12.0
 20
9.0
  9
$UNITMODE
 70
     0
  9
$VISRETAIN
 70
     0
  9
$PLINEGEN
 70
     1
  9
$PSLTSCALE
 70
     0
  9
$TREEDEPTH
 70
  3020
  9
$CMLSTYLE
  2
Standard
  9
$CMLJUST
 70
     0
  9
$CMLSCALE
 40
1.0
  9
$PROXYGRAPHICS
 70
     0
  9
$MEASUREMENT
 70
     0
  9
$CELWEIGHT
370
     0
  9
$ENDCAPS
280
     0
  9
$JOINSTYLE
280
     0
  9
$LWDISPLAY
290
     0
  9
$INSUNITS
 70
     0
  9
$HYPERLINKBASE
  1

  9
$STYLESHEET
  1

  9
$XEDIT
290
     1
  9
$CEPSNTYPE
380
     0
  9
$PSTYLEMODE
290
     1
  9
$FINGERPRINTGUID
  2

  9
$VERSIONGUID
  2

  9
$EXTNAMES
290
     1
  9
$PSVPSCALE
 40
0.0
  0
ENDSEC
  0
SECTION
  2
CLASSES
  0
CLASS
  1
LWPOLYLINE
  2
AcDbPolyline
  3
AutoCAD 2000
 90
        0
280
     0
281
     1
  0
CLASS
  1
IMAGE
  2
AcDbRasterImage
  3
ISM
 90
      127
280
     0
281
     1
  0
CLASS
  1
OLE2FRAME
  2
AcDbOle2Frame
  3
AutoCAD 2000
 90
        0
280
     0
281
     1
  0
CLASS
  1
HATCH
  2
AcDbHatch
  3
AutoCAD 2000
 90
        0
280
     0
281
     1
  0
CLASS
  1
DICTIONARYVAR
  2
AcDbDictionaryVar
  3
AutoCAD 2000
 90
        0
280
     0
281
     0
  0
CLASS
  1
RASTERVARIABLES
  2
AcDbRasterVariables
  3
ISM
 90
        0
280
     0
281
     0
  0
CLASS
  1
IMAGEDEF
  2
AcDbRasterImageDef
  3
ISM
 90
        0
280
     0
281
     0
  0
CLASS
  1
IMAGEDEF_REACTOR
  2
AcDbRasterImageDefReactor
  3
ISM
 90
        1
280
     0
281
     0
  0
CLASS
  1
IDBUFFER
  2
AcDbIdBuffer
  3
AutoCAD 2000
 90
        0
280
     0
281
     0
  0
CLASS
  1
SPATIAL_FILTER
  2
AcDbSpatialFilter
  3
AutoCAD 2000
 90
        0
280
     0
281
     0
  0
CLASS
  1
XRECORD
  2
AcDbXrecord
  3
AutoCAD 2000
 90
        0
280
     0
281
     0
  0
CLASS
  1
SORTENTSTABLE
  2
AcDbSortentsTable
  3
AutoCAD 2000
 90
        0
280
     0
281
     0
  0
CLASS
  1
LAYER_INDEX
  2
AcDbLayerIndex
  3
AutoCAD 2000
 90
        0
280
     0
281
     0
  0
CLASS
  1
SPATIAL_INDEX
  2
AcDbSpatialIndex
  3
AutoCAD 2000
 90
        0
280
     0
281
     0
  0
CLASS
  1
OBJECT_PTR
  2
CAseDLPNTableRecord
  3
"ASE-LPNTableRecord"
 90
        1
280
     0
281
     0
  0
CLASS
  1
LAYOUT
  2
AcDbLayout
  3
AutoCAD 2000
 90
        0
280
     0
281
     0
  0
CLASS
  1
PLOTSETTINGS
  2
AcDbPlotSettings
  3
AutoCAD 2000
 90
        0
280
     0
281
     0
  0
CLASS
  1
ACDBDICTIONARYWDFLT
  2
AcDbDictionaryWithDefault
  3
AutoCAD 2000
 90
        0
280
     0
281
     0
  0
CLASS
  1
ACDBPLACEHOLDER
  2
AcDbPlaceHolder
  3
AutoCAD 2000
 90
        0
280
     0
281
     0
  0
CLASS
  1
VBA_PROJECT
  2
AcDbVbaProject
  3
acadvba
 90
        0
280
     0
281
     0
  0
CLASS
  1
WIPEOUT
  2
AcDbWipeout
  3
WipeOut|AutoCAD Express Tool|expresstools@autodesk.com
 90
      127
280
     0
281
     1
  0
CLASS
  1
WIPEOUTVARIABLES
  2
AcDbWipeoutVariables
  3
WipeOut|AutoCAD Express Tool|expresstools@autodesk.com
 90
        0
280
     0
281
     0
  0
CLASS
  1
RTEXT
  2
RText
  3
RText|AutoCAD Express Tool|expresstools@autodesk.com
 90
        0
280
     0
281
     1
  0
CLASS
  1
ARCALIGNEDTEXT
  2
AcDbArcAlignedText
  3
ATEXT|AutoCAD Express Tool|expresstools@autodesk.com
 90
        0
280
     0
281
     1
  0
ENDSEC
  0
SECTION
  2
TABLES
  0
TABLE
  2
VPORT
  5
6
100
AcDbSymbolTable
 70
     1
  0
VPORT
  5
19
100
AcDbSymbolTableRecord
100
AcDbViewportTableRecord
  2
*ACTIVE
 70
     0
 10
0.0
 20
0.0
 11
1.0
 21
1.0
 12
0.0
 22
0.0
 13
0.0
 23
0.0
 14
1.0
 24
1.0
 15
0.0
 25
0.0
 16
0.0
 26
0.0
 36
1.0
 17
0.0
 27
0.0
 37
0.0
 40
1782.0
 41
1.415825
 42
50.0
 43
0.0
 44
0.0
 50
0.0
 51
0.0
 71
     0
 72
   500
 73
     1
 74
     1
 75
     0
 76
     0
 77
     0
 78
     0
281
     0
 65
     0
110
0.0
120
0.0
130
0.0
111
1.0
121
0.0
131
0.0
112
0.0
122
1.0
132
0.0
345
0
346
0
 79
     0
146
0.0
  0
ENDTAB
  0
TABLE
  2
LTYPE
  5
3
100
AcDbSymbolTable
 70
     9
  0
LTYPE
  5
C
100
AcDbSymbolTableRecord
100
AcDbLinetypeTableRecord
  2
ByBlock
 70
    64
  3

 72
    65
 73
     0
 40
0.0
  0
LTYPE
  5
D
100
AcDbSymbolTableRecord
100
AcDbLinetypeTableRecord
  2
ByLayer
 70
    64
  3

 72
    65
 73
     0
 40
0.0
  0
LTYPE
  5
E
100
AcDbSymbolTableRecord
100
AcDbLinetypeTableRecord
  2
CONTINUOUS
 70
     0
  3
Solid line
 72
    65
 73
     0
 40
0.0
  0
LTYPE
  5
F
100
AcDbSymbolTableRecord
100
AcDbLinetypeTableRecord
  2
DASHED
 70
     0
  3
__ __ __ __ __ __ __ __ __ __ __ __ __ __ __
 72
    65
 73
     2
 40
2.0
 49
1.2
 74
     0
 49
-0.8
 74
     0
  0
LTYPE
  5
10
100
AcDbSymbolTableRecord
100
AcDbLinetypeTableRecord
  2
CENTER
 70
     0
  3
____ _ ____ _ ____ _ ____ _ ____ _ ____ _ ____
 72
    65
 73
     4
 40
12.0
 49
9.0
 74
     0
 49
-1.0
 74
     0
 49
1.0
 74
     0
 49
-1.0
 74
     0
  0
LTYPE
  5
11
100
AcDbSymbolTableRecord
100
AcDbLinetypeTableRecord
  2
HIDDEN
 70
     0
  3
_ _ _ _ _ _ _ _ _ _ _ _ _ _ _ _ _ _ _ _ _ _ _
 72
    65
 73
     2
 40
3.2
 49
2.4
 74
     0
 49
-0.8
 74
     0
  0
LTYPE
  5
12
100
AcDbSymbolTableRecord
100
AcDbLinetypeTableRecord
  2
PHANTOM
 70
     0
  3
_____ _ _ _____ _ _ _____ _ _ _____ _ _ _____
 72
    65
 73
     6
 40
13.5
 49
9.0
 74
     0
 49
-1.0
 74
     0
 49
1.0
 74
     0
 49
-0.5
 74
     0
 49
1.0
 74
     0
 49
-1.0
 74
     0
  0
LTYPE
  5
13
100
AcDbSymbolTableRecord
100
AcDbLinetypeTableRecord
  2
DOT
 70
     0
  3
...............................................
 72
    65
 73
     2
 40
1.0
 49
0.5
 74
     0
 49
-0.5
 74
     0
  0
LTYPE
  5
14
100
AcDbSymbolTableRecord
100
AcDbLinetypeTableRecord
  2
DASHDOT
 70
     0
  3
__ . __ . __ . __ . __ . __ . __ . __ . __ . __
 72
    65
 73
     4
 40
8.0
 49
5.0
 74
     0
 49
-1.0
 74
     0
 49
1.0
 74
     0
 49
-1.0
 74
     0
  0
ENDTAB
  0
TABLE
  2
LAYER
  5
1
100
AcDbSymbolTable
 70
     4
  0
LAYER
  5
15
100
AcDbSymbolTableRecord
100
AcDbLayerTableRecord
  2
0
 70
     0
 62
   225
  6
CONTINUOUS
290
     1
370
    -3
390
0
  0
LAYER
  5
16
100
AcDbSymbolTableRecord
100
AcDbLayerTableRecord
  2
1
 70
     0
 62
     2
  6
CONTINUOUS
290
     1
370
    -3
390
0
  0
LAYER
  5
17
100
AcDbSymbolTableRecord
100
AcDbLayerTableRecord
  2
2
 70
     0
 62
     3
  6
CONTINUOUS
290
     1
370
    -3
390
0
  0
LAYER
  5
18
100
AcDbSymbolTableRecord
100
AcDbLayerTableRecord
  2
3
 70
     0
 62
     4
  6
CONTINUOUS
290
     1
370
    -3
390
0
  0
ENDTAB
  0
TABLE
  2
STYLE
  5
2
100
AcDbSymbolTable
 70
     1
  0
STYLE
  5
1B
100
AcDbSymbolTableRecord
100
AcDbTextStyleTableRecord
  2
STANDARD
 70
    64
 40
0.0
 41
1.0
 50
0.0
 71
     0
 42
1.0
  3
txt
  4
BIGFONT
  0
ENDTAB
  0
TABLE
  2
VIEW
  5
4
100
AcDbSymbolTable
 70
     0
  0
ENDTAB
  0
TABLE
  2
UCS
  5
5
100
AcDbSymbolTable
 70
     0
  0
ENDTAB
  0
TABLE
  2
APPID
  5
7
100
AcDbSymbolTable
 70
     1
  0
APPID
  5
1A
100
AcDbSymbolTableRecord
100
AcDbRegAppTableRecord
  2
ACAD
 70
     0
  0
ENDTAB
  0
TABLE
  2
DIMSTYLE
  5
8
100
AcDbSymbolTable
 70
     1
100
AcDbDimStyleTable
 71
     0
  0
DIMSTYLE
105
2F
100
AcDbSymbolTableRecord
100
AcDbDimStyleTableRecord
  2
Standard
 70
     0
  3

  4

 40
3.0
 41
2.0
 42
1.0
 43
0.38
 44
2.0
 45
0.0
 46
0.0
 47
0.0
 48
0.0
 71
     0
 72
     0
 73
     0
 74
     0
 75
     0
 76
     0
 77
     1
 78
     0
 79
     0
140
3.5
141
0.09
142
0.0
143
25.4
144
1.0
145
0.0
146
1.0
147
0.5
148
0.0
170
     0
171
     2
172
     0
173
     0
174
     0
175
     0
176
     0
177
     0
178
     0
179
     0
271
     3
272
     4
273
     2
274
     2
275
     0
276
     0
277
     2
278
    46
279
     0
280
     0
281
     0
282
     0
283
     1
284
     0
285
     0
286
     0
288
     0
289
     3
340
1B
341
0
342
0
343
0
344
0
371
    -2
372
    -2
  0
ENDTAB
  0
TABLE
  2
BLOCK_RECORD
  5
2A
100
AcDbSymbolTable
 70
    12
  0
BLOCK_RECORD
  5
28
100
AcDbSymbolTableRecord
100
AcDbBlockTableRecord
  2
*Model_Space
340
0
  0
BLOCK_RECORD
  5
29
100
AcDbSymbolTableRecord
100
AcDbBlockTableRecord
  2
*Paper_Space
340
0
  0
BLOCK_RECORD
  5
1C
100
AcDbSymbolTableRecord
100
AcDbBlockTableRecord
  2
*D0
340
0
  0
BLOCK_RECORD
  5
1D
100
AcDbSymbolTableRecord
100
AcDbBlockTableRecord
  2
*D1
340
0
  0
BLOCK_RECORD
  5
1E
100
AcDbSymbolTableRecord
100
AcDbBlockTableRecord
  2
*D2
340
0
  0
BLOCK_RECORD
  5
1F
100
AcDbSymbolTableRecord
100
AcDbBlockTableRecord
  2
*D3
340
0
  0
BLOCK_RECORD
  5
20
100
AcDbSymbolTableRecord
100
AcDbBlockTableRecord
  2
*D4
340
0
  0
BLOCK_RECORD
  5
21
100
AcDbSymbolTableRecord
100
AcDbBlockTableRecord
  2
*D5
340
0
  0
BLOCK_RECORD
  5
22
100
AcDbSymbolTableRecord
100
AcDbBlockTableRecord
  2
*D6
340
0
  0
BLOCK_RECORD
  5
23
100
AcDbSymbolTableRecord
100
AcDbBlockTableRecord
  2
*D7
340
0
  0
BLOCK_RECORD
  5
24
100
AcDbSymbolTableRecord
100
AcDbBlockTableRecord
  2
*D8
340
0
  0
BLOCK_RECORD
  5
25
100
AcDbSymbolTableRecord
100
AcDbBlockTableRecord
  2
*D9
340
0
  0
BLOCK_RECORD
  5
26
100
AcDbSymbolTableRecord
100
AcDbBlockTableRecord
  2
*D10
340
0
  0
BLOCK_RECORD
  5
27
100
AcDbSymbolTableRecord
100
AcDbBlockTableRecord
  2
*D11
340
0
  0
ENDTAB
  0
ENDSEC
  0
SECTION
  2
BLOCKS
  0
BLOCK
  5
2B
100
AcDbEntity
  8
0
390
0
100
AcDbBlockBegin
  2
*Model_Space
 70
     0
 10
0.0
 20
0.0
 30
0.0
  3
*Model_Space
  1

  0
ENDBLK
  5
2C
100
AcDbEntity
  8
0
390
0
100
AcDbBlockEnd
  0
BLOCK
  5
2D
100
AcDbEntity
 67
     1
  8
0
390
0
100
AcDbBlockBegin
  2
*Paper_Space
 70
     0
 10
0.0
 20
0.0
 30
0.0
  3
*Paper_Space
  1

  0
ENDBLK
  5
2E
100
AcDbEntity
 67
     1
  8
0
390
0
100
AcDbBlockEnd
  0
BLOCK
  5
636
100
AcDbEntity
  8
2
100
AcDbBlockBegin
  2
*D0
 70
     1
 10
0.0
 20
0.0
 30
0.0
  3
*D0
  1

  0
LINE
  5
637
100
AcDbEntity
  8
2
370
    25
100
AcDbLine
 10
-68.317391
 20
-108.849298
 30
0.0
 11
-68.317391
 21
-247.672508
 31
0.0
  0
LINE
  5
638
100
AcDbEntity
  8
2
370
    25
100
AcDbLine
 10
-68.317391
 20
-244.672508
 30
0.0
 11
-62.521836
 21
-246.225423
 31
0.0
  0
LINE
  5
639
100
AcDbEntity
  8
2
370
    25
100
AcDbLine
 10
-68.317391
 20
-244.672508
 30
0.0
 11
-62.521836
 21
-243.119594
 31
0.0
  0
LINE
  5
63A
100
AcDbEntity
  8
2
370
    25
100
AcDbLine
 10
-62.521836
 20
-246.225423
 30
0.0
 11
-62.521836
 21
-243.119594
 31
0.0
  0
LINE
  5
63B
100
AcDbEntity
  8
2
370
    25
100
AcDbLine
 10
-68.317391
 20
-244.672508
 30
0.0
 11
97.954872
 21
-244.672508
 31
0.0
  0
LINE
  5
63C
100
AcDbEntity
  8
2
370
    25
100
AcDbLine
 10
97.954872
 20
-244.672508
 30
0.0
 11
92.159317
 21
-243.119594
 31
0.0
  0
LINE
  5
63D
100
AcDbEntity
  8
2
370
    25
100
AcDbLine
 10
97.954872
 20
-244.672508
 30
0.0
 11
92.159317
 21
-246.225423
 31
0.0
  0
LINE
  5
63E
100
AcDbEntity
  8
2
370
    25
100
AcDbLine
 10
92.159317
 20
-243.119594
 30
0.0
 11
92.159317
 21
-246.225423
 31
0.0
  0
LINE
  5
63F
100
AcDbEntity
  8
2
370
    25
100
AcDbLine
 10
97.954872
 20
-154.80011
 30
0.0
 11
97.954872
 21
-247.672508
 31
0.0
  0
ENDBLK
  5
640
100
AcDbEntity
  8
2
100
AcDbBlockEnd
  0
BLOCK
  5
641
100
AcDbEntity
  8
3
100
AcDbBlockBegin
  2
*D1
 70
     1
 10
0.0
 20
0.0
 30
0.0
  3
*D1
  1

  0
TEXT
  5
642
100
AcDbEntity
  8
3
370
    25
100
AcDbText
 10
-319.953258
 20
-80.62393
 30
0.0
 40
10.5
  1
φ４８
 72
     5
 11
-290.553258
 21
-80.62393
 31
0.0
100
AcDbText
  0
LINE
  5
643
100
AcDbEntity
  8
3
370
    25
100
AcDbLine
 10
-379.953258
 20
-99.349298
 30
0.0
 11
-379.953258
 21
-79.12393
 31
0.0
  0
LINE
  5
644
100
AcDbEntity
  8
3
370
    25
100
AcDbLine
 10
-379.953258
 20
-82.12393
 30
0.0
 11
-385.748813
 21
-80.571016
 31
0.0
  0
LINE
  5
645
100
AcDbEntity
  8
3
370
    25
100
AcDbLine
 10
-379.953258
 20
-82.12393
 30
0.0
 11
-385.748813
 21
-83.676844
 31
0.0
  0
LINE
  5
646
100
AcDbEntity
  8
3
370
    25
100
AcDbLine
 10
-385.748813
 20
-80.571016
 30
0.0
 11
-385.748813
 21
-83.676844
 31
0.0
  0
LINE
  5
647
100
AcDbEntity
  8
3
370
    25
100
AcDbLine
 10
-394.953258
 20
-82.12393
 30
0.0
 11
-288.453258
 21
-82.12393
 31
0.0
  0
LINE
  5
648
100
AcDbEntity
  8
3
370
    25
100
AcDbLine
 10
-331.953258
 20
-82.12393
 30
0.0
 11
-326.157703
 21
-83.676844
 31
0.0
  0
LINE
  5
649
100
AcDbEntity
  8
3
370
    25
100
AcDbLine
 10
-331.953258
 20
-82.12393
 30
0.0
 11
-326.157703
 21
-80.571016
 31
0.0
  0
LINE
  5
64A
100
AcDbEntity
  8
3
370
    25
100
AcDbLine
 10
-326.157703
 20
-83.676844
 30
0.0
 11
-326.157703
 21
-80.571016
 31
0.0
  0
LINE
  5
64B
100
AcDbEntity
  8
3
370
    25
100
AcDbLine
 10
-331.953258
 20
-99.349298
 30
0.0
 11
-331.953258
 21
-79.12393
 31
0.0
  0
ENDBLK
  5
64C
100
AcDbEntity
  8
3
100
AcDbBlockEnd
  0
BLOCK
  5
64D
100
AcDbEntity
  8
3
100
AcDbBlockBegin
  2
*D2
 70
     1
 10
0.0
 20
0.0
 30
0.0
  3
*D2
  1

  0
LINE
  5
64E
100
AcDbEntity
  8
3
370
    25
100
AcDbLine
 10
97.954872
 20
99.385756
 30
0.0
 11
97.954872
 21
113.455184
 31
0.0
  0
LINE
  5
64F
100
AcDbEntity
  8
3
370
    25
100
AcDbLine
 10
97.954872
 20
110.455184
 30
0.0
 11
103.750427
 21
108.902269
 31
0.0
  0
LINE
  5
650
100
AcDbEntity
  8
3
370
    25
100
AcDbLine
 10
97.954872
 20
110.455184
 30
0.0
 11
103.750427
 21
112.008098
 31
0.0
  0
LINE
  5
651
100
AcDbEntity
  8
3
370
    25
100
AcDbLine
 10
103.750427
 20
108.902269
 30
0.0
 11
103.750427
 21
112.008098
 31
0.0
  0
LINE
  5
652
100
AcDbEntity
  8
3
370
    25
100
AcDbLine
 10
97.954872
 20
110.455184
 30
0.0
 11
123.545754
 21
110.455184
 31
0.0
  0
LINE
  5
653
100
AcDbEntity
  8
3
370
    25
100
AcDbLine
 10
123.545754
 20
110.455184
 30
0.0
 11
117.7502
 21
112.008098
 31
0.0
  0
LINE
  5
654
100
AcDbEntity
  8
3
370
    25
100
AcDbLine
 10
123.545754
 20
110.455184
 30
0.0
 11
117.7502
 21
108.902269
 31
0.0
  0
LINE
  5
655
100
AcDbEntity
  8
3
370
    25
100
AcDbLine
 10
117.7502
 20
112.008098
 30
0.0
 11
117.7502
 21
108.902269
 31
0.0
  0
LINE
  5
656
100
AcDbEntity
  8
3
370
    25
100
AcDbLine
 10
123.545754
 20
89.374683
 30
0.0
 11
123.545754
 21
113.455184
 31
0.0
  0
ENDBLK
  5
657
100
AcDbEntity
  8
3
100
AcDbBlockEnd
  0
BLOCK
  5
658
100
AcDbEntity
  8
3
100
AcDbBlockBegin
  2
*D3
 70
     1
 10
0.0
 20
0.0
 30
0.0
  3
*D3
  1

  0
TEXT
  5
659
100
AcDbEntity
  8
3
370
    25
100
AcDbText
 10
7.171307
 20
98.494172
 30
0.0
 40
10.5
  1
２２゜
 50
79.0
 72
     5
 11
12.781091
 21
127.354011
 31
0.0
100
AcDbText
  0
LINE
  5
65A
100
AcDbEntity
  8
3
370
    25
100
AcDbLine
 10
32.57425
 20
118.815418
 30
0.0
 11
12.47078
 21
126.937747
 31
0.0
  0
LINE
  5
65B
100
AcDbEntity
  8
3
370
    25
100
AcDbLine
 10
18.955049
 20
90.750702
 30
0.0
 11
5.436731
 21
90.750702
 31
0.0
  0
LINE
  5
65C
100
AcDbEntity
  8
3
370
    25
100
AcDbLine
 10
15.252331
 20
125.813927
 30
0.0
 11
11.791522
 21
120.912621
 31
0.0
  0
LINE
  5
65D
100
AcDbEntity
  8
3
370
    25
100
AcDbLine
 10
15.252331
 20
125.813927
 30
0.0
 11
14.705836
 21
119.838867
 31
0.0
  0
LINE
  5
65E
100
AcDbEntity
  8
3
370
    25
100
AcDbLine
 10
11.791522
 20
120.912621
 30
0.0
 11
14.705836
 21
119.838867
 31
0.0
  0
LINE
  5
65F
100
AcDbEntity
  8
3
370
    25
100
AcDbLine
 10
8.436731
 20
90.750702
 30
0.0
 11
10.168326
 21
96.495402
 31
0.0
  0
LINE
  5
660
100
AcDbEntity
  8
3
370
    25
100
AcDbLine
 10
8.436731
 20
90.750702
 30
0.0
 11
7.063986
 21
96.591556
 31
0.0
  0
LINE
  5
661
100
AcDbEntity
  8
3
370
    25
100
AcDbLine
 10
10.168326
 20
96.495402
 30
0.0
 11
7.063986
 21
96.591556
 31
0.0
  0
ARC
  5
662
100
AcDbEntity
  8
3
370
    25
100
AcDbCircle
 10
102.036859
 20
90.750702
 30
0.0
 40
93.600128
100
AcDbArc
 50
158.0
 51
180.0
  0
ENDBLK
  5
663
100
AcDbEntity
  8
3
100
AcDbBlockEnd
  0
BLOCK
  5
664
100
AcDbEntity
  8
3
100
AcDbBlockBegin
  2
*D4
 70
     1
 10
0.0
 20
0.0
 30
0.0
  3
*D4
  1

  0
TEXT
  5
665
100
AcDbEntity
  8
3
370
    25
100
AcDbText
 10
123.454872
 20
52.87094
 30
0.0
 40
10.5
  1
φ３５
 72
     5
 11
152.854872
 21
52.87094
 31
0.0
100
AcDbText
  0
LINE
  5
666
100
AcDbEntity
  8
3
370
    25
100
AcDbLine
 10
80.454872
 20
51.87094
 30
0.0
 11
74.659317
 21
53.423854
 31
0.0
  0
LINE
  5
667
100
AcDbEntity
  8
3
370
    25
100
AcDbLine
 10
80.454872
 20
51.87094
 30
0.0
 11
74.659317
 21
50.318026
 31
0.0
  0
LINE
  5
668
100
AcDbEntity
  8
3
370
    25
100
AcDbLine
 10
74.659317
 20
53.423854
 30
0.0
 11
74.659317
 21
50.318026
 31
0.0
  0
LINE
  5
669
100
AcDbEntity
  8
3
370
    25
100
AcDbLine
 10
65.454872
 20
51.87094
 30
0.0
 11
144.454872
 21
51.87094
 31
0.0
  0
LINE
  5
66A
100
AcDbEntity
  8
3
370
    25
100
AcDbLine
 10
115.454872
 20
51.87094
 30
0.0
 11
121.250427
 21
50.318026
 31
0.0
  0
LINE
  5
66B
100
AcDbEntity
  8
3
370
    25
100
AcDbLine
 10
115.454872
 20
51.87094
 30
0.0
 11
121.250427
 21
53.423854
 31
0.0
  0
LINE
  5
66C
100
AcDbEntity
  8
3
370
    25
100
AcDbLine
 10
121.250427
 20
50.318026
 30
0.0
 11
121.250427
 21
53.423854
 31
0.0
  0
ENDBLK
  5
66D
100
AcDbEntity
  8
3
100
AcDbBlockEnd
  0
BLOCK
  5
66E
100
AcDbEntity
  8
3
100
AcDbBlockBegin
  2
*D5
 70
     1
 10
0.0
 20
0.0
 30
0.0
  3
*D5
  1

  0
TEXT
  5
66F
100
AcDbEntity
  8
3
370
    25
100
AcDbText
 10
45.203911
 20
-11.349298
 30
0.0
 40
10.5
  1
φ２１
 50
90.0
 72
     5
 11
45.203911
 21
18.050702
 31
0.0
100
AcDbText
  0
LINE
  5
670
100
AcDbEntity
  8
3
370
    25
100
AcDbLine
 10
46.203911
 20
38.650702
 30
0.0
 11
47.756825
 21
44.446257
 31
0.0
  0
LINE
  5
671
100
AcDbEntity
  8
3
370
    25
100
AcDbLine
 10
46.203911
 20
38.650702
 30
0.0
 11
44.650997
 21
44.446257
 31
0.0
  0
LINE
  5
672
100
AcDbEntity
  8
3
370
    25
100
AcDbLine
 10
47.756825
 20
44.446257
 30
0.0
 11
44.650997
 21
44.446257
 31
0.0
  0
LINE
  5
673
100
AcDbEntity
  8
3
370
    25
100
AcDbLine
 10
46.203911
 20
53.650702
 30
0.0
 11
46.203911
 21
-11.349298
 31
0.0
  0
LINE
  5
674
100
AcDbEntity
  8
3
370
    25
100
AcDbLine
 10
46.203911
 20
17.650702
 30
0.0
 11
44.650997
 21
11.855147
 31
0.0
  0
LINE
  5
675
100
AcDbEntity
  8
3
370
    25
100
AcDbLine
 10
46.203911
 20
17.650702
 30
0.0
 11
47.756825
 21
11.855147
 31
0.0
  0
LINE
  5
676
100
AcDbEntity
  8
3
370
    25
100
AcDbLine
 10
44.650997
 20
11.855147
 30
0.0
 11
47.756825
 21
11.855147
 31
0.0
  0
ENDBLK
  5
677
100
AcDbEntity
  8
3
100
AcDbBlockEnd
  0
BLOCK
  5
678
100
AcDbEntity
  8
3
100
AcDbBlockBegin
  2
*D6
 70
     1
 10
0.0
 20
0.0
 30
0.0
  3
*D6
  1

  0
TEXT
  5
679
100
AcDbEntity
  8
3
370
    25
100
AcDbText
 10
-40.670663
 20
-14.189643
 30
0.0
 40
10.5
  1
２０゜
 50
350.0
 72
     5
 11
-11.717315
 21
-19.294899
 31
0.0
100
AcDbText
  0
LINE
  5
67A
100
AcDbEntity
  8
3
370
    25
100
AcDbLine
 10
-26.385782
 20
9.35685
 30
0.0
 11
-36.517697
 21
-18.480355
 31
0.0
  0
LINE
  5
67B
100
AcDbEntity
  8
3
370
    25
100
AcDbLine
 10
-25.359722
 20
9.175928
 30
0.0
 11
-25.359722
 21
-20.447807
 31
0.0
  0
LINE
  5
67C
100
AcDbEntity
  8
3
370
    25
100
AcDbLine
 10
-35.491636
 20
-15.661278
 30
0.0
 11
-30.263653
 21
-18.605458
 31
0.0
  0
LINE
  5
67D
100
AcDbEntity
  8
3
370
    25
100
AcDbLine
 10
-35.491636
 20
-15.661278
 30
0.0
 11
-29.49198
 21
-15.597021
 31
0.0
  0
LINE
  5
67E
100
AcDbEntity
  8
3
370
    25
100
AcDbLine
 10
-30.263653
 20
-18.605458
 30
0.0
 11
-29.49198
 21
-15.597021
 31
0.0
  0
LINE
  5
67F
100
AcDbEntity
  8
3
370
    25
100
AcDbLine
 10
-25.359722
 20
-17.447807
 30
0.0
 11
-30.975577
 21
-15.335423
 31
0.0
  0
LINE
  5
680
100
AcDbEntity
  8
3
370
    25
100
AcDbLine
 10
-25.359722
 20
-17.447807
 30
0.0
 11
-31.279388
 21
-18.426356
 31
0.0
  0
LINE
  5
681
100
AcDbEntity
  8
3
370
    25
100
AcDbLine
 10
-30.975577
 20
-15.335423
 30
0.0
 11
-31.279388
 21
-18.426356
 31
0.0
  0
ARC
  5
682
100
AcDbEntity
  8
3
370
    25
100
AcDbCircle
 10
-25.359722
 20
12.175928
 30
0.0
 40
29.623735
100
AcDbArc
 50
250.0
 51
270.0
  0
ENDBLK
  5
683
100
AcDbEntity
  8
3
100
AcDbBlockEnd
  0
BLOCK
  5
684
100
AcDbEntity
  8
3
100
AcDbBlockBegin
  2
*D7
 70
     1
 10
0.0
 20
0.0
 30
0.0
  3
*D7
  1

  0
TEXT
  5
685
100
AcDbEntity
  8
3
370
    25
100
AcDbText
 10
18.409662
 20
341.052175
 30
0.0
 40
10.5
  1
６０゜
 50
60.0
 72
     5
 11
33.109662
 21
366.513322
 31
0.0
100
AcDbText
  0
LINE
  5
686
100
AcDbEntity
  8
3
370
    25
100
AcDbLine
 10
57.078157
 20
378.051629
 30
0.0
 11
53.560512
 21
384.144369
 31
0.0
  0
LINE
  5
687
100
AcDbEntity
  8
3
370
    25
100
AcDbLine
 10
15.700055
 20
307.251082
 30
0.0
 11
9.166153
 21
307.251082
 31
0.0
  0
LINE
  5
688
100
AcDbEntity
  8
3
370
    25
100
AcDbLine
 10
55.060512
 20
381.546293
 30
0.0
 11
49.320719
 21
379.798502
 31
0.0
  0
LINE
  5
689
100
AcDbEntity
  8
3
370
    25
100
AcDbLine
 10
55.060512
 20
381.546293
 30
0.0
 11
50.963601
 21
377.162765
 31
0.0
  0
LINE
  5
68A
100
AcDbEntity
  8
3
370
    25
100
AcDbLine
 10
49.320719
 20
379.798502
 30
0.0
 11
50.963601
 21
377.162765
 31
0.0
  0
LINE
  5
68B
100
AcDbEntity
  8
3
370
    25
100
AcDbLine
 10
12.166153
 20
307.251082
 30
0.0
 11
13.913943
 21
312.990875
 31
0.0
  0
LINE
  5
68C
100
AcDbEntity
  8
3
370
    25
100
AcDbLine
 10
12.166153
 20
307.251082
 30
0.0
 11
10.809887
 21
313.095784
 31
0.0
  0
LINE
  5
68D
100
AcDbEntity
  8
3
370
    25
100
AcDbLine
 10
13.913943
 20
312.990875
 30
0.0
 11
10.809887
 21
313.095784
 31
0.0
  0
ARC
  5
68E
100
AcDbEntity
  8
3
370
    25
100
AcDbCircle
 10
97.954872
 20
307.251082
 30
0.0
 40
85.78872
100
AcDbArc
 50
120.0
 51
180.0
  0
ENDBLK
  5
68F
100
AcDbEntity
  8
3
100
AcDbBlockEnd
  0
BLOCK
  5
690
100
AcDbEntity
  8
3
100
AcDbBlockBegin
  2
*D8
 70
     1
 10
0.0
 20
0.0
 30
0.0
  3
*D8
  1

  0
TEXT
  5
691
100
AcDbEntity
  8
3
370
    25
100
AcDbText
 10
11.647165
 20
302.694684
 30
0.0
 40
10.5
  1
２０゜
 50
280.0
 72
     5
 11
16.752421
 21
273.741336
 31
0.0
100
AcDbText
  0
LINE
  5
692
100
AcDbEntity
  8
3
370
    25
100
AcDbLine
 10
12.073934
 20
307.251082
 30
0.0
 11
15.167163
 21
307.251082
 31
0.0
  0
LINE
  5
693
100
AcDbEntity
  8
3
370
    25
100
AcDbLine
 10
20.660628
 20
279.118278
 30
0.0
 11
14.521717
 21
276.883897
 31
0.0
  0
LINE
  5
694
100
AcDbEntity
  8
3
370
    25
100
AcDbLine
 10
12.167163
 20
307.251082
 30
0.0
 11
10.8109
 21
301.406379
 31
0.0
  0
LINE
  5
695
100
AcDbEntity
  8
3
370
    25
100
AcDbLine
 10
12.167163
 20
307.251082
 30
0.0
 11
13.914956
 21
301.511289
 31
0.0
  0
LINE
  5
696
100
AcDbEntity
  8
3
370
    25
100
AcDbLine
 10
10.8109
 20
301.406379
 30
0.0
 11
13.914956
 21
301.511289
 31
0.0
  0
LINE
  5
697
100
AcDbEntity
  8
3
370
    25
100
AcDbLine
 10
17.340795
 20
277.909957
 30
0.0
 11
17.020058
 21
283.901379
 31
0.0
  0
LINE
  5
698
100
AcDbEntity
  8
3
370
    25
100
AcDbLine
 10
17.340795
 20
277.909957
 30
0.0
 11
14.067318
 21
282.938312
 31
0.0
  0
LINE
  5
699
100
AcDbEntity
  8
3
370
    25
100
AcDbLine
 10
17.020058
 20
283.901379
 30
0.0
 11
14.067318
 21
282.938312
 31
0.0
  0
ARC
  5
69A
100
AcDbEntity
  8
3
370
    25
100
AcDbCircle
 10
97.954872
 20
307.251082
 30
0.0
 40
85.78771
100
AcDbArc
 50
180.0
 51
200.0
  0
ENDBLK
  5
69B
100
AcDbEntity
  8
3
100
AcDbBlockEnd
  0
BLOCK
  5
69C
100
AcDbEntity
  8
3
100
AcDbBlockBegin
  2
*D9
 70
     1
 10
0.0
 20
0.0
 30
0.0
  3
*D9
  1

  0
TEXT
  5
69D
100
AcDbEntity
  8
3
370
    25
100
AcDbText
 10
-11.444598
 20
-64.117225
 30
0.0
 40
10.5
  1
１１５
 50
90.0
 72
     5
 11
-11.444598
 21
-34.717225
 31
0.0
100
AcDbText
  0
LINE
  5
69E
100
AcDbEntity
  8
3
370
    25
100
AcDbLine
 10
71.454872
 20
-105.849298
 30
0.0
 11
-12.944598
 21
-105.849298
 31
0.0
  0
LINE
  5
69F
100
AcDbEntity
  8
3
370
    25
100
AcDbLine
 10
-9.944598
 20
-105.849298
 30
0.0
 11
-8.391684
 21
-100.053743
 31
0.0
  0
LINE
  5
6A0
100
AcDbEntity
  8
3
370
    25
100
AcDbLine
 10
-9.944598
 20
-105.849298
 30
0.0
 11
-11.497512
 21
-100.053743
 31
0.0
  0
LINE
  5
6A1
100
AcDbEntity
  8
3
370
    25
100
AcDbLine
 10
-8.391684
 20
-100.053743
 30
0.0
 11
-11.497512
 21
-100.053743
 31
0.0
  0
LINE
  5
6A2
100
AcDbEntity
  8
3
370
    25
100
AcDbLine
 10
-9.944598
 20
-105.849298
 30
0.0
 11
-9.944598
 21
9.114847
 31
0.0
  0
LINE
  5
6A3
100
AcDbEntity
  8
3
370
    25
100
AcDbLine
 10
-9.944598
 20
9.114847
 30
0.0
 11
-11.497512
 21
3.319292
 31
0.0
  0
LINE
  5
6A4
100
AcDbEntity
  8
3
370
    25
100
AcDbLine
 10
-9.944598
 20
9.114847
 30
0.0
 11
-8.391684
 21
3.319292
 31
0.0
  0
LINE
  5
6A5
100
AcDbEntity
  8
3
370
    25
100
AcDbLine
 10
-11.497512
 20
3.319292
 30
0.0
 11
-8.391684
 21
3.319292
 31
0.0
  0
LINE
  5
6A6
100
AcDbEntity
  8
3
370
    25
100
AcDbLine
 10
-13.949473
 20
9.114847
 30
0.0
 11
-6.944598
 21
9.114847
 31
0.0
  0
ENDBLK
  5
6A7
100
AcDbEntity
  8
3
100
AcDbBlockEnd
  0
BLOCK
  5
6A8
100
AcDbEntity
  8
3
100
AcDbBlockBegin
  2
*D10
 70
     1
 10
0.0
 20
0.0
 30
0.0
  3
*D10
  1

  0
TEXT
  5
6A9
100
AcDbEntity
  8
3
370
    25
100
AcDbText
 10
-56.839319
 20
-9.735198
 30
0.0
 40
10.5
  1
２２４
 50
90.0
 72
     5
 11
-56.839319
 21
19.664802
 31
0.0
100
AcDbText
  0
LINE
  5
6AA
100
AcDbEntity
  8
3
370
    25
100
AcDbLine
 10
71.454872
 20
-105.849298
 30
0.0
 11
-58.339319
 21
-105.849298
 31
0.0
  0
LINE
  5
6AB
100
AcDbEntity
  8
3
370
    25
100
AcDbLine
 10
-55.339319
 20
-105.849298
 30
0.0
 11
-53.786405
 21
-100.053743
 31
0.0
  0
LINE
  5
6AC
100
AcDbEntity
  8
3
370
    25
100
AcDbLine
 10
-55.339319
 20
-105.849298
 30
0.0
 11
-56.892234
 21
-100.053743
 31
0.0
  0
LINE
  5
6AD
100
AcDbEntity
  8
3
370
    25
100
AcDbLine
 10
-53.786405
 20
-100.053743
 30
0.0
 11
-56.892234
 21
-100.053743
 31
0.0
  0
LINE
  5
6AE
100
AcDbEntity
  8
3
370
    25
100
AcDbLine
 10
-55.339319
 20
-105.849298
 30
0.0
 11
-55.339319
 21
117.878901
 31
0.0
  0
LINE
  5
6AF
100
AcDbEntity
  8
3
370
    25
100
AcDbLine
 10
-55.339319
 20
117.878901
 30
0.0
 11
-56.892234
 21
112.083346
 31
0.0
  0
LINE
  5
6B0
100
AcDbEntity
  8
3
370
    25
100
AcDbLine
 10
-55.339319
 20
117.878901
 30
0.0
 11
-53.786405
 21
112.083346
 31
0.0
  0
LINE
  5
6B1
100
AcDbEntity
  8
3
370
    25
100
AcDbLine
 10
-56.892234
 20
112.083346
 30
0.0
 11
-53.786405
 21
112.083346
 31
0.0
  0
LINE
  5
6B2
100
AcDbEntity
  8
3
370
    25
100
AcDbLine
 10
31.89221
 20
117.878901
 30
0.0
 11
-58.339319
 21
117.878901
 31
0.0
  0
ENDBLK
  5
6B3
100
AcDbEntity
  8
3
100
AcDbBlockEnd
  0
BLOCK
  5
6B4
100
AcDbEntity
  8
3
100
AcDbBlockBegin
  2
*D11
 70
     1
 10
0.0
 20
0.0
 30
0.0
  3
*D11
  1

  0
LINE
  5
6B5
100
AcDbEntity
  8
3
370
    25
100
AcDbLine
 10
-290.265416
 20
-317.245601
 30
0.0
 11
-182.146133
 21
-317.245601
 31
0.0
  0
LINE
  5
6B6
100
AcDbEntity
  8
3
370
    25
100
AcDbLine
 10
-185.146133
 20
-317.245601
 30
0.0
 11
-183.593219
 21
-311.450046
 31
0.0
  0
LINE
  5
6B7
100
AcDbEntity
  8
3
370
    25
100
AcDbLine
 10
-185.146133
 20
-317.245601
 30
0.0
 11
-186.699048
 21
-311.450046
 31
0.0
  0
LINE
  5
6B8
100
AcDbEntity
  8
3
370
    25
100
AcDbLine
 10
-183.593219
 20
-311.450046
 30
0.0
 11
-186.699048
 21
-311.450046
 31
0.0
  0
LINE
  5
6B9
100
AcDbEntity
  8
3
370
    25
100
AcDbLine
 10
-185.146133
 20
-317.245601
 30
0.0
 11
-185.146133
 21
-105.849298
 31
0.0
  0
LINE
  5
6BA
100
AcDbEntity
  8
3
370
    25
100
AcDbLine
 10
-185.146133
 20
-105.849298
 30
0.0
 11
-186.699048
 21
-111.644853
 31
0.0
  0
LINE
  5
6BB
100
AcDbEntity
  8
3
370
    25
100
AcDbLine
 10
-185.146133
 20
-105.849298
 30
0.0
 11
-183.593219
 21
-111.644853
 31
0.0
  0
LINE
  5
6BC
100
AcDbEntity
  8
3
370
    25
100
AcDbLine
 10
-186.699048
 20
-111.644853
 30
0.0
 11
-183.593219
 21
-111.644853
 31
0.0
  0
LINE
  5
6BD
100
AcDbEntity
  8
3
370
    25
100
AcDbLine
 10
-329.453258
 20
-105.849298
 30
0.0
 11
-182.146133
 21
-105.849298
 31
0.0
  0
ENDBLK
  5
6BE
100
AcDbEntity
  8
3
100
AcDbBlockEnd
  0
ENDSEC
  0
SECTION
  2
ENTITIES
  0
LINE
  5
30
100
AcDbEntity
  8
1
370
   100
100
AcDbLine
 10
-559.532355
 20
412.543151
 30
0.0
 11
592.473578
 21
412.543151
 31
0.0
  0
LINE
  5
31
100
AcDbEntity
  8
1
370
   100
100
AcDbLine
 10
-559.532355
 20
412.543151
 30
0.0
 11
-559.532355
 21
-416.957822
 31
0.0
  0
LINE
  5
32
100
AcDbEntity
  8
1
370
   100
100
AcDbLine
 10
-559.532355
 20
-416.957822
 30
0.0
 11
592.473578
 21
-416.957822
 31
0.0
  0
LINE
  5
33
100
AcDbEntity
  8
1
370
   100
100
AcDbLine
 10
592.473578
 20
-416.957822
 30
0.0
 11
592.473578
 21
412.543151
 31
0.0
  0
TEXT
  5
34
100
AcDbEntity
  8
1
370
    50
100
AcDbText
 10
539.442664
 20
-339.379285
 30
0.0
 40
9.0
  1
設計
 72
     5
 11
555.642664
 21
-339.379285
 31
0.0
100
AcDbText
  0
TEXT
  5
35
100
AcDbEntity
  8
1
370
    50
100
AcDbText
 10
568.691217
 20
-339.149488
 30
0.0
 40
9.0
  1
製図
 72
     5
 11
584.891217
 21
-339.149488
 31
0.0
100
AcDbText
  0
TEXT
  5
36
100
AcDbEntity
  8
1
370
    50
100
AcDbText
 10
478.508617
 20
-339.379285
 30
0.0
 40
9.0
  1
承認
 72
     5
 11
494.708617
 21
-339.379285
 31
0.0
100
AcDbText
  0
TEXT
  5
37
100
AcDbEntity
  8
1
370
    50
100
AcDbText
 10
508.484518
 20
-339.297029
 30
0.0
 40
9.0
  1
検図
 72
     5
 11
524.684518
 21
-339.297029
 31
0.0
100
AcDbText
  0
LINE
  5
38
100
AcDbEntity
  8
1
370
    25
100
AcDbLine
 10
427.473578
 20
-341.957822
 30
0.0
 11
592.473578
 21
-341.957822
 31
0.0
  0
LINE
  5
39
100
AcDbEntity
  8
1
370
    25
100
AcDbLine
 10
513.723578
 20
-368.957822
 30
0.0
 11
513.723578
 21
-389.957822
 31
0.0
  0
TEXT
  5
3A
100
AcDbEntity
  8
1
370
    50
100
AcDbText
 10
479.327385
 20
-384.018792
 30
0.0
 40
9.0
  1
日　付
 72
     5
 11
504.527385
 21
-384.018792
 31
0.0
100
AcDbText
  0
LINE
  5
3B
100
AcDbEntity
  8
1
370
    50
100
AcDbLine
 10
61.473578
 20
-389.957822
 30
0.0
 11
592.473578
 21
-389.957822
 31
0.0
  0
TEXT
  5
3C
100
AcDbEntity
  8
1
370
    50
100
AcDbText
 10
431.662516
 20
-384.483609
 30
0.0
 40
9.0
  1
第三角法
 72
     5
 11
465.862516
 21
-384.483609
 31
0.0
100
AcDbText
  0
TEXT
  5
3D
100
AcDbEntity
  8
1
370
    50
100
AcDbText
 10
436.631129
 20
-338.997029
 30
0.0
 40
9.0
  1
尺　度
 72
     5
 11
461.831129
 21
-338.997029
 31
0.0
100
AcDbText
  0
LINE
  5
3E
100
AcDbEntity
  8
1
370
   100
100
AcDbLine
 10
61.473578
 20
-326.957822
 30
0.0
 11
592.473578
 21
-326.957822
 31
0.0
  0
LINE
  5
3F
100
AcDbEntity
  8
1
370
    50
100
AcDbLine
 10
317.973578
 20
-326.957822
 30
0.0
 11
317.973578
 21
-416.957822
 31
0.0
  0
LINE
  5
40
100
AcDbEntity
  8
1
370
    25
100
AcDbLine
 10
562.473578
 20
-368.957822
 30
0.0
 11
562.473578
 21
-326.957822
 31
0.0
  0
LINE
  5
41
100
AcDbEntity
  8
1
370
    25
100
AcDbLine
 10
532.473578
 20
-368.957822
 30
0.0
 11
532.473578
 21
-326.957822
 31
0.0
  0
LINE
  5
42
100
AcDbEntity
  8
1
370
    25
100
AcDbLine
 10
502.473578
 20
-368.957822
 30
0.0
 11
502.473578
 21
-326.957822
 31
0.0
  0
LINE
  5
43
100
AcDbEntity
  8
1
370
    50
100
AcDbLine
 10
427.473578
 20
-416.957822
 30
0.0
 11
427.473578
 21
-326.957822
 31
0.0
  0
LINE
  5
44
100
AcDbEntity
  8
1
370
    50
100
AcDbLine
 10
284.973578
 20
-326.957822
 30
0.0
 11
284.973578
 21
-416.957822
 31
0.0
  0
LINE
  5
45
100
AcDbEntity
  8
1
370
    50
100
AcDbLine
 10
94.473578
 20
-326.957822
 30
0.0
 11
94.473578
 21
-389.957822
 31
0.0
  0
LINE
  5
46
100
AcDbEntity
  8
1
370
    50
100
AcDbLine
 10
427.473578
 20
-368.957822
 30
0.0
 11
592.473578
 21
-368.957822
 31
0.0
  0
TEXT
  5
47
100
AcDbEntity
  8
1
370
    50
100
AcDbText
 10
430.651694
 20
-407.821408
 30
0.0
 40
9.0
  1
コードＮｏ
 41
0.9
 72
     5
 11
469.531694
 21
-407.821408
 31
0.0
100
AcDbText
  0
TEXT
  5
48
100
AcDbEntity
  8
1
370
   100
100
AcDbText
 10
79.330161
 20
-409.313489
 30
0.0
 40
12.0
  1
ミズタニバルブ工業株式会社
 41
1.2
 72
     5
 11
263.650161
 21
-409.313489
 31
0.0
100
AcDbText
  0
LINE
  5
49
100
AcDbEntity
  8
1
370
    50
100
AcDbLine
 10
61.473578
 20
-358.457822
 30
0.0
 11
427.473578
 21
-358.457822
 31
0.0
  0
LINE
  5
4A
100
AcDbEntity
  8
1
370
    50
100
AcDbLine
 10
173.223578
 20
-358.457822
 30
0.0
 11
173.223578
 21
-389.957822
 31
0.0
  0
LINE
  5
4B
100
AcDbEntity
  8
1
370
    50
100
AcDbLine
 10
206.223578
 20
-358.457822
 30
0.0
 11
206.223578
 21
-389.957822
 31
0.0
  0
LINE
  5
4C
100
AcDbEntity
  8
1
370
    50
100
AcDbLine
 10
472.473578
 20
-416.957822
 30
0.0
 11
472.473578
 21
-326.957822
 31
0.0
  0
TEXT
  5
4D
100
AcDbEntity
  8
1
370
    50
100
AcDbText
 10
517.647196
 20
-384.15044
 30
0.0
 40
9.0
  1
　　・　　・
 72
     5
 11
569.847196
 21
-384.15044
 31
0.0
100
AcDbText
  0
LINE
  5
4E
100
AcDbEntity
  8
1
370
   100
100
AcDbLine
 10
61.473578
 20
-326.957822
 30
0.0
 11
61.473578
 21
-416.957822
 31
0.0
  0
TEXT
  5
4F
100
AcDbEntity
  8
1
370
    50
100
AcDbText
 10
436.248873
 20
-360.020238
 30
0.0
 40
9.0
  1
　／ 
 72
     5
 11
452.448873
 21
-360.020238
 31
0.0
100
AcDbText
  0
TEXT
  5
50
100
AcDbEntity
  8
1
370
    50
100
AcDbText
 10
290.856184
 20
-408.037363
 30
0.0
 40
9.0
  1
備 考 
 72
     5
 11
311.556184
 21
-408.037363
 31
0.0
100
AcDbText
  0
TEXT
  5
51
100
AcDbEntity
  8
1
370
    50
100
AcDbText
 10
290.2688
 20
-346.33776
 30
0.0
 40
9.0
  1
仕 上
 72
     5
 11
310.9688
 21
-346.33776
 31
0.0
100
AcDbText
  0
TEXT
  5
52
100
AcDbEntity
  8
1
370
    50
100
AcDbText
 10
290.170764
 20
-373.337499
 30
0.0
 40
9.0
  1
表 面
 72
     5
 11
310.870764
 21
-373.337499
 31
0.0
100
AcDbText
  0
TEXT
  5
53
100
AcDbEntity
  8
1
370
    50
100
AcDbText
 10
290.170764
 20
-383.837499
 30
0.0
 40
9.0
  1
処 理
 72
     5
 11
310.870764
 21
-383.837499
 31
0.0
100
AcDbText
  0
TEXT
  5
54
100
AcDbEntity
  8
1
370
    50
100
AcDbText
 10
67.190025
 20
-347.540099
 30
0.0
 40
9.0
  1
品 名
 72
     5
 11
87.890025
 21
-347.540099
 31
0.0
100
AcDbText
  0
TEXT
  5
55
100
AcDbEntity
  8
1
370
    50
100
AcDbText
 10
66.596649
 20
-378.693801
 30
0.0
 40
9.0
  1
材 質
 72
     5
 11
87.296649
 21
-378.693801
 31
0.0
100
AcDbText
  0
TEXT
  5
56
100
AcDbEntity
  8
1
370
    50
100
AcDbText
 10
178.346649
 20
-378.693801
 30
0.0
 40
9.0
  1
規 格
 72
     5
 11
199.046649
 21
-378.693801
 31
0.0
100
AcDbText
  0
LINE
  5
57
100
AcDbEntity
  8
2
370
    50
100
AcDbLine
 10
80.454872
 20
-41.549298
 30
0.0
 11
80.754872
 21
-41.849298
 31
0.0
  0
LINE
  5
58
100
AcDbEntity
  8
2
370
    50
100
AcDbLine
 10
115.454872
 20
-41.549298
 30
0.0
 11
115.154872
 21
-41.849298
 31
0.0
  0
LINE
  5
59
100
AcDbEntity
  8
2
370
    50
100
AcDbLine
 10
115.154872
 20
-41.849298
 30
0.0
 11
80.754872
 21
-41.849298
 31
0.0
  0
LINE
  5
5A
100
AcDbEntity
  8
2
370
    25
100
AcDbLine
 10
80.454872
 20
-41.549298
 30
0.0
 11
115.454872
 21
-41.549298
 31
0.0
  0
LINE
  5
5B
100
AcDbEntity
  8
2
370
    50
100
AcDbLine
 10
-373.453258
 20
-41.549298
 30
0.0
 11
-373.153258
 21
-41.849298
 31
0.0
  0
LINE
  5
5C
100
AcDbEntity
  8
2
370
    50
100
AcDbLine
 10
-338.453258
 20
-41.549298
 30
0.0
 11
-338.753258
 21
-41.849298
 31
0.0
  0
LINE
  5
5D
100
AcDbEntity
  8
2
370
    50
100
AcDbLine
 10
-338.753258
 20
-41.849298
 30
0.0
 11
-373.153258
 21
-41.849298
 31
0.0
  0
LINE
  5
5E
100
AcDbEntity
  8
2
370
    25
100
AcDbLine
 10
-373.453258
 20
-41.549298
 30
0.0
 11
-338.453258
 21
-41.549298
 31
0.0
  0
LINE
  5
5F
100
AcDbEntity
  8
2
370
    50
100
AcDbLine
 10
350.121063
 20
-41.549298
 30
0.0
 11
349.821063
 21
-41.849298
 31
0.0
  0
LINE
  5
60
100
AcDbEntity
  8
2
370
    50
100
AcDbLine
 10
315.121063
 20
-41.549298
 30
0.0
 11
315.421063
 21
-41.849298
 31
0.0
  0
LINE
  5
61
100
AcDbEntity
  8
2
370
    50
100
AcDbLine
 10
356.621063
 20
-102.349298
 30
0.0
 11
356.621063
 21
-105.349298
 31
0.0
  0
LINE
  5
62
100
AcDbEntity
  8
2
370
    50
100
AcDbLine
 10
356.121063
 20
-105.849298
 30
0.0
 11
332.621063
 21
-105.849298
 31
0.0
  0
LINE
  5
63
100
AcDbEntity
  8
2
370
    50
100
AcDbLine
 10
332.621063
 20
-101.849298
 30
0.0
 11
356.121063
 21
-101.849298
 31
0.0
  0
LINE
  5
64
100
AcDbEntity
  8
2
370
    50
100
AcDbLine
 10
356.121063
 20
-101.849298
 30
0.0
 11
356.621063
 21
-102.349298
 31
0.0
  0
LINE
  5
65
100
AcDbEntity
  8
2
370
    50
100
AcDbLine
 10
356.121063
 20
-105.849298
 30
0.0
 11
356.621063
 21
-105.349298
 31
0.0
  0
LINE
  5
66
100
AcDbEntity
  8
2
370
    50
100
AcDbLine
 10
308.621063
 20
-102.349298
 30
0.0
 11
308.621063
 21
-105.349298
 31
0.0
  0
LINE
  5
67
100
AcDbEntity
  8
2
370
    50
100
AcDbLine
 10
309.121063
 20
-105.849298
 30
0.0
 11
332.621063
 21
-105.849298
 31
0.0
  0
LINE
  5
68
100
AcDbEntity
  8
2
370
    50
100
AcDbLine
 10
332.621063
 20
-101.849298
 30
0.0
 11
309.121063
 21
-101.849298
 31
0.0
  0
LINE
  5
69
100
AcDbEntity
  8
2
370
    50
100
AcDbLine
 10
309.121063
 20
-101.849298
 30
0.0
 11
308.621063
 21
-102.349298
 31
0.0
  0
LINE
  5
6A
100
AcDbEntity
  8
2
370
    50
100
AcDbLine
 10
309.121063
 20
-105.849298
 30
0.0
 11
308.621063
 21
-105.349298
 31
0.0
  0
LINE
  5
6B
100
AcDbEntity
  8
2
370
    25
100
AcDbLine
 10
350.121063
 20
-41.549298
 30
0.0
 11
315.121063
 21
-41.549298
 31
0.0
  0
LINE
  5
6C
100
AcDbEntity
  8
2
370
    25
100
AcDbLine
 10
308.621063
 20
-102.349298
 30
0.0
 11
356.621063
 21
-102.349298
 31
0.0
  0
LINE
  5
6D
100
AcDbEntity
  8
2
370
    25
100
AcDbLine
 10
356.621063
 20
-105.349298
 30
0.0
 11
308.621063
 21
-105.349298
 31
0.0
  0
LINE
  5
6E
100
AcDbEntity
  8
2
370
    50
100
AcDbLine
 10
309.121063
 20
-108.849298
 30
0.0
 11
356.121063
 21
-108.849298
 31
0.0
  0
LINE
  5
6F
100
AcDbEntity
  8
2
370
    50
100
AcDbLine
 10
356.121063
 20
-105.849298
 30
0.0
 11
356.121063
 21
-108.849298
 31
0.0
  0
LINE
  5
70
100
AcDbEntity
  8
2
370
    50
100
AcDbLine
 10
309.121063
 20
-105.849298
 30
0.0
 11
309.121063
 21
-108.849298
 31
0.0
  0
HATCH
  5
71
100
AcDbEntity
  8
2
370
    25
100
AcDbHatch
 10
0.0
 20
0.0
 30
0.0
210
0.0
220
0.0
230
1.0
  2
_U
 70
     0
 71
     1
 91
        1
 92
        1
 93
        5
 72
     1
 10
309.12106299999999
 20
-105.849298
 11
332.62106299999999
 21
-105.849298
 72
     1
 10
332.62106299999999
 20
-105.849298
 11
356.12106299999999
 21
-105.849298
 72
     1
 10
356.12106299999999
 20
-105.849298
 11
356.12106299999999
 21
-108.849298
 72
     1
 10
356.12106299999999
 20
-108.849298
 11
309.12106299999999
 21
-108.849298
 72
     1
 10
309.12106299999999
 20
-108.849298
 11
309.12106299999999
 21
-105.849298
 97
        5
330
0
330
0
330
0
330
0
330
0
 75
     0
 76
     0
 52
45.0
 41
1.0
 77
     0
 78
     1
 53
45.0
 43
0.0
 44
0.0
 45
-2.1213199999999999
 46
2.1213199999999999
 79
     0
 98
        1
 10
0.0
 20
0.0
  0
LINE
  5
72
100
AcDbEntity
  8
2
370
    25
100
AcDbLine
 10
-373.453258
 20
-42.149298
 30
0.0
 11
-338.453258
 21
-42.149298
 31
0.0
  0
LINE
  5
73
100
AcDbEntity
  8
2
370
    50
100
AcDbLine
 10
-338.453258
 20
-42.149298
 30
0.0
 11
-338.753258
 21
-41.849298
 31
0.0
  0
LINE
  5
74
100
AcDbEntity
  8
2
370
    50
100
AcDbLine
 10
-373.453258
 20
-42.149298
 30
0.0
 11
-373.153258
 21
-41.849298
 31
0.0
  0
LINE
  5
75
100
AcDbEntity
  8
2
370
    50
100
AcDbLine
 10
-373.453258
 20
-42.149298
 30
0.0
 11
-373.453258
 21
-101.549298
 31
0.0
  0
LINE
  5
76
100
AcDbEntity
  8
2
370
    50
100
AcDbLine
 10
-338.453258
 20
-101.549298
 30
0.0
 11
-338.453258
 21
-42.149298
 31
0.0
  0
LINE
  5
77
100
AcDbEntity
  8
2
370
    50
100
AcDbLine
 10
-373.453258
 20
-101.549298
 30
0.0
 11
-373.153258
 21
-101.849298
 31
0.0
  0
LINE
  5
78
100
AcDbEntity
  8
2
370
    50
100
AcDbLine
 10
-338.453258
 20
-101.549298
 30
0.0
 11
-338.753258
 21
-101.849298
 31
0.0
  0
LINE
  5
79
100
AcDbEntity
  8
2
370
    50
100
AcDbLine
 10
-355.953258
 20
-101.849298
 30
0.0
 11
-379.453258
 21
-101.849298
 31
0.0
  0
LINE
  5
7A
100
AcDbEntity
  8
2
370
    50
100
AcDbLine
 10
-379.453258
 20
-101.849298
 30
0.0
 11
-379.953258
 21
-102.349298
 31
0.0
  0
LINE
  5
7B
100
AcDbEntity
  8
2
370
    50
100
AcDbLine
 10
-379.953258
 20
-102.349298
 30
0.0
 11
-379.953258
 21
-105.349298
 31
0.0
  0
LINE
  5
7C
100
AcDbEntity
  8
2
370
    50
100
AcDbLine
 10
-379.953258
 20
-105.349298
 30
0.0
 11
-379.453258
 21
-105.849298
 31
0.0
  0
LINE
  5
7D
100
AcDbEntity
  8
2
370
    50
100
AcDbLine
 10
-355.953258
 20
-105.849298
 30
0.0
 11
-379.453258
 21
-105.849298
 31
0.0
  0
LINE
  5
7E
100
AcDbEntity
  8
2
370
    50
100
AcDbLine
 10
-373.453258
 20
-145.099298
 30
0.0
 11
-372.703258
 21
-145.849298
 31
0.0
  0
LINE
  5
7F
100
AcDbEntity
  8
2
370
    50
100
AcDbLine
 10
-355.953258
 20
-145.849298
 30
0.0
 11
-372.703258
 21
-145.849298
 31
0.0
  0
LINE
  5
80
100
AcDbEntity
  8
2
370
    50
100
AcDbLine
 10
-373.453258
 20
-145.099298
 30
0.0
 11
-373.453258
 21
-139.298578
 31
0.0
  0
LINE
  5
81
100
AcDbEntity
  8
2
370
    50
100
AcDbLine
 10
-373.453258
 20
-123.849298
 30
0.0
 11
-373.453258
 21
-108.849298
 31
0.0
  0
LINE
  5
82
100
AcDbEntity
  8
2
370
    25
100
AcDbLine
 10
-372.703258
 20
-145.849298
 30
0.0
 11
-372.703258
 21
-139.298578
 31
0.0
  0
LINE
  5
83
100
AcDbEntity
  8
2
370
    25
100
AcDbLine
 10
-372.703258
 20
-123.849298
 30
0.0
 11
-372.703258
 21
-108.849298
 31
0.0
  0
LINE
  5
84
100
AcDbEntity
  8
2
370
    50
100
AcDbLine
 10
-355.953258
 20
-101.849298
 30
0.0
 11
-332.453258
 21
-101.849298
 31
0.0
  0
LINE
  5
85
100
AcDbEntity
  8
2
370
    50
100
AcDbLine
 10
-332.453258
 20
-101.849298
 30
0.0
 11
-331.953258
 21
-102.349298
 31
0.0
  0
LINE
  5
86
100
AcDbEntity
  8
2
370
    50
100
AcDbLine
 10
-331.953258
 20
-102.349298
 30
0.0
 11
-331.953258
 21
-105.349298
 31
0.0
  0
LINE
  5
87
100
AcDbEntity
  8
2
370
    50
100
AcDbLine
 10
-331.953258
 20
-105.349298
 30
0.0
 11
-332.453258
 21
-105.849298
 31
0.0
  0
LINE
  5
88
100
AcDbEntity
  8
2
370
    50
100
AcDbLine
 10
-355.953258
 20
-105.849298
 30
0.0
 11
-332.453258
 21
-105.849298
 31
0.0
  0
LINE
  5
89
100
AcDbEntity
  8
2
370
    50
100
AcDbLine
 10
-338.453258
 20
-145.099298
 30
0.0
 11
-339.203258
 21
-145.849298
 31
0.0
  0
LINE
  5
8A
100
AcDbEntity
  8
2
370
    50
100
AcDbLine
 10
-355.953258
 20
-145.849298
 30
0.0
 11
-339.203258
 21
-145.849298
 31
0.0
  0
LINE
  5
8B
100
AcDbEntity
  8
2
370
    50
100
AcDbLine
 10
-338.453258
 20
-145.099298
 30
0.0
 11
-338.453258
 21
-139.298578
 31
0.0
  0
LINE
  5
8C
100
AcDbEntity
  8
2
370
    25
100
AcDbLine
 10
-339.203258
 20
-145.849298
 30
0.0
 11
-339.203258
 21
-139.298578
 31
0.0
  0
LINE
  5
8D
100
AcDbEntity
  8
2
370
    25
100
AcDbLine
 10
-339.203258
 20
-123.849298
 30
0.0
 11
-339.203258
 21
-108.849298
 31
0.0
  0
LINE
  5
8E
100
AcDbEntity
  8
2
370
    25
100
AcDbLine
 10
-373.453258
 20
-101.549298
 30
0.0
 11
-338.453258
 21
-101.549298
 31
0.0
  0
LINE
  5
8F
100
AcDbEntity
  8
2
370
    25
100
AcDbLine
 10
-379.953258
 20
-102.349298
 30
0.0
 11
-331.953258
 21
-102.349298
 31
0.0
  0
LINE
  5
90
100
AcDbEntity
  8
2
370
    25
100
AcDbLine
 10
-331.953258
 20
-105.349298
 30
0.0
 11
-379.953258
 21
-105.349298
 31
0.0
  0
LINE
  5
91
100
AcDbEntity
  8
2
370
    50
100
AcDbLine
 10
-379.453258
 20
-105.849298
 30
0.0
 11
-379.453258
 21
-108.849298
 31
0.0
  0
LINE
  5
92
100
AcDbEntity
  8
2
370
    50
100
AcDbLine
 10
-332.453258
 20
-105.849298
 30
0.0
 11
-332.453258
 21
-108.849298
 31
0.0
  0
LINE
  5
93
100
AcDbEntity
  8
2
370
    50
100
AcDbLine
 10
-379.453258
 20
-108.849298
 30
0.0
 11
-332.453258
 21
-108.849298
 31
0.0
  0
HATCH
  5
94
100
AcDbEntity
  8
2
370
    25
100
AcDbHatch
 10
0.0
 20
0.0
 30
0.0
210
0.0
220
0.0
230
1.0
  2
_U
 70
     0
 71
     1
 91
        1
 92
        1
 93
        5
 72
     1
 10
-332.45325800000001
 20
-108.849298
 11
-332.45325800000001
 21
-105.849298
 72
     1
 10
-332.45325800000001
 20
-105.849298
 11
-355.95325800000001
 21
-105.849298
 72
     1
 10
-355.95325800000001
 20
-105.849298
 11
-379.45325800000001
 21
-105.849298
 72
     1
 10
-379.45325800000001
 20
-105.849298
 11
-379.45325800000001
 21
-108.849298
 72
     1
 10
-379.45325800000001
 20
-108.849298
 11
-332.45325800000001
 21
-108.849298
 97
        5
330
0
330
0
330
0
330
0
330
0
 75
     0
 76
     0
 52
45.0
 41
1.0
 77
     0
 78
     1
 53
45.0
 43
0.0
 44
0.0
 45
-2.1213199999999999
 46
2.1213199999999999
 79
     0
 98
        1
 10
0.0
 20
0.0
  0
LINE
  5
95
100
AcDbEntity
  8
2
370
    25
100
AcDbLine
 10
-338.453258
 20
-145.099298
 30
0.0
 11
-348.864535
 21
-145.099298
 31
0.0
  0
LINE
  5
96
100
AcDbEntity
  8
2
370
    50
100
AcDbLine
 10
-348.864535
 20
-145.849298
 30
0.0
 11
-348.864535
 21
-139.298578
 31
0.0
  0
LINE
  5
97
100
AcDbEntity
  8
2
370
    50
100
AcDbLine
 10
-363.041982
 20
-145.849298
 30
0.0
 11
-363.041982
 21
-139.298578
 31
0.0
  0
LINE
  5
98
100
AcDbEntity
  8
2
370
    25
100
AcDbLine
 10
-373.453258
 20
-145.099298
 30
0.0
 11
-363.041982
 21
-145.099298
 31
0.0
  0
LINE
  5
99
100
AcDbEntity
  8
2
370
    50
100
AcDbLine
 10
-383.541258
 20
-123.849298
 30
0.0
 11
-328.365258
 21
-123.849298
 31
0.0
  0
LINE
  5
9A
100
AcDbEntity
  8
2
370
    50
100
AcDbLine
 10
-328.365258
 20
-125.504578
 30
0.0
 11
-383.541258
 21
-125.504578
 31
0.0
  0
LINE
  5
9B
100
AcDbEntity
  8
2
370
    50
100
AcDbLine
 10
-327.261738
 20
-126.056338
 30
0.0
 11
-384.644778
 21
-126.056338
 31
0.0
  0
LINE
  5
9C
100
AcDbEntity
  8
2
370
    50
100
AcDbLine
 10
-328.365258
 20
-125.504578
 30
0.0
 11
-383.541258
 21
-125.504578
 31
0.0
  0
LINE
  5
9D
100
AcDbEntity
  8
2
370
    50
100
AcDbLine
 10
-327.261738
 20
-126.056338
 30
0.0
 11
-384.644778
 21
-126.056338
 31
0.0
  0
LINE
  5
9E
100
AcDbEntity
  8
2
370
    50
100
AcDbLine
 10
-328.365258
 20
-125.504578
 30
0.0
 11
-383.541258
 21
-125.504578
 31
0.0
  0
LINE
  5
9F
100
AcDbEntity
  8
2
370
    50
100
AcDbLine
 10
-328.365258
 20
-126.056338
 30
0.0
 11
-328.365258
 21
-123.849298
 31
0.0
  0
LINE
  5
A0
100
AcDbEntity
  8
2
370
    50
100
AcDbLine
 10
-383.541258
 20
-126.056338
 30
0.0
 11
-383.541258
 21
-123.849298
 31
0.0
  0
LINE
  5
A1
100
AcDbEntity
  8
2
370
    50
100
AcDbLine
 10
-384.644778
 20
-138.093632
 30
0.0
 11
-384.644778
 21
-126.056338
 31
0.0
  0
LINE
  5
A2
100
AcDbEntity
  8
2
370
    50
100
AcDbLine
 10
-371.24408
 20
-128.263378
 30
0.0
 11
-384.644778
 21
-128.263378
 31
0.0
  0
LINE
  5
A3
100
AcDbEntity
  8
2
370
    50
100
AcDbLine
 10
-371.24408
 20
-138.093632
 30
0.0
 11
-371.24408
 21
-128.263378
 31
0.0
  0
LINE
  5
A4
100
AcDbEntity
  8
2
370
    50
100
AcDbLine
 10
-369.332727
 20
-138.093632
 30
0.0
 11
-369.332727
 21
-128.263378
 31
0.0
  0
LINE
  5
A5
100
AcDbEntity
  8
2
370
    50
100
AcDbLine
 10
-342.57379
 20
-128.263378
 30
0.0
 11
-369.332727
 21
-128.263378
 31
0.0
  0
LINE
  5
A6
100
AcDbEntity
  8
2
370
    50
100
AcDbLine
 10
-340.662437
 20
-138.093632
 30
0.0
 11
-340.662437
 21
-128.263378
 31
0.0
  0
LINE
  5
A7
100
AcDbEntity
  8
2
370
    50
100
AcDbLine
 10
-342.57379
 20
-138.093632
 30
0.0
 11
-342.57379
 21
-128.263378
 31
0.0
  0
LINE
  5
A8
100
AcDbEntity
  8
2
370
    50
100
AcDbLine
 10
-327.261738
 20
-128.263378
 30
0.0
 11
-340.662437
 21
-128.263378
 31
0.0
  0
LINE
  5
A9
100
AcDbEntity
  8
2
370
    50
100
AcDbLine
 10
-327.261738
 20
-138.093632
 30
0.0
 11
-327.261738
 21
-126.056338
 31
0.0
  0
ARC
  5
AA
100
AcDbEntity
  8
2
370
    50
100
AcDbCircle
 10
-333.962088
 20
-120.066762
 30
0.0
 40
19.231816
100
AcDbArc
 50
249.610566
 51
290.389434
  0
ARC
  5
AB
100
AcDbEntity
  8
2
370
    50
100
AcDbCircle
 10
-355.953258
 20
-64.414646
 30
0.0
 40
74.883932
100
AcDbArc
 50
259.707733
 51
280.292267
  0
LINE
  5
AC
100
AcDbEntity
  8
2
370
    50
100
AcDbLine
 10
-340.662437
 20
-138.093632
 30
0.0
 11
-342.57379
 21
-138.093632
 31
0.0
  0
LINE
  5
AD
100
AcDbEntity
  8
2
370
    50
100
AcDbLine
 10
-369.332727
 20
-138.093632
 30
0.0
 11
-371.24408
 21
-138.093632
 31
0.0
  0
ARC
  5
AE
100
AcDbEntity
  8
2
370
    50
100
AcDbCircle
 10
-355.953258
 20
-64.414646
 30
0.0
 40
74.883932
100
AcDbArc
 50
259.707733
 51
280.292267
  0
ARC
  5
AF
100
AcDbEntity
  8
2
370
    50
100
AcDbCircle
 10
-377.944429
 20
-120.066762
 30
0.0
 40
19.231816
100
AcDbArc
 50
249.610566
 51
290.389434
  0
LINE
  5
B0
100
AcDbEntity
  8
2
370
    50
100
AcDbLine
 10
-330.572298
 20
-139.298578
 30
0.0
 11
-381.334218
 21
-139.298578
 31
0.0
  0
LINE
  5
B1
100
AcDbEntity
  8
2
370
    50
100
AcDbLine
 10
-381.334218
 20
-139.298578
 30
0.0
 11
-384.644778
 21
-138.093632
 31
0.0
  0
LINE
  5
B2
100
AcDbEntity
  8
2
370
    50
100
AcDbLine
 10
-330.572298
 20
-139.298578
 30
0.0
 11
-327.261738
 21
-138.093632
 31
0.0
  0
POINT
  5
B3
100
AcDbEntity
  8
2
370
    50
100
AcDbPoint
 10
-355.953258
 20
-123.849298
 30
0.0
  0
HATCH
  5
B4
100
AcDbEntity
  8
2
370
    25
100
AcDbHatch
 10
0.0
 20
0.0
 30
0.0
210
0.0
220
0.0
230
1.0
  2
_U
 70
     0
 71
     1
 91
        1
 92
        1
 93
        4
 72
     1
 10
-328.36525799999998
 20
-123.849298
 11
-328.36525799999998
 21
-125.504578
 72
     1
 10
-328.36525799999998
 20
-125.504578
 11
-383.54125800000003
 21
-125.504578
 72
     1
 10
-383.54125800000003
 20
-125.504578
 11
-383.54125800000003
 21
-123.849298
 72
     1
 10
-383.54125800000003
 20
-123.849298
 11
-328.36525799999998
 21
-123.849298
 97
        4
330
0
330
0
330
0
330
0
 75
     0
 76
     0
 52
45.0
 41
1.0
 77
     0
 78
     1
 53
45.0
 43
0.0
 44
0.0
 45
-2.1213199999999999
 46
2.1213199999999999
 79
     0
 98
        1
 10
0.0
 20
0.0
  0
LINE
  5
B5
100
AcDbEntity
  8
2
370
    50
100
AcDbLine
 10
80.454872
 20
-42.149298
 30
0.0
 11
80.454872
 21
-101.549298
 31
0.0
  0
LINE
  5
B6
100
AcDbEntity
  8
2
370
    50
100
AcDbLine
 10
115.454872
 20
-101.549298
 30
0.0
 11
115.454872
 21
-42.149298
 31
0.0
  0
LINE
  5
B7
100
AcDbEntity
  8
2
370
    50
100
AcDbLine
 10
80.454872
 20
-101.549298
 30
0.0
 11
80.754872
 21
-101.849298
 31
0.0
  0
LINE
  5
B8
100
AcDbEntity
  8
2
370
    50
100
AcDbLine
 10
115.454872
 20
-101.549298
 30
0.0
 11
115.154872
 21
-101.849298
 31
0.0
  0
LINE
  5
B9
100
AcDbEntity
  8
2
370
    50
100
AcDbLine
 10
97.954872
 20
-101.849298
 30
0.0
 11
74.454872
 21
-101.849298
 31
0.0
  0
LINE
  5
BA
100
AcDbEntity
  8
2
370
    50
100
AcDbLine
 10
74.454872
 20
-101.849298
 30
0.0
 11
73.954872
 21
-102.349298
 31
0.0
  0
LINE
  5
BB
100
AcDbEntity
  8
2
370
    50
100
AcDbLine
 10
73.954872
 20
-102.349298
 30
0.0
 11
73.954872
 21
-105.349298
 31
0.0
  0
LINE
  5
BC
100
AcDbEntity
  8
2
370
    50
100
AcDbLine
 10
73.954872
 20
-105.349298
 30
0.0
 11
74.454872
 21
-105.849298
 31
0.0
  0
LINE
  5
BD
100
AcDbEntity
  8
2
370
    50
100
AcDbLine
 10
97.954872
 20
-105.849298
 30
0.0
 11
74.454872
 21
-105.849298
 31
0.0
  0
LINE
  5
BE
100
AcDbEntity
  8
2
370
    50
100
AcDbLine
 10
80.454872
 20
-123.849298
 30
0.0
 11
80.454872
 21
-108.849298
 31
0.0
  0
LINE
  5
BF
100
AcDbEntity
  8
2
370
    25
100
AcDbLine
 10
81.204872
 20
-123.849298
 30
0.0
 11
81.204872
 21
-108.849298
 31
0.0
  0
LINE
  5
C0
100
AcDbEntity
  8
2
370
    50
100
AcDbLine
 10
97.954872
 20
-101.849298
 30
0.0
 11
121.454872
 21
-101.849298
 31
0.0
  0
LINE
  5
C1
100
AcDbEntity
  8
2
370
    50
100
AcDbLine
 10
121.454872
 20
-101.849298
 30
0.0
 11
121.954872
 21
-102.349298
 31
0.0
  0
LINE
  5
C2
100
AcDbEntity
  8
2
370
    50
100
AcDbLine
 10
121.954872
 20
-102.349298
 30
0.0
 11
121.954872
 21
-105.349298
 31
0.0
  0
LINE
  5
C3
100
AcDbEntity
  8
2
370
    50
100
AcDbLine
 10
121.954872
 20
-105.349298
 30
0.0
 11
121.454872
 21
-105.849298
 31
0.0
  0
LINE
  5
C4
100
AcDbEntity
  8
2
370
    50
100
AcDbLine
 10
97.954872
 20
-105.849298
 30
0.0
 11
121.454872
 21
-105.849298
 31
0.0
  0
LINE
  5
C5
100
AcDbEntity
  8
2
370
    50
100
AcDbLine
 10
115.454872
 20
-123.849298
 30
0.0
 11
115.454872
 21
-108.849298
 31
0.0
  0
LINE
  5
C6
100
AcDbEntity
  8
2
370
    25
100
AcDbLine
 10
114.704872
 20
-123.849298
 30
0.0
 11
114.704872
 21
-108.849298
 31
0.0
  0
LINE
  5
C7
100
AcDbEntity
  8
2
370
    25
100
AcDbLine
 10
80.454872
 20
-101.549298
 30
0.0
 11
115.454872
 21
-101.549298
 31
0.0
  0
LINE
  5
C8
100
AcDbEntity
  8
2
370
    25
100
AcDbLine
 10
73.954872
 20
-102.349298
 30
0.0
 11
121.954872
 21
-102.349298
 31
0.0
  0
LINE
  5
C9
100
AcDbEntity
  8
2
370
    25
100
AcDbLine
 10
121.954872
 20
-105.349298
 30
0.0
 11
73.954872
 21
-105.349298
 31
0.0
  0
LINE
  5
CA
100
AcDbEntity
  8
2
370
    50
100
AcDbLine
 10
74.454872
 20
-105.849298
 30
0.0
 11
74.454872
 21
-108.849298
 31
0.0
  0
LINE
  5
CB
100
AcDbEntity
  8
2
370
    50
100
AcDbLine
 10
121.454872
 20
-105.849298
 30
0.0
 11
121.454872
 21
-108.849298
 31
0.0
  0
LINE
  5
CC
100
AcDbEntity
  8
2
370
    50
100
AcDbLine
 10
74.454872
 20
-108.849298
 30
0.0
 11
121.454872
 21
-108.849298
 31
0.0
  0
HATCH
  5
CD
100
AcDbEntity
  8
2
370
    25
100
AcDbHatch
 10
0.0
 20
0.0
 30
0.0
210
0.0
220
0.0
230
1.0
  2
_U
 70
     0
 71
     1
 91
        1
 92
        1
 93
        5
 72
     1
 10
121.45487199999999
 20
-108.849298
 11
121.45487199999999
 21
-105.849298
 72
     1
 10
121.45487199999999
 20
-105.849298
 11
97.954871999999995
 21
-105.849298
 72
     1
 10
97.954871999999995
 20
-105.849298
 11
74.454871999999995
 21
-105.849298
 72
     1
 10
74.454871999999995
 20
-105.849298
 11
74.454871999999995
 21
-108.849298
 72
     1
 10
74.454871999999995
 20
-108.849298
 11
121.45487199999999
 21
-108.849298
 97
        5
330
0
330
0
330
0
330
0
330
0
 75
     0
 76
     0
 52
45.0
 41
1.0
 77
     0
 78
     1
 53
45.0
 43
0.0
 44
0.0
 45
-2.1213199999999999
 46
2.1213199999999999
 79
     0
 98
        1
 10
0.0
 20
0.0
  0
LINE
  5
CE
100
AcDbEntity
  8
2
370
    50
100
AcDbLine
 10
80.454872
 20
-42.149298
 30
0.0
 11
80.754872
 21
-41.849298
 31
0.0
  0
LINE
  5
CF
100
AcDbEntity
  8
2
370
    25
100
AcDbLine
 10
80.454872
 20
-42.149298
 30
0.0
 11
115.454872
 21
-42.149298
 31
0.0
  0
LINE
  5
D0
100
AcDbEntity
  8
2
370
    50
100
AcDbLine
 10
115.454872
 20
-42.149298
 30
0.0
 11
115.154872
 21
-41.849298
 31
0.0
  0
LINE
  5
D1
100
AcDbEntity
  8
2
370
    50
100
AcDbLine
 10
81.954872
 20
-145.849298
 30
0.0
 11
113.954872
 21
-145.849298
 31
0.0
  0
LINE
  5
D2
100
AcDbEntity
  8
2
370
    50
100
AcDbLine
 10
81.954872
 20
-137.849298
 30
0.0
 11
81.954872
 21
-145.849298
 31
0.0
  0
LINE
  5
D3
100
AcDbEntity
  8
2
370
    50
100
AcDbLine
 10
113.954872
 20
-137.849298
 30
0.0
 11
113.954872
 21
-145.849298
 31
0.0
  0
LINE
  5
D4
100
AcDbEntity
  8
2
370
    50
100
AcDbLine
 10
72.954872
 20
-123.849298
 30
0.0
 11
122.954872
 21
-123.849298
 31
0.0
  0
LINE
  5
D5
100
AcDbEntity
  8
2
370
    50
100
AcDbLine
 10
123.954872
 20
-125.849298
 30
0.0
 11
71.954872
 21
-125.849298
 31
0.0
  0
LINE
  5
D6
100
AcDbEntity
  8
2
370
    50
100
AcDbLine
 10
120.954872
 20
-137.849298
 30
0.0
 11
74.954872
 21
-137.849298
 31
0.0
  0
LINE
  5
D7
100
AcDbEntity
  8
2
370
    50
100
AcDbLine
 10
71.954872
 20
-127.849298
 30
0.0
 11
71.954872
 21
-125.849298
 31
0.0
  0
LINE
  5
D8
100
AcDbEntity
  8
2
370
    50
100
AcDbLine
 10
74.954872
 20
-137.849298
 30
0.0
 11
74.954872
 21
-129.849298
 31
0.0
  0
LINE
  5
D9
100
AcDbEntity
  8
2
370
    50
100
AcDbLine
 10
122.954872
 20
-128.849298
 30
0.0
 11
72.954872
 21
-128.849298
 31
0.0
  0
LINE
  5
DA
100
AcDbEntity
  8
2
370
    50
100
AcDbLine
 10
75.954872
 20
-136.757298
 30
0.0
 11
75.954872
 21
-128.849298
 31
0.0
  0
LINE
  5
DB
100
AcDbEntity
  8
2
370
    50
100
AcDbLine
 10
119.954872
 20
-136.757298
 30
0.0
 11
119.954872
 21
-128.849298
 31
0.0
  0
LINE
  5
DC
100
AcDbEntity
  8
2
370
    50
100
AcDbLine
 10
98.954872
 20
-136.757298
 30
0.0
 11
98.954872
 21
-128.849298
 31
0.0
  0
LINE
  5
DD
100
AcDbEntity
  8
2
370
    50
100
AcDbLine
 10
96.954872
 20
-136.757298
 30
0.0
 11
96.954872
 21
-128.849298
 31
0.0
  0
LINE
  5
DE
100
AcDbEntity
  8
2
370
    50
100
AcDbLine
 10
75.954872
 20
-136.757298
 30
0.0
 11
74.954872
 21
-136.757298
 31
0.0
  0
LINE
  5
DF
100
AcDbEntity
  8
2
370
    50
100
AcDbLine
 10
120.954872
 20
-136.757298
 30
0.0
 11
119.954872
 21
-136.757298
 31
0.0
  0
LINE
  5
E0
100
AcDbEntity
  8
2
370
    50
100
AcDbLine
 10
98.954872
 20
-136.757298
 30
0.0
 11
96.954872
 21
-136.757298
 31
0.0
  0
ARC
  5
E1
100
AcDbEntity
  8
2
370
    50
100
AcDbCircle
 10
86.454872
 20
-86.822528
 30
0.0
 40
51.026769
100
AcDbArc
 50
258.125168
 51
281.874832
  0
ARC
  5
E2
100
AcDbEntity
  8
2
370
    50
100
AcDbCircle
 10
109.454872
 20
-86.822528
 30
0.0
 40
51.026769
100
AcDbArc
 50
258.125168
 51
281.874832
  0
ARC
  5
E3
100
AcDbEntity
  8
2
370
    50
100
AcDbCircle
 10
73.954872
 20
-129.849298
 30
0.0
 40
1.0
100
AcDbArc
 50
0.0
 51
90.0
  0
ARC
  5
E4
100
AcDbEntity
  8
2
370
    50
100
AcDbCircle
 10
72.954872
 20
-127.849298
 30
0.0
 40
1.0
100
AcDbArc
 50
180.0
 51
270.0
  0
LINE
  5
E5
100
AcDbEntity
  8
2
370
    50
100
AcDbLine
 10
72.954872
 20
-125.349298
 30
0.0
 11
122.954872
 21
-125.349298
 31
0.0
  0
LINE
  5
E6
100
AcDbEntity
  8
2
370
    50
100
AcDbLine
 10
72.954872
 20
-123.849298
 30
0.0
 11
72.954872
 21
-125.849298
 31
0.0
  0
LINE
  5
E7
100
AcDbEntity
  8
2
370
    50
100
AcDbLine
 10
72.954872
 20
-123.849298
 30
0.0
 11
122.954872
 21
-123.849298
 31
0.0
  0
LINE
  5
E8
100
AcDbEntity
  8
2
370
    50
100
AcDbLine
 10
122.954872
 20
-123.849298
 30
0.0
 11
122.954872
 21
-125.849298
 31
0.0
  0
LINE
  5
E9
100
AcDbEntity
  8
2
370
    50
100
AcDbLine
 10
123.954872
 20
-127.849298
 30
0.0
 11
123.954872
 21
-125.849298
 31
0.0
  0
ARC
  5
EA
100
AcDbEntity
  8
2
370
    50
100
AcDbCircle
 10
122.954872
 20
-127.849298
 30
0.0
 40
1.0
100
AcDbArc
 50
270.0
 51
360.0
  0
LINE
  5
EB
100
AcDbEntity
  8
2
370
    50
100
AcDbLine
 10
120.954872
 20
-137.849298
 30
0.0
 11
120.954872
 21
-129.849298
 31
0.0
  0
ARC
  5
EC
100
AcDbEntity
  8
2
370
    50
100
AcDbCircle
 10
121.954872
 20
-129.849298
 30
0.0
 40
1.0
100
AcDbArc
 50
90.0
 51
180.0
  0
LINE
  5
ED
100
AcDbEntity
  8
2
370
    50
100
AcDbLine
 10
315.421063
 20
-41.849298
 30
0.0
 11
349.821063
 21
-41.849298
 31
0.0
  0
LINE
  5
EE
100
AcDbEntity
  8
2
370
    25
100
AcDbLine
 10
350.121063
 20
-42.149298
 30
0.0
 11
315.121063
 21
-42.149298
 31
0.0
  0
LINE
  5
EF
100
AcDbEntity
  8
2
370
    50
100
AcDbLine
 10
350.121063
 20
-42.149298
 30
0.0
 11
349.821063
 21
-41.849298
 31
0.0
  0
LINE
  5
F0
100
AcDbEntity
  8
2
370
    50
100
AcDbLine
 10
315.121063
 20
-42.149298
 30
0.0
 11
315.421063
 21
-41.849298
 31
0.0
  0
LINE
  5
F1
100
AcDbEntity
  8
2
370
    50
100
AcDbLine
 10
315.121063
 20
-101.549298
 30
0.0
 11
315.121063
 21
-42.149298
 31
0.0
  0
LINE
  5
F2
100
AcDbEntity
  8
2
370
    50
100
AcDbLine
 10
350.121063
 20
-42.149298
 30
0.0
 11
350.121063
 21
-101.549298
 31
0.0
  0
LINE
  5
F3
100
AcDbEntity
  8
2
370
    50
100
AcDbLine
 10
315.121063
 20
-101.549298
 30
0.0
 11
315.421063
 21
-101.849298
 31
0.0
  0
LINE
  5
F4
100
AcDbEntity
  8
2
370
    50
100
AcDbLine
 10
350.121063
 20
-101.549298
 30
0.0
 11
349.821063
 21
-101.849298
 31
0.0
  0
LINE
  5
F5
100
AcDbEntity
  8
2
370
    25
100
AcDbLine
 10
315.121063
 20
-101.549298
 30
0.0
 11
350.121063
 21
-101.549298
 31
0.0
  0
LINE
  5
F6
100
AcDbEntity
  8
2
370
    50
100
AcDbLine
 10
-352.953258
 20
-145.849298
 30
0.0
 11
-352.953258
 21
-158.849298
 31
0.0
  0
LINE
  5
F7
100
AcDbEntity
  8
2
370
    50
100
AcDbLine
 10
-342.953258
 20
-145.849298
 30
0.0
 11
-342.953258
 21
-158.849298
 31
0.0
  0
LINE
  5
F8
100
AcDbEntity
  8
2
370
    50
100
AcDbLine
 10
-347.953258
 20
-158.849298
 30
0.0
 11
-342.203258
 21
-158.849298
 31
0.0
  0
LINE
  5
F9
100
AcDbEntity
  8
2
370
    50
100
AcDbLine
 10
-347.953258
 20
-174.349298
 30
0.0
 11
-342.203258
 21
-174.349298
 31
0.0
  0
LINE
  5
FA
100
AcDbEntity
  8
2
370
    50
100
AcDbLine
 10
-341.703258
 20
-159.349298
 30
0.0
 11
-341.703258
 21
-173.849298
 31
0.0
  0
LINE
  5
FB
100
AcDbEntity
  8
2
370
    50
100
AcDbLine
 10
-341.703258
 20
-159.349298
 30
0.0
 11
-342.203258
 21
-158.849298
 31
0.0
  0
LINE
  5
FC
100
AcDbEntity
  8
2
370
    50
100
AcDbLine
 10
-341.703258
 20
-173.849298
 30
0.0
 11
-342.203258
 21
-174.349298
 31
0.0
  0
LINE
  5
FD
100
AcDbEntity
  8
2
370
    50
100
AcDbLine
 10
-343.632106
 20
-173.849298
 30
0.0
 11
-346.203258
 21
-173.849298
 31
0.0
  0
LINE
  5
FE
100
AcDbEntity
  8
2
370
    50
100
AcDbLine
 10
-343.632106
 20
-159.349298
 30
0.0
 11
-346.203258
 21
-159.349298
 31
0.0
  0
LINE
  5
FF
100
AcDbEntity
  8
2
370
    50
100
AcDbLine
 10
-341.882106
 20
-159.349298
 30
0.0
 11
-341.882106
 21
-173.849298
 31
0.0
  0
LINE
  5
100
100
AcDbEntity
  8
2
370
    50
100
AcDbLine
 10
-343.632106
 20
-159.349298
 30
0.0
 11
-343.632106
 21
-173.849298
 31
0.0
  0
LINE
  5
101
100
AcDbEntity
  8
2
370
    50
100
AcDbLine
 10
-346.203258
 20
-159.349298
 30
0.0
 11
-346.203258
 21
-173.849298
 31
0.0
  0
LINE
  5
102
100
AcDbEntity
  8
2
370
    50
100
AcDbLine
 10
-341.703258
 20
-173.849298
 30
0.0
 11
-341.882106
 21
-173.849298
 31
0.0
  0
LINE
  5
103
100
AcDbEntity
  8
2
370
    50
100
AcDbLine
 10
-341.703258
 20
-159.349298
 30
0.0
 11
-341.882106
 21
-159.349298
 31
0.0
  0
ARC
  5
104
100
AcDbEntity
  8
2
370
    50
100
AcDbCircle
 10
-347.953258
 20
-165.349298
 30
0.0
 40
6.25
100
AcDbArc
 50
73.739795
 51
90.0
  0
ARC
  5
105
100
AcDbEntity
  8
2
370
    50
100
AcDbCircle
 10
-342.757106
 20
-160.755548
 30
0.0
 40
1.65625
100
AcDbArc
 50
58.109208
 51
121.890792
  0
ARC
  5
106
100
AcDbEntity
  8
2
370
    50
100
AcDbCircle
 10
-342.757106
 20
-172.443048
 30
0.0
 40
1.65625
100
AcDbArc
 50
238.109208
 51
301.890792
  0
ARC
  5
107
100
AcDbEntity
  8
2
370
    50
100
AcDbCircle
 10
-347.953258
 20
-167.849298
 30
0.0
 40
6.25
100
AcDbArc
 50
270.0
 51
286.260205
  0
LINE
  5
108
100
AcDbEntity
  8
2
370
    50
100
AcDbLine
 10
-347.953258
 20
-158.849298
 30
0.0
 11
-353.703258
 21
-158.849298
 31
0.0
  0
LINE
  5
109
100
AcDbEntity
  8
2
370
    50
100
AcDbLine
 10
-347.953258
 20
-174.349298
 30
0.0
 11
-353.703258
 21
-174.349298
 31
0.0
  0
LINE
  5
10A
100
AcDbEntity
  8
2
370
    50
100
AcDbLine
 10
-354.203258
 20
-159.349298
 30
0.0
 11
-354.203258
 21
-173.849298
 31
0.0
  0
LINE
  5
10B
100
AcDbEntity
  8
2
370
    50
100
AcDbLine
 10
-354.203258
 20
-159.349298
 30
0.0
 11
-353.703258
 21
-158.849298
 31
0.0
  0
LINE
  5
10C
100
AcDbEntity
  8
2
370
    50
100
AcDbLine
 10
-354.203258
 20
-173.849298
 30
0.0
 11
-353.703258
 21
-174.349298
 31
0.0
  0
LINE
  5
10D
100
AcDbEntity
  8
2
370
    50
100
AcDbLine
 10
-352.274411
 20
-173.849298
 30
0.0
 11
-349.703258
 21
-173.849298
 31
0.0
  0
LINE
  5
10E
100
AcDbEntity
  8
2
370
    50
100
AcDbLine
 10
-352.274411
 20
-159.349298
 30
0.0
 11
-349.703258
 21
-159.349298
 31
0.0
  0
LINE
  5
10F
100
AcDbEntity
  8
2
370
    50
100
AcDbLine
 10
-354.024411
 20
-159.349298
 30
0.0
 11
-354.024411
 21
-173.849298
 31
0.0
  0
LINE
  5
110
100
AcDbEntity
  8
2
370
    50
100
AcDbLine
 10
-352.274411
 20
-159.349298
 30
0.0
 11
-352.274411
 21
-173.849298
 31
0.0
  0
LINE
  5
111
100
AcDbEntity
  8
2
370
    50
100
AcDbLine
 10
-349.703258
 20
-159.349298
 30
0.0
 11
-349.703258
 21
-173.849298
 31
0.0
  0
LINE
  5
112
100
AcDbEntity
  8
2
370
    50
100
AcDbLine
 10
-354.203258
 20
-173.849298
 30
0.0
 11
-354.024411
 21
-173.849298
 31
0.0
  0
LINE
  5
113
100
AcDbEntity
  8
2
370
    50
100
AcDbLine
 10
-354.203258
 20
-159.349298
 30
0.0
 11
-354.024411
 21
-159.349298
 31
0.0
  0
ARC
  5
114
100
AcDbEntity
  8
2
370
    50
100
AcDbCircle
 10
-347.953258
 20
-165.349298
 30
0.0
 40
6.25
100
AcDbArc
 50
90.0
 51
106.260205
  0
ARC
  5
115
100
AcDbEntity
  8
2
370
    50
100
AcDbCircle
 10
-353.149411
 20
-160.755548
 30
0.0
 40
1.65625
100
AcDbArc
 50
58.109208
 51
121.890792
  0
ARC
  5
116
100
AcDbEntity
  8
2
370
    50
100
AcDbCircle
 10
-353.149411
 20
-172.443048
 30
0.0
 40
1.65625
100
AcDbArc
 50
238.109208
 51
301.890792
  0
ARC
  5
117
100
AcDbEntity
  8
2
370
    50
100
AcDbCircle
 10
-347.953258
 20
-167.849298
 30
0.0
 40
6.25
100
AcDbArc
 50
253.739795
 51
270.0
  0
LINE
  5
118
100
AcDbEntity
  8
2
370
    50
100
AcDbLine
 10
-368.953258
 20
-145.849298
 30
0.0
 11
-368.953258
 21
-158.849298
 31
0.0
  0
LINE
  5
119
100
AcDbEntity
  8
2
370
    50
100
AcDbLine
 10
-358.953258
 20
-145.849298
 30
0.0
 11
-358.953258
 21
-158.849298
 31
0.0
  0
LINE
  5
11A
100
AcDbEntity
  8
2
370
    50
100
AcDbLine
 10
-363.953258
 20
-158.849298
 30
0.0
 11
-358.203258
 21
-158.849298
 31
0.0
  0
LINE
  5
11B
100
AcDbEntity
  8
2
370
    50
100
AcDbLine
 10
-363.953258
 20
-174.349298
 30
0.0
 11
-358.203258
 21
-174.349298
 31
0.0
  0
LINE
  5
11C
100
AcDbEntity
  8
2
370
    50
100
AcDbLine
 10
-357.703258
 20
-159.349298
 30
0.0
 11
-357.703258
 21
-173.849298
 31
0.0
  0
LINE
  5
11D
100
AcDbEntity
  8
2
370
    50
100
AcDbLine
 10
-357.703258
 20
-159.349298
 30
0.0
 11
-358.203258
 21
-158.849298
 31
0.0
  0
LINE
  5
11E
100
AcDbEntity
  8
2
370
    50
100
AcDbLine
 10
-357.703258
 20
-173.849298
 30
0.0
 11
-358.203258
 21
-174.349298
 31
0.0
  0
LINE
  5
11F
100
AcDbEntity
  8
2
370
    50
100
AcDbLine
 10
-359.632106
 20
-173.849298
 30
0.0
 11
-362.203258
 21
-173.849298
 31
0.0
  0
LINE
  5
120
100
AcDbEntity
  8
2
370
    50
100
AcDbLine
 10
-359.632106
 20
-159.349298
 30
0.0
 11
-362.203258
 21
-159.349298
 31
0.0
  0
LINE
  5
121
100
AcDbEntity
  8
2
370
    50
100
AcDbLine
 10
-357.882106
 20
-159.349298
 30
0.0
 11
-357.882106
 21
-173.849298
 31
0.0
  0
LINE
  5
122
100
AcDbEntity
  8
2
370
    50
100
AcDbLine
 10
-359.632106
 20
-159.349298
 30
0.0
 11
-359.632106
 21
-173.849298
 31
0.0
  0
LINE
  5
123
100
AcDbEntity
  8
2
370
    50
100
AcDbLine
 10
-362.203258
 20
-159.349298
 30
0.0
 11
-362.203258
 21
-173.849298
 31
0.0
  0
LINE
  5
124
100
AcDbEntity
  8
2
370
    50
100
AcDbLine
 10
-357.703258
 20
-173.849298
 30
0.0
 11
-357.882106
 21
-173.849298
 31
0.0
  0
LINE
  5
125
100
AcDbEntity
  8
2
370
    50
100
AcDbLine
 10
-357.703258
 20
-159.349298
 30
0.0
 11
-357.882106
 21
-159.349298
 31
0.0
  0
ARC
  5
126
100
AcDbEntity
  8
2
370
    50
100
AcDbCircle
 10
-363.953258
 20
-165.349298
 30
0.0
 40
6.25
100
AcDbArc
 50
73.739795
 51
90.0
  0
ARC
  5
127
100
AcDbEntity
  8
2
370
    50
100
AcDbCircle
 10
-358.757106
 20
-160.755548
 30
0.0
 40
1.65625
100
AcDbArc
 50
58.109208
 51
121.890792
  0
ARC
  5
128
100
AcDbEntity
  8
2
370
    50
100
AcDbCircle
 10
-358.757106
 20
-172.443048
 30
0.0
 40
1.65625
100
AcDbArc
 50
238.109208
 51
301.890792
  0
ARC
  5
129
100
AcDbEntity
  8
2
370
    50
100
AcDbCircle
 10
-363.953258
 20
-167.849298
 30
0.0
 40
6.25
100
AcDbArc
 50
270.0
 51
286.260205
  0
LINE
  5
12A
100
AcDbEntity
  8
2
370
    50
100
AcDbLine
 10
-363.953258
 20
-158.849298
 30
0.0
 11
-369.703258
 21
-158.849298
 31
0.0
  0
LINE
  5
12B
100
AcDbEntity
  8
2
370
    50
100
AcDbLine
 10
-363.953258
 20
-174.349298
 30
0.0
 11
-369.703258
 21
-174.349298
 31
0.0
  0
LINE
  5
12C
100
AcDbEntity
  8
2
370
    50
100
AcDbLine
 10
-370.203258
 20
-159.349298
 30
0.0
 11
-370.203258
 21
-173.849298
 31
0.0
  0
LINE
  5
12D
100
AcDbEntity
  8
2
370
    50
100
AcDbLine
 10
-370.203258
 20
-159.349298
 30
0.0
 11
-369.703258
 21
-158.849298
 31
0.0
  0
LINE
  5
12E
100
AcDbEntity
  8
2
370
    50
100
AcDbLine
 10
-370.203258
 20
-173.849298
 30
0.0
 11
-369.703258
 21
-174.349298
 31
0.0
  0
LINE
  5
12F
100
AcDbEntity
  8
2
370
    50
100
AcDbLine
 10
-368.274411
 20
-173.849298
 30
0.0
 11
-365.703258
 21
-173.849298
 31
0.0
  0
LINE
  5
130
100
AcDbEntity
  8
2
370
    50
100
AcDbLine
 10
-368.274411
 20
-159.349298
 30
0.0
 11
-365.703258
 21
-159.349298
 31
0.0
  0
LINE
  5
131
100
AcDbEntity
  8
2
370
    50
100
AcDbLine
 10
-370.024411
 20
-159.349298
 30
0.0
 11
-370.024411
 21
-173.849298
 31
0.0
  0
LINE
  5
132
100
AcDbEntity
  8
2
370
    50
100
AcDbLine
 10
-368.274411
 20
-159.349298
 30
0.0
 11
-368.274411
 21
-173.849298
 31
0.0
  0
LINE
  5
133
100
AcDbEntity
  8
2
370
    50
100
AcDbLine
 10
-365.703258
 20
-159.349298
 30
0.0
 11
-365.703258
 21
-173.849298
 31
0.0
  0
LINE
  5
134
100
AcDbEntity
  8
2
370
    50
100
AcDbLine
 10
-370.203258
 20
-173.849298
 30
0.0
 11
-370.024411
 21
-173.849298
 31
0.0
  0
LINE
  5
135
100
AcDbEntity
  8
2
370
    50
100
AcDbLine
 10
-370.203258
 20
-159.349298
 30
0.0
 11
-370.024411
 21
-159.349298
 31
0.0
  0
ARC
  5
136
100
AcDbEntity
  8
2
370
    50
100
AcDbCircle
 10
-363.953258
 20
-165.349298
 30
0.0
 40
6.25
100
AcDbArc
 50
90.0
 51
106.260205
  0
ARC
  5
137
100
AcDbEntity
  8
2
370
    50
100
AcDbCircle
 10
-369.149411
 20
-160.755548
 30
0.0
 40
1.65625
100
AcDbArc
 50
58.109208
 51
121.890792
  0
ARC
  5
138
100
AcDbEntity
  8
2
370
    50
100
AcDbCircle
 10
-369.149411
 20
-172.443048
 30
0.0
 40
1.65625
100
AcDbArc
 50
238.109208
 51
301.890792
  0
ARC
  5
139
100
AcDbEntity
  8
2
370
    50
100
AcDbCircle
 10
-363.953258
 20
-167.849298
 30
0.0
 40
6.25
100
AcDbArc
 50
253.739795
 51
270.0
  0
LINE
  5
13A
100
AcDbEntity
  8
2
370
    50
100
AcDbLine
 10
-358.453259
 20
-174.349298
 30
0.0
 11
-368.716398
 21
-174.349298
 31
0.0
  0
LINE
  5
13B
100
AcDbEntity
  8
2
370
    50
100
AcDbLine
 10
-368.953259
 20
-174.349298
 30
0.0
 11
-369.453259
 21
-174.349298
 31
0.0
  0
LINE
  5
13C
100
AcDbEntity
  8
2
370
    50
100
AcDbLine
 10
-342.453259
 20
-174.349298
 30
0.0
 11
-353.453259
 21
-174.349298
 31
0.0
  0
POINT
  5
13D
100
AcDbEntity
  8
2
370
    50
100
AcDbPoint
 10
-293.265416
 20
-317.245601
 30
0.0
  0
POINT
  5
13E
100
AcDbEntity
  8
2
370
    50
100
AcDbPoint
 10
93.454872
 20
-145.849298
 30
0.0
  0
POINT
  5
13F
100
AcDbEntity
  8
2
370
    50
100
AcDbPoint
 10
-347.953258
 20
-145.849298
 30
0.0
  0
LINE
  5
140
100
AcDbEntity
  8
2
370
    50
100
AcDbLine
 10
88.454872
 20
-145.849298
 30
0.0
 11
88.454872
 21
-158.849298
 31
0.0
  0
LINE
  5
141
100
AcDbEntity
  8
2
370
    50
100
AcDbLine
 10
98.454872
 20
-145.849298
 30
0.0
 11
98.454872
 21
-158.849298
 31
0.0
  0
LINE
  5
142
100
AcDbEntity
  8
2
370
    50
100
AcDbLine
 10
93.454872
 20
-158.849298
 30
0.0
 11
99.204872
 21
-158.849298
 31
0.0
  0
LINE
  5
143
100
AcDbEntity
  8
2
370
    50
100
AcDbLine
 10
93.454872
 20
-174.349298
 30
0.0
 11
99.204872
 21
-174.349298
 31
0.0
  0
LINE
  5
144
100
AcDbEntity
  8
2
370
    50
100
AcDbLine
 10
99.704872
 20
-159.349298
 30
0.0
 11
99.704872
 21
-173.849298
 31
0.0
  0
LINE
  5
145
100
AcDbEntity
  8
2
370
    50
100
AcDbLine
 10
99.704872
 20
-159.349298
 30
0.0
 11
99.204872
 21
-158.849298
 31
0.0
  0
LINE
  5
146
100
AcDbEntity
  8
2
370
    50
100
AcDbLine
 10
99.704872
 20
-173.849298
 30
0.0
 11
99.204872
 21
-174.349298
 31
0.0
  0
LINE
  5
147
100
AcDbEntity
  8
2
370
    50
100
AcDbLine
 10
97.776025
 20
-173.849298
 30
0.0
 11
95.204872
 21
-173.849298
 31
0.0
  0
LINE
  5
148
100
AcDbEntity
  8
2
370
    50
100
AcDbLine
 10
97.776025
 20
-159.349298
 30
0.0
 11
95.204872
 21
-159.349298
 31
0.0
  0
LINE
  5
149
100
AcDbEntity
  8
2
370
    50
100
AcDbLine
 10
99.526025
 20
-159.349298
 30
0.0
 11
99.526025
 21
-173.849298
 31
0.0
  0
LINE
  5
14A
100
AcDbEntity
  8
2
370
    50
100
AcDbLine
 10
97.776025
 20
-159.349298
 30
0.0
 11
97.776025
 21
-173.849298
 31
0.0
  0
LINE
  5
14B
100
AcDbEntity
  8
2
370
    50
100
AcDbLine
 10
95.204872
 20
-159.349298
 30
0.0
 11
95.204872
 21
-173.849298
 31
0.0
  0
LINE
  5
14C
100
AcDbEntity
  8
2
370
    50
100
AcDbLine
 10
99.704872
 20
-173.849298
 30
0.0
 11
99.526025
 21
-173.849298
 31
0.0
  0
LINE
  5
14D
100
AcDbEntity
  8
2
370
    50
100
AcDbLine
 10
99.704872
 20
-159.349298
 30
0.0
 11
99.526025
 21
-159.349298
 31
0.0
  0
ARC
  5
14E
100
AcDbEntity
  8
2
370
    50
100
AcDbCircle
 10
93.454872
 20
-165.349298
 30
0.0
 40
6.25
100
AcDbArc
 50
73.739795
 51
90.0
  0
ARC
  5
14F
100
AcDbEntity
  8
2
370
    50
100
AcDbCircle
 10
98.651025
 20
-160.755548
 30
0.0
 40
1.65625
100
AcDbArc
 50
58.109208
 51
121.890792
  0
ARC
  5
150
100
AcDbEntity
  8
2
370
    50
100
AcDbCircle
 10
98.651025
 20
-172.443048
 30
0.0
 40
1.65625
100
AcDbArc
 50
238.109208
 51
301.890792
  0
ARC
  5
151
100
AcDbEntity
  8
2
370
    50
100
AcDbCircle
 10
93.454872
 20
-167.849298
 30
0.0
 40
6.25
100
AcDbArc
 50
270.0
 51
286.260205
  0
LINE
  5
152
100
AcDbEntity
  8
2
370
    50
100
AcDbLine
 10
93.454872
 20
-158.849298
 30
0.0
 11
87.704872
 21
-158.849298
 31
0.0
  0
LINE
  5
153
100
AcDbEntity
  8
2
370
    50
100
AcDbLine
 10
93.454872
 20
-174.349298
 30
0.0
 11
87.704872
 21
-174.349298
 31
0.0
  0
LINE
  5
154
100
AcDbEntity
  8
2
370
    50
100
AcDbLine
 10
87.204872
 20
-159.349298
 30
0.0
 11
87.204872
 21
-173.849298
 31
0.0
  0
LINE
  5
155
100
AcDbEntity
  8
2
370
    50
100
AcDbLine
 10
87.204872
 20
-159.349298
 30
0.0
 11
87.704872
 21
-158.849298
 31
0.0
  0
LINE
  5
156
100
AcDbEntity
  8
2
370
    50
100
AcDbLine
 10
87.204872
 20
-173.849298
 30
0.0
 11
87.704872
 21
-174.349298
 31
0.0
  0
LINE
  5
157
100
AcDbEntity
  8
2
370
    50
100
AcDbLine
 10
89.13372
 20
-173.849298
 30
0.0
 11
91.704872
 21
-173.849298
 31
0.0
  0
LINE
  5
158
100
AcDbEntity
  8
2
370
    50
100
AcDbLine
 10
89.13372
 20
-159.349298
 30
0.0
 11
91.704872
 21
-159.349298
 31
0.0
  0
LINE
  5
159
100
AcDbEntity
  8
2
370
    50
100
AcDbLine
 10
87.38372
 20
-159.349298
 30
0.0
 11
87.38372
 21
-173.849298
 31
0.0
  0
LINE
  5
15A
100
AcDbEntity
  8
2
370
    50
100
AcDbLine
 10
89.13372
 20
-159.349298
 30
0.0
 11
89.13372
 21
-173.849298
 31
0.0
  0
LINE
  5
15B
100
AcDbEntity
  8
2
370
    50
100
AcDbLine
 10
91.704872
 20
-159.349298
 30
0.0
 11
91.704872
 21
-173.849298
 31
0.0
  0
LINE
  5
15C
100
AcDbEntity
  8
2
370
    50
100
AcDbLine
 10
87.204872
 20
-173.849298
 30
0.0
 11
87.38372
 21
-173.849298
 31
0.0
  0
LINE
  5
15D
100
AcDbEntity
  8
2
370
    50
100
AcDbLine
 10
87.204872
 20
-159.349298
 30
0.0
 11
87.38372
 21
-159.349298
 31
0.0
  0
ARC
  5
15E
100
AcDbEntity
  8
2
370
    50
100
AcDbCircle
 10
93.454872
 20
-165.349298
 30
0.0
 40
6.25
100
AcDbArc
 50
90.0
 51
106.260205
  0
ARC
  5
15F
100
AcDbEntity
  8
2
370
    50
100
AcDbCircle
 10
88.25872
 20
-160.755548
 30
0.0
 40
1.65625
100
AcDbArc
 50
58.109208
 51
121.890792
  0
ARC
  5
160
100
AcDbEntity
  8
2
370
    50
100
AcDbCircle
 10
88.25872
 20
-172.443048
 30
0.0
 40
1.65625
100
AcDbArc
 50
238.109208
 51
301.890792
  0
ARC
  5
161
100
AcDbEntity
  8
2
370
    50
100
AcDbCircle
 10
93.454872
 20
-167.849298
 30
0.0
 40
6.25
100
AcDbArc
 50
253.739795
 51
270.0
  0
LINE
  5
162
100
AcDbEntity
  8
2
370
    50
100
AcDbLine
 10
87.454872
 20
-179.960623
 30
0.0
 11
87.454872
 21
-174.637973
 31
0.0
  0
LINE
  5
163
100
AcDbEntity
  8
2
370
    50
100
AcDbLine
 10
99.454872
 20
-179.960623
 30
0.0
 11
99.454872
 21
-174.637973
 31
0.0
  0
LINE
  5
164
100
AcDbEntity
  8
2
370
    50
100
AcDbLine
 10
95.852788
 20
-174.637973
 30
0.0
 11
95.852788
 21
-179.960623
 31
0.0
  0
LINE
  5
165
100
AcDbEntity
  8
2
370
    50
100
AcDbLine
 10
97.019054
 20
-174.637973
 30
0.0
 11
97.019054
 21
-179.960623
 31
0.0
  0
LINE
  5
166
100
AcDbEntity
  8
2
370
    50
100
AcDbLine
 10
99.41697
 20
-174.637973
 30
0.0
 11
99.41697
 21
-179.960623
 31
0.0
  0
LINE
  5
167
100
AcDbEntity
  8
2
370
    50
100
AcDbLine
 10
98.954872
 20
-174.349298
 30
0.0
 11
87.954872
 21
-174.349298
 31
0.0
  0
LINE
  5
168
100
AcDbEntity
  8
2
370
    50
100
AcDbLine
 10
98.954872
 20
-180.249298
 30
0.0
 11
99.454872
 21
-179.960623
 31
0.0
  0
LINE
  5
169
100
AcDbEntity
  8
2
370
    50
100
AcDbLine
 10
97.019054
 20
-179.960623
 30
0.0
 11
95.852788
 21
-179.960623
 31
0.0
  0
LINE
  5
16A
100
AcDbEntity
  8
2
370
    50
100
AcDbLine
 10
87.454872
 20
-179.960623
 30
0.0
 11
87.954872
 21
-180.249298
 31
0.0
  0
LINE
  5
16B
100
AcDbEntity
  8
2
370
    50
100
AcDbLine
 10
87.454872
 20
-174.637973
 30
0.0
 11
87.954872
 21
-174.349298
 31
0.0
  0
ARC
  5
16C
100
AcDbEntity
  8
2
370
    50
100
AcDbCircle
 10
93.454872
 20
-170.145668
 30
0.0
 40
10.10363
100
AcDbArc
 50
270.0
 51
283.729133
  0
ARC
  5
16D
100
AcDbEntity
  8
2
370
    50
100
AcDbCircle
 10
93.454872
 20
-184.452927
 30
0.0
 40
10.10363
100
AcDbArc
 50
76.270867
 51
90.0
  0
LINE
  5
16E
100
AcDbEntity
  8
2
370
    50
100
AcDbLine
 10
97.019054
 20
-174.637973
 30
0.0
 11
95.852788
 21
-174.637973
 31
0.0
  0
LINE
  5
16F
100
AcDbEntity
  8
2
370
    50
100
AcDbLine
 10
99.454872
 20
-179.960623
 30
0.0
 11
99.41697
 21
-179.960623
 31
0.0
  0
ARC
  5
170
100
AcDbEntity
  8
2
370
    50
100
AcDbCircle
 10
98.218012
 20
-177.615137
 30
0.0
 40
2.634161
100
AcDbArc
 50
242.924933
 51
297.075067
  0
ARC
  5
171
100
AcDbEntity
  8
2
370
    50
100
AcDbCircle
 10
98.218012
 20
-176.983458
 30
0.0
 40
2.634161
100
AcDbArc
 50
62.924933
 51
117.075067
  0
LINE
  5
172
100
AcDbEntity
  8
2
370
    50
100
AcDbLine
 10
98.954872
 20
-174.349298
 30
0.0
 11
99.454872
 21
-174.637973
 31
0.0
  0
LINE
  5
173
100
AcDbEntity
  8
2
370
    50
100
AcDbLine
 10
99.454872
 20
-174.637973
 30
0.0
 11
99.41697
 21
-174.637973
 31
0.0
  0
ARC
  5
174
100
AcDbEntity
  8
2
370
    50
100
AcDbCircle
 10
93.454872
 20
-170.145668
 30
0.0
 40
10.10363
100
AcDbArc
 50
256.270867
 51
270.0
  0
LINE
  5
175
100
AcDbEntity
  8
2
370
    50
100
AcDbLine
 10
89.89069
 20
-179.960623
 30
0.0
 11
91.056956
 21
-179.960623
 31
0.0
  0
LINE
  5
176
100
AcDbEntity
  8
2
370
    50
100
AcDbLine
 10
91.056957
 20
-174.637973
 30
0.0
 11
91.056956
 21
-179.960623
 31
0.0
  0
LINE
  5
177
100
AcDbEntity
  8
2
370
    50
100
AcDbLine
 10
89.89069
 20
-174.637973
 30
0.0
 11
89.89069
 21
-179.960623
 31
0.0
  0
ARC
  5
178
100
AcDbEntity
  8
2
370
    50
100
AcDbCircle
 10
88.691732
 20
-177.615137
 30
0.0
 40
2.634161
100
AcDbArc
 50
242.924933
 51
297.075067
  0
LINE
  5
179
100
AcDbEntity
  8
2
370
    50
100
AcDbLine
 10
87.492774
 20
-174.637973
 30
0.0
 11
87.492774
 21
-179.960623
 31
0.0
  0
LINE
  5
17A
100
AcDbEntity
  8
2
370
    50
100
AcDbLine
 10
87.492774
 20
-179.960623
 30
0.0
 11
87.454872
 21
-179.960623
 31
0.0
  0
ARC
  5
17B
100
AcDbEntity
  8
2
370
    50
100
AcDbCircle
 10
93.454872
 20
-184.452927
 30
0.0
 40
10.10363
100
AcDbArc
 50
90.0
 51
103.729133
  0
LINE
  5
17C
100
AcDbEntity
  8
2
370
    50
100
AcDbLine
 10
89.89069
 20
-174.637973
 30
0.0
 11
91.056956
 21
-174.637973
 31
0.0
  0
ARC
  5
17D
100
AcDbEntity
  8
2
370
    50
100
AcDbCircle
 10
88.691732
 20
-176.983458
 30
0.0
 40
2.634161
100
AcDbArc
 50
62.924933
 51
117.075067
  0
POINT
  5
17E
100
AcDbEntity
  8
2
370
    50
100
AcDbPoint
 10
-355.953258
 20
-123.849298
 30
0.0
  0
LINE
  5
17F
100
AcDbEntity
  8
2
370
    50
100
AcDbLine
 10
-347.953258
 20
-158.849298
 30
0.0
 11
-342.203258
 21
-158.849298
 31
0.0
  0
LINE
  5
180
100
AcDbEntity
  8
2
370
    50
100
AcDbLine
 10
-347.953258
 20
-174.349298
 30
0.0
 11
-342.203258
 21
-174.349298
 31
0.0
  0
LINE
  5
181
100
AcDbEntity
  8
2
370
    50
100
AcDbLine
 10
-341.703258
 20
-159.349298
 30
0.0
 11
-341.703258
 21
-173.849298
 31
0.0
  0
LINE
  5
182
100
AcDbEntity
  8
2
370
    50
100
AcDbLine
 10
-341.703258
 20
-159.349298
 30
0.0
 11
-342.203258
 21
-158.849298
 31
0.0
  0
LINE
  5
183
100
AcDbEntity
  8
2
370
    50
100
AcDbLine
 10
-341.703258
 20
-173.849298
 30
0.0
 11
-342.203258
 21
-174.349298
 31
0.0
  0
LINE
  5
184
100
AcDbEntity
  8
2
370
    50
100
AcDbLine
 10
-343.632106
 20
-173.849298
 30
0.0
 11
-346.203258
 21
-173.849298
 31
0.0
  0
LINE
  5
185
100
AcDbEntity
  8
2
370
    50
100
AcDbLine
 10
-343.632106
 20
-159.349298
 30
0.0
 11
-346.203258
 21
-159.349298
 31
0.0
  0
LINE
  5
186
100
AcDbEntity
  8
2
370
    50
100
AcDbLine
 10
-341.882106
 20
-159.349298
 30
0.0
 11
-341.882106
 21
-173.849298
 31
0.0
  0
LINE
  5
187
100
AcDbEntity
  8
2
370
    50
100
AcDbLine
 10
-343.632106
 20
-159.349298
 30
0.0
 11
-343.632106
 21
-173.849298
 31
0.0
  0
LINE
  5
188
100
AcDbEntity
  8
2
370
    50
100
AcDbLine
 10
-346.203258
 20
-159.349298
 30
0.0
 11
-346.203258
 21
-173.849298
 31
0.0
  0
LINE
  5
189
100
AcDbEntity
  8
2
370
    50
100
AcDbLine
 10
-341.703258
 20
-173.849298
 30
0.0
 11
-341.882106
 21
-173.849298
 31
0.0
  0
LINE
  5
18A
100
AcDbEntity
  8
2
370
    50
100
AcDbLine
 10
-341.703258
 20
-159.349298
 30
0.0
 11
-341.882106
 21
-159.349298
 31
0.0
  0
ARC
  5
18B
100
AcDbEntity
  8
2
370
    50
100
AcDbCircle
 10
-347.953258
 20
-165.349298
 30
0.0
 40
6.25
100
AcDbArc
 50
73.739795
 51
90.0
  0
ARC
  5
18C
100
AcDbEntity
  8
2
370
    50
100
AcDbCircle
 10
-342.757106
 20
-160.755548
 30
0.0
 40
1.65625
100
AcDbArc
 50
58.109208
 51
121.890792
  0
ARC
  5
18D
100
AcDbEntity
  8
2
370
    50
100
AcDbCircle
 10
-342.757106
 20
-172.443048
 30
0.0
 40
1.65625
100
AcDbArc
 50
238.109208
 51
301.890792
  0
ARC
  5
18E
100
AcDbEntity
  8
2
370
    50
100
AcDbCircle
 10
-347.953258
 20
-167.849298
 30
0.0
 40
6.25
100
AcDbArc
 50
270.0
 51
286.260205
  0
LINE
  5
18F
100
AcDbEntity
  8
2
370
    50
100
AcDbLine
 10
-347.953258
 20
-158.849298
 30
0.0
 11
-353.703258
 21
-158.849298
 31
0.0
  0
LINE
  5
190
100
AcDbEntity
  8
2
370
    50
100
AcDbLine
 10
-347.953258
 20
-174.349298
 30
0.0
 11
-353.703258
 21
-174.349298
 31
0.0
  0
LINE
  5
191
100
AcDbEntity
  8
2
370
    50
100
AcDbLine
 10
-354.203258
 20
-159.349298
 30
0.0
 11
-354.203258
 21
-173.849298
 31
0.0
  0
LINE
  5
192
100
AcDbEntity
  8
2
370
    50
100
AcDbLine
 10
-354.203258
 20
-159.349298
 30
0.0
 11
-353.703258
 21
-158.849298
 31
0.0
  0
LINE
  5
193
100
AcDbEntity
  8
2
370
    50
100
AcDbLine
 10
-354.203258
 20
-173.849298
 30
0.0
 11
-353.703258
 21
-174.349298
 31
0.0
  0
LINE
  5
194
100
AcDbEntity
  8
2
370
    50
100
AcDbLine
 10
-352.274411
 20
-173.849298
 30
0.0
 11
-349.703258
 21
-173.849298
 31
0.0
  0
LINE
  5
195
100
AcDbEntity
  8
2
370
    50
100
AcDbLine
 10
-352.274411
 20
-159.349298
 30
0.0
 11
-349.703258
 21
-159.349298
 31
0.0
  0
LINE
  5
196
100
AcDbEntity
  8
2
370
    50
100
AcDbLine
 10
-354.024411
 20
-159.349298
 30
0.0
 11
-354.024411
 21
-173.849298
 31
0.0
  0
LINE
  5
197
100
AcDbEntity
  8
2
370
    50
100
AcDbLine
 10
-352.274411
 20
-159.349298
 30
0.0
 11
-352.274411
 21
-173.849298
 31
0.0
  0
LINE
  5
198
100
AcDbEntity
  8
2
370
    50
100
AcDbLine
 10
-349.703258
 20
-159.349298
 30
0.0
 11
-349.703258
 21
-173.849298
 31
0.0
  0
LINE
  5
199
100
AcDbEntity
  8
2
370
    50
100
AcDbLine
 10
-354.203258
 20
-173.849298
 30
0.0
 11
-354.024411
 21
-173.849298
 31
0.0
  0
LINE
  5
19A
100
AcDbEntity
  8
2
370
    50
100
AcDbLine
 10
-354.203258
 20
-159.349298
 30
0.0
 11
-354.024411
 21
-159.349298
 31
0.0
  0
ARC
  5
19B
100
AcDbEntity
  8
2
370
    50
100
AcDbCircle
 10
-347.953258
 20
-165.349298
 30
0.0
 40
6.25
100
AcDbArc
 50
90.0
 51
106.260205
  0
ARC
  5
19C
100
AcDbEntity
  8
2
370
    50
100
AcDbCircle
 10
-353.149411
 20
-160.755548
 30
0.0
 40
1.65625
100
AcDbArc
 50
58.109208
 51
121.890792
  0
ARC
  5
19D
100
AcDbEntity
  8
2
370
    50
100
AcDbCircle
 10
-353.149411
 20
-172.443048
 30
0.0
 40
1.65625
100
AcDbArc
 50
238.109208
 51
301.890792
  0
ARC
  5
19E
100
AcDbEntity
  8
2
370
    50
100
AcDbCircle
 10
-347.953258
 20
-167.849298
 30
0.0
 40
6.25
100
AcDbArc
 50
253.739795
 51
270.0
  0
LINE
  5
19F
100
AcDbEntity
  8
2
370
    50
100
AcDbLine
 10
-363.953258
 20
-158.849298
 30
0.0
 11
-358.203258
 21
-158.849298
 31
0.0
  0
LINE
  5
1A0
100
AcDbEntity
  8
2
370
    50
100
AcDbLine
 10
-363.953258
 20
-174.349298
 30
0.0
 11
-358.203258
 21
-174.349298
 31
0.0
  0
LINE
  5
1A1
100
AcDbEntity
  8
2
370
    50
100
AcDbLine
 10
-357.703258
 20
-159.349298
 30
0.0
 11
-357.703258
 21
-173.849298
 31
0.0
  0
LINE
  5
1A2
100
AcDbEntity
  8
2
370
    50
100
AcDbLine
 10
-357.703258
 20
-159.349298
 30
0.0
 11
-358.203258
 21
-158.849298
 31
0.0
  0
LINE
  5
1A3
100
AcDbEntity
  8
2
370
    50
100
AcDbLine
 10
-357.703258
 20
-173.849298
 30
0.0
 11
-358.203258
 21
-174.349298
 31
0.0
  0
LINE
  5
1A4
100
AcDbEntity
  8
2
370
    50
100
AcDbLine
 10
-359.632106
 20
-173.849298
 30
0.0
 11
-362.203258
 21
-173.849298
 31
0.0
  0
LINE
  5
1A5
100
AcDbEntity
  8
2
370
    50
100
AcDbLine
 10
-359.632106
 20
-159.349298
 30
0.0
 11
-362.203258
 21
-159.349298
 31
0.0
  0
LINE
  5
1A6
100
AcDbEntity
  8
2
370
    50
100
AcDbLine
 10
-357.882106
 20
-159.349298
 30
0.0
 11
-357.882106
 21
-173.849298
 31
0.0
  0
LINE
  5
1A7
100
AcDbEntity
  8
2
370
    50
100
AcDbLine
 10
-359.632106
 20
-159.349298
 30
0.0
 11
-359.632106
 21
-173.849298
 31
0.0
  0
LINE
  5
1A8
100
AcDbEntity
  8
2
370
    50
100
AcDbLine
 10
-362.203258
 20
-159.349298
 30
0.0
 11
-362.203258
 21
-173.849298
 31
0.0
  0
LINE
  5
1A9
100
AcDbEntity
  8
2
370
    50
100
AcDbLine
 10
-357.703258
 20
-173.849298
 30
0.0
 11
-357.882106
 21
-173.849298
 31
0.0
  0
LINE
  5
1AA
100
AcDbEntity
  8
2
370
    50
100
AcDbLine
 10
-357.703258
 20
-159.349298
 30
0.0
 11
-357.882106
 21
-159.349298
 31
0.0
  0
ARC
  5
1AB
100
AcDbEntity
  8
2
370
    50
100
AcDbCircle
 10
-363.953258
 20
-165.349298
 30
0.0
 40
6.25
100
AcDbArc
 50
73.739795
 51
90.0
  0
ARC
  5
1AC
100
AcDbEntity
  8
2
370
    50
100
AcDbCircle
 10
-358.757106
 20
-160.755548
 30
0.0
 40
1.65625
100
AcDbArc
 50
58.109208
 51
121.890792
  0
ARC
  5
1AD
100
AcDbEntity
  8
2
370
    50
100
AcDbCircle
 10
-358.757106
 20
-172.443048
 30
0.0
 40
1.65625
100
AcDbArc
 50
238.109208
 51
301.890792
  0
ARC
  5
1AE
100
AcDbEntity
  8
2
370
    50
100
AcDbCircle
 10
-363.953258
 20
-167.849298
 30
0.0
 40
6.25
100
AcDbArc
 50
270.0
 51
286.260205
  0
LINE
  5
1AF
100
AcDbEntity
  8
2
370
    50
100
AcDbLine
 10
-363.953258
 20
-158.849298
 30
0.0
 11
-369.703258
 21
-158.849298
 31
0.0
  0
LINE
  5
1B0
100
AcDbEntity
  8
2
370
    50
100
AcDbLine
 10
-363.953258
 20
-174.349298
 30
0.0
 11
-369.703258
 21
-174.349298
 31
0.0
  0
LINE
  5
1B1
100
AcDbEntity
  8
2
370
    50
100
AcDbLine
 10
-370.203258
 20
-159.349298
 30
0.0
 11
-370.203258
 21
-173.849298
 31
0.0
  0
LINE
  5
1B2
100
AcDbEntity
  8
2
370
    50
100
AcDbLine
 10
-370.203258
 20
-159.349298
 30
0.0
 11
-369.703258
 21
-158.849298
 31
0.0
  0
LINE
  5
1B3
100
AcDbEntity
  8
2
370
    50
100
AcDbLine
 10
-370.203258
 20
-173.849298
 30
0.0
 11
-369.703258
 21
-174.349298
 31
0.0
  0
LINE
  5
1B4
100
AcDbEntity
  8
2
370
    50
100
AcDbLine
 10
-368.274411
 20
-173.849298
 30
0.0
 11
-365.703258
 21
-173.849298
 31
0.0
  0
LINE
  5
1B5
100
AcDbEntity
  8
2
370
    50
100
AcDbLine
 10
-368.274411
 20
-159.349298
 30
0.0
 11
-365.703258
 21
-159.349298
 31
0.0
  0
LINE
  5
1B6
100
AcDbEntity
  8
2
370
    50
100
AcDbLine
 10
-370.024411
 20
-159.349298
 30
0.0
 11
-370.024411
 21
-173.849298
 31
0.0
  0
LINE
  5
1B7
100
AcDbEntity
  8
2
370
    50
100
AcDbLine
 10
-368.274411
 20
-159.349298
 30
0.0
 11
-368.274411
 21
-173.849298
 31
0.0
  0
LINE
  5
1B8
100
AcDbEntity
  8
2
370
    50
100
AcDbLine
 10
-365.703258
 20
-159.349298
 30
0.0
 11
-365.703258
 21
-173.849298
 31
0.0
  0
LINE
  5
1B9
100
AcDbEntity
  8
2
370
    50
100
AcDbLine
 10
-370.203258
 20
-173.849298
 30
0.0
 11
-370.024411
 21
-173.849298
 31
0.0
  0
LINE
  5
1BA
100
AcDbEntity
  8
2
370
    50
100
AcDbLine
 10
-370.203258
 20
-159.349298
 30
0.0
 11
-370.024411
 21
-159.349298
 31
0.0
  0
ARC
  5
1BB
100
AcDbEntity
  8
2
370
    50
100
AcDbCircle
 10
-363.953258
 20
-165.349298
 30
0.0
 40
6.25
100
AcDbArc
 50
90.0
 51
106.260205
  0
ARC
  5
1BC
100
AcDbEntity
  8
2
370
    50
100
AcDbCircle
 10
-369.149411
 20
-160.755548
 30
0.0
 40
1.65625
100
AcDbArc
 50
58.109208
 51
121.890792
  0
ARC
  5
1BD
100
AcDbEntity
  8
2
370
    50
100
AcDbCircle
 10
-369.149411
 20
-172.443048
 30
0.0
 40
1.65625
100
AcDbArc
 50
238.109208
 51
301.890792
  0
ARC
  5
1BE
100
AcDbEntity
  8
2
370
    50
100
AcDbCircle
 10
-363.953258
 20
-167.849298
 30
0.0
 40
6.25
100
AcDbArc
 50
253.739795
 51
270.0
  0
LINE
  5
1BF
100
AcDbEntity
  8
2
370
    50
100
AcDbLine
 10
-358.453259
 20
-174.349298
 30
0.0
 11
-368.716398
 21
-174.349298
 31
0.0
  0
LINE
  5
1C0
100
AcDbEntity
  8
2
370
    50
100
AcDbLine
 10
-368.953259
 20
-174.349298
 30
0.0
 11
-369.453259
 21
-174.349298
 31
0.0
  0
LINE
  5
1C1
100
AcDbEntity
  8
2
370
    50
100
AcDbLine
 10
-342.453259
 20
-174.349298
 30
0.0
 11
-353.453259
 21
-174.349298
 31
0.0
  0
LINE
  5
1C2
100
AcDbEntity
  8
2
370
    25
  6
CENTER
100
AcDbLine
 10
-347.953259
 20
-216.610452
 30
0.0
 11
-347.953259
 21
-239.66636
 31
0.0
  0
POINT
  5
1C3
100
AcDbEntity
  8
2
370
    50
100
AcDbPoint
 10
-355.953258
 20
-123.849298
 30
0.0
  0
LINE
  5
1C4
100
AcDbEntity
  8
2
370
    50
100
AcDbLine
 10
-347.953258
 20
-158.849298
 30
0.0
 11
-342.203258
 21
-158.849298
 31
0.0
  0
LINE
  5
1C5
100
AcDbEntity
  8
2
370
    50
100
AcDbLine
 10
-341.703258
 20
-159.349298
 30
0.0
 11
-341.703258
 21
-173.849298
 31
0.0
  0
LINE
  5
1C6
100
AcDbEntity
  8
2
370
    50
100
AcDbLine
 10
-341.703258
 20
-159.349298
 30
0.0
 11
-342.203258
 21
-158.849298
 31
0.0
  0
LINE
  5
1C7
100
AcDbEntity
  8
2
370
    50
100
AcDbLine
 10
-343.632106
 20
-159.349298
 30
0.0
 11
-346.203258
 21
-159.349298
 31
0.0
  0
LINE
  5
1C8
100
AcDbEntity
  8
2
370
    50
100
AcDbLine
 10
-341.882106
 20
-159.349298
 30
0.0
 11
-341.882106
 21
-173.849298
 31
0.0
  0
LINE
  5
1C9
100
AcDbEntity
  8
2
370
    50
100
AcDbLine
 10
-343.632106
 20
-159.349298
 30
0.0
 11
-343.632106
 21
-173.849298
 31
0.0
  0
LINE
  5
1CA
100
AcDbEntity
  8
2
370
    50
100
AcDbLine
 10
-346.203258
 20
-159.349298
 30
0.0
 11
-346.203258
 21
-173.849298
 31
0.0
  0
LINE
  5
1CB
100
AcDbEntity
  8
2
370
    50
100
AcDbLine
 10
-341.703258
 20
-159.349298
 30
0.0
 11
-341.882106
 21
-159.349298
 31
0.0
  0
ARC
  5
1CC
100
AcDbEntity
  8
2
370
    50
100
AcDbCircle
 10
-347.953258
 20
-165.349298
 30
0.0
 40
6.25
100
AcDbArc
 50
73.739795
 51
90.0
  0
ARC
  5
1CD
100
AcDbEntity
  8
2
370
    50
100
AcDbCircle
 10
-342.757106
 20
-160.755548
 30
0.0
 40
1.65625
100
AcDbArc
 50
58.109208
 51
121.890792
  0
LINE
  5
1CE
100
AcDbEntity
  8
2
370
    50
100
AcDbLine
 10
-347.953258
 20
-158.849298
 30
0.0
 11
-353.703258
 21
-158.849298
 31
0.0
  0
LINE
  5
1CF
100
AcDbEntity
  8
2
370
    50
100
AcDbLine
 10
-354.203258
 20
-159.349298
 30
0.0
 11
-354.203258
 21
-173.849298
 31
0.0
  0
LINE
  5
1D0
100
AcDbEntity
  8
2
370
    50
100
AcDbLine
 10
-354.203258
 20
-159.349298
 30
0.0
 11
-353.703258
 21
-158.849298
 31
0.0
  0
LINE
  5
1D1
100
AcDbEntity
  8
2
370
    50
100
AcDbLine
 10
-352.274411
 20
-159.349298
 30
0.0
 11
-349.703258
 21
-159.349298
 31
0.0
  0
LINE
  5
1D2
100
AcDbEntity
  8
2
370
    50
100
AcDbLine
 10
-354.024411
 20
-159.349298
 30
0.0
 11
-354.024411
 21
-173.849298
 31
0.0
  0
LINE
  5
1D3
100
AcDbEntity
  8
2
370
    50
100
AcDbLine
 10
-352.274411
 20
-159.349298
 30
0.0
 11
-352.274411
 21
-173.849298
 31
0.0
  0
LINE
  5
1D4
100
AcDbEntity
  8
2
370
    50
100
AcDbLine
 10
-349.703258
 20
-159.349298
 30
0.0
 11
-349.703258
 21
-173.849298
 31
0.0
  0
LINE
  5
1D5
100
AcDbEntity
  8
2
370
    50
100
AcDbLine
 10
-354.203258
 20
-159.349298
 30
0.0
 11
-354.024411
 21
-159.349298
 31
0.0
  0
ARC
  5
1D6
100
AcDbEntity
  8
2
370
    50
100
AcDbCircle
 10
-347.953258
 20
-165.349298
 30
0.0
 40
6.25
100
AcDbArc
 50
90.0
 51
106.260205
  0
ARC
  5
1D7
100
AcDbEntity
  8
2
370
    50
100
AcDbCircle
 10
-353.149411
 20
-160.755548
 30
0.0
 40
1.65625
100
AcDbArc
 50
58.109208
 51
121.890792
  0
LINE
  5
1D8
100
AcDbEntity
  8
2
370
    50
100
AcDbLine
 10
-363.953258
 20
-158.849298
 30
0.0
 11
-358.203258
 21
-158.849298
 31
0.0
  0
LINE
  5
1D9
100
AcDbEntity
  8
2
370
    50
100
AcDbLine
 10
-357.703258
 20
-159.349298
 30
0.0
 11
-357.703258
 21
-173.849298
 31
0.0
  0
LINE
  5
1DA
100
AcDbEntity
  8
2
370
    50
100
AcDbLine
 10
-357.703258
 20
-159.349298
 30
0.0
 11
-358.203258
 21
-158.849298
 31
0.0
  0
LINE
  5
1DB
100
AcDbEntity
  8
2
370
    50
100
AcDbLine
 10
-359.632106
 20
-159.349298
 30
0.0
 11
-362.203258
 21
-159.349298
 31
0.0
  0
LINE
  5
1DC
100
AcDbEntity
  8
2
370
    50
100
AcDbLine
 10
-357.882106
 20
-159.349298
 30
0.0
 11
-357.882106
 21
-173.849298
 31
0.0
  0
LINE
  5
1DD
100
AcDbEntity
  8
2
370
    50
100
AcDbLine
 10
-359.632106
 20
-159.349298
 30
0.0
 11
-359.632106
 21
-173.849298
 31
0.0
  0
LINE
  5
1DE
100
AcDbEntity
  8
2
370
    50
100
AcDbLine
 10
-362.203258
 20
-159.349298
 30
0.0
 11
-362.203258
 21
-173.849298
 31
0.0
  0
LINE
  5
1DF
100
AcDbEntity
  8
2
370
    50
100
AcDbLine
 10
-357.703258
 20
-159.349298
 30
0.0
 11
-357.882106
 21
-159.349298
 31
0.0
  0
ARC
  5
1E0
100
AcDbEntity
  8
2
370
    50
100
AcDbCircle
 10
-363.953258
 20
-165.349298
 30
0.0
 40
6.25
100
AcDbArc
 50
73.739795
 51
90.0
  0
ARC
  5
1E1
100
AcDbEntity
  8
2
370
    50
100
AcDbCircle
 10
-358.757106
 20
-160.755548
 30
0.0
 40
1.65625
100
AcDbArc
 50
58.109208
 51
121.890792
  0
LINE
  5
1E2
100
AcDbEntity
  8
2
370
    50
100
AcDbLine
 10
-363.953258
 20
-158.849298
 30
0.0
 11
-369.703258
 21
-158.849298
 31
0.0
  0
LINE
  5
1E3
100
AcDbEntity
  8
2
370
    50
100
AcDbLine
 10
-370.203258
 20
-159.349298
 30
0.0
 11
-370.203258
 21
-173.849298
 31
0.0
  0
LINE
  5
1E4
100
AcDbEntity
  8
2
370
    50
100
AcDbLine
 10
-370.203258
 20
-159.349298
 30
0.0
 11
-369.703258
 21
-158.849298
 31
0.0
  0
LINE
  5
1E5
100
AcDbEntity
  8
2
370
    50
100
AcDbLine
 10
-368.274411
 20
-159.349298
 30
0.0
 11
-365.703258
 21
-159.349298
 31
0.0
  0
LINE
  5
1E6
100
AcDbEntity
  8
2
370
    50
100
AcDbLine
 10
-370.024411
 20
-159.349298
 30
0.0
 11
-370.024411
 21
-173.849298
 31
0.0
  0
LINE
  5
1E7
100
AcDbEntity
  8
2
370
    50
100
AcDbLine
 10
-368.274411
 20
-159.349298
 30
0.0
 11
-368.274411
 21
-173.849298
 31
0.0
  0
LINE
  5
1E8
100
AcDbEntity
  8
2
370
    50
100
AcDbLine
 10
-365.703258
 20
-159.349298
 30
0.0
 11
-365.703258
 21
-173.849298
 31
0.0
  0
LINE
  5
1E9
100
AcDbEntity
  8
2
370
    50
100
AcDbLine
 10
-370.203258
 20
-159.349298
 30
0.0
 11
-370.024411
 21
-159.349298
 31
0.0
  0
ARC
  5
1EA
100
AcDbEntity
  8
2
370
    50
100
AcDbCircle
 10
-363.953258
 20
-165.349298
 30
0.0
 40
6.25
100
AcDbArc
 50
90.0
 51
106.260205
  0
ARC
  5
1EB
100
AcDbEntity
  8
2
370
    50
100
AcDbCircle
 10
-369.149411
 20
-160.755548
 30
0.0
 40
1.65625
100
AcDbArc
 50
58.109208
 51
121.890792
  0
POINT
  5
1EC
100
AcDbEntity
  8
2
370
    50
100
AcDbPoint
 10
-355.953258
 20
-123.849298
 30
0.0
  0
LINE
  5
1ED
100
AcDbEntity
  8
2
370
    50
100
AcDbLine
 10
-347.953258
 20
-174.349298
 30
0.0
 11
-342.203258
 21
-174.349298
 31
0.0
  0
LINE
  5
1EE
100
AcDbEntity
  8
2
370
    50
100
AcDbLine
 10
-341.703258
 20
-173.849298
 30
0.0
 11
-342.203258
 21
-174.349298
 31
0.0
  0
LINE
  5
1EF
100
AcDbEntity
  8
2
370
    50
100
AcDbLine
 10
-343.632106
 20
-173.849298
 30
0.0
 11
-346.203258
 21
-173.849298
 31
0.0
  0
LINE
  5
1F0
100
AcDbEntity
  8
2
370
    50
100
AcDbLine
 10
-341.703258
 20
-173.849298
 30
0.0
 11
-341.882106
 21
-173.849298
 31
0.0
  0
ARC
  5
1F1
100
AcDbEntity
  8
2
370
    50
100
AcDbCircle
 10
-342.757106
 20
-172.443048
 30
0.0
 40
1.65625
100
AcDbArc
 50
238.109208
 51
301.890792
  0
ARC
  5
1F2
100
AcDbEntity
  8
2
370
    50
100
AcDbCircle
 10
-347.953258
 20
-167.849298
 30
0.0
 40
6.25
100
AcDbArc
 50
270.0
 51
286.260205
  0
LINE
  5
1F3
100
AcDbEntity
  8
2
370
    50
100
AcDbLine
 10
-347.953258
 20
-174.349298
 30
0.0
 11
-353.703258
 21
-174.349298
 31
0.0
  0
LINE
  5
1F4
100
AcDbEntity
  8
2
370
    50
100
AcDbLine
 10
-354.203258
 20
-173.849298
 30
0.0
 11
-353.703258
 21
-174.349298
 31
0.0
  0
LINE
  5
1F5
100
AcDbEntity
  8
2
370
    50
100
AcDbLine
 10
-352.274411
 20
-173.849298
 30
0.0
 11
-349.703258
 21
-173.849298
 31
0.0
  0
LINE
  5
1F6
100
AcDbEntity
  8
2
370
    50
100
AcDbLine
 10
-354.203258
 20
-173.849298
 30
0.0
 11
-354.024411
 21
-173.849298
 31
0.0
  0
ARC
  5
1F7
100
AcDbEntity
  8
2
370
    50
100
AcDbCircle
 10
-353.149411
 20
-172.443048
 30
0.0
 40
1.65625
100
AcDbArc
 50
238.109208
 51
301.890792
  0
ARC
  5
1F8
100
AcDbEntity
  8
2
370
    50
100
AcDbCircle
 10
-347.953258
 20
-167.849298
 30
0.0
 40
6.25
100
AcDbArc
 50
253.739795
 51
270.0
  0
LINE
  5
1F9
100
AcDbEntity
  8
2
370
    50
100
AcDbLine
 10
-363.953258
 20
-174.349298
 30
0.0
 11
-358.203258
 21
-174.349298
 31
0.0
  0
LINE
  5
1FA
100
AcDbEntity
  8
2
370
    50
100
AcDbLine
 10
-357.703258
 20
-173.849298
 30
0.0
 11
-358.203258
 21
-174.349298
 31
0.0
  0
LINE
  5
1FB
100
AcDbEntity
  8
2
370
    50
100
AcDbLine
 10
-359.632106
 20
-173.849298
 30
0.0
 11
-362.203258
 21
-173.849298
 31
0.0
  0
LINE
  5
1FC
100
AcDbEntity
  8
2
370
    50
100
AcDbLine
 10
-357.703258
 20
-173.849298
 30
0.0
 11
-357.882106
 21
-173.849298
 31
0.0
  0
ARC
  5
1FD
100
AcDbEntity
  8
2
370
    50
100
AcDbCircle
 10
-358.757106
 20
-172.443048
 30
0.0
 40
1.65625
100
AcDbArc
 50
238.109208
 51
301.890792
  0
ARC
  5
1FE
100
AcDbEntity
  8
2
370
    50
100
AcDbCircle
 10
-363.953258
 20
-167.849298
 30
0.0
 40
6.25
100
AcDbArc
 50
270.0
 51
286.260205
  0
LINE
  5
1FF
100
AcDbEntity
  8
2
370
    50
100
AcDbLine
 10
-363.953258
 20
-174.349298
 30
0.0
 11
-369.703258
 21
-174.349298
 31
0.0
  0
LINE
  5
200
100
AcDbEntity
  8
2
370
    50
100
AcDbLine
 10
-370.203258
 20
-173.849298
 30
0.0
 11
-369.703258
 21
-174.349298
 31
0.0
  0
LINE
  5
201
100
AcDbEntity
  8
2
370
    50
100
AcDbLine
 10
-368.274411
 20
-173.849298
 30
0.0
 11
-365.703258
 21
-173.849298
 31
0.0
  0
LINE
  5
202
100
AcDbEntity
  8
2
370
    50
100
AcDbLine
 10
-370.203258
 20
-173.849298
 30
0.0
 11
-370.024411
 21
-173.849298
 31
0.0
  0
ARC
  5
203
100
AcDbEntity
  8
2
370
    50
100
AcDbCircle
 10
-369.149411
 20
-172.443048
 30
0.0
 40
1.65625
100
AcDbArc
 50
238.109208
 51
301.890792
  0
ARC
  5
204
100
AcDbEntity
  8
2
370
    50
100
AcDbCircle
 10
-363.953258
 20
-167.849298
 30
0.0
 40
6.25
100
AcDbArc
 50
253.739795
 51
270.0
  0
LINE
  5
205
100
AcDbEntity
  8
2
370
    25
  6
CENTER
100
AcDbLine
 10
-363.953259
 20
-216.846956
 30
0.0
 11
-363.953259
 21
-239.66636
 31
0.0
  0
LINE
  5
206
100
AcDbEntity
  8
2
370
    50
100
AcDbLine
 10
-358.453259
 20
-174.349298
 30
0.0
 11
-368.716398
 21
-174.349298
 31
0.0
  0
LINE
  5
207
100
AcDbEntity
  8
2
370
    50
100
AcDbLine
 10
-368.953259
 20
-174.349298
 30
0.0
 11
-369.453259
 21
-174.349298
 31
0.0
  0
LINE
  5
208
100
AcDbEntity
  8
2
370
    50
100
AcDbLine
 10
-342.453259
 20
-174.349298
 30
0.0
 11
-353.453259
 21
-174.349298
 31
0.0
  0
LINE
  5
209
100
AcDbEntity
  8
2
370
    25
  6
CENTER
100
AcDbLine
 10
-347.953259
 20
-212.669952
 30
0.0
 11
-347.953259
 21
-239.66636
 31
0.0
  0
LINE
  5
20A
100
AcDbEntity
  8
2
370
    25
  6
CENTER
100
AcDbLine
 10
-293.265416
 20
-215.643786
 30
0.0
 11
-293.265416
 21
-239.517265
 31
0.0
  0
POINT
  5
20B
100
AcDbEntity
  8
2
370
    50
100
AcDbPoint
 10
-293.265416
 20
-317.245601
 30
0.0
  0
LINE
  5
20C
100
AcDbEntity
  8
2
370
    25
  6
CENTER
100
AcDbLine
 10
-347.953259
 20
-239.66636
 30
0.0
 11
-293.265416
 21
-215.643786
 31
0.0
  0
LINE
  5
20D
100
AcDbEntity
  8
2
370
    25
  6
CENTER
100
AcDbLine
 10
-363.953259
 20
-239.66636
 30
0.0
 11
-418.641101
 21
-215.643786
 31
0.0
  0
LINE
  5
20E
100
AcDbEntity
  8
2
370
    25
  6
CENTER
100
AcDbLine
 10
-418.641101
 20
-215.643786
 30
0.0
 11
-418.641101
 21
-240.418808
 31
0.0
  0
LINE
  5
20F
100
AcDbEntity
  8
2
370
    50
100
AcDbLine
 10
88.454872
 20
-145.849298
 30
0.0
 11
88.454872
 21
-158.849298
 31
0.0
  0
LINE
  5
210
100
AcDbEntity
  8
2
370
    50
100
AcDbLine
 10
98.454872
 20
-145.849298
 30
0.0
 11
98.454872
 21
-153.057312
 31
0.0
  0
LINE
  5
211
100
AcDbEntity
  8
2
370
    50
100
AcDbLine
 10
93.454872
 20
-158.849298
 30
0.0
 11
99.204872
 21
-158.849298
 31
0.0
  0
LINE
  5
212
100
AcDbEntity
  8
2
370
    50
100
AcDbLine
 10
93.454872
 20
-174.349298
 30
0.0
 11
99.204872
 21
-174.349298
 31
0.0
  0
LINE
  5
213
100
AcDbEntity
  8
2
370
    50
100
AcDbLine
 10
99.704872
 20
-159.349298
 30
0.0
 11
99.704872
 21
-173.849298
 31
0.0
  0
LINE
  5
214
100
AcDbEntity
  8
2
370
    50
100
AcDbLine
 10
99.704872
 20
-159.349298
 30
0.0
 11
99.204872
 21
-158.849298
 31
0.0
  0
LINE
  5
215
100
AcDbEntity
  8
2
370
    50
100
AcDbLine
 10
99.704872
 20
-173.849298
 30
0.0
 11
99.204872
 21
-174.349298
 31
0.0
  0
LINE
  5
216
100
AcDbEntity
  8
2
370
    50
100
AcDbLine
 10
97.776025
 20
-173.849298
 30
0.0
 11
95.204872
 21
-173.849298
 31
0.0
  0
LINE
  5
217
100
AcDbEntity
  8
2
370
    50
100
AcDbLine
 10
97.776025
 20
-159.349298
 30
0.0
 11
95.204872
 21
-159.349298
 31
0.0
  0
LINE
  5
218
100
AcDbEntity
  8
2
370
    50
100
AcDbLine
 10
99.526025
 20
-159.349298
 30
0.0
 11
99.526025
 21
-173.849298
 31
0.0
  0
LINE
  5
219
100
AcDbEntity
  8
2
370
    50
100
AcDbLine
 10
97.776025
 20
-159.349298
 30
0.0
 11
97.776025
 21
-173.849298
 31
0.0
  0
LINE
  5
21A
100
AcDbEntity
  8
2
370
    50
100
AcDbLine
 10
95.204872
 20
-159.349298
 30
0.0
 11
95.204872
 21
-173.849298
 31
0.0
  0
LINE
  5
21B
100
AcDbEntity
  8
2
370
    50
100
AcDbLine
 10
99.704872
 20
-173.849298
 30
0.0
 11
99.526025
 21
-173.849298
 31
0.0
  0
LINE
  5
21C
100
AcDbEntity
  8
2
370
    50
100
AcDbLine
 10
99.704872
 20
-159.349298
 30
0.0
 11
99.526025
 21
-159.349298
 31
0.0
  0
ARC
  5
21D
100
AcDbEntity
  8
2
370
    50
100
AcDbCircle
 10
93.454872
 20
-165.349298
 30
0.0
 40
6.25
100
AcDbArc
 50
73.739795
 51
90.0
  0
ARC
  5
21E
100
AcDbEntity
  8
2
370
    50
100
AcDbCircle
 10
98.651025
 20
-160.755548
 30
0.0
 40
1.65625
100
AcDbArc
 50
58.109208
 51
121.890792
  0
ARC
  5
21F
100
AcDbEntity
  8
2
370
    50
100
AcDbCircle
 10
98.651025
 20
-172.443048
 30
0.0
 40
1.65625
100
AcDbArc
 50
238.109208
 51
301.890792
  0
ARC
  5
220
100
AcDbEntity
  8
2
370
    50
100
AcDbCircle
 10
93.454872
 20
-167.849298
 30
0.0
 40
6.25
100
AcDbArc
 50
270.0
 51
286.260205
  0
LINE
  5
221
100
AcDbEntity
  8
2
370
    50
100
AcDbLine
 10
93.454872
 20
-158.849298
 30
0.0
 11
87.704872
 21
-158.849298
 31
0.0
  0
LINE
  5
222
100
AcDbEntity
  8
2
370
    50
100
AcDbLine
 10
93.454872
 20
-174.349298
 30
0.0
 11
87.704872
 21
-174.349298
 31
0.0
  0
LINE
  5
223
100
AcDbEntity
  8
2
370
    50
100
AcDbLine
 10
87.204872
 20
-159.349298
 30
0.0
 11
87.204872
 21
-173.849298
 31
0.0
  0
LINE
  5
224
100
AcDbEntity
  8
2
370
    50
100
AcDbLine
 10
87.204872
 20
-159.349298
 30
0.0
 11
87.704872
 21
-158.849298
 31
0.0
  0
LINE
  5
225
100
AcDbEntity
  8
2
370
    50
100
AcDbLine
 10
87.204872
 20
-173.849298
 30
0.0
 11
87.704872
 21
-174.349298
 31
0.0
  0
LINE
  5
226
100
AcDbEntity
  8
2
370
    50
100
AcDbLine
 10
89.13372
 20
-173.849298
 30
0.0
 11
91.704872
 21
-173.849298
 31
0.0
  0
LINE
  5
227
100
AcDbEntity
  8
2
370
    50
100
AcDbLine
 10
89.13372
 20
-159.349298
 30
0.0
 11
91.704872
 21
-159.349298
 31
0.0
  0
LINE
  5
228
100
AcDbEntity
  8
2
370
    50
100
AcDbLine
 10
87.38372
 20
-159.349298
 30
0.0
 11
87.38372
 21
-173.849298
 31
0.0
  0
LINE
  5
229
100
AcDbEntity
  8
2
370
    50
100
AcDbLine
 10
89.13372
 20
-159.349298
 30
0.0
 11
89.13372
 21
-173.849298
 31
0.0
  0
LINE
  5
22A
100
AcDbEntity
  8
2
370
    50
100
AcDbLine
 10
91.704872
 20
-159.349298
 30
0.0
 11
91.704872
 21
-173.849298
 31
0.0
  0
LINE
  5
22B
100
AcDbEntity
  8
2
370
    50
100
AcDbLine
 10
87.204872
 20
-173.849298
 30
0.0
 11
87.38372
 21
-173.849298
 31
0.0
  0
LINE
  5
22C
100
AcDbEntity
  8
2
370
    50
100
AcDbLine
 10
87.204872
 20
-159.349298
 30
0.0
 11
87.38372
 21
-159.349298
 31
0.0
  0
ARC
  5
22D
100
AcDbEntity
  8
2
370
    50
100
AcDbCircle
 10
93.454872
 20
-165.349298
 30
0.0
 40
6.25
100
AcDbArc
 50
90.0
 51
106.260205
  0
ARC
  5
22E
100
AcDbEntity
  8
2
370
    50
100
AcDbCircle
 10
88.25872
 20
-160.755548
 30
0.0
 40
1.65625
100
AcDbArc
 50
58.109208
 51
121.890792
  0
ARC
  5
22F
100
AcDbEntity
  8
2
370
    50
100
AcDbCircle
 10
88.25872
 20
-172.443048
 30
0.0
 40
1.65625
100
AcDbArc
 50
238.109208
 51
301.890792
  0
ARC
  5
230
100
AcDbEntity
  8
2
370
    50
100
AcDbCircle
 10
93.454872
 20
-167.849298
 30
0.0
 40
6.25
100
AcDbArc
 50
253.739795
 51
270.0
  0
LINE
  5
231
100
AcDbEntity
  8
2
370
    50
100
AcDbLine
 10
87.454872
 20
-179.960623
 30
0.0
 11
87.454872
 21
-174.637973
 31
0.0
  0
LINE
  5
232
100
AcDbEntity
  8
2
370
    50
100
AcDbLine
 10
99.454872
 20
-179.960623
 30
0.0
 11
99.454872
 21
-174.637973
 31
0.0
  0
LINE
  5
233
100
AcDbEntity
  8
2
370
    50
100
AcDbLine
 10
95.852788
 20
-174.637973
 30
0.0
 11
95.852788
 21
-179.960623
 31
0.0
  0
LINE
  5
234
100
AcDbEntity
  8
2
370
    50
100
AcDbLine
 10
97.019054
 20
-174.637973
 30
0.0
 11
97.019054
 21
-179.960623
 31
0.0
  0
LINE
  5
235
100
AcDbEntity
  8
2
370
    50
100
AcDbLine
 10
99.41697
 20
-174.637973
 30
0.0
 11
99.41697
 21
-179.960623
 31
0.0
  0
LINE
  5
236
100
AcDbEntity
  8
2
370
    50
100
AcDbLine
 10
98.954872
 20
-174.349298
 30
0.0
 11
87.954872
 21
-174.349298
 31
0.0
  0
LINE
  5
237
100
AcDbEntity
  8
2
370
    50
100
AcDbLine
 10
98.954872
 20
-180.249298
 30
0.0
 11
99.454872
 21
-179.960623
 31
0.0
  0
LINE
  5
238
100
AcDbEntity
  8
2
370
    50
100
AcDbLine
 10
97.019054
 20
-179.960623
 30
0.0
 11
95.852788
 21
-179.960623
 31
0.0
  0
LINE
  5
239
100
AcDbEntity
  8
2
370
    50
100
AcDbLine
 10
87.454872
 20
-179.960623
 30
0.0
 11
87.954872
 21
-180.249298
 31
0.0
  0
LINE
  5
23A
100
AcDbEntity
  8
2
370
    50
100
AcDbLine
 10
87.454872
 20
-174.637973
 30
0.0
 11
87.954872
 21
-174.349298
 31
0.0
  0
ARC
  5
23B
100
AcDbEntity
  8
2
370
    50
100
AcDbCircle
 10
93.454872
 20
-170.145668
 30
0.0
 40
10.10363
100
AcDbArc
 50
270.0
 51
283.729133
  0
ARC
  5
23C
100
AcDbEntity
  8
2
370
    50
100
AcDbCircle
 10
93.454872
 20
-184.452927
 30
0.0
 40
10.10363
100
AcDbArc
 50
76.270867
 51
90.0
  0
LINE
  5
23D
100
AcDbEntity
  8
2
370
    50
100
AcDbLine
 10
97.019054
 20
-174.637973
 30
0.0
 11
95.852788
 21
-174.637973
 31
0.0
  0
LINE
  5
23E
100
AcDbEntity
  8
2
370
    50
100
AcDbLine
 10
99.454872
 20
-179.960623
 30
0.0
 11
99.41697
 21
-179.960623
 31
0.0
  0
ARC
  5
23F
100
AcDbEntity
  8
2
370
    50
100
AcDbCircle
 10
98.218012
 20
-177.615137
 30
0.0
 40
2.634161
100
AcDbArc
 50
242.924933
 51
297.075067
  0
ARC
  5
240
100
AcDbEntity
  8
2
370
    50
100
AcDbCircle
 10
98.218012
 20
-176.983458
 30
0.0
 40
2.634161
100
AcDbArc
 50
62.924933
 51
117.075067
  0
LINE
  5
241
100
AcDbEntity
  8
2
370
    50
100
AcDbLine
 10
98.954872
 20
-174.349298
 30
0.0
 11
99.454872
 21
-174.637973
 31
0.0
  0
LINE
  5
242
100
AcDbEntity
  8
2
370
    50
100
AcDbLine
 10
99.454872
 20
-174.637973
 30
0.0
 11
99.41697
 21
-174.637973
 31
0.0
  0
ARC
  5
243
100
AcDbEntity
  8
2
370
    50
100
AcDbCircle
 10
93.454872
 20
-170.145668
 30
0.0
 40
10.10363
100
AcDbArc
 50
256.270867
 51
270.0
  0
LINE
  5
244
100
AcDbEntity
  8
2
370
    50
100
AcDbLine
 10
89.89069
 20
-179.960623
 30
0.0
 11
91.056956
 21
-179.960623
 31
0.0
  0
LINE
  5
245
100
AcDbEntity
  8
2
370
    50
100
AcDbLine
 10
91.056957
 20
-174.637973
 30
0.0
 11
91.056956
 21
-179.960623
 31
0.0
  0
LINE
  5
246
100
AcDbEntity
  8
2
370
    50
100
AcDbLine
 10
89.89069
 20
-174.637973
 30
0.0
 11
89.89069
 21
-179.960623
 31
0.0
  0
ARC
  5
247
100
AcDbEntity
  8
2
370
    50
100
AcDbCircle
 10
88.691732
 20
-177.615137
 30
0.0
 40
2.634161
100
AcDbArc
 50
242.924933
 51
297.075067
  0
LINE
  5
248
100
AcDbEntity
  8
2
370
    50
100
AcDbLine
 10
87.492774
 20
-174.637973
 30
0.0
 11
87.492774
 21
-179.960623
 31
0.0
  0
LINE
  5
249
100
AcDbEntity
  8
2
370
    50
100
AcDbLine
 10
87.492774
 20
-179.960623
 30
0.0
 11
87.454872
 21
-179.960623
 31
0.0
  0
ARC
  5
24A
100
AcDbEntity
  8
2
370
    50
100
AcDbCircle
 10
93.454872
 20
-184.452927
 30
0.0
 40
10.10363
100
AcDbArc
 50
90.0
 51
103.729133
  0
LINE
  5
24B
100
AcDbEntity
  8
2
370
    50
100
AcDbLine
 10
89.89069
 20
-174.637973
 30
0.0
 11
91.056956
 21
-174.637973
 31
0.0
  0
ARC
  5
24C
100
AcDbEntity
  8
2
370
    50
100
AcDbCircle
 10
88.691732
 20
-176.983458
 30
0.0
 40
2.634161
100
AcDbArc
 50
62.924933
 51
117.075067
  0
POINT
  5
24D
100
AcDbEntity
  8
2
370
    50
100
AcDbPoint
 10
93.454872
 20
-145.849298
 30
0.0
  0
LINE
  5
24E
100
AcDbEntity
  8
2
370
    50
100
AcDbLine
 10
93.454872
 20
-158.849298
 30
0.0
 11
99.204872
 21
-158.849298
 31
0.0
  0
LINE
  5
24F
100
AcDbEntity
  8
2
370
    50
100
AcDbLine
 10
93.454872
 20
-174.349298
 30
0.0
 11
99.204872
 21
-174.349298
 31
0.0
  0
LINE
  5
250
100
AcDbEntity
  8
2
370
    50
100
AcDbLine
 10
99.704872
 20
-159.349298
 30
0.0
 11
99.704872
 21
-173.849298
 31
0.0
  0
LINE
  5
251
100
AcDbEntity
  8
2
370
    50
100
AcDbLine
 10
99.704872
 20
-159.349298
 30
0.0
 11
99.204872
 21
-158.849298
 31
0.0
  0
LINE
  5
252
100
AcDbEntity
  8
2
370
    50
100
AcDbLine
 10
99.704872
 20
-173.849298
 30
0.0
 11
99.204872
 21
-174.349298
 31
0.0
  0
LINE
  5
253
100
AcDbEntity
  8
2
370
    50
100
AcDbLine
 10
97.776025
 20
-173.849298
 30
0.0
 11
95.204872
 21
-173.849298
 31
0.0
  0
LINE
  5
254
100
AcDbEntity
  8
2
370
    50
100
AcDbLine
 10
97.776025
 20
-159.349298
 30
0.0
 11
95.204872
 21
-159.349298
 31
0.0
  0
LINE
  5
255
100
AcDbEntity
  8
2
370
    50
100
AcDbLine
 10
99.526025
 20
-159.349298
 30
0.0
 11
99.526025
 21
-173.849298
 31
0.0
  0
LINE
  5
256
100
AcDbEntity
  8
2
370
    50
100
AcDbLine
 10
97.776025
 20
-159.349298
 30
0.0
 11
97.776025
 21
-173.849298
 31
0.0
  0
LINE
  5
257
100
AcDbEntity
  8
2
370
    50
100
AcDbLine
 10
95.204872
 20
-159.349298
 30
0.0
 11
95.204872
 21
-173.849298
 31
0.0
  0
LINE
  5
258
100
AcDbEntity
  8
2
370
    50
100
AcDbLine
 10
99.704872
 20
-173.849298
 30
0.0
 11
99.526025
 21
-173.849298
 31
0.0
  0
LINE
  5
259
100
AcDbEntity
  8
2
370
    50
100
AcDbLine
 10
99.704872
 20
-159.349298
 30
0.0
 11
99.526025
 21
-159.349298
 31
0.0
  0
ARC
  5
25A
100
AcDbEntity
  8
2
370
    50
100
AcDbCircle
 10
93.454872
 20
-165.349298
 30
0.0
 40
6.25
100
AcDbArc
 50
73.739795
 51
90.0
  0
ARC
  5
25B
100
AcDbEntity
  8
2
370
    50
100
AcDbCircle
 10
98.651025
 20
-160.755548
 30
0.0
 40
1.65625
100
AcDbArc
 50
58.109208
 51
121.890792
  0
ARC
  5
25C
100
AcDbEntity
  8
2
370
    50
100
AcDbCircle
 10
98.651025
 20
-172.443048
 30
0.0
 40
1.65625
100
AcDbArc
 50
238.109208
 51
301.890792
  0
ARC
  5
25D
100
AcDbEntity
  8
2
370
    50
100
AcDbCircle
 10
93.454872
 20
-167.849298
 30
0.0
 40
6.25
100
AcDbArc
 50
270.0
 51
286.260205
  0
LINE
  5
25E
100
AcDbEntity
  8
2
370
    50
100
AcDbLine
 10
93.454872
 20
-158.849298
 30
0.0
 11
87.704872
 21
-158.849298
 31
0.0
  0
LINE
  5
25F
100
AcDbEntity
  8
2
370
    50
100
AcDbLine
 10
93.454872
 20
-174.349298
 30
0.0
 11
87.704872
 21
-174.349298
 31
0.0
  0
LINE
  5
260
100
AcDbEntity
  8
2
370
    50
100
AcDbLine
 10
87.204872
 20
-159.349298
 30
0.0
 11
87.204872
 21
-173.849298
 31
0.0
  0
LINE
  5
261
100
AcDbEntity
  8
2
370
    50
100
AcDbLine
 10
87.204872
 20
-159.349298
 30
0.0
 11
87.704872
 21
-158.849298
 31
0.0
  0
LINE
  5
262
100
AcDbEntity
  8
2
370
    50
100
AcDbLine
 10
87.204872
 20
-173.849298
 30
0.0
 11
87.704872
 21
-174.349298
 31
0.0
  0
LINE
  5
263
100
AcDbEntity
  8
2
370
    50
100
AcDbLine
 10
89.13372
 20
-173.849298
 30
0.0
 11
91.704872
 21
-173.849298
 31
0.0
  0
LINE
  5
264
100
AcDbEntity
  8
2
370
    50
100
AcDbLine
 10
89.13372
 20
-159.349298
 30
0.0
 11
91.704872
 21
-159.349298
 31
0.0
  0
LINE
  5
265
100
AcDbEntity
  8
2
370
    50
100
AcDbLine
 10
87.38372
 20
-159.349298
 30
0.0
 11
87.38372
 21
-173.849298
 31
0.0
  0
LINE
  5
266
100
AcDbEntity
  8
2
370
    50
100
AcDbLine
 10
89.13372
 20
-159.349298
 30
0.0
 11
89.13372
 21
-173.849298
 31
0.0
  0
LINE
  5
267
100
AcDbEntity
  8
2
370
    50
100
AcDbLine
 10
91.704872
 20
-159.349298
 30
0.0
 11
91.704872
 21
-173.849298
 31
0.0
  0
LINE
  5
268
100
AcDbEntity
  8
2
370
    50
100
AcDbLine
 10
87.204872
 20
-173.849298
 30
0.0
 11
87.38372
 21
-173.849298
 31
0.0
  0
LINE
  5
269
100
AcDbEntity
  8
2
370
    50
100
AcDbLine
 10
87.204872
 20
-159.349298
 30
0.0
 11
87.38372
 21
-159.349298
 31
0.0
  0
ARC
  5
26A
100
AcDbEntity
  8
2
370
    50
100
AcDbCircle
 10
93.454872
 20
-165.349298
 30
0.0
 40
6.25
100
AcDbArc
 50
90.0
 51
106.260205
  0
ARC
  5
26B
100
AcDbEntity
  8
2
370
    50
100
AcDbCircle
 10
88.25872
 20
-160.755548
 30
0.0
 40
1.65625
100
AcDbArc
 50
58.109208
 51
121.890792
  0
ARC
  5
26C
100
AcDbEntity
  8
2
370
    50
100
AcDbCircle
 10
88.25872
 20
-172.443048
 30
0.0
 40
1.65625
100
AcDbArc
 50
238.109208
 51
301.890792
  0
ARC
  5
26D
100
AcDbEntity
  8
2
370
    50
100
AcDbCircle
 10
93.454872
 20
-167.849298
 30
0.0
 40
6.25
100
AcDbArc
 50
253.739795
 51
270.0
  0
LINE
  5
26E
100
AcDbEntity
  8
2
370
    50
100
AcDbLine
 10
87.454872
 20
-179.960623
 30
0.0
 11
87.454872
 21
-174.637973
 31
0.0
  0
LINE
  5
26F
100
AcDbEntity
  8
2
370
    50
100
AcDbLine
 10
99.454872
 20
-179.960623
 30
0.0
 11
99.454872
 21
-174.637973
 31
0.0
  0
LINE
  5
270
100
AcDbEntity
  8
2
370
    50
100
AcDbLine
 10
95.852788
 20
-174.637973
 30
0.0
 11
95.852788
 21
-179.960623
 31
0.0
  0
LINE
  5
271
100
AcDbEntity
  8
2
370
    50
100
AcDbLine
 10
97.019054
 20
-174.637973
 30
0.0
 11
97.019054
 21
-179.960623
 31
0.0
  0
LINE
  5
272
100
AcDbEntity
  8
2
370
    50
100
AcDbLine
 10
99.41697
 20
-174.637973
 30
0.0
 11
99.41697
 21
-179.960623
 31
0.0
  0
LINE
  5
273
100
AcDbEntity
  8
2
370
    50
100
AcDbLine
 10
98.954872
 20
-174.349298
 30
0.0
 11
87.954872
 21
-174.349298
 31
0.0
  0
LINE
  5
274
100
AcDbEntity
  8
2
370
    50
100
AcDbLine
 10
98.954872
 20
-180.249298
 30
0.0
 11
99.454872
 21
-179.960623
 31
0.0
  0
LINE
  5
275
100
AcDbEntity
  8
2
370
    50
100
AcDbLine
 10
97.019054
 20
-179.960623
 30
0.0
 11
95.852788
 21
-179.960623
 31
0.0
  0
LINE
  5
276
100
AcDbEntity
  8
2
370
    50
100
AcDbLine
 10
87.454872
 20
-179.960623
 30
0.0
 11
87.954872
 21
-180.249298
 31
0.0
  0
LINE
  5
277
100
AcDbEntity
  8
2
370
    50
100
AcDbLine
 10
87.454872
 20
-174.637973
 30
0.0
 11
87.954872
 21
-174.349298
 31
0.0
  0
ARC
  5
278
100
AcDbEntity
  8
2
370
    50
100
AcDbCircle
 10
93.454872
 20
-170.145668
 30
0.0
 40
10.10363
100
AcDbArc
 50
270.0
 51
283.729133
  0
ARC
  5
279
100
AcDbEntity
  8
2
370
    50
100
AcDbCircle
 10
93.454872
 20
-184.452927
 30
0.0
 40
10.10363
100
AcDbArc
 50
76.270867
 51
90.0
  0
LINE
  5
27A
100
AcDbEntity
  8
2
370
    50
100
AcDbLine
 10
97.019054
 20
-174.637973
 30
0.0
 11
95.852788
 21
-174.637973
 31
0.0
  0
LINE
  5
27B
100
AcDbEntity
  8
2
370
    50
100
AcDbLine
 10
99.454872
 20
-179.960623
 30
0.0
 11
99.41697
 21
-179.960623
 31
0.0
  0
ARC
  5
27C
100
AcDbEntity
  8
2
370
    50
100
AcDbCircle
 10
98.218012
 20
-177.615137
 30
0.0
 40
2.634161
100
AcDbArc
 50
242.924933
 51
297.075067
  0
ARC
  5
27D
100
AcDbEntity
  8
2
370
    50
100
AcDbCircle
 10
98.218012
 20
-176.983458
 30
0.0
 40
2.634161
100
AcDbArc
 50
62.924933
 51
117.075067
  0
LINE
  5
27E
100
AcDbEntity
  8
2
370
    50
100
AcDbLine
 10
98.954872
 20
-174.349298
 30
0.0
 11
99.454872
 21
-174.637973
 31
0.0
  0
LINE
  5
27F
100
AcDbEntity
  8
2
370
    50
100
AcDbLine
 10
99.454872
 20
-174.637973
 30
0.0
 11
99.41697
 21
-174.637973
 31
0.0
  0
ARC
  5
280
100
AcDbEntity
  8
2
370
    50
100
AcDbCircle
 10
93.454872
 20
-170.145668
 30
0.0
 40
10.10363
100
AcDbArc
 50
256.270867
 51
270.0
  0
LINE
  5
281
100
AcDbEntity
  8
2
370
    50
100
AcDbLine
 10
89.89069
 20
-179.960623
 30
0.0
 11
91.056956
 21
-179.960623
 31
0.0
  0
LINE
  5
282
100
AcDbEntity
  8
2
370
    50
100
AcDbLine
 10
91.056957
 20
-174.637973
 30
0.0
 11
91.056956
 21
-179.960623
 31
0.0
  0
LINE
  5
283
100
AcDbEntity
  8
2
370
    50
100
AcDbLine
 10
89.89069
 20
-174.637973
 30
0.0
 11
89.89069
 21
-179.960623
 31
0.0
  0
ARC
  5
284
100
AcDbEntity
  8
2
370
    50
100
AcDbCircle
 10
88.691732
 20
-177.615137
 30
0.0
 40
2.634161
100
AcDbArc
 50
242.924933
 51
297.075067
  0
LINE
  5
285
100
AcDbEntity
  8
2
370
    50
100
AcDbLine
 10
87.492774
 20
-174.637973
 30
0.0
 11
87.492774
 21
-179.960623
 31
0.0
  0
LINE
  5
286
100
AcDbEntity
  8
2
370
    50
100
AcDbLine
 10
87.492774
 20
-179.960623
 30
0.0
 11
87.454872
 21
-179.960623
 31
0.0
  0
ARC
  5
287
100
AcDbEntity
  8
2
370
    50
100
AcDbCircle
 10
93.454872
 20
-184.452927
 30
0.0
 40
10.10363
100
AcDbArc
 50
90.0
 51
103.729133
  0
LINE
  5
288
100
AcDbEntity
  8
2
370
    50
100
AcDbLine
 10
89.89069
 20
-174.637973
 30
0.0
 11
91.056956
 21
-174.637973
 31
0.0
  0
ARC
  5
289
100
AcDbEntity
  8
2
370
    50
100
AcDbCircle
 10
88.691732
 20
-176.983458
 30
0.0
 40
2.634161
100
AcDbArc
 50
62.924933
 51
117.075067
  0
LINE
  5
28A
100
AcDbEntity
  8
2
370
    50
100
AcDbLine
 10
93.454872
 20
-158.849298
 30
0.0
 11
99.204872
 21
-158.849298
 31
0.0
  0
LINE
  5
28B
100
AcDbEntity
  8
2
370
    50
100
AcDbLine
 10
99.704872
 20
-159.349298
 30
0.0
 11
99.704872
 21
-173.849298
 31
0.0
  0
LINE
  5
28C
100
AcDbEntity
  8
2
370
    50
100
AcDbLine
 10
99.704872
 20
-159.349298
 30
0.0
 11
99.204872
 21
-158.849298
 31
0.0
  0
LINE
  5
28D
100
AcDbEntity
  8
2
370
    50
100
AcDbLine
 10
97.776025
 20
-159.349298
 30
0.0
 11
95.204872
 21
-159.349298
 31
0.0
  0
LINE
  5
28E
100
AcDbEntity
  8
2
370
    50
100
AcDbLine
 10
99.526025
 20
-159.349298
 30
0.0
 11
99.526025
 21
-173.849298
 31
0.0
  0
LINE
  5
28F
100
AcDbEntity
  8
2
370
    50
100
AcDbLine
 10
97.776025
 20
-159.349298
 30
0.0
 11
97.776025
 21
-173.849298
 31
0.0
  0
LINE
  5
290
100
AcDbEntity
  8
2
370
    50
100
AcDbLine
 10
95.204872
 20
-159.349298
 30
0.0
 11
95.204872
 21
-173.849298
 31
0.0
  0
LINE
  5
291
100
AcDbEntity
  8
2
370
    50
100
AcDbLine
 10
99.704872
 20
-159.349298
 30
0.0
 11
99.526025
 21
-159.349298
 31
0.0
  0
ARC
  5
292
100
AcDbEntity
  8
2
370
    50
100
AcDbCircle
 10
93.454872
 20
-165.349298
 30
0.0
 40
6.25
100
AcDbArc
 50
73.739795
 51
90.0
  0
ARC
  5
293
100
AcDbEntity
  8
2
370
    50
100
AcDbCircle
 10
98.651025
 20
-160.755548
 30
0.0
 40
1.65625
100
AcDbArc
 50
58.109208
 51
121.890792
  0
LINE
  5
294
100
AcDbEntity
  8
2
370
    50
100
AcDbLine
 10
93.454872
 20
-158.849298
 30
0.0
 11
87.704872
 21
-158.849298
 31
0.0
  0
LINE
  5
295
100
AcDbEntity
  8
2
370
    50
100
AcDbLine
 10
87.204872
 20
-159.349298
 30
0.0
 11
87.204872
 21
-173.849298
 31
0.0
  0
LINE
  5
296
100
AcDbEntity
  8
2
370
    50
100
AcDbLine
 10
87.204872
 20
-159.349298
 30
0.0
 11
87.704872
 21
-158.849298
 31
0.0
  0
LINE
  5
297
100
AcDbEntity
  8
2
370
    50
100
AcDbLine
 10
89.13372
 20
-159.349298
 30
0.0
 11
91.704872
 21
-159.349298
 31
0.0
  0
LINE
  5
298
100
AcDbEntity
  8
2
370
    50
100
AcDbLine
 10
87.38372
 20
-159.349298
 30
0.0
 11
87.38372
 21
-173.849298
 31
0.0
  0
LINE
  5
299
100
AcDbEntity
  8
2
370
    50
100
AcDbLine
 10
89.13372
 20
-159.349298
 30
0.0
 11
89.13372
 21
-173.849298
 31
0.0
  0
LINE
  5
29A
100
AcDbEntity
  8
2
370
    50
100
AcDbLine
 10
91.704872
 20
-159.349298
 30
0.0
 11
91.704872
 21
-173.849298
 31
0.0
  0
LINE
  5
29B
100
AcDbEntity
  8
2
370
    50
100
AcDbLine
 10
87.204872
 20
-159.349298
 30
0.0
 11
87.38372
 21
-159.349298
 31
0.0
  0
ARC
  5
29C
100
AcDbEntity
  8
2
370
    50
100
AcDbCircle
 10
93.454872
 20
-165.349298
 30
0.0
 40
6.25
100
AcDbArc
 50
90.0
 51
106.260205
  0
ARC
  5
29D
100
AcDbEntity
  8
2
370
    50
100
AcDbCircle
 10
88.25872
 20
-160.755548
 30
0.0
 40
1.65625
100
AcDbArc
 50
58.109208
 51
121.890792
  0
LINE
  5
29E
100
AcDbEntity
  8
2
370
    50
100
AcDbLine
 10
93.454872
 20
-174.349298
 30
0.0
 11
99.204872
 21
-174.349298
 31
0.0
  0
LINE
  5
29F
100
AcDbEntity
  8
2
370
    50
100
AcDbLine
 10
99.704872
 20
-173.849298
 30
0.0
 11
99.204872
 21
-174.349298
 31
0.0
  0
LINE
  5
2A0
100
AcDbEntity
  8
2
370
    50
100
AcDbLine
 10
97.776025
 20
-173.849298
 30
0.0
 11
95.204872
 21
-173.849298
 31
0.0
  0
LINE
  5
2A1
100
AcDbEntity
  8
2
370
    50
100
AcDbLine
 10
99.704872
 20
-173.849298
 30
0.0
 11
99.526025
 21
-173.849298
 31
0.0
  0
ARC
  5
2A2
100
AcDbEntity
  8
2
370
    50
100
AcDbCircle
 10
98.651025
 20
-172.443048
 30
0.0
 40
1.65625
100
AcDbArc
 50
238.109208
 51
301.890792
  0
ARC
  5
2A3
100
AcDbEntity
  8
2
370
    50
100
AcDbCircle
 10
93.454872
 20
-167.849298
 30
0.0
 40
6.25
100
AcDbArc
 50
270.0
 51
286.260205
  0
LINE
  5
2A4
100
AcDbEntity
  8
2
370
    50
100
AcDbLine
 10
93.454872
 20
-174.349298
 30
0.0
 11
87.704872
 21
-174.349298
 31
0.0
  0
LINE
  5
2A5
100
AcDbEntity
  8
2
370
    50
100
AcDbLine
 10
87.204872
 20
-173.849298
 30
0.0
 11
87.704872
 21
-174.349298
 31
0.0
  0
LINE
  5
2A6
100
AcDbEntity
  8
2
370
    50
100
AcDbLine
 10
89.13372
 20
-173.849298
 30
0.0
 11
91.704872
 21
-173.849298
 31
0.0
  0
LINE
  5
2A7
100
AcDbEntity
  8
2
370
    50
100
AcDbLine
 10
87.204872
 20
-173.849298
 30
0.0
 11
87.38372
 21
-173.849298
 31
0.0
  0
ARC
  5
2A8
100
AcDbEntity
  8
2
370
    50
100
AcDbCircle
 10
88.25872
 20
-172.443048
 30
0.0
 40
1.65625
100
AcDbArc
 50
238.109208
 51
301.890792
  0
ARC
  5
2A9
100
AcDbEntity
  8
2
370
    50
100
AcDbCircle
 10
93.454872
 20
-167.849298
 30
0.0
 40
6.25
100
AcDbArc
 50
253.739795
 51
270.0
  0
LINE
  5
2AA
100
AcDbEntity
  8
2
370
    50
100
AcDbLine
 10
87.454872
 20
-179.960623
 30
0.0
 11
87.454872
 21
-174.637973
 31
0.0
  0
LINE
  5
2AB
100
AcDbEntity
  8
2
370
    50
100
AcDbLine
 10
99.454872
 20
-179.960623
 30
0.0
 11
99.454872
 21
-174.637973
 31
0.0
  0
LINE
  5
2AC
100
AcDbEntity
  8
2
370
    50
100
AcDbLine
 10
95.852788
 20
-174.637973
 30
0.0
 11
95.852788
 21
-179.960623
 31
0.0
  0
LINE
  5
2AD
100
AcDbEntity
  8
2
370
    50
100
AcDbLine
 10
97.019054
 20
-174.637973
 30
0.0
 11
97.019054
 21
-179.960623
 31
0.0
  0
LINE
  5
2AE
100
AcDbEntity
  8
2
370
    50
100
AcDbLine
 10
99.41697
 20
-174.637973
 30
0.0
 11
99.41697
 21
-179.960623
 31
0.0
  0
LINE
  5
2AF
100
AcDbEntity
  8
2
370
    50
100
AcDbLine
 10
98.954872
 20
-174.349298
 30
0.0
 11
87.954872
 21
-174.349298
 31
0.0
  0
LINE
  5
2B0
100
AcDbEntity
  8
2
370
    50
100
AcDbLine
 10
98.954872
 20
-180.249298
 30
0.0
 11
99.454872
 21
-179.960623
 31
0.0
  0
LINE
  5
2B1
100
AcDbEntity
  8
2
370
    50
100
AcDbLine
 10
97.019054
 20
-179.960623
 30
0.0
 11
95.852788
 21
-179.960623
 31
0.0
  0
LINE
  5
2B2
100
AcDbEntity
  8
2
370
    50
100
AcDbLine
 10
87.454872
 20
-179.960623
 30
0.0
 11
87.954872
 21
-180.249298
 31
0.0
  0
LINE
  5
2B3
100
AcDbEntity
  8
2
370
    50
100
AcDbLine
 10
87.454872
 20
-174.637973
 30
0.0
 11
87.954872
 21
-174.349298
 31
0.0
  0
ARC
  5
2B4
100
AcDbEntity
  8
2
370
    50
100
AcDbCircle
 10
93.454872
 20
-170.145668
 30
0.0
 40
10.10363
100
AcDbArc
 50
270.0
 51
283.729133
  0
ARC
  5
2B5
100
AcDbEntity
  8
2
370
    50
100
AcDbCircle
 10
93.454872
 20
-184.452927
 30
0.0
 40
10.10363
100
AcDbArc
 50
76.270867
 51
90.0
  0
LINE
  5
2B6
100
AcDbEntity
  8
2
370
    50
100
AcDbLine
 10
97.019054
 20
-174.637973
 30
0.0
 11
95.852788
 21
-174.637973
 31
0.0
  0
LINE
  5
2B7
100
AcDbEntity
  8
2
370
    50
100
AcDbLine
 10
99.454872
 20
-179.960623
 30
0.0
 11
99.41697
 21
-179.960623
 31
0.0
  0
ARC
  5
2B8
100
AcDbEntity
  8
2
370
    50
100
AcDbCircle
 10
98.218012
 20
-177.615137
 30
0.0
 40
2.634161
100
AcDbArc
 50
242.924933
 51
297.075067
  0
ARC
  5
2B9
100
AcDbEntity
  8
2
370
    50
100
AcDbCircle
 10
98.218012
 20
-176.983458
 30
0.0
 40
2.634161
100
AcDbArc
 50
62.924933
 51
117.075067
  0
LINE
  5
2BA
100
AcDbEntity
  8
2
370
    50
100
AcDbLine
 10
98.954872
 20
-174.349298
 30
0.0
 11
99.454872
 21
-174.637973
 31
0.0
  0
LINE
  5
2BB
100
AcDbEntity
  8
2
370
    50
100
AcDbLine
 10
99.454872
 20
-174.637973
 30
0.0
 11
99.41697
 21
-174.637973
 31
0.0
  0
ARC
  5
2BC
100
AcDbEntity
  8
2
370
    50
100
AcDbCircle
 10
93.454872
 20
-170.145668
 30
0.0
 40
10.10363
100
AcDbArc
 50
256.270867
 51
270.0
  0
LINE
  5
2BD
100
AcDbEntity
  8
2
370
    50
100
AcDbLine
 10
89.89069
 20
-179.960623
 30
0.0
 11
91.056956
 21
-179.960623
 31
0.0
  0
LINE
  5
2BE
100
AcDbEntity
  8
2
370
    50
100
AcDbLine
 10
91.056957
 20
-174.637973
 30
0.0
 11
91.056956
 21
-179.960623
 31
0.0
  0
LINE
  5
2BF
100
AcDbEntity
  8
2
370
    50
100
AcDbLine
 10
89.89069
 20
-174.637973
 30
0.0
 11
89.89069
 21
-179.960623
 31
0.0
  0
ARC
  5
2C0
100
AcDbEntity
  8
2
370
    50
100
AcDbCircle
 10
88.691732
 20
-177.615137
 30
0.0
 40
2.634161
100
AcDbArc
 50
242.924933
 51
297.075067
  0
LINE
  5
2C1
100
AcDbEntity
  8
2
370
    50
100
AcDbLine
 10
87.492774
 20
-174.637973
 30
0.0
 11
87.492774
 21
-179.960623
 31
0.0
  0
LINE
  5
2C2
100
AcDbEntity
  8
2
370
    50
100
AcDbLine
 10
87.492774
 20
-179.960623
 30
0.0
 11
87.454872
 21
-179.960623
 31
0.0
  0
ARC
  5
2C3
100
AcDbEntity
  8
2
370
    50
100
AcDbCircle
 10
93.454872
 20
-184.452927
 30
0.0
 40
10.10363
100
AcDbArc
 50
90.0
 51
103.729133
  0
LINE
  5
2C4
100
AcDbEntity
  8
2
370
    50
100
AcDbLine
 10
89.89069
 20
-174.637973
 30
0.0
 11
91.056956
 21
-174.637973
 31
0.0
  0
ARC
  5
2C5
100
AcDbEntity
  8
2
370
    50
100
AcDbCircle
 10
88.691732
 20
-176.983458
 30
0.0
 40
2.634161
100
AcDbArc
 50
62.924933
 51
117.075067
  0
POINT
  5
2C6
100
AcDbEntity
  8
2
370
    50
100
AcDbPoint
 10
97.954872
 20
75.550703
 30
0.0
  0
POINT
  5
2C7
100
AcDbEntity
  8
2
370
    50
100
AcDbPoint
 10
97.954872
 20
67.850702
 30
0.0
  0
POINT
  5
2C8
100
AcDbEntity
  8
2
370
    50
100
AcDbPoint
 10
97.954872
 20
80.750223
 30
0.0
  0
POINT
  5
2C9
100
AcDbEntity
  8
2
370
    50
100
AcDbPoint
 10
97.954872
 20
94.050702
 30
0.0
  0
LINE
  5
2CA
100
AcDbEntity
  8
2
370
    50
100
AcDbLine
 10
-339.453258
 20
94.550702
 30
0.0
 11
-372.453258
 21
94.550702
 31
0.0
  0
LINE
  5
2CB
100
AcDbEntity
  8
2
370
    50
100
AcDbLine
 10
-373.453258
 20
93.550702
 30
0.0
 11
-373.453258
 21
69.050702
 31
0.0
  0
LINE
  5
2CC
100
AcDbEntity
  8
2
370
    50
100
AcDbLine
 10
-338.453258
 20
93.550702
 30
0.0
 11
-338.453258
 21
69.050702
 31
0.0
  0
ARC
  5
2CD
100
AcDbEntity
  8
2
370
    50
100
AcDbCircle
 10
-372.453258
 20
93.550702
 30
0.0
 40
1.0
100
AcDbArc
 50
90.0
 51
180.0
  0
ARC
  5
2CE
100
AcDbEntity
  8
2
370
    50
100
AcDbCircle
 10
-339.453258
 20
93.550702
 30
0.0
 40
1.0
100
AcDbArc
 50
0.0
 51
90.0
  0
LINE
  5
2CF
100
AcDbEntity
  8
2
370
    50
100
AcDbLine
 10
-338.453258
 20
69.050702
 30
0.0
 11
-373.453258
 21
69.050702
 31
0.0
  0
CIRCLE
  5
2D0
100
AcDbEntity
  8
2
370
    50
100
AcDbCircle
 10
-355.953258
 20
86.550702
 30
0.0
 40
4.0
  0
CIRCLE
  5
2D1
100
AcDbEntity
  8
2
370
    25
100
AcDbCircle
 10
-355.953258
 20
86.550702
 30
0.0
 40
3.5
  0
LINE
  5
2D2
100
AcDbEntity
  8
2
370
    50
100
AcDbLine
 10
-338.953258
 20
68.150702
 30
0.0
 11
-372.953258
 21
68.150702
 31
0.0
  0
LINE
  5
2D3
100
AcDbEntity
  8
2
370
    50
100
AcDbLine
 10
-338.453258
 20
67.650702
 30
0.0
 11
-338.453258
 21
-41.549298
 31
0.0
  0
LINE
  5
2D4
100
AcDbEntity
  8
2
370
    50
100
AcDbLine
 10
-338.453258
 20
67.650702
 30
0.0
 11
-338.953258
 21
68.150702
 31
0.0
  0
LINE
  5
2D5
100
AcDbEntity
  8
2
370
    50
100
AcDbLine
 10
-372.953258
 20
68.150702
 30
0.0
 11
-373.453258
 21
67.650702
 31
0.0
  0
LINE
  5
2D6
100
AcDbEntity
  8
2
370
    25
100
AcDbLine
 10
-338.453258
 20
67.650702
 30
0.0
 11
-373.453258
 21
67.650702
 31
0.0
  0
LINE
  5
2D7
100
AcDbEntity
  8
2
370
    50
100
AcDbLine
 10
-373.453258
 20
-41.549298
 30
0.0
 11
-373.153258
 21
-41.849298
 31
0.0
  0
LINE
  5
2D8
100
AcDbEntity
  8
2
370
    50
100
AcDbLine
 10
-338.453258
 20
-41.549298
 30
0.0
 11
-338.753258
 21
-41.849298
 31
0.0
  0
LINE
  5
2D9
100
AcDbEntity
  8
2
370
    50
100
AcDbLine
 10
-373.453258
 20
-41.549298
 30
0.0
 11
-373.453258
 21
67.650702
 31
0.0
  0
LINE
  5
2DA
100
AcDbEntity
  8
2
370
    50
100
AcDbLine
 10
-338.753258
 20
-41.849298
 30
0.0
 11
-373.203258
 21
-41.849298
 31
0.0
  0
LINE
  5
2DB
100
AcDbEntity
  8
2
370
    25
100
AcDbLine
 10
-373.453258
 20
-41.549298
 30
0.0
 11
-338.453258
 21
-41.549298
 31
0.0
  0
LINE
  5
2DC
100
AcDbEntity
  8
2
370
    50
100
AcDbLine
 10
114.954872
 20
68.150702
 30
0.0
 11
80.954872
 21
68.150702
 31
0.0
  0
LINE
  5
2DD
100
AcDbEntity
  8
2
370
    50
100
AcDbLine
 10
115.454872
 20
67.650702
 30
0.0
 11
115.454872
 21
-41.549298
 31
0.0
  0
LINE
  5
2DE
100
AcDbEntity
  8
2
370
    50
100
AcDbLine
 10
115.454872
 20
67.650702
 30
0.0
 11
114.954872
 21
68.150702
 31
0.0
  0
LINE
  5
2DF
100
AcDbEntity
  8
2
370
    50
100
AcDbLine
 10
80.954872
 20
68.150702
 30
0.0
 11
80.454872
 21
67.650702
 31
0.0
  0
LINE
  5
2E0
100
AcDbEntity
  8
2
370
    50
100
AcDbLine
 10
80.454872
 20
-41.549298
 30
0.0
 11
80.754872
 21
-41.849298
 31
0.0
  0
LINE
  5
2E1
100
AcDbEntity
  8
2
370
    50
100
AcDbLine
 10
115.454872
 20
-41.549298
 30
0.0
 11
115.154872
 21
-41.849298
 31
0.0
  0
LINE
  5
2E2
100
AcDbEntity
  8
2
370
    50
100
AcDbLine
 10
80.454872
 20
-41.549298
 30
0.0
 11
80.454872
 21
17.650702
 31
0.0
  0
LINE
  5
2E3
100
AcDbEntity
  8
2
370
    50
100
AcDbLine
 10
80.454872
 20
38.650702
 30
0.0
 11
80.454872
 21
67.650702
 31
0.0
  0
LINE
  5
2E4
100
AcDbEntity
  8
2
370
    50
100
AcDbLine
 10
80.454872
 20
38.650702
 30
0.0
 11
28.123334
 21
38.650702
 31
0.0
  0
LINE
  5
2E5
100
AcDbEntity
  8
2
370
    50
100
AcDbLine
 10
115.154872
 20
-41.849298
 30
0.0
 11
80.704872
 21
-41.849298
 31
0.0
  0
LINE
  5
2E6
100
AcDbEntity
  8
2
370
    50
100
AcDbLine
 10
97.954872
 20
69.050702
 30
0.0
 11
80.454872
 21
69.050702
 31
0.0
  0
LINE
  5
2E7
100
AcDbEntity
  8
2
370
    50
100
AcDbLine
 10
114.454872
 20
94.550702
 30
0.0
 11
81.454872
 21
94.550702
 31
0.0
  0
LINE
  5
2E8
100
AcDbEntity
  8
2
370
    50
100
AcDbLine
 10
97.954872
 20
69.050702
 30
0.0
 11
115.454872
 21
76.121161
 31
0.0
  0
LINE
  5
2E9
100
AcDbEntity
  8
2
370
    50
100
AcDbLine
 10
80.454872
 20
69.050702
 30
0.0
 11
80.454872
 21
82.350702
 31
0.0
  0
ARC
  5
2EA
100
AcDbEntity
  8
2
370
    50
100
AcDbCircle
 10
114.454872
 20
93.550702
 30
0.0
 40
1.0
100
AcDbArc
 50
0.0
 51
90.0
  0
ARC
  5
2EB
100
AcDbEntity
  8
2
370
    50
100
AcDbCircle
 10
81.454872
 20
93.550702
 30
0.0
 40
1.0
100
AcDbArc
 50
90.0
 51
180.0
  0
LINE
  5
2EC
100
AcDbEntity
  8
2
370
    50
100
AcDbLine
 10
80.454872
 20
93.550702
 30
0.0
 11
80.454872
 21
90.750702
 31
0.0
  0
ARC
  5
2ED
100
AcDbEntity
  8
2
370
    50
100
AcDbCircle
 10
63.466347
 20
86.550702
 30
0.0
 40
17.5
100
AcDbArc
 50
346.11346
 51
360.0
  0
ARC
  5
2EE
100
AcDbEntity
  8
2
370
    50
100
AcDbCircle
 10
63.466347
 20
86.550702
 30
0.0
 40
17.5
100
AcDbArc
 50
0.0
 51
13.88654
  0
ARC
  5
2EF
100
AcDbEntity
  8
2
370
    50
100
AcDbCircle
 10
109.526669
 20
86.550702
 30
0.0
 40
8.0
100
AcDbArc
 50
0.0
 51
30.0
  0
LINE
  5
2F0
100
AcDbEntity
  8
2
370
    50
100
AcDbLine
 10
116.454872
 20
90.550702
 30
0.0
 11
115.454872
 21
90.550702
 31
0.0
  0
LINE
  5
2F1
100
AcDbEntity
  8
2
370
    50
100
AcDbLine
 10
115.454872
 20
89.800702
 30
0.0
 11
115.454872
 21
90.550702
 31
0.0
  0
ARC
  5
2F2
100
AcDbEntity
  8
2
370
    50
100
AcDbCircle
 10
109.526669
 20
86.550702
 30
0.0
 40
8.0
100
AcDbArc
 50
330.0
 51
360.0
  0
LINE
  5
2F3
100
AcDbEntity
  8
2
370
    50
100
AcDbLine
 10
116.454872
 20
82.550702
 30
0.0
 11
115.454872
 21
82.550702
 31
0.0
  0
LINE
  5
2F4
100
AcDbEntity
  8
2
370
    50
100
AcDbLine
 10
115.454872
 20
83.300702
 30
0.0
 11
115.454872
 21
82.550702
 31
0.0
  0
LINE
  5
2F5
100
AcDbEntity
  8
2
370
    50
100
AcDbLine
 10
115.454872
 20
76.121161
 30
0.0
 11
115.454872
 21
86.550702
 31
0.0
  0
LINE
  5
2F6
100
AcDbEntity
  8
2
370
    50
100
AcDbLine
 10
115.454872
 20
86.550702
 30
0.0
 11
115.454872
 21
93.550702
 31
0.0
  0
LINE
  5
2F7
100
AcDbEntity
  8
2
370
    50
100
AcDbLine
 10
21.955049
 20
82.550702
 30
0.0
 11
80.503072
 21
82.550702
 31
0.0
  0
LINE
  5
2F8
100
AcDbEntity
  8
2
370
    50
100
AcDbLine
 10
21.955049
 20
90.550702
 30
0.0
 11
80.503072
 21
90.550702
 31
0.0
  0
LINE
  5
2F9
100
AcDbEntity
  8
2
370
    50
100
AcDbLine
 10
21.455049
 20
83.050702
 30
0.0
 11
21.455049
 21
90.050702
 31
0.0
  0
LINE
  5
2FA
100
AcDbEntity
  8
2
370
    50
100
AcDbLine
 10
21.955049
 20
90.550702
 30
0.0
 11
21.455049
 21
90.050702
 31
0.0
  0
LINE
  5
2FB
100
AcDbEntity
  8
2
370
    50
100
AcDbLine
 10
21.455049
 20
83.050702
 30
0.0
 11
21.955049
 21
82.550702
 31
0.0
  0
LINE
  5
2FC
100
AcDbEntity
  8
2
370
    25
100
AcDbLine
 10
116.454872
 20
90.550702
 30
0.0
 11
116.454872
 21
82.550702
 31
0.0
  0
POINT
  5
2FD
100
AcDbEntity
  8
2
370
    50
100
AcDbPoint
 10
97.954872
 20
69.750702
 30
0.0
  0
LINE
  5
2FE
100
AcDbEntity
  8
2
370
    25
100
AcDbLine
 10
115.454872
 20
67.650702
 30
0.0
 11
80.454872
 21
67.650702
 31
0.0
  0
LINE
  5
2FF
100
AcDbEntity
  8
2
370
    25
100
AcDbLine
 10
80.454872
 20
-41.549298
 30
0.0
 11
115.454872
 21
-41.549298
 31
0.0
  0
LINE
  5
300
100
AcDbEntity
  8
2
370
    50
100
AcDbLine
 10
332.621063
 20
68.150702
 30
0.0
 11
349.621063
 21
68.150702
 31
0.0
  0
LINE
  5
301
100
AcDbEntity
  8
2
370
    50
100
AcDbLine
 10
332.621063
 20
68.150702
 30
0.0
 11
315.621063
 21
68.150702
 31
0.0
  0
LINE
  5
302
100
AcDbEntity
  8
2
370
    50
100
AcDbLine
 10
315.121063
 20
67.650702
 30
0.0
 11
315.121063
 21
-41.549298
 31
0.0
  0
LINE
  5
303
100
AcDbEntity
  8
2
370
    50
100
AcDbLine
 10
315.121063
 20
67.650702
 30
0.0
 11
315.621063
 21
68.150702
 31
0.0
  0
LINE
  5
304
100
AcDbEntity
  8
2
370
    50
100
AcDbLine
 10
349.621063
 20
68.150702
 30
0.0
 11
350.121063
 21
67.650702
 31
0.0
  0
LINE
  5
305
100
AcDbEntity
  8
2
370
    50
100
AcDbLine
 10
350.121063
 20
-41.549298
 30
0.0
 11
349.821063
 21
-41.849298
 31
0.0
  0
LINE
  5
306
100
AcDbEntity
  8
2
370
    50
100
AcDbLine
 10
315.121063
 20
-41.549298
 30
0.0
 11
315.421063
 21
-41.849298
 31
0.0
  0
LINE
  5
307
100
AcDbEntity
  8
2
370
    50
100
AcDbLine
 10
350.121063
 20
-41.549298
 30
0.0
 11
350.121063
 21
17.650702
 31
0.0
  0
LINE
  5
308
100
AcDbEntity
  8
2
370
    50
100
AcDbLine
 10
350.121063
 20
38.650702
 30
0.0
 11
350.121063
 21
67.650702
 31
0.0
  0
LINE
  5
309
100
AcDbEntity
  8
2
370
    50
100
AcDbLine
 10
315.421063
 20
-41.849298
 30
0.0
 11
349.821063
 21
-41.849298
 31
0.0
  0
LINE
  5
30A
100
AcDbEntity
  8
2
370
    50
100
AcDbLine
 10
332.621063
 20
69.050702
 30
0.0
 11
350.121063
 21
69.050702
 31
0.0
  0
LINE
  5
30B
100
AcDbEntity
  8
2
370
    50
100
AcDbLine
 10
316.121063
 20
94.550702
 30
0.0
 11
349.121063
 21
94.550702
 31
0.0
  0
LINE
  5
30C
100
AcDbEntity
  8
2
370
    50
100
AcDbLine
 10
332.621063
 20
69.050702
 30
0.0
 11
315.121063
 21
76.121161
 31
0.0
  0
LINE
  5
30D
100
AcDbEntity
  8
2
370
    50
100
AcDbLine
 10
350.121063
 20
69.050702
 30
0.0
 11
350.121063
 21
82.350702
 31
0.0
  0
ARC
  5
30E
100
AcDbEntity
  8
2
370
    50
100
AcDbCircle
 10
316.121063
 20
93.550702
 30
0.0
 40
1.0
100
AcDbArc
 50
90.0
 51
180.0
  0
ARC
  5
30F
100
AcDbEntity
  8
2
370
    50
100
AcDbCircle
 10
349.121063
 20
93.550702
 30
0.0
 40
1.0
100
AcDbArc
 50
0.0
 51
90.0
  0
LINE
  5
310
100
AcDbEntity
  8
2
370
    50
100
AcDbLine
 10
350.121063
 20
93.550702
 30
0.0
 11
350.121063
 21
90.750702
 31
0.0
  0
ARC
  5
311
100
AcDbEntity
  8
2
370
    50
100
AcDbCircle
 10
367.109589
 20
86.550702
 30
0.0
 40
17.5
100
AcDbArc
 50
180.0
 51
193.88654
  0
ARC
  5
312
100
AcDbEntity
  8
2
370
    50
100
AcDbCircle
 10
367.109589
 20
86.550702
 30
0.0
 40
17.5
100
AcDbArc
 50
166.11346
 51
180.0
  0
ARC
  5
313
100
AcDbEntity
  8
2
370
    50
100
AcDbCircle
 10
321.049267
 20
86.550702
 30
0.0
 40
8.0
100
AcDbArc
 50
150.0
 51
180.0
  0
LINE
  5
314
100
AcDbEntity
  8
2
370
    50
100
AcDbLine
 10
314.121063
 20
90.550702
 30
0.0
 11
315.121063
 21
90.550702
 31
0.0
  0
LINE
  5
315
100
AcDbEntity
  8
2
370
    50
100
AcDbLine
 10
315.121063
 20
89.800702
 30
0.0
 11
315.121063
 21
90.550702
 31
0.0
  0
ARC
  5
316
100
AcDbEntity
  8
2
370
    50
100
AcDbCircle
 10
321.049267
 20
86.550702
 30
0.0
 40
8.0
100
AcDbArc
 50
180.0
 51
210.0
  0
LINE
  5
317
100
AcDbEntity
  8
2
370
    50
100
AcDbLine
 10
314.121063
 20
82.550702
 30
0.0
 11
315.121063
 21
82.550702
 31
0.0
  0
LINE
  5
318
100
AcDbEntity
  8
2
370
    50
100
AcDbLine
 10
315.121063
 20
83.300702
 30
0.0
 11
315.121063
 21
82.550702
 31
0.0
  0
LINE
  5
319
100
AcDbEntity
  8
2
370
    50
100
AcDbLine
 10
315.121063
 20
76.121161
 30
0.0
 11
315.121063
 21
86.550702
 31
0.0
  0
LINE
  5
31A
100
AcDbEntity
  8
2
370
    50
100
AcDbLine
 10
315.121063
 20
86.550702
 30
0.0
 11
315.121063
 21
93.550702
 31
0.0
  0
LINE
  5
31B
100
AcDbEntity
  8
2
370
    50
100
AcDbLine
 10
408.620886
 20
82.550702
 30
0.0
 11
350.072864
 21
82.550702
 31
0.0
  0
LINE
  5
31C
100
AcDbEntity
  8
2
370
    50
100
AcDbLine
 10
408.620886
 20
90.550702
 30
0.0
 11
350.072864
 21
90.550702
 31
0.0
  0
LINE
  5
31D
100
AcDbEntity
  8
2
370
    50
100
AcDbLine
 10
409.120886
 20
83.050702
 30
0.0
 11
409.120886
 21
90.050702
 31
0.0
  0
LINE
  5
31E
100
AcDbEntity
  8
2
370
    50
100
AcDbLine
 10
408.620886
 20
90.550702
 30
0.0
 11
409.120886
 21
90.050702
 31
0.0
  0
LINE
  5
31F
100
AcDbEntity
  8
2
370
    50
100
AcDbLine
 10
409.120886
 20
83.050702
 30
0.0
 11
408.620886
 21
82.550702
 31
0.0
  0
LINE
  5
320
100
AcDbEntity
  8
2
370
    25
100
AcDbLine
 10
314.121063
 20
90.550702
 30
0.0
 11
314.121063
 21
82.550702
 31
0.0
  0
LINE
  5
321
100
AcDbEntity
  8
2
370
    25
100
AcDbLine
 10
315.121063
 20
67.650702
 30
0.0
 11
350.121063
 21
67.650702
 31
0.0
  0
LINE
  5
322
100
AcDbEntity
  8
2
370
    25
100
AcDbLine
 10
350.121063
 20
-41.549298
 30
0.0
 11
315.121063
 21
-41.549298
 31
0.0
  0
LINE
  5
323
100
AcDbEntity
  8
2
370
    25
100
AcDbLine
 10
21.955049
 20
90.550702
 30
0.0
 11
21.955049
 21
82.550702
 31
0.0
  0
LINE
  5
324
100
AcDbEntity
  8
2
370
    25
  6
DASHED
100
AcDbLine
 10
32.358949
 20
110.074127
 30
0.0
 11
77.076875
 21
92.006912
 31
0.0
  0
LINE
  5
325
100
AcDbEntity
  8
2
370
    25
  6
DASHED
100
AcDbLine
 10
35.355802
 20
117.491598
 30
0.0
 11
86.531577
 21
96.815243
 31
0.0
  0
LINE
  5
326
100
AcDbEntity
  8
2
370
    25
  6
DASHED
100
AcDbLine
 10
32.08266
 20
110.725022
 30
0.0
 11
34.704907
 21
117.215309
 31
0.0
  0
LINE
  5
327
100
AcDbEntity
  8
2
370
    25
  6
DASHED
100
AcDbLine
 10
35.355802
 20
117.491598
 30
0.0
 11
34.704907
 21
117.215309
 31
0.0
  0
LINE
  5
328
100
AcDbEntity
  8
2
370
    25
  6
DASHED
100
AcDbLine
 10
32.08266
 20
110.725022
 30
0.0
 11
32.358949
 21
110.074127
 31
0.0
  0
LINE
  5
329
100
AcDbEntity
  8
2
370
    25
  6
DASHED
100
AcDbLine
 10
35.355802
 20
117.491598
 30
0.0
 11
32.358949
 21
110.074127
 31
0.0
  0
LINE
  5
32A
100
AcDbEntity
  8
2
370
    25
  6
DASHED
100
AcDbLine
 10
122.618571
 20
86.54929
 30
0.0
 11
119.36797
 21
87.862618
 31
0.0
  0
LINE
  5
32B
100
AcDbEntity
  8
2
370
    25
  6
DASHED
100
AcDbLine
 10
114.12022
 20
69.050702
 30
0.0
 11
116.627217
 21
69.050702
 31
0.0
  0
ARC
  5
32C
100
AcDbEntity
  8
2
370
    25
  6
DASHED
100
AcDbCircle
 10
122.243964
 20
85.622106
 30
0.0
 40
1.0
100
AcDbArc
 50
338.0
 51
68.0
  0
ARC
  5
32D
100
AcDbEntity
  8
2
370
    25
  6
DASHED
100
AcDbCircle
 10
115.052367
 20
80.977956
 30
0.0
 40
8.0
100
AcDbArc
 50
338.0
 51
8.0
  0
LINE
  5
32E
100
AcDbEntity
  8
2
370
    25
  6
DASHED
100
AcDbLine
 10
122.974512
 20
82.091341
 30
0.0
 11
122.047328
 21
82.465948
 31
0.0
  0
LINE
  5
32F
100
AcDbEntity
  8
2
370
    25
  6
DASHED
100
AcDbLine
 10
121.766373
 20
81.77056
 30
0.0
 11
122.047328
 21
82.465948
 31
0.0
  0
ARC
  5
330
100
AcDbEntity
  8
2
370
    25
  6
DASHED
100
AcDbCircle
 10
115.052367
 20
80.977956
 30
0.0
 40
8.0
100
AcDbArc
 50
308.0
 51
338.0
  0
LINE
  5
331
100
AcDbEntity
  8
2
370
    25
  6
DASHED
100
AcDbLine
 10
119.977659
 20
74.67387
 30
0.0
 11
119.050475
 21
75.048477
 31
0.0
  0
LINE
  5
332
100
AcDbEntity
  8
2
370
    25
  6
DASHED
100
AcDbLine
 10
119.33143
 20
75.743865
 30
0.0
 11
119.050475
 21
75.048477
 31
0.0
  0
LINE
  5
333
100
AcDbEntity
  8
2
370
    25
  6
DASHED
100
AcDbLine
 10
116.627217
 20
69.050702
 30
0.0
 11
120.548902
 21
78.757212
 31
0.0
  0
LINE
  5
334
100
AcDbEntity
  8
2
370
    25
  6
DASHED
100
AcDbLine
 10
120.548902
 20
78.757212
 30
0.0
 11
123.171148
 21
85.247499
 31
0.0
  0
LINE
  5
335
100
AcDbEntity
  8
2
370
    25
  6
DASHED
100
AcDbLine
 10
122.974512
 20
82.091341
 30
0.0
 11
119.977659
 21
74.67387
 31
0.0
  0
ARC
  5
336
100
AcDbEntity
  8
2
370
    50
100
AcDbCircle
 10
139.455928
 20
67.891965
 30
0.0
 40
56.0
100
AcDbArc
 50
178.814366
 51
179.735275
  0
ARC
  5
337
100
AcDbEntity
  8
2
370
    50
100
AcDbCircle
 10
56.453816
 20
67.891965
 30
0.0
 40
56.0
100
AcDbArc
 50
0.264725
 51
7.022942
  0
ARC
  5
338
100
AcDbEntity
  8
2
370
    50
100
AcDbCircle
 10
-314.452202
 20
67.891965
 30
0.0
 40
56.0
100
AcDbArc
 50
178.814366
 51
179.735275
  0
ARC
  5
339
100
AcDbEntity
  8
2
370
    50
100
AcDbCircle
 10
-397.454315
 20
67.891965
 30
0.0
 40
56.0
100
AcDbArc
 50
0.264725
 51
1.185634
  0
ARC
  5
33A
100
AcDbEntity
  8
2
370
    50
100
AcDbCircle
 10
374.122119
 20
67.891965
 30
0.0
 40
56.0
100
AcDbArc
 50
172.977058
 51
179.735275
  0
ARC
  5
33B
100
AcDbEntity
  8
2
370
    50
100
AcDbCircle
 10
291.120007
 20
67.891965
 30
0.0
 40
56.0
100
AcDbArc
 50
0.264725
 51
1.185634
  0
LINE
  5
33C
100
AcDbEntity
  8
2
370
    50
100
AcDbLine
 10
465.621063
 20
38.650702
 30
0.0
 11
350.121063
 21
38.650702
 31
0.0
  0
LINE
  5
33D
100
AcDbEntity
  8
2
370
    50
100
AcDbLine
 10
466.121063
 20
38.150702
 30
0.0
 11
466.121063
 21
18.150702
 31
0.0
  0
LINE
  5
33E
100
AcDbEntity
  8
2
370
    50
100
AcDbLine
 10
465.621063
 20
38.650702
 30
0.0
 11
466.121063
 21
38.150702
 31
0.0
  0
LINE
  5
33F
100
AcDbEntity
  8
2
370
    50
100
AcDbLine
 10
466.121063
 20
18.150702
 30
0.0
 11
465.621063
 21
17.650702
 31
0.0
  0
LINE
  5
340
100
AcDbEntity
  8
2
370
    50
100
AcDbLine
 10
465.621063
 20
17.650702
 30
0.0
 11
463.786647
 21
17.650702
 31
0.0
  0
LINE
  5
341
100
AcDbEntity
  8
2
370
    50
100
AcDbLine
 10
444.099358
 20
17.650702
 30
0.0
 11
350.121063
 21
17.650702
 31
0.0
  0
LINE
  5
342
100
AcDbEntity
  8
2
370
    50
100
AcDbLine
 10
447.525409
 20
9.114847
 30
0.0
 11
455.935588
 21
12.175903
 31
0.0
  0
LINE
  5
343
100
AcDbEntity
  8
2
370
    50
100
AcDbLine
 10
464.345906
 20
15.237008
 30
0.0
 11
455.93639
 21
12.176194
 31
0.0
  0
LINE
  5
344
100
AcDbEntity
  8
2
370
    50
100
AcDbLine
 10
444.099358
 20
17.650702
 30
0.0
 11
447.140895
 21
9.294149
 31
0.0
  0
LINE
  5
345
100
AcDbEntity
  8
2
370
    50
100
AcDbLine
 10
463.786647
 20
17.650702
 30
0.0
 11
464.525208
 21
15.621522
 31
0.0
  0
LINE
  5
346
100
AcDbEntity
  8
2
370
    50
100
AcDbLine
 10
447.140895
 20
9.294149
 30
0.0
 11
447.525409
 21
9.114847
 31
0.0
  0
LINE
  5
347
100
AcDbEntity
  8
2
370
    50
100
AcDbLine
 10
464.345906
 20
15.237008
 30
0.0
 11
464.525208
 21
15.621522
 31
0.0
  0
ARC
  5
348
100
AcDbEntity
  8
2
370
    25
100
AcDbCircle
 10
364.121063
 20
28.150702
 30
0.0
 40
17.5
100
AcDbArc
 50
147.181108
 51
212.29933
  0
LINE
  5
349
100
AcDbEntity
  8
2
370
    50
100
AcDbLine
 10
465.621063
 20
38.650702
 30
0.0
 11
465.621063
 21
17.650702
 31
0.0
  0
POINT
  5
34A
100
AcDbEntity
  8
2
370
    50
100
AcDbPoint
 10
453.712527
 20
18.28393
 30
0.0
  0
ARC
  5
34B
100
AcDbEntity
  8
2
370
    25
100
AcDbCircle
 10
451.929883
 20
14.797575
 30
0.0
 40
8.384128
100
AcDbArc
 50
90.0
 51
151.997723
  0
ARC
  5
34C
100
AcDbEntity
  8
2
370
    25
100
AcDbCircle
 10
451.929883
 20
7.707574
 30
0.0
 40
15.474128
100
AcDbArc
 50
45.451578
 51
90.0
  0
LINE
  5
34D
100
AcDbEntity
  8
2
370
    50
100
AcDbLine
 10
464.525208
 20
15.621522
 30
0.0
 11
447.140895
 21
9.294149
 31
0.0
  0
LINE
  5
34E
100
AcDbEntity
  8
2
370
    50
100
AcDbLine
 10
-35.045128
 20
38.650702
 30
0.0
 11
80.454872
 21
38.650702
 31
0.0
  0
LINE
  5
34F
100
AcDbEntity
  8
2
370
    50
100
AcDbLine
 10
-35.545128
 20
38.150702
 30
0.0
 11
-35.545128
 21
18.150702
 31
0.0
  0
LINE
  5
350
100
AcDbEntity
  8
2
370
    50
100
AcDbLine
 10
-35.045128
 20
38.650702
 30
0.0
 11
-35.545128
 21
38.150702
 31
0.0
  0
LINE
  5
351
100
AcDbEntity
  8
2
370
    50
100
AcDbLine
 10
-35.545128
 20
18.150702
 30
0.0
 11
-35.045128
 21
17.650702
 31
0.0
  0
LINE
  5
352
100
AcDbEntity
  8
2
370
    50
100
AcDbLine
 10
-35.045128
 20
17.650702
 30
0.0
 11
-33.210711
 21
17.650702
 31
0.0
  0
LINE
  5
353
100
AcDbEntity
  8
2
370
    50
100
AcDbLine
 10
-13.523423
 20
17.650702
 30
0.0
 11
80.454872
 21
17.650702
 31
0.0
  0
LINE
  5
354
100
AcDbEntity
  8
2
370
    50
100
AcDbLine
 10
-16.949473
 20
9.114847
 30
0.0
 11
-25.359653
 21
12.175903
 31
0.0
  0
LINE
  5
355
100
AcDbEntity
  8
2
370
    50
100
AcDbLine
 10
-33.769971
 20
15.237008
 30
0.0
 11
-25.360455
 21
12.176194
 31
0.0
  0
LINE
  5
356
100
AcDbEntity
  8
2
370
    50
100
AcDbLine
 10
-13.523423
 20
17.650702
 30
0.0
 11
-16.564959
 21
9.294149
 31
0.0
  0
LINE
  5
357
100
AcDbEntity
  8
2
370
    50
100
AcDbLine
 10
-33.210711
 20
17.650702
 30
0.0
 11
-33.949273
 21
15.621522
 31
0.0
  0
LINE
  5
358
100
AcDbEntity
  8
2
370
    50
100
AcDbLine
 10
-16.564959
 20
9.294149
 30
0.0
 11
-16.949473
 21
9.114847
 31
0.0
  0
LINE
  5
359
100
AcDbEntity
  8
2
370
    50
100
AcDbLine
 10
-33.769971
 20
15.237008
 30
0.0
 11
-33.949273
 21
15.621522
 31
0.0
  0
ARC
  5
35A
100
AcDbEntity
  8
2
370
    25
100
AcDbCircle
 10
66.454872
 20
28.150702
 30
0.0
 40
17.5
100
AcDbArc
 50
327.181108
 51
32.29933
  0
LINE
  5
35B
100
AcDbEntity
  8
2
370
    50
100
AcDbLine
 10
-35.045128
 20
38.650702
 30
0.0
 11
-35.045128
 21
17.650702
 31
0.0
  0
ARC
  5
35C
100
AcDbEntity
  8
2
370
    25
100
AcDbCircle
 10
-21.353948
 20
14.797575
 30
0.0
 40
8.384128
100
AcDbArc
 50
27.774954
 51
90.0
  0
ARC
  5
35D
100
AcDbEntity
  8
2
370
    25
100
AcDbCircle
 10
-21.353948
 20
7.707574
 30
0.0
 40
15.474128
100
AcDbArc
 50
90.0
 51
136.713424
  0
LINE
  5
35E
100
AcDbEntity
  8
2
370
    50
100
AcDbLine
 10
-33.949273
 20
15.621522
 30
0.0
 11
-16.564959
 21
9.294149
 31
0.0
  0
CIRCLE
  5
35F
100
AcDbEntity
  8
2
370
    50
100
AcDbCircle
 10
-355.953258
 20
28.150702
 30
0.0
 40
10.5
  0
LINE
  5
360
100
AcDbEntity
  8
2
370
    50
100
AcDbLine
 10
-346.703258
 20
23.182051
 30
0.0
 11
-346.703258
 21
12.457836
 31
0.0
  0
LINE
  5
361
100
AcDbEntity
  8
2
370
    50
100
AcDbLine
 10
-365.203258
 20
23.182051
 30
0.0
 11
-365.203258
 21
12.457836
 31
0.0
  0
LINE
  5
362
100
AcDbEntity
  8
2
370
    50
100
AcDbLine
 10
-347.337711
 20
11.306348
 30
0.0
 11
-347.617134
 21
11.061786
 31
0.0
  0
LINE
  5
363
100
AcDbEntity
  8
2
370
    50
100
AcDbLine
 10
-364.568806
 20
11.306348
 30
0.0
 11
-364.289383
 21
11.061786
 31
0.0
  0
ELLIPSE
  5
364
100
AcDbEntity
  8
2
370
    50
100
AcDbEllipse
 10
-355.953258
 20
12.175928
 30
0.0
 11
8.9499999999999993
 21
0.0
 31
0.0
210
0.0
220
0.0
230
1.0
 40
0.34202
 41
0.0
 42
6.2831849999999996
  0
ELLIPSE
  5
365
100
AcDbEntity
  8
2
370
    50
100
AcDbEllipse
 10
-355.953258
 20
12.457836
 30
0.0
 11
9.25
 21
0.0
 31
0.0
210
0.0
220
0.0
230
1.0
 40
0.34202
 41
5.9106579999999997
 42
3.5141200000000001
  0
ELLIPSE
  5
366
100
AcDbEntity
  8
2
370
    50
100
AcDbEllipse
 10
-355.953258
 20
12.175928
 30
0.0
 11
8.3499999999999996
 21
0.0
 31
0.0
210
0.0
220
0.0
230
1.0
 40
0.34202
 41
0.0
 42
6.2831849999999996
  0
CIRCLE
  5
367
100
AcDbEntity
  8
2
370
    50
100
AcDbCircle
 10
-355.953258
 20
28.150702
 30
0.0
 40
10.0
  0
POINT
  5
368
100
AcDbEntity
  8
2
370
    50
100
AcDbPoint
 10
332.621063
 20
-41.849298
 30
0.0
  0
POINT
  5
369
100
AcDbEntity
  8
2
370
    50
100
AcDbPoint
 10
332.621063
 20
-41.849298
 30
0.0
  0
POINT
  5
36A
100
AcDbEntity
  8
2
370
    50
100
AcDbPoint
 10
-355.953258
 20
-41.849298
 30
0.0
  0
POINT
  5
36B
100
AcDbEntity
  8
2
370
    50
100
AcDbPoint
 10
-355.953258
 20
-41.849298
 30
0.0
  0
ARC
  5
36C
100
AcDbEntity
  8
2
370
    50
100
AcDbCircle
 10
-424.441101
 20
-289.046363
 30
0.0
 40
0.2
100
AcDbArc
 50
180.0
 51
270.0
  0
ARC
  5
36D
100
AcDbEntity
  8
2
370
    50
100
AcDbCircle
 10
-412.841101
 20
-289.046363
 30
0.0
 40
0.2
100
AcDbArc
 50
270.0
 51
360.0
  0
LINE
  5
36E
100
AcDbEntity
  8
2
370
    50
100
AcDbLine
 10
-411.641101
 20
-289.246363
 30
0.0
 11
-425.641101
 21
-289.246363
 31
0.0
  0
ARC
  5
36F
100
AcDbEntity
  8
2
370
    50
100
AcDbCircle
 10
-412.840508
 20
-289.045681
 30
0.0
 40
0.2
100
AcDbArc
 50
270.0
 51
360.0
  0
ARC
  5
370
100
AcDbEntity
  8
2
370
    50
100
AcDbCircle
 10
-424.440508
 20
-289.045681
 30
0.0
 40
0.2
100
AcDbArc
 50
180.0
 51
270.0
  0
LINE
  5
371
100
AcDbEntity
  8
2
370
    50
100
AcDbLine
 10
-425.640508
 20
-289.245681
 30
0.0
 11
-411.640508
 21
-289.245681
 31
0.0
  0
LINE
  5
372
100
AcDbEntity
  8
2
370
    50
100
AcDbLine
 10
-426.140508
 20
-289.745681
 30
0.0
 11
-425.640508
 21
-289.245681
 31
0.0
  0
LINE
  5
373
100
AcDbEntity
  8
2
370
    25
100
AcDbLine
 10
-425.140369
 20
-303.045058
 30
0.0
 11
-425.140369
 21
-300.045058
 31
0.0
  0
LINE
  5
374
100
AcDbEntity
  8
2
370
    50
100
AcDbLine
 10
-427.540508
 20
-294.646316
 30
0.0
 11
-427.540508
 21
-297.046316
 31
0.0
  0
LINE
  5
375
100
AcDbEntity
  8
2
370
    50
100
AcDbLine
 10
-427.340508
 20
-294.446316
 30
0.0
 11
-427.540508
 21
-294.646316
 31
0.0
  0
LINE
  5
376
100
AcDbEntity
  8
2
370
    50
100
AcDbLine
 10
-427.340508
 20
-297.246316
 30
0.0
 11
-427.540508
 21
-297.046316
 31
0.0
  0
LINE
  5
377
100
AcDbEntity
  8
2
370
    50
100
AcDbLine
 10
-426.140508
 20
-294.446316
 30
0.0
 11
-426.140508
 21
-294.045058
 31
0.0
  0
LINE
  5
378
100
AcDbEntity
  8
2
370
    50
100
AcDbLine
 10
-426.140508
 20
-289.745681
 30
0.0
 11
-426.140508
 21
-291.045058
 31
0.0
  0
LINE
  5
379
100
AcDbEntity
  8
2
370
    50
100
AcDbLine
 10
-409.740508
 20
-294.645681
 30
0.0
 11
-409.740508
 21
-297.045681
 31
0.0
  0
LINE
  5
37A
100
AcDbEntity
  8
2
370
    50
100
AcDbLine
 10
-427.540508
 20
-294.645681
 30
0.0
 11
-427.540508
 21
-297.045681
 31
0.0
  0
LINE
  5
37B
100
AcDbEntity
  8
2
370
    50
100
AcDbLine
 10
-427.340508
 20
-294.445681
 30
0.0
 11
-427.540508
 21
-294.645681
 31
0.0
  0
LINE
  5
37C
100
AcDbEntity
  8
2
370
    50
100
AcDbLine
 10
-409.940508
 20
-294.445681
 30
0.0
 11
-409.740508
 21
-294.645681
 31
0.0
  0
LINE
  5
37D
100
AcDbEntity
  8
2
370
    50
100
AcDbLine
 10
-409.940508
 20
-297.245681
 30
0.0
 11
-409.740508
 21
-297.045681
 31
0.0
  0
LINE
  5
37E
100
AcDbEntity
  8
2
370
    50
100
AcDbLine
 10
-409.640508
 20
-303.045681
 30
0.0
 11
-427.640508
 21
-303.045681
 31
0.0
  0
LINE
  5
37F
100
AcDbEntity
  8
2
370
    50
100
AcDbLine
 10
-410.340508
 20
-291.045681
 30
0.0
 11
-426.940508
 21
-291.045681
 31
0.0
  0
LINE
  5
380
100
AcDbEntity
  8
2
370
    50
100
AcDbLine
 10
-422.640508
 20
-292.045681
 30
0.0
 11
-422.640508
 21
-302.045681
 31
0.0
  0
LINE
  5
381
100
AcDbEntity
  8
2
370
    50
100
AcDbLine
 10
-414.640508
 20
-292.045681
 30
0.0
 11
-414.640508
 21
-302.045681
 31
0.0
  0
LINE
  5
382
100
AcDbEntity
  8
2
370
    50
100
AcDbLine
 10
-433.140508
 20
-290.045681
 30
0.0
 11
-433.140508
 21
-302.045681
 31
0.0
  0
LINE
  5
383
100
AcDbEntity
  8
2
370
    50
100
AcDbLine
 10
-404.140508
 20
-290.045681
 30
0.0
 11
-404.140508
 21
-302.045681
 31
0.0
  0
ARC
  5
384
100
AcDbEntity
  8
2
370
    50
100
AcDbCircle
 10
-405.140508
 20
-290.045681
 30
0.0
 40
1.0
100
AcDbArc
 50
0.0
 51
90.0
  0
ARC
  5
385
100
AcDbEntity
  8
2
370
    50
100
AcDbCircle
 10
-432.140508
 20
-290.045681
 30
0.0
 40
1.0
100
AcDbArc
 50
90.0
 51
180.0
  0
ARC
  5
386
100
AcDbEntity
  8
2
370
    50
100
AcDbCircle
 10
-432.140508
 20
-302.045681
 30
0.0
 40
1.0
100
AcDbArc
 50
180.0
 51
270.0
  0
ARC
  5
387
100
AcDbEntity
  8
2
370
    50
100
AcDbCircle
 10
-405.140508
 20
-302.045681
 30
0.0
 40
1.0
100
AcDbArc
 50
270.0
 51
360.0
  0
LINE
  5
388
100
AcDbEntity
  8
2
370
    50
100
AcDbLine
 10
-432.140508
 20
-289.045681
 30
0.0
 11
-424.640508
 21
-289.045681
 31
0.0
  0
LINE
  5
389
100
AcDbEntity
  8
2
370
    50
100
AcDbLine
 10
-412.640508
 20
-289.045681
 30
0.0
 11
-405.140508
 21
-289.045681
 31
0.0
  0
LINE
  5
38A
100
AcDbEntity
  8
2
370
    50
100
AcDbLine
 10
-432.140508
 20
-303.045681
 30
0.0
 11
-426.140508
 21
-303.045681
 31
0.0
  0
LINE
  5
38B
100
AcDbEntity
  8
2
370
    50
100
AcDbLine
 10
-410.340508
 20
-303.045681
 30
0.0
 11
-405.140508
 21
-303.045681
 31
0.0
  0
LINE
  5
38C
100
AcDbEntity
  8
2
370
    50
100
AcDbLine
 10
-410.340508
 20
-294.045681
 30
0.0
 11
-414.640508
 21
-294.045681
 31
0.0
  0
LINE
  5
38D
100
AcDbEntity
  8
2
370
    50
100
AcDbLine
 10
-422.640508
 20
-294.045681
 30
0.0
 11
-426.940508
 21
-294.045681
 31
0.0
  0
LINE
  5
38E
100
AcDbEntity
  8
2
370
    50
100
AcDbLine
 10
-409.940508
 20
-294.445681
 30
0.0
 11
-414.640508
 21
-294.445681
 31
0.0
  0
LINE
  5
38F
100
AcDbEntity
  8
2
370
    50
100
AcDbLine
 10
-422.640508
 20
-294.445681
 30
0.0
 11
-427.340508
 21
-294.445681
 31
0.0
  0
LINE
  5
390
100
AcDbEntity
  8
2
370
    50
100
AcDbLine
 10
-409.740508
 20
-294.645681
 30
0.0
 11
-414.640508
 21
-294.645681
 31
0.0
  0
LINE
  5
391
100
AcDbEntity
  8
2
370
    50
100
AcDbLine
 10
-422.640508
 20
-294.645681
 30
0.0
 11
-427.540508
 21
-294.645681
 31
0.0
  0
LINE
  5
392
100
AcDbEntity
  8
2
370
    50
100
AcDbLine
 10
-409.740508
 20
-297.045681
 30
0.0
 11
-414.640508
 21
-297.045681
 31
0.0
  0
LINE
  5
393
100
AcDbEntity
  8
2
370
    50
100
AcDbLine
 10
-422.640508
 20
-297.045681
 30
0.0
 11
-427.540508
 21
-297.045681
 31
0.0
  0
LINE
  5
394
100
AcDbEntity
  8
2
370
    50
100
AcDbLine
 10
-410.340508
 20
-300.045681
 30
0.0
 11
-414.640508
 21
-300.045681
 31
0.0
  0
LINE
  5
395
100
AcDbEntity
  8
2
370
    50
100
AcDbLine
 10
-422.640508
 20
-300.045681
 30
0.0
 11
-426.940508
 21
-300.045681
 31
0.0
  0
ARC
  5
396
100
AcDbEntity
  8
2
370
    50
100
AcDbCircle
 10
-415.640508
 20
-292.045681
 30
0.0
 40
1.0
100
AcDbArc
 50
0.0
 51
90.0
  0
ARC
  5
397
100
AcDbEntity
  8
2
370
    50
100
AcDbCircle
 10
-421.640508
 20
-292.045681
 30
0.0
 40
1.0
100
AcDbArc
 50
90.0
 51
180.0
  0
ARC
  5
398
100
AcDbEntity
  8
2
370
    50
100
AcDbCircle
 10
-421.640508
 20
-302.045681
 30
0.0
 40
1.0
100
AcDbArc
 50
180.0
 51
270.0
  0
ARC
  5
399
100
AcDbEntity
  8
2
370
    50
100
AcDbCircle
 10
-415.640508
 20
-302.045681
 30
0.0
 40
1.0
100
AcDbArc
 50
270.0
 51
0.0
  0
LINE
  5
39A
100
AcDbEntity
  8
2
370
    50
100
AcDbLine
 10
-426.940508
 20
-291.045681
 30
0.0
 11
-426.940508
 21
-294.045681
 31
0.0
  0
LINE
  5
39B
100
AcDbEntity
  8
2
370
    50
100
AcDbLine
 10
-410.340508
 20
-291.045681
 30
0.0
 11
-410.340508
 21
-294.045681
 31
0.0
  0
LINE
  5
39C
100
AcDbEntity
  8
2
370
    50
100
AcDbLine
 10
-410.340508
 20
-300.045681
 30
0.0
 11
-410.340508
 21
-303.045681
 31
0.0
  0
LINE
  5
39D
100
AcDbEntity
  8
2
370
    50
100
AcDbLine
 10
-426.940508
 20
-300.045681
 30
0.0
 11
-426.940508
 21
-303.045681
 31
0.0
  0
LINE
  5
39E
100
AcDbEntity
  8
2
370
    50
100
AcDbLine
 10
-426.140508
 20
-294.445681
 30
0.0
 11
-426.140508
 21
-294.045681
 31
0.0
  0
LINE
  5
39F
100
AcDbEntity
  8
2
370
    50
100
AcDbLine
 10
-411.140508
 20
-294.445681
 30
0.0
 11
-411.140508
 21
-294.045681
 31
0.0
  0
LINE
  5
3A0
100
AcDbEntity
  8
2
370
    25
100
AcDbLine
 10
-423.640508
 20
-302.746263
 30
0.0
 11
-423.640508
 21
-300.441042
 31
0.0
  0
LINE
  5
3A1
100
AcDbEntity
  8
2
370
    25
100
AcDbLine
 10
-423.640508
 20
-293.784494
 30
0.0
 11
-423.640508
 21
-291.352289
 31
0.0
  0
LINE
  5
3A2
100
AcDbEntity
  8
2
370
    25
100
AcDbLine
 10
-413.640508
 20
-302.746263
 30
0.0
 11
-413.640508
 21
-300.441042
 31
0.0
  0
LINE
  5
3A3
100
AcDbEntity
  8
2
370
    25
100
AcDbLine
 10
-413.640508
 20
-293.741816
 30
0.0
 11
-413.640508
 21
-291.272768
 31
0.0
  0
LINE
  5
3A4
100
AcDbEntity
  8
2
370
    50
100
AcDbLine
 10
-427.440508
 20
-302.045681
 30
0.0
 11
-427.440508
 21
-299.445681
 31
0.0
  0
LINE
  5
3A5
100
AcDbEntity
  8
2
370
    50
100
AcDbLine
 10
-427.440508
 20
-294.545681
 30
0.0
 11
-427.440508
 21
-290.045681
 31
0.0
  0
LINE
  5
3A6
100
AcDbEntity
  8
2
370
    50
100
AcDbLine
 10
-409.840508
 20
-302.045681
 30
0.0
 11
-409.840508
 21
-299.445681
 31
0.0
  0
LINE
  5
3A7
100
AcDbEntity
  8
2
370
    50
100
AcDbLine
 10
-409.840508
 20
-294.545681
 30
0.0
 11
-409.840508
 21
-290.045681
 31
0.0
  0
ARC
  5
3A8
100
AcDbEntity
  8
2
370
    50
100
AcDbCircle
 10
-426.440508
 20
-290.045681
 30
0.0
 40
1.0
100
AcDbArc
 50
90.0
 51
180.0
  0
ARC
  5
3A9
100
AcDbEntity
  8
2
370
    50
100
AcDbCircle
 10
-410.840508
 20
-290.045681
 30
0.0
 40
1.0
100
AcDbArc
 50
0.0
 51
90.0
  0
ARC
  5
3AA
100
AcDbEntity
  8
2
370
    50
100
AcDbCircle
 10
-428.440508
 20
-302.045681
 30
0.0
 40
1.0
100
AcDbArc
 50
270.0
 51
0.0
  0
ARC
  5
3AB
100
AcDbEntity
  8
2
370
    50
100
AcDbCircle
 10
-408.840508
 20
-302.045681
 30
0.0
 40
1.0
100
AcDbArc
 50
180.0
 51
270.0
  0
LINE
  5
3AC
100
AcDbEntity
  8
2
370
    50
100
AcDbLine
 10
-411.140508
 20
-289.745681
 30
0.0
 11
-411.140508
 21
-291.045058
 31
0.0
  0
ARC
  5
3AD
100
AcDbEntity
  8
2
370
    50
100
AcDbCircle
 10
-410.840508
 20
-290.045681
 30
0.0
 40
1.0
100
AcDbArc
 50
0.0
 51
90.0
  0
LINE
  5
3AE
100
AcDbEntity
  8
2
370
    50
100
AcDbLine
 10
-411.140508
 20
-289.745681
 30
0.0
 11
-411.640508
 21
-289.245681
 31
0.0
  0
LINE
  5
3AF
100
AcDbEntity
  8
2
370
    50
100
AcDbLine
 10
-409.640508
 20
-297.445681
 30
0.0
 11
-409.640508
 21
-299.245681
 31
0.0
  0
LINE
  5
3B0
100
AcDbEntity
  8
2
370
    50
100
AcDbLine
 10
-427.640508
 20
-297.445681
 30
0.0
 11
-427.640508
 21
-299.245681
 31
0.0
  0
LINE
  5
3B1
100
AcDbEntity
  8
2
370
    50
100
AcDbLine
 10
-427.640508
 20
-303.445681
 30
0.0
 11
-428.640508
 21
-304.445681
 31
0.0
  0
LINE
  5
3B2
100
AcDbEntity
  8
2
370
    50
100
AcDbLine
 10
-409.640508
 20
-303.445681
 30
0.0
 11
-408.640508
 21
-304.445681
 31
0.0
  0
LINE
  5
3B3
100
AcDbEntity
  8
2
370
    50
100
AcDbLine
 10
-409.640508
 20
-303.445681
 30
0.0
 11
-427.640508
 21
-303.445681
 31
0.0
  0
LINE
  5
3B4
100
AcDbEntity
  8
2
370
    50
100
AcDbLine
 10
-409.840508
 20
-297.245681
 30
0.0
 11
-409.640508
 21
-297.445681
 31
0.0
  0
LINE
  5
3B5
100
AcDbEntity
  8
2
370
    50
100
AcDbLine
 10
-409.640508
 20
-299.245681
 30
0.0
 11
-409.840508
 21
-299.445681
 31
0.0
  0
LINE
  5
3B6
100
AcDbEntity
  8
2
370
    50
100
AcDbLine
 10
-427.440508
 20
-297.245681
 30
0.0
 11
-427.640508
 21
-297.445681
 31
0.0
  0
LINE
  5
3B7
100
AcDbEntity
  8
2
370
    50
100
AcDbLine
 10
-427.640508
 20
-299.245681
 30
0.0
 11
-427.440508
 21
-299.445681
 31
0.0
  0
LINE
  5
3B8
100
AcDbEntity
  8
2
370
    25
100
AcDbLine
 10
-428.640508
 20
-304.445681
 30
0.0
 11
-408.640508
 21
-304.445681
 31
0.0
  0
LINE
  5
3B9
100
AcDbEntity
  8
2
370
    50
100
AcDbLine
 10
-426.140508
 20
-303.445681
 30
0.0
 11
-426.140508
 21
-303.045681
 31
0.0
  0
LINE
  5
3BA
100
AcDbEntity
  8
2
370
    50
100
AcDbLine
 10
-426.140508
 20
-300.045681
 30
0.0
 11
-426.140508
 21
-299.445681
 31
0.0
  0
LINE
  5
3BB
100
AcDbEntity
  8
2
370
    50
100
AcDbLine
 10
-411.140508
 20
-303.445681
 30
0.0
 11
-411.140508
 21
-303.045681
 31
0.0
  0
LINE
  5
3BC
100
AcDbEntity
  8
2
370
    50
100
AcDbLine
 10
-411.140508
 20
-300.045681
 30
0.0
 11
-411.140508
 21
-299.445681
 31
0.0
  0
LINE
  5
3BD
100
AcDbEntity
  8
2
370
    50
100
AcDbLine
 10
-409.840508
 20
-299.445681
 30
0.0
 11
-414.640508
 21
-299.445681
 31
0.0
  0
LINE
  5
3BE
100
AcDbEntity
  8
2
370
    50
100
AcDbLine
 10
-422.640508
 20
-299.445681
 30
0.0
 11
-427.440508
 21
-299.445681
 31
0.0
  0
LINE
  5
3BF
100
AcDbEntity
  8
2
370
    50
100
AcDbLine
 10
-409.640508
 20
-299.245681
 30
0.0
 11
-414.640508
 21
-299.245681
 31
0.0
  0
LINE
  5
3C0
100
AcDbEntity
  8
2
370
    50
100
AcDbLine
 10
-422.640508
 20
-299.245681
 30
0.0
 11
-427.640508
 21
-299.245681
 31
0.0
  0
LINE
  5
3C1
100
AcDbEntity
  8
2
370
    50
100
AcDbLine
 10
-409.640508
 20
-297.445681
 30
0.0
 11
-414.640508
 21
-297.445681
 31
0.0
  0
LINE
  5
3C2
100
AcDbEntity
  8
2
370
    50
100
AcDbLine
 10
-422.640508
 20
-297.445681
 30
0.0
 11
-427.640508
 21
-297.445681
 31
0.0
  0
LINE
  5
3C3
100
AcDbEntity
  8
2
370
    50
100
AcDbLine
 10
-409.840508
 20
-297.245681
 30
0.0
 11
-414.640508
 21
-297.245681
 31
0.0
  0
LINE
  5
3C4
100
AcDbEntity
  8
2
370
    50
100
AcDbLine
 10
-422.640508
 20
-297.245681
 30
0.0
 11
-427.440508
 21
-297.245681
 31
0.0
  0
LINE
  5
3C5
100
AcDbEntity
  8
2
370
    25
100
AcDbLine
 10
-412.140648
 20
-303.045058
 30
0.0
 11
-412.140648
 21
-300.045058
 31
0.0
  0
LINE
  5
3C6
100
AcDbEntity
  8
2
370
    25
100
AcDbLine
 10
-425.140369
 20
-294.045681
 30
0.0
 11
-425.140369
 21
-291.045681
 31
0.0
  0
LINE
  5
3C7
100
AcDbEntity
  8
2
370
    25
100
AcDbLine
 10
-412.140648
 20
-294.045681
 30
0.0
 11
-412.140648
 21
-291.045681
 31
0.0
  0
LINE
  5
3C8
100
AcDbEntity
  8
2
370
    50
100
AcDbLine
 10
-408.640508
 20
-304.445681
 30
0.0
 11
-408.640508
 21
-313.245681
 31
0.0
  0
LINE
  5
3C9
100
AcDbEntity
  8
2
370
    50
100
AcDbLine
 10
-428.640508
 20
-304.445681
 30
0.0
 11
-428.640508
 21
-313.245681
 31
0.0
  0
LINE
  5
3CA
100
AcDbEntity
  8
2
370
    50
100
AcDbLine
 10
-406.640508
 20
-313.245681
 30
0.0
 11
-430.640508
 21
-313.245681
 31
0.0
  0
LINE
  5
3CB
100
AcDbEntity
  8
2
370
    50
100
AcDbLine
 10
-405.640508
 20
-314.245681
 30
0.0
 11
-405.640508
 21
-323.245681
 31
0.0
  0
LINE
  5
3CC
100
AcDbEntity
  8
2
370
    50
100
AcDbLine
 10
-406.640508
 20
-313.245681
 30
0.0
 11
-405.640508
 21
-314.245681
 31
0.0
  0
LINE
  5
3CD
100
AcDbEntity
  8
2
370
    50
100
AcDbLine
 10
-431.640508
 20
-314.245681
 30
0.0
 11
-431.640508
 21
-323.245681
 31
0.0
  0
LINE
  5
3CE
100
AcDbEntity
  8
2
370
    50
100
AcDbLine
 10
-430.640508
 20
-313.245681
 30
0.0
 11
-431.640508
 21
-314.245681
 31
0.0
  0
LINE
  5
3CF
100
AcDbEntity
  8
2
370
    50
100
AcDbLine
 10
-425.568898
 20
-323.245681
 30
0.0
 11
-425.568898
 21
-314.245681
 31
0.0
  0
LINE
  5
3D0
100
AcDbEntity
  8
2
370
    50
100
AcDbLine
 10
-411.712118
 20
-323.245681
 30
0.0
 11
-411.712118
 21
-314.245681
 31
0.0
  0
ARC
  5
3D1
100
AcDbEntity
  8
2
370
    50
100
AcDbCircle
 10
-418.640508
 20
-337.746977
 30
0.0
 40
24.501296
100
AcDbArc
 50
73.574016
 51
106.425984
  0
ARC
  5
3D2
100
AcDbEntity
  8
2
370
    50
100
AcDbCircle
 10
-408.676313
 20
-318.353736
 30
0.0
 40
5.108056
100
AcDbArc
 50
53.536034
 51
126.463966
  0
ARC
  5
3D3
100
AcDbEntity
  8
2
370
    50
100
AcDbCircle
 10
-428.604703
 20
-318.353736
 30
0.0
 40
5.108056
100
AcDbArc
 50
53.536034
 51
126.463966
  0
LINE
  5
3D4
100
AcDbEntity
  8
2
370
    50
100
AcDbLine
 10
-405.640508
 20
-314.245681
 30
0.0
 11
-405.640508
 21
-322.245681
 31
0.0
  0
LINE
  5
3D5
100
AcDbEntity
  8
2
370
    50
100
AcDbLine
 10
-406.640508
 20
-324.245681
 30
0.0
 11
-405.640508
 21
-323.245681
 31
0.0
  0
LINE
  5
3D6
100
AcDbEntity
  8
2
370
    50
100
AcDbLine
 10
-431.640508
 20
-314.245681
 30
0.0
 11
-431.640508
 21
-322.245681
 31
0.0
  0
LINE
  5
3D7
100
AcDbEntity
  8
2
370
    50
100
AcDbLine
 10
-430.640508
 20
-324.245681
 30
0.0
 11
-431.640508
 21
-323.245681
 31
0.0
  0
LINE
  5
3D8
100
AcDbEntity
  8
2
370
    50
100
AcDbLine
 10
-406.640508
 20
-324.245681
 30
0.0
 11
-430.640508
 21
-324.245681
 31
0.0
  0
LINE
  5
3D9
100
AcDbEntity
  8
2
370
    50
100
AcDbLine
 10
-425.568898
 20
-322.245681
 30
0.0
 11
-425.568898
 21
-314.245681
 31
0.0
  0
LINE
  5
3DA
100
AcDbEntity
  8
2
370
    50
100
AcDbLine
 10
-411.712118
 20
-322.245681
 30
0.0
 11
-411.712118
 21
-314.245681
 31
0.0
  0
ARC
  5
3DB
100
AcDbEntity
  8
2
370
    50
100
AcDbCircle
 10
-418.640508
 20
-299.744384
 30
0.0
 40
24.501296
100
AcDbArc
 50
253.574016
 51
286.425984
  0
ARC
  5
3DC
100
AcDbEntity
  8
2
370
    50
100
AcDbCircle
 10
-428.604703
 20
-319.137625
 30
0.0
 40
5.108056
100
AcDbArc
 50
233.536034
 51
306.463966
  0
ARC
  5
3DD
100
AcDbEntity
  8
2
370
    50
100
AcDbCircle
 10
-408.676313
 20
-319.137625
 30
0.0
 40
5.108056
100
AcDbArc
 50
233.536034
 51
306.463966
  0
ARC
  5
3DE
100
AcDbEntity
  8
2
370
    50
100
AcDbCircle
 10
-287.464823
 20
-289.046284
 30
0.0
 40
0.2
100
AcDbArc
 50
270.0
 51
360.0
  0
ARC
  5
3DF
100
AcDbEntity
  8
2
370
    50
100
AcDbCircle
 10
-299.064823
 20
-289.046284
 30
0.0
 40
0.2
100
AcDbArc
 50
180.0
 51
270.0
  0
LINE
  5
3E0
100
AcDbEntity
  8
2
370
    50
100
AcDbLine
 10
-300.264823
 20
-289.246284
 30
0.0
 11
-286.264823
 21
-289.246284
 31
0.0
  0
ARC
  5
3E1
100
AcDbEntity
  8
2
370
    50
100
AcDbCircle
 10
-299.065416
 20
-289.045601
 30
0.0
 40
0.2
100
AcDbArc
 50
180.0
 51
270.0
  0
ARC
  5
3E2
100
AcDbEntity
  8
2
370
    50
100
AcDbCircle
 10
-287.465416
 20
-289.045601
 30
0.0
 40
0.2
100
AcDbArc
 50
270.0
 51
360.0
  0
LINE
  5
3E3
100
AcDbEntity
  8
2
370
    50
100
AcDbLine
 10
-286.265416
 20
-289.245601
 30
0.0
 11
-300.265416
 21
-289.245601
 31
0.0
  0
LINE
  5
3E4
100
AcDbEntity
  8
2
370
    50
100
AcDbLine
 10
-285.765416
 20
-289.745601
 30
0.0
 11
-286.265416
 21
-289.245601
 31
0.0
  0
LINE
  5
3E5
100
AcDbEntity
  8
2
370
    25
100
AcDbLine
 10
-286.765556
 20
-303.044979
 30
0.0
 11
-286.765556
 21
-300.044979
 31
0.0
  0
LINE
  5
3E6
100
AcDbEntity
  8
2
370
    50
100
AcDbLine
 10
-284.365416
 20
-294.646236
 30
0.0
 11
-284.365416
 21
-297.046236
 31
0.0
  0
LINE
  5
3E7
100
AcDbEntity
  8
2
370
    50
100
AcDbLine
 10
-284.565416
 20
-294.446236
 30
0.0
 11
-284.365416
 21
-294.646236
 31
0.0
  0
LINE
  5
3E8
100
AcDbEntity
  8
2
370
    50
100
AcDbLine
 10
-284.565416
 20
-297.246236
 30
0.0
 11
-284.365416
 21
-297.046236
 31
0.0
  0
LINE
  5
3E9
100
AcDbEntity
  8
2
370
    50
100
AcDbLine
 10
-285.765416
 20
-294.446236
 30
0.0
 11
-285.765416
 21
-294.044979
 31
0.0
  0
LINE
  5
3EA
100
AcDbEntity
  8
2
370
    50
100
AcDbLine
 10
-285.765416
 20
-289.745601
 30
0.0
 11
-285.765416
 21
-291.044979
 31
0.0
  0
LINE
  5
3EB
100
AcDbEntity
  8
2
370
    50
100
AcDbLine
 10
-302.165416
 20
-294.645601
 30
0.0
 11
-302.165416
 21
-297.045601
 31
0.0
  0
LINE
  5
3EC
100
AcDbEntity
  8
2
370
    50
100
AcDbLine
 10
-284.365416
 20
-294.645601
 30
0.0
 11
-284.365416
 21
-297.045601
 31
0.0
  0
LINE
  5
3ED
100
AcDbEntity
  8
2
370
    50
100
AcDbLine
 10
-284.565416
 20
-294.445601
 30
0.0
 11
-284.365416
 21
-294.645601
 31
0.0
  0
LINE
  5
3EE
100
AcDbEntity
  8
2
370
    50
100
AcDbLine
 10
-301.965416
 20
-294.445601
 30
0.0
 11
-302.165416
 21
-294.645601
 31
0.0
  0
LINE
  5
3EF
100
AcDbEntity
  8
2
370
    50
100
AcDbLine
 10
-301.965416
 20
-297.245601
 30
0.0
 11
-302.165416
 21
-297.045601
 31
0.0
  0
LINE
  5
3F0
100
AcDbEntity
  8
2
370
    50
100
AcDbLine
 10
-302.265416
 20
-303.045601
 30
0.0
 11
-284.265416
 21
-303.045601
 31
0.0
  0
LINE
  5
3F1
100
AcDbEntity
  8
2
370
    50
100
AcDbLine
 10
-301.565416
 20
-291.045601
 30
0.0
 11
-284.965416
 21
-291.045601
 31
0.0
  0
LINE
  5
3F2
100
AcDbEntity
  8
2
370
    50
100
AcDbLine
 10
-289.265416
 20
-292.045601
 30
0.0
 11
-289.265416
 21
-302.045601
 31
0.0
  0
LINE
  5
3F3
100
AcDbEntity
  8
2
370
    50
100
AcDbLine
 10
-297.265416
 20
-292.045601
 30
0.0
 11
-297.265416
 21
-302.045601
 31
0.0
  0
LINE
  5
3F4
100
AcDbEntity
  8
2
370
    50
100
AcDbLine
 10
-278.765416
 20
-290.045601
 30
0.0
 11
-278.765416
 21
-302.045601
 31
0.0
  0
LINE
  5
3F5
100
AcDbEntity
  8
2
370
    50
100
AcDbLine
 10
-307.765416
 20
-290.045601
 30
0.0
 11
-307.765416
 21
-302.045601
 31
0.0
  0
ARC
  5
3F6
100
AcDbEntity
  8
2
370
    50
100
AcDbCircle
 10
-306.765416
 20
-290.045601
 30
0.0
 40
1.0
100
AcDbArc
 50
90.0
 51
180.0
  0
ARC
  5
3F7
100
AcDbEntity
  8
2
370
    50
100
AcDbCircle
 10
-279.765416
 20
-290.045601
 30
0.0
 40
1.0
100
AcDbArc
 50
360.0
 51
90.0
  0
ARC
  5
3F8
100
AcDbEntity
  8
2
370
    50
100
AcDbCircle
 10
-279.765416
 20
-302.045601
 30
0.0
 40
1.0
100
AcDbArc
 50
270.0
 51
360.0
  0
ARC
  5
3F9
100
AcDbEntity
  8
2
370
    50
100
AcDbCircle
 10
-306.765416
 20
-302.045601
 30
0.0
 40
1.0
100
AcDbArc
 50
180.0
 51
270.0
  0
LINE
  5
3FA
100
AcDbEntity
  8
2
370
    50
100
AcDbLine
 10
-279.765416
 20
-289.045601
 30
0.0
 11
-287.265416
 21
-289.045601
 31
0.0
  0
LINE
  5
3FB
100
AcDbEntity
  8
2
370
    50
100
AcDbLine
 10
-299.265416
 20
-289.045601
 30
0.0
 11
-306.765416
 21
-289.045601
 31
0.0
  0
LINE
  5
3FC
100
AcDbEntity
  8
2
370
    50
100
AcDbLine
 10
-279.765416
 20
-303.045601
 30
0.0
 11
-285.765416
 21
-303.045601
 31
0.0
  0
LINE
  5
3FD
100
AcDbEntity
  8
2
370
    50
100
AcDbLine
 10
-301.565416
 20
-303.045601
 30
0.0
 11
-306.765416
 21
-303.045601
 31
0.0
  0
LINE
  5
3FE
100
AcDbEntity
  8
2
370
    50
100
AcDbLine
 10
-301.565416
 20
-294.045601
 30
0.0
 11
-297.265416
 21
-294.045601
 31
0.0
  0
LINE
  5
3FF
100
AcDbEntity
  8
2
370
    50
100
AcDbLine
 10
-289.265416
 20
-294.045601
 30
0.0
 11
-284.965416
 21
-294.045601
 31
0.0
  0
LINE
  5
400
100
AcDbEntity
  8
2
370
    50
100
AcDbLine
 10
-301.965416
 20
-294.445601
 30
0.0
 11
-297.265416
 21
-294.445601
 31
0.0
  0
LINE
  5
401
100
AcDbEntity
  8
2
370
    50
100
AcDbLine
 10
-289.265416
 20
-294.445601
 30
0.0
 11
-284.565416
 21
-294.445601
 31
0.0
  0
LINE
  5
402
100
AcDbEntity
  8
2
370
    50
100
AcDbLine
 10
-302.165416
 20
-294.645601
 30
0.0
 11
-297.265416
 21
-294.645601
 31
0.0
  0
LINE
  5
403
100
AcDbEntity
  8
2
370
    50
100
AcDbLine
 10
-289.265416
 20
-294.645601
 30
0.0
 11
-284.365416
 21
-294.645601
 31
0.0
  0
LINE
  5
404
100
AcDbEntity
  8
2
370
    50
100
AcDbLine
 10
-302.165416
 20
-297.045601
 30
0.0
 11
-297.265416
 21
-297.045601
 31
0.0
  0
LINE
  5
405
100
AcDbEntity
  8
2
370
    50
100
AcDbLine
 10
-289.265416
 20
-297.045601
 30
0.0
 11
-284.365416
 21
-297.045601
 31
0.0
  0
LINE
  5
406
100
AcDbEntity
  8
2
370
    50
100
AcDbLine
 10
-301.565416
 20
-300.045601
 30
0.0
 11
-297.265416
 21
-300.045601
 31
0.0
  0
LINE
  5
407
100
AcDbEntity
  8
2
370
    50
100
AcDbLine
 10
-289.265416
 20
-300.045601
 30
0.0
 11
-284.965416
 21
-300.045601
 31
0.0
  0
ARC
  5
408
100
AcDbEntity
  8
2
370
    50
100
AcDbCircle
 10
-296.265416
 20
-292.045601
 30
0.0
 40
1.0
100
AcDbArc
 50
90.0
 51
180.0
  0
ARC
  5
409
100
AcDbEntity
  8
2
370
    50
100
AcDbCircle
 10
-290.265416
 20
-292.045601
 30
0.0
 40
1.0
100
AcDbArc
 50
360.0
 51
90.0
  0
ARC
  5
40A
100
AcDbEntity
  8
2
370
    50
100
AcDbCircle
 10
-290.265416
 20
-302.045601
 30
0.0
 40
1.0
100
AcDbArc
 50
270.0
 51
0.0
  0
ARC
  5
40B
100
AcDbEntity
  8
2
370
    50
100
AcDbCircle
 10
-296.265416
 20
-302.045601
 30
0.0
 40
1.0
100
AcDbArc
 50
180.0
 51
270.0
  0
LINE
  5
40C
100
AcDbEntity
  8
2
370
    50
100
AcDbLine
 10
-284.965416
 20
-291.045601
 30
0.0
 11
-284.965416
 21
-294.045601
 31
0.0
  0
LINE
  5
40D
100
AcDbEntity
  8
2
370
    50
100
AcDbLine
 10
-301.565416
 20
-291.045601
 30
0.0
 11
-301.565416
 21
-294.045601
 31
0.0
  0
LINE
  5
40E
100
AcDbEntity
  8
2
370
    50
100
AcDbLine
 10
-301.565416
 20
-300.045601
 30
0.0
 11
-301.565416
 21
-303.045601
 31
0.0
  0
LINE
  5
40F
100
AcDbEntity
  8
2
370
    50
100
AcDbLine
 10
-284.965416
 20
-300.045601
 30
0.0
 11
-284.965416
 21
-303.045601
 31
0.0
  0
LINE
  5
410
100
AcDbEntity
  8
2
370
    50
100
AcDbLine
 10
-285.765416
 20
-294.445601
 30
0.0
 11
-285.765416
 21
-294.045601
 31
0.0
  0
LINE
  5
411
100
AcDbEntity
  8
2
370
    50
100
AcDbLine
 10
-300.765416
 20
-294.445601
 30
0.0
 11
-300.765416
 21
-294.045601
 31
0.0
  0
LINE
  5
412
100
AcDbEntity
  8
2
370
    25
100
AcDbLine
 10
-288.265416
 20
-302.746184
 30
0.0
 11
-288.265416
 21
-300.440962
 31
0.0
  0
LINE
  5
413
100
AcDbEntity
  8
2
370
    25
100
AcDbLine
 10
-288.265416
 20
-293.784415
 30
0.0
 11
-288.265416
 21
-291.352209
 31
0.0
  0
LINE
  5
414
100
AcDbEntity
  8
2
370
    25
100
AcDbLine
 10
-298.265416
 20
-302.746184
 30
0.0
 11
-298.265416
 21
-300.440962
 31
0.0
  0
LINE
  5
415
100
AcDbEntity
  8
2
370
    25
100
AcDbLine
 10
-298.265416
 20
-293.741736
 30
0.0
 11
-298.265416
 21
-291.272688
 31
0.0
  0
LINE
  5
416
100
AcDbEntity
  8
2
370
    50
100
AcDbLine
 10
-284.465416
 20
-302.045601
 30
0.0
 11
-284.465416
 21
-299.445601
 31
0.0
  0
LINE
  5
417
100
AcDbEntity
  8
2
370
    50
100
AcDbLine
 10
-284.465416
 20
-294.545601
 30
0.0
 11
-284.465416
 21
-290.045601
 31
0.0
  0
LINE
  5
418
100
AcDbEntity
  8
2
370
    50
100
AcDbLine
 10
-302.065416
 20
-302.045601
 30
0.0
 11
-302.065416
 21
-299.445601
 31
0.0
  0
LINE
  5
419
100
AcDbEntity
  8
2
370
    50
100
AcDbLine
 10
-302.065416
 20
-294.545601
 30
0.0
 11
-302.065416
 21
-290.045601
 31
0.0
  0
ARC
  5
41A
100
AcDbEntity
  8
2
370
    50
100
AcDbCircle
 10
-285.465416
 20
-290.045601
 30
0.0
 40
1.0
100
AcDbArc
 50
360.0
 51
90.0
  0
ARC
  5
41B
100
AcDbEntity
  8
2
370
    50
100
AcDbCircle
 10
-301.065416
 20
-290.045601
 30
0.0
 40
1.0
100
AcDbArc
 50
90.0
 51
180.0
  0
ARC
  5
41C
100
AcDbEntity
  8
2
370
    50
100
AcDbCircle
 10
-283.465416
 20
-302.045601
 30
0.0
 40
1.0
100
AcDbArc
 50
180.0
 51
270.0
  0
ARC
  5
41D
100
AcDbEntity
  8
2
370
    50
100
AcDbCircle
 10
-303.065416
 20
-302.045601
 30
0.0
 40
1.0
100
AcDbArc
 50
270.0
 51
360.0
  0
LINE
  5
41E
100
AcDbEntity
  8
2
370
    50
100
AcDbLine
 10
-300.765416
 20
-289.745601
 30
0.0
 11
-300.765416
 21
-291.044979
 31
0.0
  0
ARC
  5
41F
100
AcDbEntity
  8
2
370
    50
100
AcDbCircle
 10
-301.065416
 20
-290.045601
 30
0.0
 40
1.0
100
AcDbArc
 50
90.0
 51
180.0
  0
LINE
  5
420
100
AcDbEntity
  8
2
370
    50
100
AcDbLine
 10
-300.765416
 20
-289.745601
 30
0.0
 11
-300.265416
 21
-289.245601
 31
0.0
  0
LINE
  5
421
100
AcDbEntity
  8
2
370
    50
100
AcDbLine
 10
-302.265416
 20
-297.445601
 30
0.0
 11
-302.265416
 21
-299.245601
 31
0.0
  0
LINE
  5
422
100
AcDbEntity
  8
2
370
    50
100
AcDbLine
 10
-284.265416
 20
-297.445601
 30
0.0
 11
-284.265416
 21
-299.245601
 31
0.0
  0
LINE
  5
423
100
AcDbEntity
  8
2
370
    50
100
AcDbLine
 10
-284.265416
 20
-303.445601
 30
0.0
 11
-283.265416
 21
-304.445601
 31
0.0
  0
LINE
  5
424
100
AcDbEntity
  8
2
370
    50
100
AcDbLine
 10
-302.265416
 20
-303.445601
 30
0.0
 11
-303.265416
 21
-304.445601
 31
0.0
  0
LINE
  5
425
100
AcDbEntity
  8
2
370
    50
100
AcDbLine
 10
-302.265416
 20
-303.445601
 30
0.0
 11
-284.265416
 21
-303.445601
 31
0.0
  0
LINE
  5
426
100
AcDbEntity
  8
2
370
    50
100
AcDbLine
 10
-302.065416
 20
-297.245601
 30
0.0
 11
-302.265416
 21
-297.445601
 31
0.0
  0
LINE
  5
427
100
AcDbEntity
  8
2
370
    50
100
AcDbLine
 10
-302.265416
 20
-299.245601
 30
0.0
 11
-302.065416
 21
-299.445601
 31
0.0
  0
LINE
  5
428
100
AcDbEntity
  8
2
370
    50
100
AcDbLine
 10
-284.465416
 20
-297.245601
 30
0.0
 11
-284.265416
 21
-297.445601
 31
0.0
  0
LINE
  5
429
100
AcDbEntity
  8
2
370
    50
100
AcDbLine
 10
-284.265416
 20
-299.245601
 30
0.0
 11
-284.465416
 21
-299.445601
 31
0.0
  0
LINE
  5
42A
100
AcDbEntity
  8
2
370
    25
100
AcDbLine
 10
-283.265416
 20
-304.445601
 30
0.0
 11
-303.265416
 21
-304.445601
 31
0.0
  0
LINE
  5
42B
100
AcDbEntity
  8
2
370
    50
100
AcDbLine
 10
-285.765416
 20
-303.445601
 30
0.0
 11
-285.765416
 21
-303.045601
 31
0.0
  0
LINE
  5
42C
100
AcDbEntity
  8
2
370
    50
100
AcDbLine
 10
-285.765416
 20
-300.045601
 30
0.0
 11
-285.765416
 21
-299.445601
 31
0.0
  0
LINE
  5
42D
100
AcDbEntity
  8
2
370
    50
100
AcDbLine
 10
-300.765416
 20
-303.445601
 30
0.0
 11
-300.765416
 21
-303.045601
 31
0.0
  0
LINE
  5
42E
100
AcDbEntity
  8
2
370
    50
100
AcDbLine
 10
-300.765416
 20
-300.045601
 30
0.0
 11
-300.765416
 21
-299.445601
 31
0.0
  0
LINE
  5
42F
100
AcDbEntity
  8
2
370
    50
100
AcDbLine
 10
-302.065416
 20
-299.445601
 30
0.0
 11
-297.265416
 21
-299.445601
 31
0.0
  0
LINE
  5
430
100
AcDbEntity
  8
2
370
    50
100
AcDbLine
 10
-289.265416
 20
-299.445601
 30
0.0
 11
-284.465416
 21
-299.445601
 31
0.0
  0
LINE
  5
431
100
AcDbEntity
  8
2
370
    50
100
AcDbLine
 10
-302.265416
 20
-299.245601
 30
0.0
 11
-297.265416
 21
-299.245601
 31
0.0
  0
LINE
  5
432
100
AcDbEntity
  8
2
370
    50
100
AcDbLine
 10
-289.265416
 20
-299.245601
 30
0.0
 11
-284.265416
 21
-299.245601
 31
0.0
  0
LINE
  5
433
100
AcDbEntity
  8
2
370
    50
100
AcDbLine
 10
-302.265416
 20
-297.445601
 30
0.0
 11
-297.265416
 21
-297.445601
 31
0.0
  0
LINE
  5
434
100
AcDbEntity
  8
2
370
    50
100
AcDbLine
 10
-289.265416
 20
-297.445601
 30
0.0
 11
-284.265416
 21
-297.445601
 31
0.0
  0
LINE
  5
435
100
AcDbEntity
  8
2
370
    50
100
AcDbLine
 10
-302.065416
 20
-297.245601
 30
0.0
 11
-297.265416
 21
-297.245601
 31
0.0
  0
LINE
  5
436
100
AcDbEntity
  8
2
370
    50
100
AcDbLine
 10
-289.265416
 20
-297.245601
 30
0.0
 11
-284.465416
 21
-297.245601
 31
0.0
  0
LINE
  5
437
100
AcDbEntity
  8
2
370
    25
100
AcDbLine
 10
-299.765276
 20
-303.044979
 30
0.0
 11
-299.765276
 21
-300.044979
 31
0.0
  0
LINE
  5
438
100
AcDbEntity
  8
2
370
    25
100
AcDbLine
 10
-286.765556
 20
-294.045601
 30
0.0
 11
-286.765556
 21
-291.045601
 31
0.0
  0
LINE
  5
439
100
AcDbEntity
  8
2
370
    25
100
AcDbLine
 10
-299.765276
 20
-294.045601
 30
0.0
 11
-299.765276
 21
-291.045601
 31
0.0
  0
LINE
  5
43A
100
AcDbEntity
  8
2
370
    50
100
AcDbLine
 10
-303.265416
 20
-304.445601
 30
0.0
 11
-303.265416
 21
-313.245601
 31
0.0
  0
LINE
  5
43B
100
AcDbEntity
  8
2
370
    50
100
AcDbLine
 10
-283.265416
 20
-304.445601
 30
0.0
 11
-283.265416
 21
-313.245601
 31
0.0
  0
LINE
  5
43C
100
AcDbEntity
  8
2
370
    50
100
AcDbLine
 10
-305.265416
 20
-313.245601
 30
0.0
 11
-281.265416
 21
-313.245601
 31
0.0
  0
LINE
  5
43D
100
AcDbEntity
  8
2
370
    50
100
AcDbLine
 10
-306.265416
 20
-314.245601
 30
0.0
 11
-306.265416
 21
-323.245601
 31
0.0
  0
LINE
  5
43E
100
AcDbEntity
  8
2
370
    50
100
AcDbLine
 10
-305.265416
 20
-313.245601
 30
0.0
 11
-306.265416
 21
-314.245601
 31
0.0
  0
LINE
  5
43F
100
AcDbEntity
  8
2
370
    50
100
AcDbLine
 10
-280.265416
 20
-314.245601
 30
0.0
 11
-280.265416
 21
-323.245601
 31
0.0
  0
LINE
  5
440
100
AcDbEntity
  8
2
370
    50
100
AcDbLine
 10
-281.265416
 20
-313.245601
 30
0.0
 11
-280.265416
 21
-314.245601
 31
0.0
  0
LINE
  5
441
100
AcDbEntity
  8
2
370
    50
100
AcDbLine
 10
-286.337026
 20
-323.245601
 30
0.0
 11
-286.337026
 21
-314.245601
 31
0.0
  0
LINE
  5
442
100
AcDbEntity
  8
2
370
    50
100
AcDbLine
 10
-300.193806
 20
-323.245601
 30
0.0
 11
-300.193806
 21
-314.245601
 31
0.0
  0
ARC
  5
443
100
AcDbEntity
  8
2
370
    50
100
AcDbCircle
 10
-293.265416
 20
-337.746897
 30
0.0
 40
24.501296
100
AcDbArc
 50
73.574016
 51
106.425984
  0
ARC
  5
444
100
AcDbEntity
  8
2
370
    50
100
AcDbCircle
 10
-303.229611
 20
-318.353656
 30
0.0
 40
5.108056
100
AcDbArc
 50
53.536034
 51
126.463966
  0
ARC
  5
445
100
AcDbEntity
  8
2
370
    50
100
AcDbCircle
 10
-283.301221
 20
-318.353656
 30
0.0
 40
5.108056
100
AcDbArc
 50
53.536034
 51
126.463966
  0
LINE
  5
446
100
AcDbEntity
  8
2
370
    50
100
AcDbLine
 10
-306.265416
 20
-314.245601
 30
0.0
 11
-306.265416
 21
-322.245601
 31
0.0
  0
LINE
  5
447
100
AcDbEntity
  8
2
370
    50
100
AcDbLine
 10
-305.265416
 20
-324.245601
 30
0.0
 11
-306.265416
 21
-323.245601
 31
0.0
  0
LINE
  5
448
100
AcDbEntity
  8
2
370
    50
100
AcDbLine
 10
-280.265416
 20
-314.245601
 30
0.0
 11
-280.265416
 21
-322.245601
 31
0.0
  0
LINE
  5
449
100
AcDbEntity
  8
2
370
    50
100
AcDbLine
 10
-281.265416
 20
-324.245601
 30
0.0
 11
-280.265416
 21
-323.245601
 31
0.0
  0
LINE
  5
44A
100
AcDbEntity
  8
2
370
    50
100
AcDbLine
 10
-305.265416
 20
-324.245601
 30
0.0
 11
-281.265416
 21
-324.245601
 31
0.0
  0
LINE
  5
44B
100
AcDbEntity
  8
2
370
    50
100
AcDbLine
 10
-286.337026
 20
-322.245601
 30
0.0
 11
-286.337026
 21
-314.245601
 31
0.0
  0
LINE
  5
44C
100
AcDbEntity
  8
2
370
    50
100
AcDbLine
 10
-300.193806
 20
-322.245601
 30
0.0
 11
-300.193806
 21
-314.245601
 31
0.0
  0
ARC
  5
44D
100
AcDbEntity
  8
2
370
    50
100
AcDbCircle
 10
-293.265416
 20
-299.744305
 30
0.0
 40
24.501296
100
AcDbArc
 50
253.574016
 51
286.425984
  0
ARC
  5
44E
100
AcDbEntity
  8
2
370
    50
100
AcDbCircle
 10
-283.301221
 20
-319.137545
 30
0.0
 40
5.108056
100
AcDbArc
 50
233.536034
 51
306.463966
  0
ARC
  5
44F
100
AcDbEntity
  8
2
370
    50
100
AcDbCircle
 10
-303.229611
 20
-319.137545
 30
0.0
 40
5.108056
100
AcDbArc
 50
233.536034
 51
306.463966
  0
LINE
  5
450
100
AcDbEntity
  8
2
370
    25
  6
CENTER
100
AcDbLine
 10
-293.264823
 20
-223.174916
 30
0.0
 11
-293.264823
 21
-241.975664
 31
0.0
  0
LINE
  5
451
100
AcDbEntity
  8
2
370
    50
100
AcDbLine
 10
-342.453259
 20
-174.348904
 30
0.0
 11
-353.453259
 21
-174.348904
 31
0.0
  0
LINE
  5
452
100
AcDbEntity
  8
2
370
    50
100
AcDbLine
 10
-353.953259
 20
-179.960228
 30
0.0
 11
-353.953259
 21
-174.637579
 31
0.0
  0
LINE
  5
453
100
AcDbEntity
  8
2
370
    50
100
AcDbLine
 10
-341.953259
 20
-179.960228
 30
0.0
 11
-341.953259
 21
-174.637579
 31
0.0
  0
LINE
  5
454
100
AcDbEntity
  8
2
370
    50
100
AcDbLine
 10
-345.555343
 20
-174.637579
 30
0.0
 11
-345.555343
 21
-179.960228
 31
0.0
  0
LINE
  5
455
100
AcDbEntity
  8
2
370
    50
100
AcDbLine
 10
-344.389077
 20
-174.637579
 30
0.0
 11
-344.389077
 21
-179.960228
 31
0.0
  0
LINE
  5
456
100
AcDbEntity
  8
2
370
    50
100
AcDbLine
 10
-341.991161
 20
-174.637579
 30
0.0
 11
-341.991161
 21
-179.960228
 31
0.0
  0
LINE
  5
457
100
AcDbEntity
  8
2
370
    50
100
AcDbLine
 10
-342.453259
 20
-180.248904
 30
0.0
 11
-341.953259
 21
-179.960228
 31
0.0
  0
LINE
  5
458
100
AcDbEntity
  8
2
370
    50
100
AcDbLine
 10
-344.389077
 20
-179.960228
 30
0.0
 11
-345.555343
 21
-179.960228
 31
0.0
  0
LINE
  5
459
100
AcDbEntity
  8
2
370
    50
100
AcDbLine
 10
-353.953259
 20
-179.960228
 30
0.0
 11
-353.453259
 21
-180.248904
 31
0.0
  0
LINE
  5
45A
100
AcDbEntity
  8
2
370
    50
100
AcDbLine
 10
-353.953259
 20
-174.637579
 30
0.0
 11
-353.453259
 21
-174.348904
 31
0.0
  0
ARC
  5
45B
100
AcDbEntity
  8
2
370
    50
100
AcDbCircle
 10
-347.953259
 20
-170.145274
 30
0.0
 40
10.10363
100
AcDbArc
 50
270.0
 51
283.729133
  0
ARC
  5
45C
100
AcDbEntity
  8
2
370
    50
100
AcDbCircle
 10
-347.953259
 20
-184.452533
 30
0.0
 40
10.10363
100
AcDbArc
 50
76.270867
 51
90.0
  0
LINE
  5
45D
100
AcDbEntity
  8
2
370
    50
100
AcDbLine
 10
-344.389077
 20
-174.637579
 30
0.0
 11
-345.555343
 21
-174.637579
 31
0.0
  0
LINE
  5
45E
100
AcDbEntity
  8
2
370
    50
100
AcDbLine
 10
-341.953259
 20
-179.960228
 30
0.0
 11
-341.991161
 21
-179.960228
 31
0.0
  0
ARC
  5
45F
100
AcDbEntity
  8
2
370
    50
100
AcDbCircle
 10
-343.190119
 20
-177.614743
 30
0.0
 40
2.634161
100
AcDbArc
 50
242.924933
 51
297.075067
  0
ARC
  5
460
100
AcDbEntity
  8
2
370
    50
100
AcDbCircle
 10
-343.190119
 20
-176.983064
 30
0.0
 40
2.634161
100
AcDbArc
 50
62.924933
 51
117.075067
  0
LINE
  5
461
100
AcDbEntity
  8
2
370
    50
100
AcDbLine
 10
-342.453259
 20
-174.348904
 30
0.0
 11
-341.953259
 21
-174.637579
 31
0.0
  0
ARC
  5
462
100
AcDbEntity
  8
2
370
    50
100
AcDbCircle
 10
-347.953259
 20
-170.145274
 30
0.0
 40
10.10363
100
AcDbArc
 50
256.270867
 51
270.0
  0
LINE
  5
463
100
AcDbEntity
  8
2
370
    50
100
AcDbLine
 10
-351.517441
 20
-179.960228
 30
0.0
 11
-350.351174
 21
-179.960228
 31
0.0
  0
ARC
  5
464
100
AcDbEntity
  8
2
370
    50
100
AcDbCircle
 10
-352.716398
 20
-177.614743
 30
0.0
 40
2.634161
100
AcDbArc
 50
242.924933
 51
297.075067
  0
LINE
  5
465
100
AcDbEntity
  8
2
370
    50
100
AcDbLine
 10
-353.915356
 20
-179.960228
 30
0.0
 11
-353.953259
 21
-179.960228
 31
0.0
  0
LINE
  5
466
100
AcDbEntity
  8
2
370
    50
100
AcDbLine
 10
-353.453259
 20
-180.248904
 30
0.0
 11
-342.453259
 21
-180.248904
 31
0.0
  0
LINE
  5
467
100
AcDbEntity
  8
2
370
    50
100
AcDbLine
 10
-354.553259
 20
-209.248904
 30
0.0
 11
-347.953259
 21
-209.248904
 31
0.0
  0
LINE
  5
468
100
AcDbEntity
  8
2
370
    50
100
AcDbLine
 10
-354.553259
 20
-203.748904
 30
0.0
 11
-347.953259
 21
-203.748904
 31
0.0
  0
LINE
  5
469
100
AcDbEntity
  8
2
370
    50
100
AcDbLine
 10
-354.553259
 20
-201.748904
 30
0.0
 11
-347.953259
 21
-201.748904
 31
0.0
  0
LINE
  5
46A
100
AcDbEntity
  8
2
370
    50
100
AcDbLine
 10
-354.553259
 20
-196.748904
 30
0.0
 11
-347.953259
 21
-196.748904
 31
0.0
  0
LINE
  5
46B
100
AcDbEntity
  8
2
370
    50
100
AcDbLine
 10
-354.553259
 20
-194.748904
 30
0.0
 11
-347.953259
 21
-194.748904
 31
0.0
  0
LINE
  5
46C
100
AcDbEntity
  8
2
370
    50
100
AcDbLine
 10
-354.553259
 20
-189.748904
 30
0.0
 11
-347.953259
 21
-189.748904
 31
0.0
  0
LINE
  5
46D
100
AcDbEntity
  8
2
370
    50
100
AcDbLine
 10
-354.553259
 20
-187.748904
 30
0.0
 11
-347.953259
 21
-187.748904
 31
0.0
  0
LINE
  5
46E
100
AcDbEntity
  8
2
370
    50
100
AcDbLine
 10
-354.953259
 20
-208.448904
 30
0.0
 11
-354.953259
 21
-204.548904
 31
0.0
  0
LINE
  5
46F
100
AcDbEntity
  8
2
370
    50
100
AcDbLine
 10
-354.953259
 20
-200.948904
 30
0.0
 11
-354.953259
 21
-197.548904
 31
0.0
  0
LINE
  5
470
100
AcDbEntity
  8
2
370
    50
100
AcDbLine
 10
-354.953259
 20
-193.948904
 30
0.0
 11
-354.953259
 21
-190.548904
 31
0.0
  0
LINE
  5
471
100
AcDbEntity
  8
2
370
    50
100
AcDbLine
 10
-354.953259
 20
-186.948904
 30
0.0
 11
-354.953259
 21
-181.048904
 31
0.0
  0
LINE
  5
472
100
AcDbEntity
  8
2
370
    50
100
AcDbLine
 10
-354.553259
 20
-189.748904
 30
0.0
 11
-354.553259
 21
-187.748904
 31
0.0
  0
LINE
  5
473
100
AcDbEntity
  8
2
370
    50
100
AcDbLine
 10
-354.553259
 20
-203.748904
 30
0.0
 11
-354.553259
 21
-201.748904
 31
0.0
  0
LINE
  5
474
100
AcDbEntity
  8
2
370
    50
100
AcDbLine
 10
-354.553259
 20
-196.748904
 30
0.0
 11
-354.553259
 21
-194.748904
 31
0.0
  0
ARC
  5
475
100
AcDbEntity
  8
2
370
    50
100
AcDbCircle
 10
-353.953259
 20
-186.948904
 30
0.0
 40
1.0
100
AcDbArc
 50
180.0
 51
233.130102
  0
ARC
  5
476
100
AcDbEntity
  8
2
370
    50
100
AcDbCircle
 10
-353.953259
 20
-190.548904
 30
0.0
 40
1.0
100
AcDbArc
 50
126.869898
 51
180.0
  0
ARC
  5
477
100
AcDbEntity
  8
2
370
    50
100
AcDbCircle
 10
-353.953259
 20
-193.948904
 30
0.0
 40
1.0
100
AcDbArc
 50
180.0
 51
233.130102
  0
ARC
  5
478
100
AcDbEntity
  8
2
370
    50
100
AcDbCircle
 10
-353.953259
 20
-197.548904
 30
0.0
 40
1.0
100
AcDbArc
 50
126.869898
 51
180.0
  0
ARC
  5
479
100
AcDbEntity
  8
2
370
    50
100
AcDbCircle
 10
-353.953259
 20
-200.948904
 30
0.0
 40
1.0
100
AcDbArc
 50
180.0
 51
233.130102
  0
ARC
  5
47A
100
AcDbEntity
  8
2
370
    50
100
AcDbCircle
 10
-353.953259
 20
-204.548904
 30
0.0
 40
1.0
100
AcDbArc
 50
126.869898
 51
180.0
  0
ARC
  5
47B
100
AcDbEntity
  8
2
370
    50
100
AcDbCircle
 10
-353.953259
 20
-208.448904
 30
0.0
 40
1.0
100
AcDbArc
 50
180.0
 51
233.130102
  0
LINE
  5
47C
100
AcDbEntity
  8
2
370
    50
100
AcDbLine
 10
-341.353259
 20
-209.248904
 30
0.0
 11
-347.953259
 21
-209.248904
 31
0.0
  0
ARC
  5
47D
100
AcDbEntity
  8
2
370
    50
100
AcDbCircle
 10
-341.953259
 20
-208.448904
 30
0.0
 40
1.0
100
AcDbArc
 50
306.869898
 51
360.0
  0
LINE
  5
47E
100
AcDbEntity
  8
2
370
    50
100
AcDbLine
 10
-340.953259
 20
-208.448904
 30
0.0
 11
-340.953259
 21
-204.548904
 31
0.0
  0
ARC
  5
47F
100
AcDbEntity
  8
2
370
    50
100
AcDbCircle
 10
-341.953259
 20
-204.548904
 30
0.0
 40
1.0
100
AcDbArc
 50
360.0
 51
53.130102
  0
LINE
  5
480
100
AcDbEntity
  8
2
370
    50
100
AcDbLine
 10
-341.353259
 20
-203.748904
 30
0.0
 11
-341.353259
 21
-201.748904
 31
0.0
  0
LINE
  5
481
100
AcDbEntity
  8
2
370
    50
100
AcDbLine
 10
-341.353259
 20
-203.748904
 30
0.0
 11
-347.953259
 21
-203.748904
 31
0.0
  0
LINE
  5
482
100
AcDbEntity
  8
2
370
    50
100
AcDbLine
 10
-341.353259
 20
-201.748904
 30
0.0
 11
-347.953259
 21
-201.748904
 31
0.0
  0
ARC
  5
483
100
AcDbEntity
  8
2
370
    50
100
AcDbCircle
 10
-341.953259
 20
-200.948904
 30
0.0
 40
1.0
100
AcDbArc
 50
306.869898
 51
360.0
  0
LINE
  5
484
100
AcDbEntity
  8
2
370
    50
100
AcDbLine
 10
-340.953259
 20
-200.948904
 30
0.0
 11
-340.953259
 21
-197.548904
 31
0.0
  0
ARC
  5
485
100
AcDbEntity
  8
2
370
    50
100
AcDbCircle
 10
-341.953259
 20
-197.548904
 30
0.0
 40
1.0
100
AcDbArc
 50
360.0
 51
53.130102
  0
LINE
  5
486
100
AcDbEntity
  8
2
370
    50
100
AcDbLine
 10
-341.353259
 20
-196.748904
 30
0.0
 11
-347.953259
 21
-196.748904
 31
0.0
  0
LINE
  5
487
100
AcDbEntity
  8
2
370
    50
100
AcDbLine
 10
-341.353259
 20
-196.748904
 30
0.0
 11
-341.353259
 21
-194.748904
 31
0.0
  0
LINE
  5
488
100
AcDbEntity
  8
2
370
    50
100
AcDbLine
 10
-341.353259
 20
-194.748904
 30
0.0
 11
-347.953259
 21
-194.748904
 31
0.0
  0
ARC
  5
489
100
AcDbEntity
  8
2
370
    50
100
AcDbCircle
 10
-341.953259
 20
-193.948904
 30
0.0
 40
1.0
100
AcDbArc
 50
306.869898
 51
360.0
  0
LINE
  5
48A
100
AcDbEntity
  8
2
370
    50
100
AcDbLine
 10
-340.953259
 20
-193.948904
 30
0.0
 11
-340.953259
 21
-190.548904
 31
0.0
  0
ARC
  5
48B
100
AcDbEntity
  8
2
370
    50
100
AcDbCircle
 10
-341.953259
 20
-190.548904
 30
0.0
 40
1.0
100
AcDbArc
 50
360.0
 51
53.130102
  0
LINE
  5
48C
100
AcDbEntity
  8
2
370
    50
100
AcDbLine
 10
-341.353259
 20
-189.748904
 30
0.0
 11
-347.953259
 21
-189.748904
 31
0.0
  0
LINE
  5
48D
100
AcDbEntity
  8
2
370
    50
100
AcDbLine
 10
-341.353259
 20
-189.748904
 30
0.0
 11
-341.353259
 21
-187.748904
 31
0.0
  0
LINE
  5
48E
100
AcDbEntity
  8
2
370
    50
100
AcDbLine
 10
-341.353259
 20
-187.748904
 30
0.0
 11
-347.953259
 21
-187.748904
 31
0.0
  0
ARC
  5
48F
100
AcDbEntity
  8
2
370
    50
100
AcDbCircle
 10
-341.953259
 20
-186.948904
 30
0.0
 40
1.0
100
AcDbArc
 50
306.869898
 51
360.0
  0
LINE
  5
490
100
AcDbEntity
  8
2
370
    50
100
AcDbLine
 10
-340.953259
 20
-186.948904
 30
0.0
 11
-340.953259
 21
-181.048904
 31
0.0
  0
ARC
  5
491
100
AcDbEntity
  8
2
370
    50
100
AcDbCircle
 10
-341.953259
 20
-181.048904
 30
0.0
 40
1.0
100
AcDbArc
 50
360.0
 51
53.130102
  0
LINE
  5
492
100
AcDbEntity
  8
2
370
    50
100
AcDbLine
 10
-354.553259
 20
-180.248904
 30
0.0
 11
-341.353259
 21
-180.248904
 31
0.0
  0
ARC
  5
493
100
AcDbEntity
  8
2
370
    50
100
AcDbCircle
 10
-353.953259
 20
-181.048904
 30
0.0
 40
1.0
100
AcDbArc
 50
126.869898
 51
180.0
  0
LINE
  5
494
100
AcDbEntity
  8
2
370
    50
100
AcDbLine
 10
-354.403259
 20
-216.596911
 30
0.0
 11
-354.403259
 21
-209.248904
 31
0.0
  0
LINE
  5
495
100
AcDbEntity
  8
2
370
    50
100
AcDbLine
 10
-341.503259
 20
-216.596911
 30
0.0
 11
-341.503259
 21
-209.248904
 31
0.0
  0
ARC
  5
496
100
AcDbEntity
  8
2
370
    50
100
AcDbCircle
 10
-347.953259
 20
-184.452533
 30
0.0
 40
10.10363
100
AcDbArc
 50
90.0
 51
103.729133
  0
LINE
  5
497
100
AcDbEntity
  8
2
370
    50
100
AcDbLine
 10
-351.517441
 20
-174.637579
 30
0.0
 11
-350.351174
 21
-174.637579
 31
0.0
  0
ARC
  5
498
100
AcDbEntity
  8
2
370
    50
100
AcDbCircle
 10
-352.716398
 20
-176.983064
 30
0.0
 40
2.634161
100
AcDbArc
 50
62.924933
 51
117.075067
  0
LINE
  5
499
100
AcDbEntity
  8
2
370
    50
100
AcDbLine
 10
-350.351174
 20
-174.637579
 30
0.0
 11
-350.351174
 21
-179.960228
 31
0.0
  0
LINE
  5
49A
100
AcDbEntity
  8
2
370
    50
100
AcDbLine
 10
-351.517441
 20
-174.637579
 30
0.0
 11
-351.517441
 21
-179.960228
 31
0.0
  0
LINE
  5
49B
100
AcDbEntity
  8
2
370
    50
100
AcDbLine
 10
-353.915356
 20
-174.637579
 30
0.0
 11
-353.915356
 21
-179.960228
 31
0.0
  0
ARC
  5
49C
100
AcDbEntity
  8
2
370
    50
100
AcDbCircle
 10
-351.178213
 20
-212.29685
 30
0.0
 40
5.375075
100
AcDbArc
 50
233.130102
 51
306.869898
  0
ARC
  5
49D
100
AcDbEntity
  8
2
370
    50
100
AcDbCircle
 10
-344.728123
 20
-220.896971
 30
0.0
 40
5.375075
100
AcDbArc
 50
53.130102
 51
126.869898
  0
ARC
  5
49E
100
AcDbEntity
  8
2
370
    50
100
AcDbCircle
 10
-351.178213
 20
-220.896971
 30
0.0
 40
5.375075
100
AcDbArc
 50
53.130102
 51
126.869898
  0
LINE
  5
49F
100
AcDbEntity
  8
2
370
    50
100
AcDbLine
 10
-286.26439
 20
-287.245601
 30
0.0
 11
-300.26439
 21
-287.245601
 31
0.0
  0
LINE
  5
4A0
100
AcDbEntity
  8
2
370
    50
100
AcDbLine
 10
-300.26439
 20
-287.245601
 30
0.0
 11
-300.76439
 21
-287.745601
 31
0.0
  0
LINE
  5
4A1
100
AcDbEntity
  8
2
370
    50
100
AcDbLine
 10
-285.76439
 20
-287.745601
 30
0.0
 11
-286.26439
 21
-287.245601
 31
0.0
  0
LINE
  5
4A2
100
AcDbEntity
  8
2
370
    50
100
AcDbLine
 10
-285.76439
 20
-287.745601
 30
0.0
 11
-300.76439
 21
-287.745601
 31
0.0
  0
LINE
  5
4A3
100
AcDbEntity
  8
2
370
    50
100
AcDbLine
 10
-300.76439
 20
-289.045601
 30
0.0
 11
-300.76439
 21
-287.745601
 31
0.0
  0
LINE
  5
4A4
100
AcDbEntity
  8
2
370
    50
100
AcDbLine
 10
-285.76439
 20
-289.045601
 30
0.0
 11
-285.76439
 21
-287.745601
 31
0.0
  0
LINE
  5
4A5
100
AcDbEntity
  8
2
370
    50
100
AcDbLine
 10
-293.264569
 20
-286.244503
 30
0.0
 11
-299.864823
 21
-286.244503
 31
0.0
  0
LINE
  5
4A6
100
AcDbEntity
  8
2
370
    50
100
AcDbLine
 10
-293.264569
 20
-286.244503
 30
0.0
 11
-286.664823
 21
-286.244503
 31
0.0
  0
LINE
  5
4A7
100
AcDbEntity
  8
2
370
    50
100
AcDbLine
 10
-299.864823
 20
-257.244503
 30
0.0
 11
-293.264823
 21
-257.244503
 31
0.0
  0
LINE
  5
4A8
100
AcDbEntity
  8
2
370
    50
100
AcDbLine
 10
-299.864823
 20
-262.744503
 30
0.0
 11
-293.264823
 21
-262.744503
 31
0.0
  0
LINE
  5
4A9
100
AcDbEntity
  8
2
370
    50
100
AcDbLine
 10
-299.864823
 20
-264.744503
 30
0.0
 11
-293.264823
 21
-264.744503
 31
0.0
  0
LINE
  5
4AA
100
AcDbEntity
  8
2
370
    50
100
AcDbLine
 10
-299.864823
 20
-269.744503
 30
0.0
 11
-293.264823
 21
-269.744503
 31
0.0
  0
LINE
  5
4AB
100
AcDbEntity
  8
2
370
    50
100
AcDbLine
 10
-299.864823
 20
-271.744503
 30
0.0
 11
-293.264823
 21
-271.744503
 31
0.0
  0
LINE
  5
4AC
100
AcDbEntity
  8
2
370
    50
100
AcDbLine
 10
-299.864823
 20
-276.744503
 30
0.0
 11
-293.264823
 21
-276.744503
 31
0.0
  0
LINE
  5
4AD
100
AcDbEntity
  8
2
370
    50
100
AcDbLine
 10
-299.864823
 20
-278.744503
 30
0.0
 11
-293.264823
 21
-278.744503
 31
0.0
  0
LINE
  5
4AE
100
AcDbEntity
  8
2
370
    50
100
AcDbLine
 10
-300.264823
 20
-258.044503
 30
0.0
 11
-300.264823
 21
-261.944503
 31
0.0
  0
LINE
  5
4AF
100
AcDbEntity
  8
2
370
    50
100
AcDbLine
 10
-300.264823
 20
-265.544503
 30
0.0
 11
-300.264823
 21
-268.944503
 31
0.0
  0
LINE
  5
4B0
100
AcDbEntity
  8
2
370
    50
100
AcDbLine
 10
-300.264823
 20
-272.544503
 30
0.0
 11
-300.264823
 21
-275.944503
 31
0.0
  0
LINE
  5
4B1
100
AcDbEntity
  8
2
370
    50
100
AcDbLine
 10
-300.264823
 20
-279.544503
 30
0.0
 11
-300.264823
 21
-285.444503
 31
0.0
  0
LINE
  5
4B2
100
AcDbEntity
  8
2
370
    50
100
AcDbLine
 10
-299.864823
 20
-276.744503
 30
0.0
 11
-299.864823
 21
-278.744503
 31
0.0
  0
LINE
  5
4B3
100
AcDbEntity
  8
2
370
    50
100
AcDbLine
 10
-299.864823
 20
-262.744503
 30
0.0
 11
-299.864823
 21
-264.744503
 31
0.0
  0
LINE
  5
4B4
100
AcDbEntity
  8
2
370
    50
100
AcDbLine
 10
-299.864823
 20
-269.744503
 30
0.0
 11
-299.864823
 21
-271.744503
 31
0.0
  0
ARC
  5
4B5
100
AcDbEntity
  8
2
370
    50
100
AcDbCircle
 10
-299.264823
 20
-279.544503
 30
0.0
 40
1.0
100
AcDbArc
 50
126.869898
 51
180.0
  0
ARC
  5
4B6
100
AcDbEntity
  8
2
370
    50
100
AcDbCircle
 10
-299.264823
 20
-275.944503
 30
0.0
 40
1.0
100
AcDbArc
 50
180.0
 51
233.130102
  0
ARC
  5
4B7
100
AcDbEntity
  8
2
370
    50
100
AcDbCircle
 10
-299.264823
 20
-272.544503
 30
0.0
 40
1.0
100
AcDbArc
 50
126.869898
 51
180.0
  0
ARC
  5
4B8
100
AcDbEntity
  8
2
370
    50
100
AcDbCircle
 10
-299.264823
 20
-268.944503
 30
0.0
 40
1.0
100
AcDbArc
 50
180.0
 51
233.130102
  0
ARC
  5
4B9
100
AcDbEntity
  8
2
370
    50
100
AcDbCircle
 10
-299.264823
 20
-265.544503
 30
0.0
 40
1.0
100
AcDbArc
 50
126.869898
 51
180.0
  0
ARC
  5
4BA
100
AcDbEntity
  8
2
370
    50
100
AcDbCircle
 10
-299.264823
 20
-261.944503
 30
0.0
 40
1.0
100
AcDbArc
 50
180.0
 51
233.130102
  0
ARC
  5
4BB
100
AcDbEntity
  8
2
370
    50
100
AcDbCircle
 10
-299.264823
 20
-258.044503
 30
0.0
 40
1.0
100
AcDbArc
 50
126.869898
 51
180.0
  0
LINE
  5
4BC
100
AcDbEntity
  8
2
370
    50
100
AcDbLine
 10
-286.664823
 20
-257.244503
 30
0.0
 11
-293.264823
 21
-257.244503
 31
0.0
  0
ARC
  5
4BD
100
AcDbEntity
  8
2
370
    50
100
AcDbCircle
 10
-287.264823
 20
-258.044503
 30
0.0
 40
1.0
100
AcDbArc
 50
0.0
 51
53.130102
  0
LINE
  5
4BE
100
AcDbEntity
  8
2
370
    50
100
AcDbLine
 10
-286.264823
 20
-258.044503
 30
0.0
 11
-286.264823
 21
-261.944503
 31
0.0
  0
ARC
  5
4BF
100
AcDbEntity
  8
2
370
    50
100
AcDbCircle
 10
-287.264823
 20
-261.944503
 30
0.0
 40
1.0
100
AcDbArc
 50
306.869898
 51
0.0
  0
LINE
  5
4C0
100
AcDbEntity
  8
2
370
    50
100
AcDbLine
 10
-286.664823
 20
-262.744503
 30
0.0
 11
-286.664823
 21
-264.744503
 31
0.0
  0
LINE
  5
4C1
100
AcDbEntity
  8
2
370
    50
100
AcDbLine
 10
-286.664823
 20
-262.744503
 30
0.0
 11
-293.264823
 21
-262.744503
 31
0.0
  0
LINE
  5
4C2
100
AcDbEntity
  8
2
370
    50
100
AcDbLine
 10
-286.664823
 20
-264.744503
 30
0.0
 11
-293.264823
 21
-264.744503
 31
0.0
  0
ARC
  5
4C3
100
AcDbEntity
  8
2
370
    50
100
AcDbCircle
 10
-287.264823
 20
-265.544503
 30
0.0
 40
1.0
100
AcDbArc
 50
0.0
 51
53.130102
  0
LINE
  5
4C4
100
AcDbEntity
  8
2
370
    50
100
AcDbLine
 10
-286.264823
 20
-265.544503
 30
0.0
 11
-286.264823
 21
-268.944503
 31
0.0
  0
ARC
  5
4C5
100
AcDbEntity
  8
2
370
    50
100
AcDbCircle
 10
-287.264823
 20
-268.944503
 30
0.0
 40
1.0
100
AcDbArc
 50
306.869898
 51
0.0
  0
LINE
  5
4C6
100
AcDbEntity
  8
2
370
    50
100
AcDbLine
 10
-286.664823
 20
-269.744503
 30
0.0
 11
-293.264823
 21
-269.744503
 31
0.0
  0
LINE
  5
4C7
100
AcDbEntity
  8
2
370
    50
100
AcDbLine
 10
-286.664823
 20
-269.744503
 30
0.0
 11
-286.664823
 21
-271.744503
 31
0.0
  0
LINE
  5
4C8
100
AcDbEntity
  8
2
370
    50
100
AcDbLine
 10
-286.664823
 20
-271.744503
 30
0.0
 11
-293.264823
 21
-271.744503
 31
0.0
  0
ARC
  5
4C9
100
AcDbEntity
  8
2
370
    50
100
AcDbCircle
 10
-287.264823
 20
-272.544503
 30
0.0
 40
1.0
100
AcDbArc
 50
0.0
 51
53.130102
  0
LINE
  5
4CA
100
AcDbEntity
  8
2
370
    50
100
AcDbLine
 10
-286.264823
 20
-272.544503
 30
0.0
 11
-286.264823
 21
-275.944503
 31
0.0
  0
ARC
  5
4CB
100
AcDbEntity
  8
2
370
    50
100
AcDbCircle
 10
-287.264823
 20
-275.944503
 30
0.0
 40
1.0
100
AcDbArc
 50
306.869898
 51
0.0
  0
LINE
  5
4CC
100
AcDbEntity
  8
2
370
    50
100
AcDbLine
 10
-286.664823
 20
-276.744503
 30
0.0
 11
-293.264823
 21
-276.744503
 31
0.0
  0
LINE
  5
4CD
100
AcDbEntity
  8
2
370
    50
100
AcDbLine
 10
-286.664823
 20
-276.744503
 30
0.0
 11
-286.664823
 21
-278.744503
 31
0.0
  0
LINE
  5
4CE
100
AcDbEntity
  8
2
370
    50
100
AcDbLine
 10
-286.664823
 20
-278.744503
 30
0.0
 11
-293.264823
 21
-278.744503
 31
0.0
  0
ARC
  5
4CF
100
AcDbEntity
  8
2
370
    50
100
AcDbCircle
 10
-287.264823
 20
-279.544503
 30
0.0
 40
1.0
100
AcDbArc
 50
0.0
 51
53.130102
  0
LINE
  5
4D0
100
AcDbEntity
  8
2
370
    50
100
AcDbLine
 10
-286.264823
 20
-279.544503
 30
0.0
 11
-286.264823
 21
-285.444503
 31
0.0
  0
ARC
  5
4D1
100
AcDbEntity
  8
2
370
    50
100
AcDbCircle
 10
-299.264823
 20
-285.444503
 30
0.0
 40
1.0
100
AcDbArc
 50
180.0
 51
233.130102
  0
ARC
  5
4D2
100
AcDbEntity
  8
2
370
    50
100
AcDbCircle
 10
-287.264823
 20
-285.444503
 30
0.0
 40
1.0
100
AcDbArc
 50
306.869898
 51
0.0
  0
LINE
  5
4D3
100
AcDbEntity
  8
2
370
    50
100
AcDbLine
 10
-299.714823
 20
-257.244503
 30
0.0
 11
-299.714823
 21
-238.733687
 31
0.0
  0
LINE
  5
4D4
100
AcDbEntity
  8
2
370
    50
100
AcDbLine
 10
-286.814823
 20
-257.244503
 30
0.0
 11
-286.814823
 21
-238.733687
 31
0.0
  0
LINE
  5
4D5
100
AcDbEntity
  8
2
370
    50
100
AcDbLine
 10
-299.514823
 20
-287.244503
 30
0.0
 11
-299.514823
 21
-286.244503
 31
0.0
  0
LINE
  5
4D6
100
AcDbEntity
  8
2
370
    50
100
AcDbLine
 10
-287.014823
 20
-287.244503
 30
0.0
 11
-287.014823
 21
-286.244503
 31
0.0
  0
ARC
  5
4D7
100
AcDbEntity
  8
2
370
    50
100
AcDbCircle
 10
-296.489823
 20
-234.433687
 30
0.0
 40
5.375
100
AcDbArc
 50
233.130102
 51
306.869898
  0
ARC
  5
4D8
100
AcDbEntity
  8
2
370
    50
100
AcDbCircle
 10
-290.039823
 20
-243.033687
 30
0.0
 40
5.375
100
AcDbArc
 50
53.130102
 51
126.869898
  0
ARC
  5
4D9
100
AcDbEntity
  8
2
370
    50
100
AcDbCircle
 10
-290.039823
 20
-234.433687
 30
0.0
 40
5.375
100
AcDbArc
 50
233.130102
 51
306.869898
  0
LINE
  5
4DA
100
AcDbEntity
  8
2
370
    50
100
AcDbLine
 10
-411.640668
 20
-287.245681
 30
0.0
 11
-425.640668
 21
-287.245681
 31
0.0
  0
LINE
  5
4DB
100
AcDbEntity
  8
2
370
    50
100
AcDbLine
 10
-425.640668
 20
-287.245681
 30
0.0
 11
-426.140668
 21
-287.745681
 31
0.0
  0
LINE
  5
4DC
100
AcDbEntity
  8
2
370
    50
100
AcDbLine
 10
-411.140668
 20
-287.745681
 30
0.0
 11
-411.640668
 21
-287.245681
 31
0.0
  0
LINE
  5
4DD
100
AcDbEntity
  8
2
370
    50
100
AcDbLine
 10
-411.140668
 20
-287.745681
 30
0.0
 11
-426.140668
 21
-287.745681
 31
0.0
  0
LINE
  5
4DE
100
AcDbEntity
  8
2
370
    50
100
AcDbLine
 10
-426.140668
 20
-289.045681
 30
0.0
 11
-426.140668
 21
-287.745681
 31
0.0
  0
LINE
  5
4DF
100
AcDbEntity
  8
2
370
    50
100
AcDbLine
 10
-411.140668
 20
-289.045681
 30
0.0
 11
-411.140668
 21
-287.745681
 31
0.0
  0
LINE
  5
4E0
100
AcDbEntity
  8
2
370
    50
100
AcDbLine
 10
-418.640847
 20
-286.244582
 30
0.0
 11
-425.241101
 21
-286.244582
 31
0.0
  0
LINE
  5
4E1
100
AcDbEntity
  8
2
370
    50
100
AcDbLine
 10
-418.640847
 20
-286.244582
 30
0.0
 11
-412.041101
 21
-286.244582
 31
0.0
  0
LINE
  5
4E2
100
AcDbEntity
  8
2
370
    50
100
AcDbLine
 10
-425.241101
 20
-257.244582
 30
0.0
 11
-418.641101
 21
-257.244582
 31
0.0
  0
LINE
  5
4E3
100
AcDbEntity
  8
2
370
    50
100
AcDbLine
 10
-425.241101
 20
-262.744582
 30
0.0
 11
-418.641101
 21
-262.744582
 31
0.0
  0
LINE
  5
4E4
100
AcDbEntity
  8
2
370
    50
100
AcDbLine
 10
-425.241101
 20
-264.744582
 30
0.0
 11
-418.641101
 21
-264.744582
 31
0.0
  0
LINE
  5
4E5
100
AcDbEntity
  8
2
370
    50
100
AcDbLine
 10
-425.241101
 20
-269.744582
 30
0.0
 11
-418.641101
 21
-269.744582
 31
0.0
  0
LINE
  5
4E6
100
AcDbEntity
  8
2
370
    50
100
AcDbLine
 10
-425.241101
 20
-271.744582
 30
0.0
 11
-418.641101
 21
-271.744582
 31
0.0
  0
LINE
  5
4E7
100
AcDbEntity
  8
2
370
    50
100
AcDbLine
 10
-425.241101
 20
-276.744582
 30
0.0
 11
-418.641101
 21
-276.744582
 31
0.0
  0
LINE
  5
4E8
100
AcDbEntity
  8
2
370
    50
100
AcDbLine
 10
-425.241101
 20
-278.744582
 30
0.0
 11
-418.641101
 21
-278.744582
 31
0.0
  0
LINE
  5
4E9
100
AcDbEntity
  8
2
370
    50
100
AcDbLine
 10
-425.641101
 20
-258.044582
 30
0.0
 11
-425.641101
 21
-261.944582
 31
0.0
  0
LINE
  5
4EA
100
AcDbEntity
  8
2
370
    50
100
AcDbLine
 10
-425.641101
 20
-265.544582
 30
0.0
 11
-425.641101
 21
-268.944582
 31
0.0
  0
LINE
  5
4EB
100
AcDbEntity
  8
2
370
    50
100
AcDbLine
 10
-425.641101
 20
-272.544582
 30
0.0
 11
-425.641101
 21
-275.944582
 31
0.0
  0
LINE
  5
4EC
100
AcDbEntity
  8
2
370
    50
100
AcDbLine
 10
-425.641101
 20
-279.544582
 30
0.0
 11
-425.641101
 21
-285.444582
 31
0.0
  0
LINE
  5
4ED
100
AcDbEntity
  8
2
370
    50
100
AcDbLine
 10
-425.241101
 20
-276.744582
 30
0.0
 11
-425.241101
 21
-278.744582
 31
0.0
  0
LINE
  5
4EE
100
AcDbEntity
  8
2
370
    50
100
AcDbLine
 10
-425.241101
 20
-262.744582
 30
0.0
 11
-425.241101
 21
-264.744582
 31
0.0
  0
LINE
  5
4EF
100
AcDbEntity
  8
2
370
    50
100
AcDbLine
 10
-425.241101
 20
-269.744582
 30
0.0
 11
-425.241101
 21
-271.744582
 31
0.0
  0
ARC
  5
4F0
100
AcDbEntity
  8
2
370
    50
100
AcDbCircle
 10
-424.641101
 20
-279.544582
 30
0.0
 40
1.0
100
AcDbArc
 50
126.869898
 51
180.0
  0
ARC
  5
4F1
100
AcDbEntity
  8
2
370
    50
100
AcDbCircle
 10
-424.641101
 20
-275.944582
 30
0.0
 40
1.0
100
AcDbArc
 50
180.0
 51
233.130102
  0
ARC
  5
4F2
100
AcDbEntity
  8
2
370
    50
100
AcDbCircle
 10
-424.641101
 20
-272.544582
 30
0.0
 40
1.0
100
AcDbArc
 50
126.869898
 51
180.0
  0
ARC
  5
4F3
100
AcDbEntity
  8
2
370
    50
100
AcDbCircle
 10
-424.641101
 20
-268.944582
 30
0.0
 40
1.0
100
AcDbArc
 50
180.0
 51
233.130102
  0
ARC
  5
4F4
100
AcDbEntity
  8
2
370
    50
100
AcDbCircle
 10
-424.641101
 20
-265.544582
 30
0.0
 40
1.0
100
AcDbArc
 50
126.869898
 51
180.0
  0
ARC
  5
4F5
100
AcDbEntity
  8
2
370
    50
100
AcDbCircle
 10
-424.641101
 20
-261.944582
 30
0.0
 40
1.0
100
AcDbArc
 50
180.0
 51
233.130102
  0
ARC
  5
4F6
100
AcDbEntity
  8
2
370
    50
100
AcDbCircle
 10
-424.641101
 20
-258.044582
 30
0.0
 40
1.0
100
AcDbArc
 50
126.869898
 51
180.0
  0
LINE
  5
4F7
100
AcDbEntity
  8
2
370
    50
100
AcDbLine
 10
-412.041101
 20
-257.244582
 30
0.0
 11
-418.641101
 21
-257.244582
 31
0.0
  0
ARC
  5
4F8
100
AcDbEntity
  8
2
370
    50
100
AcDbCircle
 10
-412.641101
 20
-258.044582
 30
0.0
 40
1.0
100
AcDbArc
 50
0.0
 51
53.130102
  0
LINE
  5
4F9
100
AcDbEntity
  8
2
370
    50
100
AcDbLine
 10
-411.641101
 20
-258.044582
 30
0.0
 11
-411.641101
 21
-261.944582
 31
0.0
  0
ARC
  5
4FA
100
AcDbEntity
  8
2
370
    50
100
AcDbCircle
 10
-412.641101
 20
-261.944582
 30
0.0
 40
1.0
100
AcDbArc
 50
306.869898
 51
0.0
  0
LINE
  5
4FB
100
AcDbEntity
  8
2
370
    50
100
AcDbLine
 10
-412.041101
 20
-262.744582
 30
0.0
 11
-412.041101
 21
-264.744582
 31
0.0
  0
LINE
  5
4FC
100
AcDbEntity
  8
2
370
    50
100
AcDbLine
 10
-412.041101
 20
-262.744582
 30
0.0
 11
-418.641101
 21
-262.744582
 31
0.0
  0
LINE
  5
4FD
100
AcDbEntity
  8
2
370
    50
100
AcDbLine
 10
-412.041101
 20
-264.744582
 30
0.0
 11
-418.641101
 21
-264.744582
 31
0.0
  0
ARC
  5
4FE
100
AcDbEntity
  8
2
370
    50
100
AcDbCircle
 10
-412.641101
 20
-265.544582
 30
0.0
 40
1.0
100
AcDbArc
 50
0.0
 51
53.130102
  0
LINE
  5
4FF
100
AcDbEntity
  8
2
370
    50
100
AcDbLine
 10
-411.641101
 20
-265.544582
 30
0.0
 11
-411.641101
 21
-268.944582
 31
0.0
  0
ARC
  5
500
100
AcDbEntity
  8
2
370
    50
100
AcDbCircle
 10
-412.641101
 20
-268.944582
 30
0.0
 40
1.0
100
AcDbArc
 50
306.869898
 51
0.0
  0
LINE
  5
501
100
AcDbEntity
  8
2
370
    50
100
AcDbLine
 10
-412.041101
 20
-269.744582
 30
0.0
 11
-418.641101
 21
-269.744582
 31
0.0
  0
LINE
  5
502
100
AcDbEntity
  8
2
370
    50
100
AcDbLine
 10
-412.041101
 20
-269.744582
 30
0.0
 11
-412.041101
 21
-271.744582
 31
0.0
  0
LINE
  5
503
100
AcDbEntity
  8
2
370
    50
100
AcDbLine
 10
-412.041101
 20
-271.744582
 30
0.0
 11
-418.641101
 21
-271.744582
 31
0.0
  0
ARC
  5
504
100
AcDbEntity
  8
2
370
    50
100
AcDbCircle
 10
-412.641101
 20
-272.544582
 30
0.0
 40
1.0
100
AcDbArc
 50
0.0
 51
53.130102
  0
LINE
  5
505
100
AcDbEntity
  8
2
370
    50
100
AcDbLine
 10
-411.641101
 20
-272.544582
 30
0.0
 11
-411.641101
 21
-275.944582
 31
0.0
  0
ARC
  5
506
100
AcDbEntity
  8
2
370
    50
100
AcDbCircle
 10
-412.641101
 20
-275.944582
 30
0.0
 40
1.0
100
AcDbArc
 50
306.869898
 51
0.0
  0
LINE
  5
507
100
AcDbEntity
  8
2
370
    50
100
AcDbLine
 10
-412.041101
 20
-276.744582
 30
0.0
 11
-418.641101
 21
-276.744582
 31
0.0
  0
LINE
  5
508
100
AcDbEntity
  8
2
370
    50
100
AcDbLine
 10
-412.041101
 20
-276.744582
 30
0.0
 11
-412.041101
 21
-278.744582
 31
0.0
  0
LINE
  5
509
100
AcDbEntity
  8
2
370
    50
100
AcDbLine
 10
-412.041101
 20
-278.744582
 30
0.0
 11
-418.641101
 21
-278.744582
 31
0.0
  0
ARC
  5
50A
100
AcDbEntity
  8
2
370
    50
100
AcDbCircle
 10
-412.641101
 20
-279.544582
 30
0.0
 40
1.0
100
AcDbArc
 50
0.0
 51
53.130102
  0
LINE
  5
50B
100
AcDbEntity
  8
2
370
    50
100
AcDbLine
 10
-411.641101
 20
-279.544582
 30
0.0
 11
-411.641101
 21
-285.444582
 31
0.0
  0
ARC
  5
50C
100
AcDbEntity
  8
2
370
    50
100
AcDbCircle
 10
-424.641101
 20
-285.444582
 30
0.0
 40
1.0
100
AcDbArc
 50
180.0
 51
233.130102
  0
ARC
  5
50D
100
AcDbEntity
  8
2
370
    50
100
AcDbCircle
 10
-412.641101
 20
-285.444582
 30
0.0
 40
1.0
100
AcDbArc
 50
306.869898
 51
0.0
  0
LINE
  5
50E
100
AcDbEntity
  8
2
370
    50
100
AcDbLine
 10
-425.091101
 20
-257.244582
 30
0.0
 11
-425.091101
 21
-238.733766
 31
0.0
  0
LINE
  5
50F
100
AcDbEntity
  8
2
370
    50
100
AcDbLine
 10
-412.191101
 20
-257.244582
 30
0.0
 11
-412.191101
 21
-238.733766
 31
0.0
  0
LINE
  5
510
100
AcDbEntity
  8
2
370
    50
100
AcDbLine
 10
-424.891101
 20
-287.244582
 30
0.0
 11
-424.891101
 21
-286.244582
 31
0.0
  0
LINE
  5
511
100
AcDbEntity
  8
2
370
    50
100
AcDbLine
 10
-412.391101
 20
-287.244582
 30
0.0
 11
-412.391101
 21
-286.244582
 31
0.0
  0
ARC
  5
512
100
AcDbEntity
  8
2
370
    50
100
AcDbCircle
 10
-421.866101
 20
-234.433766
 30
0.0
 40
5.375
100
AcDbArc
 50
233.130102
 51
306.869898
  0
ARC
  5
513
100
AcDbEntity
  8
2
370
    50
100
AcDbCircle
 10
-415.416101
 20
-243.033766
 30
0.0
 40
5.375
100
AcDbArc
 50
53.130102
 51
126.869898
  0
ARC
  5
514
100
AcDbEntity
  8
2
370
    50
100
AcDbCircle
 10
-415.416101
 20
-234.433766
 30
0.0
 40
5.375
100
AcDbArc
 50
233.130102
 51
306.869898
  0
LINE
  5
515
100
AcDbEntity
  8
2
370
    25
  6
CENTER
100
AcDbLine
 10
-363.953259
 20
-227.734452
 30
0.0
 11
-363.953259
 21
-213.052438
 31
0.0
  0
LINE
  5
516
100
AcDbEntity
  8
2
370
    50
100
AcDbLine
 10
-369.453259
 20
-174.348904
 30
0.0
 11
-358.453259
 21
-174.348904
 31
0.0
  0
LINE
  5
517
100
AcDbEntity
  8
2
370
    50
100
AcDbLine
 10
-357.953259
 20
-179.960228
 30
0.0
 11
-357.953259
 21
-174.637579
 31
0.0
  0
LINE
  5
518
100
AcDbEntity
  8
2
370
    50
100
AcDbLine
 10
-369.953259
 20
-179.960228
 30
0.0
 11
-369.953259
 21
-174.637579
 31
0.0
  0
LINE
  5
519
100
AcDbEntity
  8
2
370
    50
100
AcDbLine
 10
-366.351174
 20
-174.637579
 30
0.0
 11
-366.351174
 21
-179.960228
 31
0.0
  0
LINE
  5
51A
100
AcDbEntity
  8
2
370
    50
100
AcDbLine
 10
-367.517441
 20
-174.637579
 30
0.0
 11
-367.517441
 21
-179.960228
 31
0.0
  0
LINE
  5
51B
100
AcDbEntity
  8
2
370
    50
100
AcDbLine
 10
-369.915356
 20
-174.637579
 30
0.0
 11
-369.915356
 21
-179.960228
 31
0.0
  0
LINE
  5
51C
100
AcDbEntity
  8
2
370
    50
100
AcDbLine
 10
-369.453259
 20
-180.248904
 30
0.0
 11
-369.953259
 21
-179.960228
 31
0.0
  0
LINE
  5
51D
100
AcDbEntity
  8
2
370
    50
100
AcDbLine
 10
-367.517441
 20
-179.960228
 30
0.0
 11
-366.351174
 21
-179.960228
 31
0.0
  0
LINE
  5
51E
100
AcDbEntity
  8
2
370
    50
100
AcDbLine
 10
-357.953259
 20
-179.960228
 30
0.0
 11
-358.453259
 21
-180.248904
 31
0.0
  0
LINE
  5
51F
100
AcDbEntity
  8
2
370
    50
100
AcDbLine
 10
-357.953259
 20
-174.637579
 30
0.0
 11
-358.453259
 21
-174.348904
 31
0.0
  0
ARC
  5
520
100
AcDbEntity
  8
2
370
    50
100
AcDbCircle
 10
-363.953259
 20
-170.145274
 30
0.0
 40
10.10363
100
AcDbArc
 50
256.270867
 51
270.0
  0
ARC
  5
521
100
AcDbEntity
  8
2
370
    50
100
AcDbCircle
 10
-363.953259
 20
-184.452533
 30
0.0
 40
10.10363
100
AcDbArc
 50
90.0
 51
103.729133
  0
LINE
  5
522
100
AcDbEntity
  8
2
370
    50
100
AcDbLine
 10
-367.517441
 20
-174.637579
 30
0.0
 11
-366.351174
 21
-174.637579
 31
0.0
  0
LINE
  5
523
100
AcDbEntity
  8
2
370
    50
100
AcDbLine
 10
-369.953259
 20
-179.960228
 30
0.0
 11
-369.915356
 21
-179.960228
 31
0.0
  0
ARC
  5
524
100
AcDbEntity
  8
2
370
    50
100
AcDbCircle
 10
-368.716398
 20
-177.614743
 30
0.0
 40
2.634161
100
AcDbArc
 50
242.924933
 51
297.075067
  0
ARC
  5
525
100
AcDbEntity
  8
2
370
    50
100
AcDbCircle
 10
-368.716398
 20
-176.983064
 30
0.0
 40
2.634161
100
AcDbArc
 50
62.924933
 51
117.075067
  0
LINE
  5
526
100
AcDbEntity
  8
2
370
    50
100
AcDbLine
 10
-369.453259
 20
-174.348904
 30
0.0
 11
-369.953259
 21
-174.637579
 31
0.0
  0
ARC
  5
527
100
AcDbEntity
  8
2
370
    50
100
AcDbCircle
 10
-363.953259
 20
-170.145274
 30
0.0
 40
10.10363
100
AcDbArc
 50
270.0
 51
283.729133
  0
LINE
  5
528
100
AcDbEntity
  8
2
370
    50
100
AcDbLine
 10
-360.389077
 20
-179.960228
 30
0.0
 11
-361.555343
 21
-179.960228
 31
0.0
  0
ARC
  5
529
100
AcDbEntity
  8
2
370
    50
100
AcDbCircle
 10
-359.190119
 20
-177.614743
 30
0.0
 40
2.634161
100
AcDbArc
 50
242.924933
 51
297.075067
  0
LINE
  5
52A
100
AcDbEntity
  8
2
370
    50
100
AcDbLine
 10
-357.991161
 20
-179.960228
 30
0.0
 11
-357.953259
 21
-179.960228
 31
0.0
  0
LINE
  5
52B
100
AcDbEntity
  8
2
370
    50
100
AcDbLine
 10
-358.453259
 20
-180.248904
 30
0.0
 11
-369.453259
 21
-180.248904
 31
0.0
  0
LINE
  5
52C
100
AcDbEntity
  8
2
370
    50
100
AcDbLine
 10
-357.353259
 20
-209.248904
 30
0.0
 11
-363.953259
 21
-209.248904
 31
0.0
  0
LINE
  5
52D
100
AcDbEntity
  8
2
370
    50
100
AcDbLine
 10
-357.353259
 20
-203.748904
 30
0.0
 11
-363.953259
 21
-203.748904
 31
0.0
  0
LINE
  5
52E
100
AcDbEntity
  8
2
370
    50
100
AcDbLine
 10
-357.353259
 20
-201.748904
 30
0.0
 11
-363.953259
 21
-201.748904
 31
0.0
  0
LINE
  5
52F
100
AcDbEntity
  8
2
370
    50
100
AcDbLine
 10
-357.353259
 20
-196.748904
 30
0.0
 11
-363.953259
 21
-196.748904
 31
0.0
  0
LINE
  5
530
100
AcDbEntity
  8
2
370
    50
100
AcDbLine
 10
-357.353259
 20
-194.748904
 30
0.0
 11
-363.953259
 21
-194.748904
 31
0.0
  0
LINE
  5
531
100
AcDbEntity
  8
2
370
    50
100
AcDbLine
 10
-357.353259
 20
-189.748904
 30
0.0
 11
-363.953259
 21
-189.748904
 31
0.0
  0
LINE
  5
532
100
AcDbEntity
  8
2
370
    50
100
AcDbLine
 10
-357.353259
 20
-187.748904
 30
0.0
 11
-363.953259
 21
-187.748904
 31
0.0
  0
LINE
  5
533
100
AcDbEntity
  8
2
370
    50
100
AcDbLine
 10
-356.953259
 20
-208.448904
 30
0.0
 11
-356.953259
 21
-204.548904
 31
0.0
  0
LINE
  5
534
100
AcDbEntity
  8
2
370
    50
100
AcDbLine
 10
-356.953259
 20
-200.948904
 30
0.0
 11
-356.953259
 21
-197.548904
 31
0.0
  0
LINE
  5
535
100
AcDbEntity
  8
2
370
    50
100
AcDbLine
 10
-356.953259
 20
-193.948904
 30
0.0
 11
-356.953259
 21
-190.548904
 31
0.0
  0
LINE
  5
536
100
AcDbEntity
  8
2
370
    50
100
AcDbLine
 10
-356.953259
 20
-186.948904
 30
0.0
 11
-356.953259
 21
-181.048904
 31
0.0
  0
LINE
  5
537
100
AcDbEntity
  8
2
370
    50
100
AcDbLine
 10
-357.353259
 20
-189.748904
 30
0.0
 11
-357.353259
 21
-187.748904
 31
0.0
  0
LINE
  5
538
100
AcDbEntity
  8
2
370
    50
100
AcDbLine
 10
-357.353259
 20
-203.748904
 30
0.0
 11
-357.353259
 21
-201.748904
 31
0.0
  0
LINE
  5
539
100
AcDbEntity
  8
2
370
    50
100
AcDbLine
 10
-357.353259
 20
-196.748904
 30
0.0
 11
-357.353259
 21
-194.748904
 31
0.0
  0
ARC
  5
53A
100
AcDbEntity
  8
2
370
    50
100
AcDbCircle
 10
-357.953259
 20
-186.948904
 30
0.0
 40
1.0
100
AcDbArc
 50
306.869898
 51
360.0
  0
ARC
  5
53B
100
AcDbEntity
  8
2
370
    50
100
AcDbCircle
 10
-357.953259
 20
-190.548904
 30
0.0
 40
1.0
100
AcDbArc
 50
0.0
 51
53.130102
  0
ARC
  5
53C
100
AcDbEntity
  8
2
370
    50
100
AcDbCircle
 10
-357.953259
 20
-193.948904
 30
0.0
 40
1.0
100
AcDbArc
 50
306.869898
 51
360.0
  0
ARC
  5
53D
100
AcDbEntity
  8
2
370
    50
100
AcDbCircle
 10
-357.953259
 20
-197.548904
 30
0.0
 40
1.0
100
AcDbArc
 50
0.0
 51
53.130102
  0
ARC
  5
53E
100
AcDbEntity
  8
2
370
    50
100
AcDbCircle
 10
-357.953259
 20
-200.948904
 30
0.0
 40
1.0
100
AcDbArc
 50
306.869898
 51
360.0
  0
ARC
  5
53F
100
AcDbEntity
  8
2
370
    50
100
AcDbCircle
 10
-357.953259
 20
-204.548904
 30
0.0
 40
1.0
100
AcDbArc
 50
0.0
 51
53.130102
  0
ARC
  5
540
100
AcDbEntity
  8
2
370
    50
100
AcDbCircle
 10
-357.953259
 20
-208.448904
 30
0.0
 40
1.0
100
AcDbArc
 50
306.869898
 51
360.0
  0
LINE
  5
541
100
AcDbEntity
  8
2
370
    50
100
AcDbLine
 10
-370.553259
 20
-209.248904
 30
0.0
 11
-363.953259
 21
-209.248904
 31
0.0
  0
ARC
  5
542
100
AcDbEntity
  8
2
370
    50
100
AcDbCircle
 10
-369.953259
 20
-208.448904
 30
0.0
 40
1.0
100
AcDbArc
 50
180.0
 51
233.130102
  0
LINE
  5
543
100
AcDbEntity
  8
2
370
    50
100
AcDbLine
 10
-370.953259
 20
-208.448904
 30
0.0
 11
-370.953259
 21
-204.548904
 31
0.0
  0
ARC
  5
544
100
AcDbEntity
  8
2
370
    50
100
AcDbCircle
 10
-369.953259
 20
-204.548904
 30
0.0
 40
1.0
100
AcDbArc
 50
126.869898
 51
180.0
  0
LINE
  5
545
100
AcDbEntity
  8
2
370
    50
100
AcDbLine
 10
-370.553259
 20
-203.748904
 30
0.0
 11
-370.553259
 21
-201.748904
 31
0.0
  0
LINE
  5
546
100
AcDbEntity
  8
2
370
    50
100
AcDbLine
 10
-370.553259
 20
-203.748904
 30
0.0
 11
-363.953259
 21
-203.748904
 31
0.0
  0
LINE
  5
547
100
AcDbEntity
  8
2
370
    50
100
AcDbLine
 10
-370.553259
 20
-201.748904
 30
0.0
 11
-363.953259
 21
-201.748904
 31
0.0
  0
ARC
  5
548
100
AcDbEntity
  8
2
370
    50
100
AcDbCircle
 10
-369.953259
 20
-200.948904
 30
0.0
 40
1.0
100
AcDbArc
 50
180.0
 51
233.130102
  0
LINE
  5
549
100
AcDbEntity
  8
2
370
    50
100
AcDbLine
 10
-370.953259
 20
-200.948904
 30
0.0
 11
-370.953259
 21
-197.548904
 31
0.0
  0
ARC
  5
54A
100
AcDbEntity
  8
2
370
    50
100
AcDbCircle
 10
-369.953259
 20
-197.548904
 30
0.0
 40
1.0
100
AcDbArc
 50
126.869898
 51
180.0
  0
LINE
  5
54B
100
AcDbEntity
  8
2
370
    50
100
AcDbLine
 10
-370.553259
 20
-196.748904
 30
0.0
 11
-363.953259
 21
-196.748904
 31
0.0
  0
LINE
  5
54C
100
AcDbEntity
  8
2
370
    50
100
AcDbLine
 10
-370.553259
 20
-196.748904
 30
0.0
 11
-370.553259
 21
-194.748904
 31
0.0
  0
LINE
  5
54D
100
AcDbEntity
  8
2
370
    50
100
AcDbLine
 10
-370.553259
 20
-194.748904
 30
0.0
 11
-363.953259
 21
-194.748904
 31
0.0
  0
ARC
  5
54E
100
AcDbEntity
  8
2
370
    50
100
AcDbCircle
 10
-369.953259
 20
-193.948904
 30
0.0
 40
1.0
100
AcDbArc
 50
180.0
 51
233.130102
  0
LINE
  5
54F
100
AcDbEntity
  8
2
370
    50
100
AcDbLine
 10
-370.953259
 20
-193.948904
 30
0.0
 11
-370.953259
 21
-190.548904
 31
0.0
  0
ARC
  5
550
100
AcDbEntity
  8
2
370
    50
100
AcDbCircle
 10
-369.953259
 20
-190.548904
 30
0.0
 40
1.0
100
AcDbArc
 50
126.869898
 51
180.0
  0
LINE
  5
551
100
AcDbEntity
  8
2
370
    50
100
AcDbLine
 10
-370.553259
 20
-189.748904
 30
0.0
 11
-363.953259
 21
-189.748904
 31
0.0
  0
LINE
  5
552
100
AcDbEntity
  8
2
370
    50
100
AcDbLine
 10
-370.553259
 20
-189.748904
 30
0.0
 11
-370.553259
 21
-187.748904
 31
0.0
  0
LINE
  5
553
100
AcDbEntity
  8
2
370
    50
100
AcDbLine
 10
-370.553259
 20
-187.748904
 30
0.0
 11
-363.953259
 21
-187.748904
 31
0.0
  0
ARC
  5
554
100
AcDbEntity
  8
2
370
    50
100
AcDbCircle
 10
-369.953259
 20
-186.948904
 30
0.0
 40
1.0
100
AcDbArc
 50
180.0
 51
233.130102
  0
LINE
  5
555
100
AcDbEntity
  8
2
370
    50
100
AcDbLine
 10
-370.953259
 20
-186.948904
 30
0.0
 11
-370.953259
 21
-181.048904
 31
0.0
  0
ARC
  5
556
100
AcDbEntity
  8
2
370
    50
100
AcDbCircle
 10
-369.953259
 20
-181.048904
 30
0.0
 40
1.0
100
AcDbArc
 50
126.869898
 51
180.0
  0
LINE
  5
557
100
AcDbEntity
  8
2
370
    50
100
AcDbLine
 10
-357.353259
 20
-180.248904
 30
0.0
 11
-370.553259
 21
-180.248904
 31
0.0
  0
ARC
  5
558
100
AcDbEntity
  8
2
370
    50
100
AcDbCircle
 10
-357.953259
 20
-181.048904
 30
0.0
 40
1.0
100
AcDbArc
 50
0.0
 51
53.130102
  0
LINE
  5
559
100
AcDbEntity
  8
2
370
    50
100
AcDbLine
 10
-357.503259
 20
-216.596911
 30
0.0
 11
-357.503259
 21
-209.248904
 31
0.0
  0
LINE
  5
55A
100
AcDbEntity
  8
2
370
    50
100
AcDbLine
 10
-370.403259
 20
-216.596911
 30
0.0
 11
-370.403259
 21
-209.248904
 31
0.0
  0
ARC
  5
55B
100
AcDbEntity
  8
2
370
    50
100
AcDbCircle
 10
-363.953259
 20
-184.452533
 30
0.0
 40
10.10363
100
AcDbArc
 50
76.270867
 51
90.0
  0
LINE
  5
55C
100
AcDbEntity
  8
2
370
    50
100
AcDbLine
 10
-360.389077
 20
-174.637579
 30
0.0
 11
-361.555343
 21
-174.637579
 31
0.0
  0
ARC
  5
55D
100
AcDbEntity
  8
2
370
    50
100
AcDbCircle
 10
-359.190119
 20
-176.983064
 30
0.0
 40
2.634161
100
AcDbArc
 50
62.924933
 51
117.075067
  0
LINE
  5
55E
100
AcDbEntity
  8
2
370
    50
100
AcDbLine
 10
-361.555343
 20
-174.637579
 30
0.0
 11
-361.555343
 21
-179.960228
 31
0.0
  0
LINE
  5
55F
100
AcDbEntity
  8
2
370
    50
100
AcDbLine
 10
-360.389077
 20
-174.637579
 30
0.0
 11
-360.389077
 21
-179.960228
 31
0.0
  0
LINE
  5
560
100
AcDbEntity
  8
2
370
    50
100
AcDbLine
 10
-357.991161
 20
-174.637579
 30
0.0
 11
-357.991161
 21
-179.960228
 31
0.0
  0
ARC
  5
561
100
AcDbEntity
  8
2
370
    50
100
AcDbCircle
 10
-367.178394
 20
-212.29685
 30
0.0
 40
5.375075
100
AcDbArc
 50
233.130102
 51
306.869898
  0
ARC
  5
562
100
AcDbEntity
  8
2
370
    50
100
AcDbCircle
 10
-360.728304
 20
-220.896971
 30
0.0
 40
5.375075
100
AcDbArc
 50
53.130102
 51
126.869898
  0
ARC
  5
563
100
AcDbEntity
  8
2
370
    50
100
AcDbCircle
 10
-367.178394
 20
-220.896971
 30
0.0
 40
5.375075
100
AcDbArc
 50
53.130102
 51
126.869898
  0
LINE
  5
564
100
AcDbEntity
  8
2
370
    50
100
AcDbLine
 10
99.454872
 20
-179.960623
 30
0.0
 11
99.41697
 21
-179.960623
 31
0.0
  0
LINE
  5
565
100
AcDbEntity
  8
2
370
    50
100
AcDbLine
 10
87.954872
 20
-180.249298
 30
0.0
 11
98.954872
 21
-180.249298
 31
0.0
  0
LINE
  5
566
100
AcDbEntity
  8
2
370
    50
100
AcDbLine
 10
86.854872
 20
-209.249298
 30
0.0
 11
93.454872
 21
-209.249298
 31
0.0
  0
LINE
  5
567
100
AcDbEntity
  8
2
370
    50
100
AcDbLine
 10
86.854872
 20
-203.749298
 30
0.0
 11
93.454872
 21
-203.749298
 31
0.0
  0
LINE
  5
568
100
AcDbEntity
  8
2
370
    50
100
AcDbLine
 10
86.854872
 20
-201.749298
 30
0.0
 11
93.454872
 21
-201.749298
 31
0.0
  0
LINE
  5
569
100
AcDbEntity
  8
2
370
    50
100
AcDbLine
 10
86.854872
 20
-196.749298
 30
0.0
 11
93.454872
 21
-196.749298
 31
0.0
  0
LINE
  5
56A
100
AcDbEntity
  8
2
370
    50
100
AcDbLine
 10
86.854872
 20
-194.749298
 30
0.0
 11
93.454872
 21
-194.749298
 31
0.0
  0
LINE
  5
56B
100
AcDbEntity
  8
2
370
    50
100
AcDbLine
 10
86.854872
 20
-189.749298
 30
0.0
 11
93.454872
 21
-189.749298
 31
0.0
  0
LINE
  5
56C
100
AcDbEntity
  8
2
370
    50
100
AcDbLine
 10
86.854872
 20
-187.749298
 30
0.0
 11
93.454872
 21
-187.749298
 31
0.0
  0
LINE
  5
56D
100
AcDbEntity
  8
2
370
    50
100
AcDbLine
 10
86.454872
 20
-208.449298
 30
0.0
 11
86.454872
 21
-204.549298
 31
0.0
  0
LINE
  5
56E
100
AcDbEntity
  8
2
370
    50
100
AcDbLine
 10
86.454872
 20
-200.949298
 30
0.0
 11
86.454872
 21
-197.549298
 31
0.0
  0
LINE
  5
56F
100
AcDbEntity
  8
2
370
    50
100
AcDbLine
 10
86.454872
 20
-193.949298
 30
0.0
 11
86.454872
 21
-190.549298
 31
0.0
  0
LINE
  5
570
100
AcDbEntity
  8
2
370
    50
100
AcDbLine
 10
86.454872
 20
-186.949298
 30
0.0
 11
86.454872
 21
-181.049298
 31
0.0
  0
LINE
  5
571
100
AcDbEntity
  8
2
370
    50
100
AcDbLine
 10
86.854872
 20
-189.749298
 30
0.0
 11
86.854872
 21
-187.749298
 31
0.0
  0
LINE
  5
572
100
AcDbEntity
  8
2
370
    50
100
AcDbLine
 10
86.854872
 20
-203.749298
 30
0.0
 11
86.854872
 21
-201.749298
 31
0.0
  0
LINE
  5
573
100
AcDbEntity
  8
2
370
    50
100
AcDbLine
 10
86.854872
 20
-196.749298
 30
0.0
 11
86.854872
 21
-194.749298
 31
0.0
  0
ARC
  5
574
100
AcDbEntity
  8
2
370
    50
100
AcDbCircle
 10
87.454872
 20
-186.949298
 30
0.0
 40
1.0
100
AcDbArc
 50
180.0
 51
233.130102
  0
ARC
  5
575
100
AcDbEntity
  8
2
370
    50
100
AcDbCircle
 10
87.454872
 20
-190.549298
 30
0.0
 40
1.0
100
AcDbArc
 50
126.869898
 51
180.0
  0
ARC
  5
576
100
AcDbEntity
  8
2
370
    50
100
AcDbCircle
 10
87.454872
 20
-193.949298
 30
0.0
 40
1.0
100
AcDbArc
 50
180.0
 51
233.130102
  0
ARC
  5
577
100
AcDbEntity
  8
2
370
    50
100
AcDbCircle
 10
87.454872
 20
-197.549298
 30
0.0
 40
1.0
100
AcDbArc
 50
126.869898
 51
180.0
  0
ARC
  5
578
100
AcDbEntity
  8
2
370
    50
100
AcDbCircle
 10
87.454872
 20
-200.949298
 30
0.0
 40
1.0
100
AcDbArc
 50
180.0
 51
233.130102
  0
ARC
  5
579
100
AcDbEntity
  8
2
370
    50
100
AcDbCircle
 10
87.454872
 20
-204.549298
 30
0.0
 40
1.0
100
AcDbArc
 50
126.869898
 51
180.0
  0
ARC
  5
57A
100
AcDbEntity
  8
2
370
    50
100
AcDbCircle
 10
87.454872
 20
-208.449298
 30
0.0
 40
1.0
100
AcDbArc
 50
180.0
 51
233.130102
  0
LINE
  5
57B
100
AcDbEntity
  8
2
370
    50
100
AcDbLine
 10
100.054872
 20
-209.249298
 30
0.0
 11
93.454872
 21
-209.249298
 31
0.0
  0
ARC
  5
57C
100
AcDbEntity
  8
2
370
    50
100
AcDbCircle
 10
99.454872
 20
-208.449298
 30
0.0
 40
1.0
100
AcDbArc
 50
306.869898
 51
360.0
  0
LINE
  5
57D
100
AcDbEntity
  8
2
370
    50
100
AcDbLine
 10
100.454872
 20
-208.449298
 30
0.0
 11
100.454872
 21
-204.549298
 31
0.0
  0
ARC
  5
57E
100
AcDbEntity
  8
2
370
    50
100
AcDbCircle
 10
99.454872
 20
-204.549298
 30
0.0
 40
1.0
100
AcDbArc
 50
360.0
 51
53.130102
  0
LINE
  5
57F
100
AcDbEntity
  8
2
370
    50
100
AcDbLine
 10
100.054872
 20
-203.749298
 30
0.0
 11
100.054872
 21
-201.749298
 31
0.0
  0
LINE
  5
580
100
AcDbEntity
  8
2
370
    50
100
AcDbLine
 10
100.054872
 20
-203.749298
 30
0.0
 11
93.454872
 21
-203.749298
 31
0.0
  0
LINE
  5
581
100
AcDbEntity
  8
2
370
    50
100
AcDbLine
 10
100.054872
 20
-201.749298
 30
0.0
 11
93.454872
 21
-201.749298
 31
0.0
  0
ARC
  5
582
100
AcDbEntity
  8
2
370
    50
100
AcDbCircle
 10
99.454872
 20
-200.949298
 30
0.0
 40
1.0
100
AcDbArc
 50
306.869898
 51
360.0
  0
LINE
  5
583
100
AcDbEntity
  8
2
370
    50
100
AcDbLine
 10
100.454872
 20
-200.949298
 30
0.0
 11
100.454872
 21
-197.549298
 31
0.0
  0
ARC
  5
584
100
AcDbEntity
  8
2
370
    50
100
AcDbCircle
 10
99.454872
 20
-197.549298
 30
0.0
 40
1.0
100
AcDbArc
 50
360.0
 51
53.130102
  0
LINE
  5
585
100
AcDbEntity
  8
2
370
    50
100
AcDbLine
 10
100.054872
 20
-196.749298
 30
0.0
 11
93.454872
 21
-196.749298
 31
0.0
  0
LINE
  5
586
100
AcDbEntity
  8
2
370
    50
100
AcDbLine
 10
100.054872
 20
-196.749298
 30
0.0
 11
100.054872
 21
-194.749298
 31
0.0
  0
LINE
  5
587
100
AcDbEntity
  8
2
370
    50
100
AcDbLine
 10
100.054872
 20
-194.749298
 30
0.0
 11
93.454872
 21
-194.749298
 31
0.0
  0
ARC
  5
588
100
AcDbEntity
  8
2
370
    50
100
AcDbCircle
 10
99.454872
 20
-193.949298
 30
0.0
 40
1.0
100
AcDbArc
 50
306.869898
 51
360.0
  0
LINE
  5
589
100
AcDbEntity
  8
2
370
    50
100
AcDbLine
 10
100.454872
 20
-193.949298
 30
0.0
 11
100.454872
 21
-190.549298
 31
0.0
  0
ARC
  5
58A
100
AcDbEntity
  8
2
370
    50
100
AcDbCircle
 10
99.454872
 20
-190.549298
 30
0.0
 40
1.0
100
AcDbArc
 50
360.0
 51
53.130102
  0
LINE
  5
58B
100
AcDbEntity
  8
2
370
    50
100
AcDbLine
 10
100.054872
 20
-189.749298
 30
0.0
 11
93.454872
 21
-189.749298
 31
0.0
  0
LINE
  5
58C
100
AcDbEntity
  8
2
370
    50
100
AcDbLine
 10
100.054872
 20
-189.749298
 30
0.0
 11
100.054872
 21
-187.749298
 31
0.0
  0
LINE
  5
58D
100
AcDbEntity
  8
2
370
    50
100
AcDbLine
 10
100.054872
 20
-187.749298
 30
0.0
 11
93.454872
 21
-187.749298
 31
0.0
  0
ARC
  5
58E
100
AcDbEntity
  8
2
370
    50
100
AcDbCircle
 10
99.454872
 20
-186.949298
 30
0.0
 40
1.0
100
AcDbArc
 50
306.869898
 51
360.0
  0
LINE
  5
58F
100
AcDbEntity
  8
2
370
    50
100
AcDbLine
 10
100.454872
 20
-186.949298
 30
0.0
 11
100.454872
 21
-181.049298
 31
0.0
  0
ARC
  5
590
100
AcDbEntity
  8
2
370
    50
100
AcDbCircle
 10
99.454872
 20
-181.049298
 30
0.0
 40
1.0
100
AcDbArc
 50
360.0
 51
53.130102
  0
LINE
  5
591
100
AcDbEntity
  8
2
370
    50
100
AcDbLine
 10
86.854872
 20
-180.249298
 30
0.0
 11
100.054872
 21
-180.249298
 31
0.0
  0
ARC
  5
592
100
AcDbEntity
  8
2
370
    50
100
AcDbCircle
 10
87.454872
 20
-181.049298
 30
0.0
 40
1.0
100
AcDbArc
 50
126.869898
 51
180.0
  0
LINE
  5
593
100
AcDbEntity
  8
2
370
    50
100
AcDbLine
 10
87.004872
 20
-216.597305
 30
0.0
 11
87.004872
 21
-209.249298
 31
0.0
  0
ARC
  5
594
100
AcDbEntity
  8
2
370
    50
100
AcDbCircle
 10
90.229917
 20
-212.297244
 30
0.0
 40
5.375075
100
AcDbArc
 50
233.130102
 51
306.869898
  0
ARC
  5
595
100
AcDbEntity
  8
2
370
    50
100
AcDbCircle
 10
96.680008
 20
-220.897365
 30
0.0
 40
5.375075
100
AcDbArc
 50
53.130102
 51
126.869898
  0
ARC
  5
596
100
AcDbEntity
  8
2
370
    50
100
AcDbCircle
 10
90.229917
 20
-220.897365
 30
0.0
 40
5.375075
100
AcDbArc
 50
53.130102
 51
126.869898
  0
LINE
  5
597
100
AcDbEntity
  8
2
370
    50
100
AcDbLine
 10
99.904872
 20
-216.597305
 30
0.0
 11
99.904872
 21
-209.249298
 31
0.0
  0
POINT
  5
598
100
AcDbEntity
  8
2
370
    50
100
AcDbPoint
 10
99.454872
 20
-179.960623
 30
0.0
  0
LINE
  5
599
100
AcDbEntity
  8
2
370
    25
  6
DASHED
100
AcDbLine
 10
30.137095
 20
272.715272
 30
0.0
 11
29.954082
 21
272.032259
 31
0.0
  0
CIRCLE
  5
59A
100
AcDbEntity
  8
2
370
    50
100
AcDbCircle
 10
97.954872
 20
307.251082
 30
0.0
 40
17.5
  0
LINE
  5
59B
100
AcDbEntity
  8
2
370
    50
100
AcDbLine
 10
80.918147
 20
303.251082
 30
0.0
 11
21.955049
 21
303.251082
 31
0.0
  0
LINE
  5
59C
100
AcDbEntity
  8
2
370
    50
100
AcDbLine
 10
80.918147
 20
311.251082
 30
0.0
 11
21.955049
 21
311.251082
 31
0.0
  0
LINE
  5
59D
100
AcDbEntity
  8
2
370
    50
100
AcDbLine
 10
21.455049
 20
303.751082
 30
0.0
 11
21.455049
 21
310.751082
 31
0.0
  0
LINE
  5
59E
100
AcDbEntity
  8
2
370
    50
100
AcDbLine
 10
21.955049
 20
311.251082
 30
0.0
 11
21.455049
 21
310.751082
 31
0.0
  0
LINE
  5
59F
100
AcDbEntity
  8
2
370
    50
100
AcDbLine
 10
21.955049
 20
303.251082
 30
0.0
 11
21.455049
 21
303.751082
 31
0.0
  0
LINE
  5
5A0
100
AcDbEntity
  8
2
370
    50
100
AcDbLine
 10
21.955049
 20
311.251082
 30
0.0
 11
21.955049
 21
303.251082
 31
0.0
  0
ARC
  5
5A1
100
AcDbEntity
  8
2
370
    25
100
AcDbCircle
 10
97.954872
 20
307.251082
 30
0.0
 40
23.5
100
AcDbArc
 50
206.53799
 51
153.45978
  0
ARC
  5
5A2
100
AcDbEntity
  8
2
370
    50
100
AcDbCircle
 10
97.954872
 20
307.251082
 30
0.0
 40
24.0
100
AcDbArc
 50
205.943394
 51
154.054434
  0
LINE
  5
5A3
100
AcDbEntity
  8
2
370
    25
  6
CENTER
100
AcDbLine
 10
97.954872
 20
282.099776
 30
0.0
 11
97.954872
 21
332.504225
 31
0.0
  0
TEXT
  5
5A4
100
AcDbEntity
  8
2
370
    50
100
AcDbText
 10
94.912907
 20
322.872603
 30
0.0
 40
7.0
  1
Ｈ
 50
270.0
 72
     5
 11
94.912907
 21
317.272603
 31
0.0
100
AcDbText
  0
TEXT
  5
5A5
100
AcDbEntity
  8
2
370
    50
100
AcDbText
 10
95.07777
 20
299.086699
 30
0.0
 40
7.0
  1
Ｃ
 50
270.0
 72
     5
 11
95.07777
 21
293.486699
 31
0.0
100
AcDbText
  0
POINT
  5
5A6
100
AcDbEntity
  8
2
370
    50
100
AcDbPoint
 10
97.954872
 20
307.251082
 30
0.0
  0
LINE
  5
5A7
100
AcDbEntity
  8
2
370
    50
100
AcDbLine
 10
116.454872
 20
311.251082
 30
0.0
 11
114.991597
 21
311.251082
 31
0.0
  0
LINE
  5
5A8
100
AcDbEntity
  8
2
370
    25
100
AcDbLine
 10
116.454872
 20
311.251082
 30
0.0
 11
116.454872
 21
303.251082
 31
0.0
  0
ARC
  5
5A9
100
AcDbEntity
  8
2
370
    50
100
AcDbCircle
 10
109.526669
 20
307.251082
 30
0.0
 40
8.0
100
AcDbArc
 50
0.0
 51
30.0
  0
ARC
  5
5AA
100
AcDbEntity
  8
2
370
    50
100
AcDbCircle
 10
109.526669
 20
307.251082
 30
0.0
 40
8.0
100
AcDbArc
 50
330.0
 51
360.0
  0
LINE
  5
5AB
100
AcDbEntity
  8
2
370
    50
100
AcDbLine
 10
116.454872
 20
303.251082
 30
0.0
 11
114.991597
 21
303.251082
 31
0.0
  0
LINE
  5
5AC
100
AcDbEntity
  8
2
370
    50
100
AcDbLine
 10
83.954565
 20
296.751491
 30
0.0
 11
-35.045555
 21
296.751491
 31
0.0
  0
LINE
  5
5AD
100
AcDbEntity
  8
2
370
    50
100
AcDbLine
 10
83.955179
 20
317.751491
 30
0.0
 11
-35.045555
 21
317.751491
 31
0.0
  0
LINE
  5
5AE
100
AcDbEntity
  8
2
370
    50
100
AcDbLine
 10
-35.545555
 20
317.251491
 30
0.0
 11
-35.545555
 21
297.251491
 31
0.0
  0
LINE
  5
5AF
100
AcDbEntity
  8
2
370
    50
100
AcDbLine
 10
-35.045555
 20
296.751491
 30
0.0
 11
-35.545555
 21
297.251491
 31
0.0
  0
LINE
  5
5B0
100
AcDbEntity
  8
2
370
    50
100
AcDbLine
 10
-35.045555
 20
317.751491
 30
0.0
 11
-35.545555
 21
317.251491
 31
0.0
  0
LINE
  5
5B1
100
AcDbEntity
  8
2
370
    50
100
AcDbLine
 10
-35.045555
 20
317.751491
 30
0.0
 11
-35.045555
 21
296.751491
 31
0.0
  0
LINE
  5
5B2
100
AcDbEntity
  8
2
370
    25
  6
DASHED
100
AcDbLine
 10
67.755237
 20
300.516025
 30
0.0
 11
25.170319
 21
285.016382
 31
0.0
  0
LINE
  5
5B3
100
AcDbEntity
  8
2
370
    25
  6
DASHED
100
AcDbLine
 10
74.729013
 20
294.540849
 30
0.0
 11
27.90648
 21
277.498841
 31
0.0
  0
LINE
  5
5B4
100
AcDbEntity
  8
2
370
    25
  6
DASHED
100
AcDbLine
 10
24.871483
 20
284.375526
 30
0.0
 11
27.265624
 21
277.797677
 31
0.0
  0
LINE
  5
5B5
100
AcDbEntity
  8
2
370
    25
  6
DASHED
100
AcDbLine
 10
27.90648
 20
277.498841
 30
0.0
 11
27.265624
 21
277.797677
 31
0.0
  0
LINE
  5
5B6
100
AcDbEntity
  8
2
370
    25
  6
DASHED
100
AcDbLine
 10
25.170319
 20
285.016382
 30
0.0
 11
24.871483
 21
284.375526
 31
0.0
  0
LINE
  5
5B7
100
AcDbEntity
  8
2
370
    25
  6
DASHED
100
AcDbLine
 10
27.90648
 20
277.498841
 30
0.0
 11
25.170319
 21
285.016382
 31
0.0
  0
LINE
  5
5B8
100
AcDbEntity
  8
2
370
    25
  6
DASHED
100
AcDbLine
 10
80.571288
 20
329.360334
 30
0.0
 11
56.490859
 21
371.068859
 31
0.0
  0
LINE
  5
5B9
100
AcDbEntity
  8
2
370
    25
  6
DASHED
100
AcDbLine
 10
88.332812
 20
331.91698
 30
0.0
 11
63.419062
 21
375.068859
 31
0.0
  0
LINE
  5
5BA
100
AcDbEntity
  8
2
370
    25
  6
DASHED
100
AcDbLine
 10
56.673872
 20
371.751872
 30
0.0
 11
62.73605
 21
375.251872
 31
0.0
  0
LINE
  5
5BB
100
AcDbEntity
  8
2
370
    25
  6
DASHED
100
AcDbLine
 10
63.419062
 20
375.068859
 30
0.0
 11
62.73605
 21
375.251872
 31
0.0
  0
LINE
  5
5BC
100
AcDbEntity
  8
2
370
    25
  6
DASHED
100
AcDbLine
 10
56.490859
 20
371.068859
 30
0.0
 11
56.673872
 21
371.751872
 31
0.0
  0
LINE
  5
5BD
100
AcDbEntity
  8
2
370
    25
  6
DASHED
100
AcDbLine
 10
63.419062
 20
375.068859
 30
0.0
 11
56.490859
 21
371.068859
 31
0.0
  0
TEXT
  5
5BE
100
AcDbEntity
  8
2
370
    50
100
AcDbText
 10
-58.681259
 20
-243.172508
 30
0.0
 40
10.5
  1
取付面での吐水距離（１６６）
 72
     5
 11
86.218741
 21
-243.172508
 31
0.0
100
AcDbText
  0
DIMENSION
  5
5BF
100
AcDbEntity
  8
2
370
    25
100
AcDbDimension
  2
*D0
 10
97.954872
 20
-244.672508
 30
0.0
 11
14.818741
 21
-242.672508
 31
0.0
 71
     0
 72
     0
 41
0.0
 42
0.0
  3
Standard
100
AcDbAlignedDimension
 13
-68.317391
 23
-105.849298
 33
0.0
 14
97.954872
 24
-151.80011
 34
0.0
100
AcDbRotatedDimension
  0
TEXT
  5
5C0
100
AcDbEntity
  8
3
370
    50
100
AcDbText
 10
-406.802292
 20
-93.373907
 30
0.0
 40
10.5
  1
取付穴径　φ３７±１
 50
90.0
 72
     5
 11
-406.802292
 21
9.526093
 31
0.0
100
AcDbText
  0
POINT
  5
5C1
100
AcDbEntity
  8
3
370
    50
100
AcDbPoint
 10
34.89221
 20
117.878901
 30
0.0
  0
TEXT
  5
5C2
100
AcDbEntity
  8
3
370
    50
100
AcDbText
 10
343.996307
 20
-408.501572
 30
0.0
 40
10.5
  1
外観寸法図
 72
     5
 11
394.396307
 21
-408.501572
 31
0.0
100
AcDbText
  0
TEXT
  5
5C3
100
AcDbEntity
  8
3
370
    50
100
AcDbText
 10
433.673767
 20
-359.558281
 30
0.0
 40
10.5
  1
１
 72
     5
 11
442.073767
 21
-359.558281
 31
0.0
100
AcDbText
  0
DIMENSION
  5
5C4
100
AcDbEntity
  8
3
370
    25
100
AcDbDimension
  2
*D1
 10
-331.953258
 20
-82.12393
 30
0.0
 11
-304.203258
 21
-75.37393
 31
0.0
 70
     1
 71
     0
 72
     0
 41
0.0
 42
0.0
  3
Standard
100
AcDbAlignedDimension
 13
-379.953258
 23
-102.349298
 33
0.0
 14
-331.953258
 24
-102.349298
 34
0.0
  0
LINE
  5
5C5
100
AcDbEntity
  8
3
370
    25
100
AcDbLine
 10
-386.541258
 20
-123.849298
 30
0.0
 11
-422.71006
 21
-123.849298
 31
0.0
  0
LINE
  5
5C6
100
AcDbEntity
  8
3
370
    25
100
AcDbLine
 10
-419.71006
 20
-123.849298
 30
0.0
 11
-421.262974
 21
-129.644853
 31
0.0
  0
LINE
  5
5C7
100
AcDbEntity
  8
3
370
    25
100
AcDbLine
 10
-419.71006
 20
-123.849298
 30
0.0
 11
-418.157146
 21
-129.644853
 31
0.0
  0
LINE
  5
5C8
100
AcDbEntity
  8
3
370
    25
100
AcDbLine
 10
-421.262974
 20
-129.644853
 30
0.0
 11
-418.157146
 21
-129.644853
 31
0.0
  0
LINE
  5
5C9
100
AcDbEntity
  8
3
370
    25
100
AcDbLine
 10
-419.71006
 20
-138.849298
 30
0.0
 11
-419.71006
 21
8.822823
 31
0.0
  0
LINE
  5
5CA
100
AcDbEntity
  8
3
370
    25
100
AcDbLine
 10
-419.71006
 20
-105.849298
 30
0.0
 11
-418.157146
 21
-100.053743
 31
0.0
  0
LINE
  5
5CB
100
AcDbEntity
  8
3
370
    25
100
AcDbLine
 10
-419.71006
 20
-105.849298
 30
0.0
 11
-421.262974
 21
-100.053743
 31
0.0
  0
LINE
  5
5CC
100
AcDbEntity
  8
3
370
    25
100
AcDbLine
 10
-418.157146
 20
-100.053743
 30
0.0
 11
-421.262974
 21
-100.053743
 31
0.0
  0
LINE
  5
5CD
100
AcDbEntity
  8
3
370
    25
100
AcDbLine
 10
-382.453258
 20
-105.849298
 30
0.0
 11
-422.71006
 21
-105.849298
 31
0.0
  0
TEXT
  5
5CE
100
AcDbEntity
  8
3
370
    50
100
AcDbText
 10
-421.21006
 20
-93.849298
 30
0.0
 40
10.5
  1
０～２５
 50
90.0
 72
     5
 11
-421.21006
 21
-53.949298
 31
0.0
100
AcDbText
  0
TEXT
  5
5CF
100
AcDbEntity
  8
3
370
    50
100
AcDbText
 10
-307.957451
 20
-150.516918
 30
0.0
 40
10.5
  1
４６六角
 72
     5
 11
-268.057451
 21
-150.516918
 31
0.0
100
AcDbText
  0
LWPOLYLINE
  5
5D0
100
AcDbEntity
  8
3
370
    25
100
AcDbPolyline
 90
        3
 70
     0
 10
-330.893402
 20
-133.70137
 10
-306.74614
 20
-151.484264
 10
-265.60051
 20
-151.484264
  0
LINE
  5
5D5
100
AcDbEntity
  8
3
370
    25
100
AcDbLine
 10
-326.22675
 20
-137.138057
 30
0.0
 11
-325.305893
 21
-135.887631
 31
0.0
  0
LINE
  5
5D6
100
AcDbEntity
  8
3
370
    25
100
AcDbLine
 10
-325.305893
 20
-135.887631
 30
0.0
 11
-330.893402
 21
-133.70137
 31
0.0
  0
LINE
  5
5D7
100
AcDbEntity
  8
3
370
    25
100
AcDbLine
 10
-330.893402
 20
-133.70137
 30
0.0
 11
-327.147608
 21
-138.388483
 31
0.0
  0
LINE
  5
5D8
100
AcDbEntity
  8
3
370
    25
100
AcDbLine
 10
-327.147608
 20
-138.388483
 30
0.0
 11
-326.22675
 21
-137.138057
 31
0.0
  0
LINE
  5
5D9
100
AcDbEntity
  8
3
370
    25
  6
CENTER
100
AcDbLine
 10
97.954872
 20
-151.80011
 30
0.0
 11
97.954872
 21
97.546677
 31
0.0
  0
TEXT
  5
5DA
100
AcDbEntity
  8
3
370
    50
100
AcDbText
 10
456.286835
 20
-359.769493
 30
0.0
 40
10.5
  1
３
 72
     5
 11
464.686835
 21
-359.769493
 31
0.0
100
AcDbText
  0
TEXT
  5
5DB
100
AcDbEntity
  8
3
370
    50
100
AcDbText
 10
97.327068
 20
-343.255119
 30
0.0
 40
10.5
  1
台付シングルレバー湯水混合水栓（共）
 72
     5
 11
284.227068
 21
-343.255119
 31
0.0
100
AcDbText
  0
TEXT
  5
5DC
100
AcDbEntity
  8
3
370
    50
100
AcDbText
 10
-274.512577
 20
-336.816865
 30
0.0
 40
10.5
  1
Ｇ１/２
 72
     5
 11
-239.862577
 21
-336.816865
 31
0.0
100
AcDbText
  0
LWPOLYLINE
  5
5DD
100
AcDbEntity
  8
3
370
    25
100
AcDbPolyline
 90
        3
 70
     0
 10
-283.947575
 20
-324.245601
 10
-275.212399
 20
-337.764436
 10
-237.459892
 20
-337.764436
  0
LINE
  5
5E2
100
AcDbEntity
  8
3
370
    25
100
AcDbLine
 10
-280.802256
 20
-329.113396
 30
0.0
 11
-279.497934
 21
-328.27061
 31
0.0
  0
LINE
  5
5E3
100
AcDbEntity
  8
3
370
    25
100
AcDbLine
 10
-279.497934
 20
-328.27061
 30
0.0
 11
-283.947575
 21
-324.245601
 31
0.0
  0
LINE
  5
5E4
100
AcDbEntity
  8
3
370
    25
100
AcDbLine
 10
-283.947575
 20
-324.245601
 30
0.0
 11
-282.106578
 21
-329.956181
 31
0.0
  0
LINE
  5
5E5
100
AcDbEntity
  8
3
370
    25
100
AcDbLine
 10
-282.106578
 20
-329.956181
 30
0.0
 11
-280.802256
 21
-329.113396
 31
0.0
  0
LWPOLYLINE
  5
5E6
100
AcDbEntity
  8
3
370
    25
100
AcDbPolyline
 90
        3
 70
     0
 10
-307.121617
 20
-316.969255
 10
-315.063015
 20
-324.605287
 10
-355.707962
 20
-324.605287
  0
LINE
  5
5EB
100
AcDbEntity
  8
3
370
    25
100
AcDbLine
 10
-311.299225
 20
-320.986224
 30
0.0
 11
-310.222882
 21
-322.105611
 31
0.0
  0
LINE
  5
5EC
100
AcDbEntity
  8
3
370
    25
100
AcDbLine
 10
-310.222882
 20
-322.105611
 30
0.0
 11
-307.121617
 21
-316.969255
 31
0.0
  0
LINE
  5
5ED
100
AcDbEntity
  8
3
370
    25
100
AcDbLine
 10
-307.121617
 20
-316.969255
 30
0.0
 11
-312.375569
 21
-319.866837
 31
0.0
  0
LINE
  5
5EE
100
AcDbEntity
  8
3
370
    25
100
AcDbLine
 10
-312.375569
 20
-319.866837
 30
0.0
 11
-311.299225
 21
-320.986224
 31
0.0
  0
TEXT
  5
5EF
100
AcDbEntity
  8
3
370
    50
100
AcDbText
 10
23.713646
 20
72.590064
 30
0.0
 40
7.0
  1
止水
 72
     5
 11
36.313646
 21
72.590064
 31
0.0
100
AcDbText
  0
TEXT
  5
5F0
100
AcDbEntity
  8
3
370
    50
100
AcDbText
 10
61.23719
 20
110.842963
 30
0.0
 40
7.0
  1
吐水
 72
     5
 11
73.83719
 21
110.842963
 31
0.0
100
AcDbText
  0
POINT
  5
5F1
100
AcDbEntity
  8
3
370
    50
100
AcDbPoint
 10
34.89221
 20
117.878901
 30
0.0
  0
POINT
  5
5F2
100
AcDbEntity
  8
3
370
    50
100
AcDbPoint
 10
123.545754
 20
86.374683
 30
0.0
  0
TEXT
  5
5F3
100
AcDbEntity
  8
3
370
    50
100
AcDbText
 10
103.750313
 20
111.455184
 30
0.0
 40
10.5
  1
２６
 72
     5
 11
122.650313
 21
111.455184
 31
0.0
100
AcDbText
  0
DIMENSION
  5
5F4
100
AcDbEntity
  8
3
370
    25
100
AcDbDimension
  2
*D2
 10
123.545754
 20
110.455184
 30
0.0
 11
110.750313
 21
112.455184
 31
0.0
 71
     0
 72
     0
 41
0.0
 42
0.0
  3
Standard
100
AcDbAlignedDimension
 13
97.954872
 23
96.385756
 33
0.0
 14
123.545754
 24
86.374683
 34
0.0
100
AcDbRotatedDimension
  0
DIMENSION
  5
5F5
100
AcDbEntity
  8
3
370
    25
100
AcDbDimension
  2
*D3
 10
48.991686
 20
90.750702
 30
0.0
 11
13.18179
 21
129.415429
 31
0.0
 70
     2
 71
     0
 72
     0
 41
0.0
 42
0.0
  3
Standard
100
AcDb2LineAngularDimension
 13
75.562743
 23
101.446939
 33
0.0
 14
102.036859
 24
90.750702
 34
0.0
 15
102.036859
 25
90.750702
 35
0.0
 16
10.156429
 26
108.610449
 36
0.0
1001
ACAD
1000
DSTYLE
1002
{
1070
   275
1070
     0
1070
   179
1070
     0
1002
}
  0
DIMENSION
  5
5F6
100
AcDbEntity
  8
3
370
    25
100
AcDbDimension
  2
*D4
 10
115.454872
 20
51.87094
 30
0.0
 11
139.204872
 21
58.12094
 31
0.0
 70
     1
 71
     0
 72
     0
 41
0.0
 42
0.0
  3
Standard
100
AcDbAlignedDimension
 13
80.454872
 23
51.87094
 33
0.0
 14
115.454872
 24
51.87094
 34
0.0
  0
DIMENSION
  5
5F7
100
AcDbEntity
  8
3
370
    25
100
AcDbDimension
  2
*D5
 10
46.203911
 20
17.650702
 30
0.0
 11
29.453911
 21
-0.849298
 31
0.0
 70
     1
 71
     0
 72
     0
 41
0.0
 42
0.0
  3
Standard
100
AcDbAlignedDimension
 13
46.203911
 23
38.650702
 33
0.0
 14
46.203911
 24
17.650702
 34
0.0
 50
270.0
  0
POINT
  5
5F8
100
AcDbEntity
  8
3
370
    50
100
AcDbPoint
 10
-25.359722
 20
12.175928
 30
0.0
  0
DIMENSION
  5
5F9
100
AcDbEntity
  8
3
370
    25
100
AcDbDimension
  2
*D6
 10
-25.359722
 20
12.172965
 30
0.0
 11
-9.649219
 21
-19.65956
 31
0.0
 70
     2
 71
     0
 72
     0
 41
0.0
 42
0.0
  3
Standard
100
AcDb2LineAngularDimension
 13
-25.360735
 23
12.173144
 33
0.0
 14
-25.359722
 24
12.175928
 34
0.0
 15
-25.359722
 25
12.175928
 35
0.0
 16
-30.50383
 26
-16.997756
 36
0.0
1001
ACAD
1000
DSTYLE
1002
{
1070
   275
1070
     0
1070
   179
1070
     0
1002
}
  0
POINT
  5
5FA
100
AcDbEntity
  8
3
370
    50
100
AcDbPoint
 10
97.954872
 20
-41.849298
 30
0.0
  0
POINT
  5
5FB
100
AcDbEntity
  8
3
370
    50
100
AcDbPoint
 10
-418.640508
 20
-317.245681
 30
0.0
  0
POINT
  5
5FC
100
AcDbEntity
  8
3
370
    50
100
AcDbPoint
 10
-293.265416
 20
-317.245601
 30
0.0
  0
TEXT
  5
5FD
100
AcDbEntity
  8
3
370
    50
100
AcDbText
 10
-357.295721
 20
-324.416436
 30
0.0
 40
10.5
  1
２４六角
 72
     5
 11
-317.395721
 21
-324.416436
 31
0.0
100
AcDbText
  0
TEXT
  5
5FE
100
AcDbEntity
  8
3
370
    50
100
AcDbText
 10
-480.892983
 20
-327.110555
 30
0.0
 40
10.5
  1
２４六角
 72
     5
 11
-440.992983
 21
-327.110555
 31
0.0
100
AcDbText
  0
TEXT
  5
5FF
100
AcDbEntity
  8
3
370
    50
100
AcDbText
 10
-486.037133
 20
-343.842649
 30
0.0
 40
10.5
  1
Ｇ１／２
 72
     5
 11
-446.137133
 21
-343.842649
 31
0.0
100
AcDbText
  0
LWPOLYLINE
  5
600
100
AcDbEntity
  8
3
370
    25
100
AcDbPolyline
 90
        3
 70
     0
 10
-422.109673
 20
-324.564559
 10
-443.64454
 20
-345.338559
 10
-484.990519
 20
-345.338559
  0
LINE
  5
605
100
AcDbEntity
  8
3
370
    25
100
AcDbLine
 10
-426.280773
 20
-328.588286
 30
0.0
 11
-425.202619
 21
-329.705929
 31
0.0
  0
LINE
  5
606
100
AcDbEntity
  8
3
370
    25
100
AcDbLine
 10
-425.202619
 20
-329.705929
 30
0.0
 11
-422.109673
 21
-324.564559
 31
0.0
  0
LINE
  5
607
100
AcDbEntity
  8
3
370
    25
100
AcDbLine
 10
-422.109673
 20
-324.564559
 30
0.0
 11
-427.358928
 21
-327.470643
 31
0.0
  0
LINE
  5
608
100
AcDbEntity
  8
3
370
    25
100
AcDbLine
 10
-427.358928
 20
-327.470643
 30
0.0
 11
-426.280773
 21
-328.588286
 31
0.0
  0
LWPOLYLINE
  5
609
100
AcDbEntity
  8
3
370
    25
100
AcDbPolyline
 90
        3
 70
     0
 10
-431.495537
 20
-318.545598
 10
-439.555367
 20
-328.113484
 10
-482.835734
 20
-328.113484
  0
LINE
  5
60E
100
AcDbEntity
  8
3
370
    25
100
AcDbLine
 10
-435.229383
 20
-322.978075
 30
0.0
 11
-434.041704
 21
-323.978556
 31
0.0
  0
LINE
  5
60F
100
AcDbEntity
  8
3
370
    25
100
AcDbLine
 10
-434.041704
 20
-323.978556
 30
0.0
 11
-431.495537
 21
-318.545598
 31
0.0
  0
LINE
  5
610
100
AcDbEntity
  8
3
370
    25
100
AcDbLine
 10
-431.495537
 20
-318.545598
 30
0.0
 11
-436.417062
 21
-321.977594
 31
0.0
  0
LINE
  5
611
100
AcDbEntity
  8
3
370
    25
100
AcDbLine
 10
-436.417062
 20
-321.977594
 30
0.0
 11
-435.229383
 21
-322.978075
 31
0.0
  0
LINE
  5
612
100
AcDbEntity
  8
3
370
    25
  6
CENTER
100
AcDbLine
 10
124.141247
 20
307.251082
 30
0.0
 11
-38.24831
 21
307.251082
 31
0.0
  0
LINE
  5
613
100
AcDbEntity
  8
3
370
    25
  6
CENTER
100
AcDbLine
 10
97.954872
 20
307.251082
 30
0.0
 11
23.479706
 21
280.144338
 31
0.0
  0
LINE
  5
614
100
AcDbEntity
  8
3
370
    25
  6
CENTER
100
AcDbLine
 10
58.578157
 20
375.453553
 30
0.0
 11
97.954872
 21
307.251082
 31
0.0
  0
TEXT
  5
615
100
AcDbEntity
  8
3
370
    50
100
AcDbText
 10
114.705189
 20
331.900618
 30
0.0
 40
7.0
  1
湯表示
 72
     5
 11
134.305189
 21
331.900618
 31
0.0
100
AcDbText
  0
LWPOLYLINE
  5
616
100
AcDbEntity
  8
3
370
    25
100
AcDbPolyline
 90
        2
 70
     0
 10
102.171635
 20
321.063094
 10
113.6684
 20
334.707808
  0
LINE
  5
61A
100
AcDbEntity
  8
3
370
    25
100
AcDbLine
 10
105.90599
 20
325.495141
 30
0.0
 11
104.718426
 21
326.495759
 31
0.0
  0
LINE
  5
61B
100
AcDbEntity
  8
3
370
    25
100
AcDbLine
 10
104.718426
 20
326.495759
 30
0.0
 11
102.171635
 21
321.063094
 31
0.0
  0
LINE
  5
61C
100
AcDbEntity
  8
3
370
    25
100
AcDbLine
 10
102.171635
 20
321.063094
 30
0.0
 11
107.093554
 21
324.494524
 31
0.0
  0
LINE
  5
61D
100
AcDbEntity
  8
3
370
    25
100
AcDbLine
 10
107.093554
 20
324.494524
 30
0.0
 11
105.90599
 21
325.495141
 31
0.0
  0
TEXT
  5
61E
100
AcDbEntity
  8
3
370
    50
100
AcDbText
 10
116.325115
 20
274.772353
 30
0.0
 40
7.0
  1
水表示
 72
     5
 11
135.925115
 21
274.772353
 31
0.0
100
AcDbText
  0
LWPOLYLINE
  5
61F
100
AcDbEntity
  8
3
370
    25
100
AcDbPolyline
 90
        2
 70
     0
 10
102.890148
 20
293.568373
 10
114.900143
 20
278.076964
  0
LINE
  5
623
100
AcDbEntity
  8
3
370
    25
100
AcDbLine
 10
106.441108
 20
288.988074
 30
0.0
 11
107.668395
 21
289.939551
 31
0.0
  0
LINE
  5
624
100
AcDbEntity
  8
3
370
    25
100
AcDbLine
 10
107.668395
 20
289.939551
 30
0.0
 11
102.890148
 21
293.568373
 31
0.0
  0
LINE
  5
625
100
AcDbEntity
  8
3
370
    25
100
AcDbLine
 10
102.890148
 20
293.568373
 30
0.0
 11
105.21382
 21
288.036597
 31
0.0
  0
LINE
  5
626
100
AcDbEntity
  8
3
370
    25
100
AcDbLine
 10
105.21382
 20
288.036597
 30
0.0
 11
106.441108
 21
288.988074
 31
0.0
  0
TEXT
  5
627
100
AcDbEntity
  8
3
370
    50
100
AcDbText
 10
4.705138
 20
319.79103
 30
0.0
 40
7.0
  1
ハンドル回転角度
 50
90.0
 72
     5
 11
4.705138
 21
374.39103
 31
0.0
100
AcDbText
  0
DIMENSION
  5
628
100
AcDbEntity
  8
3
370
    25
100
AcDbDimension
  2
*D7
 10
31.767861
 20
307.251082
 30
0.0
 11
34.159662
 21
368.331975
 31
0.0
 70
     2
 71
     0
 72
     0
 41
0.0
 42
0.0
  3
Standard
100
AcDb2LineAngularDimension
 13
65.613447
 23
363.268073
 33
0.0
 14
97.954872
 24
307.251082
 34
0.0
 15
97.954872
 25
307.251082
 35
0.0
 16
23.659662
 26
350.145442
 36
0.0
1001
ACAD
1000
DSTYLE
1002
{
1070
   275
1070
     0
1070
   179
1070
     0
1002
}
  0
DIMENSION
  5
629
100
AcDbEntity
  8
3
370
    25
100
AcDbDimension
  2
*D8
 10
35.757528
 20
284.6131
 30
0.0
 11
17.117082
 21
271.67324
 31
0.0
 70
     2
 71
     0
 72
     0
 41
0.0
 42
0.0
  3
Standard
100
AcDb2LineAngularDimension
 13
2.887476
 23
307.251082
 33
0.0
 14
97.954872
 24
307.251082
 34
0.0
 15
97.954872
 25
307.251082
 35
0.0
 16
13.470471
 26
292.354203
 36
0.0
1001
ACAD
1000
DSTYLE
1002
{
1070
   275
1070
     0
1070
   179
1070
     0
1002
}
  0
POINT
  5
62A
100
AcDbEntity
  8
3
370
    50
100
AcDbPoint
 10
-16.949473
 20
9.114847
 30
0.0
  0
DIMENSION
  5
62B
100
AcDbEntity
  8
3
370
    25
100
AcDbDimension
  2
*D9
 10
-9.944598
 20
9.114847
 30
0.0
 11
-27.194598
 21
-53.617225
 31
0.0
 71
     0
 72
     0
 41
0.0
 42
0.0
  3
Standard
100
AcDbAlignedDimension
 13
74.454872
 23
-105.849298
 33
0.0
 14
-16.949473
 24
9.114847
 34
0.0
 50
90.0
100
AcDbRotatedDimension
  0
DIMENSION
  5
62C
100
AcDbEntity
  8
3
370
    25
100
AcDbDimension
  2
*D10
 10
-55.339319
 20
117.878901
 30
0.0
 11
-72.589319
 21
0.764802
 31
0.0
 71
     0
 72
     0
 41
0.0
 42
0.0
  3
Standard
100
AcDbAlignedDimension
 13
74.454872
 23
-105.849298
 33
0.0
 14
34.89221
 24
117.878901
 34
0.0
 50
90.0
100
AcDbRotatedDimension
  0
POINT
  5
62D
100
AcDbEntity
  8
3
370
    50
100
AcDbPoint
 10
332.621063
 20
-5.449298
 30
0.0
  0
LINE
  5
62E
100
AcDbEntity
  8
3
370
    25
  6
CENTER
100
AcDbLine
 10
-20.303759
 20
26.067073
 30
0.0
 11
-68.317391
 21
-105.849298
 31
0.0
  0
POINT
  5
62F
100
AcDbEntity
  8
3
370
    50
100
AcDbPoint
 10
-68.317391
 20
-105.849298
 30
0.0
  0
TEXT
  5
630
100
AcDbEntity
  8
3
370
    50
100
AcDbText
 10
512.489502
 20
-409.468369
 30
0.0
 40
9.0
  1
１１０２７１
 72
     5
 11
564.689502
 21
-409.468369
 31
0.0
100
AcDbText
  0
TEXT
  5
631
100
AcDbEntity
  8
3
370
    50
100
AcDbText
 10
516.690811
 20
-383.787231
 30
0.0
 40
9.0
  1
２１　１０　０４
 72
     5
 11
586.890811
 21
-383.787231
 31
0.0
100
AcDbText
  0
TEXT
  5
632
100
AcDbEntity
  8
3
370
    50
100
AcDbText
 10
97.327068
 20
-355.255119
 30
0.0
 40
10.5
  1
ＭＬＺ５５３ＭＭＭＥ
 72
     5
 11
200.227068
 21
-355.255119
 31
0.0
100
AcDbText
  0
TEXT
  5
633
100
AcDbEntity
  8
3
370
    50
100
AcDbText
 10
-186.646133
 20
-264.047449
 30
0.0
 40
10.5
  1
３８０（水側、湯側）
 50
90.0
 72
     5
 11
-186.646134
 21
-161.147449
 31
0.0
100
AcDbText
  0
DIMENSION
  5
634
100
AcDbEntity
  8
3
370
    25
100
AcDbDimension
  2
*D11
 10
-185.146133
 20
-105.849298
 30
0.0
 11
-187.646133
 21
-211.547449
 31
0.0
 71
     0
 72
     0
 41
0.0
 42
0.0
  3
Standard
100
AcDbAlignedDimension
 13
-293.265416
 23
-317.245601
 33
0.0
 14
-332.453258
 24
-105.849298
 34
0.0
 50
90.0
100
AcDbRotatedDimension
  0
LINE
  5
635
100
AcDbEntity
  8
3
370
    25
100
AcDbLine
 10
74.454872
 20
-105.849298
 30
0.0
 11
-68.317391
 21
-105.849298
 31
0.0
  0
ENDSEC
  0
SECTION
  2
OBJECTS
  0
DICTIONARY
  5
6BF
100
AcDbDictionary
280
     0
281
     1
  3
ACAD_GROUP
350
6C0
  3
ACAD_MLINESTYLE
350
6C1
  0
DICTIONARY
  5
6C0
102
{ACAD_REACTORS
330
6BF
102
}
100
AcDbDictionary
280
     0
281
     1
  0
DICTIONARY
  5
6C1
102
{ACAD_REACTORS
330
6BF
102
}
100
AcDbDictionary
280
     0
281
     1
  3
Standard
350
6C2
  0
MLINESTYLE
  5
6C2
102
{ACAD_REACTORS
330
6C1
102
}
100
AcDbMlineStyle
  2
Standard
 70
     0
  3

 62
     0
 51
90.0
 52
90.0
 71
     2
 49
0.5
 62
   256
  6
ByLayer
 49
-0.5
 62
   256
  6
ByLayer
  0
ENDSEC
  0
EOF
