  0
SECTION
  2
HEADER
  9
$ACADVER
  1
AC1015
  9
$ACADMAINTVER
 70
     6
  9
$DWGCODEPAGE
  3
ANSI_932
  9
$INSBASE
 10
0.0
 20
0.0
 30
0.0
  9
$EXTMIN
 10
-1261.5
 20
-891.0
 30
1.000000E+20
  9
$EXTMAX
 10
1261.5
 20
891.0
 30
-1.000000E+20
  9
$LIMMIN
 10
-1261.5
 20
-891.0
  9
$LIMMAX
 10
1261.5
 20
891.0
  9
$ORTHOMODE
 70
     0
  9
$REGENMODE
 70
     1
  9
$FILLMODE
 70
     1
  9
$QTEXTMODE
 70
     0
  9
$MIRRTEXT
 70
     1
  9
$LTSCALE
 40
1.0
  9
$ATTMODE
 70
     1
  9
$TEXTSIZE
 40
0.2
  9
$TRACEWID
 40
0.05
  9
$TEXTSTYLE
  7
STANDARD
  9
$CLAYER
  8
0
  9
$CELTYPE
  6
CONTINUOUS
  9
$CECOLOR
 62
   256
  9
$CELTSCALE
 40
1.0
  9
$DISPSILH
 70
     0
  9
$DIMSCALE
 40
3.0
  9
$DIMASZ
 40
2.0
  9
$DIMEXO
 40
1.0
  9
$DIMDLI
 40
0.38
  9
$DIMRND
 40
0.0
  9
$DIMDLE
 40
0.0
  9
$DIMEXE
 40
2.0
  9
$DIMTP
 40
0.0
  9
$DIMTM
 40
0.0
  9
$DIMTXT
 40
3.5
  9
$DIMCEN
 40
0.09
  9
$DIMTSZ
 40
0.0
  9
$DIMTOL
 70
     0
  9
$DIMLIM
 70
     0
  9
$DIMTIH
 70
     0
  9
$DIMTOH
 70
     0
  9
$DIMSE1
 70
     0
  9
$DIMSE2
 70
     0
  9
$DIMTAD
 70
     1
  9
$DIMZIN
 70
     0
  9
$DIMBLK
  1

  9
$DIMASO
 70
     1
  9
$DIMSHO
 70
     1
  9
$DIMPOST
  1

  9
$DIMAPOST
  1

  9
$DIMALT
 70
     0
  9
$DIMALTD
 70
     2
  9
$DIMALTF
 40
25.4
  9
$DIMLFAC
 40
1.0
  9
$DIMTOFL
 70
     0
  9
$DIMTVP
 40
0.0
  9
$DIMTIX
 70
     0
  9
$DIMSOXD
 70
     0
  9
$DIMSAH
 70
     0
  9
$DIMBLK1
  1

  9
$DIMBLK2
  1

  9
$DIMSTYLE
  2
Standard
  9
$DIMCLRD
 70
     0
  9
$DIMCLRE
 70
     0
  9
$DIMCLRT
 70
     0
  9
$DIMTFAC
 40
1.0
  9
$DIMGAP
 40
0.5
  9
$DIMJUST
 70
     0
  9
$DIMSD1
 70
     0
  9
$DIMSD2
 70
     0
  9
$DIMTOLJ
 70
     1
  9
$DIMTZIN
 70
     0
  9
$DIMALTZ
 70
     0
  9
$DIMALTTZ
 70
     0
  9
$DIMUPT
 70
     0
  9
$DIMDEC
 70
     3
  9
$DIMTDEC
 70
     4
  9
$DIMALTU
 70
     2
  9
$DIMALTTD
 70
     2
  9
$DIMTXSTY
  7
STANDARD
  9
$DIMAUNIT
 70
     0
  9
$DIMADEC
 70
     0
  9
$DIMALTRND
 40
0.0
  9
$DIMAZIN
 70
     0
  9
$DIMDSEP
 70
     0
  9
$DIMATFIT
 70
     3
  9
$DIMFRAC
 70
     0
  9
$DIMLDRBLK
  1

  9
$DIMLUNIT
 70
     2
  9
$DIMLWD
 70
     0
  9
$DIMLWE
 70
     0
  9
$DIMTMOVE
 70
     0
  9
$LUNITS
 70
     2
  9
$LUPREC
 70
     4
  9
$SKETCHINC
 40
0.1
  9
$FILLETRAD
 40
0.0
  9
$AUNITS
 70
     0
  9
$AUPREC
 70
     0
  9
$MENU
  1
acad
  9
$ELEVATION
 40
0.0
  9
$PELEVATION
 40
0.0
  9
$THICKNESS
 40
0.0
  9
$LIMCHECK
 70
     0
  9
$CHAMFERA
 40
0.0
  9
$CHAMFERB
 40
0.0
  9
$CHAMFERC
 40
0.0
  9
$CHAMFERD
 40
0.0
  9
$SKPOLY
 70
     0
  9
$TDCREATE
 40
2454497.000000000
  9
$TDUCREATE
 40
0.000000000
  9
$TDUPDATE
 40
0.000000000
  9
$TDUUPDATE
 40
2447892.625000000
  9
$TDINDWG
 40
0.0000000000
  9
$TDUSRTIMER
 40
0.0000000000
  9
$USRTIMER
 70
     1
  9
$ANGBASE
 50
0.0
  9
$ANGDIR
 70
     0
  9
$PDMODE
 70
     0
  9
$PDSIZE
 40
0.0
  9
$PLINEWID
 40
0.0
  9
$SPLFRAME
 70
     0
  9
$SPLINETYPE
 70
     6
  9
$SPLINESEGS
 70
     8
  9
$HANDSEED
  5
6E8
  9
$SURFTAB1
 70
     6
  9
$SURFTAB2
 70
     6
  9
$SURFTYPE
 70
     6
  9
$SURFU
 70
     6
  9
$SURFV
 70
     6
  9
$UCSBASE
  2

  9
$UCSNAME
  2

  9
$UCSORG
 10
0.0
 20
0.0
 30
0.0
  9
$UCSXDIR
 10
1.0
 20
0.0
 30
0.0
  9
$UCSYDIR
 10
0.0
 20
1.0
 30
0.0
  9
$UCSORTHOREF
  2

  9
$UCSORTHOVIEW
 70
     0
  9
$UCSORGTOP
 10
0.0
 20
0.0
 30
0.0
  9
$UCSORGBOTTOM
 10
0.0
 20
0.0
 30
0.0
  9
$UCSORGLEFT
 10
0.0
 20
0.0
 30
0.0
  9
$UCSORGRIGHT
 10
0.0
 20
0.0
 30
0.0
  9
$UCSORGFRONT
 10
0.0
 20
0.0
 30
0.0
  9
$UCSORGBACK
 10
0.0
 20
0.0
 30
0.0
  9
$PUCSBASE
  2

  9
$PUCSNAME
  2

  9
$PUCSORG
 10
0.0
 20
0.0
 30
0.0
  9
$PUCSXDIR
 10
1.0
 20
0.0
 30
0.0
  9
$PUCSYDIR
 10
0.0
 20
1.0
 30
0.0
  9
$PUCSORTHOREF
  2

  9
$PUCSORTHOVIEW
 70
     0
  9
$PUCSORGTOP
 10
0.0
 20
0.0
 30
0.0
  9
$PUCSORGBOTTOM
 10
0.0
 20
0.0
 30
0.0
  9
$PUCSORGLEFT
 10
0.0
 20
0.0
 30
0.0
  9
$PUCSORGRIGHT
 10
0.0
 20
0.0
 30
0.0
  9
$PUCSORGFRONT
 10
0.0
 20
0.0
 30
0.0
  9
$PUCSORGBACK
 10
0.0
 20
0.0
 30
0.0
  9
$USERI1
 70
     0
  9
$USERI2
 70
     0
  9
$USERI3
 70
     0
  9
$USERI4
 70
     0
  9
$USERI5
 70
     0
  9
$USERR1
 40
0.0
  9
$USERR2
 40
0.0
  9
$USERR3
 40
0.0
  9
$USERR4
 40
0.0
  9
$USERR5
 40
0.0
  9
$WORLDVIEW
 70
     1
  9
$SHADEDGE
 70
     3
  9
$SHADEDIF
 70
    70
  9
$TILEMODE
 70
     1
  9
$MAXACTVP
 70
    16
  9
$PINSBASE
 10
0.0
 20
0.0
 30
0.0
  9
$PLIMCHECK
 70
     0
  9
$PEXTMIN
 10
1.000000E+20
 20
1.000000E+20
 30
1.000000E+20
  9
$PEXTMAX
 10
-1.000000E+20
 20
-1.000000E+20
 30
-1.000000E+20
  9
$PLIMMIN
 10
0.0
 20
0.0
  9
$PLIMMAX
 10
12.0
 20
9.0
  9
$UNITMODE
 70
     0
  9
$VISRETAIN
 70
     0
  9
$PLINEGEN
 70
     1
  9
$PSLTSCALE
 70
     0
  9
$TREEDEPTH
 70
  3020
  9
$CMLSTYLE
  2
Standard
  9
$CMLJUST
 70
     0
  9
$CMLSCALE
 40
1.0
  9
$PROXYGRAPHICS
 70
     0
  9
$MEASUREMENT
 70
     0
  9
$CELWEIGHT
370
     0
  9
$ENDCAPS
280
     0
  9
$JOINSTYLE
280
     0
  9
$LWDISPLAY
290
     0
  9
$INSUNITS
 70
     0
  9
$HYPERLINKBASE
  1

  9
$STYLESHEET
  1

  9
$XEDIT
290
     1
  9
$CEPSNTYPE
380
     0
  9
$PSTYLEMODE
290
     1
  9
$FINGERPRINTGUID
  2

  9
$VERSIONGUID
  2

  9
$EXTNAMES
290
     1
  9
$PSVPSCALE
 40
0.0
  0
ENDSEC
  0
SECTION
  2
CLASSES
  0
CLASS
  1
LWPOLYLINE
  2
AcDbPolyline
  3
AutoCAD 2000
 90
        0
280
     0
281
     1
  0
CLASS
  1
IMAGE
  2
AcDbRasterImage
  3
ISM
 90
      127
280
     0
281
     1
  0
CLASS
  1
OLE2FRAME
  2
AcDbOle2Frame
  3
AutoCAD 2000
 90
        0
280
     0
281
     1
  0
CLASS
  1
HATCH
  2
AcDbHatch
  3
AutoCAD 2000
 90
        0
280
     0
281
     1
  0
CLASS
  1
DICTIONARYVAR
  2
AcDbDictionaryVar
  3
AutoCAD 2000
 90
        0
280
     0
281
     0
  0
CLASS
  1
RASTERVARIABLES
  2
AcDbRasterVariables
  3
ISM
 90
        0
280
     0
281
     0
  0
CLASS
  1
IMAGEDEF
  2
AcDbRasterImageDef
  3
ISM
 90
        0
280
     0
281
     0
  0
CLASS
  1
IMAGEDEF_REACTOR
  2
AcDbRasterImageDefReactor
  3
ISM
 90
        1
280
     0
281
     0
  0
CLASS
  1
IDBUFFER
  2
AcDbIdBuffer
  3
AutoCAD 2000
 90
        0
280
     0
281
     0
  0
CLASS
  1
SPATIAL_FILTER
  2
AcDbSpatialFilter
  3
AutoCAD 2000
 90
        0
280
     0
281
     0
  0
CLASS
  1
XRECORD
  2
AcDbXrecord
  3
AutoCAD 2000
 90
        0
280
     0
281
     0
  0
CLASS
  1
SORTENTSTABLE
  2
AcDbSortentsTable
  3
AutoCAD 2000
 90
        0
280
     0
281
     0
  0
CLASS
  1
LAYER_INDEX
  2
AcDbLayerIndex
  3
AutoCAD 2000
 90
        0
280
     0
281
     0
  0
CLASS
  1
SPATIAL_INDEX
  2
AcDbSpatialIndex
  3
AutoCAD 2000
 90
        0
280
     0
281
     0
  0
CLASS
  1
OBJECT_PTR
  2
CAseDLPNTableRecord
  3
"ASE-LPNTableRecord"
 90
        1
280
     0
281
     0
  0
CLASS
  1
LAYOUT
  2
AcDbLayout
  3
AutoCAD 2000
 90
        0
280
     0
281
     0
  0
CLASS
  1
PLOTSETTINGS
  2
AcDbPlotSettings
  3
AutoCAD 2000
 90
        0
280
     0
281
     0
  0
CLASS
  1
ACDBDICTIONARYWDFLT
  2
AcDbDictionaryWithDefault
  3
AutoCAD 2000
 90
        0
280
     0
281
     0
  0
CLASS
  1
ACDBPLACEHOLDER
  2
AcDbPlaceHolder
  3
AutoCAD 2000
 90
        0
280
     0
281
     0
  0
CLASS
  1
VBA_PROJECT
  2
AcDbVbaProject
  3
acadvba
 90
        0
280
     0
281
     0
  0
CLASS
  1
WIPEOUT
  2
AcDbWipeout
  3
WipeOut|AutoCAD Express Tool|expresstools@autodesk.com
 90
      127
280
     0
281
     1
  0
CLASS
  1
WIPEOUTVARIABLES
  2
AcDbWipeoutVariables
  3
WipeOut|AutoCAD Express Tool|expresstools@autodesk.com
 90
        0
280
     0
281
     0
  0
CLASS
  1
RTEXT
  2
RText
  3
RText|AutoCAD Express Tool|expresstools@autodesk.com
 90
        0
280
     0
281
     1
  0
CLASS
  1
ARCALIGNEDTEXT
  2
AcDbArcAlignedText
  3
ATEXT|AutoCAD Express Tool|expresstools@autodesk.com
 90
        0
280
     0
281
     1
  0
ENDSEC
  0
SECTION
  2
TABLES
  0
TABLE
  2
VPORT
  5
6
100
AcDbSymbolTable
 70
     1
  0
VPORT
  5
19
100
AcDbSymbolTableRecord
100
AcDbViewportTableRecord
  2
*ACTIVE
 70
     0
 10
0.0
 20
0.0
 11
1.0
 21
1.0
 12
0.0
 22
0.0
 13
0.0
 23
0.0
 14
1.0
 24
1.0
 15
0.0
 25
0.0
 16
0.0
 26
0.0
 36
1.0
 17
0.0
 27
0.0
 37
0.0
 40
1782.0
 41
1.415825
 42
50.0
 43
0.0
 44
0.0
 50
0.0
 51
0.0
 71
     0
 72
   500
 73
     1
 74
     1
 75
     0
 76
     0
 77
     0
 78
     0
281
     0
 65
     0
110
0.0
120
0.0
130
0.0
111
1.0
121
0.0
131
0.0
112
0.0
122
1.0
132
0.0
345
0
346
0
 79
     0
146
0.0
  0
ENDTAB
  0
TABLE
  2
LTYPE
  5
3
100
AcDbSymbolTable
 70
     9
  0
LTYPE
  5
C
100
AcDbSymbolTableRecord
100
AcDbLinetypeTableRecord
  2
ByBlock
 70
    64
  3

 72
    65
 73
     0
 40
0.0
  0
LTYPE
  5
D
100
AcDbSymbolTableRecord
100
AcDbLinetypeTableRecord
  2
ByLayer
 70
    64
  3

 72
    65
 73
     0
 40
0.0
  0
LTYPE
  5
E
100
AcDbSymbolTableRecord
100
AcDbLinetypeTableRecord
  2
CONTINUOUS
 70
     0
  3
Solid line
 72
    65
 73
     0
 40
0.0
  0
LTYPE
  5
F
100
AcDbSymbolTableRecord
100
AcDbLinetypeTableRecord
  2
DASHED
 70
     0
  3
__ __ __ __ __ __ __ __ __ __ __ __ __ __ __
 72
    65
 73
     2
 40
2.0
 49
1.2
 74
     0
 49
-0.8
 74
     0
  0
LTYPE
  5
10
100
AcDbSymbolTableRecord
100
AcDbLinetypeTableRecord
  2
CENTER
 70
     0
  3
____ _ ____ _ ____ _ ____ _ ____ _ ____ _ ____
 72
    65
 73
     4
 40
12.0
 49
9.0
 74
     0
 49
-1.0
 74
     0
 49
1.0
 74
     0
 49
-1.0
 74
     0
  0
LTYPE
  5
11
100
AcDbSymbolTableRecord
100
AcDbLinetypeTableRecord
  2
HIDDEN
 70
     0
  3
_ _ _ _ _ _ _ _ _ _ _ _ _ _ _ _ _ _ _ _ _ _ _
 72
    65
 73
     2
 40
3.2
 49
2.4
 74
     0
 49
-0.8
 74
     0
  0
LTYPE
  5
12
100
AcDbSymbolTableRecord
100
AcDbLinetypeTableRecord
  2
PHANTOM
 70
     0
  3
_____ _ _ _____ _ _ _____ _ _ _____ _ _ _____
 72
    65
 73
     6
 40
13.5
 49
9.0
 74
     0
 49
-1.0
 74
     0
 49
1.0
 74
     0
 49
-0.5
 74
     0
 49
1.0
 74
     0
 49
-1.0
 74
     0
  0
LTYPE
  5
13
100
AcDbSymbolTableRecord
100
AcDbLinetypeTableRecord
  2
DOT
 70
     0
  3
...............................................
 72
    65
 73
     2
 40
1.0
 49
0.5
 74
     0
 49
-0.5
 74
     0
  0
LTYPE
  5
14
100
AcDbSymbolTableRecord
100
AcDbLinetypeTableRecord
  2
DASHDOT
 70
     0
  3
__ . __ . __ . __ . __ . __ . __ . __ . __ . __
 72
    65
 73
     4
 40
8.0
 49
5.0
 74
     0
 49
-1.0
 74
     0
 49
1.0
 74
     0
 49
-1.0
 74
     0
  0
ENDTAB
  0
TABLE
  2
LAYER
  5
1
100
AcDbSymbolTable
 70
     4
  0
LAYER
  5
15
100
AcDbSymbolTableRecord
100
AcDbLayerTableRecord
  2
0
 70
     0
 62
   225
  6
CONTINUOUS
290
     1
370
    -3
390
0
  0
LAYER
  5
16
100
AcDbSymbolTableRecord
100
AcDbLayerTableRecord
  2
1
 70
     0
 62
     2
  6
CONTINUOUS
290
     1
370
    -3
390
0
  0
LAYER
  5
17
100
AcDbSymbolTableRecord
100
AcDbLayerTableRecord
  2
2
 70
     0
 62
     3
  6
CONTINUOUS
290
     1
370
    -3
390
0
  0
LAYER
  5
18
100
AcDbSymbolTableRecord
100
AcDbLayerTableRecord
  2
3
 70
     0
 62
     4
  6
CONTINUOUS
290
     1
370
    -3
390
0
  0
ENDTAB
  0
TABLE
  2
STYLE
  5
2
100
AcDbSymbolTable
 70
     1
  0
STYLE
  5
1B
100
AcDbSymbolTableRecord
100
AcDbTextStyleTableRecord
  2
STANDARD
 70
    64
 40
0.0
 41
1.0
 50
0.0
 71
     0
 42
1.0
  3
txt
  4
BIGFONT
  0
ENDTAB
  0
TABLE
  2
VIEW
  5
4
100
AcDbSymbolTable
 70
     0
  0
ENDTAB
  0
TABLE
  2
UCS
  5
5
100
AcDbSymbolTable
 70
     0
  0
ENDTAB
  0
TABLE
  2
APPID
  5
7
100
AcDbSymbolTable
 70
     1
  0
APPID
  5
1A
100
AcDbSymbolTableRecord
100
AcDbRegAppTableRecord
  2
ACAD
 70
     0
  0
ENDTAB
  0
TABLE
  2
DIMSTYLE
  5
8
100
AcDbSymbolTable
 70
     1
100
AcDbDimStyleTable
 71
     0
  0
DIMSTYLE
105
2F
100
AcDbSymbolTableRecord
100
AcDbDimStyleTableRecord
  2
Standard
 70
     0
  3

  4

 40
3.0
 41
2.0
 42
1.0
 43
0.38
 44
2.0
 45
0.0
 46
0.0
 47
0.0
 48
0.0
 71
     0
 72
     0
 73
     0
 74
     0
 75
     0
 76
     0
 77
     1
 78
     0
 79
     0
140
3.5
141
0.09
142
0.0
143
25.4
144
1.0
145
0.0
146
1.0
147
0.5
148
0.0
170
     0
171
     2
172
     0
173
     0
174
     0
175
     0
176
     0
177
     0
178
     0
179
     0
271
     3
272
     4
273
     2
274
     2
275
     0
276
     0
277
     2
278
    46
279
     0
280
     0
281
     0
282
     0
283
     1
284
     0
285
     0
286
     0
288
     0
289
     3
340
1B
341
0
342
0
343
0
344
0
371
    -2
372
    -2
  0
ENDTAB
  0
TABLE
  2
BLOCK_RECORD
  5
2A
100
AcDbSymbolTable
 70
    12
  0
BLOCK_RECORD
  5
28
100
AcDbSymbolTableRecord
100
AcDbBlockTableRecord
  2
*Model_Space
340
0
  0
BLOCK_RECORD
  5
29
100
AcDbSymbolTableRecord
100
AcDbBlockTableRecord
  2
*Paper_Space
340
0
  0
BLOCK_RECORD
  5
1C
100
AcDbSymbolTableRecord
100
AcDbBlockTableRecord
  2
*D0
340
0
  0
BLOCK_RECORD
  5
1D
100
AcDbSymbolTableRecord
100
AcDbBlockTableRecord
  2
*D1
340
0
  0
BLOCK_RECORD
  5
1E
100
AcDbSymbolTableRecord
100
AcDbBlockTableRecord
  2
*D2
340
0
  0
BLOCK_RECORD
  5
1F
100
AcDbSymbolTableRecord
100
AcDbBlockTableRecord
  2
*D3
340
0
  0
BLOCK_RECORD
  5
20
100
AcDbSymbolTableRecord
100
AcDbBlockTableRecord
  2
*D4
340
0
  0
BLOCK_RECORD
  5
21
100
AcDbSymbolTableRecord
100
AcDbBlockTableRecord
  2
*D5
340
0
  0
BLOCK_RECORD
  5
22
100
AcDbSymbolTableRecord
100
AcDbBlockTableRecord
  2
*D6
340
0
  0
BLOCK_RECORD
  5
23
100
AcDbSymbolTableRecord
100
AcDbBlockTableRecord
  2
*D7
340
0
  0
BLOCK_RECORD
  5
24
100
AcDbSymbolTableRecord
100
AcDbBlockTableRecord
  2
*D8
340
0
  0
BLOCK_RECORD
  5
25
100
AcDbSymbolTableRecord
100
AcDbBlockTableRecord
  2
*D9
340
0
  0
BLOCK_RECORD
  5
26
100
AcDbSymbolTableRecord
100
AcDbBlockTableRecord
  2
*D10
340
0
  0
BLOCK_RECORD
  5
27
100
AcDbSymbolTableRecord
100
AcDbBlockTableRecord
  2
*D11
340
0
  0
ENDTAB
  0
ENDSEC
  0
SECTION
  2
BLOCKS
  0
BLOCK
  5
2B
100
AcDbEntity
  8
0
390
0
100
AcDbBlockBegin
  2
*Model_Space
 70
     0
 10
0.0
 20
0.0
 30
0.0
  3
*Model_Space
  1

  0
ENDBLK
  5
2C
100
AcDbEntity
  8
0
390
0
100
AcDbBlockEnd
  0
BLOCK
  5
2D
100
AcDbEntity
 67
     1
  8
0
390
0
100
AcDbBlockBegin
  2
*Paper_Space
 70
     0
 10
0.0
 20
0.0
 30
0.0
  3
*Paper_Space
  1

  0
ENDBLK
  5
2E
100
AcDbEntity
 67
     1
  8
0
390
0
100
AcDbBlockEnd
  0
BLOCK
  5
659
100
AcDbEntity
  8
3
100
AcDbBlockBegin
  2
*D0
 70
     1
 10
0.0
 20
0.0
 30
0.0
  3
*D0
  1

  0
TEXT
  5
65A
100
AcDbEntity
  8
3
370
    25
100
AcDbText
 10
-33.304326
 20
68.198013
 30
0.0
 40
10.5
  1
４０゜
 50
340.0
 72
     5
 11
-5.677363
 21
58.142621
 31
0.0
100
AcDbText
  0
LINE
  5
65B
100
AcDbEntity
  8
3
370
    25
100
AcDbLine
 10
-14.445519
 20
92.312215
 30
0.0
 11
-35.611941
 21
67.087055
 31
0.0
  0
LINE
  5
65C
100
AcDbEntity
  8
3
370
    25
100
AcDbLine
 10
-12.517156
 20
91.610348
 30
0.0
 11
-12.517156
 21
58.681241
 31
0.0
  0
LINE
  5
65D
100
AcDbEntity
  8
3
370
    25
100
AcDbLine
 10
-33.683578
 20
69.385189
 30
0.0
 11
-29.822956
 21
64.792194
 31
0.0
  0
LINE
  5
65E
100
AcDbEntity
  8
3
370
    25
100
AcDbLine
 10
-33.683578
 20
69.385189
 30
0.0
 11
-28.043684
 21
67.33785
 31
0.0
  0
LINE
  5
65F
100
AcDbEntity
  8
3
370
    25
100
AcDbLine
 10
-29.822956
 20
64.792194
 30
0.0
 11
-28.043684
 21
67.33785
 31
0.0
  0
LINE
  5
660
100
AcDbEntity
  8
3
370
    25
100
AcDbLine
 10
-12.517156
 20
61.681241
 30
0.0
 11
-18.153569
 21
63.738142
 31
0.0
  0
LINE
  5
661
100
AcDbEntity
  8
3
370
    25
100
AcDbLine
 10
-12.517156
 20
61.681241
 30
0.0
 11
-18.426884
 21
60.644363
 31
0.0
  0
LINE
  5
662
100
AcDbEntity
  8
3
370
    25
100
AcDbLine
 10
-18.153569
 20
63.738142
 30
0.0
 11
-18.426884
 21
60.644363
 31
0.0
  0
ARC
  5
663
100
AcDbEntity
  8
3
370
    25
100
AcDbCircle
 10
-12.517156
 20
94.610348
 30
0.0
 40
32.929107
100
AcDbArc
 50
230.0
 51
270.0
  0
ENDBLK
  5
664
100
AcDbEntity
  8
3
100
AcDbBlockEnd
  0
BLOCK
  5
665
100
AcDbEntity
  8
3
100
AcDbBlockBegin
  2
*D1
 70
     1
 10
0.0
 20
0.0
 30
0.0
  3
*D1
  1

  0
TEXT
  5
666
100
AcDbEntity
  8
3
370
    25
100
AcDbText
 10
-319.953258
 20
-80.62393
 30
0.0
 40
10.5
  1
φ４８
 72
     5
 11
-290.553258
 21
-80.62393
 31
0.0
100
AcDbText
  0
LINE
  5
667
100
AcDbEntity
  8
3
370
    25
100
AcDbLine
 10
-379.953258
 20
-99.349298
 30
0.0
 11
-379.953258
 21
-79.12393
 31
0.0
  0
LINE
  5
668
100
AcDbEntity
  8
3
370
    25
100
AcDbLine
 10
-379.953258
 20
-82.12393
 30
0.0
 11
-385.748813
 21
-80.571016
 31
0.0
  0
LINE
  5
669
100
AcDbEntity
  8
3
370
    25
100
AcDbLine
 10
-379.953258
 20
-82.12393
 30
0.0
 11
-385.748813
 21
-83.676844
 31
0.0
  0
LINE
  5
66A
100
AcDbEntity
  8
3
370
    25
100
AcDbLine
 10
-385.748813
 20
-80.571016
 30
0.0
 11
-385.748813
 21
-83.676844
 31
0.0
  0
LINE
  5
66B
100
AcDbEntity
  8
3
370
    25
100
AcDbLine
 10
-394.953258
 20
-82.12393
 30
0.0
 11
-288.453258
 21
-82.12393
 31
0.0
  0
LINE
  5
66C
100
AcDbEntity
  8
3
370
    25
100
AcDbLine
 10
-331.953258
 20
-82.12393
 30
0.0
 11
-326.157703
 21
-83.676844
 31
0.0
  0
LINE
  5
66D
100
AcDbEntity
  8
3
370
    25
100
AcDbLine
 10
-331.953258
 20
-82.12393
 30
0.0
 11
-326.157703
 21
-80.571016
 31
0.0
  0
LINE
  5
66E
100
AcDbEntity
  8
3
370
    25
100
AcDbLine
 10
-326.157703
 20
-83.676844
 30
0.0
 11
-326.157703
 21
-80.571016
 31
0.0
  0
LINE
  5
66F
100
AcDbEntity
  8
3
370
    25
100
AcDbLine
 10
-331.953258
 20
-99.349298
 30
0.0
 11
-331.953258
 21
-79.12393
 31
0.0
  0
ENDBLK
  5
670
100
AcDbEntity
  8
3
100
AcDbBlockEnd
  0
BLOCK
  5
671
100
AcDbEntity
  8
3
100
AcDbBlockBegin
  2
*D2
 70
     1
 10
0.0
 20
0.0
 30
0.0
  3
*D2
  1

  0
LINE
  5
672
100
AcDbEntity
  8
3
370
    25
100
AcDbLine
 10
-12.517156
 20
91.610348
 30
0.0
 11
-12.517156
 21
-157.682636
 31
0.0
  0
LINE
  5
673
100
AcDbEntity
  8
3
370
    25
100
AcDbLine
 10
-12.517156
 20
-154.682636
 30
0.0
 11
-6.721601
 21
-156.235551
 31
0.0
  0
LINE
  5
674
100
AcDbEntity
  8
3
370
    25
100
AcDbLine
 10
-12.517156
 20
-154.682636
 30
0.0
 11
-6.721601
 21
-153.129722
 31
0.0
  0
LINE
  5
675
100
AcDbEntity
  8
3
370
    25
100
AcDbLine
 10
-6.721601
 20
-156.235551
 30
0.0
 11
-6.721601
 21
-153.129722
 31
0.0
  0
LINE
  5
676
100
AcDbEntity
  8
3
370
    25
100
AcDbLine
 10
-12.517156
 20
-154.682636
 30
0.0
 11
97.954872
 21
-154.682636
 31
0.0
  0
LINE
  5
677
100
AcDbEntity
  8
3
370
    25
100
AcDbLine
 10
97.954872
 20
-154.682636
 30
0.0
 11
92.159317
 21
-153.129722
 31
0.0
  0
LINE
  5
678
100
AcDbEntity
  8
3
370
    25
100
AcDbLine
 10
97.954872
 20
-154.682636
 30
0.0
 11
92.159317
 21
-156.235551
 31
0.0
  0
LINE
  5
679
100
AcDbEntity
  8
3
370
    25
100
AcDbLine
 10
92.159317
 20
-153.129722
 30
0.0
 11
92.159317
 21
-156.235551
 31
0.0
  0
LINE
  5
67A
100
AcDbEntity
  8
3
370
    25
100
AcDbLine
 10
97.954872
 20
-97.295053
 30
0.0
 11
97.954872
 21
-157.682636
 31
0.0
  0
ENDBLK
  5
67B
100
AcDbEntity
  8
3
100
AcDbBlockEnd
  0
BLOCK
  5
67C
100
AcDbEntity
  8
3
100
AcDbBlockBegin
  2
*D3
 70
     1
 10
0.0
 20
0.0
 30
0.0
  3
*D3
  1

  0
LINE
  5
67D
100
AcDbEntity
  8
3
370
    25
100
AcDbLine
 10
71.454872
 20
-105.849298
 30
0.0
 11
-49.792437
 21
-105.849298
 31
0.0
  0
LINE
  5
67E
100
AcDbEntity
  8
3
370
    25
100
AcDbLine
 10
-46.792437
 20
-105.849298
 30
0.0
 11
-45.239522
 21
-100.053743
 31
0.0
  0
LINE
  5
67F
100
AcDbEntity
  8
3
370
    25
100
AcDbLine
 10
-46.792437
 20
-105.849298
 30
0.0
 11
-48.345351
 21
-100.053743
 31
0.0
  0
LINE
  5
680
100
AcDbEntity
  8
3
370
    25
100
AcDbLine
 10
-45.239522
 20
-100.053743
 30
0.0
 11
-48.345351
 21
-100.053743
 31
0.0
  0
LINE
  5
681
100
AcDbEntity
  8
3
370
    25
100
AcDbLine
 10
-46.792437
 20
-105.849298
 30
0.0
 11
-46.792437
 21
94.610348
 31
0.0
  0
LINE
  5
682
100
AcDbEntity
  8
3
370
    25
100
AcDbLine
 10
-46.792437
 20
94.610348
 30
0.0
 11
-48.345351
 21
88.814793
 31
0.0
  0
LINE
  5
683
100
AcDbEntity
  8
3
370
    25
100
AcDbLine
 10
-46.792437
 20
94.610348
 30
0.0
 11
-45.239522
 21
88.814793
 31
0.0
  0
LINE
  5
684
100
AcDbEntity
  8
3
370
    25
100
AcDbLine
 10
-48.345351
 20
88.814793
 30
0.0
 11
-45.239522
 21
88.814793
 31
0.0
  0
LINE
  5
685
100
AcDbEntity
  8
3
370
    25
100
AcDbLine
 10
-15.517156
 20
94.610348
 30
0.0
 11
-49.792437
 21
94.610348
 31
0.0
  0
ENDBLK
  5
686
100
AcDbEntity
  8
3
100
AcDbBlockEnd
  0
BLOCK
  5
687
100
AcDbEntity
  8
3
100
AcDbBlockBegin
  2
*D4
 70
     1
 10
0.0
 20
0.0
 30
0.0
  3
*D4
  1

  0
TEXT
  5
688
100
AcDbEntity
  8
3
370
    25
100
AcDbText
 10
127.454872
 20
153.528477
 30
0.0
 40
10.5
  1
φ３５
 72
     5
 11
156.854872
 21
153.528477
 31
0.0
100
AcDbText
  0
LINE
  5
689
100
AcDbEntity
  8
3
370
    25
100
AcDbLine
 10
80.454872
 20
152.028477
 30
0.0
 11
74.659317
 21
153.581391
 31
0.0
  0
LINE
  5
68A
100
AcDbEntity
  8
3
370
    25
100
AcDbLine
 10
80.454872
 20
152.028477
 30
0.0
 11
74.659317
 21
150.475562
 31
0.0
  0
LINE
  5
68B
100
AcDbEntity
  8
3
370
    25
100
AcDbLine
 10
74.659317
 20
153.581391
 30
0.0
 11
74.659317
 21
150.475562
 31
0.0
  0
LINE
  5
68C
100
AcDbEntity
  8
3
370
    25
100
AcDbLine
 10
65.454872
 20
152.028477
 30
0.0
 11
158.954872
 21
152.028477
 31
0.0
  0
LINE
  5
68D
100
AcDbEntity
  8
3
370
    25
100
AcDbLine
 10
115.454872
 20
152.028477
 30
0.0
 11
121.250427
 21
150.475562
 31
0.0
  0
LINE
  5
68E
100
AcDbEntity
  8
3
370
    25
100
AcDbLine
 10
115.454872
 20
152.028477
 30
0.0
 11
121.250427
 21
153.581391
 31
0.0
  0
LINE
  5
68F
100
AcDbEntity
  8
3
370
    25
100
AcDbLine
 10
121.250427
 20
150.475562
 30
0.0
 11
121.250427
 21
153.581391
 31
0.0
  0
ENDBLK
  5
690
100
AcDbEntity
  8
3
100
AcDbBlockEnd
  0
BLOCK
  5
691
100
AcDbEntity
  8
3
100
AcDbBlockBegin
  2
*D5
 70
     1
 10
0.0
 20
0.0
 30
0.0
  3
*D5
  1

  0
LINE
  5
692
100
AcDbEntity
  8
3
370
    25
100
AcDbLine
 10
-290.265416
 20
-317.245601
 30
0.0
 11
-165.568382
 21
-317.245601
 31
0.0
  0
LINE
  5
693
100
AcDbEntity
  8
3
370
    25
100
AcDbLine
 10
-168.568382
 20
-317.245601
 30
0.0
 11
-167.015468
 21
-311.450046
 31
0.0
  0
LINE
  5
694
100
AcDbEntity
  8
3
370
    25
100
AcDbLine
 10
-168.568382
 20
-317.245601
 30
0.0
 11
-170.121297
 21
-311.450046
 31
0.0
  0
LINE
  5
695
100
AcDbEntity
  8
3
370
    25
100
AcDbLine
 10
-167.015468
 20
-311.450046
 30
0.0
 11
-170.121297
 21
-311.450046
 31
0.0
  0
LINE
  5
696
100
AcDbEntity
  8
3
370
    25
100
AcDbLine
 10
-168.568382
 20
-317.245601
 30
0.0
 11
-168.568382
 21
-105.849298
 31
0.0
  0
LINE
  5
697
100
AcDbEntity
  8
3
370
    25
100
AcDbLine
 10
-168.568382
 20
-105.849298
 30
0.0
 11
-170.121297
 21
-111.644853
 31
0.0
  0
LINE
  5
698
100
AcDbEntity
  8
3
370
    25
100
AcDbLine
 10
-168.568382
 20
-105.849298
 30
0.0
 11
-167.015468
 21
-111.644853
 31
0.0
  0
LINE
  5
699
100
AcDbEntity
  8
3
370
    25
100
AcDbLine
 10
-170.121297
 20
-111.644853
 30
0.0
 11
-167.015468
 21
-111.644853
 31
0.0
  0
LINE
  5
69A
100
AcDbEntity
  8
3
370
    25
100
AcDbLine
 10
-329.453258
 20
-105.849298
 30
0.0
 11
-165.568382
 21
-105.849298
 31
0.0
  0
ENDBLK
  5
69B
100
AcDbEntity
  8
3
100
AcDbBlockEnd
  0
BLOCK
  5
69C
100
AcDbEntity
  8
3
100
AcDbBlockBegin
  2
*D6
 70
     1
 10
0.0
 20
0.0
 30
0.0
  3
*D6
  1

  0
TEXT
  5
69D
100
AcDbEntity
  8
3
370
    25
100
AcDbText
 10
15.747219
 20
342.589337
 30
0.0
 40
10.5
  1
６０゜
 50
60.0
 72
     5
 11
30.447219
 21
368.050484
 31
0.0
100
AcDbText
  0
LINE
  5
69E
100
AcDbEntity
  8
3
370
    25
100
AcDbLine
 10
57.078157
 20
378.051629
 30
0.0
 11
52.02335
 21
386.806812
 31
0.0
  0
LINE
  5
69F
100
AcDbEntity
  8
3
370
    25
100
AcDbLine
 10
15.700055
 20
307.251082
 30
0.0
 11
6.091828
 21
307.251082
 31
0.0
  0
LINE
  5
6A0
100
AcDbEntity
  8
3
370
    25
100
AcDbLine
 10
53.52335
 20
384.208736
 30
0.0
 11
47.781517
 21
382.467657
 31
0.0
  0
LINE
  5
6A1
100
AcDbEntity
  8
3
370
    25
100
AcDbLine
 10
53.52335
 20
384.208736
 30
0.0
 11
49.421316
 21
379.830001
 31
0.0
  0
LINE
  5
6A2
100
AcDbEntity
  8
3
370
    25
100
AcDbLine
 10
47.781517
 20
382.467657
 30
0.0
 11
49.421316
 21
379.830001
 31
0.0
  0
LINE
  5
6A3
100
AcDbEntity
  8
3
370
    25
100
AcDbLine
 10
9.091828
 20
307.251082
 30
0.0
 11
10.832907
 21
312.992915
 31
0.0
  0
LINE
  5
6A4
100
AcDbEntity
  8
3
370
    25
100
AcDbLine
 10
9.091828
 20
307.251082
 30
0.0
 11
7.72873
 21
313.094194
 31
0.0
  0
LINE
  5
6A5
100
AcDbEntity
  8
3
370
    25
100
AcDbLine
 10
10.832907
 20
312.992915
 30
0.0
 11
7.72873
 21
313.094194
 31
0.0
  0
ARC
  5
6A6
100
AcDbEntity
  8
3
370
    25
100
AcDbCircle
 10
97.954872
 20
307.251082
 30
0.0
 40
88.863044
100
AcDbArc
 50
120.0
 51
180.0
  0
ENDBLK
  5
6A7
100
AcDbEntity
  8
3
100
AcDbBlockEnd
  0
BLOCK
  5
6A8
100
AcDbEntity
  8
3
100
AcDbBlockBegin
  2
*D7
 70
     1
 10
0.0
 20
0.0
 30
0.0
  3
*D7
  1

  0
TEXT
  5
6A9
100
AcDbEntity
  8
3
370
    25
100
AcDbText
 10
9.585737
 20
302.331199
 30
0.0
 40
10.5
  1
２０゜
 50
280.0
 72
     5
 11
14.690993
 21
273.377851
 31
0.0
100
AcDbText
  0
LINE
  5
6AA
100
AcDbEntity
  8
3
370
    25
100
AcDbLine
 10
20.660628
 20
279.118278
 30
0.0
 11
11.615032
 21
275.82595
 31
0.0
  0
LINE
  5
6AB
100
AcDbEntity
  8
3
370
    25
100
AcDbLine
 10
9.073934
 20
307.251082
 30
0.0
 11
7.710797
 21
301.407979
 31
0.0
  0
LINE
  5
6AC
100
AcDbEntity
  8
3
370
    25
100
AcDbLine
 10
9.073934
 20
307.251082
 30
0.0
 11
10.814974
 21
301.509238
 31
0.0
  0
LINE
  5
6AD
100
AcDbEntity
  8
3
370
    25
100
AcDbLine
 10
7.710797
 20
301.407979
 30
0.0
 11
10.814974
 21
301.509238
 31
0.0
  0
LINE
  5
6AE
100
AcDbEntity
  8
3
370
    25
100
AcDbLine
 10
14.43411
 20
276.852011
 30
0.0
 11
14.106327
 21
282.84305
 31
0.0
  0
LINE
  5
6AF
100
AcDbEntity
  8
3
370
    25
100
AcDbLine
 10
14.43411
 20
276.852011
 30
0.0
 11
11.154722
 21
281.876512
 31
0.0
  0
LINE
  5
6B0
100
AcDbEntity
  8
3
370
    25
100
AcDbLine
 10
14.106327
 20
282.84305
 30
0.0
 11
11.154722
 21
281.876512
 31
0.0
  0
ARC
  5
6B1
100
AcDbEntity
  8
3
370
    25
100
AcDbCircle
 10
97.954872
 20
307.251082
 30
0.0
 40
88.880938
100
AcDbArc
 50
180.0
 51
200.0
  0
ENDBLK
  5
6B2
100
AcDbEntity
  8
3
100
AcDbBlockEnd
  0
BLOCK
  5
6B3
100
AcDbEntity
  8
3
100
AcDbBlockBegin
  2
*D8
 70
     1
 10
0.0
 20
0.0
 30
0.0
  3
*D8
  1

  0
TEXT
  5
6B4
100
AcDbEntity
  8
3
370
    25
100
AcDbText
 10
13.108046
 20
229.84996
 30
0.0
 40
10.5
  1
２２゜
 50
63.654121
 72
     5
 11
26.15544
 21
256.196222
 31
0.0
100
AcDbText
  0
LINE
  5
6B5
100
AcDbEntity
  8
3
370
    25
100
AcDbLine
 10
49.309613
 20
239.916365
 30
0.0
 11
26.597233
 21
257.247321
 31
0.0
  0
LINE
  5
6B6
100
AcDbEntity
  8
3
370
    25
100
AcDbLine
 10
26.305029
 20
216.533366
 30
0.0
 11
8.811961
 21
221.333986
 31
0.0
  0
LINE
  5
6B7
100
AcDbEntity
  8
3
370
    25
100
AcDbLine
 10
28.982197
 20
255.427445
 30
0.0
 11
24.337951
 21
251.628632
 31
0.0
  0
LINE
  5
6B8
100
AcDbEntity
  8
3
370
    25
100
AcDbLine
 10
28.982197
 20
255.427445
 30
0.0
 11
26.859568
 21
249.815454
 31
0.0
  0
LINE
  5
6B9
100
AcDbEntity
  8
3
370
    25
100
AcDbLine
 10
24.337951
 20
251.628632
 30
0.0
 11
26.859568
 21
249.815454
 31
0.0
  0
LINE
  5
6BA
100
AcDbEntity
  8
3
370
    25
100
AcDbLine
 10
11.704999
 20
220.54005
 30
0.0
 11
14.882169
 21
225.629804
 31
0.0
  0
LINE
  5
6BB
100
AcDbEntity
  8
3
370
    25
100
AcDbLine
 10
11.704999
 20
220.54005
 30
0.0
 11
11.911632
 21
226.536491
 31
0.0
  0
LINE
  5
6BC
100
AcDbEntity
  8
3
370
    25
100
AcDbLine
 10
14.882169
 20
225.629804
 30
0.0
 11
11.911632
 21
226.536491
 31
0.0
  0
ARC
  5
6BD
100
AcDbEntity
  8
3
370
    25
100
AcDbCircle
 10
110.083641
 20
193.542009
 30
0.0
 40
102.015937
100
AcDbArc
 50
142.654121
 51
164.654121
  0
ENDBLK
  5
6BE
100
AcDbEntity
  8
3
100
AcDbBlockEnd
  0
BLOCK
  5
6BF
100
AcDbEntity
  8
3
100
AcDbBlockBegin
  2
*D9
 70
     1
 10
0.0
 20
0.0
 30
0.0
  3
*D9
  1

  0
TEXT
  5
6C0
100
AcDbEntity
  8
3
370
    25
100
AcDbText
 10
103.375707
 20
215.524237
 30
0.0
 40
10.5
  1
２５
 72
     5
 11
122.275707
 21
215.524237
 31
0.0
100
AcDbText
  0
LINE
  5
6C1
100
AcDbEntity
  8
3
370
    25
100
AcDbLine
 10
97.954872
 20
204.018508
 30
0.0
 11
97.954872
 21
217.524237
 31
0.0
  0
LINE
  5
6C2
100
AcDbEntity
  8
3
370
    25
100
AcDbLine
 10
97.954872
 20
214.524237
 30
0.0
 11
103.750427
 21
212.971323
 31
0.0
  0
LINE
  5
6C3
100
AcDbEntity
  8
3
370
    25
100
AcDbLine
 10
97.954872
 20
214.524237
 30
0.0
 11
103.750427
 21
216.077151
 31
0.0
  0
LINE
  5
6C4
100
AcDbEntity
  8
3
370
    25
100
AcDbLine
 10
103.750427
 20
212.971323
 30
0.0
 11
103.750427
 21
216.077151
 31
0.0
  0
LINE
  5
6C5
100
AcDbEntity
  8
3
370
    25
100
AcDbLine
 10
97.954872
 20
214.524237
 30
0.0
 11
122.796541
 21
214.524237
 31
0.0
  0
LINE
  5
6C6
100
AcDbEntity
  8
3
370
    25
100
AcDbLine
 10
122.796541
 20
214.524237
 30
0.0
 11
117.000986
 21
216.077151
 31
0.0
  0
LINE
  5
6C7
100
AcDbEntity
  8
3
370
    25
100
AcDbLine
 10
122.796541
 20
214.524237
 30
0.0
 11
117.000986
 21
212.971323
 31
0.0
  0
LINE
  5
6C8
100
AcDbEntity
  8
3
370
    25
100
AcDbLine
 10
117.000986
 20
216.077151
 30
0.0
 11
117.000986
 21
212.971323
 31
0.0
  0
LINE
  5
6C9
100
AcDbEntity
  8
3
370
    25
100
AcDbLine
 10
122.796541
 20
186.820316
 30
0.0
 11
122.796541
 21
217.524237
 31
0.0
  0
ENDBLK
  5
6CA
100
AcDbEntity
  8
3
100
AcDbBlockEnd
  0
BLOCK
  5
6CB
100
AcDbEntity
  8
3
100
AcDbBlockBegin
  2
*D10
 70
     1
 10
0.0
 20
0.0
 30
0.0
  3
*D10
  1

  0
TEXT
  5
6CC
100
AcDbEntity
  8
3
370
    25
100
AcDbText
 10
-109.140553
 20
50.750754
 30
0.0
 40
10.5
  1
３４５
 50
90.0
 72
     5
 11
-109.140553
 21
80.150754
 31
0.0
100
AcDbText
  0
LINE
  5
6CD
100
AcDbEntity
  8
3
370
    25
100
AcDbLine
 10
71.454872
 20
-105.849298
 30
0.0
 11
-110.640553
 21
-105.849298
 31
0.0
  0
LINE
  5
6CE
100
AcDbEntity
  8
3
370
    25
100
AcDbLine
 10
-107.640553
 20
-105.849298
 30
0.0
 11
-106.087638
 21
-100.053743
 31
0.0
  0
LINE
  5
6CF
100
AcDbEntity
  8
3
370
    25
100
AcDbLine
 10
-107.640553
 20
-105.849298
 30
0.0
 11
-109.193467
 21
-100.053743
 31
0.0
  0
LINE
  5
6D0
100
AcDbEntity
  8
3
370
    25
100
AcDbLine
 10
-106.087638
 20
-100.053743
 30
0.0
 11
-109.193467
 21
-100.053743
 31
0.0
  0
LINE
  5
6D1
100
AcDbEntity
  8
3
370
    25
100
AcDbLine
 10
-107.640553
 20
-105.849298
 30
0.0
 11
-107.640553
 21
238.850805
 31
0.0
  0
LINE
  5
6D2
100
AcDbEntity
  8
3
370
    25
100
AcDbLine
 10
-107.640553
 20
238.850805
 30
0.0
 11
-109.193467
 21
233.05525
 31
0.0
  0
LINE
  5
6D3
100
AcDbEntity
  8
3
370
    25
100
AcDbLine
 10
-107.640553
 20
238.850805
 30
0.0
 11
-106.087638
 21
233.05525
 31
0.0
  0
LINE
  5
6D4
100
AcDbEntity
  8
3
370
    25
100
AcDbLine
 10
-109.193467
 20
233.05525
 30
0.0
 11
-106.087638
 21
233.05525
 31
0.0
  0
LINE
  5
6D5
100
AcDbEntity
  8
3
370
    25
100
AcDbLine
 10
47.658512
 20
238.850805
 30
0.0
 11
-110.640553
 21
238.850805
 31
0.0
  0
ENDBLK
  5
6D6
100
AcDbEntity
  8
3
100
AcDbBlockEnd
  0
BLOCK
  5
6D7
100
AcDbEntity
  8
3
100
AcDbBlockBegin
  2
*D11
 70
     1
 10
0.0
 20
0.0
 30
0.0
  3
*D11
  1

  0
TEXT
  5
6D8
100
AcDbEntity
  8
3
370
    25
100
AcDbText
 10
-78.984833
 20
39.350702
 30
0.0
 40
10.5
  1
３２２
 50
90.0
 72
     5
 11
-78.984833
 21
68.750702
 31
0.0
100
AcDbText
  0
LINE
  5
6D9
100
AcDbEntity
  8
3
370
    25
100
AcDbLine
 10
71.454872
 20
-105.849298
 30
0.0
 11
-80.484833
 21
-105.849298
 31
0.0
  0
LINE
  5
6DA
100
AcDbEntity
  8
3
370
    25
100
AcDbLine
 10
-77.484833
 20
-105.849298
 30
0.0
 11
-75.931918
 21
-100.053743
 31
0.0
  0
LINE
  5
6DB
100
AcDbEntity
  8
3
370
    25
100
AcDbLine
 10
-77.484833
 20
-105.849298
 30
0.0
 11
-79.037747
 21
-100.053743
 31
0.0
  0
LINE
  5
6DC
100
AcDbEntity
  8
3
370
    25
100
AcDbLine
 10
-75.931918
 20
-100.053743
 30
0.0
 11
-79.037747
 21
-100.053743
 31
0.0
  0
LINE
  5
6DD
100
AcDbEntity
  8
3
370
    25
100
AcDbLine
 10
-77.484833
 20
-105.849298
 30
0.0
 11
-77.484833
 21
216.050702
 31
0.0
  0
LINE
  5
6DE
100
AcDbEntity
  8
3
370
    25
100
AcDbLine
 10
-77.484833
 20
216.050702
 30
0.0
 11
-79.037747
 21
210.255147
 31
0.0
  0
LINE
  5
6DF
100
AcDbEntity
  8
3
370
    25
100
AcDbLine
 10
-77.484833
 20
216.050702
 30
0.0
 11
-75.931918
 21
210.255147
 31
0.0
  0
LINE
  5
6E0
100
AcDbEntity
  8
3
370
    25
100
AcDbLine
 10
-79.037747
 20
210.255147
 30
0.0
 11
-75.931918
 21
210.255147
 31
0.0
  0
LINE
  5
6E1
100
AcDbEntity
  8
3
370
    25
100
AcDbLine
 10
24.954872
 20
216.050702
 30
0.0
 11
-80.484833
 21
216.050702
 31
0.0
  0
ENDBLK
  5
6E2
100
AcDbEntity
  8
3
100
AcDbBlockEnd
  0
ENDSEC
  0
SECTION
  2
ENTITIES
  0
LINE
  5
30
100
AcDbEntity
  8
1
370
   100
100
AcDbLine
 10
-559.532355
 20
412.543151
 30
0.0
 11
592.473578
 21
412.543151
 31
0.0
  0
LINE
  5
31
100
AcDbEntity
  8
1
370
   100
100
AcDbLine
 10
-559.532355
 20
412.543151
 30
0.0
 11
-559.532355
 21
-416.957822
 31
0.0
  0
LINE
  5
32
100
AcDbEntity
  8
1
370
   100
100
AcDbLine
 10
-559.532355
 20
-416.957822
 30
0.0
 11
592.473578
 21
-416.957822
 31
0.0
  0
LINE
  5
33
100
AcDbEntity
  8
1
370
   100
100
AcDbLine
 10
592.473578
 20
-416.957822
 30
0.0
 11
592.473578
 21
412.543151
 31
0.0
  0
TEXT
  5
34
100
AcDbEntity
  8
1
370
    50
100
AcDbText
 10
539.442664
 20
-339.379285
 30
0.0
 40
9.0
  1
設計
 72
     5
 11
555.642664
 21
-339.379285
 31
0.0
100
AcDbText
  0
TEXT
  5
35
100
AcDbEntity
  8
1
370
    50
100
AcDbText
 10
568.691217
 20
-339.149488
 30
0.0
 40
9.0
  1
製図
 72
     5
 11
584.891217
 21
-339.149488
 31
0.0
100
AcDbText
  0
TEXT
  5
36
100
AcDbEntity
  8
1
370
    50
100
AcDbText
 10
478.508617
 20
-339.379285
 30
0.0
 40
9.0
  1
承認
 72
     5
 11
494.708617
 21
-339.379285
 31
0.0
100
AcDbText
  0
TEXT
  5
37
100
AcDbEntity
  8
1
370
    50
100
AcDbText
 10
508.484518
 20
-339.297029
 30
0.0
 40
9.0
  1
検図
 72
     5
 11
524.684518
 21
-339.297029
 31
0.0
100
AcDbText
  0
LINE
  5
38
100
AcDbEntity
  8
1
370
    25
100
AcDbLine
 10
427.473578
 20
-341.957822
 30
0.0
 11
592.473578
 21
-341.957822
 31
0.0
  0
LINE
  5
39
100
AcDbEntity
  8
1
370
    25
100
AcDbLine
 10
513.723578
 20
-368.957822
 30
0.0
 11
513.723578
 21
-389.957822
 31
0.0
  0
TEXT
  5
3A
100
AcDbEntity
  8
1
370
    50
100
AcDbText
 10
479.327385
 20
-384.018792
 30
0.0
 40
9.0
  1
日　付
 72
     5
 11
504.527385
 21
-384.018792
 31
0.0
100
AcDbText
  0
LINE
  5
3B
100
AcDbEntity
  8
1
370
    50
100
AcDbLine
 10
61.473578
 20
-389.957822
 30
0.0
 11
592.473578
 21
-389.957822
 31
0.0
  0
TEXT
  5
3C
100
AcDbEntity
  8
1
370
    50
100
AcDbText
 10
431.662516
 20
-384.483609
 30
0.0
 40
9.0
  1
第三角法
 72
     5
 11
465.862516
 21
-384.483609
 31
0.0
100
AcDbText
  0
TEXT
  5
3D
100
AcDbEntity
  8
1
370
    50
100
AcDbText
 10
436.631129
 20
-338.997029
 30
0.0
 40
9.0
  1
尺　度
 72
     5
 11
461.831129
 21
-338.997029
 31
0.0
100
AcDbText
  0
LINE
  5
3E
100
AcDbEntity
  8
1
370
   100
100
AcDbLine
 10
61.473578
 20
-326.957822
 30
0.0
 11
592.473578
 21
-326.957822
 31
0.0
  0
LINE
  5
3F
100
AcDbEntity
  8
1
370
    50
100
AcDbLine
 10
317.973578
 20
-326.957822
 30
0.0
 11
317.973578
 21
-416.957822
 31
0.0
  0
LINE
  5
40
100
AcDbEntity
  8
1
370
    25
100
AcDbLine
 10
562.473578
 20
-368.957822
 30
0.0
 11
562.473578
 21
-326.957822
 31
0.0
  0
LINE
  5
41
100
AcDbEntity
  8
1
370
    25
100
AcDbLine
 10
532.473578
 20
-368.957822
 30
0.0
 11
532.473578
 21
-326.957822
 31
0.0
  0
LINE
  5
42
100
AcDbEntity
  8
1
370
    25
100
AcDbLine
 10
502.473578
 20
-368.957822
 30
0.0
 11
502.473578
 21
-326.957822
 31
0.0
  0
LINE
  5
43
100
AcDbEntity
  8
1
370
    50
100
AcDbLine
 10
427.473578
 20
-416.957822
 30
0.0
 11
427.473578
 21
-326.957822
 31
0.0
  0
LINE
  5
44
100
AcDbEntity
  8
1
370
    50
100
AcDbLine
 10
284.973578
 20
-326.957822
 30
0.0
 11
284.973578
 21
-416.957822
 31
0.0
  0
LINE
  5
45
100
AcDbEntity
  8
1
370
    50
100
AcDbLine
 10
94.473578
 20
-326.957822
 30
0.0
 11
94.473578
 21
-389.957822
 31
0.0
  0
LINE
  5
46
100
AcDbEntity
  8
1
370
    50
100
AcDbLine
 10
427.473578
 20
-368.957822
 30
0.0
 11
592.473578
 21
-368.957822
 31
0.0
  0
TEXT
  5
47
100
AcDbEntity
  8
1
370
    50
100
AcDbText
 10
430.651694
 20
-407.821408
 30
0.0
 40
9.0
  1
コードＮｏ
 41
0.9
 72
     5
 11
469.531694
 21
-407.821408
 31
0.0
100
AcDbText
  0
TEXT
  5
48
100
AcDbEntity
  8
1
370
   100
100
AcDbText
 10
79.330161
 20
-409.313489
 30
0.0
 40
12.0
  1
ミズタニバルブ工業株式会社
 41
1.2
 72
     5
 11
263.650161
 21
-409.313489
 31
0.0
100
AcDbText
  0
LINE
  5
49
100
AcDbEntity
  8
1
370
    50
100
AcDbLine
 10
61.473578
 20
-358.457822
 30
0.0
 11
427.473578
 21
-358.457822
 31
0.0
  0
LINE
  5
4A
100
AcDbEntity
  8
1
370
    50
100
AcDbLine
 10
173.223578
 20
-358.457822
 30
0.0
 11
173.223578
 21
-389.957822
 31
0.0
  0
LINE
  5
4B
100
AcDbEntity
  8
1
370
    50
100
AcDbLine
 10
206.223578
 20
-358.457822
 30
0.0
 11
206.223578
 21
-389.957822
 31
0.0
  0
LINE
  5
4C
100
AcDbEntity
  8
1
370
    50
100
AcDbLine
 10
472.473578
 20
-416.957822
 30
0.0
 11
472.473578
 21
-326.957822
 31
0.0
  0
TEXT
  5
4D
100
AcDbEntity
  8
1
370
    50
100
AcDbText
 10
517.647196
 20
-384.15044
 30
0.0
 40
9.0
  1
　　・　　・
 72
     5
 11
569.847196
 21
-384.15044
 31
0.0
100
AcDbText
  0
LINE
  5
4E
100
AcDbEntity
  8
1
370
   100
100
AcDbLine
 10
61.473578
 20
-326.957822
 30
0.0
 11
61.473578
 21
-416.957822
 31
0.0
  0
TEXT
  5
4F
100
AcDbEntity
  8
1
370
    50
100
AcDbText
 10
436.248873
 20
-360.020238
 30
0.0
 40
9.0
  1
　／ 
 72
     5
 11
452.448873
 21
-360.020238
 31
0.0
100
AcDbText
  0
TEXT
  5
50
100
AcDbEntity
  8
1
370
    50
100
AcDbText
 10
290.856184
 20
-408.037363
 30
0.0
 40
9.0
  1
備 考 
 72
     5
 11
311.556184
 21
-408.037363
 31
0.0
100
AcDbText
  0
TEXT
  5
51
100
AcDbEntity
  8
1
370
    50
100
AcDbText
 10
290.2688
 20
-346.33776
 30
0.0
 40
9.0
  1
仕 上
 72
     5
 11
310.9688
 21
-346.33776
 31
0.0
100
AcDbText
  0
TEXT
  5
52
100
AcDbEntity
  8
1
370
    50
100
AcDbText
 10
290.170764
 20
-373.337499
 30
0.0
 40
9.0
  1
表 面
 72
     5
 11
310.870764
 21
-373.337499
 31
0.0
100
AcDbText
  0
TEXT
  5
53
100
AcDbEntity
  8
1
370
    50
100
AcDbText
 10
290.170764
 20
-383.837499
 30
0.0
 40
9.0
  1
処 理
 72
     5
 11
310.870764
 21
-383.837499
 31
0.0
100
AcDbText
  0
TEXT
  5
54
100
AcDbEntity
  8
1
370
    50
100
AcDbText
 10
67.190025
 20
-347.540099
 30
0.0
 40
9.0
  1
品 名
 72
     5
 11
87.890025
 21
-347.540099
 31
0.0
100
AcDbText
  0
TEXT
  5
55
100
AcDbEntity
  8
1
370
    50
100
AcDbText
 10
66.596649
 20
-378.693801
 30
0.0
 40
9.0
  1
材 質
 72
     5
 11
87.296649
 21
-378.693801
 31
0.0
100
AcDbText
  0
TEXT
  5
56
100
AcDbEntity
  8
1
370
    50
100
AcDbText
 10
178.346649
 20
-378.693801
 30
0.0
 40
9.0
  1
規 格
 72
     5
 11
199.046649
 21
-378.693801
 31
0.0
100
AcDbText
  0
POINT
  5
57
100
AcDbEntity
  8
1
370
    50
100
AcDbPoint
 10
27.954872
 20
210.896367
 30
0.0
  0
POINT
  5
58
100
AcDbEntity
  8
1
370
    50
100
AcDbPoint
 10
30.954872
 20
210.141774
 30
0.0
  0
POINT
  5
59
100
AcDbEntity
  8
1
370
    50
100
AcDbPoint
 10
78.454872
 20
200.644742
 30
0.0
  0
POINT
  5
5A
100
AcDbEntity
  8
1
370
    50
100
AcDbPoint
 10
80.454872
 20
196.97199
 30
0.0
  0
POINT
  5
5B
100
AcDbEntity
  8
1
370
    50
100
AcDbPoint
 10
50.658512
 20
238.850805
 30
0.0
  0
POINT
  5
5C
100
AcDbEntity
  8
1
370
    50
100
AcDbPoint
 10
27.954872
 20
216.050702
 30
0.0
  0
LINE
  5
5D
100
AcDbEntity
  8
2
370
    50
100
AcDbLine
 10
115.454872
 20
167.650702
 30
0.0
 11
115.454872
 21
58.450702
 31
0.0
  0
LINE
  5
5E
100
AcDbEntity
  8
2
370
    50
100
AcDbLine
 10
80.454872
 20
58.450702
 30
0.0
 11
80.754872
 21
58.150702
 31
0.0
  0
LINE
  5
5F
100
AcDbEntity
  8
2
370
    50
100
AcDbLine
 10
115.454872
 20
58.450702
 30
0.0
 11
115.154872
 21
58.150702
 31
0.0
  0
LINE
  5
60
100
AcDbEntity
  8
2
370
    50
100
AcDbLine
 10
80.454872
 20
58.450702
 30
0.0
 11
80.454872
 21
119.650702
 31
0.0
  0
LINE
  5
61
100
AcDbEntity
  8
2
370
    50
100
AcDbLine
 10
80.454872
 20
138.650702
 30
0.0
 11
80.454872
 21
164.650702
 31
0.0
  0
LINE
  5
62
100
AcDbEntity
  8
2
370
    50
100
AcDbLine
 10
80.454872
 20
138.650702
 30
0.0
 11
28.123334
 21
138.650702
 31
0.0
  0
LINE
  5
63
100
AcDbEntity
  8
2
370
    50
100
AcDbLine
 10
80.454872
 20
119.650702
 30
0.0
 11
28.123334
 21
119.650702
 31
0.0
  0
ARC
  5
64
100
AcDbEntity
  8
2
370
    50
100
AcDbCircle
 10
28.123334
 20
104.150702
 30
0.0
 40
34.5
100
AcDbArc
 50
90.0
 51
140.0
  0
ARC
  5
65
100
AcDbEntity
  8
2
370
    50
100
AcDbCircle
 10
28.123334
 20
104.150702
 30
0.0
 40
15.5
100
AcDbArc
 50
90.0
 51
140.0
  0
LINE
  5
66
100
AcDbEntity
  8
2
370
    50
100
AcDbLine
 10
1.694801
 20
126.326875
 30
0.0
 11
-6.231759
 21
116.880368
 31
0.0
  0
LINE
  5
67
100
AcDbEntity
  8
2
370
    50
100
AcDbLine
 10
16.249645
 20
114.11391
 30
0.0
 11
8.323085
 21
104.667404
 31
0.0
  0
LINE
  5
68
100
AcDbEntity
  8
2
370
    50
100
AcDbLine
 10
-6.231759
 20
116.880368
 30
0.0
 11
-6.553153
 21
116.497346
 31
0.0
  0
LINE
  5
69
100
AcDbEntity
  8
2
370
    50
100
AcDbLine
 10
-6.553153
 20
116.497346
 30
0.0
 11
0.724269
 21
110.390864
 31
0.0
  0
LINE
  5
6A
100
AcDbEntity
  8
2
370
    50
100
AcDbLine
 10
-6.231759
 20
116.880368
 30
0.0
 11
1.045663
 21
110.773886
 31
0.0
  0
LINE
  5
6B
100
AcDbEntity
  8
2
370
    50
100
AcDbLine
 10
8.323085
 20
104.667404
 30
0.0
 11
8.001691
 21
104.284382
 31
0.0
  0
LINE
  5
6C
100
AcDbEntity
  8
2
370
    50
100
AcDbLine
 10
8.001691
 20
104.284382
 30
0.0
 11
0.724269
 21
110.390864
 31
0.0
  0
LINE
  5
6D
100
AcDbEntity
  8
2
370
    50
100
AcDbLine
 10
8.323085
 20
104.667404
 30
0.0
 11
1.045663
 21
110.773886
 31
0.0
  0
LINE
  5
6E
100
AcDbEntity
  8
2
370
    50
100
AcDbLine
 10
115.154872
 20
58.150702
 30
0.0
 11
80.754872
 21
58.150702
 31
0.0
  0
ARC
  5
6F
100
AcDbEntity
  8
2
370
    25
100
AcDbCircle
 10
65.757934
 20
129.150702
 30
0.0
 40
17.5
100
AcDbArc
 50
327.12165
 51
32.87835
  0
LINE
  5
70
100
AcDbEntity
  8
2
370
    25
100
AcDbLine
 10
80.454872
 20
58.450702
 30
0.0
 11
115.454872
 21
58.450702
 31
0.0
  0
LINE
  5
71
100
AcDbEntity
  8
2
370
    50
100
AcDbLine
 10
-338.953258
 20
168.150702
 30
0.0
 11
-372.953258
 21
168.150702
 31
0.0
  0
LINE
  5
72
100
AcDbEntity
  8
2
370
    50
100
AcDbLine
 10
-338.453258
 20
167.650702
 30
0.0
 11
-338.453258
 21
58.450702
 31
0.0
  0
LINE
  5
73
100
AcDbEntity
  8
2
370
    50
100
AcDbLine
 10
-338.453258
 20
167.650702
 30
0.0
 11
-338.953258
 21
168.150702
 31
0.0
  0
LINE
  5
74
100
AcDbEntity
  8
2
370
    50
100
AcDbLine
 10
-372.953258
 20
168.150702
 30
0.0
 11
-373.453258
 21
167.650702
 31
0.0
  0
LINE
  5
75
100
AcDbEntity
  8
2
370
    25
100
AcDbLine
 10
-338.453258
 20
167.650702
 30
0.0
 11
-373.453258
 21
167.650702
 31
0.0
  0
LINE
  5
76
100
AcDbEntity
  8
2
370
    50
100
AcDbLine
 10
-373.453258
 20
58.450702
 30
0.0
 11
-373.153258
 21
58.150702
 31
0.0
  0
LINE
  5
77
100
AcDbEntity
  8
2
370
    50
100
AcDbLine
 10
-338.453258
 20
58.450702
 30
0.0
 11
-338.753258
 21
58.150702
 31
0.0
  0
LINE
  5
78
100
AcDbEntity
  8
2
370
    50
100
AcDbLine
 10
-373.453258
 20
58.450702
 30
0.0
 11
-373.453258
 21
167.650702
 31
0.0
  0
LINE
  5
79
100
AcDbEntity
  8
2
370
    50
100
AcDbLine
 10
-338.753258
 20
58.150702
 30
0.0
 11
-373.153258
 21
58.150702
 31
0.0
  0
LINE
  5
7A
100
AcDbEntity
  8
2
370
    25
100
AcDbLine
 10
-373.453258
 20
58.450702
 30
0.0
 11
-338.453258
 21
58.450702
 31
0.0
  0
LINE
  5
7B
100
AcDbEntity
  8
2
370
    50
100
AcDbLine
 10
-365.453258
 20
129.150702
 30
0.0
 11
-365.453258
 21
110.390864
 31
0.0
  0
LINE
  5
7C
100
AcDbEntity
  8
2
370
    50
100
AcDbLine
 10
-346.453258
 20
129.150702
 30
0.0
 11
-346.453258
 21
110.390864
 31
0.0
  0
ELLIPSE
  5
7D
100
AcDbEntity
  8
2
370
    50
100
AcDbEllipse
 10
-355.953258
 20
110.390864
 30
0.0
 11
9.5
 21
0.0
 31
0.0
210
0.0
220
0.0
230
1.0
 40
0.642789
 41
0.0
 42
3.1415929999999999
  0
ARC
  5
7E
100
AcDbEntity
  8
2
370
    50
100
AcDbCircle
 10
-355.953258
 20
129.150702
 30
0.0
 40
9.5
100
AcDbArc
 50
0.0
 51
180.0
  0
LINE
  5
7F
100
AcDbEntity
  8
2
370
    50
100
AcDbLine
 10
332.621063
 20
168.150702
 30
0.0
 11
349.621063
 21
168.150702
 31
0.0
  0
LINE
  5
80
100
AcDbEntity
  8
2
370
    50
100
AcDbLine
 10
332.621063
 20
168.150702
 30
0.0
 11
315.621063
 21
168.150702
 31
0.0
  0
LINE
  5
81
100
AcDbEntity
  8
2
370
    50
100
AcDbLine
 10
315.121063
 20
167.650702
 30
0.0
 11
315.121063
 21
58.450702
 31
0.0
  0
LINE
  5
82
100
AcDbEntity
  8
2
370
    50
100
AcDbLine
 10
315.121063
 20
167.650702
 30
0.0
 11
315.621063
 21
168.150702
 31
0.0
  0
LINE
  5
83
100
AcDbEntity
  8
2
370
    50
100
AcDbLine
 10
349.621063
 20
168.150702
 30
0.0
 11
350.121063
 21
167.650702
 31
0.0
  0
LINE
  5
84
100
AcDbEntity
  8
2
370
    50
100
AcDbLine
 10
350.121063
 20
58.450702
 30
0.0
 11
349.821063
 21
58.150702
 31
0.0
  0
LINE
  5
85
100
AcDbEntity
  8
2
370
    50
100
AcDbLine
 10
315.121063
 20
58.450702
 30
0.0
 11
315.421063
 21
58.150702
 31
0.0
  0
LINE
  5
86
100
AcDbEntity
  8
2
370
    50
100
AcDbLine
 10
350.121063
 20
58.450702
 30
0.0
 11
350.121063
 21
119.650702
 31
0.0
  0
LINE
  5
87
100
AcDbEntity
  8
2
370
    50
100
AcDbLine
 10
350.121063
 20
138.650702
 30
0.0
 11
350.121063
 21
167.650702
 31
0.0
  0
LINE
  5
88
100
AcDbEntity
  8
2
370
    50
100
AcDbLine
 10
350.121063
 20
138.650702
 30
0.0
 11
402.452602
 21
138.650702
 31
0.0
  0
LINE
  5
89
100
AcDbEntity
  8
2
370
    50
100
AcDbLine
 10
350.121063
 20
119.650702
 30
0.0
 11
402.452602
 21
119.650702
 31
0.0
  0
ARC
  5
8A
100
AcDbEntity
  8
2
370
    50
100
AcDbCircle
 10
402.452602
 20
104.150702
 30
0.0
 40
34.5
100
AcDbArc
 50
40.0
 51
90.0
  0
ARC
  5
8B
100
AcDbEntity
  8
2
370
    50
100
AcDbCircle
 10
402.452602
 20
104.150702
 30
0.0
 40
15.5
100
AcDbArc
 50
40.0
 51
90.0
  0
LINE
  5
8C
100
AcDbEntity
  8
2
370
    50
100
AcDbLine
 10
428.881135
 20
126.326875
 30
0.0
 11
436.807695
 21
116.880368
 31
0.0
  0
LINE
  5
8D
100
AcDbEntity
  8
2
370
    50
100
AcDbLine
 10
414.32629
 20
114.11391
 30
0.0
 11
422.25285
 21
104.667404
 31
0.0
  0
LINE
  5
8E
100
AcDbEntity
  8
2
370
    50
100
AcDbLine
 10
436.807695
 20
116.880368
 30
0.0
 11
437.129089
 21
116.497346
 31
0.0
  0
LINE
  5
8F
100
AcDbEntity
  8
2
370
    50
100
AcDbLine
 10
437.129089
 20
116.497346
 30
0.0
 11
429.851666
 21
110.390864
 31
0.0
  0
LINE
  5
90
100
AcDbEntity
  8
2
370
    50
100
AcDbLine
 10
436.807695
 20
116.880368
 30
0.0
 11
429.530273
 21
110.773886
 31
0.0
  0
LINE
  5
91
100
AcDbEntity
  8
2
370
    50
100
AcDbLine
 10
422.25285
 20
104.667404
 30
0.0
 11
422.574244
 21
104.284382
 31
0.0
  0
LINE
  5
92
100
AcDbEntity
  8
2
370
    50
100
AcDbLine
 10
422.574244
 20
104.284382
 30
0.0
 11
429.851666
 21
110.390864
 31
0.0
  0
LINE
  5
93
100
AcDbEntity
  8
2
370
    50
100
AcDbLine
 10
422.25285
 20
104.667404
 30
0.0
 11
429.530273
 21
110.773886
 31
0.0
  0
LINE
  5
94
100
AcDbEntity
  8
2
370
    50
100
AcDbLine
 10
356.621063
 20
-102.349298
 30
0.0
 11
356.621063
 21
-105.349298
 31
0.0
  0
LINE
  5
95
100
AcDbEntity
  8
2
370
    50
100
AcDbLine
 10
356.121063
 20
-105.849298
 30
0.0
 11
332.621063
 21
-105.849298
 31
0.0
  0
LINE
  5
96
100
AcDbEntity
  8
2
370
    50
100
AcDbLine
 10
332.621063
 20
-101.849298
 30
0.0
 11
356.121063
 21
-101.849298
 31
0.0
  0
LINE
  5
97
100
AcDbEntity
  8
2
370
    50
100
AcDbLine
 10
356.121063
 20
-101.849298
 30
0.0
 11
356.621063
 21
-102.349298
 31
0.0
  0
LINE
  5
98
100
AcDbEntity
  8
2
370
    50
100
AcDbLine
 10
356.121063
 20
-105.849298
 30
0.0
 11
356.621063
 21
-105.349298
 31
0.0
  0
LINE
  5
99
100
AcDbEntity
  8
2
370
    50
100
AcDbLine
 10
308.621063
 20
-102.349298
 30
0.0
 11
308.621063
 21
-105.349298
 31
0.0
  0
LINE
  5
9A
100
AcDbEntity
  8
2
370
    50
100
AcDbLine
 10
309.121063
 20
-105.849298
 30
0.0
 11
332.621063
 21
-105.849298
 31
0.0
  0
LINE
  5
9B
100
AcDbEntity
  8
2
370
    50
100
AcDbLine
 10
332.621063
 20
-101.849298
 30
0.0
 11
309.121063
 21
-101.849298
 31
0.0
  0
LINE
  5
9C
100
AcDbEntity
  8
2
370
    50
100
AcDbLine
 10
309.121063
 20
-101.849298
 30
0.0
 11
308.621063
 21
-102.349298
 31
0.0
  0
LINE
  5
9D
100
AcDbEntity
  8
2
370
    50
100
AcDbLine
 10
309.121063
 20
-105.849298
 30
0.0
 11
308.621063
 21
-105.349298
 31
0.0
  0
ARC
  5
9E
100
AcDbEntity
  8
2
370
    25
100
AcDbCircle
 10
364.818002
 20
129.150702
 30
0.0
 40
17.5
100
AcDbArc
 50
147.12165
 51
212.87835
  0
LINE
  5
9F
100
AcDbEntity
  8
2
370
    25
100
AcDbLine
 10
315.121063
 20
167.650702
 30
0.0
 11
350.121063
 21
167.650702
 31
0.0
  0
LINE
  5
A0
100
AcDbEntity
  8
2
370
    25
100
AcDbLine
 10
350.121063
 20
58.450702
 30
0.0
 11
315.121063
 21
58.450702
 31
0.0
  0
LINE
  5
A1
100
AcDbEntity
  8
2
370
    25
100
AcDbLine
 10
308.621063
 20
-102.349298
 30
0.0
 11
356.621063
 21
-102.349298
 31
0.0
  0
LINE
  5
A2
100
AcDbEntity
  8
2
370
    25
100
AcDbLine
 10
356.621063
 20
-105.349298
 30
0.0
 11
308.621063
 21
-105.349298
 31
0.0
  0
LINE
  5
A3
100
AcDbEntity
  8
2
370
    50
100
AcDbLine
 10
309.121063
 20
-108.849298
 30
0.0
 11
356.121063
 21
-108.849298
 31
0.0
  0
LINE
  5
A4
100
AcDbEntity
  8
2
370
    50
100
AcDbLine
 10
356.121063
 20
-105.849298
 30
0.0
 11
356.121063
 21
-108.849298
 31
0.0
  0
LINE
  5
A5
100
AcDbEntity
  8
2
370
    50
100
AcDbLine
 10
309.121063
 20
-105.849298
 30
0.0
 11
309.121063
 21
-108.849298
 31
0.0
  0
HATCH
  5
A6
100
AcDbEntity
  8
2
370
    25
100
AcDbHatch
 10
0.0
 20
0.0
 30
0.0
210
0.0
220
0.0
230
1.0
  2
_U
 70
     0
 71
     1
 91
        1
 92
        1
 93
        5
 72
     1
 10
309.12106299999999
 20
-105.849298
 11
332.62106299999999
 21
-105.849298
 72
     1
 10
332.62106299999999
 20
-105.849298
 11
356.12106299999999
 21
-105.849298
 72
     1
 10
356.12106299999999
 20
-105.849298
 11
356.12106299999999
 21
-108.849298
 72
     1
 10
356.12106299999999
 20
-108.849298
 11
309.12106299999999
 21
-108.849298
 72
     1
 10
309.12106299999999
 20
-108.849298
 11
309.12106299999999
 21
-105.849298
 97
        5
330
0
330
0
330
0
330
0
330
0
 75
     0
 76
     0
 52
45.0
 41
1.0
 77
     0
 78
     1
 53
45.0
 43
0.0
 44
0.0
 45
-2.1213199999999999
 46
2.1213199999999999
 79
     0
 98
        1
 10
0.0
 20
0.0
  0
LINE
  5
A7
100
AcDbEntity
  8
2
370
    25
  6
CENTER
100
AcDbLine
 10
124.141247
 20
307.251082
 30
0.0
 11
-21.215649
 21
307.251082
 31
0.0
  0
POINT
  5
A8
100
AcDbEntity
  8
2
370
    50
100
AcDbPoint
 10
-12.517156
 20
94.610348
 30
0.0
  0
LINE
  5
A9
100
AcDbEntity
  8
2
370
    25
  6
CENTER
100
AcDbLine
 10
97.954872
 20
282.099776
 30
0.0
 11
97.954872
 21
332.504225
 31
0.0
  0
LINE
  5
AA
100
AcDbEntity
  8
2
370
    25
100
AcDbLine
 10
-373.453258
 20
57.850702
 30
0.0
 11
-338.453258
 21
57.850702
 31
0.0
  0
LINE
  5
AB
100
AcDbEntity
  8
2
370
    50
100
AcDbLine
 10
-338.453258
 20
57.850702
 30
0.0
 11
-338.753258
 21
58.150702
 31
0.0
  0
LINE
  5
AC
100
AcDbEntity
  8
2
370
    50
100
AcDbLine
 10
-373.453258
 20
57.850702
 30
0.0
 11
-373.153258
 21
58.150702
 31
0.0
  0
LINE
  5
AD
100
AcDbEntity
  8
2
370
    50
100
AcDbLine
 10
-373.453258
 20
57.850702
 30
0.0
 11
-373.453258
 21
-101.549298
 31
0.0
  0
LINE
  5
AE
100
AcDbEntity
  8
2
370
    50
100
AcDbLine
 10
-338.453258
 20
-101.549298
 30
0.0
 11
-338.453258
 21
57.850702
 31
0.0
  0
LINE
  5
AF
100
AcDbEntity
  8
2
370
    50
100
AcDbLine
 10
-373.453258
 20
-101.549298
 30
0.0
 11
-373.153258
 21
-101.849298
 31
0.0
  0
LINE
  5
B0
100
AcDbEntity
  8
2
370
    50
100
AcDbLine
 10
-338.453258
 20
-101.549298
 30
0.0
 11
-338.753258
 21
-101.849298
 31
0.0
  0
LINE
  5
B1
100
AcDbEntity
  8
2
370
    50
100
AcDbLine
 10
-355.953258
 20
-101.849298
 30
0.0
 11
-379.453258
 21
-101.849298
 31
0.0
  0
LINE
  5
B2
100
AcDbEntity
  8
2
370
    50
100
AcDbLine
 10
-379.453258
 20
-101.849298
 30
0.0
 11
-379.953258
 21
-102.349298
 31
0.0
  0
LINE
  5
B3
100
AcDbEntity
  8
2
370
    50
100
AcDbLine
 10
-379.953258
 20
-102.349298
 30
0.0
 11
-379.953258
 21
-105.349298
 31
0.0
  0
LINE
  5
B4
100
AcDbEntity
  8
2
370
    50
100
AcDbLine
 10
-379.953258
 20
-105.349298
 30
0.0
 11
-379.453258
 21
-105.849298
 31
0.0
  0
LINE
  5
B5
100
AcDbEntity
  8
2
370
    50
100
AcDbLine
 10
-355.953258
 20
-105.849298
 30
0.0
 11
-379.453258
 21
-105.849298
 31
0.0
  0
LINE
  5
B6
100
AcDbEntity
  8
2
370
    50
100
AcDbLine
 10
-373.453258
 20
-145.099298
 30
0.0
 11
-372.703258
 21
-145.849298
 31
0.0
  0
LINE
  5
B7
100
AcDbEntity
  8
2
370
    50
100
AcDbLine
 10
-355.953258
 20
-145.849298
 30
0.0
 11
-372.703258
 21
-145.849298
 31
0.0
  0
LINE
  5
B8
100
AcDbEntity
  8
2
370
    50
100
AcDbLine
 10
-373.453258
 20
-145.099298
 30
0.0
 11
-373.453258
 21
-139.298578
 31
0.0
  0
LINE
  5
B9
100
AcDbEntity
  8
2
370
    50
100
AcDbLine
 10
-373.453258
 20
-123.849298
 30
0.0
 11
-373.453258
 21
-108.849298
 31
0.0
  0
LINE
  5
BA
100
AcDbEntity
  8
2
370
    25
100
AcDbLine
 10
-372.703258
 20
-145.849298
 30
0.0
 11
-372.703258
 21
-139.298578
 31
0.0
  0
LINE
  5
BB
100
AcDbEntity
  8
2
370
    25
100
AcDbLine
 10
-372.703258
 20
-123.849298
 30
0.0
 11
-372.703258
 21
-108.849298
 31
0.0
  0
LINE
  5
BC
100
AcDbEntity
  8
2
370
    50
100
AcDbLine
 10
-355.953258
 20
-101.849298
 30
0.0
 11
-332.453258
 21
-101.849298
 31
0.0
  0
LINE
  5
BD
100
AcDbEntity
  8
2
370
    50
100
AcDbLine
 10
-332.453258
 20
-101.849298
 30
0.0
 11
-331.953258
 21
-102.349298
 31
0.0
  0
LINE
  5
BE
100
AcDbEntity
  8
2
370
    50
100
AcDbLine
 10
-331.953258
 20
-102.349298
 30
0.0
 11
-331.953258
 21
-105.349298
 31
0.0
  0
LINE
  5
BF
100
AcDbEntity
  8
2
370
    50
100
AcDbLine
 10
-331.953258
 20
-105.349298
 30
0.0
 11
-332.453258
 21
-105.849298
 31
0.0
  0
LINE
  5
C0
100
AcDbEntity
  8
2
370
    50
100
AcDbLine
 10
-355.953258
 20
-105.849298
 30
0.0
 11
-332.453258
 21
-105.849298
 31
0.0
  0
LINE
  5
C1
100
AcDbEntity
  8
2
370
    50
100
AcDbLine
 10
-338.453258
 20
-145.099298
 30
0.0
 11
-339.203258
 21
-145.849298
 31
0.0
  0
LINE
  5
C2
100
AcDbEntity
  8
2
370
    50
100
AcDbLine
 10
-355.953258
 20
-145.849298
 30
0.0
 11
-339.203258
 21
-145.849298
 31
0.0
  0
LINE
  5
C3
100
AcDbEntity
  8
2
370
    50
100
AcDbLine
 10
-338.453258
 20
-145.099298
 30
0.0
 11
-338.453258
 21
-139.298578
 31
0.0
  0
LINE
  5
C4
100
AcDbEntity
  8
2
370
    50
100
AcDbLine
 10
-338.453258
 20
-123.849298
 30
0.0
 11
-338.453258
 21
-108.849298
 31
0.0
  0
LINE
  5
C5
100
AcDbEntity
  8
2
370
    25
100
AcDbLine
 10
-339.203258
 20
-145.849298
 30
0.0
 11
-339.203258
 21
-139.298578
 31
0.0
  0
LINE
  5
C6
100
AcDbEntity
  8
2
370
    25
100
AcDbLine
 10
-339.203258
 20
-123.849298
 30
0.0
 11
-339.203258
 21
-108.849298
 31
0.0
  0
LINE
  5
C7
100
AcDbEntity
  8
2
370
    25
100
AcDbLine
 10
-373.453258
 20
-101.549298
 30
0.0
 11
-338.453258
 21
-101.549298
 31
0.0
  0
LINE
  5
C8
100
AcDbEntity
  8
2
370
    25
100
AcDbLine
 10
-379.953258
 20
-102.349298
 30
0.0
 11
-331.953258
 21
-102.349298
 31
0.0
  0
LINE
  5
C9
100
AcDbEntity
  8
2
370
    25
100
AcDbLine
 10
-331.953258
 20
-105.349298
 30
0.0
 11
-379.953258
 21
-105.349298
 31
0.0
  0
LINE
  5
CA
100
AcDbEntity
  8
2
370
    50
100
AcDbLine
 10
-379.453258
 20
-105.849298
 30
0.0
 11
-379.453258
 21
-108.849298
 31
0.0
  0
LINE
  5
CB
100
AcDbEntity
  8
2
370
    50
100
AcDbLine
 10
-332.453258
 20
-105.849298
 30
0.0
 11
-332.453258
 21
-108.849298
 31
0.0
  0
LINE
  5
CC
100
AcDbEntity
  8
2
370
    50
100
AcDbLine
 10
-379.453258
 20
-108.849298
 30
0.0
 11
-332.453258
 21
-108.849298
 31
0.0
  0
HATCH
  5
CD
100
AcDbEntity
  8
2
370
    25
100
AcDbHatch
 10
0.0
 20
0.0
 30
0.0
210
0.0
220
0.0
230
1.0
  2
_U
 70
     0
 71
     1
 91
        1
 92
        1
 93
        5
 72
     1
 10
-332.45325800000001
 20
-108.849298
 11
-332.45325800000001
 21
-105.849298
 72
     1
 10
-332.45325800000001
 20
-105.849298
 11
-355.95325800000001
 21
-105.849298
 72
     1
 10
-355.95325800000001
 20
-105.849298
 11
-379.45325800000001
 21
-105.849298
 72
     1
 10
-379.45325800000001
 20
-105.849298
 11
-379.45325800000001
 21
-108.849298
 72
     1
 10
-379.45325800000001
 20
-108.849298
 11
-332.45325800000001
 21
-108.849298
 97
        5
330
0
330
0
330
0
330
0
330
0
 75
     0
 76
     0
 52
45.0
 41
1.0
 77
     0
 78
     1
 53
45.0
 43
0.0
 44
0.0
 45
-2.1213199999999999
 46
2.1213199999999999
 79
     0
 98
        1
 10
0.0
 20
0.0
  0
LINE
  5
CE
100
AcDbEntity
  8
2
370
    25
100
AcDbLine
 10
-338.453258
 20
-145.099298
 30
0.0
 11
-348.864535
 21
-145.099298
 31
0.0
  0
LINE
  5
CF
100
AcDbEntity
  8
2
370
    50
100
AcDbLine
 10
-348.864535
 20
-145.849298
 30
0.0
 11
-348.864535
 21
-139.298578
 31
0.0
  0
LINE
  5
D0
100
AcDbEntity
  8
2
370
    50
100
AcDbLine
 10
-363.041982
 20
-145.849298
 30
0.0
 11
-363.041982
 21
-139.298578
 31
0.0
  0
LINE
  5
D1
100
AcDbEntity
  8
2
370
    25
100
AcDbLine
 10
-373.453258
 20
-145.099298
 30
0.0
 11
-363.041982
 21
-145.099298
 31
0.0
  0
LINE
  5
D2
100
AcDbEntity
  8
2
370
    50
100
AcDbLine
 10
-383.541258
 20
-123.849298
 30
0.0
 11
-328.365258
 21
-123.849298
 31
0.0
  0
LINE
  5
D3
100
AcDbEntity
  8
2
370
    50
100
AcDbLine
 10
-328.365258
 20
-125.504578
 30
0.0
 11
-383.541258
 21
-125.504578
 31
0.0
  0
LINE
  5
D4
100
AcDbEntity
  8
2
370
    50
100
AcDbLine
 10
-327.261738
 20
-126.056338
 30
0.0
 11
-384.644778
 21
-126.056338
 31
0.0
  0
LINE
  5
D5
100
AcDbEntity
  8
2
370
    50
100
AcDbLine
 10
-328.365258
 20
-125.504578
 30
0.0
 11
-383.541258
 21
-125.504578
 31
0.0
  0
LINE
  5
D6
100
AcDbEntity
  8
2
370
    50
100
AcDbLine
 10
-327.261738
 20
-126.056338
 30
0.0
 11
-384.644778
 21
-126.056338
 31
0.0
  0
LINE
  5
D7
100
AcDbEntity
  8
2
370
    50
100
AcDbLine
 10
-328.365258
 20
-125.504578
 30
0.0
 11
-383.541258
 21
-125.504578
 31
0.0
  0
LINE
  5
D8
100
AcDbEntity
  8
2
370
    50
100
AcDbLine
 10
-328.365258
 20
-126.056338
 30
0.0
 11
-328.365258
 21
-123.849298
 31
0.0
  0
LINE
  5
D9
100
AcDbEntity
  8
2
370
    50
100
AcDbLine
 10
-383.541258
 20
-126.056338
 30
0.0
 11
-383.541258
 21
-123.849298
 31
0.0
  0
LINE
  5
DA
100
AcDbEntity
  8
2
370
    50
100
AcDbLine
 10
-384.644778
 20
-138.093632
 30
0.0
 11
-384.644778
 21
-126.056338
 31
0.0
  0
LINE
  5
DB
100
AcDbEntity
  8
2
370
    50
100
AcDbLine
 10
-371.24408
 20
-128.263378
 30
0.0
 11
-384.644778
 21
-128.263378
 31
0.0
  0
LINE
  5
DC
100
AcDbEntity
  8
2
370
    50
100
AcDbLine
 10
-371.24408
 20
-138.093632
 30
0.0
 11
-371.24408
 21
-128.263378
 31
0.0
  0
LINE
  5
DD
100
AcDbEntity
  8
2
370
    50
100
AcDbLine
 10
-369.332727
 20
-138.093632
 30
0.0
 11
-369.332727
 21
-128.263378
 31
0.0
  0
LINE
  5
DE
100
AcDbEntity
  8
2
370
    50
100
AcDbLine
 10
-342.57379
 20
-128.263378
 30
0.0
 11
-369.332727
 21
-128.263378
 31
0.0
  0
LINE
  5
DF
100
AcDbEntity
  8
2
370
    50
100
AcDbLine
 10
-340.662437
 20
-138.093632
 30
0.0
 11
-340.662437
 21
-128.263378
 31
0.0
  0
LINE
  5
E0
100
AcDbEntity
  8
2
370
    50
100
AcDbLine
 10
-342.57379
 20
-138.093632
 30
0.0
 11
-342.57379
 21
-128.263378
 31
0.0
  0
LINE
  5
E1
100
AcDbEntity
  8
2
370
    50
100
AcDbLine
 10
-327.261738
 20
-128.263378
 30
0.0
 11
-340.662437
 21
-128.263378
 31
0.0
  0
LINE
  5
E2
100
AcDbEntity
  8
2
370
    50
100
AcDbLine
 10
-327.261738
 20
-138.093632
 30
0.0
 11
-327.261738
 21
-126.056338
 31
0.0
  0
ARC
  5
E3
100
AcDbEntity
  8
2
370
    50
100
AcDbCircle
 10
-333.962088
 20
-120.066762
 30
0.0
 40
19.231816
100
AcDbArc
 50
249.610566
 51
290.389434
  0
ARC
  5
E4
100
AcDbEntity
  8
2
370
    50
100
AcDbCircle
 10
-355.953258
 20
-64.414646
 30
0.0
 40
74.883932
100
AcDbArc
 50
259.707733
 51
280.292267
  0
LINE
  5
E5
100
AcDbEntity
  8
2
370
    50
100
AcDbLine
 10
-340.662437
 20
-138.093632
 30
0.0
 11
-342.57379
 21
-138.093632
 31
0.0
  0
LINE
  5
E6
100
AcDbEntity
  8
2
370
    50
100
AcDbLine
 10
-369.332727
 20
-138.093632
 30
0.0
 11
-371.24408
 21
-138.093632
 31
0.0
  0
ARC
  5
E7
100
AcDbEntity
  8
2
370
    50
100
AcDbCircle
 10
-355.953258
 20
-64.414646
 30
0.0
 40
74.883932
100
AcDbArc
 50
259.707733
 51
280.292267
  0
ARC
  5
E8
100
AcDbEntity
  8
2
370
    50
100
AcDbCircle
 10
-377.944429
 20
-120.066762
 30
0.0
 40
19.231816
100
AcDbArc
 50
249.610566
 51
290.389434
  0
LINE
  5
E9
100
AcDbEntity
  8
2
370
    50
100
AcDbLine
 10
-330.572298
 20
-139.298578
 30
0.0
 11
-381.334218
 21
-139.298578
 31
0.0
  0
LINE
  5
EA
100
AcDbEntity
  8
2
370
    50
100
AcDbLine
 10
-381.334218
 20
-139.298578
 30
0.0
 11
-384.644778
 21
-138.093632
 31
0.0
  0
LINE
  5
EB
100
AcDbEntity
  8
2
370
    50
100
AcDbLine
 10
-330.572298
 20
-139.298578
 30
0.0
 11
-327.261738
 21
-138.093632
 31
0.0
  0
POINT
  5
EC
100
AcDbEntity
  8
2
370
    50
100
AcDbPoint
 10
-355.953258
 20
-123.849298
 30
0.0
  0
HATCH
  5
ED
100
AcDbEntity
  8
2
370
    25
100
AcDbHatch
 10
0.0
 20
0.0
 30
0.0
210
0.0
220
0.0
230
1.0
  2
_U
 70
     0
 71
     1
 91
        1
 92
        1
 93
        4
 72
     1
 10
-328.36525799999998
 20
-123.849298
 11
-328.36525799999998
 21
-125.504578
 72
     1
 10
-328.36525799999998
 20
-125.504578
 11
-383.54125800000003
 21
-125.504578
 72
     1
 10
-383.54125800000003
 20
-125.504578
 11
-383.54125800000003
 21
-123.849298
 72
     1
 10
-383.54125800000003
 20
-123.849298
 11
-328.36525799999998
 21
-123.849298
 97
        4
330
0
330
0
330
0
330
0
 75
     0
 76
     0
 52
45.0
 41
1.0
 77
     0
 78
     1
 53
45.0
 43
0.0
 44
0.0
 45
-2.1213199999999999
 46
2.1213199999999999
 79
     0
 98
        1
 10
0.0
 20
0.0
  0
LINE
  5
EE
100
AcDbEntity
  8
2
370
    50
100
AcDbLine
 10
80.454872
 20
57.850702
 30
0.0
 11
80.454872
 21
-101.549298
 31
0.0
  0
LINE
  5
EF
100
AcDbEntity
  8
2
370
    50
100
AcDbLine
 10
115.454872
 20
-101.549298
 30
0.0
 11
115.454872
 21
57.850702
 31
0.0
  0
LINE
  5
F0
100
AcDbEntity
  8
2
370
    50
100
AcDbLine
 10
80.454872
 20
-101.549298
 30
0.0
 11
80.754872
 21
-101.849298
 31
0.0
  0
LINE
  5
F1
100
AcDbEntity
  8
2
370
    50
100
AcDbLine
 10
115.454872
 20
-101.549298
 30
0.0
 11
115.154872
 21
-101.849298
 31
0.0
  0
LINE
  5
F2
100
AcDbEntity
  8
2
370
    50
100
AcDbLine
 10
97.954872
 20
-101.849298
 30
0.0
 11
74.454872
 21
-101.849298
 31
0.0
  0
LINE
  5
F3
100
AcDbEntity
  8
2
370
    50
100
AcDbLine
 10
74.454872
 20
-101.849298
 30
0.0
 11
73.954872
 21
-102.349298
 31
0.0
  0
LINE
  5
F4
100
AcDbEntity
  8
2
370
    50
100
AcDbLine
 10
73.954872
 20
-102.349298
 30
0.0
 11
73.954872
 21
-105.349298
 31
0.0
  0
LINE
  5
F5
100
AcDbEntity
  8
2
370
    50
100
AcDbLine
 10
73.954872
 20
-105.349298
 30
0.0
 11
74.454872
 21
-105.849298
 31
0.0
  0
LINE
  5
F6
100
AcDbEntity
  8
2
370
    50
100
AcDbLine
 10
97.954872
 20
-105.849298
 30
0.0
 11
74.454872
 21
-105.849298
 31
0.0
  0
LINE
  5
F7
100
AcDbEntity
  8
2
370
    50
100
AcDbLine
 10
80.454872
 20
-123.849298
 30
0.0
 11
80.454872
 21
-108.849298
 31
0.0
  0
LINE
  5
F8
100
AcDbEntity
  8
2
370
    25
100
AcDbLine
 10
81.204872
 20
-123.849298
 30
0.0
 11
81.204872
 21
-108.849298
 31
0.0
  0
LINE
  5
F9
100
AcDbEntity
  8
2
370
    50
100
AcDbLine
 10
97.954872
 20
-101.849298
 30
0.0
 11
121.454872
 21
-101.849298
 31
0.0
  0
LINE
  5
FA
100
AcDbEntity
  8
2
370
    50
100
AcDbLine
 10
121.454872
 20
-101.849298
 30
0.0
 11
121.954872
 21
-102.349298
 31
0.0
  0
LINE
  5
FB
100
AcDbEntity
  8
2
370
    50
100
AcDbLine
 10
121.954872
 20
-102.349298
 30
0.0
 11
121.954872
 21
-105.349298
 31
0.0
  0
LINE
  5
FC
100
AcDbEntity
  8
2
370
    50
100
AcDbLine
 10
121.954872
 20
-105.349298
 30
0.0
 11
121.454872
 21
-105.849298
 31
0.0
  0
LINE
  5
FD
100
AcDbEntity
  8
2
370
    50
100
AcDbLine
 10
97.954872
 20
-105.849298
 30
0.0
 11
121.454872
 21
-105.849298
 31
0.0
  0
LINE
  5
FE
100
AcDbEntity
  8
2
370
    50
100
AcDbLine
 10
115.454872
 20
-123.849298
 30
0.0
 11
115.454872
 21
-108.849298
 31
0.0
  0
LINE
  5
FF
100
AcDbEntity
  8
2
370
    25
100
AcDbLine
 10
114.704872
 20
-123.849298
 30
0.0
 11
114.704872
 21
-108.849298
 31
0.0
  0
LINE
  5
100
100
AcDbEntity
  8
2
370
    25
100
AcDbLine
 10
80.454872
 20
-101.549298
 30
0.0
 11
115.454872
 21
-101.549298
 31
0.0
  0
LINE
  5
101
100
AcDbEntity
  8
2
370
    25
100
AcDbLine
 10
73.954872
 20
-102.349298
 30
0.0
 11
121.954872
 21
-102.349298
 31
0.0
  0
LINE
  5
102
100
AcDbEntity
  8
2
370
    25
100
AcDbLine
 10
121.954872
 20
-105.349298
 30
0.0
 11
73.954872
 21
-105.349298
 31
0.0
  0
LINE
  5
103
100
AcDbEntity
  8
2
370
    50
100
AcDbLine
 10
74.454872
 20
-105.849298
 30
0.0
 11
74.454872
 21
-108.849298
 31
0.0
  0
LINE
  5
104
100
AcDbEntity
  8
2
370
    50
100
AcDbLine
 10
121.454872
 20
-105.849298
 30
0.0
 11
121.454872
 21
-108.849298
 31
0.0
  0
LINE
  5
105
100
AcDbEntity
  8
2
370
    50
100
AcDbLine
 10
74.454872
 20
-108.849298
 30
0.0
 11
121.454872
 21
-108.849298
 31
0.0
  0
HATCH
  5
106
100
AcDbEntity
  8
2
370
    25
100
AcDbHatch
 10
0.0
 20
0.0
 30
0.0
210
0.0
220
0.0
230
1.0
  2
_U
 70
     0
 71
     1
 91
        1
 92
        1
 93
        5
 72
     1
 10
121.45487199999999
 20
-108.849298
 11
121.45487199999999
 21
-105.849298
 72
     1
 10
121.45487199999999
 20
-105.849298
 11
97.954871999999995
 21
-105.849298
 72
     1
 10
97.954871999999995
 20
-105.849298
 11
74.454871999999995
 21
-105.849298
 72
     1
 10
74.454871999999995
 20
-105.849298
 11
74.454871999999995
 21
-108.849298
 72
     1
 10
74.454871999999995
 20
-108.849298
 11
121.45487199999999
 21
-108.849298
 97
        5
330
0
330
0
330
0
330
0
330
0
 75
     0
 76
     0
 52
45.0
 41
1.0
 77
     0
 78
     1
 53
45.0
 43
0.0
 44
0.0
 45
-2.1213199999999999
 46
2.1213199999999999
 79
     0
 98
        1
 10
0.0
 20
0.0
  0
LINE
  5
107
100
AcDbEntity
  8
2
370
    50
100
AcDbLine
 10
80.454872
 20
57.850702
 30
0.0
 11
80.754872
 21
58.150702
 31
0.0
  0
LINE
  5
108
100
AcDbEntity
  8
2
370
    25
100
AcDbLine
 10
80.454872
 20
57.850702
 30
0.0
 11
115.454872
 21
57.850702
 31
0.0
  0
LINE
  5
109
100
AcDbEntity
  8
2
370
    50
100
AcDbLine
 10
115.454872
 20
57.850702
 30
0.0
 11
115.154872
 21
58.150702
 31
0.0
  0
LINE
  5
10A
100
AcDbEntity
  8
2
370
    50
100
AcDbLine
 10
81.954872
 20
-145.849298
 30
0.0
 11
113.954872
 21
-145.849298
 31
0.0
  0
LINE
  5
10B
100
AcDbEntity
  8
2
370
    50
100
AcDbLine
 10
81.954872
 20
-137.849298
 30
0.0
 11
81.954872
 21
-145.849298
 31
0.0
  0
LINE
  5
10C
100
AcDbEntity
  8
2
370
    50
100
AcDbLine
 10
113.954872
 20
-137.849298
 30
0.0
 11
113.954872
 21
-145.849298
 31
0.0
  0
LINE
  5
10D
100
AcDbEntity
  8
2
370
    50
100
AcDbLine
 10
72.954872
 20
-123.849298
 30
0.0
 11
122.954872
 21
-123.849298
 31
0.0
  0
LINE
  5
10E
100
AcDbEntity
  8
2
370
    50
100
AcDbLine
 10
123.954872
 20
-125.849298
 30
0.0
 11
71.954872
 21
-125.849298
 31
0.0
  0
LINE
  5
10F
100
AcDbEntity
  8
2
370
    50
100
AcDbLine
 10
120.954872
 20
-137.849298
 30
0.0
 11
74.954872
 21
-137.849298
 31
0.0
  0
LINE
  5
110
100
AcDbEntity
  8
2
370
    50
100
AcDbLine
 10
71.954872
 20
-127.849298
 30
0.0
 11
71.954872
 21
-125.849298
 31
0.0
  0
LINE
  5
111
100
AcDbEntity
  8
2
370
    50
100
AcDbLine
 10
74.954872
 20
-137.849298
 30
0.0
 11
74.954872
 21
-129.849298
 31
0.0
  0
LINE
  5
112
100
AcDbEntity
  8
2
370
    50
100
AcDbLine
 10
122.954872
 20
-128.849298
 30
0.0
 11
72.954872
 21
-128.849298
 31
0.0
  0
LINE
  5
113
100
AcDbEntity
  8
2
370
    50
100
AcDbLine
 10
75.954872
 20
-136.757298
 30
0.0
 11
75.954872
 21
-128.849298
 31
0.0
  0
LINE
  5
114
100
AcDbEntity
  8
2
370
    50
100
AcDbLine
 10
119.954872
 20
-136.757298
 30
0.0
 11
119.954872
 21
-128.849298
 31
0.0
  0
LINE
  5
115
100
AcDbEntity
  8
2
370
    50
100
AcDbLine
 10
98.954872
 20
-136.757298
 30
0.0
 11
98.954872
 21
-128.849298
 31
0.0
  0
LINE
  5
116
100
AcDbEntity
  8
2
370
    50
100
AcDbLine
 10
96.954872
 20
-136.757298
 30
0.0
 11
96.954872
 21
-128.849298
 31
0.0
  0
LINE
  5
117
100
AcDbEntity
  8
2
370
    50
100
AcDbLine
 10
75.954872
 20
-136.757298
 30
0.0
 11
74.954872
 21
-136.757298
 31
0.0
  0
LINE
  5
118
100
AcDbEntity
  8
2
370
    50
100
AcDbLine
 10
120.954872
 20
-136.757298
 30
0.0
 11
119.954872
 21
-136.757298
 31
0.0
  0
LINE
  5
119
100
AcDbEntity
  8
2
370
    50
100
AcDbLine
 10
98.954872
 20
-136.757298
 30
0.0
 11
96.954872
 21
-136.757298
 31
0.0
  0
ARC
  5
11A
100
AcDbEntity
  8
2
370
    50
100
AcDbCircle
 10
86.454872
 20
-86.822528
 30
0.0
 40
51.026769
100
AcDbArc
 50
258.125168
 51
281.874832
  0
ARC
  5
11B
100
AcDbEntity
  8
2
370
    50
100
AcDbCircle
 10
109.454872
 20
-86.822528
 30
0.0
 40
51.026769
100
AcDbArc
 50
258.125168
 51
281.874832
  0
ARC
  5
11C
100
AcDbEntity
  8
2
370
    50
100
AcDbCircle
 10
73.954872
 20
-129.849298
 30
0.0
 40
1.0
100
AcDbArc
 50
0.0
 51
90.0
  0
ARC
  5
11D
100
AcDbEntity
  8
2
370
    50
100
AcDbCircle
 10
72.954872
 20
-127.849298
 30
0.0
 40
1.0
100
AcDbArc
 50
180.0
 51
270.0
  0
LINE
  5
11E
100
AcDbEntity
  8
2
370
    50
100
AcDbLine
 10
72.954872
 20
-125.349298
 30
0.0
 11
122.954872
 21
-125.349298
 31
0.0
  0
LINE
  5
11F
100
AcDbEntity
  8
2
370
    50
100
AcDbLine
 10
72.954872
 20
-123.849298
 30
0.0
 11
72.954872
 21
-125.849298
 31
0.0
  0
LINE
  5
120
100
AcDbEntity
  8
2
370
    50
100
AcDbLine
 10
72.954872
 20
-123.849298
 30
0.0
 11
122.954872
 21
-123.849298
 31
0.0
  0
LINE
  5
121
100
AcDbEntity
  8
2
370
    50
100
AcDbLine
 10
122.954872
 20
-123.849298
 30
0.0
 11
122.954872
 21
-125.849298
 31
0.0
  0
LINE
  5
122
100
AcDbEntity
  8
2
370
    50
100
AcDbLine
 10
123.954872
 20
-127.849298
 30
0.0
 11
123.954872
 21
-125.849298
 31
0.0
  0
ARC
  5
123
100
AcDbEntity
  8
2
370
    50
100
AcDbCircle
 10
122.954872
 20
-127.849298
 30
0.0
 40
1.0
100
AcDbArc
 50
270.0
 51
360.0
  0
LINE
  5
124
100
AcDbEntity
  8
2
370
    50
100
AcDbLine
 10
120.954872
 20
-137.849298
 30
0.0
 11
120.954872
 21
-129.849298
 31
0.0
  0
ARC
  5
125
100
AcDbEntity
  8
2
370
    50
100
AcDbCircle
 10
121.954872
 20
-129.849298
 30
0.0
 40
1.0
100
AcDbArc
 50
90.0
 51
180.0
  0
LINE
  5
126
100
AcDbEntity
  8
2
370
    50
100
AcDbLine
 10
315.421063
 20
58.150702
 30
0.0
 11
349.821063
 21
58.150702
 31
0.0
  0
LINE
  5
127
100
AcDbEntity
  8
2
370
    25
100
AcDbLine
 10
350.121063
 20
57.850702
 30
0.0
 11
315.121063
 21
57.850702
 31
0.0
  0
LINE
  5
128
100
AcDbEntity
  8
2
370
    50
100
AcDbLine
 10
350.121063
 20
57.850702
 30
0.0
 11
349.821063
 21
58.150702
 31
0.0
  0
LINE
  5
129
100
AcDbEntity
  8
2
370
    50
100
AcDbLine
 10
315.121063
 20
57.850702
 30
0.0
 11
315.421063
 21
58.150702
 31
0.0
  0
LINE
  5
12A
100
AcDbEntity
  8
2
370
    50
100
AcDbLine
 10
315.121063
 20
-101.549298
 30
0.0
 11
315.121063
 21
57.850702
 31
0.0
  0
LINE
  5
12B
100
AcDbEntity
  8
2
370
    50
100
AcDbLine
 10
350.121063
 20
57.850702
 30
0.0
 11
350.121063
 21
-101.549298
 31
0.0
  0
LINE
  5
12C
100
AcDbEntity
  8
2
370
    50
100
AcDbLine
 10
315.121063
 20
-101.549298
 30
0.0
 11
315.421063
 21
-101.849298
 31
0.0
  0
LINE
  5
12D
100
AcDbEntity
  8
2
370
    50
100
AcDbLine
 10
350.121063
 20
-101.549298
 30
0.0
 11
349.821063
 21
-101.849298
 31
0.0
  0
LINE
  5
12E
100
AcDbEntity
  8
2
370
    25
100
AcDbLine
 10
315.121063
 20
-101.549298
 30
0.0
 11
350.121063
 21
-101.549298
 31
0.0
  0
LINE
  5
12F
100
AcDbEntity
  8
2
370
    50
100
AcDbLine
 10
-352.953258
 20
-145.849298
 30
0.0
 11
-352.953258
 21
-158.849298
 31
0.0
  0
LINE
  5
130
100
AcDbEntity
  8
2
370
    50
100
AcDbLine
 10
-342.953258
 20
-145.849298
 30
0.0
 11
-342.953258
 21
-158.849298
 31
0.0
  0
LINE
  5
131
100
AcDbEntity
  8
2
370
    50
100
AcDbLine
 10
-347.953258
 20
-158.849298
 30
0.0
 11
-342.203258
 21
-158.849298
 31
0.0
  0
LINE
  5
132
100
AcDbEntity
  8
2
370
    50
100
AcDbLine
 10
-347.953258
 20
-174.349298
 30
0.0
 11
-342.203258
 21
-174.349298
 31
0.0
  0
LINE
  5
133
100
AcDbEntity
  8
2
370
    50
100
AcDbLine
 10
-341.703258
 20
-159.349298
 30
0.0
 11
-341.703258
 21
-173.849298
 31
0.0
  0
LINE
  5
134
100
AcDbEntity
  8
2
370
    50
100
AcDbLine
 10
-341.703258
 20
-159.349298
 30
0.0
 11
-342.203258
 21
-158.849298
 31
0.0
  0
LINE
  5
135
100
AcDbEntity
  8
2
370
    50
100
AcDbLine
 10
-341.703258
 20
-173.849298
 30
0.0
 11
-342.203258
 21
-174.349298
 31
0.0
  0
LINE
  5
136
100
AcDbEntity
  8
2
370
    50
100
AcDbLine
 10
-343.632106
 20
-173.849298
 30
0.0
 11
-346.203258
 21
-173.849298
 31
0.0
  0
LINE
  5
137
100
AcDbEntity
  8
2
370
    50
100
AcDbLine
 10
-343.632106
 20
-159.349298
 30
0.0
 11
-346.203258
 21
-159.349298
 31
0.0
  0
LINE
  5
138
100
AcDbEntity
  8
2
370
    50
100
AcDbLine
 10
-341.882106
 20
-159.349298
 30
0.0
 11
-341.882106
 21
-173.849298
 31
0.0
  0
LINE
  5
139
100
AcDbEntity
  8
2
370
    50
100
AcDbLine
 10
-343.632106
 20
-159.349298
 30
0.0
 11
-343.632106
 21
-173.849298
 31
0.0
  0
LINE
  5
13A
100
AcDbEntity
  8
2
370
    50
100
AcDbLine
 10
-346.203258
 20
-159.349298
 30
0.0
 11
-346.203258
 21
-173.849298
 31
0.0
  0
LINE
  5
13B
100
AcDbEntity
  8
2
370
    50
100
AcDbLine
 10
-341.703258
 20
-173.849298
 30
0.0
 11
-341.882106
 21
-173.849298
 31
0.0
  0
LINE
  5
13C
100
AcDbEntity
  8
2
370
    50
100
AcDbLine
 10
-341.703258
 20
-159.349298
 30
0.0
 11
-341.882106
 21
-159.349298
 31
0.0
  0
ARC
  5
13D
100
AcDbEntity
  8
2
370
    50
100
AcDbCircle
 10
-347.953258
 20
-165.349298
 30
0.0
 40
6.25
100
AcDbArc
 50
73.739795
 51
90.0
  0
ARC
  5
13E
100
AcDbEntity
  8
2
370
    50
100
AcDbCircle
 10
-342.757106
 20
-160.755548
 30
0.0
 40
1.65625
100
AcDbArc
 50
58.109208
 51
121.890792
  0
ARC
  5
13F
100
AcDbEntity
  8
2
370
    50
100
AcDbCircle
 10
-342.757106
 20
-172.443048
 30
0.0
 40
1.65625
100
AcDbArc
 50
238.109208
 51
301.890792
  0
ARC
  5
140
100
AcDbEntity
  8
2
370
    50
100
AcDbCircle
 10
-347.953258
 20
-167.849298
 30
0.0
 40
6.25
100
AcDbArc
 50
270.0
 51
286.260205
  0
LINE
  5
141
100
AcDbEntity
  8
2
370
    50
100
AcDbLine
 10
-347.953258
 20
-158.849298
 30
0.0
 11
-353.703258
 21
-158.849298
 31
0.0
  0
LINE
  5
142
100
AcDbEntity
  8
2
370
    50
100
AcDbLine
 10
-347.953258
 20
-174.349298
 30
0.0
 11
-353.703258
 21
-174.349298
 31
0.0
  0
LINE
  5
143
100
AcDbEntity
  8
2
370
    50
100
AcDbLine
 10
-354.203258
 20
-159.349298
 30
0.0
 11
-354.203258
 21
-173.849298
 31
0.0
  0
LINE
  5
144
100
AcDbEntity
  8
2
370
    50
100
AcDbLine
 10
-354.203258
 20
-159.349298
 30
0.0
 11
-353.703258
 21
-158.849298
 31
0.0
  0
LINE
  5
145
100
AcDbEntity
  8
2
370
    50
100
AcDbLine
 10
-354.203258
 20
-173.849298
 30
0.0
 11
-353.703258
 21
-174.349298
 31
0.0
  0
LINE
  5
146
100
AcDbEntity
  8
2
370
    50
100
AcDbLine
 10
-352.274411
 20
-173.849298
 30
0.0
 11
-349.703258
 21
-173.849298
 31
0.0
  0
LINE
  5
147
100
AcDbEntity
  8
2
370
    50
100
AcDbLine
 10
-352.274411
 20
-159.349298
 30
0.0
 11
-349.703258
 21
-159.349298
 31
0.0
  0
LINE
  5
148
100
AcDbEntity
  8
2
370
    50
100
AcDbLine
 10
-354.024411
 20
-159.349298
 30
0.0
 11
-354.024411
 21
-173.849298
 31
0.0
  0
LINE
  5
149
100
AcDbEntity
  8
2
370
    50
100
AcDbLine
 10
-352.274411
 20
-159.349298
 30
0.0
 11
-352.274411
 21
-173.849298
 31
0.0
  0
LINE
  5
14A
100
AcDbEntity
  8
2
370
    50
100
AcDbLine
 10
-349.703258
 20
-159.349298
 30
0.0
 11
-349.703258
 21
-173.849298
 31
0.0
  0
LINE
  5
14B
100
AcDbEntity
  8
2
370
    50
100
AcDbLine
 10
-354.203258
 20
-173.849298
 30
0.0
 11
-354.024411
 21
-173.849298
 31
0.0
  0
LINE
  5
14C
100
AcDbEntity
  8
2
370
    50
100
AcDbLine
 10
-354.203258
 20
-159.349298
 30
0.0
 11
-354.024411
 21
-159.349298
 31
0.0
  0
ARC
  5
14D
100
AcDbEntity
  8
2
370
    50
100
AcDbCircle
 10
-347.953258
 20
-165.349298
 30
0.0
 40
6.25
100
AcDbArc
 50
90.0
 51
106.260205
  0
ARC
  5
14E
100
AcDbEntity
  8
2
370
    50
100
AcDbCircle
 10
-353.149411
 20
-160.755548
 30
0.0
 40
1.65625
100
AcDbArc
 50
58.109208
 51
121.890792
  0
ARC
  5
14F
100
AcDbEntity
  8
2
370
    50
100
AcDbCircle
 10
-353.149411
 20
-172.443048
 30
0.0
 40
1.65625
100
AcDbArc
 50
238.109208
 51
301.890792
  0
ARC
  5
150
100
AcDbEntity
  8
2
370
    50
100
AcDbCircle
 10
-347.953258
 20
-167.849298
 30
0.0
 40
6.25
100
AcDbArc
 50
253.739795
 51
270.0
  0
LINE
  5
151
100
AcDbEntity
  8
2
370
    50
100
AcDbLine
 10
-368.953258
 20
-145.849298
 30
0.0
 11
-368.953258
 21
-158.849298
 31
0.0
  0
LINE
  5
152
100
AcDbEntity
  8
2
370
    50
100
AcDbLine
 10
-358.953258
 20
-145.849298
 30
0.0
 11
-358.953258
 21
-158.849298
 31
0.0
  0
LINE
  5
153
100
AcDbEntity
  8
2
370
    50
100
AcDbLine
 10
-363.953258
 20
-158.849298
 30
0.0
 11
-358.203258
 21
-158.849298
 31
0.0
  0
LINE
  5
154
100
AcDbEntity
  8
2
370
    50
100
AcDbLine
 10
-363.953258
 20
-174.349298
 30
0.0
 11
-358.203258
 21
-174.349298
 31
0.0
  0
LINE
  5
155
100
AcDbEntity
  8
2
370
    50
100
AcDbLine
 10
-357.703258
 20
-159.349298
 30
0.0
 11
-357.703258
 21
-173.849298
 31
0.0
  0
LINE
  5
156
100
AcDbEntity
  8
2
370
    50
100
AcDbLine
 10
-357.703258
 20
-159.349298
 30
0.0
 11
-358.203258
 21
-158.849298
 31
0.0
  0
LINE
  5
157
100
AcDbEntity
  8
2
370
    50
100
AcDbLine
 10
-357.703258
 20
-173.849298
 30
0.0
 11
-358.203258
 21
-174.349298
 31
0.0
  0
LINE
  5
158
100
AcDbEntity
  8
2
370
    50
100
AcDbLine
 10
-359.632106
 20
-173.849298
 30
0.0
 11
-362.203258
 21
-173.849298
 31
0.0
  0
LINE
  5
159
100
AcDbEntity
  8
2
370
    50
100
AcDbLine
 10
-359.632106
 20
-159.349298
 30
0.0
 11
-362.203258
 21
-159.349298
 31
0.0
  0
LINE
  5
15A
100
AcDbEntity
  8
2
370
    50
100
AcDbLine
 10
-357.882106
 20
-159.349298
 30
0.0
 11
-357.882106
 21
-173.849298
 31
0.0
  0
LINE
  5
15B
100
AcDbEntity
  8
2
370
    50
100
AcDbLine
 10
-359.632106
 20
-159.349298
 30
0.0
 11
-359.632106
 21
-173.849298
 31
0.0
  0
LINE
  5
15C
100
AcDbEntity
  8
2
370
    50
100
AcDbLine
 10
-362.203258
 20
-159.349298
 30
0.0
 11
-362.203258
 21
-173.849298
 31
0.0
  0
LINE
  5
15D
100
AcDbEntity
  8
2
370
    50
100
AcDbLine
 10
-357.703258
 20
-173.849298
 30
0.0
 11
-357.882106
 21
-173.849298
 31
0.0
  0
LINE
  5
15E
100
AcDbEntity
  8
2
370
    50
100
AcDbLine
 10
-357.703258
 20
-159.349298
 30
0.0
 11
-357.882106
 21
-159.349298
 31
0.0
  0
ARC
  5
15F
100
AcDbEntity
  8
2
370
    50
100
AcDbCircle
 10
-363.953258
 20
-165.349298
 30
0.0
 40
6.25
100
AcDbArc
 50
73.739795
 51
90.0
  0
ARC
  5
160
100
AcDbEntity
  8
2
370
    50
100
AcDbCircle
 10
-358.757106
 20
-160.755548
 30
0.0
 40
1.65625
100
AcDbArc
 50
58.109208
 51
121.890792
  0
ARC
  5
161
100
AcDbEntity
  8
2
370
    50
100
AcDbCircle
 10
-358.757106
 20
-172.443048
 30
0.0
 40
1.65625
100
AcDbArc
 50
238.109208
 51
301.890792
  0
ARC
  5
162
100
AcDbEntity
  8
2
370
    50
100
AcDbCircle
 10
-363.953258
 20
-167.849298
 30
0.0
 40
6.25
100
AcDbArc
 50
270.0
 51
286.260205
  0
LINE
  5
163
100
AcDbEntity
  8
2
370
    50
100
AcDbLine
 10
-363.953258
 20
-158.849298
 30
0.0
 11
-369.703258
 21
-158.849298
 31
0.0
  0
LINE
  5
164
100
AcDbEntity
  8
2
370
    50
100
AcDbLine
 10
-363.953258
 20
-174.349298
 30
0.0
 11
-369.703258
 21
-174.349298
 31
0.0
  0
LINE
  5
165
100
AcDbEntity
  8
2
370
    50
100
AcDbLine
 10
-370.203258
 20
-159.349298
 30
0.0
 11
-370.203258
 21
-173.849298
 31
0.0
  0
LINE
  5
166
100
AcDbEntity
  8
2
370
    50
100
AcDbLine
 10
-370.203258
 20
-159.349298
 30
0.0
 11
-369.703258
 21
-158.849298
 31
0.0
  0
LINE
  5
167
100
AcDbEntity
  8
2
370
    50
100
AcDbLine
 10
-370.203258
 20
-173.849298
 30
0.0
 11
-369.703258
 21
-174.349298
 31
0.0
  0
LINE
  5
168
100
AcDbEntity
  8
2
370
    50
100
AcDbLine
 10
-368.274411
 20
-173.849298
 30
0.0
 11
-365.703258
 21
-173.849298
 31
0.0
  0
LINE
  5
169
100
AcDbEntity
  8
2
370
    50
100
AcDbLine
 10
-368.274411
 20
-159.349298
 30
0.0
 11
-365.703258
 21
-159.349298
 31
0.0
  0
LINE
  5
16A
100
AcDbEntity
  8
2
370
    50
100
AcDbLine
 10
-370.024411
 20
-159.349298
 30
0.0
 11
-370.024411
 21
-173.849298
 31
0.0
  0
LINE
  5
16B
100
AcDbEntity
  8
2
370
    50
100
AcDbLine
 10
-368.274411
 20
-159.349298
 30
0.0
 11
-368.274411
 21
-173.849298
 31
0.0
  0
LINE
  5
16C
100
AcDbEntity
  8
2
370
    50
100
AcDbLine
 10
-365.703258
 20
-159.349298
 30
0.0
 11
-365.703258
 21
-173.849298
 31
0.0
  0
LINE
  5
16D
100
AcDbEntity
  8
2
370
    50
100
AcDbLine
 10
-370.203258
 20
-173.849298
 30
0.0
 11
-370.024411
 21
-173.849298
 31
0.0
  0
LINE
  5
16E
100
AcDbEntity
  8
2
370
    50
100
AcDbLine
 10
-370.203258
 20
-159.349298
 30
0.0
 11
-370.024411
 21
-159.349298
 31
0.0
  0
ARC
  5
16F
100
AcDbEntity
  8
2
370
    50
100
AcDbCircle
 10
-363.953258
 20
-165.349298
 30
0.0
 40
6.25
100
AcDbArc
 50
90.0
 51
106.260205
  0
ARC
  5
170
100
AcDbEntity
  8
2
370
    50
100
AcDbCircle
 10
-369.149411
 20
-160.755548
 30
0.0
 40
1.65625
100
AcDbArc
 50
58.109208
 51
121.890792
  0
ARC
  5
171
100
AcDbEntity
  8
2
370
    50
100
AcDbCircle
 10
-369.149411
 20
-172.443048
 30
0.0
 40
1.65625
100
AcDbArc
 50
238.109208
 51
301.890792
  0
ARC
  5
172
100
AcDbEntity
  8
2
370
    50
100
AcDbCircle
 10
-363.953258
 20
-167.849298
 30
0.0
 40
6.25
100
AcDbArc
 50
253.739795
 51
270.0
  0
LINE
  5
173
100
AcDbEntity
  8
2
370
    50
100
AcDbLine
 10
-358.453259
 20
-174.349298
 30
0.0
 11
-368.716398
 21
-174.349298
 31
0.0
  0
LINE
  5
174
100
AcDbEntity
  8
2
370
    50
100
AcDbLine
 10
-368.953259
 20
-174.349298
 30
0.0
 11
-369.453259
 21
-174.349298
 31
0.0
  0
LINE
  5
175
100
AcDbEntity
  8
2
370
    50
100
AcDbLine
 10
-342.453259
 20
-174.349298
 30
0.0
 11
-353.453259
 21
-174.349298
 31
0.0
  0
POINT
  5
176
100
AcDbEntity
  8
2
370
    50
100
AcDbPoint
 10
-293.265416
 20
-317.245601
 30
0.0
  0
POINT
  5
177
100
AcDbEntity
  8
2
370
    50
100
AcDbPoint
 10
93.454872
 20
-145.849298
 30
0.0
  0
POINT
  5
178
100
AcDbEntity
  8
2
370
    50
100
AcDbPoint
 10
-347.953258
 20
-145.849298
 30
0.0
  0
LINE
  5
179
100
AcDbEntity
  8
2
370
    50
100
AcDbLine
 10
88.454872
 20
-145.849298
 30
0.0
 11
88.454872
 21
-158.849298
 31
0.0
  0
LINE
  5
17A
100
AcDbEntity
  8
2
370
    50
100
AcDbLine
 10
98.454872
 20
-145.849298
 30
0.0
 11
98.454872
 21
-158.849298
 31
0.0
  0
LINE
  5
17B
100
AcDbEntity
  8
2
370
    50
100
AcDbLine
 10
93.454872
 20
-158.849298
 30
0.0
 11
99.204872
 21
-158.849298
 31
0.0
  0
LINE
  5
17C
100
AcDbEntity
  8
2
370
    50
100
AcDbLine
 10
93.454872
 20
-174.349298
 30
0.0
 11
99.204872
 21
-174.349298
 31
0.0
  0
LINE
  5
17D
100
AcDbEntity
  8
2
370
    50
100
AcDbLine
 10
99.704872
 20
-159.349298
 30
0.0
 11
99.704872
 21
-173.849298
 31
0.0
  0
LINE
  5
17E
100
AcDbEntity
  8
2
370
    50
100
AcDbLine
 10
99.704872
 20
-159.349298
 30
0.0
 11
99.204872
 21
-158.849298
 31
0.0
  0
LINE
  5
17F
100
AcDbEntity
  8
2
370
    50
100
AcDbLine
 10
99.704872
 20
-173.849298
 30
0.0
 11
99.204872
 21
-174.349298
 31
0.0
  0
LINE
  5
180
100
AcDbEntity
  8
2
370
    50
100
AcDbLine
 10
97.776025
 20
-173.849298
 30
0.0
 11
95.204872
 21
-173.849298
 31
0.0
  0
LINE
  5
181
100
AcDbEntity
  8
2
370
    50
100
AcDbLine
 10
97.776025
 20
-159.349298
 30
0.0
 11
95.204872
 21
-159.349298
 31
0.0
  0
LINE
  5
182
100
AcDbEntity
  8
2
370
    50
100
AcDbLine
 10
99.526025
 20
-159.349298
 30
0.0
 11
99.526025
 21
-173.849298
 31
0.0
  0
LINE
  5
183
100
AcDbEntity
  8
2
370
    50
100
AcDbLine
 10
97.776025
 20
-159.349298
 30
0.0
 11
97.776025
 21
-173.849298
 31
0.0
  0
LINE
  5
184
100
AcDbEntity
  8
2
370
    50
100
AcDbLine
 10
95.204872
 20
-159.349298
 30
0.0
 11
95.204872
 21
-173.849298
 31
0.0
  0
LINE
  5
185
100
AcDbEntity
  8
2
370
    50
100
AcDbLine
 10
99.704872
 20
-173.849298
 30
0.0
 11
99.526025
 21
-173.849298
 31
0.0
  0
LINE
  5
186
100
AcDbEntity
  8
2
370
    50
100
AcDbLine
 10
99.704872
 20
-159.349298
 30
0.0
 11
99.526025
 21
-159.349298
 31
0.0
  0
ARC
  5
187
100
AcDbEntity
  8
2
370
    50
100
AcDbCircle
 10
93.454872
 20
-165.349298
 30
0.0
 40
6.25
100
AcDbArc
 50
73.739795
 51
90.0
  0
ARC
  5
188
100
AcDbEntity
  8
2
370
    50
100
AcDbCircle
 10
98.651025
 20
-160.755548
 30
0.0
 40
1.65625
100
AcDbArc
 50
58.109208
 51
121.890792
  0
ARC
  5
189
100
AcDbEntity
  8
2
370
    50
100
AcDbCircle
 10
98.651025
 20
-172.443048
 30
0.0
 40
1.65625
100
AcDbArc
 50
238.109208
 51
301.890792
  0
ARC
  5
18A
100
AcDbEntity
  8
2
370
    50
100
AcDbCircle
 10
93.454872
 20
-167.849298
 30
0.0
 40
6.25
100
AcDbArc
 50
270.0
 51
286.260205
  0
LINE
  5
18B
100
AcDbEntity
  8
2
370
    50
100
AcDbLine
 10
93.454872
 20
-158.849298
 30
0.0
 11
87.704872
 21
-158.849298
 31
0.0
  0
LINE
  5
18C
100
AcDbEntity
  8
2
370
    50
100
AcDbLine
 10
93.454872
 20
-174.349298
 30
0.0
 11
87.704872
 21
-174.349298
 31
0.0
  0
LINE
  5
18D
100
AcDbEntity
  8
2
370
    50
100
AcDbLine
 10
87.204872
 20
-159.349298
 30
0.0
 11
87.204872
 21
-173.849298
 31
0.0
  0
LINE
  5
18E
100
AcDbEntity
  8
2
370
    50
100
AcDbLine
 10
87.204872
 20
-159.349298
 30
0.0
 11
87.704872
 21
-158.849298
 31
0.0
  0
LINE
  5
18F
100
AcDbEntity
  8
2
370
    50
100
AcDbLine
 10
87.204872
 20
-173.849298
 30
0.0
 11
87.704872
 21
-174.349298
 31
0.0
  0
LINE
  5
190
100
AcDbEntity
  8
2
370
    50
100
AcDbLine
 10
89.13372
 20
-173.849298
 30
0.0
 11
91.704872
 21
-173.849298
 31
0.0
  0
LINE
  5
191
100
AcDbEntity
  8
2
370
    50
100
AcDbLine
 10
89.13372
 20
-159.349298
 30
0.0
 11
91.704872
 21
-159.349298
 31
0.0
  0
LINE
  5
192
100
AcDbEntity
  8
2
370
    50
100
AcDbLine
 10
87.38372
 20
-159.349298
 30
0.0
 11
87.38372
 21
-173.849298
 31
0.0
  0
LINE
  5
193
100
AcDbEntity
  8
2
370
    50
100
AcDbLine
 10
89.13372
 20
-159.349298
 30
0.0
 11
89.13372
 21
-173.849298
 31
0.0
  0
LINE
  5
194
100
AcDbEntity
  8
2
370
    50
100
AcDbLine
 10
91.704872
 20
-159.349298
 30
0.0
 11
91.704872
 21
-173.849298
 31
0.0
  0
LINE
  5
195
100
AcDbEntity
  8
2
370
    50
100
AcDbLine
 10
87.204872
 20
-173.849298
 30
0.0
 11
87.38372
 21
-173.849298
 31
0.0
  0
LINE
  5
196
100
AcDbEntity
  8
2
370
    50
100
AcDbLine
 10
87.204872
 20
-159.349298
 30
0.0
 11
87.38372
 21
-159.349298
 31
0.0
  0
ARC
  5
197
100
AcDbEntity
  8
2
370
    50
100
AcDbCircle
 10
93.454872
 20
-165.349298
 30
0.0
 40
6.25
100
AcDbArc
 50
90.0
 51
106.260205
  0
ARC
  5
198
100
AcDbEntity
  8
2
370
    50
100
AcDbCircle
 10
88.25872
 20
-160.755548
 30
0.0
 40
1.65625
100
AcDbArc
 50
58.109208
 51
121.890792
  0
ARC
  5
199
100
AcDbEntity
  8
2
370
    50
100
AcDbCircle
 10
88.25872
 20
-172.443048
 30
0.0
 40
1.65625
100
AcDbArc
 50
238.109208
 51
301.890792
  0
ARC
  5
19A
100
AcDbEntity
  8
2
370
    50
100
AcDbCircle
 10
93.454872
 20
-167.849298
 30
0.0
 40
6.25
100
AcDbArc
 50
253.739795
 51
270.0
  0
LINE
  5
19B
100
AcDbEntity
  8
2
370
    50
100
AcDbLine
 10
98.954872
 20
-174.349298
 30
0.0
 11
87.954872
 21
-174.349298
 31
0.0
  0
LINE
  5
19C
100
AcDbEntity
  8
2
370
    50
100
AcDbLine
 10
-5.914762
 20
115.43951
 30
0.0
 11
-5.657647
 21
115.745928
 31
0.0
  0
LINE
  5
19D
100
AcDbEntity
  8
2
370
    50
100
AcDbLine
 10
-5.657647
 20
115.745928
 30
0.0
 11
-5.737852
 21
115.291064
 31
0.0
  0
LINE
  5
19E
100
AcDbEntity
  8
2
370
    50
100
AcDbLine
 10
6.84907
 20
104.729383
 30
0.0
 11
7.106185
 21
105.0358
 31
0.0
  0
LINE
  5
19F
100
AcDbEntity
  8
2
370
    50
100
AcDbLine
 10
7.106185
 20
105.0358
 30
0.0
 11
6.67216
 21
104.877828
 31
0.0
  0
LINE
  5
1A0
100
AcDbEntity
  8
2
370
    50
100
AcDbLine
 10
-7.131662
 20
115.807906
 30
0.0
 11
-19.344627
 21
101.253062
 31
0.0
  0
LINE
  5
1A1
100
AcDbEntity
  8
2
370
    50
100
AcDbLine
 10
7.423182
 20
103.594942
 30
0.0
 11
-4.789782
 21
89.040097
 31
0.0
  0
ARC
  5
1A2
100
AcDbEntity
  8
2
370
    50
100
AcDbCircle
 10
-18.961604
 20
100.931668
 30
0.0
 40
0.5
100
AcDbArc
 50
140.0
 51
230.0
  0
ARC
  5
1A3
100
AcDbEntity
  8
2
370
    50
100
AcDbCircle
 10
-5.172804
 20
89.361491
 30
0.0
 40
0.5
100
AcDbArc
 50
230.0
 51
320.0
  0
ARC
  5
1A4
100
AcDbEntity
  8
2
370
    50
100
AcDbCircle
 10
7.04016
 20
103.916335
 30
0.0
 40
0.5
100
AcDbArc
 50
320.0
 51
50.0
  0
ARC
  5
1A5
100
AcDbEntity
  8
2
370
    50
100
AcDbCircle
 10
-6.74864
 20
115.486512
 30
0.0
 40
0.5
100
AcDbArc
 50
50.0
 51
140.0
  0
LINE
  5
1A6
100
AcDbEntity
  8
2
370
    50
100
AcDbLine
 10
-6.427246
 20
115.869535
 30
0.0
 11
0.467154
 21
110.084446
 31
0.0
  0
LINE
  5
1A7
100
AcDbEntity
  8
2
370
    50
100
AcDbLine
 10
0.467154
 20
110.084446
 30
0.0
 11
7.361554
 21
104.299358
 31
0.0
  0
LINE
  5
1A8
100
AcDbEntity
  8
2
370
    50
100
AcDbLine
 10
-19.282998
 20
100.548646
 30
0.0
 11
-5.494198
 21
88.978469
 31
0.0
  0
POINT
  5
1A9
100
AcDbEntity
  8
2
370
    50
100
AcDbPoint
 10
-12.517156
 20
94.610348
 30
0.0
  0
LINE
  5
1AA
100
AcDbEntity
  8
2
370
    50
100
AcDbLine
 10
436.490698
 20
115.43951
 30
0.0
 11
436.233583
 21
115.745928
 31
0.0
  0
LINE
  5
1AB
100
AcDbEntity
  8
2
370
    50
100
AcDbLine
 10
436.233583
 20
115.745928
 30
0.0
 11
436.313787
 21
115.291064
 31
0.0
  0
LINE
  5
1AC
100
AcDbEntity
  8
2
370
    50
100
AcDbLine
 10
423.726865
 20
104.729383
 30
0.0
 11
423.46975
 21
105.0358
 31
0.0
  0
LINE
  5
1AD
100
AcDbEntity
  8
2
370
    50
100
AcDbLine
 10
423.46975
 20
105.0358
 30
0.0
 11
423.903776
 21
104.877828
 31
0.0
  0
LINE
  5
1AE
100
AcDbEntity
  8
2
370
    50
100
AcDbLine
 10
437.707598
 20
115.807906
 30
0.0
 11
449.920562
 21
101.253062
 31
0.0
  0
LINE
  5
1AF
100
AcDbEntity
  8
2
370
    50
100
AcDbLine
 10
423.152753
 20
103.594942
 30
0.0
 11
435.365718
 21
89.040097
 31
0.0
  0
ARC
  5
1B0
100
AcDbEntity
  8
2
370
    50
100
AcDbCircle
 10
449.53754
 20
100.931668
 30
0.0
 40
0.5
100
AcDbArc
 50
310.0
 51
40.0
  0
ARC
  5
1B1
100
AcDbEntity
  8
2
370
    50
100
AcDbCircle
 10
435.74874
 20
89.361491
 30
0.0
 40
0.5
100
AcDbArc
 50
220.0
 51
310.0
  0
ARC
  5
1B2
100
AcDbEntity
  8
2
370
    50
100
AcDbCircle
 10
423.535775
 20
103.916335
 30
0.0
 40
0.5
100
AcDbArc
 50
130.0
 51
220.0
  0
ARC
  5
1B3
100
AcDbEntity
  8
2
370
    50
100
AcDbCircle
 10
437.324575
 20
115.486512
 30
0.0
 40
0.5
100
AcDbArc
 50
40.0
 51
130.0
  0
LINE
  5
1B4
100
AcDbEntity
  8
2
370
    50
100
AcDbLine
 10
437.003182
 20
115.869535
 30
0.0
 11
430.108782
 21
110.084446
 31
0.0
  0
LINE
  5
1B5
100
AcDbEntity
  8
2
370
    50
100
AcDbLine
 10
430.108782
 20
110.084446
 30
0.0
 11
423.214382
 21
104.299358
 31
0.0
  0
LINE
  5
1B6
100
AcDbEntity
  8
2
370
    50
100
AcDbLine
 10
449.858934
 20
100.548646
 30
0.0
 11
436.070134
 21
88.978469
 31
0.0
  0
ELLIPSE
  5
1B7
100
AcDbEntity
  8
2
370
    50
100
AcDbEllipse
 10
-355.953258
 20
94.670348
 30
0.0
 11
9.5
 21
0.0
 31
0.0
210
0.0
220
0.0
230
1.0
 40
0.642789
 41
0.0
 42
6.2831849999999996
  0
LINE
  5
1B8
100
AcDbEntity
  8
2
370
    50
100
AcDbLine
 10
-346.453258
 20
109.991237
 30
0.0
 11
-346.453258
 21
94.670348
 31
0.0
  0
LINE
  5
1B9
100
AcDbEntity
  8
2
370
    50
100
AcDbLine
 10
-365.453258
 20
109.991237
 30
0.0
 11
-365.453258
 21
94.670348
 31
0.0
  0
ELLIPSE
  5
1BA
100
AcDbEntity
  8
2
370
    50
100
AcDbEllipse
 10
-355.953258
 20
109.991237
 30
0.0
 11
9.5
 21
0.0
 31
0.0
210
0.0
220
0.0
230
1.0
 40
0.642789
 41
0.0
 42
3.1415929999999999
  0
ELLIPSE
  5
1BB
100
AcDbEntity
  8
2
370
    50
100
AcDbEllipse
 10
-355.953258
 20
94.670348
 30
0.0
 11
7.75
 21
0.0
 31
0.0
210
0.0
220
0.0
230
1.0
 40
0.642774
 41
0.0
 42
6.2831849999999996
  0
POINT
  5
1BC
100
AcDbEntity
  8
2
370
    50
100
AcDbPoint
 10
-355.953258
 20
-123.849298
 30
0.0
  0
LINE
  5
1BD
100
AcDbEntity
  8
2
370
    50
100
AcDbLine
 10
-347.953258
 20
-158.849298
 30
0.0
 11
-342.203258
 21
-158.849298
 31
0.0
  0
LINE
  5
1BE
100
AcDbEntity
  8
2
370
    50
100
AcDbLine
 10
-347.953258
 20
-174.349298
 30
0.0
 11
-342.203258
 21
-174.349298
 31
0.0
  0
LINE
  5
1BF
100
AcDbEntity
  8
2
370
    50
100
AcDbLine
 10
-341.703258
 20
-159.349298
 30
0.0
 11
-341.703258
 21
-173.849298
 31
0.0
  0
LINE
  5
1C0
100
AcDbEntity
  8
2
370
    50
100
AcDbLine
 10
-341.703258
 20
-159.349298
 30
0.0
 11
-342.203258
 21
-158.849298
 31
0.0
  0
LINE
  5
1C1
100
AcDbEntity
  8
2
370
    50
100
AcDbLine
 10
-341.703258
 20
-173.849298
 30
0.0
 11
-342.203258
 21
-174.349298
 31
0.0
  0
LINE
  5
1C2
100
AcDbEntity
  8
2
370
    50
100
AcDbLine
 10
-343.632106
 20
-173.849298
 30
0.0
 11
-346.203258
 21
-173.849298
 31
0.0
  0
LINE
  5
1C3
100
AcDbEntity
  8
2
370
    50
100
AcDbLine
 10
-343.632106
 20
-159.349298
 30
0.0
 11
-346.203258
 21
-159.349298
 31
0.0
  0
LINE
  5
1C4
100
AcDbEntity
  8
2
370
    50
100
AcDbLine
 10
-341.882106
 20
-159.349298
 30
0.0
 11
-341.882106
 21
-173.849298
 31
0.0
  0
LINE
  5
1C5
100
AcDbEntity
  8
2
370
    50
100
AcDbLine
 10
-343.632106
 20
-159.349298
 30
0.0
 11
-343.632106
 21
-173.849298
 31
0.0
  0
LINE
  5
1C6
100
AcDbEntity
  8
2
370
    50
100
AcDbLine
 10
-346.203258
 20
-159.349298
 30
0.0
 11
-346.203258
 21
-173.849298
 31
0.0
  0
LINE
  5
1C7
100
AcDbEntity
  8
2
370
    50
100
AcDbLine
 10
-341.703258
 20
-173.849298
 30
0.0
 11
-341.882106
 21
-173.849298
 31
0.0
  0
LINE
  5
1C8
100
AcDbEntity
  8
2
370
    50
100
AcDbLine
 10
-341.703258
 20
-159.349298
 30
0.0
 11
-341.882106
 21
-159.349298
 31
0.0
  0
ARC
  5
1C9
100
AcDbEntity
  8
2
370
    50
100
AcDbCircle
 10
-347.953258
 20
-165.349298
 30
0.0
 40
6.25
100
AcDbArc
 50
73.739795
 51
90.0
  0
ARC
  5
1CA
100
AcDbEntity
  8
2
370
    50
100
AcDbCircle
 10
-342.757106
 20
-160.755548
 30
0.0
 40
1.65625
100
AcDbArc
 50
58.109208
 51
121.890792
  0
ARC
  5
1CB
100
AcDbEntity
  8
2
370
    50
100
AcDbCircle
 10
-342.757106
 20
-172.443048
 30
0.0
 40
1.65625
100
AcDbArc
 50
238.109208
 51
301.890792
  0
ARC
  5
1CC
100
AcDbEntity
  8
2
370
    50
100
AcDbCircle
 10
-347.953258
 20
-167.849298
 30
0.0
 40
6.25
100
AcDbArc
 50
270.0
 51
286.260205
  0
LINE
  5
1CD
100
AcDbEntity
  8
2
370
    50
100
AcDbLine
 10
-347.953258
 20
-158.849298
 30
0.0
 11
-353.703258
 21
-158.849298
 31
0.0
  0
LINE
  5
1CE
100
AcDbEntity
  8
2
370
    50
100
AcDbLine
 10
-347.953258
 20
-174.349298
 30
0.0
 11
-353.703258
 21
-174.349298
 31
0.0
  0
LINE
  5
1CF
100
AcDbEntity
  8
2
370
    50
100
AcDbLine
 10
-354.203258
 20
-159.349298
 30
0.0
 11
-354.203258
 21
-173.849298
 31
0.0
  0
LINE
  5
1D0
100
AcDbEntity
  8
2
370
    50
100
AcDbLine
 10
-354.203258
 20
-159.349298
 30
0.0
 11
-353.703258
 21
-158.849298
 31
0.0
  0
LINE
  5
1D1
100
AcDbEntity
  8
2
370
    50
100
AcDbLine
 10
-354.203258
 20
-173.849298
 30
0.0
 11
-353.703258
 21
-174.349298
 31
0.0
  0
LINE
  5
1D2
100
AcDbEntity
  8
2
370
    50
100
AcDbLine
 10
-352.274411
 20
-173.849298
 30
0.0
 11
-349.703258
 21
-173.849298
 31
0.0
  0
LINE
  5
1D3
100
AcDbEntity
  8
2
370
    50
100
AcDbLine
 10
-352.274411
 20
-159.349298
 30
0.0
 11
-349.703258
 21
-159.349298
 31
0.0
  0
LINE
  5
1D4
100
AcDbEntity
  8
2
370
    50
100
AcDbLine
 10
-354.024411
 20
-159.349298
 30
0.0
 11
-354.024411
 21
-173.849298
 31
0.0
  0
LINE
  5
1D5
100
AcDbEntity
  8
2
370
    50
100
AcDbLine
 10
-352.274411
 20
-159.349298
 30
0.0
 11
-352.274411
 21
-173.849298
 31
0.0
  0
LINE
  5
1D6
100
AcDbEntity
  8
2
370
    50
100
AcDbLine
 10
-349.703258
 20
-159.349298
 30
0.0
 11
-349.703258
 21
-173.849298
 31
0.0
  0
LINE
  5
1D7
100
AcDbEntity
  8
2
370
    50
100
AcDbLine
 10
-354.203258
 20
-173.849298
 30
0.0
 11
-354.024411
 21
-173.849298
 31
0.0
  0
LINE
  5
1D8
100
AcDbEntity
  8
2
370
    50
100
AcDbLine
 10
-354.203258
 20
-159.349298
 30
0.0
 11
-354.024411
 21
-159.349298
 31
0.0
  0
ARC
  5
1D9
100
AcDbEntity
  8
2
370
    50
100
AcDbCircle
 10
-347.953258
 20
-165.349298
 30
0.0
 40
6.25
100
AcDbArc
 50
90.0
 51
106.260205
  0
ARC
  5
1DA
100
AcDbEntity
  8
2
370
    50
100
AcDbCircle
 10
-353.149411
 20
-160.755548
 30
0.0
 40
1.65625
100
AcDbArc
 50
58.109208
 51
121.890792
  0
ARC
  5
1DB
100
AcDbEntity
  8
2
370
    50
100
AcDbCircle
 10
-353.149411
 20
-172.443048
 30
0.0
 40
1.65625
100
AcDbArc
 50
238.109208
 51
301.890792
  0
ARC
  5
1DC
100
AcDbEntity
  8
2
370
    50
100
AcDbCircle
 10
-347.953258
 20
-167.849298
 30
0.0
 40
6.25
100
AcDbArc
 50
253.739795
 51
270.0
  0
LINE
  5
1DD
100
AcDbEntity
  8
2
370
    50
100
AcDbLine
 10
-363.953258
 20
-158.849298
 30
0.0
 11
-358.203258
 21
-158.849298
 31
0.0
  0
LINE
  5
1DE
100
AcDbEntity
  8
2
370
    50
100
AcDbLine
 10
-363.953258
 20
-174.349298
 30
0.0
 11
-358.203258
 21
-174.349298
 31
0.0
  0
LINE
  5
1DF
100
AcDbEntity
  8
2
370
    50
100
AcDbLine
 10
-357.703258
 20
-159.349298
 30
0.0
 11
-357.703258
 21
-173.849298
 31
0.0
  0
LINE
  5
1E0
100
AcDbEntity
  8
2
370
    50
100
AcDbLine
 10
-357.703258
 20
-159.349298
 30
0.0
 11
-358.203258
 21
-158.849298
 31
0.0
  0
LINE
  5
1E1
100
AcDbEntity
  8
2
370
    50
100
AcDbLine
 10
-357.703258
 20
-173.849298
 30
0.0
 11
-358.203258
 21
-174.349298
 31
0.0
  0
LINE
  5
1E2
100
AcDbEntity
  8
2
370
    50
100
AcDbLine
 10
-359.632106
 20
-173.849298
 30
0.0
 11
-362.203258
 21
-173.849298
 31
0.0
  0
LINE
  5
1E3
100
AcDbEntity
  8
2
370
    50
100
AcDbLine
 10
-359.632106
 20
-159.349298
 30
0.0
 11
-362.203258
 21
-159.349298
 31
0.0
  0
LINE
  5
1E4
100
AcDbEntity
  8
2
370
    50
100
AcDbLine
 10
-357.882106
 20
-159.349298
 30
0.0
 11
-357.882106
 21
-173.849298
 31
0.0
  0
LINE
  5
1E5
100
AcDbEntity
  8
2
370
    50
100
AcDbLine
 10
-359.632106
 20
-159.349298
 30
0.0
 11
-359.632106
 21
-173.849298
 31
0.0
  0
LINE
  5
1E6
100
AcDbEntity
  8
2
370
    50
100
AcDbLine
 10
-362.203258
 20
-159.349298
 30
0.0
 11
-362.203258
 21
-173.849298
 31
0.0
  0
LINE
  5
1E7
100
AcDbEntity
  8
2
370
    50
100
AcDbLine
 10
-357.703258
 20
-173.849298
 30
0.0
 11
-357.882106
 21
-173.849298
 31
0.0
  0
LINE
  5
1E8
100
AcDbEntity
  8
2
370
    50
100
AcDbLine
 10
-357.703258
 20
-159.349298
 30
0.0
 11
-357.882106
 21
-159.349298
 31
0.0
  0
ARC
  5
1E9
100
AcDbEntity
  8
2
370
    50
100
AcDbCircle
 10
-363.953258
 20
-165.349298
 30
0.0
 40
6.25
100
AcDbArc
 50
73.739795
 51
90.0
  0
ARC
  5
1EA
100
AcDbEntity
  8
2
370
    50
100
AcDbCircle
 10
-358.757106
 20
-160.755548
 30
0.0
 40
1.65625
100
AcDbArc
 50
58.109208
 51
121.890792
  0
ARC
  5
1EB
100
AcDbEntity
  8
2
370
    50
100
AcDbCircle
 10
-358.757106
 20
-172.443048
 30
0.0
 40
1.65625
100
AcDbArc
 50
238.109208
 51
301.890792
  0
ARC
  5
1EC
100
AcDbEntity
  8
2
370
    50
100
AcDbCircle
 10
-363.953258
 20
-167.849298
 30
0.0
 40
6.25
100
AcDbArc
 50
270.0
 51
286.260205
  0
LINE
  5
1ED
100
AcDbEntity
  8
2
370
    50
100
AcDbLine
 10
-363.953258
 20
-158.849298
 30
0.0
 11
-369.703258
 21
-158.849298
 31
0.0
  0
LINE
  5
1EE
100
AcDbEntity
  8
2
370
    50
100
AcDbLine
 10
-363.953258
 20
-174.349298
 30
0.0
 11
-369.703258
 21
-174.349298
 31
0.0
  0
LINE
  5
1EF
100
AcDbEntity
  8
2
370
    50
100
AcDbLine
 10
-370.203258
 20
-159.349298
 30
0.0
 11
-370.203258
 21
-173.849298
 31
0.0
  0
LINE
  5
1F0
100
AcDbEntity
  8
2
370
    50
100
AcDbLine
 10
-370.203258
 20
-159.349298
 30
0.0
 11
-369.703258
 21
-158.849298
 31
0.0
  0
LINE
  5
1F1
100
AcDbEntity
  8
2
370
    50
100
AcDbLine
 10
-370.203258
 20
-173.849298
 30
0.0
 11
-369.703258
 21
-174.349298
 31
0.0
  0
LINE
  5
1F2
100
AcDbEntity
  8
2
370
    50
100
AcDbLine
 10
-368.274411
 20
-173.849298
 30
0.0
 11
-365.703258
 21
-173.849298
 31
0.0
  0
LINE
  5
1F3
100
AcDbEntity
  8
2
370
    50
100
AcDbLine
 10
-368.274411
 20
-159.349298
 30
0.0
 11
-365.703258
 21
-159.349298
 31
0.0
  0
LINE
  5
1F4
100
AcDbEntity
  8
2
370
    50
100
AcDbLine
 10
-370.024411
 20
-159.349298
 30
0.0
 11
-370.024411
 21
-173.849298
 31
0.0
  0
LINE
  5
1F5
100
AcDbEntity
  8
2
370
    50
100
AcDbLine
 10
-368.274411
 20
-159.349298
 30
0.0
 11
-368.274411
 21
-173.849298
 31
0.0
  0
LINE
  5
1F6
100
AcDbEntity
  8
2
370
    50
100
AcDbLine
 10
-365.703258
 20
-159.349298
 30
0.0
 11
-365.703258
 21
-173.849298
 31
0.0
  0
LINE
  5
1F7
100
AcDbEntity
  8
2
370
    50
100
AcDbLine
 10
-370.203258
 20
-173.849298
 30
0.0
 11
-370.024411
 21
-173.849298
 31
0.0
  0
LINE
  5
1F8
100
AcDbEntity
  8
2
370
    50
100
AcDbLine
 10
-370.203258
 20
-159.349298
 30
0.0
 11
-370.024411
 21
-159.349298
 31
0.0
  0
ARC
  5
1F9
100
AcDbEntity
  8
2
370
    50
100
AcDbCircle
 10
-363.953258
 20
-165.349298
 30
0.0
 40
6.25
100
AcDbArc
 50
90.0
 51
106.260205
  0
ARC
  5
1FA
100
AcDbEntity
  8
2
370
    50
100
AcDbCircle
 10
-369.149411
 20
-160.755548
 30
0.0
 40
1.65625
100
AcDbArc
 50
58.109208
 51
121.890792
  0
ARC
  5
1FB
100
AcDbEntity
  8
2
370
    50
100
AcDbCircle
 10
-369.149411
 20
-172.443048
 30
0.0
 40
1.65625
100
AcDbArc
 50
238.109208
 51
301.890792
  0
ARC
  5
1FC
100
AcDbEntity
  8
2
370
    50
100
AcDbCircle
 10
-363.953258
 20
-167.849298
 30
0.0
 40
6.25
100
AcDbArc
 50
253.739795
 51
270.0
  0
LINE
  5
1FD
100
AcDbEntity
  8
2
370
    50
100
AcDbLine
 10
-358.453259
 20
-174.349298
 30
0.0
 11
-368.716398
 21
-174.349298
 31
0.0
  0
LINE
  5
1FE
100
AcDbEntity
  8
2
370
    50
100
AcDbLine
 10
-368.953259
 20
-174.349298
 30
0.0
 11
-369.453259
 21
-174.349298
 31
0.0
  0
LINE
  5
1FF
100
AcDbEntity
  8
2
370
    50
100
AcDbLine
 10
-342.453259
 20
-174.349298
 30
0.0
 11
-353.453259
 21
-174.349298
 31
0.0
  0
LINE
  5
200
100
AcDbEntity
  8
2
370
    25
  6
CENTER
100
AcDbLine
 10
-347.953259
 20
-216.610452
 30
0.0
 11
-347.953259
 21
-239.66636
 31
0.0
  0
LINE
  5
201
100
AcDbEntity
  8
2
370
    50
100
AcDbLine
 10
-302.165416
 20
-294.646349
 30
0.0
 11
-302.165416
 21
-297.046349
 31
0.0
  0
LINE
  5
202
100
AcDbEntity
  8
2
370
    50
100
AcDbLine
 10
-301.965416
 20
-294.446349
 30
0.0
 11
-302.165416
 21
-294.646349
 31
0.0
  0
LINE
  5
203
100
AcDbEntity
  8
2
370
    50
100
AcDbLine
 10
-301.965416
 20
-297.246349
 30
0.0
 11
-302.165416
 21
-297.046349
 31
0.0
  0
LINE
  5
204
100
AcDbEntity
  8
2
370
    50
100
AcDbLine
 10
-302.265416
 20
-303.046349
 30
0.0
 11
-284.265416
 21
-303.046349
 31
0.0
  0
LINE
  5
205
100
AcDbEntity
  8
2
370
    50
100
AcDbLine
 10
-299.265416
 20
-289.046349
 30
0.0
 11
-306.765416
 21
-289.046349
 31
0.0
  0
LINE
  5
206
100
AcDbEntity
  8
2
370
    50
100
AcDbLine
 10
-301.565416
 20
-303.046349
 30
0.0
 11
-306.765416
 21
-303.046349
 31
0.0
  0
LINE
  5
207
100
AcDbEntity
  8
2
370
    50
100
AcDbLine
 10
-302.165416
 20
-294.646349
 30
0.0
 11
-297.265416
 21
-294.646349
 31
0.0
  0
LINE
  5
208
100
AcDbEntity
  8
2
370
    50
100
AcDbLine
 10
-302.165416
 20
-297.046349
 30
0.0
 11
-297.265416
 21
-297.046349
 31
0.0
  0
LINE
  5
209
100
AcDbEntity
  8
2
370
    50
100
AcDbLine
 10
-302.065416
 20
-302.046349
 30
0.0
 11
-302.065416
 21
-299.446349
 31
0.0
  0
LINE
  5
20A
100
AcDbEntity
  8
2
370
    50
100
AcDbLine
 10
-302.065416
 20
-294.546349
 30
0.0
 11
-302.065416
 21
-290.046349
 31
0.0
  0
ARC
  5
20B
100
AcDbEntity
  8
2
370
    50
100
AcDbCircle
 10
-301.065416
 20
-290.046349
 30
0.0
 40
1.0
100
AcDbArc
 50
90.0
 51
180.0
  0
ARC
  5
20C
100
AcDbEntity
  8
2
370
    50
100
AcDbCircle
 10
-303.065416
 20
-302.046349
 30
0.0
 40
1.0
100
AcDbArc
 50
270.0
 51
360.0
  0
ARC
  5
20D
100
AcDbEntity
  8
2
370
    50
100
AcDbCircle
 10
-301.065416
 20
-290.046349
 30
0.0
 40
1.0
100
AcDbArc
 50
90.0
 51
180.0
  0
LINE
  5
20E
100
AcDbEntity
  8
2
370
    50
100
AcDbLine
 10
-302.265416
 20
-297.446349
 30
0.0
 11
-302.265416
 21
-299.246349
 31
0.0
  0
LINE
  5
20F
100
AcDbEntity
  8
2
370
    50
100
AcDbLine
 10
-302.065416
 20
-297.246349
 30
0.0
 11
-302.265416
 21
-297.446349
 31
0.0
  0
LINE
  5
210
100
AcDbEntity
  8
2
370
    50
100
AcDbLine
 10
-302.265416
 20
-299.246349
 30
0.0
 11
-302.065416
 21
-299.446349
 31
0.0
  0
LINE
  5
211
100
AcDbEntity
  8
2
370
    50
100
AcDbLine
 10
-302.065416
 20
-299.446349
 30
0.0
 11
-297.265416
 21
-299.446349
 31
0.0
  0
LINE
  5
212
100
AcDbEntity
  8
2
370
    50
100
AcDbLine
 10
-302.265416
 20
-299.246349
 30
0.0
 11
-297.265416
 21
-299.246349
 31
0.0
  0
LINE
  5
213
100
AcDbEntity
  8
2
370
    50
100
AcDbLine
 10
-302.265416
 20
-297.446349
 30
0.0
 11
-297.265416
 21
-297.446349
 31
0.0
  0
LINE
  5
214
100
AcDbEntity
  8
2
370
    50
100
AcDbLine
 10
-302.065416
 20
-297.246349
 30
0.0
 11
-297.265416
 21
-297.246349
 31
0.0
  0
LINE
  5
215
100
AcDbEntity
  8
2
370
    50
100
AcDbLine
 10
-307.765416
 20
-290.046349
 30
0.0
 11
-307.765416
 21
-302.046349
 31
0.0
  0
ARC
  5
216
100
AcDbEntity
  8
2
370
    50
100
AcDbCircle
 10
-306.765416
 20
-290.046349
 30
0.0
 40
1.0
100
AcDbArc
 50
90.0
 51
180.0
  0
ARC
  5
217
100
AcDbEntity
  8
2
370
    50
100
AcDbCircle
 10
-306.765416
 20
-302.046349
 30
0.0
 40
1.0
100
AcDbArc
 50
180.0
 51
270.0
  0
LINE
  5
218
100
AcDbEntity
  8
2
370
    50
100
AcDbLine
 10
-302.26521
 20
-303.445601
 30
0.0
 11
-303.26521
 21
-304.445601
 31
0.0
  0
LINE
  5
219
100
AcDbEntity
  8
2
370
    50
100
AcDbLine
 10
-302.26521
 20
-303.445601
 30
0.0
 11
-284.26521
 21
-303.445601
 31
0.0
  0
LINE
  5
21A
100
AcDbEntity
  8
2
370
    50
100
AcDbLine
 10
-283.26521
 20
-304.445601
 30
0.0
 11
-303.26521
 21
-304.445601
 31
0.0
  0
LINE
  5
21B
100
AcDbEntity
  8
2
370
    50
100
AcDbLine
 10
-303.26521
 20
-304.445601
 30
0.0
 11
-303.26521
 21
-313.245601
 31
0.0
  0
LINE
  5
21C
100
AcDbEntity
  8
2
370
    50
100
AcDbLine
 10
-303.592078
 20
-313.245601
 30
0.0
 11
-281.26521
 21
-313.245601
 31
0.0
  0
LINE
  5
21D
100
AcDbEntity
  8
2
370
    50
100
AcDbLine
 10
-307.121617
 20
-322.389194
 30
0.0
 11
-307.121617
 21
-315.102007
 31
0.0
  0
LINE
  5
21E
100
AcDbEntity
  8
2
370
    50
100
AcDbLine
 10
-305.26521
 20
-324.245601
 30
0.0
 11
-281.26521
 21
-324.245601
 31
0.0
  0
LINE
  5
21F
100
AcDbEntity
  8
2
370
    50
100
AcDbLine
 10
-305.26521
 20
-313.245601
 30
0.0
 11
-281.26521
 21
-313.245601
 31
0.0
  0
LINE
  5
220
100
AcDbEntity
  8
2
370
    50
100
AcDbLine
 10
-305.26521
 20
-324.245601
 30
0.0
 11
-307.121617
 21
-322.389194
 31
0.0
  0
LINE
  5
221
100
AcDbEntity
  8
2
370
    50
100
AcDbLine
 10
-305.26521
 20
-313.245601
 30
0.0
 11
-307.121617
 21
-315.102007
 31
0.0
  0
ARC
  5
222
100
AcDbEntity
  8
2
370
    50
100
AcDbCircle
 10
-303.592078
 20
-317.2849
 30
0.0
 40
4.039299
100
AcDbArc
 50
32.711809
 51
135.0
  0
ARC
  5
223
100
AcDbEntity
  8
2
370
    50
100
AcDbCircle
 10
-303.592078
 20
-320.206301
 30
0.0
 40
4.039299
100
AcDbArc
 50
225.0
 51
327.288191
  0
LINE
  5
224
100
AcDbEntity
  8
2
370
    50
100
AcDbLine
 10
-425.641101
 20
-286.054124
 30
0.0
 11
-411.641101
 21
-286.054124
 31
0.0
  0
LINE
  5
225
100
AcDbEntity
  8
2
370
    50
100
AcDbLine
 10
-426.141101
 20
-286.554124
 30
0.0
 11
-425.641101
 21
-286.054124
 31
0.0
  0
LINE
  5
226
100
AcDbEntity
  8
2
370
    25
100
AcDbLine
 10
-425.140962
 20
-299.853502
 30
0.0
 11
-425.140962
 21
-296.853502
 31
0.0
  0
LINE
  5
227
100
AcDbEntity
  8
2
370
    50
100
AcDbLine
 10
-427.541101
 20
-291.454759
 30
0.0
 11
-427.541101
 21
-293.854759
 31
0.0
  0
LINE
  5
228
100
AcDbEntity
  8
2
370
    50
100
AcDbLine
 10
-427.341101
 20
-291.254759
 30
0.0
 11
-427.541101
 21
-291.454759
 31
0.0
  0
LINE
  5
229
100
AcDbEntity
  8
2
370
    50
100
AcDbLine
 10
-427.341101
 20
-294.054759
 30
0.0
 11
-427.541101
 21
-293.854759
 31
0.0
  0
LINE
  5
22A
100
AcDbEntity
  8
2
370
    50
100
AcDbLine
 10
-426.141101
 20
-291.254759
 30
0.0
 11
-426.141101
 21
-290.853502
 31
0.0
  0
LINE
  5
22B
100
AcDbEntity
  8
2
370
    50
100
AcDbLine
 10
-426.141101
 20
-286.554124
 30
0.0
 11
-426.141101
 21
-287.853502
 31
0.0
  0
LINE
  5
22C
100
AcDbEntity
  8
2
370
    50
100
AcDbLine
 10
-409.741101
 20
-291.454124
 30
0.0
 11
-409.741101
 21
-293.854124
 31
0.0
  0
LINE
  5
22D
100
AcDbEntity
  8
2
370
    50
100
AcDbLine
 10
-427.541101
 20
-291.454124
 30
0.0
 11
-427.541101
 21
-293.854124
 31
0.0
  0
LINE
  5
22E
100
AcDbEntity
  8
2
370
    50
100
AcDbLine
 10
-427.341101
 20
-291.254124
 30
0.0
 11
-427.541101
 21
-291.454124
 31
0.0
  0
LINE
  5
22F
100
AcDbEntity
  8
2
370
    50
100
AcDbLine
 10
-409.941101
 20
-291.254124
 30
0.0
 11
-409.741101
 21
-291.454124
 31
0.0
  0
LINE
  5
230
100
AcDbEntity
  8
2
370
    50
100
AcDbLine
 10
-409.941101
 20
-294.054124
 30
0.0
 11
-409.741101
 21
-293.854124
 31
0.0
  0
LINE
  5
231
100
AcDbEntity
  8
2
370
    50
100
AcDbLine
 10
-409.641101
 20
-299.854124
 30
0.0
 11
-427.641101
 21
-299.854124
 31
0.0
  0
LINE
  5
232
100
AcDbEntity
  8
2
370
    50
100
AcDbLine
 10
-410.341101
 20
-287.854124
 30
0.0
 11
-426.941101
 21
-287.854124
 31
0.0
  0
LINE
  5
233
100
AcDbEntity
  8
2
370
    50
100
AcDbLine
 10
-422.641101
 20
-288.854124
 30
0.0
 11
-422.641101
 21
-298.854124
 31
0.0
  0
LINE
  5
234
100
AcDbEntity
  8
2
370
    50
100
AcDbLine
 10
-414.641101
 20
-288.854124
 30
0.0
 11
-414.641101
 21
-298.854124
 31
0.0
  0
ARC
  5
235
100
AcDbEntity
  8
2
370
    50
100
AcDbCircle
 10
-432.141101
 20
-286.854124
 30
0.0
 40
1.0
100
AcDbArc
 50
90.0
 51
180.0
  0
ARC
  5
236
100
AcDbEntity
  8
2
370
    50
100
AcDbCircle
 10
-432.141101
 20
-298.854124
 30
0.0
 40
1.0
100
AcDbArc
 50
180.0
 51
270.0
  0
LINE
  5
237
100
AcDbEntity
  8
2
370
    50
100
AcDbLine
 10
-432.141101
 20
-285.854124
 30
0.0
 11
-424.641101
 21
-285.854124
 31
0.0
  0
LINE
  5
238
100
AcDbEntity
  8
2
370
    50
100
AcDbLine
 10
-412.641101
 20
-285.854124
 30
0.0
 11
-405.141101
 21
-285.854124
 31
0.0
  0
LINE
  5
239
100
AcDbEntity
  8
2
370
    50
100
AcDbLine
 10
-432.141101
 20
-299.854124
 30
0.0
 11
-426.141101
 21
-299.854124
 31
0.0
  0
LINE
  5
23A
100
AcDbEntity
  8
2
370
    50
100
AcDbLine
 10
-410.341101
 20
-299.854124
 30
0.0
 11
-405.141101
 21
-299.854124
 31
0.0
  0
LINE
  5
23B
100
AcDbEntity
  8
2
370
    50
100
AcDbLine
 10
-410.341101
 20
-290.854124
 30
0.0
 11
-414.641101
 21
-290.854124
 31
0.0
  0
LINE
  5
23C
100
AcDbEntity
  8
2
370
    50
100
AcDbLine
 10
-422.641101
 20
-290.854124
 30
0.0
 11
-426.941101
 21
-290.854124
 31
0.0
  0
LINE
  5
23D
100
AcDbEntity
  8
2
370
    50
100
AcDbLine
 10
-409.941101
 20
-291.254124
 30
0.0
 11
-414.641101
 21
-291.254124
 31
0.0
  0
LINE
  5
23E
100
AcDbEntity
  8
2
370
    50
100
AcDbLine
 10
-422.641101
 20
-291.254124
 30
0.0
 11
-427.341101
 21
-291.254124
 31
0.0
  0
LINE
  5
23F
100
AcDbEntity
  8
2
370
    50
100
AcDbLine
 10
-409.741101
 20
-291.454124
 30
0.0
 11
-414.641101
 21
-291.454124
 31
0.0
  0
LINE
  5
240
100
AcDbEntity
  8
2
370
    50
100
AcDbLine
 10
-422.641101
 20
-291.454124
 30
0.0
 11
-427.541101
 21
-291.454124
 31
0.0
  0
LINE
  5
241
100
AcDbEntity
  8
2
370
    50
100
AcDbLine
 10
-409.741101
 20
-293.854124
 30
0.0
 11
-414.641101
 21
-293.854124
 31
0.0
  0
LINE
  5
242
100
AcDbEntity
  8
2
370
    50
100
AcDbLine
 10
-422.641101
 20
-293.854124
 30
0.0
 11
-427.541101
 21
-293.854124
 31
0.0
  0
LINE
  5
243
100
AcDbEntity
  8
2
370
    50
100
AcDbLine
 10
-410.341101
 20
-296.854124
 30
0.0
 11
-414.641101
 21
-296.854124
 31
0.0
  0
LINE
  5
244
100
AcDbEntity
  8
2
370
    50
100
AcDbLine
 10
-422.641101
 20
-296.854124
 30
0.0
 11
-426.941101
 21
-296.854124
 31
0.0
  0
ARC
  5
245
100
AcDbEntity
  8
2
370
    50
100
AcDbCircle
 10
-415.641101
 20
-288.854124
 30
0.0
 40
1.0
100
AcDbArc
 50
0.0
 51
90.0
  0
ARC
  5
246
100
AcDbEntity
  8
2
370
    50
100
AcDbCircle
 10
-421.641101
 20
-288.854124
 30
0.0
 40
1.0
100
AcDbArc
 50
90.0
 51
180.0
  0
ARC
  5
247
100
AcDbEntity
  8
2
370
    50
100
AcDbCircle
 10
-421.641101
 20
-298.854124
 30
0.0
 40
1.0
100
AcDbArc
 50
180.0
 51
270.0
  0
ARC
  5
248
100
AcDbEntity
  8
2
370
    50
100
AcDbCircle
 10
-415.641101
 20
-298.854124
 30
0.0
 40
1.0
100
AcDbArc
 50
270.0
 51
0.0
  0
LINE
  5
249
100
AcDbEntity
  8
2
370
    50
100
AcDbLine
 10
-426.941101
 20
-287.854124
 30
0.0
 11
-426.941101
 21
-290.854124
 31
0.0
  0
LINE
  5
24A
100
AcDbEntity
  8
2
370
    50
100
AcDbLine
 10
-410.341101
 20
-287.854124
 30
0.0
 11
-410.341101
 21
-290.854124
 31
0.0
  0
LINE
  5
24B
100
AcDbEntity
  8
2
370
    50
100
AcDbLine
 10
-410.341101
 20
-296.854124
 30
0.0
 11
-410.341101
 21
-299.854124
 31
0.0
  0
LINE
  5
24C
100
AcDbEntity
  8
2
370
    50
100
AcDbLine
 10
-426.941101
 20
-296.854124
 30
0.0
 11
-426.941101
 21
-299.854124
 31
0.0
  0
LINE
  5
24D
100
AcDbEntity
  8
2
370
    50
100
AcDbLine
 10
-426.141101
 20
-291.254124
 30
0.0
 11
-426.141101
 21
-290.854124
 31
0.0
  0
LINE
  5
24E
100
AcDbEntity
  8
2
370
    50
100
AcDbLine
 10
-411.141101
 20
-291.254124
 30
0.0
 11
-411.141101
 21
-290.854124
 31
0.0
  0
LINE
  5
24F
100
AcDbEntity
  8
2
370
    25
100
AcDbLine
 10
-423.641101
 20
-299.554707
 30
0.0
 11
-423.641101
 21
-297.249485
 31
0.0
  0
LINE
  5
250
100
AcDbEntity
  8
2
370
    25
100
AcDbLine
 10
-423.641102
 20
-290.592937
 30
0.0
 11
-423.641101
 21
-288.160732
 31
0.0
  0
LINE
  5
251
100
AcDbEntity
  8
2
370
    25
100
AcDbLine
 10
-413.641101
 20
-299.554707
 30
0.0
 11
-413.641101
 21
-297.249485
 31
0.0
  0
LINE
  5
252
100
AcDbEntity
  8
2
370
    25
100
AcDbLine
 10
-413.641101
 20
-290.550259
 30
0.0
 11
-413.641101
 21
-288.081211
 31
0.0
  0
LINE
  5
253
100
AcDbEntity
  8
2
370
    50
100
AcDbLine
 10
-427.441101
 20
-298.854124
 30
0.0
 11
-427.441101
 21
-296.254124
 31
0.0
  0
LINE
  5
254
100
AcDbEntity
  8
2
370
    50
100
AcDbLine
 10
-427.441101
 20
-291.354124
 30
0.0
 11
-427.441101
 21
-286.854124
 31
0.0
  0
LINE
  5
255
100
AcDbEntity
  8
2
370
    50
100
AcDbLine
 10
-409.841101
 20
-298.854124
 30
0.0
 11
-409.841101
 21
-296.254124
 31
0.0
  0
LINE
  5
256
100
AcDbEntity
  8
2
370
    50
100
AcDbLine
 10
-409.841101
 20
-291.354124
 30
0.0
 11
-409.841101
 21
-286.854124
 31
0.0
  0
ARC
  5
257
100
AcDbEntity
  8
2
370
    50
100
AcDbCircle
 10
-426.441101
 20
-286.854124
 30
0.0
 40
1.0
100
AcDbArc
 50
90.0
 51
180.0
  0
ARC
  5
258
100
AcDbEntity
  8
2
370
    50
100
AcDbCircle
 10
-410.841101
 20
-286.854124
 30
0.0
 40
1.0
100
AcDbArc
 50
0.0
 51
90.0
  0
ARC
  5
259
100
AcDbEntity
  8
2
370
    50
100
AcDbCircle
 10
-428.441101
 20
-298.854124
 30
0.0
 40
1.0
100
AcDbArc
 50
270.0
 51
0.0
  0
ARC
  5
25A
100
AcDbEntity
  8
2
370
    50
100
AcDbCircle
 10
-408.841101
 20
-298.854124
 30
0.0
 40
1.0
100
AcDbArc
 50
180.0
 51
270.0
  0
LINE
  5
25B
100
AcDbEntity
  8
2
370
    50
100
AcDbLine
 10
-411.141101
 20
-286.554124
 30
0.0
 11
-411.141101
 21
-287.853502
 31
0.0
  0
ARC
  5
25C
100
AcDbEntity
  8
2
370
    50
100
AcDbCircle
 10
-410.841101
 20
-286.854124
 30
0.0
 40
1.0
100
AcDbArc
 50
0.0
 51
90.0
  0
LINE
  5
25D
100
AcDbEntity
  8
2
370
    50
100
AcDbLine
 10
-411.141101
 20
-286.554124
 30
0.0
 11
-411.641101
 21
-286.054124
 31
0.0
  0
LINE
  5
25E
100
AcDbEntity
  8
2
370
    50
100
AcDbLine
 10
-409.641101
 20
-294.254124
 30
0.0
 11
-409.641101
 21
-296.054124
 31
0.0
  0
LINE
  5
25F
100
AcDbEntity
  8
2
370
    50
100
AcDbLine
 10
-427.641101
 20
-294.254124
 30
0.0
 11
-427.641101
 21
-296.054124
 31
0.0
  0
LINE
  5
260
100
AcDbEntity
  8
2
370
    50
100
AcDbLine
 10
-409.841101
 20
-294.054124
 30
0.0
 11
-409.641101
 21
-294.254124
 31
0.0
  0
LINE
  5
261
100
AcDbEntity
  8
2
370
    50
100
AcDbLine
 10
-409.641101
 20
-296.054124
 30
0.0
 11
-409.841101
 21
-296.254124
 31
0.0
  0
LINE
  5
262
100
AcDbEntity
  8
2
370
    50
100
AcDbLine
 10
-427.441101
 20
-294.054124
 30
0.0
 11
-427.641101
 21
-294.254124
 31
0.0
  0
LINE
  5
263
100
AcDbEntity
  8
2
370
    50
100
AcDbLine
 10
-427.641101
 20
-296.054124
 30
0.0
 11
-427.441101
 21
-296.254124
 31
0.0
  0
LINE
  5
264
100
AcDbEntity
  8
2
370
    50
100
AcDbLine
 10
-426.141101
 20
-300.254124
 30
0.0
 11
-426.141101
 21
-299.854124
 31
0.0
  0
LINE
  5
265
100
AcDbEntity
  8
2
370
    50
100
AcDbLine
 10
-426.141101
 20
-296.854124
 30
0.0
 11
-426.141101
 21
-296.254124
 31
0.0
  0
LINE
  5
266
100
AcDbEntity
  8
2
370
    50
100
AcDbLine
 10
-411.141101
 20
-300.254124
 30
0.0
 11
-411.141101
 21
-299.854124
 31
0.0
  0
LINE
  5
267
100
AcDbEntity
  8
2
370
    50
100
AcDbLine
 10
-411.141101
 20
-296.854124
 30
0.0
 11
-411.141101
 21
-296.254124
 31
0.0
  0
LINE
  5
268
100
AcDbEntity
  8
2
370
    50
100
AcDbLine
 10
-409.841101
 20
-296.254124
 30
0.0
 11
-414.641101
 21
-296.254124
 31
0.0
  0
LINE
  5
269
100
AcDbEntity
  8
2
370
    50
100
AcDbLine
 10
-422.641101
 20
-296.254124
 30
0.0
 11
-427.441101
 21
-296.254124
 31
0.0
  0
LINE
  5
26A
100
AcDbEntity
  8
2
370
    50
100
AcDbLine
 10
-409.641101
 20
-296.054124
 30
0.0
 11
-414.641101
 21
-296.054124
 31
0.0
  0
LINE
  5
26B
100
AcDbEntity
  8
2
370
    50
100
AcDbLine
 10
-422.641101
 20
-296.054124
 30
0.0
 11
-427.641101
 21
-296.054124
 31
0.0
  0
LINE
  5
26C
100
AcDbEntity
  8
2
370
    50
100
AcDbLine
 10
-409.641101
 20
-294.254124
 30
0.0
 11
-414.641101
 21
-294.254124
 31
0.0
  0
LINE
  5
26D
100
AcDbEntity
  8
2
370
    50
100
AcDbLine
 10
-422.641101
 20
-294.254124
 30
0.0
 11
-427.641101
 21
-294.254124
 31
0.0
  0
LINE
  5
26E
100
AcDbEntity
  8
2
370
    50
100
AcDbLine
 10
-409.841101
 20
-294.054124
 30
0.0
 11
-414.641101
 21
-294.054124
 31
0.0
  0
LINE
  5
26F
100
AcDbEntity
  8
2
370
    50
100
AcDbLine
 10
-422.641101
 20
-294.054124
 30
0.0
 11
-427.441101
 21
-294.054124
 31
0.0
  0
LINE
  5
270
100
AcDbEntity
  8
2
370
    25
100
AcDbLine
 10
-412.141241
 20
-299.853502
 30
0.0
 11
-412.141241
 21
-296.853502
 31
0.0
  0
LINE
  5
271
100
AcDbEntity
  8
2
370
    25
100
AcDbLine
 10
-425.140962
 20
-290.854124
 30
0.0
 11
-425.140962
 21
-287.854124
 31
0.0
  0
LINE
  5
272
100
AcDbEntity
  8
2
370
    25
100
AcDbLine
 10
-412.141241
 20
-290.854124
 30
0.0
 11
-412.141241
 21
-287.854124
 31
0.0
  0
LINE
  5
273
100
AcDbEntity
  8
2
370
    50
100
AcDbLine
 10
-404.141101
 20
-286.854124
 30
0.0
 11
-404.141101
 21
-298.854124
 31
0.0
  0
ARC
  5
274
100
AcDbEntity
  8
2
370
    50
100
AcDbCircle
 10
-405.141101
 20
-286.854124
 30
0.0
 40
1.0
100
AcDbArc
 50
0.0
 51
90.0
  0
ARC
  5
275
100
AcDbEntity
  8
2
370
    50
100
AcDbCircle
 10
-405.141101
 20
-298.854124
 30
0.0
 40
1.0
100
AcDbArc
 50
270.0
 51
360.0
  0
LINE
  5
276
100
AcDbEntity
  8
2
370
    50
100
AcDbLine
 10
-433.141101
 20
-286.854124
 30
0.0
 11
-433.141101
 21
-298.854124
 31
0.0
  0
LINE
  5
277
100
AcDbEntity
  8
2
370
    50
100
AcDbLine
 10
-427.640836
 20
-300.253375
 30
0.0
 11
-428.640836
 21
-301.253375
 31
0.0
  0
LINE
  5
278
100
AcDbEntity
  8
2
370
    50
100
AcDbLine
 10
-409.640836
 20
-300.253375
 30
0.0
 11
-408.640836
 21
-301.253375
 31
0.0
  0
LINE
  5
279
100
AcDbEntity
  8
2
370
    50
100
AcDbLine
 10
-428.640836
 20
-301.253375
 30
0.0
 11
-408.640836
 21
-301.253375
 31
0.0
  0
LINE
  5
27A
100
AcDbEntity
  8
2
370
    50
100
AcDbLine
 10
-428.640836
 20
-301.253375
 30
0.0
 11
-428.640836
 21
-310.053375
 31
0.0
  0
LINE
  5
27B
100
AcDbEntity
  8
2
370
    50
100
AcDbLine
 10
-408.640836
 20
-301.253375
 30
0.0
 11
-408.640836
 21
-310.053375
 31
0.0
  0
LINE
  5
27C
100
AcDbEntity
  8
2
370
    50
100
AcDbLine
 10
-408.313969
 20
-310.053375
 30
0.0
 11
-430.640836
 21
-310.053375
 31
0.0
  0
LINE
  5
27D
100
AcDbEntity
  8
2
370
    50
100
AcDbLine
 10
-432.497242
 20
-311.909782
 30
0.0
 11
-432.497242
 21
-319.196969
 31
0.0
  0
LINE
  5
27E
100
AcDbEntity
  8
2
370
    50
100
AcDbLine
 10
-404.784429
 20
-319.196969
 30
0.0
 11
-404.784429
 21
-311.909782
 31
0.0
  0
LINE
  5
27F
100
AcDbEntity
  8
2
370
    50
100
AcDbLine
 10
-406.640836
 20
-321.053375
 30
0.0
 11
-430.640836
 21
-321.053375
 31
0.0
  0
LINE
  5
280
100
AcDbEntity
  8
2
370
    50
100
AcDbLine
 10
-425.569039
 20
-319.196969
 30
0.0
 11
-425.569039
 21
-311.909782
 31
0.0
  0
LINE
  5
281
100
AcDbEntity
  8
2
370
    50
100
AcDbLine
 10
-411.712633
 20
-319.196969
 30
0.0
 11
-411.712633
 21
-311.909782
 31
0.0
  0
LINE
  5
282
100
AcDbEntity
  8
2
370
    50
100
AcDbLine
 10
-406.640836
 20
-310.053375
 30
0.0
 11
-430.640836
 21
-310.053375
 31
0.0
  0
LINE
  5
283
100
AcDbEntity
  8
2
370
    50
100
AcDbLine
 10
-430.640836
 20
-310.053375
 30
0.0
 11
-432.497242
 21
-311.909782
 31
0.0
  0
LINE
  5
284
100
AcDbEntity
  8
2
370
    50
100
AcDbLine
 10
-406.640836
 20
-321.053375
 30
0.0
 11
-404.784429
 21
-319.196969
 31
0.0
  0
LINE
  5
285
100
AcDbEntity
  8
2
370
    50
100
AcDbLine
 10
-406.640836
 20
-310.053375
 30
0.0
 11
-404.784429
 21
-311.909782
 31
0.0
  0
LINE
  5
286
100
AcDbEntity
  8
2
370
    50
100
AcDbLine
 10
-430.640836
 20
-321.053375
 30
0.0
 11
-432.497242
 21
-319.196969
 31
0.0
  0
ARC
  5
287
100
AcDbEntity
  8
2
370
    50
100
AcDbCircle
 10
-418.640836
 20
-323.909782
 30
0.0
 40
13.856406
100
AcDbArc
 50
60.0
 51
120.0
  0
ARC
  5
288
100
AcDbEntity
  8
2
370
    50
100
AcDbCircle
 10
-418.640836
 20
-307.196969
 30
0.0
 40
13.856406
100
AcDbArc
 50
240.0
 51
300.0
  0
ARC
  5
289
100
AcDbEntity
  8
2
370
    50
100
AcDbCircle
 10
-428.967703
 20
-314.092675
 30
0.0
 40
4.039299
100
AcDbArc
 50
32.711809
 51
135.0
  0
ARC
  5
28A
100
AcDbEntity
  8
2
370
    50
100
AcDbCircle
 10
-428.967703
 20
-317.014076
 30
0.0
 40
4.039299
100
AcDbArc
 50
225.0
 51
327.288191
  0
ARC
  5
28B
100
AcDbEntity
  8
2
370
    50
100
AcDbCircle
 10
-408.313969
 20
-314.092675
 30
0.0
 40
4.039299
100
AcDbArc
 50
45.0
 51
147.288191
  0
ARC
  5
28C
100
AcDbEntity
  8
2
370
    50
100
AcDbCircle
 10
-408.313969
 20
-317.014076
 30
0.0
 40
4.039299
100
AcDbArc
 50
212.711809
 51
315.0
  0
LINE
  5
28D
100
AcDbEntity
  8
2
370
    50
100
AcDbLine
 10
-409.640836
 20
-300.253375
 30
0.0
 11
-427.640836
 21
-300.253375
 31
0.0
  0
POINT
  5
28E
100
AcDbEntity
  8
2
370
    50
100
AcDbPoint
 10
-355.953258
 20
-123.849298
 30
0.0
  0
LINE
  5
28F
100
AcDbEntity
  8
2
370
    50
100
AcDbLine
 10
-347.953258
 20
-158.849298
 30
0.0
 11
-342.203258
 21
-158.849298
 31
0.0
  0
LINE
  5
290
100
AcDbEntity
  8
2
370
    50
100
AcDbLine
 10
-341.703258
 20
-159.349298
 30
0.0
 11
-341.703258
 21
-173.849298
 31
0.0
  0
LINE
  5
291
100
AcDbEntity
  8
2
370
    50
100
AcDbLine
 10
-341.703258
 20
-159.349298
 30
0.0
 11
-342.203258
 21
-158.849298
 31
0.0
  0
LINE
  5
292
100
AcDbEntity
  8
2
370
    50
100
AcDbLine
 10
-343.632106
 20
-159.349298
 30
0.0
 11
-346.203258
 21
-159.349298
 31
0.0
  0
LINE
  5
293
100
AcDbEntity
  8
2
370
    50
100
AcDbLine
 10
-341.882106
 20
-159.349298
 30
0.0
 11
-341.882106
 21
-173.849298
 31
0.0
  0
LINE
  5
294
100
AcDbEntity
  8
2
370
    50
100
AcDbLine
 10
-343.632106
 20
-159.349298
 30
0.0
 11
-343.632106
 21
-173.849298
 31
0.0
  0
LINE
  5
295
100
AcDbEntity
  8
2
370
    50
100
AcDbLine
 10
-346.203258
 20
-159.349298
 30
0.0
 11
-346.203258
 21
-173.849298
 31
0.0
  0
LINE
  5
296
100
AcDbEntity
  8
2
370
    50
100
AcDbLine
 10
-341.703258
 20
-159.349298
 30
0.0
 11
-341.882106
 21
-159.349298
 31
0.0
  0
ARC
  5
297
100
AcDbEntity
  8
2
370
    50
100
AcDbCircle
 10
-347.953258
 20
-165.349298
 30
0.0
 40
6.25
100
AcDbArc
 50
73.739795
 51
90.0
  0
ARC
  5
298
100
AcDbEntity
  8
2
370
    50
100
AcDbCircle
 10
-342.757106
 20
-160.755548
 30
0.0
 40
1.65625
100
AcDbArc
 50
58.109208
 51
121.890792
  0
LINE
  5
299
100
AcDbEntity
  8
2
370
    50
100
AcDbLine
 10
-347.953258
 20
-158.849298
 30
0.0
 11
-353.703258
 21
-158.849298
 31
0.0
  0
LINE
  5
29A
100
AcDbEntity
  8
2
370
    50
100
AcDbLine
 10
-354.203258
 20
-159.349298
 30
0.0
 11
-354.203258
 21
-173.849298
 31
0.0
  0
LINE
  5
29B
100
AcDbEntity
  8
2
370
    50
100
AcDbLine
 10
-354.203258
 20
-159.349298
 30
0.0
 11
-353.703258
 21
-158.849298
 31
0.0
  0
LINE
  5
29C
100
AcDbEntity
  8
2
370
    50
100
AcDbLine
 10
-352.274411
 20
-159.349298
 30
0.0
 11
-349.703258
 21
-159.349298
 31
0.0
  0
LINE
  5
29D
100
AcDbEntity
  8
2
370
    50
100
AcDbLine
 10
-354.024411
 20
-159.349298
 30
0.0
 11
-354.024411
 21
-173.849298
 31
0.0
  0
LINE
  5
29E
100
AcDbEntity
  8
2
370
    50
100
AcDbLine
 10
-352.274411
 20
-159.349298
 30
0.0
 11
-352.274411
 21
-173.849298
 31
0.0
  0
LINE
  5
29F
100
AcDbEntity
  8
2
370
    50
100
AcDbLine
 10
-349.703258
 20
-159.349298
 30
0.0
 11
-349.703258
 21
-173.849298
 31
0.0
  0
LINE
  5
2A0
100
AcDbEntity
  8
2
370
    50
100
AcDbLine
 10
-354.203258
 20
-159.349298
 30
0.0
 11
-354.024411
 21
-159.349298
 31
0.0
  0
ARC
  5
2A1
100
AcDbEntity
  8
2
370
    50
100
AcDbCircle
 10
-347.953258
 20
-165.349298
 30
0.0
 40
6.25
100
AcDbArc
 50
90.0
 51
106.260205
  0
ARC
  5
2A2
100
AcDbEntity
  8
2
370
    50
100
AcDbCircle
 10
-353.149411
 20
-160.755548
 30
0.0
 40
1.65625
100
AcDbArc
 50
58.109208
 51
121.890792
  0
LINE
  5
2A3
100
AcDbEntity
  8
2
370
    50
100
AcDbLine
 10
-363.953258
 20
-158.849298
 30
0.0
 11
-358.203258
 21
-158.849298
 31
0.0
  0
LINE
  5
2A4
100
AcDbEntity
  8
2
370
    50
100
AcDbLine
 10
-357.703258
 20
-159.349298
 30
0.0
 11
-357.703258
 21
-173.849298
 31
0.0
  0
LINE
  5
2A5
100
AcDbEntity
  8
2
370
    50
100
AcDbLine
 10
-357.703258
 20
-159.349298
 30
0.0
 11
-358.203258
 21
-158.849298
 31
0.0
  0
LINE
  5
2A6
100
AcDbEntity
  8
2
370
    50
100
AcDbLine
 10
-359.632106
 20
-159.349298
 30
0.0
 11
-362.203258
 21
-159.349298
 31
0.0
  0
LINE
  5
2A7
100
AcDbEntity
  8
2
370
    50
100
AcDbLine
 10
-357.882106
 20
-159.349298
 30
0.0
 11
-357.882106
 21
-173.849298
 31
0.0
  0
LINE
  5
2A8
100
AcDbEntity
  8
2
370
    50
100
AcDbLine
 10
-359.632106
 20
-159.349298
 30
0.0
 11
-359.632106
 21
-173.849298
 31
0.0
  0
LINE
  5
2A9
100
AcDbEntity
  8
2
370
    50
100
AcDbLine
 10
-362.203258
 20
-159.349298
 30
0.0
 11
-362.203258
 21
-173.849298
 31
0.0
  0
LINE
  5
2AA
100
AcDbEntity
  8
2
370
    50
100
AcDbLine
 10
-357.703258
 20
-159.349298
 30
0.0
 11
-357.882106
 21
-159.349298
 31
0.0
  0
ARC
  5
2AB
100
AcDbEntity
  8
2
370
    50
100
AcDbCircle
 10
-363.953258
 20
-165.349298
 30
0.0
 40
6.25
100
AcDbArc
 50
73.739795
 51
90.0
  0
ARC
  5
2AC
100
AcDbEntity
  8
2
370
    50
100
AcDbCircle
 10
-358.757106
 20
-160.755548
 30
0.0
 40
1.65625
100
AcDbArc
 50
58.109208
 51
121.890792
  0
LINE
  5
2AD
100
AcDbEntity
  8
2
370
    50
100
AcDbLine
 10
-363.953258
 20
-158.849298
 30
0.0
 11
-369.703258
 21
-158.849298
 31
0.0
  0
LINE
  5
2AE
100
AcDbEntity
  8
2
370
    50
100
AcDbLine
 10
-370.203258
 20
-159.349298
 30
0.0
 11
-370.203258
 21
-173.849298
 31
0.0
  0
LINE
  5
2AF
100
AcDbEntity
  8
2
370
    50
100
AcDbLine
 10
-370.203258
 20
-159.349298
 30
0.0
 11
-369.703258
 21
-158.849298
 31
0.0
  0
LINE
  5
2B0
100
AcDbEntity
  8
2
370
    50
100
AcDbLine
 10
-368.274411
 20
-159.349298
 30
0.0
 11
-365.703258
 21
-159.349298
 31
0.0
  0
LINE
  5
2B1
100
AcDbEntity
  8
2
370
    50
100
AcDbLine
 10
-370.024411
 20
-159.349298
 30
0.0
 11
-370.024411
 21
-173.849298
 31
0.0
  0
LINE
  5
2B2
100
AcDbEntity
  8
2
370
    50
100
AcDbLine
 10
-368.274411
 20
-159.349298
 30
0.0
 11
-368.274411
 21
-173.849298
 31
0.0
  0
LINE
  5
2B3
100
AcDbEntity
  8
2
370
    50
100
AcDbLine
 10
-365.703258
 20
-159.349298
 30
0.0
 11
-365.703258
 21
-173.849298
 31
0.0
  0
LINE
  5
2B4
100
AcDbEntity
  8
2
370
    50
100
AcDbLine
 10
-370.203258
 20
-159.349298
 30
0.0
 11
-370.024411
 21
-159.349298
 31
0.0
  0
ARC
  5
2B5
100
AcDbEntity
  8
2
370
    50
100
AcDbCircle
 10
-363.953258
 20
-165.349298
 30
0.0
 40
6.25
100
AcDbArc
 50
90.0
 51
106.260205
  0
ARC
  5
2B6
100
AcDbEntity
  8
2
370
    50
100
AcDbCircle
 10
-369.149411
 20
-160.755548
 30
0.0
 40
1.65625
100
AcDbArc
 50
58.109208
 51
121.890792
  0
POINT
  5
2B7
100
AcDbEntity
  8
2
370
    50
100
AcDbPoint
 10
-355.953258
 20
-123.849298
 30
0.0
  0
LINE
  5
2B8
100
AcDbEntity
  8
2
370
    50
100
AcDbLine
 10
-347.953258
 20
-174.349298
 30
0.0
 11
-342.203258
 21
-174.349298
 31
0.0
  0
LINE
  5
2B9
100
AcDbEntity
  8
2
370
    50
100
AcDbLine
 10
-341.703258
 20
-173.849298
 30
0.0
 11
-342.203258
 21
-174.349298
 31
0.0
  0
LINE
  5
2BA
100
AcDbEntity
  8
2
370
    50
100
AcDbLine
 10
-343.632106
 20
-173.849298
 30
0.0
 11
-346.203258
 21
-173.849298
 31
0.0
  0
LINE
  5
2BB
100
AcDbEntity
  8
2
370
    50
100
AcDbLine
 10
-341.703258
 20
-173.849298
 30
0.0
 11
-341.882106
 21
-173.849298
 31
0.0
  0
ARC
  5
2BC
100
AcDbEntity
  8
2
370
    50
100
AcDbCircle
 10
-342.757106
 20
-172.443048
 30
0.0
 40
1.65625
100
AcDbArc
 50
238.109208
 51
301.890792
  0
ARC
  5
2BD
100
AcDbEntity
  8
2
370
    50
100
AcDbCircle
 10
-347.953258
 20
-167.849298
 30
0.0
 40
6.25
100
AcDbArc
 50
270.0
 51
286.260205
  0
LINE
  5
2BE
100
AcDbEntity
  8
2
370
    50
100
AcDbLine
 10
-347.953258
 20
-174.349298
 30
0.0
 11
-353.703258
 21
-174.349298
 31
0.0
  0
LINE
  5
2BF
100
AcDbEntity
  8
2
370
    50
100
AcDbLine
 10
-354.203258
 20
-173.849298
 30
0.0
 11
-353.703258
 21
-174.349298
 31
0.0
  0
LINE
  5
2C0
100
AcDbEntity
  8
2
370
    50
100
AcDbLine
 10
-352.274411
 20
-173.849298
 30
0.0
 11
-349.703258
 21
-173.849298
 31
0.0
  0
LINE
  5
2C1
100
AcDbEntity
  8
2
370
    50
100
AcDbLine
 10
-354.203258
 20
-173.849298
 30
0.0
 11
-354.024411
 21
-173.849298
 31
0.0
  0
ARC
  5
2C2
100
AcDbEntity
  8
2
370
    50
100
AcDbCircle
 10
-353.149411
 20
-172.443048
 30
0.0
 40
1.65625
100
AcDbArc
 50
238.109208
 51
301.890792
  0
ARC
  5
2C3
100
AcDbEntity
  8
2
370
    50
100
AcDbCircle
 10
-347.953258
 20
-167.849298
 30
0.0
 40
6.25
100
AcDbArc
 50
253.739795
 51
270.0
  0
LINE
  5
2C4
100
AcDbEntity
  8
2
370
    50
100
AcDbLine
 10
-363.953258
 20
-174.349298
 30
0.0
 11
-358.203258
 21
-174.349298
 31
0.0
  0
LINE
  5
2C5
100
AcDbEntity
  8
2
370
    50
100
AcDbLine
 10
-357.703258
 20
-173.849298
 30
0.0
 11
-358.203258
 21
-174.349298
 31
0.0
  0
LINE
  5
2C6
100
AcDbEntity
  8
2
370
    50
100
AcDbLine
 10
-359.632106
 20
-173.849298
 30
0.0
 11
-362.203258
 21
-173.849298
 31
0.0
  0
LINE
  5
2C7
100
AcDbEntity
  8
2
370
    50
100
AcDbLine
 10
-357.703258
 20
-173.849298
 30
0.0
 11
-357.882106
 21
-173.849298
 31
0.0
  0
ARC
  5
2C8
100
AcDbEntity
  8
2
370
    50
100
AcDbCircle
 10
-358.757106
 20
-172.443048
 30
0.0
 40
1.65625
100
AcDbArc
 50
238.109208
 51
301.890792
  0
ARC
  5
2C9
100
AcDbEntity
  8
2
370
    50
100
AcDbCircle
 10
-363.953258
 20
-167.849298
 30
0.0
 40
6.25
100
AcDbArc
 50
270.0
 51
286.260205
  0
LINE
  5
2CA
100
AcDbEntity
  8
2
370
    50
100
AcDbLine
 10
-363.953258
 20
-174.349298
 30
0.0
 11
-369.703258
 21
-174.349298
 31
0.0
  0
LINE
  5
2CB
100
AcDbEntity
  8
2
370
    50
100
AcDbLine
 10
-370.203258
 20
-173.849298
 30
0.0
 11
-369.703258
 21
-174.349298
 31
0.0
  0
LINE
  5
2CC
100
AcDbEntity
  8
2
370
    50
100
AcDbLine
 10
-368.274411
 20
-173.849298
 30
0.0
 11
-365.703258
 21
-173.849298
 31
0.0
  0
LINE
  5
2CD
100
AcDbEntity
  8
2
370
    50
100
AcDbLine
 10
-370.203258
 20
-173.849298
 30
0.0
 11
-370.024411
 21
-173.849298
 31
0.0
  0
ARC
  5
2CE
100
AcDbEntity
  8
2
370
    50
100
AcDbCircle
 10
-369.149411
 20
-172.443048
 30
0.0
 40
1.65625
100
AcDbArc
 50
238.109208
 51
301.890792
  0
ARC
  5
2CF
100
AcDbEntity
  8
2
370
    50
100
AcDbCircle
 10
-363.953258
 20
-167.849298
 30
0.0
 40
6.25
100
AcDbArc
 50
253.739795
 51
270.0
  0
LINE
  5
2D0
100
AcDbEntity
  8
2
370
    25
  6
CENTER
100
AcDbLine
 10
-363.953259
 20
-216.846956
 30
0.0
 11
-363.953259
 21
-239.66636
 31
0.0
  0
LINE
  5
2D1
100
AcDbEntity
  8
2
370
    50
100
AcDbLine
 10
-358.453259
 20
-174.349298
 30
0.0
 11
-368.716398
 21
-174.349298
 31
0.0
  0
LINE
  5
2D2
100
AcDbEntity
  8
2
370
    50
100
AcDbLine
 10
-368.953259
 20
-174.349298
 30
0.0
 11
-369.453259
 21
-174.349298
 31
0.0
  0
LINE
  5
2D3
100
AcDbEntity
  8
2
370
    50
100
AcDbLine
 10
-342.453259
 20
-174.349298
 30
0.0
 11
-353.453259
 21
-174.349298
 31
0.0
  0
LINE
  5
2D4
100
AcDbEntity
  8
2
370
    50
100
AcDbLine
 10
-425.641101
 20
-286.054124
 30
0.0
 11
-411.641101
 21
-286.054124
 31
0.0
  0
LINE
  5
2D5
100
AcDbEntity
  8
2
370
    50
100
AcDbLine
 10
-412.641101
 20
-285.854124
 30
0.0
 11
-405.141101
 21
-285.854124
 31
0.0
  0
LINE
  5
2D6
100
AcDbEntity
  8
2
370
    50
100
AcDbLine
 10
-409.841101
 20
-291.354124
 30
0.0
 11
-409.841101
 21
-286.854124
 31
0.0
  0
ARC
  5
2D7
100
AcDbEntity
  8
2
370
    50
100
AcDbCircle
 10
-410.841101
 20
-286.854124
 30
0.0
 40
1.0
100
AcDbArc
 50
0.0
 51
90.0
  0
LINE
  5
2D8
100
AcDbEntity
  8
2
370
    50
100
AcDbLine
 10
-411.141101
 20
-286.554124
 30
0.0
 11
-411.141101
 21
-287.853502
 31
0.0
  0
ARC
  5
2D9
100
AcDbEntity
  8
2
370
    50
100
AcDbCircle
 10
-410.841101
 20
-286.854124
 30
0.0
 40
1.0
100
AcDbArc
 50
0.0
 51
90.0
  0
LINE
  5
2DA
100
AcDbEntity
  8
2
370
    50
100
AcDbLine
 10
-411.141101
 20
-286.554124
 30
0.0
 11
-411.641101
 21
-286.054124
 31
0.0
  0
LINE
  5
2DB
100
AcDbEntity
  8
2
370
    50
100
AcDbLine
 10
-404.141101
 20
-286.854124
 30
0.0
 11
-404.141101
 21
-298.854124
 31
0.0
  0
ARC
  5
2DC
100
AcDbEntity
  8
2
370
    50
100
AcDbCircle
 10
-405.141101
 20
-286.854124
 30
0.0
 40
1.0
100
AcDbArc
 50
0.0
 51
90.0
  0
LINE
  5
2DD
100
AcDbEntity
  8
2
370
    50
100
AcDbLine
 10
-426.141101
 20
-286.554124
 30
0.0
 11
-425.641101
 21
-286.054124
 31
0.0
  0
LINE
  5
2DE
100
AcDbEntity
  8
2
370
    25
100
AcDbLine
 10
-425.140962
 20
-299.853502
 30
0.0
 11
-425.140962
 21
-296.853502
 31
0.0
  0
LINE
  5
2DF
100
AcDbEntity
  8
2
370
    50
100
AcDbLine
 10
-427.541101
 20
-291.454759
 30
0.0
 11
-427.541101
 21
-293.854759
 31
0.0
  0
LINE
  5
2E0
100
AcDbEntity
  8
2
370
    50
100
AcDbLine
 10
-427.341101
 20
-291.254759
 30
0.0
 11
-427.541101
 21
-291.454759
 31
0.0
  0
LINE
  5
2E1
100
AcDbEntity
  8
2
370
    50
100
AcDbLine
 10
-427.341101
 20
-294.054759
 30
0.0
 11
-427.541101
 21
-293.854759
 31
0.0
  0
LINE
  5
2E2
100
AcDbEntity
  8
2
370
    50
100
AcDbLine
 10
-426.141101
 20
-291.254759
 30
0.0
 11
-426.141101
 21
-290.853502
 31
0.0
  0
LINE
  5
2E3
100
AcDbEntity
  8
2
370
    50
100
AcDbLine
 10
-426.141101
 20
-286.554124
 30
0.0
 11
-426.141101
 21
-287.853502
 31
0.0
  0
LINE
  5
2E4
100
AcDbEntity
  8
2
370
    50
100
AcDbLine
 10
-409.741101
 20
-291.454124
 30
0.0
 11
-409.741101
 21
-293.854124
 31
0.0
  0
LINE
  5
2E5
100
AcDbEntity
  8
2
370
    50
100
AcDbLine
 10
-427.541101
 20
-291.454124
 30
0.0
 11
-427.541101
 21
-293.854124
 31
0.0
  0
LINE
  5
2E6
100
AcDbEntity
  8
2
370
    50
100
AcDbLine
 10
-427.341101
 20
-291.254124
 30
0.0
 11
-427.541101
 21
-291.454124
 31
0.0
  0
LINE
  5
2E7
100
AcDbEntity
  8
2
370
    50
100
AcDbLine
 10
-409.941101
 20
-291.254124
 30
0.0
 11
-409.741101
 21
-291.454124
 31
0.0
  0
LINE
  5
2E8
100
AcDbEntity
  8
2
370
    50
100
AcDbLine
 10
-409.941101
 20
-294.054124
 30
0.0
 11
-409.741101
 21
-293.854124
 31
0.0
  0
LINE
  5
2E9
100
AcDbEntity
  8
2
370
    50
100
AcDbLine
 10
-409.641101
 20
-299.854124
 30
0.0
 11
-427.641101
 21
-299.854124
 31
0.0
  0
LINE
  5
2EA
100
AcDbEntity
  8
2
370
    50
100
AcDbLine
 10
-410.341101
 20
-287.854124
 30
0.0
 11
-426.941101
 21
-287.854124
 31
0.0
  0
LINE
  5
2EB
100
AcDbEntity
  8
2
370
    50
100
AcDbLine
 10
-422.641101
 20
-288.854124
 30
0.0
 11
-422.641101
 21
-298.854124
 31
0.0
  0
LINE
  5
2EC
100
AcDbEntity
  8
2
370
    50
100
AcDbLine
 10
-414.641101
 20
-288.854124
 30
0.0
 11
-414.641101
 21
-298.854124
 31
0.0
  0
ARC
  5
2ED
100
AcDbEntity
  8
2
370
    50
100
AcDbCircle
 10
-432.141101
 20
-286.854124
 30
0.0
 40
1.0
100
AcDbArc
 50
90.0
 51
180.0
  0
ARC
  5
2EE
100
AcDbEntity
  8
2
370
    50
100
AcDbCircle
 10
-432.141101
 20
-298.854124
 30
0.0
 40
1.0
100
AcDbArc
 50
180.0
 51
270.0
  0
LINE
  5
2EF
100
AcDbEntity
  8
2
370
    50
100
AcDbLine
 10
-432.141101
 20
-285.854124
 30
0.0
 11
-424.641101
 21
-285.854124
 31
0.0
  0
LINE
  5
2F0
100
AcDbEntity
  8
2
370
    50
100
AcDbLine
 10
-432.141101
 20
-299.854124
 30
0.0
 11
-426.141101
 21
-299.854124
 31
0.0
  0
LINE
  5
2F1
100
AcDbEntity
  8
2
370
    50
100
AcDbLine
 10
-410.341101
 20
-299.854124
 30
0.0
 11
-405.141101
 21
-299.854124
 31
0.0
  0
LINE
  5
2F2
100
AcDbEntity
  8
2
370
    50
100
AcDbLine
 10
-410.341101
 20
-290.854124
 30
0.0
 11
-414.641101
 21
-290.854124
 31
0.0
  0
LINE
  5
2F3
100
AcDbEntity
  8
2
370
    50
100
AcDbLine
 10
-422.641101
 20
-290.854124
 30
0.0
 11
-426.941101
 21
-290.854124
 31
0.0
  0
LINE
  5
2F4
100
AcDbEntity
  8
2
370
    50
100
AcDbLine
 10
-409.941101
 20
-291.254124
 30
0.0
 11
-414.641101
 21
-291.254124
 31
0.0
  0
LINE
  5
2F5
100
AcDbEntity
  8
2
370
    50
100
AcDbLine
 10
-422.641101
 20
-291.254124
 30
0.0
 11
-427.341101
 21
-291.254124
 31
0.0
  0
LINE
  5
2F6
100
AcDbEntity
  8
2
370
    50
100
AcDbLine
 10
-409.741101
 20
-291.454124
 30
0.0
 11
-414.641101
 21
-291.454124
 31
0.0
  0
LINE
  5
2F7
100
AcDbEntity
  8
2
370
    50
100
AcDbLine
 10
-422.641101
 20
-291.454124
 30
0.0
 11
-427.541101
 21
-291.454124
 31
0.0
  0
LINE
  5
2F8
100
AcDbEntity
  8
2
370
    50
100
AcDbLine
 10
-409.741101
 20
-293.854124
 30
0.0
 11
-414.641101
 21
-293.854124
 31
0.0
  0
LINE
  5
2F9
100
AcDbEntity
  8
2
370
    50
100
AcDbLine
 10
-422.641101
 20
-293.854124
 30
0.0
 11
-427.541101
 21
-293.854124
 31
0.0
  0
LINE
  5
2FA
100
AcDbEntity
  8
2
370
    50
100
AcDbLine
 10
-410.341101
 20
-296.854124
 30
0.0
 11
-414.641101
 21
-296.854124
 31
0.0
  0
LINE
  5
2FB
100
AcDbEntity
  8
2
370
    50
100
AcDbLine
 10
-422.641101
 20
-296.854124
 30
0.0
 11
-426.941101
 21
-296.854124
 31
0.0
  0
ARC
  5
2FC
100
AcDbEntity
  8
2
370
    50
100
AcDbCircle
 10
-415.641101
 20
-288.854124
 30
0.0
 40
1.0
100
AcDbArc
 50
0.0
 51
90.0
  0
ARC
  5
2FD
100
AcDbEntity
  8
2
370
    50
100
AcDbCircle
 10
-421.641101
 20
-288.854124
 30
0.0
 40
1.0
100
AcDbArc
 50
90.0
 51
180.0
  0
ARC
  5
2FE
100
AcDbEntity
  8
2
370
    50
100
AcDbCircle
 10
-421.641101
 20
-298.854124
 30
0.0
 40
1.0
100
AcDbArc
 50
180.0
 51
270.0
  0
ARC
  5
2FF
100
AcDbEntity
  8
2
370
    50
100
AcDbCircle
 10
-415.641101
 20
-298.854124
 30
0.0
 40
1.0
100
AcDbArc
 50
270.0
 51
0.0
  0
LINE
  5
300
100
AcDbEntity
  8
2
370
    50
100
AcDbLine
 10
-426.941101
 20
-287.854124
 30
0.0
 11
-426.941101
 21
-290.854124
 31
0.0
  0
LINE
  5
301
100
AcDbEntity
  8
2
370
    50
100
AcDbLine
 10
-410.341101
 20
-287.854124
 30
0.0
 11
-410.341101
 21
-290.854124
 31
0.0
  0
LINE
  5
302
100
AcDbEntity
  8
2
370
    50
100
AcDbLine
 10
-410.341101
 20
-296.854124
 30
0.0
 11
-410.341101
 21
-299.854124
 31
0.0
  0
LINE
  5
303
100
AcDbEntity
  8
2
370
    50
100
AcDbLine
 10
-426.941101
 20
-296.854124
 30
0.0
 11
-426.941101
 21
-299.854124
 31
0.0
  0
LINE
  5
304
100
AcDbEntity
  8
2
370
    50
100
AcDbLine
 10
-426.141101
 20
-291.254124
 30
0.0
 11
-426.141101
 21
-290.854124
 31
0.0
  0
LINE
  5
305
100
AcDbEntity
  8
2
370
    50
100
AcDbLine
 10
-411.141101
 20
-291.254124
 30
0.0
 11
-411.141101
 21
-290.854124
 31
0.0
  0
LINE
  5
306
100
AcDbEntity
  8
2
370
    25
100
AcDbLine
 10
-423.641101
 20
-299.554707
 30
0.0
 11
-423.641101
 21
-297.249485
 31
0.0
  0
LINE
  5
307
100
AcDbEntity
  8
2
370
    25
100
AcDbLine
 10
-423.641102
 20
-290.592937
 30
0.0
 11
-423.641101
 21
-288.160732
 31
0.0
  0
LINE
  5
308
100
AcDbEntity
  8
2
370
    25
100
AcDbLine
 10
-413.641101
 20
-299.554707
 30
0.0
 11
-413.641101
 21
-297.249485
 31
0.0
  0
LINE
  5
309
100
AcDbEntity
  8
2
370
    25
100
AcDbLine
 10
-413.641101
 20
-290.550259
 30
0.0
 11
-413.641101
 21
-288.081211
 31
0.0
  0
LINE
  5
30A
100
AcDbEntity
  8
2
370
    50
100
AcDbLine
 10
-427.441101
 20
-298.854124
 30
0.0
 11
-427.441101
 21
-296.254124
 31
0.0
  0
LINE
  5
30B
100
AcDbEntity
  8
2
370
    50
100
AcDbLine
 10
-427.441101
 20
-291.354124
 30
0.0
 11
-427.441101
 21
-286.854124
 31
0.0
  0
LINE
  5
30C
100
AcDbEntity
  8
2
370
    50
100
AcDbLine
 10
-409.841101
 20
-298.854124
 30
0.0
 11
-409.841101
 21
-296.254124
 31
0.0
  0
ARC
  5
30D
100
AcDbEntity
  8
2
370
    50
100
AcDbCircle
 10
-426.441101
 20
-286.854124
 30
0.0
 40
1.0
100
AcDbArc
 50
90.0
 51
180.0
  0
ARC
  5
30E
100
AcDbEntity
  8
2
370
    50
100
AcDbCircle
 10
-428.441101
 20
-298.854124
 30
0.0
 40
1.0
100
AcDbArc
 50
270.0
 51
0.0
  0
ARC
  5
30F
100
AcDbEntity
  8
2
370
    50
100
AcDbCircle
 10
-408.841101
 20
-298.854124
 30
0.0
 40
1.0
100
AcDbArc
 50
180.0
 51
270.0
  0
LINE
  5
310
100
AcDbEntity
  8
2
370
    50
100
AcDbLine
 10
-409.641101
 20
-294.254124
 30
0.0
 11
-409.641101
 21
-296.054124
 31
0.0
  0
LINE
  5
311
100
AcDbEntity
  8
2
370
    50
100
AcDbLine
 10
-427.641101
 20
-294.254124
 30
0.0
 11
-427.641101
 21
-296.054124
 31
0.0
  0
LINE
  5
312
100
AcDbEntity
  8
2
370
    50
100
AcDbLine
 10
-409.841101
 20
-294.054124
 30
0.0
 11
-409.641101
 21
-294.254124
 31
0.0
  0
LINE
  5
313
100
AcDbEntity
  8
2
370
    50
100
AcDbLine
 10
-409.641101
 20
-296.054124
 30
0.0
 11
-409.841101
 21
-296.254124
 31
0.0
  0
LINE
  5
314
100
AcDbEntity
  8
2
370
    50
100
AcDbLine
 10
-427.441101
 20
-294.054124
 30
0.0
 11
-427.641101
 21
-294.254124
 31
0.0
  0
LINE
  5
315
100
AcDbEntity
  8
2
370
    50
100
AcDbLine
 10
-427.641101
 20
-296.054124
 30
0.0
 11
-427.441101
 21
-296.254124
 31
0.0
  0
LINE
  5
316
100
AcDbEntity
  8
2
370
    50
100
AcDbLine
 10
-426.141101
 20
-300.254124
 30
0.0
 11
-426.141101
 21
-299.854124
 31
0.0
  0
LINE
  5
317
100
AcDbEntity
  8
2
370
    50
100
AcDbLine
 10
-426.141101
 20
-296.854124
 30
0.0
 11
-426.141101
 21
-296.254124
 31
0.0
  0
LINE
  5
318
100
AcDbEntity
  8
2
370
    50
100
AcDbLine
 10
-411.141101
 20
-300.254124
 30
0.0
 11
-411.141101
 21
-299.854124
 31
0.0
  0
LINE
  5
319
100
AcDbEntity
  8
2
370
    50
100
AcDbLine
 10
-411.141101
 20
-296.854124
 30
0.0
 11
-411.141101
 21
-296.254124
 31
0.0
  0
LINE
  5
31A
100
AcDbEntity
  8
2
370
    50
100
AcDbLine
 10
-409.841101
 20
-296.254124
 30
0.0
 11
-414.641101
 21
-296.254124
 31
0.0
  0
LINE
  5
31B
100
AcDbEntity
  8
2
370
    50
100
AcDbLine
 10
-422.641101
 20
-296.254124
 30
0.0
 11
-427.441101
 21
-296.254124
 31
0.0
  0
LINE
  5
31C
100
AcDbEntity
  8
2
370
    50
100
AcDbLine
 10
-409.641101
 20
-296.054124
 30
0.0
 11
-414.641101
 21
-296.054124
 31
0.0
  0
LINE
  5
31D
100
AcDbEntity
  8
2
370
    50
100
AcDbLine
 10
-422.641101
 20
-296.054124
 30
0.0
 11
-427.641101
 21
-296.054124
 31
0.0
  0
LINE
  5
31E
100
AcDbEntity
  8
2
370
    50
100
AcDbLine
 10
-409.641101
 20
-294.254124
 30
0.0
 11
-414.641101
 21
-294.254124
 31
0.0
  0
LINE
  5
31F
100
AcDbEntity
  8
2
370
    50
100
AcDbLine
 10
-422.641101
 20
-294.254124
 30
0.0
 11
-427.641101
 21
-294.254124
 31
0.0
  0
LINE
  5
320
100
AcDbEntity
  8
2
370
    50
100
AcDbLine
 10
-409.841101
 20
-294.054124
 30
0.0
 11
-414.641101
 21
-294.054124
 31
0.0
  0
LINE
  5
321
100
AcDbEntity
  8
2
370
    50
100
AcDbLine
 10
-422.641101
 20
-294.054124
 30
0.0
 11
-427.441101
 21
-294.054124
 31
0.0
  0
LINE
  5
322
100
AcDbEntity
  8
2
370
    25
100
AcDbLine
 10
-412.141241
 20
-299.853502
 30
0.0
 11
-412.141241
 21
-296.853502
 31
0.0
  0
LINE
  5
323
100
AcDbEntity
  8
2
370
    25
100
AcDbLine
 10
-425.140962
 20
-290.854124
 30
0.0
 11
-425.140962
 21
-287.854124
 31
0.0
  0
LINE
  5
324
100
AcDbEntity
  8
2
370
    25
100
AcDbLine
 10
-412.141241
 20
-290.854124
 30
0.0
 11
-412.141241
 21
-287.854124
 31
0.0
  0
ARC
  5
325
100
AcDbEntity
  8
2
370
    50
100
AcDbCircle
 10
-405.141101
 20
-298.854124
 30
0.0
 40
1.0
100
AcDbArc
 50
270.0
 51
360.0
  0
LINE
  5
326
100
AcDbEntity
  8
2
370
    50
100
AcDbLine
 10
-433.141101
 20
-286.854124
 30
0.0
 11
-433.141101
 21
-298.854124
 31
0.0
  0
LINE
  5
327
100
AcDbEntity
  8
2
370
    50
100
AcDbLine
 10
-427.640836
 20
-300.253375
 30
0.0
 11
-428.640836
 21
-301.253375
 31
0.0
  0
LINE
  5
328
100
AcDbEntity
  8
2
370
    50
100
AcDbLine
 10
-409.640836
 20
-300.253375
 30
0.0
 11
-408.640836
 21
-301.253375
 31
0.0
  0
LINE
  5
329
100
AcDbEntity
  8
2
370
    50
100
AcDbLine
 10
-428.640836
 20
-301.253375
 30
0.0
 11
-408.640836
 21
-301.253375
 31
0.0
  0
LINE
  5
32A
100
AcDbEntity
  8
2
370
    50
100
AcDbLine
 10
-428.640836
 20
-301.253375
 30
0.0
 11
-428.640836
 21
-310.053375
 31
0.0
  0
LINE
  5
32B
100
AcDbEntity
  8
2
370
    50
100
AcDbLine
 10
-408.640836
 20
-301.253375
 30
0.0
 11
-408.640836
 21
-310.053375
 31
0.0
  0
LINE
  5
32C
100
AcDbEntity
  8
2
370
    50
100
AcDbLine
 10
-408.313969
 20
-310.053375
 30
0.0
 11
-430.640836
 21
-310.053375
 31
0.0
  0
LINE
  5
32D
100
AcDbEntity
  8
2
370
    50
100
AcDbLine
 10
-432.497242
 20
-311.909782
 30
0.0
 11
-432.497242
 21
-319.196969
 31
0.0
  0
LINE
  5
32E
100
AcDbEntity
  8
2
370
    50
100
AcDbLine
 10
-404.784429
 20
-319.196969
 30
0.0
 11
-404.784429
 21
-311.909782
 31
0.0
  0
LINE
  5
32F
100
AcDbEntity
  8
2
370
    50
100
AcDbLine
 10
-406.640836
 20
-321.053375
 30
0.0
 11
-430.640836
 21
-321.053375
 31
0.0
  0
LINE
  5
330
100
AcDbEntity
  8
2
370
    50
100
AcDbLine
 10
-425.569039
 20
-319.196969
 30
0.0
 11
-425.569039
 21
-311.909782
 31
0.0
  0
LINE
  5
331
100
AcDbEntity
  8
2
370
    50
100
AcDbLine
 10
-411.712633
 20
-319.196969
 30
0.0
 11
-411.712633
 21
-311.909782
 31
0.0
  0
LINE
  5
332
100
AcDbEntity
  8
2
370
    50
100
AcDbLine
 10
-406.640836
 20
-310.053375
 30
0.0
 11
-430.640836
 21
-310.053375
 31
0.0
  0
LINE
  5
333
100
AcDbEntity
  8
2
370
    50
100
AcDbLine
 10
-430.640836
 20
-310.053375
 30
0.0
 11
-432.497242
 21
-311.909782
 31
0.0
  0
LINE
  5
334
100
AcDbEntity
  8
2
370
    50
100
AcDbLine
 10
-406.640836
 20
-321.053375
 30
0.0
 11
-404.784429
 21
-319.196969
 31
0.0
  0
LINE
  5
335
100
AcDbEntity
  8
2
370
    50
100
AcDbLine
 10
-406.640836
 20
-310.053375
 30
0.0
 11
-404.784429
 21
-311.909782
 31
0.0
  0
LINE
  5
336
100
AcDbEntity
  8
2
370
    50
100
AcDbLine
 10
-430.640836
 20
-321.053375
 30
0.0
 11
-432.497242
 21
-319.196969
 31
0.0
  0
ARC
  5
337
100
AcDbEntity
  8
2
370
    50
100
AcDbCircle
 10
-418.640836
 20
-323.909782
 30
0.0
 40
13.856406
100
AcDbArc
 50
60.0
 51
120.0
  0
ARC
  5
338
100
AcDbEntity
  8
2
370
    50
100
AcDbCircle
 10
-418.640836
 20
-307.196969
 30
0.0
 40
13.856406
100
AcDbArc
 50
240.0
 51
300.0
  0
ARC
  5
339
100
AcDbEntity
  8
2
370
    50
100
AcDbCircle
 10
-428.967703
 20
-314.092675
 30
0.0
 40
4.039299
100
AcDbArc
 50
32.711809
 51
135.0
  0
ARC
  5
33A
100
AcDbEntity
  8
2
370
    50
100
AcDbCircle
 10
-428.967703
 20
-317.014076
 30
0.0
 40
4.039299
100
AcDbArc
 50
225.0
 51
327.288191
  0
ARC
  5
33B
100
AcDbEntity
  8
2
370
    50
100
AcDbCircle
 10
-408.313969
 20
-314.092675
 30
0.0
 40
4.039299
100
AcDbArc
 50
45.0
 51
147.288191
  0
ARC
  5
33C
100
AcDbEntity
  8
2
370
    50
100
AcDbCircle
 10
-408.313969
 20
-317.014076
 30
0.0
 40
4.039299
100
AcDbArc
 50
212.711809
 51
315.0
  0
LINE
  5
33D
100
AcDbEntity
  8
2
370
    50
100
AcDbLine
 10
-409.640836
 20
-300.253375
 30
0.0
 11
-427.640836
 21
-300.253375
 31
0.0
  0
LINE
  5
33E
100
AcDbEntity
  8
2
370
    50
100
AcDbLine
 10
-286.265416
 20
-289.246349
 30
0.0
 11
-300.265416
 21
-289.246349
 31
0.0
  0
LINE
  5
33F
100
AcDbEntity
  8
2
370
    50
100
AcDbLine
 10
-285.765416
 20
-289.746349
 30
0.0
 11
-286.265416
 21
-289.246349
 31
0.0
  0
LINE
  5
340
100
AcDbEntity
  8
2
370
    25
100
AcDbLine
 10
-286.765556
 20
-303.045727
 30
0.0
 11
-286.765556
 21
-300.045727
 31
0.0
  0
LINE
  5
341
100
AcDbEntity
  8
2
370
    50
100
AcDbLine
 10
-284.365416
 20
-294.646984
 30
0.0
 11
-284.365416
 21
-297.046984
 31
0.0
  0
LINE
  5
342
100
AcDbEntity
  8
2
370
    50
100
AcDbLine
 10
-284.565416
 20
-294.446984
 30
0.0
 11
-284.365416
 21
-294.646984
 31
0.0
  0
LINE
  5
343
100
AcDbEntity
  8
2
370
    50
100
AcDbLine
 10
-284.565416
 20
-297.246984
 30
0.0
 11
-284.365416
 21
-297.046984
 31
0.0
  0
LINE
  5
344
100
AcDbEntity
  8
2
370
    50
100
AcDbLine
 10
-285.765416
 20
-294.446984
 30
0.0
 11
-285.765416
 21
-294.045727
 31
0.0
  0
LINE
  5
345
100
AcDbEntity
  8
2
370
    50
100
AcDbLine
 10
-285.765416
 20
-289.746349
 30
0.0
 11
-285.765416
 21
-291.045727
 31
0.0
  0
LINE
  5
346
100
AcDbEntity
  8
2
370
    50
100
AcDbLine
 10
-302.165416
 20
-294.646349
 30
0.0
 11
-302.165416
 21
-297.046349
 31
0.0
  0
LINE
  5
347
100
AcDbEntity
  8
2
370
    50
100
AcDbLine
 10
-284.365416
 20
-294.646349
 30
0.0
 11
-284.365416
 21
-297.046349
 31
0.0
  0
LINE
  5
348
100
AcDbEntity
  8
2
370
    50
100
AcDbLine
 10
-284.565416
 20
-294.446349
 30
0.0
 11
-284.365416
 21
-294.646349
 31
0.0
  0
LINE
  5
349
100
AcDbEntity
  8
2
370
    50
100
AcDbLine
 10
-301.965416
 20
-294.446349
 30
0.0
 11
-302.165416
 21
-294.646349
 31
0.0
  0
LINE
  5
34A
100
AcDbEntity
  8
2
370
    50
100
AcDbLine
 10
-301.965416
 20
-297.246349
 30
0.0
 11
-302.165416
 21
-297.046349
 31
0.0
  0
LINE
  5
34B
100
AcDbEntity
  8
2
370
    50
100
AcDbLine
 10
-302.265416
 20
-303.046349
 30
0.0
 11
-284.265416
 21
-303.046349
 31
0.0
  0
LINE
  5
34C
100
AcDbEntity
  8
2
370
    50
100
AcDbLine
 10
-301.565416
 20
-291.046349
 30
0.0
 11
-284.965416
 21
-291.046349
 31
0.0
  0
LINE
  5
34D
100
AcDbEntity
  8
2
370
    50
100
AcDbLine
 10
-289.265416
 20
-292.046349
 30
0.0
 11
-289.265416
 21
-302.046349
 31
0.0
  0
LINE
  5
34E
100
AcDbEntity
  8
2
370
    50
100
AcDbLine
 10
-297.265416
 20
-292.046349
 30
0.0
 11
-297.265416
 21
-302.046349
 31
0.0
  0
ARC
  5
34F
100
AcDbEntity
  8
2
370
    50
100
AcDbCircle
 10
-279.765416
 20
-290.046349
 30
0.0
 40
1.0
100
AcDbArc
 50
0.0
 51
90.0
  0
ARC
  5
350
100
AcDbEntity
  8
2
370
    50
100
AcDbCircle
 10
-279.765416
 20
-302.046349
 30
0.0
 40
1.0
100
AcDbArc
 50
270.0
 51
360.0
  0
LINE
  5
351
100
AcDbEntity
  8
2
370
    50
100
AcDbLine
 10
-279.765416
 20
-289.046349
 30
0.0
 11
-287.265416
 21
-289.046349
 31
0.0
  0
LINE
  5
352
100
AcDbEntity
  8
2
370
    50
100
AcDbLine
 10
-299.265416
 20
-289.046349
 30
0.0
 11
-306.765416
 21
-289.046349
 31
0.0
  0
LINE
  5
353
100
AcDbEntity
  8
2
370
    50
100
AcDbLine
 10
-279.765416
 20
-303.046349
 30
0.0
 11
-285.765416
 21
-303.046349
 31
0.0
  0
LINE
  5
354
100
AcDbEntity
  8
2
370
    50
100
AcDbLine
 10
-301.565416
 20
-303.046349
 30
0.0
 11
-306.765416
 21
-303.046349
 31
0.0
  0
LINE
  5
355
100
AcDbEntity
  8
2
370
    50
100
AcDbLine
 10
-301.565416
 20
-294.046349
 30
0.0
 11
-297.265416
 21
-294.046349
 31
0.0
  0
LINE
  5
356
100
AcDbEntity
  8
2
370
    50
100
AcDbLine
 10
-289.265416
 20
-294.046349
 30
0.0
 11
-284.965416
 21
-294.046349
 31
0.0
  0
LINE
  5
357
100
AcDbEntity
  8
2
370
    50
100
AcDbLine
 10
-301.965416
 20
-294.446349
 30
0.0
 11
-297.265416
 21
-294.446349
 31
0.0
  0
LINE
  5
358
100
AcDbEntity
  8
2
370
    50
100
AcDbLine
 10
-289.265416
 20
-294.446349
 30
0.0
 11
-284.565416
 21
-294.446349
 31
0.0
  0
LINE
  5
359
100
AcDbEntity
  8
2
370
    50
100
AcDbLine
 10
-302.165416
 20
-294.646349
 30
0.0
 11
-297.265416
 21
-294.646349
 31
0.0
  0
LINE
  5
35A
100
AcDbEntity
  8
2
370
    50
100
AcDbLine
 10
-289.265416
 20
-294.646349
 30
0.0
 11
-284.365416
 21
-294.646349
 31
0.0
  0
LINE
  5
35B
100
AcDbEntity
  8
2
370
    50
100
AcDbLine
 10
-302.165416
 20
-297.046349
 30
0.0
 11
-297.265416
 21
-297.046349
 31
0.0
  0
LINE
  5
35C
100
AcDbEntity
  8
2
370
    50
100
AcDbLine
 10
-289.265416
 20
-297.046349
 30
0.0
 11
-284.365416
 21
-297.046349
 31
0.0
  0
LINE
  5
35D
100
AcDbEntity
  8
2
370
    50
100
AcDbLine
 10
-301.565416
 20
-300.046349
 30
0.0
 11
-297.265416
 21
-300.046349
 31
0.0
  0
LINE
  5
35E
100
AcDbEntity
  8
2
370
    50
100
AcDbLine
 10
-289.265416
 20
-300.046349
 30
0.0
 11
-284.965416
 21
-300.046349
 31
0.0
  0
ARC
  5
35F
100
AcDbEntity
  8
2
370
    50
100
AcDbCircle
 10
-296.265416
 20
-292.046349
 30
0.0
 40
1.0
100
AcDbArc
 50
90.0
 51
180.0
  0
ARC
  5
360
100
AcDbEntity
  8
2
370
    50
100
AcDbCircle
 10
-290.265416
 20
-292.046349
 30
0.0
 40
1.0
100
AcDbArc
 50
0.0
 51
90.0
  0
ARC
  5
361
100
AcDbEntity
  8
2
370
    50
100
AcDbCircle
 10
-290.265416
 20
-302.046349
 30
0.0
 40
1.0
100
AcDbArc
 50
270.0
 51
0.0
  0
ARC
  5
362
100
AcDbEntity
  8
2
370
    50
100
AcDbCircle
 10
-296.265416
 20
-302.046349
 30
0.0
 40
1.0
100
AcDbArc
 50
180.0
 51
270.0
  0
LINE
  5
363
100
AcDbEntity
  8
2
370
    50
100
AcDbLine
 10
-284.965416
 20
-291.046349
 30
0.0
 11
-284.965416
 21
-294.046349
 31
0.0
  0
LINE
  5
364
100
AcDbEntity
  8
2
370
    50
100
AcDbLine
 10
-301.565416
 20
-291.046349
 30
0.0
 11
-301.565416
 21
-294.046349
 31
0.0
  0
LINE
  5
365
100
AcDbEntity
  8
2
370
    50
100
AcDbLine
 10
-301.565416
 20
-300.046349
 30
0.0
 11
-301.565416
 21
-303.046349
 31
0.0
  0
LINE
  5
366
100
AcDbEntity
  8
2
370
    50
100
AcDbLine
 10
-284.965416
 20
-300.046349
 30
0.0
 11
-284.965416
 21
-303.046349
 31
0.0
  0
LINE
  5
367
100
AcDbEntity
  8
2
370
    50
100
AcDbLine
 10
-285.765416
 20
-294.446349
 30
0.0
 11
-285.765416
 21
-294.046349
 31
0.0
  0
LINE
  5
368
100
AcDbEntity
  8
2
370
    50
100
AcDbLine
 10
-300.765416
 20
-294.446349
 30
0.0
 11
-300.765416
 21
-294.046349
 31
0.0
  0
LINE
  5
369
100
AcDbEntity
  8
2
370
    25
100
AcDbLine
 10
-288.265416
 20
-302.746932
 30
0.0
 11
-288.265416
 21
-300.44171
 31
0.0
  0
LINE
  5
36A
100
AcDbEntity
  8
2
370
    25
100
AcDbLine
 10
-288.265416
 20
-293.785163
 30
0.0
 11
-288.265416
 21
-291.352958
 31
0.0
  0
LINE
  5
36B
100
AcDbEntity
  8
2
370
    25
100
AcDbLine
 10
-298.265416
 20
-302.746932
 30
0.0
 11
-298.265416
 21
-300.44171
 31
0.0
  0
LINE
  5
36C
100
AcDbEntity
  8
2
370
    25
100
AcDbLine
 10
-298.265416
 20
-293.742484
 30
0.0
 11
-298.265416
 21
-291.273437
 31
0.0
  0
LINE
  5
36D
100
AcDbEntity
  8
2
370
    50
100
AcDbLine
 10
-284.465416
 20
-302.046349
 30
0.0
 11
-284.465416
 21
-299.446349
 31
0.0
  0
LINE
  5
36E
100
AcDbEntity
  8
2
370
    50
100
AcDbLine
 10
-284.465416
 20
-294.546349
 30
0.0
 11
-284.465416
 21
-290.046349
 31
0.0
  0
LINE
  5
36F
100
AcDbEntity
  8
2
370
    50
100
AcDbLine
 10
-302.065416
 20
-302.046349
 30
0.0
 11
-302.065416
 21
-299.446349
 31
0.0
  0
LINE
  5
370
100
AcDbEntity
  8
2
370
    50
100
AcDbLine
 10
-302.065416
 20
-294.546349
 30
0.0
 11
-302.065416
 21
-290.046349
 31
0.0
  0
ARC
  5
371
100
AcDbEntity
  8
2
370
    50
100
AcDbCircle
 10
-285.465416
 20
-290.046349
 30
0.0
 40
1.0
100
AcDbArc
 50
0.0
 51
90.0
  0
ARC
  5
372
100
AcDbEntity
  8
2
370
    50
100
AcDbCircle
 10
-301.065416
 20
-290.046349
 30
0.0
 40
1.0
100
AcDbArc
 50
90.0
 51
180.0
  0
ARC
  5
373
100
AcDbEntity
  8
2
370
    50
100
AcDbCircle
 10
-283.465416
 20
-302.046349
 30
0.0
 40
1.0
100
AcDbArc
 50
180.0
 51
270.0
  0
ARC
  5
374
100
AcDbEntity
  8
2
370
    50
100
AcDbCircle
 10
-303.065416
 20
-302.046349
 30
0.0
 40
1.0
100
AcDbArc
 50
270.0
 51
360.0
  0
LINE
  5
375
100
AcDbEntity
  8
2
370
    50
100
AcDbLine
 10
-300.765416
 20
-289.746349
 30
0.0
 11
-300.765416
 21
-291.045727
 31
0.0
  0
ARC
  5
376
100
AcDbEntity
  8
2
370
    50
100
AcDbCircle
 10
-301.065416
 20
-290.046349
 30
0.0
 40
1.0
100
AcDbArc
 50
90.0
 51
180.0
  0
LINE
  5
377
100
AcDbEntity
  8
2
370
    50
100
AcDbLine
 10
-300.765416
 20
-289.746349
 30
0.0
 11
-300.265416
 21
-289.246349
 31
0.0
  0
LINE
  5
378
100
AcDbEntity
  8
2
370
    50
100
AcDbLine
 10
-302.265416
 20
-297.446349
 30
0.0
 11
-302.265416
 21
-299.246349
 31
0.0
  0
LINE
  5
379
100
AcDbEntity
  8
2
370
    50
100
AcDbLine
 10
-284.265416
 20
-297.446349
 30
0.0
 11
-284.265416
 21
-299.246349
 31
0.0
  0
LINE
  5
37A
100
AcDbEntity
  8
2
370
    50
100
AcDbLine
 10
-302.065416
 20
-297.246349
 30
0.0
 11
-302.265416
 21
-297.446349
 31
0.0
  0
LINE
  5
37B
100
AcDbEntity
  8
2
370
    50
100
AcDbLine
 10
-302.265416
 20
-299.246349
 30
0.0
 11
-302.065416
 21
-299.446349
 31
0.0
  0
LINE
  5
37C
100
AcDbEntity
  8
2
370
    50
100
AcDbLine
 10
-284.465416
 20
-297.246349
 30
0.0
 11
-284.265416
 21
-297.446349
 31
0.0
  0
LINE
  5
37D
100
AcDbEntity
  8
2
370
    50
100
AcDbLine
 10
-284.265416
 20
-299.246349
 30
0.0
 11
-284.465416
 21
-299.446349
 31
0.0
  0
LINE
  5
37E
100
AcDbEntity
  8
2
370
    50
100
AcDbLine
 10
-285.765416
 20
-303.446349
 30
0.0
 11
-285.765416
 21
-303.046349
 31
0.0
  0
LINE
  5
37F
100
AcDbEntity
  8
2
370
    50
100
AcDbLine
 10
-285.765416
 20
-300.046349
 30
0.0
 11
-285.765416
 21
-299.446349
 31
0.0
  0
LINE
  5
380
100
AcDbEntity
  8
2
370
    50
100
AcDbLine
 10
-300.765416
 20
-303.446349
 30
0.0
 11
-300.765416
 21
-303.046349
 31
0.0
  0
LINE
  5
381
100
AcDbEntity
  8
2
370
    50
100
AcDbLine
 10
-300.765416
 20
-300.046349
 30
0.0
 11
-300.765416
 21
-299.446349
 31
0.0
  0
LINE
  5
382
100
AcDbEntity
  8
2
370
    50
100
AcDbLine
 10
-302.065416
 20
-299.446349
 30
0.0
 11
-297.265416
 21
-299.446349
 31
0.0
  0
LINE
  5
383
100
AcDbEntity
  8
2
370
    50
100
AcDbLine
 10
-289.265416
 20
-299.446349
 30
0.0
 11
-284.465416
 21
-299.446349
 31
0.0
  0
LINE
  5
384
100
AcDbEntity
  8
2
370
    50
100
AcDbLine
 10
-302.265416
 20
-299.246349
 30
0.0
 11
-297.265416
 21
-299.246349
 31
0.0
  0
LINE
  5
385
100
AcDbEntity
  8
2
370
    50
100
AcDbLine
 10
-289.265416
 20
-299.246349
 30
0.0
 11
-284.265416
 21
-299.246349
 31
0.0
  0
LINE
  5
386
100
AcDbEntity
  8
2
370
    50
100
AcDbLine
 10
-302.265416
 20
-297.446349
 30
0.0
 11
-297.265416
 21
-297.446349
 31
0.0
  0
LINE
  5
387
100
AcDbEntity
  8
2
370
    50
100
AcDbLine
 10
-289.265416
 20
-297.446349
 30
0.0
 11
-284.265416
 21
-297.446349
 31
0.0
  0
LINE
  5
388
100
AcDbEntity
  8
2
370
    50
100
AcDbLine
 10
-302.065416
 20
-297.246349
 30
0.0
 11
-297.265416
 21
-297.246349
 31
0.0
  0
LINE
  5
389
100
AcDbEntity
  8
2
370
    50
100
AcDbLine
 10
-289.265416
 20
-297.246349
 30
0.0
 11
-284.465416
 21
-297.246349
 31
0.0
  0
LINE
  5
38A
100
AcDbEntity
  8
2
370
    25
100
AcDbLine
 10
-299.765276
 20
-303.045727
 30
0.0
 11
-299.765276
 21
-300.045727
 31
0.0
  0
LINE
  5
38B
100
AcDbEntity
  8
2
370
    25
100
AcDbLine
 10
-286.765556
 20
-294.046349
 30
0.0
 11
-286.765556
 21
-291.046349
 31
0.0
  0
LINE
  5
38C
100
AcDbEntity
  8
2
370
    25
100
AcDbLine
 10
-299.765276
 20
-294.046349
 30
0.0
 11
-299.765276
 21
-291.046349
 31
0.0
  0
LINE
  5
38D
100
AcDbEntity
  8
2
370
    50
100
AcDbLine
 10
-307.765416
 20
-290.046349
 30
0.0
 11
-307.765416
 21
-302.046349
 31
0.0
  0
ARC
  5
38E
100
AcDbEntity
  8
2
370
    50
100
AcDbCircle
 10
-306.765416
 20
-290.046349
 30
0.0
 40
1.0
100
AcDbArc
 50
90.0
 51
180.0
  0
ARC
  5
38F
100
AcDbEntity
  8
2
370
    50
100
AcDbCircle
 10
-306.765416
 20
-302.046349
 30
0.0
 40
1.0
100
AcDbArc
 50
180.0
 51
270.0
  0
LINE
  5
390
100
AcDbEntity
  8
2
370
    50
100
AcDbLine
 10
-278.765416
 20
-290.046349
 30
0.0
 11
-278.765416
 21
-302.046349
 31
0.0
  0
LINE
  5
391
100
AcDbEntity
  8
2
370
    50
100
AcDbLine
 10
-284.26521
 20
-303.445601
 30
0.0
 11
-283.26521
 21
-304.445601
 31
0.0
  0
LINE
  5
392
100
AcDbEntity
  8
2
370
    50
100
AcDbLine
 10
-302.26521
 20
-303.445601
 30
0.0
 11
-303.26521
 21
-304.445601
 31
0.0
  0
LINE
  5
393
100
AcDbEntity
  8
2
370
    50
100
AcDbLine
 10
-302.26521
 20
-303.445601
 30
0.0
 11
-284.26521
 21
-303.445601
 31
0.0
  0
LINE
  5
394
100
AcDbEntity
  8
2
370
    50
100
AcDbLine
 10
-283.26521
 20
-304.445601
 30
0.0
 11
-303.26521
 21
-304.445601
 31
0.0
  0
LINE
  5
395
100
AcDbEntity
  8
2
370
    50
100
AcDbLine
 10
-285.76521
 20
-303.445601
 30
0.0
 11
-285.76521
 21
-303.045601
 31
0.0
  0
LINE
  5
396
100
AcDbEntity
  8
2
370
    50
100
AcDbLine
 10
-300.76521
 20
-303.445601
 30
0.0
 11
-300.76521
 21
-303.045601
 31
0.0
  0
LINE
  5
397
100
AcDbEntity
  8
2
370
    50
100
AcDbLine
 10
-283.26521
 20
-304.445601
 30
0.0
 11
-283.26521
 21
-313.245601
 31
0.0
  0
LINE
  5
398
100
AcDbEntity
  8
2
370
    50
100
AcDbLine
 10
-303.26521
 20
-304.445601
 30
0.0
 11
-303.26521
 21
-313.245601
 31
0.0
  0
POINT
  5
399
100
AcDbEntity
  8
2
370
    50
100
AcDbPoint
 10
-293.265416
 20
-303.446349
 30
0.0
  0
POINT
  5
39A
100
AcDbEntity
  8
2
370
    50
100
AcDbPoint
 10
-293.26521
 20
-303.445601
 30
0.0
  0
LINE
  5
39B
100
AcDbEntity
  8
2
370
    50
100
AcDbLine
 10
-303.592078
 20
-313.245601
 30
0.0
 11
-281.26521
 21
-313.245601
 31
0.0
  0
LINE
  5
39C
100
AcDbEntity
  8
2
370
    50
100
AcDbLine
 10
-279.408804
 20
-315.102007
 30
0.0
 11
-279.408804
 21
-322.389194
 31
0.0
  0
LINE
  5
39D
100
AcDbEntity
  8
2
370
    50
100
AcDbLine
 10
-307.121617
 20
-322.389194
 30
0.0
 11
-307.121617
 21
-315.102007
 31
0.0
  0
LINE
  5
39E
100
AcDbEntity
  8
2
370
    50
100
AcDbLine
 10
-305.26521
 20
-324.245601
 30
0.0
 11
-281.26521
 21
-324.245601
 31
0.0
  0
LINE
  5
39F
100
AcDbEntity
  8
2
370
    50
100
AcDbLine
 10
-286.337007
 20
-322.389194
 30
0.0
 11
-286.337007
 21
-315.102007
 31
0.0
  0
LINE
  5
3A0
100
AcDbEntity
  8
2
370
    50
100
AcDbLine
 10
-300.193414
 20
-322.389194
 30
0.0
 11
-300.193414
 21
-315.102007
 31
0.0
  0
LINE
  5
3A1
100
AcDbEntity
  8
2
370
    50
100
AcDbLine
 10
-305.26521
 20
-313.245601
 30
0.0
 11
-281.26521
 21
-313.245601
 31
0.0
  0
LINE
  5
3A2
100
AcDbEntity
  8
2
370
    50
100
AcDbLine
 10
-281.26521
 20
-313.245601
 30
0.0
 11
-279.408804
 21
-315.102007
 31
0.0
  0
LINE
  5
3A3
100
AcDbEntity
  8
2
370
    50
100
AcDbLine
 10
-305.26521
 20
-324.245601
 30
0.0
 11
-307.121617
 21
-322.389194
 31
0.0
  0
LINE
  5
3A4
100
AcDbEntity
  8
2
370
    50
100
AcDbLine
 10
-305.26521
 20
-313.245601
 30
0.0
 11
-307.121617
 21
-315.102007
 31
0.0
  0
LINE
  5
3A5
100
AcDbEntity
  8
2
370
    50
100
AcDbLine
 10
-281.26521
 20
-324.245601
 30
0.0
 11
-279.408804
 21
-322.389194
 31
0.0
  0
ARC
  5
3A6
100
AcDbEntity
  8
2
370
    50
100
AcDbCircle
 10
-293.26521
 20
-327.102007
 30
0.0
 40
13.856406
100
AcDbArc
 50
60.0
 51
120.0
  0
ARC
  5
3A7
100
AcDbEntity
  8
2
370
    50
100
AcDbCircle
 10
-293.26521
 20
-310.389194
 30
0.0
 40
13.856406
100
AcDbArc
 50
240.0
 51
300.0
  0
ARC
  5
3A8
100
AcDbEntity
  8
2
370
    50
100
AcDbCircle
 10
-282.938343
 20
-317.2849
 30
0.0
 40
4.039299
100
AcDbArc
 50
45.0
 51
147.288191
  0
ARC
  5
3A9
100
AcDbEntity
  8
2
370
    50
100
AcDbCircle
 10
-282.938343
 20
-320.206301
 30
0.0
 40
4.039299
100
AcDbArc
 50
212.711809
 51
315.0
  0
ARC
  5
3AA
100
AcDbEntity
  8
2
370
    50
100
AcDbCircle
 10
-303.592078
 20
-317.2849
 30
0.0
 40
4.039299
100
AcDbArc
 50
32.711809
 51
135.0
  0
ARC
  5
3AB
100
AcDbEntity
  8
2
370
    50
100
AcDbCircle
 10
-303.592078
 20
-320.206301
 30
0.0
 40
4.039299
100
AcDbArc
 50
225.0
 51
327.288191
  0
POINT
  5
3AC
100
AcDbEntity
  8
2
370
    50
100
AcDbPoint
 10
-293.265416
 20
-317.245601
 30
0.0
  0
LINE
  5
3AD
100
AcDbEntity
  8
2
370
    25
  6
CENTER
100
AcDbLine
 10
-347.953259
 20
-239.66636
 30
0.0
 11
-293.265416
 21
-215.643786
 31
0.0
  0
LINE
  5
3AE
100
AcDbEntity
  8
2
370
    25
  6
CENTER
100
AcDbLine
 10
-363.953259
 20
-239.66636
 30
0.0
 11
-418.641101
 21
-215.643786
 31
0.0
  0
LINE
  5
3AF
100
AcDbEntity
  8
2
370
    50
100
AcDbLine
 10
88.454872
 20
-145.849298
 30
0.0
 11
88.454872
 21
-158.849298
 31
0.0
  0
LINE
  5
3B0
100
AcDbEntity
  8
2
370
    50
100
AcDbLine
 10
98.454872
 20
-145.849298
 30
0.0
 11
98.454872
 21
-158.849298
 31
0.0
  0
LINE
  5
3B1
100
AcDbEntity
  8
2
370
    50
100
AcDbLine
 10
93.454872
 20
-158.849298
 30
0.0
 11
99.204872
 21
-158.849298
 31
0.0
  0
LINE
  5
3B2
100
AcDbEntity
  8
2
370
    50
100
AcDbLine
 10
93.454872
 20
-174.349298
 30
0.0
 11
99.204872
 21
-174.349298
 31
0.0
  0
LINE
  5
3B3
100
AcDbEntity
  8
2
370
    50
100
AcDbLine
 10
99.704872
 20
-159.349298
 30
0.0
 11
99.704872
 21
-173.849298
 31
0.0
  0
LINE
  5
3B4
100
AcDbEntity
  8
2
370
    50
100
AcDbLine
 10
99.704872
 20
-159.349298
 30
0.0
 11
99.204872
 21
-158.849298
 31
0.0
  0
LINE
  5
3B5
100
AcDbEntity
  8
2
370
    50
100
AcDbLine
 10
99.704872
 20
-173.849298
 30
0.0
 11
99.204872
 21
-174.349298
 31
0.0
  0
LINE
  5
3B6
100
AcDbEntity
  8
2
370
    50
100
AcDbLine
 10
97.776025
 20
-173.849298
 30
0.0
 11
95.204872
 21
-173.849298
 31
0.0
  0
LINE
  5
3B7
100
AcDbEntity
  8
2
370
    50
100
AcDbLine
 10
97.776025
 20
-159.349298
 30
0.0
 11
95.204872
 21
-159.349298
 31
0.0
  0
LINE
  5
3B8
100
AcDbEntity
  8
2
370
    50
100
AcDbLine
 10
99.526025
 20
-159.349298
 30
0.0
 11
99.526025
 21
-173.849298
 31
0.0
  0
LINE
  5
3B9
100
AcDbEntity
  8
2
370
    50
100
AcDbLine
 10
97.776025
 20
-159.349298
 30
0.0
 11
97.776025
 21
-173.849298
 31
0.0
  0
LINE
  5
3BA
100
AcDbEntity
  8
2
370
    50
100
AcDbLine
 10
95.204872
 20
-159.349298
 30
0.0
 11
95.204872
 21
-173.849298
 31
0.0
  0
LINE
  5
3BB
100
AcDbEntity
  8
2
370
    50
100
AcDbLine
 10
99.704872
 20
-173.849298
 30
0.0
 11
99.526025
 21
-173.849298
 31
0.0
  0
LINE
  5
3BC
100
AcDbEntity
  8
2
370
    50
100
AcDbLine
 10
99.704872
 20
-159.349298
 30
0.0
 11
99.526025
 21
-159.349298
 31
0.0
  0
ARC
  5
3BD
100
AcDbEntity
  8
2
370
    50
100
AcDbCircle
 10
93.454872
 20
-165.349298
 30
0.0
 40
6.25
100
AcDbArc
 50
73.739795
 51
90.0
  0
ARC
  5
3BE
100
AcDbEntity
  8
2
370
    50
100
AcDbCircle
 10
98.651025
 20
-160.755548
 30
0.0
 40
1.65625
100
AcDbArc
 50
58.109208
 51
121.890792
  0
ARC
  5
3BF
100
AcDbEntity
  8
2
370
    50
100
AcDbCircle
 10
98.651025
 20
-172.443048
 30
0.0
 40
1.65625
100
AcDbArc
 50
238.109208
 51
301.890792
  0
ARC
  5
3C0
100
AcDbEntity
  8
2
370
    50
100
AcDbCircle
 10
93.454872
 20
-167.849298
 30
0.0
 40
6.25
100
AcDbArc
 50
270.0
 51
286.260205
  0
LINE
  5
3C1
100
AcDbEntity
  8
2
370
    50
100
AcDbLine
 10
93.454872
 20
-158.849298
 30
0.0
 11
87.704872
 21
-158.849298
 31
0.0
  0
LINE
  5
3C2
100
AcDbEntity
  8
2
370
    50
100
AcDbLine
 10
93.454872
 20
-174.349298
 30
0.0
 11
87.704872
 21
-174.349298
 31
0.0
  0
LINE
  5
3C3
100
AcDbEntity
  8
2
370
    50
100
AcDbLine
 10
87.204872
 20
-159.349298
 30
0.0
 11
87.204872
 21
-173.849298
 31
0.0
  0
LINE
  5
3C4
100
AcDbEntity
  8
2
370
    50
100
AcDbLine
 10
87.204872
 20
-159.349298
 30
0.0
 11
87.704872
 21
-158.849298
 31
0.0
  0
LINE
  5
3C5
100
AcDbEntity
  8
2
370
    50
100
AcDbLine
 10
87.204872
 20
-173.849298
 30
0.0
 11
87.704872
 21
-174.349298
 31
0.0
  0
LINE
  5
3C6
100
AcDbEntity
  8
2
370
    50
100
AcDbLine
 10
89.13372
 20
-173.849298
 30
0.0
 11
91.704872
 21
-173.849298
 31
0.0
  0
LINE
  5
3C7
100
AcDbEntity
  8
2
370
    50
100
AcDbLine
 10
89.13372
 20
-159.349298
 30
0.0
 11
91.704872
 21
-159.349298
 31
0.0
  0
LINE
  5
3C8
100
AcDbEntity
  8
2
370
    50
100
AcDbLine
 10
87.38372
 20
-159.349298
 30
0.0
 11
87.38372
 21
-173.849298
 31
0.0
  0
LINE
  5
3C9
100
AcDbEntity
  8
2
370
    50
100
AcDbLine
 10
89.13372
 20
-159.349298
 30
0.0
 11
89.13372
 21
-173.849298
 31
0.0
  0
LINE
  5
3CA
100
AcDbEntity
  8
2
370
    50
100
AcDbLine
 10
91.704872
 20
-159.349298
 30
0.0
 11
91.704872
 21
-173.849298
 31
0.0
  0
LINE
  5
3CB
100
AcDbEntity
  8
2
370
    50
100
AcDbLine
 10
87.204872
 20
-173.849298
 30
0.0
 11
87.38372
 21
-173.849298
 31
0.0
  0
LINE
  5
3CC
100
AcDbEntity
  8
2
370
    50
100
AcDbLine
 10
87.204872
 20
-159.349298
 30
0.0
 11
87.38372
 21
-159.349298
 31
0.0
  0
ARC
  5
3CD
100
AcDbEntity
  8
2
370
    50
100
AcDbCircle
 10
93.454872
 20
-165.349298
 30
0.0
 40
6.25
100
AcDbArc
 50
90.0
 51
106.260205
  0
ARC
  5
3CE
100
AcDbEntity
  8
2
370
    50
100
AcDbCircle
 10
88.25872
 20
-160.755548
 30
0.0
 40
1.65625
100
AcDbArc
 50
58.109208
 51
121.890792
  0
ARC
  5
3CF
100
AcDbEntity
  8
2
370
    50
100
AcDbCircle
 10
88.25872
 20
-172.443048
 30
0.0
 40
1.65625
100
AcDbArc
 50
238.109208
 51
301.890792
  0
ARC
  5
3D0
100
AcDbEntity
  8
2
370
    50
100
AcDbCircle
 10
93.454872
 20
-167.849298
 30
0.0
 40
6.25
100
AcDbArc
 50
253.739795
 51
270.0
  0
LINE
  5
3D1
100
AcDbEntity
  8
2
370
    50
100
AcDbLine
 10
98.954872
 20
-174.349298
 30
0.0
 11
87.954872
 21
-174.349298
 31
0.0
  0
POINT
  5
3D2
100
AcDbEntity
  8
2
370
    50
100
AcDbPoint
 10
93.454872
 20
-145.849298
 30
0.0
  0
LINE
  5
3D3
100
AcDbEntity
  8
2
370
    50
100
AcDbLine
 10
93.454872
 20
-158.849298
 30
0.0
 11
99.204872
 21
-158.849298
 31
0.0
  0
LINE
  5
3D4
100
AcDbEntity
  8
2
370
    50
100
AcDbLine
 10
93.454872
 20
-174.349298
 30
0.0
 11
99.204872
 21
-174.349298
 31
0.0
  0
LINE
  5
3D5
100
AcDbEntity
  8
2
370
    50
100
AcDbLine
 10
99.704872
 20
-159.349298
 30
0.0
 11
99.704872
 21
-173.849298
 31
0.0
  0
LINE
  5
3D6
100
AcDbEntity
  8
2
370
    50
100
AcDbLine
 10
99.704872
 20
-159.349298
 30
0.0
 11
99.204872
 21
-158.849298
 31
0.0
  0
LINE
  5
3D7
100
AcDbEntity
  8
2
370
    50
100
AcDbLine
 10
99.704872
 20
-173.849298
 30
0.0
 11
99.204872
 21
-174.349298
 31
0.0
  0
LINE
  5
3D8
100
AcDbEntity
  8
2
370
    50
100
AcDbLine
 10
97.776025
 20
-173.849298
 30
0.0
 11
95.204872
 21
-173.849298
 31
0.0
  0
LINE
  5
3D9
100
AcDbEntity
  8
2
370
    50
100
AcDbLine
 10
97.776025
 20
-159.349298
 30
0.0
 11
95.204872
 21
-159.349298
 31
0.0
  0
LINE
  5
3DA
100
AcDbEntity
  8
2
370
    50
100
AcDbLine
 10
99.526025
 20
-159.349298
 30
0.0
 11
99.526025
 21
-173.849298
 31
0.0
  0
LINE
  5
3DB
100
AcDbEntity
  8
2
370
    50
100
AcDbLine
 10
97.776025
 20
-159.349298
 30
0.0
 11
97.776025
 21
-173.849298
 31
0.0
  0
LINE
  5
3DC
100
AcDbEntity
  8
2
370
    50
100
AcDbLine
 10
95.204872
 20
-159.349298
 30
0.0
 11
95.204872
 21
-173.849298
 31
0.0
  0
LINE
  5
3DD
100
AcDbEntity
  8
2
370
    50
100
AcDbLine
 10
99.704872
 20
-173.849298
 30
0.0
 11
99.526025
 21
-173.849298
 31
0.0
  0
LINE
  5
3DE
100
AcDbEntity
  8
2
370
    50
100
AcDbLine
 10
99.704872
 20
-159.349298
 30
0.0
 11
99.526025
 21
-159.349298
 31
0.0
  0
ARC
  5
3DF
100
AcDbEntity
  8
2
370
    50
100
AcDbCircle
 10
93.454872
 20
-165.349298
 30
0.0
 40
6.25
100
AcDbArc
 50
73.739795
 51
90.0
  0
ARC
  5
3E0
100
AcDbEntity
  8
2
370
    50
100
AcDbCircle
 10
98.651025
 20
-160.755548
 30
0.0
 40
1.65625
100
AcDbArc
 50
58.109208
 51
121.890792
  0
ARC
  5
3E1
100
AcDbEntity
  8
2
370
    50
100
AcDbCircle
 10
98.651025
 20
-172.443048
 30
0.0
 40
1.65625
100
AcDbArc
 50
238.109208
 51
301.890792
  0
ARC
  5
3E2
100
AcDbEntity
  8
2
370
    50
100
AcDbCircle
 10
93.454872
 20
-167.849298
 30
0.0
 40
6.25
100
AcDbArc
 50
270.0
 51
286.260205
  0
LINE
  5
3E3
100
AcDbEntity
  8
2
370
    50
100
AcDbLine
 10
93.454872
 20
-158.849298
 30
0.0
 11
87.704872
 21
-158.849298
 31
0.0
  0
LINE
  5
3E4
100
AcDbEntity
  8
2
370
    50
100
AcDbLine
 10
93.454872
 20
-174.349298
 30
0.0
 11
87.704872
 21
-174.349298
 31
0.0
  0
LINE
  5
3E5
100
AcDbEntity
  8
2
370
    50
100
AcDbLine
 10
87.204872
 20
-159.349298
 30
0.0
 11
87.204872
 21
-173.849298
 31
0.0
  0
LINE
  5
3E6
100
AcDbEntity
  8
2
370
    50
100
AcDbLine
 10
87.204872
 20
-159.349298
 30
0.0
 11
87.704872
 21
-158.849298
 31
0.0
  0
LINE
  5
3E7
100
AcDbEntity
  8
2
370
    50
100
AcDbLine
 10
87.204872
 20
-173.849298
 30
0.0
 11
87.704872
 21
-174.349298
 31
0.0
  0
LINE
  5
3E8
100
AcDbEntity
  8
2
370
    50
100
AcDbLine
 10
89.13372
 20
-173.849298
 30
0.0
 11
91.704872
 21
-173.849298
 31
0.0
  0
LINE
  5
3E9
100
AcDbEntity
  8
2
370
    50
100
AcDbLine
 10
89.13372
 20
-159.349298
 30
0.0
 11
91.704872
 21
-159.349298
 31
0.0
  0
LINE
  5
3EA
100
AcDbEntity
  8
2
370
    50
100
AcDbLine
 10
87.38372
 20
-159.349298
 30
0.0
 11
87.38372
 21
-173.849298
 31
0.0
  0
LINE
  5
3EB
100
AcDbEntity
  8
2
370
    50
100
AcDbLine
 10
89.13372
 20
-159.349298
 30
0.0
 11
89.13372
 21
-173.849298
 31
0.0
  0
LINE
  5
3EC
100
AcDbEntity
  8
2
370
    50
100
AcDbLine
 10
91.704872
 20
-159.349298
 30
0.0
 11
91.704872
 21
-173.849298
 31
0.0
  0
LINE
  5
3ED
100
AcDbEntity
  8
2
370
    50
100
AcDbLine
 10
87.204872
 20
-173.849298
 30
0.0
 11
87.38372
 21
-173.849298
 31
0.0
  0
LINE
  5
3EE
100
AcDbEntity
  8
2
370
    50
100
AcDbLine
 10
87.204872
 20
-159.349298
 30
0.0
 11
87.38372
 21
-159.349298
 31
0.0
  0
ARC
  5
3EF
100
AcDbEntity
  8
2
370
    50
100
AcDbCircle
 10
93.454872
 20
-165.349298
 30
0.0
 40
6.25
100
AcDbArc
 50
90.0
 51
106.260205
  0
ARC
  5
3F0
100
AcDbEntity
  8
2
370
    50
100
AcDbCircle
 10
88.25872
 20
-160.755548
 30
0.0
 40
1.65625
100
AcDbArc
 50
58.109208
 51
121.890792
  0
ARC
  5
3F1
100
AcDbEntity
  8
2
370
    50
100
AcDbCircle
 10
88.25872
 20
-172.443048
 30
0.0
 40
1.65625
100
AcDbArc
 50
238.109208
 51
301.890792
  0
ARC
  5
3F2
100
AcDbEntity
  8
2
370
    50
100
AcDbCircle
 10
93.454872
 20
-167.849298
 30
0.0
 40
6.25
100
AcDbArc
 50
253.739795
 51
270.0
  0
LINE
  5
3F3
100
AcDbEntity
  8
2
370
    50
100
AcDbLine
 10
98.954872
 20
-174.349298
 30
0.0
 11
87.954872
 21
-174.349298
 31
0.0
  0
LINE
  5
3F4
100
AcDbEntity
  8
2
370
    50
100
AcDbLine
 10
93.454872
 20
-158.849298
 30
0.0
 11
99.204872
 21
-158.849298
 31
0.0
  0
LINE
  5
3F5
100
AcDbEntity
  8
2
370
    50
100
AcDbLine
 10
99.704872
 20
-159.349298
 30
0.0
 11
99.704872
 21
-173.849298
 31
0.0
  0
LINE
  5
3F6
100
AcDbEntity
  8
2
370
    50
100
AcDbLine
 10
99.704872
 20
-159.349298
 30
0.0
 11
99.204872
 21
-158.849298
 31
0.0
  0
LINE
  5
3F7
100
AcDbEntity
  8
2
370
    50
100
AcDbLine
 10
97.776025
 20
-159.349298
 30
0.0
 11
95.204872
 21
-159.349298
 31
0.0
  0
LINE
  5
3F8
100
AcDbEntity
  8
2
370
    50
100
AcDbLine
 10
99.526025
 20
-159.349298
 30
0.0
 11
99.526025
 21
-173.849298
 31
0.0
  0
LINE
  5
3F9
100
AcDbEntity
  8
2
370
    50
100
AcDbLine
 10
97.776025
 20
-159.349298
 30
0.0
 11
97.776025
 21
-173.849298
 31
0.0
  0
LINE
  5
3FA
100
AcDbEntity
  8
2
370
    50
100
AcDbLine
 10
95.204872
 20
-159.349298
 30
0.0
 11
95.204872
 21
-173.849298
 31
0.0
  0
LINE
  5
3FB
100
AcDbEntity
  8
2
370
    50
100
AcDbLine
 10
99.704872
 20
-159.349298
 30
0.0
 11
99.526025
 21
-159.349298
 31
0.0
  0
ARC
  5
3FC
100
AcDbEntity
  8
2
370
    50
100
AcDbCircle
 10
93.454872
 20
-165.349298
 30
0.0
 40
6.25
100
AcDbArc
 50
73.739795
 51
90.0
  0
ARC
  5
3FD
100
AcDbEntity
  8
2
370
    50
100
AcDbCircle
 10
98.651025
 20
-160.755548
 30
0.0
 40
1.65625
100
AcDbArc
 50
58.109208
 51
121.890792
  0
LINE
  5
3FE
100
AcDbEntity
  8
2
370
    50
100
AcDbLine
 10
93.454872
 20
-158.849298
 30
0.0
 11
87.704872
 21
-158.849298
 31
0.0
  0
LINE
  5
3FF
100
AcDbEntity
  8
2
370
    50
100
AcDbLine
 10
87.204872
 20
-159.349298
 30
0.0
 11
87.204872
 21
-173.849298
 31
0.0
  0
LINE
  5
400
100
AcDbEntity
  8
2
370
    50
100
AcDbLine
 10
87.204872
 20
-159.349298
 30
0.0
 11
87.704872
 21
-158.849298
 31
0.0
  0
LINE
  5
401
100
AcDbEntity
  8
2
370
    50
100
AcDbLine
 10
89.13372
 20
-159.349298
 30
0.0
 11
91.704872
 21
-159.349298
 31
0.0
  0
LINE
  5
402
100
AcDbEntity
  8
2
370
    50
100
AcDbLine
 10
87.38372
 20
-159.349298
 30
0.0
 11
87.38372
 21
-173.849298
 31
0.0
  0
LINE
  5
403
100
AcDbEntity
  8
2
370
    50
100
AcDbLine
 10
89.13372
 20
-159.349298
 30
0.0
 11
89.13372
 21
-173.849298
 31
0.0
  0
LINE
  5
404
100
AcDbEntity
  8
2
370
    50
100
AcDbLine
 10
91.704872
 20
-159.349298
 30
0.0
 11
91.704872
 21
-173.849298
 31
0.0
  0
LINE
  5
405
100
AcDbEntity
  8
2
370
    50
100
AcDbLine
 10
87.204872
 20
-159.349298
 30
0.0
 11
87.38372
 21
-159.349298
 31
0.0
  0
ARC
  5
406
100
AcDbEntity
  8
2
370
    50
100
AcDbCircle
 10
93.454872
 20
-165.349298
 30
0.0
 40
6.25
100
AcDbArc
 50
90.0
 51
106.260205
  0
ARC
  5
407
100
AcDbEntity
  8
2
370
    50
100
AcDbCircle
 10
88.25872
 20
-160.755548
 30
0.0
 40
1.65625
100
AcDbArc
 50
58.109208
 51
121.890792
  0
LINE
  5
408
100
AcDbEntity
  8
2
370
    50
100
AcDbLine
 10
93.454872
 20
-174.349298
 30
0.0
 11
99.204872
 21
-174.349298
 31
0.0
  0
LINE
  5
409
100
AcDbEntity
  8
2
370
    50
100
AcDbLine
 10
99.704872
 20
-173.849298
 30
0.0
 11
99.204872
 21
-174.349298
 31
0.0
  0
LINE
  5
40A
100
AcDbEntity
  8
2
370
    50
100
AcDbLine
 10
97.776025
 20
-173.849298
 30
0.0
 11
95.204872
 21
-173.849298
 31
0.0
  0
LINE
  5
40B
100
AcDbEntity
  8
2
370
    50
100
AcDbLine
 10
99.704872
 20
-173.849298
 30
0.0
 11
99.526025
 21
-173.849298
 31
0.0
  0
ARC
  5
40C
100
AcDbEntity
  8
2
370
    50
100
AcDbCircle
 10
98.651025
 20
-172.443048
 30
0.0
 40
1.65625
100
AcDbArc
 50
238.109208
 51
301.890792
  0
ARC
  5
40D
100
AcDbEntity
  8
2
370
    50
100
AcDbCircle
 10
93.454872
 20
-167.849298
 30
0.0
 40
6.25
100
AcDbArc
 50
270.0
 51
286.260205
  0
LINE
  5
40E
100
AcDbEntity
  8
2
370
    50
100
AcDbLine
 10
93.454872
 20
-174.349298
 30
0.0
 11
87.704872
 21
-174.349298
 31
0.0
  0
LINE
  5
40F
100
AcDbEntity
  8
2
370
    50
100
AcDbLine
 10
87.204872
 20
-173.849298
 30
0.0
 11
87.704872
 21
-174.349298
 31
0.0
  0
LINE
  5
410
100
AcDbEntity
  8
2
370
    50
100
AcDbLine
 10
89.13372
 20
-173.849298
 30
0.0
 11
91.704872
 21
-173.849298
 31
0.0
  0
LINE
  5
411
100
AcDbEntity
  8
2
370
    50
100
AcDbLine
 10
87.204872
 20
-173.849298
 30
0.0
 11
87.38372
 21
-173.849298
 31
0.0
  0
ARC
  5
412
100
AcDbEntity
  8
2
370
    50
100
AcDbCircle
 10
88.25872
 20
-172.443048
 30
0.0
 40
1.65625
100
AcDbArc
 50
238.109208
 51
301.890792
  0
ARC
  5
413
100
AcDbEntity
  8
2
370
    50
100
AcDbCircle
 10
93.454872
 20
-167.849298
 30
0.0
 40
6.25
100
AcDbArc
 50
253.739795
 51
270.0
  0
LINE
  5
414
100
AcDbEntity
  8
2
370
    50
100
AcDbLine
 10
98.954872
 20
-174.349298
 30
0.0
 11
87.954872
 21
-174.349298
 31
0.0
  0
LINE
  5
415
100
AcDbEntity
  8
2
370
    50
100
AcDbLine
 10
80.454872
 20
138.875702
 30
0.0
 11
80.454872
 21
167.650702
 31
0.0
  0
LINE
  5
416
100
AcDbEntity
  8
2
370
    50
100
AcDbLine
 10
80.954872
 20
168.150702
 30
0.0
 11
80.454872
 21
167.650702
 31
0.0
  0
LINE
  5
417
100
AcDbEntity
  8
2
370
    50
100
AcDbLine
 10
114.954872
 20
168.150702
 30
0.0
 11
115.454872
 21
167.650702
 31
0.0
  0
LINE
  5
418
100
AcDbEntity
  8
2
370
    50
100
AcDbLine
 10
114.954872
 20
168.150702
 30
0.0
 11
97.954872
 21
168.150702
 31
0.0
  0
LINE
  5
419
100
AcDbEntity
  8
2
370
    50
100
AcDbLine
 10
80.954872
 20
168.150702
 30
0.0
 11
97.954872
 21
168.150702
 31
0.0
  0
LINE
  5
41A
100
AcDbEntity
  8
2
370
    50
100
AcDbLine
 10
80.454872
 20
167.650702
 30
0.0
 11
115.454872
 21
167.650702
 31
0.0
  0
POINT
  5
41B
100
AcDbEntity
  8
2
370
    50
100
AcDbPoint
 10
97.954872
 20
307.251082
 30
0.0
  0
ELLIPSE
  5
41C
100
AcDbEntity
  8
2
370
    50
100
AcDbEllipse
 10
-12.517156
 20
307.251082
 30
0.0
 11
0.0
 21
9.5
 31
0.0
210
0.0
220
0.0
230
1.0
 40
0.766053
 41
0.0
 42
3.1415929999999999
  0
ELLIPSE
  5
41D
100
AcDbEntity
  8
2
370
    50
100
AcDbEllipse
 10
0.338596
 20
307.251082
 30
0.0
 11
0.0
 21
9.5
 31
0.0
210
0.0
220
0.0
230
1.0
 40
0.766053
 41
0.0
 42
3.1415929999999999
  0
ELLIPSE
  5
41E
100
AcDbEntity
  8
2
370
    50
100
AcDbEllipse
 10
0.724269
 20
307.251082
 30
0.0
 11
0.0
 21
9.5
 31
0.0
210
0.0
220
0.0
230
1.0
 40
0.766053
 41
0.0
 42
3.1415929999999999
  0
ARC
  5
41F
100
AcDbEntity
  8
2
370
    25
100
AcDbCircle
 10
97.954872
 20
307.251082
 30
0.0
 40
23.5
100
AcDbArc
 50
230.144836
 51
129.855164
  0
ARC
  5
420
100
AcDbEntity
  8
2
370
    50
100
AcDbCircle
 10
97.954872
 20
307.251082
 30
0.0
 40
24.0
100
AcDbArc
 50
228.819055
 51
131.180945
  0
LINE
  5
421
100
AcDbEntity
  8
2
370
    25
  6
CENTER
100
AcDbLine
 10
97.954872
 20
307.251082
 30
0.0
 11
23.479706
 21
280.144338
 31
0.0
  0
POINT
  5
422
100
AcDbEntity
  8
2
370
    50
100
AcDbPoint
 10
97.954872
 20
307.251082
 30
0.0
  0
LINE
  5
423
100
AcDbEntity
  8
2
370
    25
  6
CENTER
100
AcDbLine
 10
58.578157
 20
375.453553
 30
0.0
 11
97.954872
 21
307.251082
 31
0.0
  0
ARC
  5
424
100
AcDbEntity
  8
2
370
    50
100
AcDbCircle
 10
109.526669
 20
307.251082
 30
0.0
 40
8.0
100
AcDbArc
 50
0.0
 51
30.0
  0
ARC
  5
425
100
AcDbEntity
  8
2
370
    50
100
AcDbCircle
 10
109.526669
 20
307.251082
 30
0.0
 40
8.0
100
AcDbArc
 50
330.0
 51
360.0
  0
LINE
  5
426
100
AcDbEntity
  8
2
370
    50
100
AcDbLine
 10
116.454872
 20
303.251082
 30
0.0
 11
114.991597
 21
303.251082
 31
0.0
  0
LINE
  5
427
100
AcDbEntity
  8
2
370
    50
100
AcDbLine
 10
116.454872
 20
311.251082
 30
0.0
 11
114.991597
 21
311.251082
 31
0.0
  0
ARC
  5
428
100
AcDbEntity
  8
2
370
    50
100
AcDbCircle
 10
97.954872
 20
307.251082
 30
0.0
 40
17.5
100
AcDbArc
 50
272.23929
 51
87.76071
  0
ARC
  5
429
100
AcDbEntity
  8
2
370
    50
100
AcDbCircle
 10
327.954872
 20
307.251082
 30
0.0
 40
300.0
100
AcDbArc
 50
177.850452
 51
182.149548
  0
ARC
  5
42A
100
AcDbEntity
  8
2
370
    50
100
AcDbCircle
 10
36.160343
 20
318.203386
 30
0.0
 40
8.0
100
AcDbArc
 50
89.549344
 51
177.850452
  0
ARC
  5
42B
100
AcDbEntity
  8
2
370
    50
100
AcDbCircle
 10
20.492579
 20
-1673.734996
 30
0.0
 40
2000.0
100
AcDbArc
 50
87.76071
 51
89.549344
  0
ARC
  5
42C
100
AcDbEntity
  8
2
370
    50
100
AcDbCircle
 10
20.492579
 20
2288.237161
 30
0.0
 40
2000.0
100
AcDbArc
 50
270.450656
 51
272.23929
  0
ARC
  5
42D
100
AcDbEntity
  8
2
370
    50
100
AcDbCircle
 10
36.160343
 20
296.298778
 30
0.0
 40
8.0
100
AcDbArc
 50
182.149548
 51
270.450656
  0
ARC
  5
42E
100
AcDbEntity
  8
2
370
    50
100
AcDbCircle
 10
20.492579
 20
-1673.734996
 30
0.0
 40
1994.0
100
AcDbArc
 50
88.451183
 51
89.43566
  0
ARC
  5
42F
100
AcDbEntity
  8
2
370
    50
100
AcDbCircle
 10
20.492579
 20
2288.237161
 30
0.0
 40
1994.0
100
AcDbArc
 50
270.56434
 51
271.548817
  0
ARC
  5
430
100
AcDbEntity
  8
2
370
    50
100
AcDbCircle
 10
327.954872
 20
307.251082
 30
0.0
 40
292.0
100
AcDbArc
 50
178.225657
 51
181.774343
  0
ARC
  5
431
100
AcDbEntity
  8
2
370
    50
100
AcDbCircle
 10
-121.545128
 20
307.251082
 30
0.0
 40
200.0
100
AcDbArc
 50
357.576808
 51
2.423192
  0
ARC
  5
432
100
AcDbEntity
  8
2
370
    50
100
AcDbCircle
 10
40.092961
 20
316.168475
 30
0.0
 40
4.0
100
AcDbArc
 50
89.43566
 51
178.225657
  0
ARC
  5
433
100
AcDbEntity
  8
2
370
    50
100
AcDbCircle
 10
40.092961
 20
298.333689
 30
0.0
 40
4.0
100
AcDbArc
 50
181.774343
 51
270.56434
  0
ARC
  5
434
100
AcDbEntity
  8
2
370
    50
100
AcDbCircle
 10
74.279609
 20
315.537975
 30
0.0
 40
4.0
100
AcDbArc
 50
2.423192
 51
88.451183
  0
ARC
  5
435
100
AcDbEntity
  8
2
370
    50
100
AcDbCircle
 10
74.279609
 20
298.964189
 30
0.0
 40
4.0
100
AcDbArc
 50
271.548817
 51
357.576808
  0
LINE
  5
436
100
AcDbEntity
  8
2
370
    50
100
AcDbLine
 10
99.654872
 20
320.551082
 30
0.0
 11
96.254872
 21
320.551082
 31
0.0
  0
LINE
  5
437
100
AcDbEntity
  8
2
370
    50
100
AcDbLine
 10
99.654872
 20
317.951082
 30
0.0
 11
96.254872
 21
317.951082
 31
0.0
  0
LINE
  5
438
100
AcDbEntity
  8
2
370
    50
100
AcDbLine
 10
99.654872
 20
320.551082
 30
0.0
 11
99.654872
 21
320.151082
 31
0.0
  0
LINE
  5
439
100
AcDbEntity
  8
2
370
    50
100
AcDbLine
 10
99.654872
 20
318.351082
 30
0.0
 11
99.654872
 21
317.951082
 31
0.0
  0
LINE
  5
43A
100
AcDbEntity
  8
2
370
    50
100
AcDbLine
 10
96.254872
 20
320.551082
 30
0.0
 11
96.254872
 21
320.151082
 31
0.0
  0
LINE
  5
43B
100
AcDbEntity
  8
2
370
    50
100
AcDbLine
 10
96.254872
 20
318.351082
 30
0.0
 11
96.254872
 21
317.951082
 31
0.0
  0
LINE
  5
43C
100
AcDbEntity
  8
2
370
    50
100
AcDbLine
 10
98.154872
 20
320.151082
 30
0.0
 11
98.154872
 21
318.351082
 31
0.0
  0
LINE
  5
43D
100
AcDbEntity
  8
2
370
    50
100
AcDbLine
 10
97.754872
 20
320.151082
 30
0.0
 11
97.754872
 21
318.351082
 31
0.0
  0
LINE
  5
43E
100
AcDbEntity
  8
2
370
    50
100
AcDbLine
 10
96.254872
 20
318.351082
 30
0.0
 11
97.754872
 21
318.351082
 31
0.0
  0
LINE
  5
43F
100
AcDbEntity
  8
2
370
    50
100
AcDbLine
 10
98.154872
 20
318.351082
 30
0.0
 11
99.654872
 21
318.351082
 31
0.0
  0
LINE
  5
440
100
AcDbEntity
  8
2
370
    50
100
AcDbLine
 10
96.254872
 20
320.151082
 30
0.0
 11
97.754872
 21
320.151082
 31
0.0
  0
LINE
  5
441
100
AcDbEntity
  8
2
370
    50
100
AcDbLine
 10
98.154872
 20
320.151082
 30
0.0
 11
99.654872
 21
320.151082
 31
0.0
  0
LINE
  5
442
100
AcDbEntity
  8
2
370
    50
100
AcDbLine
 10
98.554872
 20
294.363962
 30
0.0
 11
98.554872
 21
293.941178
 31
0.0
  0
LINE
  5
443
100
AcDbEntity
  8
2
370
    50
100
AcDbLine
 10
97.354872
 20
294.363962
 30
0.0
 11
97.354872
 21
293.941178
 31
0.0
  0
ELLIPSE
  5
444
100
AcDbEntity
  8
2
370
    50
100
AcDbEllipse
 10
97.954872
 20
295.251082
 30
0.0
 11
1.7
 21
0.0
 31
0.0
210
0.0
220
0.0
230
1.0
 40
0.823529
 41
5.0731019999999996
 42
4.3516760000000003
  0
ELLIPSE
  5
445
100
AcDbEntity
  8
2
370
    50
100
AcDbEllipse
 10
97.954872
 20
295.251082
 30
0.0
 11
1.3
 21
0.0
 31
0.0
210
0.0
220
0.0
230
1.0
 40
0.769231
 41
5.1921179999999998
 42
4.2326600000000001
  0
LINE
  5
446
100
AcDbEntity
  8
2
370
    50
100
AcDbLine
 10
78.091219
 20
316.751082
 30
0.0
 11
36.135617
 21
316.751082
 31
0.0
  0
LINE
  5
447
100
AcDbEntity
  8
2
370
    50
100
AcDbLine
 10
28.105327
 20
316.751082
 30
0.0
 11
-12.517156
 21
316.751082
 31
0.0
  0
LINE
  5
448
100
AcDbEntity
  8
2
370
    50
100
AcDbLine
 10
78.091219
 20
297.751082
 30
0.0
 11
36.135617
 21
297.751082
 31
0.0
  0
LINE
  5
449
100
AcDbEntity
  8
2
370
    50
100
AcDbLine
 10
28.105327
 20
297.751082
 30
0.0
 11
-12.517156
 21
297.751082
 31
0.0
  0
ARC
  5
44A
100
AcDbEntity
  8
2
370
    25
  6
DASHED
100
AcDbCircle
 10
314.084175
 20
385.915715
 30
0.0
 40
300.0
100
AcDbArc
 50
199.482565
 51
202.149548
  0
ARC
  5
44B
100
AcDbEntity
  8
2
370
    25
  6
DASHED
100
AcDbCircle
 10
-652.373015
 20
2142.275417
 30
0.0
 40
2000.0
100
AcDbArc
 50
290.450656
 51
292.06268
  0
ARC
  5
44C
100
AcDbEntity
  8
2
370
    25
  6
DASHED
100
AcDbCircle
 10
43.632918
 20
275.824309
 30
0.0
 40
8.0
100
AcDbArc
 50
202.149548
 51
290.450656
  0
ARC
  5
44D
100
AcDbEntity
  8
2
370
    25
  6
DASHED
100
AcDbCircle
 10
-652.373015
 20
2142.275417
 30
0.0
 40
1994.0
100
AcDbArc
 50
290.56434
 51
291.548817
  0
ARC
  5
44E
100
AcDbEntity
  8
2
370
    25
  6
DASHED
100
AcDbCircle
 10
314.084175
 20
385.915715
 30
0.0
 40
292.0
100
AcDbArc
 50
199.913346
 51
201.774343
  0
ARC
  5
44F
100
AcDbEntity
  8
2
370
    25
  6
DASHED
100
AcDbCircle
 10
46.632389
 20
279.081535
 30
0.0
 40
4.0
100
AcDbArc
 50
201.774343
 51
290.56434
  0
ARC
  5
450
100
AcDbEntity
  8
2
370
    25
  6
DASHED
100
AcDbCircle
 10
212.954872
 20
108.065239
 30
0.0
 40
300.0
100
AcDbArc
 50
117.850452
 51
122.149548
  0
ARC
  5
451
100
AcDbEntity
  8
2
370
    25
  6
DASHED
100
AcDbCircle
 10
76.542582
 20
366.242866
 30
0.0
 40
8.0
100
AcDbArc
 50
29.549344
 51
117.850452
  0
ARC
  5
452
100
AcDbEntity
  8
2
370
    25
  6
DASHED
100
AcDbCircle
 10
-1656.360543
 20
-616.157644
 30
0.0
 40
2000.0
100
AcDbArc
 50
28.286404
 51
29.549344
  0
ARC
  5
453
100
AcDbEntity
  8
2
370
    25
  6
DASHED
100
AcDbCircle
 10
1774.807994
 20
1364.828435
 30
0.0
 40
2000.0
100
AcDbArc
 50
210.450656
 51
211.235269
  0
ARC
  5
454
100
AcDbEntity
  8
2
370
    25
  6
DASHED
100
AcDbCircle
 10
57.572634
 20
355.290562
 30
0.0
 40
8.0
100
AcDbArc
 50
122.149548
 51
210.450656
  0
ARC
  5
455
100
AcDbEntity
  8
2
370
    25
  6
DASHED
100
AcDbCircle
 10
-1656.360543
 20
-616.157644
 30
0.0
 40
1994.0
100
AcDbArc
 50
28.451183
 51
29.43566
  0
ARC
  5
456
100
AcDbEntity
  8
2
370
    25
  6
DASHED
100
AcDbCircle
 10
1774.807994
 20
1364.828435
 30
0.0
 40
1994.0
100
AcDbArc
 50
210.56434
 51
211.333722
  0
ARC
  5
457
100
AcDbEntity
  8
2
370
    25
  6
DASHED
100
AcDbCircle
 10
212.954872
 20
108.065239
 30
0.0
 40
292.0
100
AcDbArc
 50
118.225657
 51
121.774343
  0
ARC
  5
458
100
AcDbEntity
  8
2
370
    25
  6
DASHED
100
AcDbCircle
 10
76.746605
 20
361.819664
 30
0.0
 40
4.0
100
AcDbArc
 50
29.43566
 51
118.225657
  0
ARC
  5
459
100
AcDbEntity
  8
2
370
    25
  6
DASHED
100
AcDbCircle
 10
61.301228
 20
352.902271
 30
0.0
 40
4.0
100
AcDbArc
 50
121.774343
 51
210.56434
  0
ARC
  5
45A
100
AcDbEntity
  8
2
370
    50
100
AcDbCircle
 10
109.526669
 20
185.800702
 30
0.0
 40
8.0
100
AcDbArc
 50
0.0
 51
30.0
  0
LINE
  5
45B
100
AcDbEntity
  8
2
370
    50
100
AcDbLine
 10
116.454872
 20
189.800702
 30
0.0
 11
115.454872
 21
189.800702
 31
0.0
  0
ARC
  5
45C
100
AcDbEntity
  8
2
370
    50
100
AcDbCircle
 10
109.526669
 20
185.800702
 30
0.0
 40
8.0
100
AcDbArc
 50
330.0
 51
360.0
  0
LINE
  5
45D
100
AcDbEntity
  8
2
370
    50
100
AcDbLine
 10
116.454872
 20
181.800702
 30
0.0
 11
115.454872
 21
181.800702
 31
0.0
  0
LINE
  5
45E
100
AcDbEntity
  8
2
370
    25
100
AcDbLine
 10
116.454872
 20
189.800702
 30
0.0
 11
116.454872
 21
181.800702
 31
0.0
  0
ARC
  5
45F
100
AcDbEntity
  8
2
370
    50
100
AcDbCircle
 10
139.455928
 20
167.891965
 30
0.0
 40
56.0
100
AcDbArc
 50
178.814366
 51
179.735275
  0
ARC
  5
460
100
AcDbEntity
  8
2
370
    50
100
AcDbCircle
 10
56.453816
 20
167.891965
 30
0.0
 40
56.0
100
AcDbArc
 50
0.264725
 51
7.022942
  0
POINT
  5
461
100
AcDbEntity
  8
2
370
    50
100
AcDbPoint
 10
97.954872
 20
196.385756
 30
0.0
  0
LINE
  5
462
100
AcDbEntity
  8
2
370
    50
100
AcDbLine
 10
80.454872
 20
196.97199
 30
0.0
 11
80.454872
 21
169.050702
 31
0.0
  0
LINE
  5
463
100
AcDbEntity
  8
2
370
    50
100
AcDbLine
 10
80.454872
 20
169.050702
 30
0.0
 11
97.954872
 21
169.050702
 31
0.0
  0
LINE
  5
464
100
AcDbEntity
  8
2
370
    50
100
AcDbLine
 10
97.954872
 20
169.050702
 30
0.0
 11
115.454872
 21
176.121161
 31
0.0
  0
LINE
  5
465
100
AcDbEntity
  8
2
370
    50
100
AcDbLine
 10
115.454872
 20
191.305695
 30
0.0
 11
115.454872
 21
176.121161
 31
0.0
  0
ARC
  5
466
100
AcDbEntity
  8
2
370
    50
100
AcDbCircle
 10
-457.191037
 20
-1724.215632
 30
0.0
 40
2000.0
100
AcDbArc
 50
73.383404
 51
75.924838
  0
LINE
  5
467
100
AcDbEntity
  8
2
370
    50
100
AcDbLine
 10
27.954872
 20
211.676451
 30
0.0
 11
27.954872
 21
214.769452
 31
0.0
  0
ARC
  5
468
100
AcDbEntity
  8
2
370
    50
100
AcDbCircle
 10
-457.191037
 20
-1724.215632
 30
0.0
 40
1995.0
100
AcDbArc
 50
74.177708
 51
75.903245
  0
LINE
  5
469
100
AcDbEntity
  8
2
370
    50
100
AcDbLine
 10
98.324872
 20
186.640702
 30
0.0
 11
92.894959
 21
191.727261
 31
0.0
  0
ARC
  5
46A
100
AcDbEntity
  8
2
370
    50
100
AcDbCircle
 10
82.681595
 20
180.82447
 30
0.0
 40
14.939333
100
AcDbArc
 50
46.87
 51
74.177708
  0
ARC
  5
46B
100
AcDbEntity
  8
2
370
    50
100
AcDbCircle
 10
28.954872
 20
214.769452
 30
0.0
 40
1.0
100
AcDbArc
 50
75.924838
 51
180.0
  0
ARC
  5
46C
100
AcDbEntity
  8
2
370
    50
100
AcDbCircle
 10
114.454872
 20
191.305695
 30
0.0
 40
1.0
100
AcDbArc
 50
0.0
 51
73.383404
  0
ARC
  5
46D
100
AcDbEntity
  8
2
370
    50
100
AcDbCircle
 10
28.954872
 20
211.676451
 30
0.0
 40
1.0
100
AcDbArc
 50
180.0
 51
255.903245
  0
POINT
  5
46E
100
AcDbEntity
  8
2
370
    50
100
AcDbPoint
 10
90.251715
 20
194.203361
 30
0.0
  0
ARC
  5
46F
100
AcDbEntity
  8
2
370
    25
  6
DASHED
100
AcDbCircle
 10
114.958716
 20
180.24616
 30
0.0
 40
8.0
100
AcDbArc
 50
338.0
 51
8.0
  0
LINE
  5
470
100
AcDbEntity
  8
2
370
    25
  6
DASHED
100
AcDbLine
 10
122.88086
 20
181.359545
 30
0.0
 11
121.953676
 21
181.734152
 31
0.0
  0
ARC
  5
471
100
AcDbEntity
  8
2
370
    25
  6
DASHED
100
AcDbCircle
 10
114.958716
 20
180.24616
 30
0.0
 40
8.0
100
AcDbArc
 50
308.0
 51
338.0
  0
LINE
  5
472
100
AcDbEntity
  8
2
370
    50
100
AcDbLine
 10
119.884008
 20
173.942074
 30
0.0
 11
118.956824
 21
174.316681
 31
0.0
  0
LINE
  5
473
100
AcDbEntity
  8
2
370
    25
  6
DASHED
100
AcDbLine
 10
122.88086
 20
181.359545
 30
0.0
 11
119.884008
 21
173.942074
 31
0.0
  0
LINE
  5
474
100
AcDbEntity
  8
2
370
    25
  6
DASHED
100
AcDbLine
 10
122.517457
 20
183.129557
 30
0.0
 11
116.82923
 21
169.050702
 31
0.0
  0
LINE
  5
475
100
AcDbEntity
  8
2
370
    25
  6
DASHED
100
AcDbLine
 10
115.029713
 20
169.050702
 30
0.0
 11
116.82923
 21
169.050702
 31
0.0
  0
ARC
  5
476
100
AcDbEntity
  8
2
370
    25
  6
DASHED
100
AcDbCircle
 10
121.590273
 20
183.504164
 30
0.0
 40
1.0
100
AcDbArc
 50
338.0
 51
51.383404
  0
ARC
  5
477
100
AcDbEntity
  8
2
370
    25
  6
DASHED
100
AcDbCircle
 10
51.105731
 20
237.288244
 30
0.0
 40
1.0
100
AcDbArc
 50
53.924838
 51
158.0
  0
LINE
  5
478
100
AcDbEntity
  8
2
370
    25
  6
DASHED
100
AcDbLine
 10
49.019889
 20
234.79507
 30
0.0
 11
50.178547
 21
237.66285
 31
0.0
  0
ARC
  5
479
100
AcDbEntity
  8
2
370
    25
  6
DASHED
100
AcDbCircle
 10
49.947073
 20
234.420463
 30
0.0
 40
1.0
100
AcDbArc
 50
158.0
 51
233.903245
  0
ARC
  5
47A
100
AcDbEntity
  8
2
370
    25
  6
DASHED
100
AcDbCircle
 10
-1125.997503
 20
-1378.393957
 30
0.0
 40
1995.0
100
AcDbArc
 50
52.333552
 51
53.903245
  0
ARC
  5
47B
100
AcDbEntity
  8
2
370
    25
  6
DASHED
100
AcDbCircle
 10
-1125.997503
 20
-1378.393957
 30
0.0
 40
2000.0
100
AcDbArc
 50
51.383404
 51
51.472312
  0
ARC
  5
47C
100
AcDbEntity
  8
2
370
    25
  6
DASHED
100
AcDbCircle
 10
-1125.997503
 20
-1378.393957
 30
0.0
 40
2000.0
100
AcDbArc
 50
51.964867
 51
53.924838
  0
LINE
  5
47D
100
AcDbEntity
  8
2
370
    50
100
AcDbLine
 10
-373.453258
 20
191.281056
 30
0.0
 11
-373.453258
 21
169.050702
 31
0.0
  0
LINE
  5
47E
100
AcDbEntity
  8
2
370
    50
100
AcDbLine
 10
-338.453258
 20
191.281056
 30
0.0
 11
-338.453258
 21
169.050702
 31
0.0
  0
LINE
  5
47F
100
AcDbEntity
  8
2
370
    50
100
AcDbLine
 10
-338.453258
 20
169.050702
 30
0.0
 11
-373.453258
 21
169.050702
 31
0.0
  0
ARC
  5
480
100
AcDbEntity
  8
2
370
    50
100
AcDbCircle
 10
-314.452202
 20
167.891965
 30
0.0
 40
56.0
100
AcDbArc
 50
178.814366
 51
179.735275
  0
ARC
  5
481
100
AcDbEntity
  8
2
370
    50
100
AcDbCircle
 10
-397.454315
 20
167.891965
 30
0.0
 40
56.0
100
AcDbArc
 50
0.264725
 51
1.185634
  0
LINE
  5
482
100
AcDbEntity
  8
2
370
    50
100
AcDbLine
 10
-338.609808
 20
204.629146
 30
0.0
 11
-338.936513
 21
201.459362
 31
0.0
  0
LINE
  5
483
100
AcDbEntity
  8
2
370
    50
100
AcDbLine
 10
-373.296709
 20
204.629146
 30
0.0
 11
-372.970003
 21
201.459362
 31
0.0
  0
LINE
  5
484
100
AcDbEntity
  8
2
370
    50
100
AcDbLine
 10
-343.58346
 20
210.141774
 30
0.0
 11
-368.323057
 21
210.141774
 31
0.0
  0
LINE
  5
485
100
AcDbEntity
  8
2
370
    50
100
AcDbLine
 10
-365.289665
 20
200.97199
 30
0.0
 11
-346.616852
 21
200.97199
 31
0.0
  0
LINE
  5
486
100
AcDbEntity
  8
2
370
    50
100
AcDbLine
 10
-342.086459
 20
209.912412
 30
0.0
 11
-342.63793
 21
204.561887
 31
0.0
  0
LINE
  5
487
100
AcDbEntity
  8
2
370
    50
100
AcDbLine
 10
-369.820058
 20
209.912412
 30
0.0
 11
-369.268587
 21
204.561887
 31
0.0
  0
ARC
  5
488
100
AcDbEntity
  8
2
370
    50
100
AcDbCircle
 10
-343.910165
 20
201.97199
 30
0.0
 40
5.0
100
AcDbArc
 50
270.0
 51
354.115377
  0
ARC
  5
489
100
AcDbEntity
  8
2
370
    50
100
AcDbCircle
 10
-367.996352
 20
201.97199
 30
0.0
 40
5.0
100
AcDbArc
 50
185.884623
 51
270.0
  0
ARC
  5
48A
100
AcDbEntity
  8
2
370
    50
100
AcDbCircle
 10
-346.616852
 20
204.97199
 30
0.0
 40
4.0
100
AcDbArc
 50
270.0
 51
354.115377
  0
ARC
  5
48B
100
AcDbEntity
  8
2
370
    50
100
AcDbCircle
 10
-365.289665
 20
204.97199
 30
0.0
 40
4.0
100
AcDbArc
 50
185.884623
 51
270.0
  0
ARC
  5
48C
100
AcDbEntity
  8
2
370
    50
100
AcDbCircle
 10
-368.323057
 20
205.141774
 30
0.0
 40
5.0
100
AcDbArc
 50
90.0
 51
185.884623
  0
ARC
  5
48D
100
AcDbEntity
  8
2
370
    50
100
AcDbCircle
 10
-343.58346
 20
205.141774
 30
0.0
 40
5.0
100
AcDbArc
 50
354.115377
 51
90.0
  0
ARC
  5
48E
100
AcDbEntity
  8
2
370
    50
100
AcDbCircle
 10
-355.953258
 20
-83.949298
 30
0.0
 40
300.0
100
AcDbArc
 50
87.715334
 51
92.284666
  0
ARC
  5
48F
100
AcDbEntity
  8
2
370
    50
100
AcDbCircle
 10
-344.773466
 20
203.349677
 30
0.0
 40
8.0
100
AcDbArc
 50
354.115377
 51
87.805783
  0
ARC
  5
490
100
AcDbEntity
  8
2
370
    50
100
AcDbCircle
 10
-367.133051
 20
203.349677
 30
0.0
 40
8.0
100
AcDbArc
 50
92.194217
 51
185.884623
  0
LINE
  5
491
100
AcDbEntity
  8
2
370
    50
100
AcDbLine
 10
-367.439346
 20
211.343812
 30
0.0
 11
-344.467171
 21
211.343812
 31
0.0
  0
ARC
  5
492
100
AcDbEntity
  8
2
370
    50
100
AcDbCircle
 10
-367.593656
 20
207.818591
 30
0.0
 40
8.0
100
AcDbArc
 50
92.284666
 51
185.884623
  0
POINT
  5
493
100
AcDbEntity
  8
2
370
    50
100
AcDbPoint
 10
-355.953258
 20
196.97199
 30
0.0
  0
ARC
  5
494
100
AcDbEntity
  8
2
370
    50
100
AcDbCircle
 10
-355.953258
 20
176.984863
 30
0.0
 40
19.987127
100
AcDbArc
 50
28.888256
 51
151.111744
  0
ARC
  5
495
100
AcDbEntity
  8
2
370
    50
100
AcDbCircle
 10
-355.953258
 20
396.60907
 30
0.0
 40
200.0
100
AcDbArc
 50
266.3709
 51
268.963455
  0
ARC
  5
496
100
AcDbEntity
  8
2
370
    50
100
AcDbCircle
 10
-355.953258
 20
396.60907
 30
0.0
 40
200.0
100
AcDbArc
 50
271.036545
 51
273.6291
  0
ARC
  5
497
100
AcDbEntity
  8
2
370
    50
100
AcDbCircle
 10
-344.312861
 20
207.818591
 30
0.0
 40
8.0
100
AcDbArc
 50
354.115377
 51
87.715334
  0
LINE
  5
498
100
AcDbEntity
  8
2
370
    50
100
AcDbLine
 10
-336.355018
 20
206.998387
 30
0.0
 11
-336.815623
 21
202.529473
 31
0.0
  0
LINE
  5
499
100
AcDbEntity
  8
2
370
    50
100
AcDbLine
 10
-365.495802
 20
202.97199
 30
0.0
 11
-346.410714
 21
202.97199
 31
0.0
  0
ARC
  5
49A
100
AcDbEntity
  8
2
370
    50
100
AcDbCircle
 10
-346.410714
 20
206.97199
 30
0.0
 40
4.0
100
AcDbArc
 50
270.0
 51
354.115377
  0
LINE
  5
49B
100
AcDbEntity
  8
2
370
    50
100
AcDbLine
 10
-336.815623
 20
202.529473
 30
0.0
 11
-337.889285
 21
197.07073
 31
0.0
  0
LINE
  5
49C
100
AcDbEntity
  8
2
370
    50
100
AcDbLine
 10
-375.551499
 20
206.998387
 30
0.0
 11
-375.090893
 21
202.529473
 31
0.0
  0
LINE
  5
49D
100
AcDbEntity
  8
2
370
    50
100
AcDbLine
 10
-375.090893
 20
202.529473
 30
0.0
 11
-374.017232
 21
197.07073
 31
0.0
  0
ARC
  5
49E
100
AcDbEntity
  8
2
370
    50
100
AcDbCircle
 10
-308.453258
 20
191.281056
 30
0.0
 40
30.0
100
AcDbArc
 50
168.872722
 51
180.0
  0
ARC
  5
49F
100
AcDbEntity
  8
2
370
    50
100
AcDbCircle
 10
-403.453258
 20
191.281056
 30
0.0
 40
30.0
100
AcDbArc
 50
0.0
 51
11.127278
  0
ARC
  5
4A0
100
AcDbEntity
  8
2
370
    50
100
AcDbCircle
 10
-365.495802
 20
206.97199
 30
0.0
 40
4.0
100
AcDbArc
 50
185.884623
 51
270.0
  0
ARC
  5
4A1
100
AcDbEntity
  8
2
370
    50
100
AcDbCircle
 10
374.122119
 20
167.891965
 30
0.0
 40
56.0
100
AcDbArc
 50
172.977058
 51
179.735275
  0
ARC
  5
4A2
100
AcDbEntity
  8
2
370
    50
100
AcDbCircle
 10
291.120007
 20
167.891965
 30
0.0
 40
56.0
100
AcDbArc
 50
0.264725
 51
1.185634
  0
ARC
  5
4A3
100
AcDbEntity
  8
2
370
    50
100
AcDbCircle
 10
887.766972
 20
-1724.215632
 30
0.0
 40
1995.0
100
AcDbArc
 50
104.096755
 51
105.822292
  0
ARC
  5
4A4
100
AcDbEntity
  8
2
370
    50
100
AcDbCircle
 10
401.621063
 20
211.676451
 30
0.0
 40
1.0
100
AcDbArc
 50
284.096755
 51
360.0
  0
LINE
  5
4A5
100
AcDbEntity
  8
2
370
    50
100
AcDbLine
 10
402.621063
 20
211.676451
 30
0.0
 11
402.621063
 21
214.769452
 31
0.0
  0
ARC
  5
4A6
100
AcDbEntity
  8
2
370
    50
100
AcDbCircle
 10
401.621063
 20
214.769452
 30
0.0
 40
1.0
100
AcDbArc
 50
0.0
 51
104.075162
  0
ARC
  5
4A7
100
AcDbEntity
  8
2
370
    50
100
AcDbCircle
 10
887.766972
 20
-1724.215632
 30
0.0
 40
2000.0
100
AcDbArc
 50
104.075162
 51
106.616596
  0
ARC
  5
4A8
100
AcDbEntity
  8
2
370
    50
100
AcDbCircle
 10
321.049267
 20
185.800702
 30
0.0
 40
8.0
100
AcDbArc
 50
150.0
 51
180.0
  0
LINE
  5
4A9
100
AcDbEntity
  8
2
370
    50
100
AcDbLine
 10
314.121063
 20
189.800702
 30
0.0
 11
315.121063
 21
189.800702
 31
0.0
  0
LINE
  5
4AA
100
AcDbEntity
  8
2
370
    50
100
AcDbLine
 10
315.121063
 20
189.800702
 30
0.0
 11
315.121063
 21
190.550702
 31
0.0
  0
ARC
  5
4AB
100
AcDbEntity
  8
2
370
    50
100
AcDbCircle
 10
321.049267
 20
185.800702
 30
0.0
 40
8.0
100
AcDbArc
 50
180.0
 51
210.0
  0
LINE
  5
4AC
100
AcDbEntity
  8
2
370
    50
100
AcDbLine
 10
314.121063
 20
181.800702
 30
0.0
 11
315.121063
 21
181.800702
 31
0.0
  0
LINE
  5
4AD
100
AcDbEntity
  8
2
370
    50
100
AcDbLine
 10
315.121063
 20
183.300702
 30
0.0
 11
315.121063
 21
182.550702
 31
0.0
  0
LINE
  5
4AE
100
AcDbEntity
  8
2
370
    25
100
AcDbLine
 10
314.121063
 20
189.800702
 30
0.0
 11
314.121063
 21
181.800702
 31
0.0
  0
LINE
  5
4AF
100
AcDbEntity
  8
2
370
    50
100
AcDbLine
 10
315.121063
 20
191.305695
 30
0.0
 11
315.121063
 21
176.121161
 31
0.0
  0
ARC
  5
4B0
100
AcDbEntity
  8
2
370
    50
100
AcDbCircle
 10
316.121063
 20
191.305695
 30
0.0
 40
1.0
100
AcDbArc
 50
106.616596
 51
180.0
  0
LINE
  5
4B1
100
AcDbEntity
  8
2
370
    50
100
AcDbLine
 10
332.621063
 20
169.050702
 30
0.0
 11
315.121063
 21
176.121161
 31
0.0
  0
LINE
  5
4B2
100
AcDbEntity
  8
2
370
    50
100
AcDbLine
 10
350.121063
 20
196.97199
 30
0.0
 11
350.121063
 21
169.050702
 31
0.0
  0
LINE
  5
4B3
100
AcDbEntity
  8
2
370
    50
100
AcDbLine
 10
350.121063
 20
169.050702
 30
0.0
 11
332.621063
 21
169.050702
 31
0.0
  0
LINE
  5
4B4
100
AcDbEntity
  8
2
370
    50
100
AcDbLine
 10
332.251063
 20
186.640702
 30
0.0
 11
337.680977
 21
191.727261
 31
0.0
  0
ARC
  5
4B5
100
AcDbEntity
  8
2
370
    50
100
AcDbCircle
 10
347.894341
 20
180.82447
 30
0.0
 40
14.939333
100
AcDbArc
 50
105.822292
 51
133.13
  0
LINE
  5
4B6
100
AcDbEntity
  8
2
370
    25
  6
CENTER
100
AcDbLine
 10
-293.265162
 20
-215.643786
 30
0.0
 11
-293.265162
 21
-231.836763
 31
0.0
  0
LINE
  5
4B7
100
AcDbEntity
  8
2
370
    50
100
AcDbLine
 10
-287.265162
 20
-289.246349
 30
0.0
 11
-287.265162
 21
-288.746041
 31
0.0
  0
LINE
  5
4B8
100
AcDbEntity
  8
2
370
    50
100
AcDbLine
 10
-299.265162
 20
-288.746041
 30
0.0
 11
-299.265162
 21
-289.246349
 31
0.0
  0
LINE
  5
4B9
100
AcDbEntity
  8
2
370
    50
100
AcDbLine
 10
-287.265162
 20
-288.746041
 30
0.0
 11
-287.765162
 21
-288.246041
 31
0.0
  0
LINE
  5
4BA
100
AcDbEntity
  8
2
370
    50
100
AcDbLine
 10
-298.765162
 20
-288.246041
 30
0.0
 11
-299.265162
 21
-288.746041
 31
0.0
  0
LINE
  5
4BB
100
AcDbEntity
  8
2
370
    50
100
AcDbLine
 10
-287.265162
 20
-288.746041
 30
0.0
 11
-299.265162
 21
-288.746041
 31
0.0
  0
LINE
  5
4BC
100
AcDbEntity
  8
2
370
    50
100
AcDbLine
 10
-300.515416
 20
-260.246041
 30
0.0
 11
-286.015416
 21
-260.246041
 31
0.0
  0
LINE
  5
4BD
100
AcDbEntity
  8
2
370
    50
100
AcDbLine
 10
-300.165416
 20
-266.246041
 30
0.0
 11
-286.365416
 21
-266.246041
 31
0.0
  0
LINE
  5
4BE
100
AcDbEntity
  8
2
370
    50
100
AcDbLine
 10
-300.165416
 20
-268.746041
 30
0.0
 11
-286.365416
 21
-268.746041
 31
0.0
  0
LINE
  5
4BF
100
AcDbEntity
  8
2
370
    50
100
AcDbLine
 10
-300.165416
 20
-273.746041
 30
0.0
 11
-286.365416
 21
-273.746041
 31
0.0
  0
LINE
  5
4C0
100
AcDbEntity
  8
2
370
    50
100
AcDbLine
 10
-300.165416
 20
-276.246041
 30
0.0
 11
-286.365416
 21
-276.246041
 31
0.0
  0
LINE
  5
4C1
100
AcDbEntity
  8
2
370
    50
100
AcDbLine
 10
-300.165416
 20
-281.246041
 30
0.0
 11
-286.365416
 21
-281.246041
 31
0.0
  0
LINE
  5
4C2
100
AcDbEntity
  8
2
370
    50
100
AcDbLine
 10
-300.165416
 20
-283.746041
 30
0.0
 11
-286.365416
 21
-283.746041
 31
0.0
  0
LINE
  5
4C3
100
AcDbEntity
  8
2
370
    50
100
AcDbLine
 10
-300.515416
 20
-284.505975
 30
0.0
 11
-300.515416
 21
-287.246041
 31
0.0
  0
LINE
  5
4C4
100
AcDbEntity
  8
2
370
    50
100
AcDbLine
 10
-300.515416
 20
-277.005975
 30
0.0
 11
-300.515416
 21
-280.486107
 31
0.0
  0
LINE
  5
4C5
100
AcDbEntity
  8
2
370
    50
100
AcDbLine
 10
-300.515416
 20
-260.246041
 30
0.0
 11
-300.515416
 21
-265.486107
 31
0.0
  0
LINE
  5
4C6
100
AcDbEntity
  8
2
370
    50
100
AcDbLine
 10
-300.515416
 20
-269.505975
 30
0.0
 11
-300.515416
 21
-272.986107
 31
0.0
  0
LINE
  5
4C7
100
AcDbEntity
  8
2
370
    50
100
AcDbLine
 10
-286.015416
 20
-284.505975
 30
0.0
 11
-286.015416
 21
-287.246041
 31
0.0
  0
LINE
  5
4C8
100
AcDbEntity
  8
2
370
    50
100
AcDbLine
 10
-286.015416
 20
-277.005975
 30
0.0
 11
-286.015416
 21
-280.486107
 31
0.0
  0
LINE
  5
4C9
100
AcDbEntity
  8
2
370
    50
100
AcDbLine
 10
-286.015416
 20
-260.246041
 30
0.0
 11
-286.015416
 21
-265.486107
 31
0.0
  0
LINE
  5
4CA
100
AcDbEntity
  8
2
370
    50
100
AcDbLine
 10
-286.015416
 20
-269.505975
 30
0.0
 11
-286.015416
 21
-272.986107
 31
0.0
  0
LINE
  5
4CB
100
AcDbEntity
  8
2
370
    50
100
AcDbLine
 10
-300.165416
 20
-281.246041
 30
0.0
 11
-300.165416
 21
-283.746041
 31
0.0
  0
LINE
  5
4CC
100
AcDbEntity
  8
2
370
    50
100
AcDbLine
 10
-286.365416
 20
-281.246041
 30
0.0
 11
-286.365416
 21
-283.746041
 31
0.0
  0
LINE
  5
4CD
100
AcDbEntity
  8
2
370
    50
100
AcDbLine
 10
-300.165416
 20
-266.246041
 30
0.0
 11
-300.165416
 21
-268.746041
 31
0.0
  0
LINE
  5
4CE
100
AcDbEntity
  8
2
370
    50
100
AcDbLine
 10
-300.165416
 20
-273.746041
 30
0.0
 11
-300.165416
 21
-276.246041
 31
0.0
  0
LINE
  5
4CF
100
AcDbEntity
  8
2
370
    50
100
AcDbLine
 10
-286.365416
 20
-266.246041
 30
0.0
 11
-286.365416
 21
-268.746041
 31
0.0
  0
LINE
  5
4D0
100
AcDbEntity
  8
2
370
    50
100
AcDbLine
 10
-286.365416
 20
-273.746041
 30
0.0
 11
-286.365416
 21
-276.246041
 31
0.0
  0
LINE
  5
4D1
100
AcDbEntity
  8
2
370
    50
100
AcDbLine
 10
-286.365416
 20
-260.246041
 30
0.0
 11
-286.365416
 21
-228.168306
 31
0.0
  0
LINE
  5
4D2
100
AcDbEntity
  8
2
370
    50
100
AcDbLine
 10
-300.165416
 20
-260.246041
 30
0.0
 11
-300.165416
 21
-228.168306
 31
0.0
  0
ARC
  5
4D3
100
AcDbEntity
  8
2
370
    50
100
AcDbCircle
 10
-287.015416
 20
-284.505975
 30
0.0
 40
1.0
100
AcDbArc
 50
0.0
 51
49.458398
  0
ARC
  5
4D4
100
AcDbEntity
  8
2
370
    50
100
AcDbCircle
 10
-287.015416
 20
-280.486107
 30
0.0
 40
1.0
100
AcDbArc
 50
310.541602
 51
360.0
  0
ARC
  5
4D5
100
AcDbEntity
  8
2
370
    50
100
AcDbCircle
 10
-287.015416
 20
-277.005975
 30
0.0
 40
1.0
100
AcDbArc
 50
0.0
 51
49.458398
  0
ARC
  5
4D6
100
AcDbEntity
  8
2
370
    50
100
AcDbCircle
 10
-287.015416
 20
-272.986107
 30
0.0
 40
1.0
100
AcDbArc
 50
310.541602
 51
360.0
  0
ARC
  5
4D7
100
AcDbEntity
  8
2
370
    50
100
AcDbCircle
 10
-287.015416
 20
-269.505975
 30
0.0
 40
1.0
100
AcDbArc
 50
0.0
 51
49.458398
  0
ARC
  5
4D8
100
AcDbEntity
  8
2
370
    50
100
AcDbCircle
 10
-287.015416
 20
-265.486107
 30
0.0
 40
1.0
100
AcDbArc
 50
310.541602
 51
360.0
  0
ARC
  5
4D9
100
AcDbEntity
  8
2
370
    50
100
AcDbCircle
 10
-299.515416
 20
-284.505975
 30
0.0
 40
1.0
100
AcDbArc
 50
130.541602
 51
180.0
  0
ARC
  5
4DA
100
AcDbEntity
  8
2
370
    50
100
AcDbCircle
 10
-299.515416
 20
-280.486107
 30
0.0
 40
1.0
100
AcDbArc
 50
180.0
 51
229.458398
  0
ARC
  5
4DB
100
AcDbEntity
  8
2
370
    50
100
AcDbCircle
 10
-299.515416
 20
-277.005975
 30
0.0
 40
1.0
100
AcDbArc
 50
130.541602
 51
180.0
  0
ARC
  5
4DC
100
AcDbEntity
  8
2
370
    50
100
AcDbCircle
 10
-299.515416
 20
-272.986107
 30
0.0
 40
1.0
100
AcDbArc
 50
180.0
 51
229.458398
  0
ARC
  5
4DD
100
AcDbEntity
  8
2
370
    50
100
AcDbCircle
 10
-299.515416
 20
-269.505975
 30
0.0
 40
1.0
100
AcDbArc
 50
130.541602
 51
180.0
  0
ARC
  5
4DE
100
AcDbEntity
  8
2
370
    50
100
AcDbCircle
 10
-299.515416
 20
-265.486107
 30
0.0
 40
1.0
100
AcDbArc
 50
180.0
 51
229.458398
  0
ARC
  5
4DF
100
AcDbEntity
  8
2
370
    50
100
AcDbCircle
 10
-287.015416
 20
-287.246041
 30
0.0
 40
1.0
100
AcDbArc
 50
270.0
 51
360.0
  0
ARC
  5
4E0
100
AcDbEntity
  8
2
370
    50
100
AcDbCircle
 10
-299.515416
 20
-287.246041
 30
0.0
 40
1.0
100
AcDbArc
 50
180.0
 51
270.0
  0
LINE
  5
4E1
100
AcDbEntity
  8
2
370
    50
100
AcDbLine
 10
-299.515416
 20
-288.246041
 30
0.0
 11
-287.015416
 21
-288.246041
 31
0.0
  0
ARC
  5
4E2
100
AcDbEntity
  8
2
370
    50
100
AcDbCircle
 10
-296.715289
 20
-223.725398
 30
0.0
 40
5.750212
100
AcDbArc
 50
233.130102
 51
306.869898
  0
ARC
  5
4E3
100
AcDbEntity
  8
2
370
    50
100
AcDbCircle
 10
-289.815035
 20
-232.925736
 30
0.0
 40
5.750212
100
AcDbArc
 50
53.130102
 51
126.869898
  0
ARC
  5
4E4
100
AcDbEntity
  8
2
370
    50
100
AcDbCircle
 10
-296.715289
 20
-232.925736
 30
0.0
 40
5.750212
100
AcDbArc
 50
53.130102
 51
126.869898
  0
LINE
  5
4E5
100
AcDbEntity
  8
2
370
    25
  6
CENTER
100
AcDbLine
 10
-418.640847
 20
-215.643897
 30
0.0
 11
-418.640847
 21
-228.644346
 31
0.0
  0
LINE
  5
4E6
100
AcDbEntity
  8
2
370
    50
100
AcDbLine
 10
-412.640847
 20
-286.054124
 30
0.0
 11
-412.640847
 21
-285.553816
 31
0.0
  0
LINE
  5
4E7
100
AcDbEntity
  8
2
370
    50
100
AcDbLine
 10
-424.640847
 20
-285.553816
 30
0.0
 11
-424.640847
 21
-286.054124
 31
0.0
  0
LINE
  5
4E8
100
AcDbEntity
  8
2
370
    50
100
AcDbLine
 10
-412.640847
 20
-285.553816
 30
0.0
 11
-413.140847
 21
-285.053816
 31
0.0
  0
LINE
  5
4E9
100
AcDbEntity
  8
2
370
    50
100
AcDbLine
 10
-424.140847
 20
-285.053816
 30
0.0
 11
-424.640847
 21
-285.553816
 31
0.0
  0
LINE
  5
4EA
100
AcDbEntity
  8
2
370
    50
100
AcDbLine
 10
-412.640847
 20
-285.553816
 30
0.0
 11
-424.640847
 21
-285.553816
 31
0.0
  0
LINE
  5
4EB
100
AcDbEntity
  8
2
370
    50
100
AcDbLine
 10
-425.891101
 20
-257.053816
 30
0.0
 11
-411.391101
 21
-257.053816
 31
0.0
  0
LINE
  5
4EC
100
AcDbEntity
  8
2
370
    50
100
AcDbLine
 10
-425.541101
 20
-263.053816
 30
0.0
 11
-411.741101
 21
-263.053816
 31
0.0
  0
LINE
  5
4ED
100
AcDbEntity
  8
2
370
    50
100
AcDbLine
 10
-425.541101
 20
-265.553816
 30
0.0
 11
-411.741101
 21
-265.553816
 31
0.0
  0
LINE
  5
4EE
100
AcDbEntity
  8
2
370
    50
100
AcDbLine
 10
-425.541101
 20
-270.553816
 30
0.0
 11
-411.741101
 21
-270.553816
 31
0.0
  0
LINE
  5
4EF
100
AcDbEntity
  8
2
370
    50
100
AcDbLine
 10
-425.541101
 20
-273.053816
 30
0.0
 11
-411.741101
 21
-273.053816
 31
0.0
  0
LINE
  5
4F0
100
AcDbEntity
  8
2
370
    50
100
AcDbLine
 10
-425.541101
 20
-278.053816
 30
0.0
 11
-411.741101
 21
-278.053816
 31
0.0
  0
LINE
  5
4F1
100
AcDbEntity
  8
2
370
    50
100
AcDbLine
 10
-425.541101
 20
-280.553816
 30
0.0
 11
-411.741101
 21
-280.553816
 31
0.0
  0
LINE
  5
4F2
100
AcDbEntity
  8
2
370
    50
100
AcDbLine
 10
-425.891101
 20
-281.31375
 30
0.0
 11
-425.891101
 21
-284.053816
 31
0.0
  0
LINE
  5
4F3
100
AcDbEntity
  8
2
370
    50
100
AcDbLine
 10
-425.891101
 20
-273.81375
 30
0.0
 11
-425.891101
 21
-277.293882
 31
0.0
  0
LINE
  5
4F4
100
AcDbEntity
  8
2
370
    50
100
AcDbLine
 10
-425.891101
 20
-257.053816
 30
0.0
 11
-425.891101
 21
-262.293882
 31
0.0
  0
LINE
  5
4F5
100
AcDbEntity
  8
2
370
    50
100
AcDbLine
 10
-425.891101
 20
-266.31375
 30
0.0
 11
-425.891101
 21
-269.793882
 31
0.0
  0
LINE
  5
4F6
100
AcDbEntity
  8
2
370
    50
100
AcDbLine
 10
-411.391101
 20
-281.31375
 30
0.0
 11
-411.391101
 21
-284.053816
 31
0.0
  0
LINE
  5
4F7
100
AcDbEntity
  8
2
370
    50
100
AcDbLine
 10
-411.391101
 20
-273.81375
 30
0.0
 11
-411.391101
 21
-277.293882
 31
0.0
  0
LINE
  5
4F8
100
AcDbEntity
  8
2
370
    50
100
AcDbLine
 10
-411.391101
 20
-257.053816
 30
0.0
 11
-411.391101
 21
-262.293882
 31
0.0
  0
LINE
  5
4F9
100
AcDbEntity
  8
2
370
    50
100
AcDbLine
 10
-411.391101
 20
-266.31375
 30
0.0
 11
-411.391101
 21
-269.793882
 31
0.0
  0
LINE
  5
4FA
100
AcDbEntity
  8
2
370
    50
100
AcDbLine
 10
-425.541101
 20
-278.053816
 30
0.0
 11
-425.541101
 21
-280.553816
 31
0.0
  0
LINE
  5
4FB
100
AcDbEntity
  8
2
370
    50
100
AcDbLine
 10
-411.741101
 20
-278.053816
 30
0.0
 11
-411.741101
 21
-280.553816
 31
0.0
  0
LINE
  5
4FC
100
AcDbEntity
  8
2
370
    50
100
AcDbLine
 10
-425.541101
 20
-263.053816
 30
0.0
 11
-425.541101
 21
-265.553816
 31
0.0
  0
LINE
  5
4FD
100
AcDbEntity
  8
2
370
    50
100
AcDbLine
 10
-425.541101
 20
-270.553816
 30
0.0
 11
-425.541101
 21
-273.053816
 31
0.0
  0
LINE
  5
4FE
100
AcDbEntity
  8
2
370
    50
100
AcDbLine
 10
-411.741101
 20
-263.053816
 30
0.0
 11
-411.741101
 21
-265.553816
 31
0.0
  0
LINE
  5
4FF
100
AcDbEntity
  8
2
370
    50
100
AcDbLine
 10
-411.741101
 20
-270.553816
 30
0.0
 11
-411.741101
 21
-273.053816
 31
0.0
  0
LINE
  5
500
100
AcDbEntity
  8
2
370
    50
100
AcDbLine
 10
-411.741101
 20
-257.053816
 30
0.0
 11
-411.741101
 21
-224.975889
 31
0.0
  0
LINE
  5
501
100
AcDbEntity
  8
2
370
    50
100
AcDbLine
 10
-425.541101
 20
-257.053816
 30
0.0
 11
-425.541101
 21
-224.975889
 31
0.0
  0
ARC
  5
502
100
AcDbEntity
  8
2
370
    50
100
AcDbCircle
 10
-412.391101
 20
-281.31375
 30
0.0
 40
1.0
100
AcDbArc
 50
0.0
 51
49.458398
  0
ARC
  5
503
100
AcDbEntity
  8
2
370
    50
100
AcDbCircle
 10
-412.391101
 20
-277.293882
 30
0.0
 40
1.0
100
AcDbArc
 50
310.541602
 51
360.0
  0
ARC
  5
504
100
AcDbEntity
  8
2
370
    50
100
AcDbCircle
 10
-412.391101
 20
-273.81375
 30
0.0
 40
1.0
100
AcDbArc
 50
0.0
 51
49.458398
  0
ARC
  5
505
100
AcDbEntity
  8
2
370
    50
100
AcDbCircle
 10
-412.391101
 20
-269.793882
 30
0.0
 40
1.0
100
AcDbArc
 50
310.541602
 51
360.0
  0
ARC
  5
506
100
AcDbEntity
  8
2
370
    50
100
AcDbCircle
 10
-412.391101
 20
-266.31375
 30
0.0
 40
1.0
100
AcDbArc
 50
0.0
 51
49.458398
  0
ARC
  5
507
100
AcDbEntity
  8
2
370
    50
100
AcDbCircle
 10
-412.391101
 20
-262.293882
 30
0.0
 40
1.0
100
AcDbArc
 50
310.541602
 51
360.0
  0
ARC
  5
508
100
AcDbEntity
  8
2
370
    50
100
AcDbCircle
 10
-424.891101
 20
-281.31375
 30
0.0
 40
1.0
100
AcDbArc
 50
130.541602
 51
180.0
  0
ARC
  5
509
100
AcDbEntity
  8
2
370
    50
100
AcDbCircle
 10
-424.891101
 20
-277.293882
 30
0.0
 40
1.0
100
AcDbArc
 50
180.0
 51
229.458398
  0
ARC
  5
50A
100
AcDbEntity
  8
2
370
    50
100
AcDbCircle
 10
-424.891101
 20
-273.81375
 30
0.0
 40
1.0
100
AcDbArc
 50
130.541602
 51
180.0
  0
ARC
  5
50B
100
AcDbEntity
  8
2
370
    50
100
AcDbCircle
 10
-424.891101
 20
-269.793882
 30
0.0
 40
1.0
100
AcDbArc
 50
180.0
 51
229.458398
  0
ARC
  5
50C
100
AcDbEntity
  8
2
370
    50
100
AcDbCircle
 10
-424.891101
 20
-266.31375
 30
0.0
 40
1.0
100
AcDbArc
 50
130.541602
 51
180.0
  0
ARC
  5
50D
100
AcDbEntity
  8
2
370
    50
100
AcDbCircle
 10
-424.891101
 20
-262.293882
 30
0.0
 40
1.0
100
AcDbArc
 50
180.0
 51
229.458398
  0
ARC
  5
50E
100
AcDbEntity
  8
2
370
    50
100
AcDbCircle
 10
-412.391101
 20
-284.053816
 30
0.0
 40
1.0
100
AcDbArc
 50
270.0
 51
360.0
  0
ARC
  5
50F
100
AcDbEntity
  8
2
370
    50
100
AcDbCircle
 10
-424.891101
 20
-284.053816
 30
0.0
 40
1.0
100
AcDbArc
 50
180.0
 51
270.0
  0
LINE
  5
510
100
AcDbEntity
  8
2
370
    50
100
AcDbLine
 10
-424.891101
 20
-285.053816
 30
0.0
 11
-412.391101
 21
-285.053816
 31
0.0
  0
ARC
  5
511
100
AcDbEntity
  8
2
370
    50
100
AcDbCircle
 10
-422.090974
 20
-220.533172
 30
0.0
 40
5.750212
100
AcDbArc
 50
233.130102
 51
306.869898
  0
ARC
  5
512
100
AcDbEntity
  8
2
370
    50
100
AcDbCircle
 10
-415.190721
 20
-229.733511
 30
0.0
 40
5.750212
100
AcDbArc
 50
53.130102
 51
126.869898
  0
ARC
  5
513
100
AcDbEntity
  8
2
370
    50
100
AcDbCircle
 10
-422.090974
 20
-229.733511
 30
0.0
 40
5.750212
100
AcDbArc
 50
53.130102
 51
126.869898
  0
LINE
  5
514
100
AcDbEntity
  8
2
370
    50
100
AcDbLine
 10
-357.103258
 20
-214.349298
 30
0.0
 11
-354.803258
 21
-214.349298
 31
0.0
  0
LINE
  5
515
100
AcDbEntity
  8
2
370
    50
100
AcDbLine
 10
-356.603258
 20
-208.161113
 30
0.0
 11
-355.303258
 21
-208.161113
 31
0.0
  0
ARC
  5
516
100
AcDbEntity
  8
2
370
    50
100
AcDbCircle
 10
-355.953258
 20
-201.161113
 30
0.0
 40
7.0
100
AcDbArc
 50
270.0
 51
275.327998
  0
ARC
  5
517
100
AcDbEntity
  8
2
370
    50
100
AcDbCircle
 10
-355.953258
 20
-201.161113
 30
0.0
 40
7.0
100
AcDbArc
 50
264.672002
 51
270.0
  0
LINE
  5
518
100
AcDbEntity
  8
2
370
    50
100
AcDbLine
 10
-369.953258
 20
-179.960623
 30
0.0
 11
-369.953258
 21
-174.637973
 31
0.0
  0
LINE
  5
519
100
AcDbEntity
  8
2
370
    50
100
AcDbLine
 10
-357.953258
 20
-179.960623
 30
0.0
 11
-357.953258
 21
-174.637973
 31
0.0
  0
LINE
  5
51A
100
AcDbEntity
  8
2
370
    50
100
AcDbLine
 10
-361.555343
 20
-174.637973
 30
0.0
 11
-361.555343
 21
-179.960623
 31
0.0
  0
LINE
  5
51B
100
AcDbEntity
  8
2
370
    50
100
AcDbLine
 10
-360.389077
 20
-174.637973
 30
0.0
 11
-360.389077
 21
-179.960623
 31
0.0
  0
LINE
  5
51C
100
AcDbEntity
  8
2
370
    50
100
AcDbLine
 10
-357.991161
 20
-174.637973
 30
0.0
 11
-357.991161
 21
-179.960623
 31
0.0
  0
LINE
  5
51D
100
AcDbEntity
  8
2
370
    50
100
AcDbLine
 10
-358.453258
 20
-180.249298
 30
0.0
 11
-357.953258
 21
-179.960623
 31
0.0
  0
LINE
  5
51E
100
AcDbEntity
  8
2
370
    50
100
AcDbLine
 10
-360.389077
 20
-179.960623
 30
0.0
 11
-361.555343
 21
-179.960623
 31
0.0
  0
LINE
  5
51F
100
AcDbEntity
  8
2
370
    50
100
AcDbLine
 10
-369.953258
 20
-179.960623
 30
0.0
 11
-369.453258
 21
-180.249298
 31
0.0
  0
LINE
  5
520
100
AcDbEntity
  8
2
370
    50
100
AcDbLine
 10
-369.953258
 20
-174.637973
 30
0.0
 11
-369.453258
 21
-174.349298
 31
0.0
  0
ARC
  5
521
100
AcDbEntity
  8
2
370
    50
100
AcDbCircle
 10
-363.953258
 20
-170.145668
 30
0.0
 40
10.10363
100
AcDbArc
 50
270.0
 51
283.729133
  0
ARC
  5
522
100
AcDbEntity
  8
2
370
    50
100
AcDbCircle
 10
-363.953258
 20
-184.452927
 30
0.0
 40
10.10363
100
AcDbArc
 50
76.270867
 51
90.0
  0
LINE
  5
523
100
AcDbEntity
  8
2
370
    50
100
AcDbLine
 10
-360.389077
 20
-174.637973
 30
0.0
 11
-361.555343
 21
-174.637973
 31
0.0
  0
ARC
  5
524
100
AcDbEntity
  8
2
370
    50
100
AcDbCircle
 10
-359.190119
 20
-177.615137
 30
0.0
 40
2.634161
100
AcDbArc
 50
242.924933
 51
297.075067
  0
ARC
  5
525
100
AcDbEntity
  8
2
370
    50
100
AcDbCircle
 10
-359.190119
 20
-176.983458
 30
0.0
 40
2.634161
100
AcDbArc
 50
62.924933
 51
117.075067
  0
LINE
  5
526
100
AcDbEntity
  8
2
370
    50
100
AcDbLine
 10
-358.453258
 20
-174.349298
 30
0.0
 11
-357.953258
 21
-174.637973
 31
0.0
  0
LINE
  5
527
100
AcDbEntity
  8
2
370
    50
100
AcDbLine
 10
-357.953258
 20
-174.637973
 30
0.0
 11
-357.991161
 21
-174.637973
 31
0.0
  0
ARC
  5
528
100
AcDbEntity
  8
2
370
    50
100
AcDbCircle
 10
-363.953258
 20
-170.145668
 30
0.0
 40
10.10363
100
AcDbArc
 50
256.270867
 51
270.0
  0
LINE
  5
529
100
AcDbEntity
  8
2
370
    50
100
AcDbLine
 10
-367.51744
 20
-179.960623
 30
0.0
 11
-366.351174
 21
-179.960623
 31
0.0
  0
LINE
  5
52A
100
AcDbEntity
  8
2
370
    50
100
AcDbLine
 10
-366.351174
 20
-174.637973
 30
0.0
 11
-366.351174
 21
-179.960623
 31
0.0
  0
LINE
  5
52B
100
AcDbEntity
  8
2
370
    50
100
AcDbLine
 10
-367.517441
 20
-174.637973
 30
0.0
 11
-367.51744
 21
-179.960623
 31
0.0
  0
ARC
  5
52C
100
AcDbEntity
  8
2
370
    50
100
AcDbCircle
 10
-368.716398
 20
-177.615137
 30
0.0
 40
2.634161
100
AcDbArc
 50
242.924933
 51
297.075067
  0
LINE
  5
52D
100
AcDbEntity
  8
2
370
    50
100
AcDbLine
 10
-369.915356
 20
-174.637973
 30
0.0
 11
-369.915356
 21
-179.960623
 31
0.0
  0
LINE
  5
52E
100
AcDbEntity
  8
2
370
    50
100
AcDbLine
 10
-370.903258
 20
-180.249298
 30
0.0
 11
-357.003258
 21
-180.249298
 31
0.0
  0
LINE
  5
52F
100
AcDbEntity
  8
2
370
    50
100
AcDbLine
 10
-370.903258
 20
-209.249298
 30
0.0
 11
-363.953258
 21
-209.249298
 31
0.0
  0
LINE
  5
530
100
AcDbEntity
  8
2
370
    50
100
AcDbLine
 10
-370.903258
 20
-203.749298
 30
0.0
 11
-363.953258
 21
-203.749298
 31
0.0
  0
LINE
  5
531
100
AcDbEntity
  8
2
370
    50
100
AcDbLine
 10
-370.903258
 20
-201.749298
 30
0.0
 11
-363.953258
 21
-201.749298
 31
0.0
  0
LINE
  5
532
100
AcDbEntity
  8
2
370
    50
100
AcDbLine
 10
-370.903258
 20
-196.749298
 30
0.0
 11
-363.953258
 21
-196.749298
 31
0.0
  0
LINE
  5
533
100
AcDbEntity
  8
2
370
    50
100
AcDbLine
 10
-370.903258
 20
-194.749298
 30
0.0
 11
-363.953258
 21
-194.749298
 31
0.0
  0
LINE
  5
534
100
AcDbEntity
  8
2
370
    50
100
AcDbLine
 10
-370.903258
 20
-189.749298
 30
0.0
 11
-363.953258
 21
-189.749298
 31
0.0
  0
LINE
  5
535
100
AcDbEntity
  8
2
370
    50
100
AcDbLine
 10
-370.903258
 20
-187.749298
 30
0.0
 11
-363.953258
 21
-187.749298
 31
0.0
  0
LINE
  5
536
100
AcDbEntity
  8
2
370
    50
100
AcDbLine
 10
-371.303258
 20
-208.449298
 30
0.0
 11
-371.303258
 21
-204.549298
 31
0.0
  0
LINE
  5
537
100
AcDbEntity
  8
2
370
    50
100
AcDbLine
 10
-371.303258
 20
-200.949298
 30
0.0
 11
-371.303258
 21
-197.549298
 31
0.0
  0
LINE
  5
538
100
AcDbEntity
  8
2
370
    50
100
AcDbLine
 10
-371.303258
 20
-193.949298
 30
0.0
 11
-371.303258
 21
-190.549298
 31
0.0
  0
LINE
  5
539
100
AcDbEntity
  8
2
370
    50
100
AcDbLine
 10
-371.303258
 20
-186.949298
 30
0.0
 11
-371.303258
 21
-181.049298
 31
0.0
  0
LINE
  5
53A
100
AcDbEntity
  8
2
370
    50
100
AcDbLine
 10
-370.903258
 20
-189.749298
 30
0.0
 11
-370.903258
 21
-187.749298
 31
0.0
  0
LINE
  5
53B
100
AcDbEntity
  8
2
370
    50
100
AcDbLine
 10
-370.903258
 20
-203.749298
 30
0.0
 11
-370.903258
 21
-201.749298
 31
0.0
  0
LINE
  5
53C
100
AcDbEntity
  8
2
370
    50
100
AcDbLine
 10
-370.903258
 20
-196.749298
 30
0.0
 11
-370.903258
 21
-194.749298
 31
0.0
  0
ARC
  5
53D
100
AcDbEntity
  8
2
370
    50
100
AcDbCircle
 10
-370.303258
 20
-186.949298
 30
0.0
 40
1.0
100
AcDbArc
 50
180.0
 51
233.130102
  0
ARC
  5
53E
100
AcDbEntity
  8
2
370
    50
100
AcDbCircle
 10
-370.303258
 20
-190.549298
 30
0.0
 40
1.0
100
AcDbArc
 50
126.869898
 51
180.0
  0
ARC
  5
53F
100
AcDbEntity
  8
2
370
    50
100
AcDbCircle
 10
-370.303258
 20
-193.949298
 30
0.0
 40
1.0
100
AcDbArc
 50
180.0
 51
233.130102
  0
ARC
  5
540
100
AcDbEntity
  8
2
370
    50
100
AcDbCircle
 10
-370.303258
 20
-197.549298
 30
0.0
 40
1.0
100
AcDbArc
 50
126.869898
 51
180.0
  0
ARC
  5
541
100
AcDbEntity
  8
2
370
    50
100
AcDbCircle
 10
-370.303258
 20
-200.949298
 30
0.0
 40
1.0
100
AcDbArc
 50
180.0
 51
233.130102
  0
ARC
  5
542
100
AcDbEntity
  8
2
370
    50
100
AcDbCircle
 10
-370.303258
 20
-204.549298
 30
0.0
 40
1.0
100
AcDbArc
 50
126.869898
 51
180.0
  0
ARC
  5
543
100
AcDbEntity
  8
2
370
    50
100
AcDbCircle
 10
-370.303258
 20
-208.449298
 30
0.0
 40
1.0
100
AcDbArc
 50
180.0
 51
233.130102
  0
ARC
  5
544
100
AcDbEntity
  8
2
370
    50
100
AcDbCircle
 10
-370.303258
 20
-181.049298
 30
0.0
 40
1.0
100
AcDbArc
 50
126.869898
 51
180.0
  0
LINE
  5
545
100
AcDbEntity
  8
2
370
    50
100
AcDbLine
 10
-357.003258
 20
-209.249298
 30
0.0
 11
-363.953258
 21
-209.249298
 31
0.0
  0
ARC
  5
546
100
AcDbEntity
  8
2
370
    50
100
AcDbCircle
 10
-357.603258
 20
-208.449298
 30
0.0
 40
1.0
100
AcDbArc
 50
306.869898
 51
360.0
  0
LINE
  5
547
100
AcDbEntity
  8
2
370
    50
100
AcDbLine
 10
-356.603258
 20
-208.449298
 30
0.0
 11
-356.603258
 21
-204.549298
 31
0.0
  0
ARC
  5
548
100
AcDbEntity
  8
2
370
    50
100
AcDbCircle
 10
-357.603258
 20
-204.549298
 30
0.0
 40
1.0
100
AcDbArc
 50
360.0
 51
53.130102
  0
LINE
  5
549
100
AcDbEntity
  8
2
370
    50
100
AcDbLine
 10
-357.003258
 20
-203.749298
 30
0.0
 11
-357.003258
 21
-201.749298
 31
0.0
  0
LINE
  5
54A
100
AcDbEntity
  8
2
370
    50
100
AcDbLine
 10
-357.003258
 20
-203.749298
 30
0.0
 11
-363.953258
 21
-203.749298
 31
0.0
  0
LINE
  5
54B
100
AcDbEntity
  8
2
370
    50
100
AcDbLine
 10
-357.003258
 20
-201.749298
 30
0.0
 11
-363.953258
 21
-201.749298
 31
0.0
  0
ARC
  5
54C
100
AcDbEntity
  8
2
370
    50
100
AcDbCircle
 10
-357.603258
 20
-200.949298
 30
0.0
 40
1.0
100
AcDbArc
 50
306.869898
 51
360.0
  0
LINE
  5
54D
100
AcDbEntity
  8
2
370
    50
100
AcDbLine
 10
-356.603258
 20
-200.949298
 30
0.0
 11
-356.603258
 21
-197.549298
 31
0.0
  0
ARC
  5
54E
100
AcDbEntity
  8
2
370
    50
100
AcDbCircle
 10
-357.603258
 20
-197.549298
 30
0.0
 40
1.0
100
AcDbArc
 50
360.0
 51
53.130102
  0
LINE
  5
54F
100
AcDbEntity
  8
2
370
    50
100
AcDbLine
 10
-357.003258
 20
-196.749298
 30
0.0
 11
-363.953258
 21
-196.749298
 31
0.0
  0
LINE
  5
550
100
AcDbEntity
  8
2
370
    50
100
AcDbLine
 10
-357.003258
 20
-196.749298
 30
0.0
 11
-357.003258
 21
-194.749298
 31
0.0
  0
LINE
  5
551
100
AcDbEntity
  8
2
370
    50
100
AcDbLine
 10
-357.003258
 20
-194.749298
 30
0.0
 11
-363.953258
 21
-194.749298
 31
0.0
  0
ARC
  5
552
100
AcDbEntity
  8
2
370
    50
100
AcDbCircle
 10
-357.603258
 20
-193.949298
 30
0.0
 40
1.0
100
AcDbArc
 50
306.869898
 51
360.0
  0
ARC
  5
553
100
AcDbEntity
  8
2
370
    50
100
AcDbCircle
 10
-357.603258
 20
-193.949298
 30
0.0
 40
1.0
100
AcDbArc
 50
306.869898
 51
360.0
  0
LINE
  5
554
100
AcDbEntity
  8
2
370
    50
100
AcDbLine
 10
-356.603258
 20
-193.949298
 30
0.0
 11
-356.603258
 21
-190.549298
 31
0.0
  0
ARC
  5
555
100
AcDbEntity
  8
2
370
    50
100
AcDbCircle
 10
-357.603258
 20
-190.549298
 30
0.0
 40
1.0
100
AcDbArc
 50
360.0
 51
53.130102
  0
LINE
  5
556
100
AcDbEntity
  8
2
370
    50
100
AcDbLine
 10
-357.003258
 20
-189.749298
 30
0.0
 11
-363.953258
 21
-189.749298
 31
0.0
  0
LINE
  5
557
100
AcDbEntity
  8
2
370
    50
100
AcDbLine
 10
-357.003258
 20
-189.749298
 30
0.0
 11
-357.003258
 21
-187.749298
 31
0.0
  0
LINE
  5
558
100
AcDbEntity
  8
2
370
    50
100
AcDbLine
 10
-357.003258
 20
-187.749298
 30
0.0
 11
-363.953258
 21
-187.749298
 31
0.0
  0
ARC
  5
559
100
AcDbEntity
  8
2
370
    50
100
AcDbCircle
 10
-357.603258
 20
-186.949298
 30
0.0
 40
1.0
100
AcDbArc
 50
306.869898
 51
360.0
  0
LINE
  5
55A
100
AcDbEntity
  8
2
370
    50
100
AcDbLine
 10
-356.603258
 20
-186.949298
 30
0.0
 11
-356.603258
 21
-181.049298
 31
0.0
  0
ARC
  5
55B
100
AcDbEntity
  8
2
370
    50
100
AcDbCircle
 10
-357.603258
 20
-181.049298
 30
0.0
 40
1.0
100
AcDbArc
 50
360.0
 51
53.130102
  0
LINE
  5
55C
100
AcDbEntity
  8
2
370
    50
100
AcDbLine
 10
-370.803258
 20
-225.427347
 30
0.0
 11
-370.803258
 21
-209.249298
 31
0.0
  0
LINE
  5
55D
100
AcDbEntity
  8
2
370
    50
100
AcDbLine
 10
-357.103258
 20
-225.367006
 30
0.0
 11
-357.103258
 21
-209.249298
 31
0.0
  0
ARC
  5
55E
100
AcDbEntity
  8
2
370
    50
100
AcDbCircle
 10
-363.953258
 20
-184.452927
 30
0.0
 40
10.10363
100
AcDbArc
 50
90.0
 51
103.729133
  0
LINE
  5
55F
100
AcDbEntity
  8
2
370
    50
100
AcDbLine
 10
-367.51744
 20
-174.637973
 30
0.0
 11
-366.351174
 21
-174.637973
 31
0.0
  0
ARC
  5
560
100
AcDbEntity
  8
2
370
    50
100
AcDbCircle
 10
-368.716398
 20
-176.983458
 30
0.0
 40
2.634161
100
AcDbArc
 50
62.924933
 51
117.075067
  0
LINE
  5
561
100
AcDbEntity
  8
2
370
    50
100
AcDbLine
 10
-353.953258
 20
-179.960623
 30
0.0
 11
-353.953258
 21
-174.637973
 31
0.0
  0
LINE
  5
562
100
AcDbEntity
  8
2
370
    50
100
AcDbLine
 10
-341.953258
 20
-179.960623
 30
0.0
 11
-341.953258
 21
-174.637973
 31
0.0
  0
LINE
  5
563
100
AcDbEntity
  8
2
370
    50
100
AcDbLine
 10
-345.555343
 20
-174.637973
 30
0.0
 11
-345.555343
 21
-179.960623
 31
0.0
  0
LINE
  5
564
100
AcDbEntity
  8
2
370
    50
100
AcDbLine
 10
-344.389077
 20
-174.637973
 30
0.0
 11
-344.389077
 21
-179.960623
 31
0.0
  0
LINE
  5
565
100
AcDbEntity
  8
2
370
    50
100
AcDbLine
 10
-341.991161
 20
-174.637973
 30
0.0
 11
-341.991161
 21
-179.960623
 31
0.0
  0
LINE
  5
566
100
AcDbEntity
  8
2
370
    50
100
AcDbLine
 10
-342.453258
 20
-180.249298
 30
0.0
 11
-341.953258
 21
-179.960623
 31
0.0
  0
LINE
  5
567
100
AcDbEntity
  8
2
370
    50
100
AcDbLine
 10
-344.389077
 20
-179.960623
 30
0.0
 11
-345.555343
 21
-179.960623
 31
0.0
  0
LINE
  5
568
100
AcDbEntity
  8
2
370
    50
100
AcDbLine
 10
-353.953258
 20
-179.960623
 30
0.0
 11
-353.453258
 21
-180.249298
 31
0.0
  0
LINE
  5
569
100
AcDbEntity
  8
2
370
    50
100
AcDbLine
 10
-353.953258
 20
-174.637973
 30
0.0
 11
-353.453258
 21
-174.349298
 31
0.0
  0
ARC
  5
56A
100
AcDbEntity
  8
2
370
    50
100
AcDbCircle
 10
-347.953258
 20
-170.145668
 30
0.0
 40
10.10363
100
AcDbArc
 50
270.0
 51
283.729133
  0
ARC
  5
56B
100
AcDbEntity
  8
2
370
    50
100
AcDbCircle
 10
-347.953258
 20
-184.452927
 30
0.0
 40
10.10363
100
AcDbArc
 50
76.270867
 51
90.0
  0
LINE
  5
56C
100
AcDbEntity
  8
2
370
    50
100
AcDbLine
 10
-344.389077
 20
-174.637973
 30
0.0
 11
-345.555343
 21
-174.637973
 31
0.0
  0
ARC
  5
56D
100
AcDbEntity
  8
2
370
    50
100
AcDbCircle
 10
-343.190119
 20
-177.615137
 30
0.0
 40
2.634161
100
AcDbArc
 50
242.924933
 51
297.075067
  0
ARC
  5
56E
100
AcDbEntity
  8
2
370
    50
100
AcDbCircle
 10
-343.190119
 20
-176.983458
 30
0.0
 40
2.634161
100
AcDbArc
 50
62.924933
 51
117.075067
  0
LINE
  5
56F
100
AcDbEntity
  8
2
370
    50
100
AcDbLine
 10
-342.453258
 20
-174.349298
 30
0.0
 11
-341.953258
 21
-174.637973
 31
0.0
  0
ARC
  5
570
100
AcDbEntity
  8
2
370
    50
100
AcDbCircle
 10
-347.953258
 20
-170.145668
 30
0.0
 40
10.10363
100
AcDbArc
 50
256.270867
 51
270.0
  0
LINE
  5
571
100
AcDbEntity
  8
2
370
    50
100
AcDbLine
 10
-351.51744
 20
-179.960623
 30
0.0
 11
-350.351174
 21
-179.960623
 31
0.0
  0
LINE
  5
572
100
AcDbEntity
  8
2
370
    50
100
AcDbLine
 10
-350.351174
 20
-174.637973
 30
0.0
 11
-350.351174
 21
-179.960623
 31
0.0
  0
LINE
  5
573
100
AcDbEntity
  8
2
370
    50
100
AcDbLine
 10
-351.517441
 20
-174.637973
 30
0.0
 11
-351.51744
 21
-179.960623
 31
0.0
  0
ARC
  5
574
100
AcDbEntity
  8
2
370
    50
100
AcDbCircle
 10
-352.716398
 20
-177.615137
 30
0.0
 40
2.634161
100
AcDbArc
 50
242.924933
 51
297.075067
  0
LINE
  5
575
100
AcDbEntity
  8
2
370
    50
100
AcDbLine
 10
-353.915356
 20
-174.637973
 30
0.0
 11
-353.915356
 21
-179.960623
 31
0.0
  0
LINE
  5
576
100
AcDbEntity
  8
2
370
    50
100
AcDbLine
 10
-354.903258
 20
-180.249298
 30
0.0
 11
-341.003258
 21
-180.249298
 31
0.0
  0
LINE
  5
577
100
AcDbEntity
  8
2
370
    50
100
AcDbLine
 10
-354.903258
 20
-209.249298
 30
0.0
 11
-347.953258
 21
-209.249298
 31
0.0
  0
LINE
  5
578
100
AcDbEntity
  8
2
370
    50
100
AcDbLine
 10
-354.903258
 20
-203.749298
 30
0.0
 11
-347.953258
 21
-203.749298
 31
0.0
  0
LINE
  5
579
100
AcDbEntity
  8
2
370
    50
100
AcDbLine
 10
-354.903258
 20
-201.749298
 30
0.0
 11
-347.953258
 21
-201.749298
 31
0.0
  0
LINE
  5
57A
100
AcDbEntity
  8
2
370
    50
100
AcDbLine
 10
-354.903258
 20
-196.749298
 30
0.0
 11
-347.953258
 21
-196.749298
 31
0.0
  0
LINE
  5
57B
100
AcDbEntity
  8
2
370
    50
100
AcDbLine
 10
-354.903258
 20
-194.749298
 30
0.0
 11
-347.953258
 21
-194.749298
 31
0.0
  0
LINE
  5
57C
100
AcDbEntity
  8
2
370
    50
100
AcDbLine
 10
-354.903258
 20
-189.749298
 30
0.0
 11
-347.953258
 21
-189.749298
 31
0.0
  0
LINE
  5
57D
100
AcDbEntity
  8
2
370
    50
100
AcDbLine
 10
-354.903258
 20
-187.749298
 30
0.0
 11
-347.953258
 21
-187.749298
 31
0.0
  0
LINE
  5
57E
100
AcDbEntity
  8
2
370
    50
100
AcDbLine
 10
-355.303258
 20
-208.449298
 30
0.0
 11
-355.303258
 21
-204.549298
 31
0.0
  0
LINE
  5
57F
100
AcDbEntity
  8
2
370
    50
100
AcDbLine
 10
-355.303258
 20
-200.949298
 30
0.0
 11
-355.303258
 21
-197.549298
 31
0.0
  0
LINE
  5
580
100
AcDbEntity
  8
2
370
    50
100
AcDbLine
 10
-355.303258
 20
-193.949298
 30
0.0
 11
-355.303258
 21
-190.549298
 31
0.0
  0
LINE
  5
581
100
AcDbEntity
  8
2
370
    50
100
AcDbLine
 10
-355.303258
 20
-186.949298
 30
0.0
 11
-355.303258
 21
-181.049298
 31
0.0
  0
LINE
  5
582
100
AcDbEntity
  8
2
370
    50
100
AcDbLine
 10
-354.903258
 20
-189.749298
 30
0.0
 11
-354.903258
 21
-187.749298
 31
0.0
  0
LINE
  5
583
100
AcDbEntity
  8
2
370
    50
100
AcDbLine
 10
-354.903258
 20
-203.749298
 30
0.0
 11
-354.903258
 21
-201.749298
 31
0.0
  0
LINE
  5
584
100
AcDbEntity
  8
2
370
    50
100
AcDbLine
 10
-354.903258
 20
-196.749298
 30
0.0
 11
-354.903258
 21
-194.749298
 31
0.0
  0
ARC
  5
585
100
AcDbEntity
  8
2
370
    50
100
AcDbCircle
 10
-354.303258
 20
-186.949298
 30
0.0
 40
1.0
100
AcDbArc
 50
180.0
 51
233.130102
  0
ARC
  5
586
100
AcDbEntity
  8
2
370
    50
100
AcDbCircle
 10
-354.303258
 20
-190.549298
 30
0.0
 40
1.0
100
AcDbArc
 50
126.869898
 51
180.0
  0
ARC
  5
587
100
AcDbEntity
  8
2
370
    50
100
AcDbCircle
 10
-354.303258
 20
-193.949298
 30
0.0
 40
1.0
100
AcDbArc
 50
180.0
 51
233.130102
  0
ARC
  5
588
100
AcDbEntity
  8
2
370
    50
100
AcDbCircle
 10
-354.303258
 20
-197.549298
 30
0.0
 40
1.0
100
AcDbArc
 50
126.869898
 51
180.0
  0
ARC
  5
589
100
AcDbEntity
  8
2
370
    50
100
AcDbCircle
 10
-354.303258
 20
-200.949298
 30
0.0
 40
1.0
100
AcDbArc
 50
180.0
 51
233.130102
  0
ARC
  5
58A
100
AcDbEntity
  8
2
370
    50
100
AcDbCircle
 10
-354.303258
 20
-204.549298
 30
0.0
 40
1.0
100
AcDbArc
 50
126.869898
 51
180.0
  0
ARC
  5
58B
100
AcDbEntity
  8
2
370
    50
100
AcDbCircle
 10
-354.303258
 20
-208.449298
 30
0.0
 40
1.0
100
AcDbArc
 50
180.0
 51
233.130102
  0
ARC
  5
58C
100
AcDbEntity
  8
2
370
    50
100
AcDbCircle
 10
-354.303258
 20
-181.049298
 30
0.0
 40
1.0
100
AcDbArc
 50
126.869898
 51
180.0
  0
LINE
  5
58D
100
AcDbEntity
  8
2
370
    50
100
AcDbLine
 10
-341.003258
 20
-209.249298
 30
0.0
 11
-347.953258
 21
-209.249298
 31
0.0
  0
ARC
  5
58E
100
AcDbEntity
  8
2
370
    50
100
AcDbCircle
 10
-341.603258
 20
-208.449298
 30
0.0
 40
1.0
100
AcDbArc
 50
306.869898
 51
360.0
  0
LINE
  5
58F
100
AcDbEntity
  8
2
370
    50
100
AcDbLine
 10
-340.603258
 20
-208.449298
 30
0.0
 11
-340.603258
 21
-204.549298
 31
0.0
  0
ARC
  5
590
100
AcDbEntity
  8
2
370
    50
100
AcDbCircle
 10
-341.603258
 20
-204.549298
 30
0.0
 40
1.0
100
AcDbArc
 50
360.0
 51
53.130102
  0
LINE
  5
591
100
AcDbEntity
  8
2
370
    50
100
AcDbLine
 10
-341.003258
 20
-203.749298
 30
0.0
 11
-341.003258
 21
-201.749298
 31
0.0
  0
LINE
  5
592
100
AcDbEntity
  8
2
370
    50
100
AcDbLine
 10
-341.003258
 20
-203.749298
 30
0.0
 11
-347.953258
 21
-203.749298
 31
0.0
  0
LINE
  5
593
100
AcDbEntity
  8
2
370
    50
100
AcDbLine
 10
-341.003258
 20
-201.749298
 30
0.0
 11
-347.953258
 21
-201.749298
 31
0.0
  0
ARC
  5
594
100
AcDbEntity
  8
2
370
    50
100
AcDbCircle
 10
-341.603258
 20
-200.949298
 30
0.0
 40
1.0
100
AcDbArc
 50
306.869898
 51
360.0
  0
LINE
  5
595
100
AcDbEntity
  8
2
370
    50
100
AcDbLine
 10
-340.603258
 20
-200.949298
 30
0.0
 11
-340.603258
 21
-197.549298
 31
0.0
  0
ARC
  5
596
100
AcDbEntity
  8
2
370
    50
100
AcDbCircle
 10
-341.603258
 20
-197.549298
 30
0.0
 40
1.0
100
AcDbArc
 50
360.0
 51
53.130102
  0
LINE
  5
597
100
AcDbEntity
  8
2
370
    50
100
AcDbLine
 10
-341.003258
 20
-196.749298
 30
0.0
 11
-347.953258
 21
-196.749298
 31
0.0
  0
LINE
  5
598
100
AcDbEntity
  8
2
370
    50
100
AcDbLine
 10
-341.003258
 20
-196.749298
 30
0.0
 11
-341.003258
 21
-194.749298
 31
0.0
  0
LINE
  5
599
100
AcDbEntity
  8
2
370
    50
100
AcDbLine
 10
-341.003258
 20
-194.749298
 30
0.0
 11
-347.953258
 21
-194.749298
 31
0.0
  0
ARC
  5
59A
100
AcDbEntity
  8
2
370
    50
100
AcDbCircle
 10
-341.603258
 20
-193.949298
 30
0.0
 40
1.0
100
AcDbArc
 50
306.869898
 51
360.0
  0
ARC
  5
59B
100
AcDbEntity
  8
2
370
    50
100
AcDbCircle
 10
-341.603258
 20
-193.949298
 30
0.0
 40
1.0
100
AcDbArc
 50
306.869898
 51
360.0
  0
LINE
  5
59C
100
AcDbEntity
  8
2
370
    50
100
AcDbLine
 10
-340.603258
 20
-193.949298
 30
0.0
 11
-340.603258
 21
-190.549298
 31
0.0
  0
ARC
  5
59D
100
AcDbEntity
  8
2
370
    50
100
AcDbCircle
 10
-341.603258
 20
-190.549298
 30
0.0
 40
1.0
100
AcDbArc
 50
360.0
 51
53.130102
  0
LINE
  5
59E
100
AcDbEntity
  8
2
370
    50
100
AcDbLine
 10
-341.003258
 20
-189.749298
 30
0.0
 11
-347.953258
 21
-189.749298
 31
0.0
  0
LINE
  5
59F
100
AcDbEntity
  8
2
370
    50
100
AcDbLine
 10
-341.003258
 20
-189.749298
 30
0.0
 11
-341.003258
 21
-187.749298
 31
0.0
  0
LINE
  5
5A0
100
AcDbEntity
  8
2
370
    50
100
AcDbLine
 10
-341.003258
 20
-187.749298
 30
0.0
 11
-347.953258
 21
-187.749298
 31
0.0
  0
ARC
  5
5A1
100
AcDbEntity
  8
2
370
    50
100
AcDbCircle
 10
-341.603258
 20
-186.949298
 30
0.0
 40
1.0
100
AcDbArc
 50
306.869898
 51
360.0
  0
LINE
  5
5A2
100
AcDbEntity
  8
2
370
    50
100
AcDbLine
 10
-340.603258
 20
-186.949298
 30
0.0
 11
-340.603258
 21
-181.049298
 31
0.0
  0
ARC
  5
5A3
100
AcDbEntity
  8
2
370
    50
100
AcDbCircle
 10
-341.603258
 20
-181.049298
 30
0.0
 40
1.0
100
AcDbArc
 50
360.0
 51
53.130102
  0
LINE
  5
5A4
100
AcDbEntity
  8
2
370
    50
100
AcDbLine
 10
-354.803258
 20
-225.487634
 30
0.0
 11
-354.803258
 21
-209.249298
 31
0.0
  0
LINE
  5
5A5
100
AcDbEntity
  8
2
370
    50
100
AcDbLine
 10
-341.103258
 20
-225.501314
 30
0.0
 11
-341.103258
 21
-209.249298
 31
0.0
  0
ARC
  5
5A6
100
AcDbEntity
  8
2
370
    50
100
AcDbCircle
 10
-347.953258
 20
-184.452927
 30
0.0
 40
10.10363
100
AcDbArc
 50
90.0
 51
103.729133
  0
LINE
  5
5A7
100
AcDbEntity
  8
2
370
    50
100
AcDbLine
 10
-351.51744
 20
-174.637973
 30
0.0
 11
-350.351174
 21
-174.637973
 31
0.0
  0
ARC
  5
5A8
100
AcDbEntity
  8
2
370
    50
100
AcDbCircle
 10
-352.716398
 20
-176.983458
 30
0.0
 40
2.634161
100
AcDbArc
 50
62.924933
 51
117.075067
  0
ARC
  5
5A9
100
AcDbEntity
  8
2
370
    50
100
AcDbCircle
 10
-351.378258
 20
-220.8582
 30
0.0
 40
5.708333
100
AcDbArc
 50
233.130102
 51
306.869898
  0
ARC
  5
5AA
100
AcDbEntity
  8
2
370
    50
100
AcDbCircle
 10
-344.528258
 20
-229.991534
 30
0.0
 40
5.708333
100
AcDbArc
 50
53.130102
 51
126.869898
  0
ARC
  5
5AB
100
AcDbEntity
  8
2
370
    50
100
AcDbCircle
 10
-344.528258
 20
-220.8582
 30
0.0
 40
5.708333
100
AcDbArc
 50
233.130102
 51
306.869898
  0
ARC
  5
5AC
100
AcDbEntity
  8
2
370
    50
100
AcDbCircle
 10
-367.378258
 20
-220.8582
 30
0.0
 40
5.708333
100
AcDbArc
 50
233.130102
 51
306.869898
  0
ARC
  5
5AD
100
AcDbEntity
  8
2
370
    50
100
AcDbCircle
 10
-360.528258
 20
-229.991534
 30
0.0
 40
5.708333
100
AcDbArc
 50
53.130102
 51
126.869898
  0
ARC
  5
5AE
100
AcDbEntity
  8
2
370
    50
100
AcDbCircle
 10
-360.528258
 20
-220.8582
 30
0.0
 40
5.708333
100
AcDbArc
 50
233.130102
 51
306.869898
  0
LINE
  5
5AF
100
AcDbEntity
  8
2
370
    50
100
AcDbLine
 10
87.454872
 20
-179.960623
 30
0.0
 11
87.454872
 21
-174.637973
 31
0.0
  0
LINE
  5
5B0
100
AcDbEntity
  8
2
370
    50
100
AcDbLine
 10
99.454872
 20
-179.960623
 30
0.0
 11
99.454872
 21
-174.637973
 31
0.0
  0
LINE
  5
5B1
100
AcDbEntity
  8
2
370
    50
100
AcDbLine
 10
95.852788
 20
-174.637973
 30
0.0
 11
95.852788
 21
-179.960623
 31
0.0
  0
LINE
  5
5B2
100
AcDbEntity
  8
2
370
    50
100
AcDbLine
 10
97.019054
 20
-174.637973
 30
0.0
 11
97.019054
 21
-179.960623
 31
0.0
  0
LINE
  5
5B3
100
AcDbEntity
  8
2
370
    50
100
AcDbLine
 10
99.41697
 20
-174.637973
 30
0.0
 11
99.41697
 21
-179.960623
 31
0.0
  0
LINE
  5
5B4
100
AcDbEntity
  8
2
370
    50
100
AcDbLine
 10
98.954872
 20
-180.249298
 30
0.0
 11
99.454872
 21
-179.960623
 31
0.0
  0
LINE
  5
5B5
100
AcDbEntity
  8
2
370
    50
100
AcDbLine
 10
97.019054
 20
-179.960623
 30
0.0
 11
95.852788
 21
-179.960623
 31
0.0
  0
LINE
  5
5B6
100
AcDbEntity
  8
2
370
    50
100
AcDbLine
 10
87.454872
 20
-179.960623
 30
0.0
 11
87.954872
 21
-180.249298
 31
0.0
  0
LINE
  5
5B7
100
AcDbEntity
  8
2
370
    50
100
AcDbLine
 10
87.454872
 20
-174.637973
 30
0.0
 11
87.954872
 21
-174.349298
 31
0.0
  0
ARC
  5
5B8
100
AcDbEntity
  8
2
370
    50
100
AcDbCircle
 10
93.454872
 20
-170.145668
 30
0.0
 40
10.10363
100
AcDbArc
 50
270.0
 51
283.729133
  0
ARC
  5
5B9
100
AcDbEntity
  8
2
370
    50
100
AcDbCircle
 10
93.454872
 20
-184.452927
 30
0.0
 40
10.10363
100
AcDbArc
 50
76.270867
 51
90.0
  0
LINE
  5
5BA
100
AcDbEntity
  8
2
370
    50
100
AcDbLine
 10
97.019054
 20
-174.637973
 30
0.0
 11
95.852788
 21
-174.637973
 31
0.0
  0
ARC
  5
5BB
100
AcDbEntity
  8
2
370
    50
100
AcDbCircle
 10
98.218012
 20
-177.615137
 30
0.0
 40
2.634161
100
AcDbArc
 50
242.924933
 51
297.075067
  0
ARC
  5
5BC
100
AcDbEntity
  8
2
370
    50
100
AcDbCircle
 10
98.218012
 20
-176.983458
 30
0.0
 40
2.634161
100
AcDbArc
 50
62.924933
 51
117.075067
  0
LINE
  5
5BD
100
AcDbEntity
  8
2
370
    50
100
AcDbLine
 10
98.954872
 20
-174.349298
 30
0.0
 11
99.454872
 21
-174.637973
 31
0.0
  0
ARC
  5
5BE
100
AcDbEntity
  8
2
370
    50
100
AcDbCircle
 10
93.454872
 20
-170.145668
 30
0.0
 40
10.10363
100
AcDbArc
 50
256.270867
 51
270.0
  0
LINE
  5
5BF
100
AcDbEntity
  8
2
370
    50
100
AcDbLine
 10
89.89069
 20
-179.960623
 30
0.0
 11
91.056956
 21
-179.960623
 31
0.0
  0
LINE
  5
5C0
100
AcDbEntity
  8
2
370
    50
100
AcDbLine
 10
91.056957
 20
-174.637973
 30
0.0
 11
91.056956
 21
-179.960623
 31
0.0
  0
LINE
  5
5C1
100
AcDbEntity
  8
2
370
    50
100
AcDbLine
 10
89.89069
 20
-174.637973
 30
0.0
 11
89.89069
 21
-179.960623
 31
0.0
  0
ARC
  5
5C2
100
AcDbEntity
  8
2
370
    50
100
AcDbCircle
 10
88.691732
 20
-177.615137
 30
0.0
 40
2.634161
100
AcDbArc
 50
242.924933
 51
297.075067
  0
LINE
  5
5C3
100
AcDbEntity
  8
2
370
    50
100
AcDbLine
 10
87.492775
 20
-174.637973
 30
0.0
 11
87.492775
 21
-179.960623
 31
0.0
  0
LINE
  5
5C4
100
AcDbEntity
  8
2
370
    50
100
AcDbLine
 10
86.504872
 20
-180.249298
 30
0.0
 11
100.404872
 21
-180.249298
 31
0.0
  0
LINE
  5
5C5
100
AcDbEntity
  8
2
370
    50
100
AcDbLine
 10
86.504872
 20
-209.249298
 30
0.0
 11
93.454872
 21
-209.249298
 31
0.0
  0
LINE
  5
5C6
100
AcDbEntity
  8
2
370
    50
100
AcDbLine
 10
86.504872
 20
-203.749298
 30
0.0
 11
93.454872
 21
-203.749298
 31
0.0
  0
LINE
  5
5C7
100
AcDbEntity
  8
2
370
    50
100
AcDbLine
 10
86.504872
 20
-201.749298
 30
0.0
 11
93.454872
 21
-201.749298
 31
0.0
  0
LINE
  5
5C8
100
AcDbEntity
  8
2
370
    50
100
AcDbLine
 10
86.504872
 20
-196.749298
 30
0.0
 11
93.454872
 21
-196.749298
 31
0.0
  0
LINE
  5
5C9
100
AcDbEntity
  8
2
370
    50
100
AcDbLine
 10
86.504872
 20
-194.749298
 30
0.0
 11
93.454872
 21
-194.749298
 31
0.0
  0
LINE
  5
5CA
100
AcDbEntity
  8
2
370
    50
100
AcDbLine
 10
86.504872
 20
-189.749298
 30
0.0
 11
93.454872
 21
-189.749298
 31
0.0
  0
LINE
  5
5CB
100
AcDbEntity
  8
2
370
    50
100
AcDbLine
 10
86.504872
 20
-187.749298
 30
0.0
 11
93.454872
 21
-187.749298
 31
0.0
  0
LINE
  5
5CC
100
AcDbEntity
  8
2
370
    50
100
AcDbLine
 10
86.104872
 20
-208.449298
 30
0.0
 11
86.104872
 21
-204.549298
 31
0.0
  0
LINE
  5
5CD
100
AcDbEntity
  8
2
370
    50
100
AcDbLine
 10
86.104872
 20
-200.949298
 30
0.0
 11
86.104872
 21
-197.549298
 31
0.0
  0
LINE
  5
5CE
100
AcDbEntity
  8
2
370
    50
100
AcDbLine
 10
86.104872
 20
-193.949298
 30
0.0
 11
86.104872
 21
-190.549298
 31
0.0
  0
LINE
  5
5CF
100
AcDbEntity
  8
2
370
    50
100
AcDbLine
 10
86.104872
 20
-186.949298
 30
0.0
 11
86.104872
 21
-181.049298
 31
0.0
  0
LINE
  5
5D0
100
AcDbEntity
  8
2
370
    50
100
AcDbLine
 10
86.504872
 20
-189.749298
 30
0.0
 11
86.504872
 21
-187.749298
 31
0.0
  0
LINE
  5
5D1
100
AcDbEntity
  8
2
370
    50
100
AcDbLine
 10
86.504872
 20
-203.749298
 30
0.0
 11
86.504872
 21
-201.749298
 31
0.0
  0
LINE
  5
5D2
100
AcDbEntity
  8
2
370
    50
100
AcDbLine
 10
86.504872
 20
-196.749298
 30
0.0
 11
86.504872
 21
-194.749298
 31
0.0
  0
ARC
  5
5D3
100
AcDbEntity
  8
2
370
    50
100
AcDbCircle
 10
87.104872
 20
-186.949298
 30
0.0
 40
1.0
100
AcDbArc
 50
180.0
 51
233.130102
  0
ARC
  5
5D4
100
AcDbEntity
  8
2
370
    50
100
AcDbCircle
 10
87.104872
 20
-190.549298
 30
0.0
 40
1.0
100
AcDbArc
 50
126.869898
 51
180.0
  0
ARC
  5
5D5
100
AcDbEntity
  8
2
370
    50
100
AcDbCircle
 10
87.104872
 20
-193.949298
 30
0.0
 40
1.0
100
AcDbArc
 50
180.0
 51
233.130102
  0
ARC
  5
5D6
100
AcDbEntity
  8
2
370
    50
100
AcDbCircle
 10
87.104872
 20
-197.549298
 30
0.0
 40
1.0
100
AcDbArc
 50
126.869898
 51
180.0
  0
ARC
  5
5D7
100
AcDbEntity
  8
2
370
    50
100
AcDbCircle
 10
87.104872
 20
-200.949298
 30
0.0
 40
1.0
100
AcDbArc
 50
180.0
 51
233.130102
  0
ARC
  5
5D8
100
AcDbEntity
  8
2
370
    50
100
AcDbCircle
 10
87.104872
 20
-204.549298
 30
0.0
 40
1.0
100
AcDbArc
 50
126.869898
 51
180.0
  0
ARC
  5
5D9
100
AcDbEntity
  8
2
370
    50
100
AcDbCircle
 10
87.104872
 20
-208.449298
 30
0.0
 40
1.0
100
AcDbArc
 50
180.0
 51
233.130102
  0
ARC
  5
5DA
100
AcDbEntity
  8
2
370
    50
100
AcDbCircle
 10
87.104872
 20
-181.049298
 30
0.0
 40
1.0
100
AcDbArc
 50
126.869898
 51
180.0
  0
LINE
  5
5DB
100
AcDbEntity
  8
2
370
    50
100
AcDbLine
 10
100.404872
 20
-209.249298
 30
0.0
 11
93.454872
 21
-209.249298
 31
0.0
  0
ARC
  5
5DC
100
AcDbEntity
  8
2
370
    50
100
AcDbCircle
 10
99.804872
 20
-208.449298
 30
0.0
 40
1.0
100
AcDbArc
 50
306.869898
 51
360.0
  0
LINE
  5
5DD
100
AcDbEntity
  8
2
370
    50
100
AcDbLine
 10
100.804872
 20
-208.449298
 30
0.0
 11
100.804872
 21
-204.549298
 31
0.0
  0
ARC
  5
5DE
100
AcDbEntity
  8
2
370
    50
100
AcDbCircle
 10
99.804872
 20
-204.549298
 30
0.0
 40
1.0
100
AcDbArc
 50
360.0
 51
53.130102
  0
LINE
  5
5DF
100
AcDbEntity
  8
2
370
    50
100
AcDbLine
 10
100.404872
 20
-203.749298
 30
0.0
 11
100.404872
 21
-201.749298
 31
0.0
  0
LINE
  5
5E0
100
AcDbEntity
  8
2
370
    50
100
AcDbLine
 10
100.404872
 20
-203.749298
 30
0.0
 11
93.454872
 21
-203.749298
 31
0.0
  0
LINE
  5
5E1
100
AcDbEntity
  8
2
370
    50
100
AcDbLine
 10
100.404872
 20
-201.749298
 30
0.0
 11
93.454872
 21
-201.749298
 31
0.0
  0
ARC
  5
5E2
100
AcDbEntity
  8
2
370
    50
100
AcDbCircle
 10
99.804872
 20
-200.949298
 30
0.0
 40
1.0
100
AcDbArc
 50
306.869898
 51
360.0
  0
LINE
  5
5E3
100
AcDbEntity
  8
2
370
    50
100
AcDbLine
 10
100.804872
 20
-200.949298
 30
0.0
 11
100.804872
 21
-197.549298
 31
0.0
  0
ARC
  5
5E4
100
AcDbEntity
  8
2
370
    50
100
AcDbCircle
 10
99.804872
 20
-197.549298
 30
0.0
 40
1.0
100
AcDbArc
 50
360.0
 51
53.130102
  0
LINE
  5
5E5
100
AcDbEntity
  8
2
370
    50
100
AcDbLine
 10
100.404872
 20
-196.749298
 30
0.0
 11
93.454872
 21
-196.749298
 31
0.0
  0
LINE
  5
5E6
100
AcDbEntity
  8
2
370
    50
100
AcDbLine
 10
100.404872
 20
-196.749298
 30
0.0
 11
100.404872
 21
-194.749298
 31
0.0
  0
LINE
  5
5E7
100
AcDbEntity
  8
2
370
    50
100
AcDbLine
 10
100.404872
 20
-194.749298
 30
0.0
 11
93.454872
 21
-194.749298
 31
0.0
  0
ARC
  5
5E8
100
AcDbEntity
  8
2
370
    50
100
AcDbCircle
 10
99.804872
 20
-193.949298
 30
0.0
 40
1.0
100
AcDbArc
 50
306.869898
 51
360.0
  0
ARC
  5
5E9
100
AcDbEntity
  8
2
370
    50
100
AcDbCircle
 10
99.804872
 20
-193.949298
 30
0.0
 40
1.0
100
AcDbArc
 50
306.869898
 51
360.0
  0
LINE
  5
5EA
100
AcDbEntity
  8
2
370
    50
100
AcDbLine
 10
100.804872
 20
-193.949298
 30
0.0
 11
100.804872
 21
-190.549298
 31
0.0
  0
ARC
  5
5EB
100
AcDbEntity
  8
2
370
    50
100
AcDbCircle
 10
99.804872
 20
-190.549298
 30
0.0
 40
1.0
100
AcDbArc
 50
360.0
 51
53.130102
  0
LINE
  5
5EC
100
AcDbEntity
  8
2
370
    50
100
AcDbLine
 10
100.404872
 20
-189.749298
 30
0.0
 11
93.454872
 21
-189.749298
 31
0.0
  0
LINE
  5
5ED
100
AcDbEntity
  8
2
370
    50
100
AcDbLine
 10
100.404872
 20
-189.749298
 30
0.0
 11
100.404872
 21
-187.749298
 31
0.0
  0
LINE
  5
5EE
100
AcDbEntity
  8
2
370
    50
100
AcDbLine
 10
100.404872
 20
-187.749298
 30
0.0
 11
93.454872
 21
-187.749298
 31
0.0
  0
ARC
  5
5EF
100
AcDbEntity
  8
2
370
    50
100
AcDbCircle
 10
99.804872
 20
-186.949298
 30
0.0
 40
1.0
100
AcDbArc
 50
306.869898
 51
360.0
  0
LINE
  5
5F0
100
AcDbEntity
  8
2
370
    50
100
AcDbLine
 10
100.804872
 20
-186.949298
 30
0.0
 11
100.804872
 21
-181.049298
 31
0.0
  0
ARC
  5
5F1
100
AcDbEntity
  8
2
370
    50
100
AcDbCircle
 10
99.804872
 20
-181.049298
 30
0.0
 40
1.0
100
AcDbArc
 50
360.0
 51
53.130102
  0
LINE
  5
5F2
100
AcDbEntity
  8
2
370
    50
100
AcDbLine
 10
86.604872
 20
-225.487634
 30
0.0
 11
86.604872
 21
-209.249298
 31
0.0
  0
LINE
  5
5F3
100
AcDbEntity
  8
2
370
    50
100
AcDbLine
 10
100.304872
 20
-225.501314
 30
0.0
 11
100.304872
 21
-209.249298
 31
0.0
  0
ARC
  5
5F4
100
AcDbEntity
  8
2
370
    50
100
AcDbCircle
 10
93.454872
 20
-184.452927
 30
0.0
 40
10.10363
100
AcDbArc
 50
90.0
 51
103.729133
  0
LINE
  5
5F5
100
AcDbEntity
  8
2
370
    50
100
AcDbLine
 10
89.89069
 20
-174.637973
 30
0.0
 11
91.056956
 21
-174.637973
 31
0.0
  0
ARC
  5
5F6
100
AcDbEntity
  8
2
370
    50
100
AcDbCircle
 10
88.691732
 20
-176.983458
 30
0.0
 40
2.634161
100
AcDbArc
 50
62.924933
 51
117.075067
  0
ARC
  5
5F7
100
AcDbEntity
  8
2
370
    50
100
AcDbCircle
 10
90.029872
 20
-220.8582
 30
0.0
 40
5.708333
100
AcDbArc
 50
233.130102
 51
306.869898
  0
ARC
  5
5F8
100
AcDbEntity
  8
2
370
    50
100
AcDbCircle
 10
96.879872
 20
-229.991534
 30
0.0
 40
5.708333
100
AcDbArc
 50
53.130102
 51
126.869898
  0
ARC
  5
5F9
100
AcDbEntity
  8
2
370
    50
100
AcDbCircle
 10
96.879872
 20
-220.8582
 30
0.0
 40
5.708333
100
AcDbArc
 50
233.130102
 51
306.869898
  0
TEXT
  5
5FA
100
AcDbEntity
  8
3
370
    50
100
AcDbText
 10
-406.802292
 20
-93.373907
 30
0.0
 40
10.5
  1
取付穴径　φ３７±１
 50
90.0
 72
     5
 11
-406.802292
 21
9.526093
 31
0.0
100
AcDbText
  0
LINE
  5
5FB
100
AcDbEntity
  8
3
370
    50
100
AcDbLine
 10
115.454872
 20
66.278528
 30
0.0
 11
115.454872
 21
62.278528
 31
0.0
  0
TEXT
  5
5FC
100
AcDbEntity
  8
3
370
    50
100
AcDbText
 10
343.996307
 20
-408.501572
 30
0.0
 40
10.5
  1
外観寸法図
 72
     5
 11
394.396307
 21
-408.501572
 31
0.0
100
AcDbText
  0
TEXT
  5
5FD
100
AcDbEntity
  8
3
370
    50
100
AcDbText
 10
433.673767
 20
-359.558281
 30
0.0
 40
10.5
  1
１
 72
     5
 11
442.073767
 21
-359.558281
 31
0.0
100
AcDbText
  0
DIMENSION
  5
5FE
100
AcDbEntity
  8
3
370
    25
100
AcDbDimension
  2
*D0
 10
-12.517156
 20
94.607055
 30
0.0
 11
-3.704009
 21
57.424379
 31
0.0
 70
     2
 71
     0
 72
     0
 41
0.0
 42
0.0
  3
Standard
100
AcDb2LineAngularDimension
 13
-12.519272
 23
94.607826
 33
0.0
 14
-12.517156
 24
94.610348
 34
0.0
 15
-12.517156
 25
94.610348
 35
0.0
 16
-23.779574
 26
63.667109
 36
0.0
1001
ACAD
1000
DSTYLE
1002
{
1070
   275
1070
     0
1070
   179
1070
     0
1002
}
  0
DIMENSION
  5
5FF
100
AcDbEntity
  8
3
370
    25
100
AcDbDimension
  2
*D1
 10
-331.953258
 20
-82.12393
 30
0.0
 11
-304.203258
 21
-75.37393
 31
0.0
 70
     1
 71
     0
 72
     0
 41
0.0
 42
0.0
  3
Standard
100
AcDbAlignedDimension
 13
-379.953258
 23
-102.349298
 33
0.0
 14
-331.953258
 24
-102.349298
 34
0.0
  0
LINE
  5
600
100
AcDbEntity
  8
3
370
    25
100
AcDbLine
 10
-386.541258
 20
-123.849298
 30
0.0
 11
-422.71006
 21
-123.849298
 31
0.0
  0
LINE
  5
601
100
AcDbEntity
  8
3
370
    25
100
AcDbLine
 10
-419.71006
 20
-123.849298
 30
0.0
 11
-421.262974
 21
-129.644853
 31
0.0
  0
LINE
  5
602
100
AcDbEntity
  8
3
370
    25
100
AcDbLine
 10
-419.71006
 20
-123.849298
 30
0.0
 11
-418.157146
 21
-129.644853
 31
0.0
  0
LINE
  5
603
100
AcDbEntity
  8
3
370
    25
100
AcDbLine
 10
-421.262974
 20
-129.644853
 30
0.0
 11
-418.157146
 21
-129.644853
 31
0.0
  0
LINE
  5
604
100
AcDbEntity
  8
3
370
    25
100
AcDbLine
 10
-419.71006
 20
-138.849298
 30
0.0
 11
-419.71006
 21
8.822823
 31
0.0
  0
LINE
  5
605
100
AcDbEntity
  8
3
370
    25
100
AcDbLine
 10
-419.71006
 20
-105.849298
 30
0.0
 11
-418.157146
 21
-100.053743
 31
0.0
  0
LINE
  5
606
100
AcDbEntity
  8
3
370
    25
100
AcDbLine
 10
-419.71006
 20
-105.849298
 30
0.0
 11
-421.262974
 21
-100.053743
 31
0.0
  0
LINE
  5
607
100
AcDbEntity
  8
3
370
    25
100
AcDbLine
 10
-418.157146
 20
-100.053743
 30
0.0
 11
-421.262974
 21
-100.053743
 31
0.0
  0
LINE
  5
608
100
AcDbEntity
  8
3
370
    25
100
AcDbLine
 10
-382.453258
 20
-105.849298
 30
0.0
 11
-422.71006
 21
-105.849298
 31
0.0
  0
TEXT
  5
609
100
AcDbEntity
  8
3
370
    50
100
AcDbText
 10
-421.21006
 20
-93.849298
 30
0.0
 40
10.5
  1
０～２５
 50
90.0
 72
     5
 11
-421.21006
 21
-53.949298
 31
0.0
100
AcDbText
  0
TEXT
  5
60A
100
AcDbEntity
  8
3
370
    50
100
AcDbText
 10
-307.957451
 20
-150.516918
 30
0.0
 40
10.5
  1
４６六角
 72
     5
 11
-268.057451
 21
-150.516918
 31
0.0
100
AcDbText
  0
LWPOLYLINE
  5
60B
100
AcDbEntity
  8
3
370
    25
100
AcDbPolyline
 90
        3
 70
     0
 10
-330.893402
 20
-133.70137
 10
-306.74614
 20
-151.484264
 10
-265.60051
 20
-151.484264
  0
LINE
  5
610
100
AcDbEntity
  8
3
370
    25
100
AcDbLine
 10
-326.22675
 20
-137.138057
 30
0.0
 11
-325.305893
 21
-135.887631
 31
0.0
  0
LINE
  5
611
100
AcDbEntity
  8
3
370
    25
100
AcDbLine
 10
-325.305893
 20
-135.887631
 30
0.0
 11
-330.893402
 21
-133.70137
 31
0.0
  0
LINE
  5
612
100
AcDbEntity
  8
3
370
    25
100
AcDbLine
 10
-330.893402
 20
-133.70137
 30
0.0
 11
-327.147608
 21
-138.388483
 31
0.0
  0
LINE
  5
613
100
AcDbEntity
  8
3
370
    25
100
AcDbLine
 10
-327.147608
 20
-138.388483
 30
0.0
 11
-326.22675
 21
-137.138057
 31
0.0
  0
LINE
  5
614
100
AcDbEntity
  8
3
370
    25
  6
CENTER
100
AcDbLine
 10
97.954872
 20
-142.785699
 30
0.0
 11
97.954872
 21
197.546677
 31
0.0
  0
TEXT
  5
615
100
AcDbEntity
  8
3
370
    50
100
AcDbText
 10
26.968858
 20
-153.182636
 30
0.0
 40
10.5
  1
１１０
 72
     5
 11
56.368858
 21
-153.182636
 31
0.0
100
AcDbText
  0
DIMENSION
  5
616
100
AcDbEntity
  8
3
370
    25
100
AcDbDimension
  2
*D2
 10
97.954872
 20
-154.682636
 30
0.0
 11
42.718858
 21
-152.682636
 31
0.0
 71
     0
 72
     0
 41
0.0
 42
0.0
  3
Standard
100
AcDbAlignedDimension
 13
-12.517156
 23
94.610348
 33
0.0
 14
97.954872
 24
-94.295053
 34
0.0
100
AcDbRotatedDimension
  0
TEXT
  5
617
100
AcDbEntity
  8
3
370
    50
100
AcDbText
 10
-48.292437
 20
-21.369475
 30
0.0
 40
10.5
  1
２００
 50
90.0
 72
     5
 11
-48.292437
 21
8.030525
 31
0.0
100
AcDbText
  0
DIMENSION
  5
618
100
AcDbEntity
  8
3
370
    25
100
AcDbDimension
  2
*D3
 10
-46.792437
 20
94.610348
 30
0.0
 11
-49.292437
 21
-5.619475
 31
0.0
 71
     0
 72
     0
 41
0.0
 42
0.0
  3
Standard
100
AcDbAlignedDimension
 13
74.454872
 23
-105.849298
 33
0.0
 14
-12.517156
 24
94.610348
 34
0.0
 50
90.0
100
AcDbRotatedDimension
  0
TEXT
  5
619
100
AcDbEntity
  8
3
370
    50
100
AcDbText
 10
456.286835
 20
-359.769493
 30
0.0
 40
10.5
  1
３
 72
     5
 11
464.686835
 21
-359.769493
 31
0.0
100
AcDbText
  0
DIMENSION
  5
61A
100
AcDbEntity
  8
3
370
    25
100
AcDbDimension
  2
*D4
 10
115.454872
 20
152.028477
 30
0.0
 11
143.204872
 21
158.778477
 31
0.0
 70
     1
 71
     0
 72
     0
 41
0.0
 42
0.0
  3
Standard
100
AcDbAlignedDimension
 13
80.454872
 23
152.028477
 33
0.0
 14
115.454872
 24
152.028477
 34
0.0
  0
TEXT
  5
61B
100
AcDbEntity
  8
3
370
    50
100
AcDbText
 10
97.327068
 20
-343.255119
 30
0.0
 40
10.5
  1
台付シングルレバー湯水混合水栓（共）
 72
     5
 11
284.227068
 21
-343.255119
 31
0.0
100
AcDbText
  0
TEXT
  5
61C
100
AcDbEntity
  8
3
370
    50
100
AcDbText
 10
-274.512577
 20
-336.816865
 30
0.0
 40
10.5
  1
Ｇ１/２
 72
     5
 11
-239.862577
 21
-336.816865
 31
0.0
100
AcDbText
  0
LWPOLYLINE
  5
61D
100
AcDbEntity
  8
3
370
    25
100
AcDbPolyline
 90
        3
 70
     0
 10
-283.947575
 20
-324.245601
 10
-275.212399
 20
-337.764436
 10
-237.459892
 20
-337.764436
  0
LINE
  5
622
100
AcDbEntity
  8
3
370
    25
100
AcDbLine
 10
-280.802256
 20
-329.113396
 30
0.0
 11
-279.497934
 21
-328.27061
 31
0.0
  0
LINE
  5
623
100
AcDbEntity
  8
3
370
    25
100
AcDbLine
 10
-279.497934
 20
-328.27061
 30
0.0
 11
-283.947575
 21
-324.245601
 31
0.0
  0
LINE
  5
624
100
AcDbEntity
  8
3
370
    25
100
AcDbLine
 10
-283.947575
 20
-324.245601
 30
0.0
 11
-282.106578
 21
-329.956181
 31
0.0
  0
LINE
  5
625
100
AcDbEntity
  8
3
370
    25
100
AcDbLine
 10
-282.106578
 20
-329.956181
 30
0.0
 11
-280.802256
 21
-329.113396
 31
0.0
  0
TEXT
  5
626
100
AcDbEntity
  8
3
370
    50
100
AcDbText
 10
-357.295721
 20
-324.416436
 30
0.0
 40
10.5
  1
２６六角
 72
     5
 11
-317.395721
 21
-324.416436
 31
0.0
100
AcDbText
  0
LWPOLYLINE
  5
627
100
AcDbEntity
  8
3
370
    25
100
AcDbPolyline
 90
        3
 70
     0
 10
-307.121617
 20
-316.969255
 10
-315.063015
 20
-324.605287
 10
-355.707962
 20
-324.605287
  0
LINE
  5
62C
100
AcDbEntity
  8
3
370
    25
100
AcDbLine
 10
-311.299225
 20
-320.986224
 30
0.0
 11
-310.222882
 21
-322.105611
 31
0.0
  0
LINE
  5
62D
100
AcDbEntity
  8
3
370
    25
100
AcDbLine
 10
-310.222882
 20
-322.105611
 30
0.0
 11
-307.121617
 21
-316.969255
 31
0.0
  0
LINE
  5
62E
100
AcDbEntity
  8
3
370
    25
100
AcDbLine
 10
-307.121617
 20
-316.969255
 30
0.0
 11
-312.375569
 21
-319.866837
 31
0.0
  0
LINE
  5
62F
100
AcDbEntity
  8
3
370
    25
100
AcDbLine
 10
-312.375569
 20
-319.866837
 30
0.0
 11
-311.299225
 21
-320.986224
 31
0.0
  0
TEXT
  5
630
100
AcDbEntity
  8
3
370
    50
100
AcDbText
 10
-170.068382
 20
-264.047449
 30
0.0
 40
10.5
  1
３５６（水側、湯側）
 50
90.0
 72
     5
 11
-170.068382
 21
-161.147449
 31
0.0
100
AcDbText
  0
DIMENSION
  5
631
100
AcDbEntity
  8
3
370
    25
100
AcDbDimension
  2
*D5
 10
-168.568382
 20
-105.849298
 30
0.0
 11
-171.068382
 21
-211.547449
 31
0.0
 71
     0
 72
     0
 41
0.0
 42
0.0
  3
Standard
100
AcDbAlignedDimension
 13
-293.265416
 23
-317.245601
 33
0.0
 14
-332.453258
 24
-105.849298
 34
0.0
 50
90.0
100
AcDbRotatedDimension
  0
TEXT
  5
632
100
AcDbEntity
  8
3
370
    50
100
AcDbText
 10
-4.646425
 20
324.499761
 30
0.0
 40
10.5
  1
ハンドル回転角度
 50
90.0
 72
     5
 11
-4.646425
 21
406.399761
 31
0.0
100
AcDbText
  0
POINT
  5
633
100
AcDbEntity
  8
3
370
    50
100
AcDbPoint
 10
97.954872
 20
-67.00862
 30
0.0
  0
POINT
  5
634
100
AcDbEntity
  8
3
370
    50
100
AcDbPoint
 10
97.954872
 20
-67.00862
 30
0.0
  0
TEXT
  5
635
100
AcDbEntity
  8
3
370
    50
100
AcDbText
 10
514.778091
 20
-383.787231
 30
0.0
 40
10.5
  1
１９　１０　１
 72
     5
 11
586.178091
 21
-383.787231
 31
0.0
100
AcDbText
  0
POINT
  5
636
100
AcDbEntity
  8
3
370
    50
100
AcDbPoint
 10
-355.953258
 20
168.150702
 30
0.0
  0
POINT
  5
637
100
AcDbEntity
  8
3
370
    50
100
AcDbPoint
 10
97.954872
 20
168.150702
 30
0.0
  0
POINT
  5
638
100
AcDbEntity
  8
3
370
    50
100
AcDbPoint
 10
332.621063
 20
168.150702
 30
0.0
  0
TEXT
  5
639
100
AcDbEntity
  8
3
370
    50
100
AcDbText
 10
114.705189
 20
331.900618
 30
0.0
 40
10.5
  1
湯表示
 72
     5
 11
144.105189
 21
331.900618
 31
0.0
100
AcDbText
  0
LWPOLYLINE
  5
63A
100
AcDbEntity
  8
3
370
    25
100
AcDbPolyline
 90
        2
 70
     0
 10
102.171635
 20
321.063094
 10
113.6684
 20
334.707808
  0
LINE
  5
63E
100
AcDbEntity
  8
3
370
    25
100
AcDbLine
 10
105.90599
 20
325.495141
 30
0.0
 11
104.718426
 21
326.495759
 31
0.0
  0
LINE
  5
63F
100
AcDbEntity
  8
3
370
    25
100
AcDbLine
 10
104.718426
 20
326.495759
 30
0.0
 11
102.171635
 21
321.063094
 31
0.0
  0
LINE
  5
640
100
AcDbEntity
  8
3
370
    25
100
AcDbLine
 10
102.171635
 20
321.063094
 30
0.0
 11
107.093554
 21
324.494524
 31
0.0
  0
LINE
  5
641
100
AcDbEntity
  8
3
370
    25
100
AcDbLine
 10
107.093554
 20
324.494524
 30
0.0
 11
105.90599
 21
325.495141
 31
0.0
  0
TEXT
  5
642
100
AcDbEntity
  8
3
370
    50
100
AcDbText
 10
116.325115
 20
274.772353
 30
0.0
 40
10.5
  1
水表示
 72
     5
 11
145.725115
 21
274.772353
 31
0.0
100
AcDbText
  0
LWPOLYLINE
  5
643
100
AcDbEntity
  8
3
370
    25
100
AcDbPolyline
 90
        2
 70
     0
 10
102.890148
 20
293.568373
 10
114.900143
 20
278.076964
  0
LINE
  5
647
100
AcDbEntity
  8
3
370
    25
100
AcDbLine
 10
106.441108
 20
288.988074
 30
0.0
 11
107.668395
 21
289.939551
 31
0.0
  0
LINE
  5
648
100
AcDbEntity
  8
3
370
    25
100
AcDbLine
 10
107.668395
 20
289.939551
 30
0.0
 11
102.890148
 21
293.568373
 31
0.0
  0
LINE
  5
649
100
AcDbEntity
  8
3
370
    25
100
AcDbLine
 10
102.890148
 20
293.568373
 30
0.0
 11
105.21382
 21
288.036597
 31
0.0
  0
LINE
  5
64A
100
AcDbEntity
  8
3
370
    25
100
AcDbLine
 10
105.21382
 20
288.036597
 30
0.0
 11
106.441108
 21
288.988074
 31
0.0
  0
DIMENSION
  5
64B
100
AcDbEntity
  8
3
370
    25
100
AcDbDimension
  2
*D6
 10
37.91651
 20
307.251082
 30
0.0
 11
31.497219
 21
369.869138
 31
0.0
 70
     2
 71
     0
 72
     0
 41
0.0
 42
0.0
  3
Standard
100
AcDb2LineAngularDimension
 13
68.687772
 23
357.943187
 33
0.0
 14
97.954872
 24
307.251082
 34
0.0
 15
97.954872
 25
307.251082
 35
0.0
 16
20.997219
 26
351.682604
 36
0.0
1001
ACAD
1000
DSTYLE
1002
{
1070
   275
1070
     0
1070
   179
1070
     0
1002
}
  0
DIMENSION
  5
64C
100
AcDbEntity
  8
3
370
    25
100
AcDbDimension
  2
*D7
 10
41.570897
 20
286.728993
 30
0.0
 11
15.055654
 21
271.309754
 31
0.0
 70
     2
 71
     0
 72
     0
 41
0.0
 42
0.0
  3
Standard
100
AcDb2LineAngularDimension
 13
9.073934
 23
307.251082
 33
0.0
 14
97.954872
 24
307.251082
 34
0.0
 15
97.954872
 25
307.251082
 35
0.0
 16
10.424235
 26
291.817069
 36
0.0
1001
ACAD
1000
DSTYLE
1002
{
1070
   275
1070
     0
1070
   179
1070
     0
1002
}
  0
TEXT
  5
64D
100
AcDbEntity
  8
3
370
    50
100
AcDbText
 10
22.579018
 20
195.510665
 30
0.0
 40
10.5
  1
止水
 72
     5
 11
41.479018
 21
195.510665
 31
0.0
100
AcDbText
  0
TEXT
  5
64E
100
AcDbEntity
  8
3
370
    50
100
AcDbText
 10
57.906853
 20
237.743002
 30
0.0
 40
10.5
  1
吐水
 72
     5
 11
76.806853
 21
237.743002
 31
0.0
100
AcDbText
  0
DIMENSION
  5
64F
100
AcDbEntity
  8
3
370
    25
100
AcDbDimension
  2
*D8
 10
64.184202
 20
206.138188
 30
0.0
 11
27.087396
 21
258.078098
 31
0.0
 70
     2
 71
     0
 72
     0
 41
0.0
 42
0.0
  3
Standard
100
AcDb2LineAngularDimension
 13
97.119339
 23
203.434577
 33
0.0
 14
110.083641
 24
193.542009
 34
0.0
 15
110.083641
 25
193.542009
 35
0.0
 16
18.663961
 26
238.81555
 36
0.0
1001
ACAD
1000
DSTYLE
1002
{
1070
   275
1070
     0
1070
   179
1070
     0
1002
}
  0
DIMENSION
  5
650
100
AcDbEntity
  8
3
370
    25
100
AcDbDimension
  2
*D9
 10
122.796541
 20
214.524237
 30
0.0
 11
113.875707
 21
220.774237
 31
0.0
 71
     0
 72
     0
 41
0.0
 42
0.0
  3
Standard
100
AcDbAlignedDimension
 13
97.954872
 23
201.018508
 33
0.0
 14
122.796541
 24
183.820316
 34
0.0
100
AcDbRotatedDimension
  0
DIMENSION
  5
651
100
AcDbEntity
  8
3
370
    25
100
AcDbDimension
  2
*D10
 10
-107.640553
 20
238.850805
 30
0.0
 11
-124.890553
 21
61.250754
 31
0.0
 71
     0
 72
     0
 41
0.0
 42
0.0
  3
Standard
100
AcDbAlignedDimension
 13
74.454872
 23
-105.849298
 33
0.0
 14
50.658512
 24
238.850805
 34
0.0
 50
90.0
100
AcDbRotatedDimension
  0
DIMENSION
  5
652
100
AcDbEntity
  8
3
370
    25
100
AcDbDimension
  2
*D11
 10
-77.484833
 20
216.050702
 30
0.0
 11
-94.734833
 21
49.850702
 31
0.0
 71
     0
 72
     0
 41
0.0
 42
0.0
  3
Standard
100
AcDbAlignedDimension
 13
74.454872
 23
-105.849298
 33
0.0
 14
27.954872
 24
216.050702
 34
0.0
 50
90.0
100
AcDbRotatedDimension
  0
TEXT
  5
653
100
AcDbEntity
  8
3
370
    50
100
AcDbText
 10
484.65303
 20
-409.468369
 30
0.0
 40
15.75
  1
１１０２３５
 72
     5
 11
576.00303
 21
-409.468369
 31
0.0
100
AcDbText
  0
TEXT
  5
654
100
AcDbEntity
  8
3
370
    50
100
AcDbText
 10
97.327068
 20
-355.255119
 30
0.0
 40
10.5
  1
ＭＬＺ５５２４ＬＭＭＥ
 72
     5
 11
210.727068
 21
-355.255119
 31
0.0
100
AcDbText
  0
POINT
  5
655
100
AcDbEntity
  8
3
370
    50
100
AcDbPoint
 10
-293.265416
 20
-289.246349
 30
0.0
  0
POINT
  5
656
100
AcDbEntity
  8
3
370
    50
100
AcDbPoint
 10
-418.641101
 20
-286.054124
 30
0.0
  0
POINT
  5
657
100
AcDbEntity
  8
3
370
    50
100
AcDbPoint
 10
-347.953259
 20
-174.349298
 30
0.0
  0
POINT
  5
658
100
AcDbEntity
  8
3
370
    50
100
AcDbPoint
 10
93.454872
 20
-174.349298
 30
0.0
  0
ENDSEC
  0
SECTION
  2
OBJECTS
  0
DICTIONARY
  5
6E3
100
AcDbDictionary
280
     0
281
     1
  3
ACAD_GROUP
350
6E4
  3
ACAD_MLINESTYLE
350
6E5
  0
DICTIONARY
  5
6E4
102
{ACAD_REACTORS
330
6E3
102
}
100
AcDbDictionary
280
     0
281
     1
  0
DICTIONARY
  5
6E5
102
{ACAD_REACTORS
330
6E3
102
}
100
AcDbDictionary
280
     0
281
     1
  3
Standard
350
6E6
  0
MLINESTYLE
  5
6E6
102
{ACAD_REACTORS
330
6E5
102
}
100
AcDbMlineStyle
  2
Standard
 70
     0
  3

 62
     0
 51
90.0
 52
90.0
 71
     2
 49
0.5
 62
   256
  6
ByLayer
 49
-0.5
 62
   256
  6
ByLayer
  0
ENDSEC
  0
EOF
