  0
SECTION
  2
HEADER
  9
$ACADVER
  1
AC1015
  9
$ACADMAINTVER
 70
     6
  9
$DWGCODEPAGE
  3
ANSI_932
  9
$INSBASE
 10
0.0
 20
0.0
 30
0.0
  9
$EXTMIN
 10
-1261.5
 20
-891.0
 30
1.000000E+20
  9
$EXTMAX
 10
1261.5
 20
891.0
 30
-1.000000E+20
  9
$LIMMIN
 10
-1261.5
 20
-891.0
  9
$LIMMAX
 10
1261.5
 20
891.0
  9
$ORTHOMODE
 70
     0
  9
$REGENMODE
 70
     1
  9
$FILLMODE
 70
     1
  9
$QTEXTMODE
 70
     0
  9
$MIRRTEXT
 70
     1
  9
$LTSCALE
 40
1.0
  9
$ATTMODE
 70
     1
  9
$TEXTSIZE
 40
0.2
  9
$TRACEWID
 40
0.05
  9
$TEXTSTYLE
  7
STANDARD
  9
$CLAYER
  8
0
  9
$CELTYPE
  6
CONTINUOUS
  9
$CECOLOR
 62
   256
  9
$CELTSCALE
 40
1.0
  9
$DISPSILH
 70
     0
  9
$DIMSCALE
 40
3.0
  9
$DIMASZ
 40
2.0
  9
$DIMEXO
 40
1.0
  9
$DIMDLI
 40
0.38
  9
$DIMRND
 40
0.0
  9
$DIMDLE
 40
0.0
  9
$DIMEXE
 40
2.0
  9
$DIMTP
 40
0.0
  9
$DIMTM
 40
0.0
  9
$DIMTXT
 40
3.5
  9
$DIMCEN
 40
0.09
  9
$DIMTSZ
 40
0.0
  9
$DIMTOL
 70
     0
  9
$DIMLIM
 70
     0
  9
$DIMTIH
 70
     0
  9
$DIMTOH
 70
     0
  9
$DIMSE1
 70
     0
  9
$DIMSE2
 70
     0
  9
$DIMTAD
 70
     1
  9
$DIMZIN
 70
     0
  9
$DIMBLK
  1

  9
$DIMASO
 70
     1
  9
$DIMSHO
 70
     1
  9
$DIMPOST
  1

  9
$DIMAPOST
  1

  9
$DIMALT
 70
     0
  9
$DIMALTD
 70
     2
  9
$DIMALTF
 40
25.4
  9
$DIMLFAC
 40
1.0
  9
$DIMTOFL
 70
     0
  9
$DIMTVP
 40
0.0
  9
$DIMTIX
 70
     0
  9
$DIMSOXD
 70
     0
  9
$DIMSAH
 70
     0
  9
$DIMBLK1
  1

  9
$DIMBLK2
  1

  9
$DIMSTYLE
  2
Standard
  9
$DIMCLRD
 70
     0
  9
$DIMCLRE
 70
     0
  9
$DIMCLRT
 70
     0
  9
$DIMTFAC
 40
1.0
  9
$DIMGAP
 40
0.5
  9
$DIMJUST
 70
     0
  9
$DIMSD1
 70
     0
  9
$DIMSD2
 70
     0
  9
$DIMTOLJ
 70
     1
  9
$DIMTZIN
 70
     0
  9
$DIMALTZ
 70
     0
  9
$DIMALTTZ
 70
     0
  9
$DIMUPT
 70
     0
  9
$DIMDEC
 70
     3
  9
$DIMTDEC
 70
     4
  9
$DIMALTU
 70
     2
  9
$DIMALTTD
 70
     2
  9
$DIMTXSTY
  7
STANDARD
  9
$DIMAUNIT
 70
     0
  9
$DIMADEC
 70
     0
  9
$DIMALTRND
 40
0.0
  9
$DIMAZIN
 70
     0
  9
$DIMDSEP
 70
     0
  9
$DIMATFIT
 70
     3
  9
$DIMFRAC
 70
     0
  9
$DIMLDRBLK
  1

  9
$DIMLUNIT
 70
     2
  9
$DIMLWD
 70
     0
  9
$DIMLWE
 70
     0
  9
$DIMTMOVE
 70
     0
  9
$LUNITS
 70
     2
  9
$LUPREC
 70
     4
  9
$SKETCHINC
 40
0.1
  9
$FILLETRAD
 40
0.0
  9
$AUNITS
 70
     0
  9
$AUPREC
 70
     0
  9
$MENU
  1
acad
  9
$ELEVATION
 40
0.0
  9
$PELEVATION
 40
0.0
  9
$THICKNESS
 40
0.0
  9
$LIMCHECK
 70
     0
  9
$CHAMFERA
 40
0.0
  9
$CHAMFERB
 40
0.0
  9
$CHAMFERC
 40
0.0
  9
$CHAMFERD
 40
0.0
  9
$SKPOLY
 70
     0
  9
$TDCREATE
 40
2454497.000000000
  9
$TDUCREATE
 40
0.000000000
  9
$TDUPDATE
 40
0.000000000
  9
$TDUUPDATE
 40
2447892.625000000
  9
$TDINDWG
 40
0.0000000000
  9
$TDUSRTIMER
 40
0.0000000000
  9
$USRTIMER
 70
     1
  9
$ANGBASE
 50
0.0
  9
$ANGDIR
 70
     0
  9
$PDMODE
 70
     0
  9
$PDSIZE
 40
0.0
  9
$PLINEWID
 40
0.0
  9
$SPLFRAME
 70
     0
  9
$SPLINETYPE
 70
     6
  9
$SPLINESEGS
 70
     8
  9
$HANDSEED
  5
843
  9
$SURFTAB1
 70
     6
  9
$SURFTAB2
 70
     6
  9
$SURFTYPE
 70
     6
  9
$SURFU
 70
     6
  9
$SURFV
 70
     6
  9
$UCSBASE
  2

  9
$UCSNAME
  2

  9
$UCSORG
 10
0.0
 20
0.0
 30
0.0
  9
$UCSXDIR
 10
1.0
 20
0.0
 30
0.0
  9
$UCSYDIR
 10
0.0
 20
1.0
 30
0.0
  9
$UCSORTHOREF
  2

  9
$UCSORTHOVIEW
 70
     0
  9
$UCSORGTOP
 10
0.0
 20
0.0
 30
0.0
  9
$UCSORGBOTTOM
 10
0.0
 20
0.0
 30
0.0
  9
$UCSORGLEFT
 10
0.0
 20
0.0
 30
0.0
  9
$UCSORGRIGHT
 10
0.0
 20
0.0
 30
0.0
  9
$UCSORGFRONT
 10
0.0
 20
0.0
 30
0.0
  9
$UCSORGBACK
 10
0.0
 20
0.0
 30
0.0
  9
$PUCSBASE
  2

  9
$PUCSNAME
  2

  9
$PUCSORG
 10
0.0
 20
0.0
 30
0.0
  9
$PUCSXDIR
 10
1.0
 20
0.0
 30
0.0
  9
$PUCSYDIR
 10
0.0
 20
1.0
 30
0.0
  9
$PUCSORTHOREF
  2

  9
$PUCSORTHOVIEW
 70
     0
  9
$PUCSORGTOP
 10
0.0
 20
0.0
 30
0.0
  9
$PUCSORGBOTTOM
 10
0.0
 20
0.0
 30
0.0
  9
$PUCSORGLEFT
 10
0.0
 20
0.0
 30
0.0
  9
$PUCSORGRIGHT
 10
0.0
 20
0.0
 30
0.0
  9
$PUCSORGFRONT
 10
0.0
 20
0.0
 30
0.0
  9
$PUCSORGBACK
 10
0.0
 20
0.0
 30
0.0
  9
$USERI1
 70
     0
  9
$USERI2
 70
     0
  9
$USERI3
 70
     0
  9
$USERI4
 70
     0
  9
$USERI5
 70
     0
  9
$USERR1
 40
0.0
  9
$USERR2
 40
0.0
  9
$USERR3
 40
0.0
  9
$USERR4
 40
0.0
  9
$USERR5
 40
0.0
  9
$WORLDVIEW
 70
     1
  9
$SHADEDGE
 70
     3
  9
$SHADEDIF
 70
    70
  9
$TILEMODE
 70
     1
  9
$MAXACTVP
 70
    16
  9
$PINSBASE
 10
0.0
 20
0.0
 30
0.0
  9
$PLIMCHECK
 70
     0
  9
$PEXTMIN
 10
1.000000E+20
 20
1.000000E+20
 30
1.000000E+20
  9
$PEXTMAX
 10
-1.000000E+20
 20
-1.000000E+20
 30
-1.000000E+20
  9
$PLIMMIN
 10
0.0
 20
0.0
  9
$PLIMMAX
 10
12.0
 20
9.0
  9
$UNITMODE
 70
     0
  9
$VISRETAIN
 70
     0
  9
$PLINEGEN
 70
     1
  9
$PSLTSCALE
 70
     0
  9
$TREEDEPTH
 70
  3020
  9
$CMLSTYLE
  2
Standard
  9
$CMLJUST
 70
     0
  9
$CMLSCALE
 40
1.0
  9
$PROXYGRAPHICS
 70
     0
  9
$MEASUREMENT
 70
     0
  9
$CELWEIGHT
370
     0
  9
$ENDCAPS
280
     0
  9
$JOINSTYLE
280
     0
  9
$LWDISPLAY
290
     0
  9
$INSUNITS
 70
     0
  9
$HYPERLINKBASE
  1

  9
$STYLESHEET
  1

  9
$XEDIT
290
     1
  9
$CEPSNTYPE
380
     0
  9
$PSTYLEMODE
290
     1
  9
$FINGERPRINTGUID
  2

  9
$VERSIONGUID
  2

  9
$EXTNAMES
290
     1
  9
$PSVPSCALE
 40
0.0
  0
ENDSEC
  0
SECTION
  2
CLASSES
  0
CLASS
  1
LWPOLYLINE
  2
AcDbPolyline
  3
AutoCAD 2000
 90
        0
280
     0
281
     1
  0
CLASS
  1
IMAGE
  2
AcDbRasterImage
  3
ISM
 90
      127
280
     0
281
     1
  0
CLASS
  1
OLE2FRAME
  2
AcDbOle2Frame
  3
AutoCAD 2000
 90
        0
280
     0
281
     1
  0
CLASS
  1
HATCH
  2
AcDbHatch
  3
AutoCAD 2000
 90
        0
280
     0
281
     1
  0
CLASS
  1
DICTIONARYVAR
  2
AcDbDictionaryVar
  3
AutoCAD 2000
 90
        0
280
     0
281
     0
  0
CLASS
  1
RASTERVARIABLES
  2
AcDbRasterVariables
  3
ISM
 90
        0
280
     0
281
     0
  0
CLASS
  1
IMAGEDEF
  2
AcDbRasterImageDef
  3
ISM
 90
        0
280
     0
281
     0
  0
CLASS
  1
IMAGEDEF_REACTOR
  2
AcDbRasterImageDefReactor
  3
ISM
 90
        1
280
     0
281
     0
  0
CLASS
  1
IDBUFFER
  2
AcDbIdBuffer
  3
AutoCAD 2000
 90
        0
280
     0
281
     0
  0
CLASS
  1
SPATIAL_FILTER
  2
AcDbSpatialFilter
  3
AutoCAD 2000
 90
        0
280
     0
281
     0
  0
CLASS
  1
XRECORD
  2
AcDbXrecord
  3
AutoCAD 2000
 90
        0
280
     0
281
     0
  0
CLASS
  1
SORTENTSTABLE
  2
AcDbSortentsTable
  3
AutoCAD 2000
 90
        0
280
     0
281
     0
  0
CLASS
  1
LAYER_INDEX
  2
AcDbLayerIndex
  3
AutoCAD 2000
 90
        0
280
     0
281
     0
  0
CLASS
  1
SPATIAL_INDEX
  2
AcDbSpatialIndex
  3
AutoCAD 2000
 90
        0
280
     0
281
     0
  0
CLASS
  1
OBJECT_PTR
  2
CAseDLPNTableRecord
  3
"ASE-LPNTableRecord"
 90
        1
280
     0
281
     0
  0
CLASS
  1
LAYOUT
  2
AcDbLayout
  3
AutoCAD 2000
 90
        0
280
     0
281
     0
  0
CLASS
  1
PLOTSETTINGS
  2
AcDbPlotSettings
  3
AutoCAD 2000
 90
        0
280
     0
281
     0
  0
CLASS
  1
ACDBDICTIONARYWDFLT
  2
AcDbDictionaryWithDefault
  3
AutoCAD 2000
 90
        0
280
     0
281
     0
  0
CLASS
  1
ACDBPLACEHOLDER
  2
AcDbPlaceHolder
  3
AutoCAD 2000
 90
        0
280
     0
281
     0
  0
CLASS
  1
VBA_PROJECT
  2
AcDbVbaProject
  3
acadvba
 90
        0
280
     0
281
     0
  0
CLASS
  1
WIPEOUT
  2
AcDbWipeout
  3
WipeOut|AutoCAD Express Tool|expresstools@autodesk.com
 90
      127
280
     0
281
     1
  0
CLASS
  1
WIPEOUTVARIABLES
  2
AcDbWipeoutVariables
  3
WipeOut|AutoCAD Express Tool|expresstools@autodesk.com
 90
        0
280
     0
281
     0
  0
CLASS
  1
RTEXT
  2
RText
  3
RText|AutoCAD Express Tool|expresstools@autodesk.com
 90
        0
280
     0
281
     1
  0
CLASS
  1
ARCALIGNEDTEXT
  2
AcDbArcAlignedText
  3
ATEXT|AutoCAD Express Tool|expresstools@autodesk.com
 90
        0
280
     0
281
     1
  0
ENDSEC
  0
SECTION
  2
TABLES
  0
TABLE
  2
VPORT
  5
6
100
AcDbSymbolTable
 70
     1
  0
VPORT
  5
19
100
AcDbSymbolTableRecord
100
AcDbViewportTableRecord
  2
*ACTIVE
 70
     0
 10
0.0
 20
0.0
 11
1.0
 21
1.0
 12
0.0
 22
0.0
 13
0.0
 23
0.0
 14
1.0
 24
1.0
 15
0.0
 25
0.0
 16
0.0
 26
0.0
 36
1.0
 17
0.0
 27
0.0
 37
0.0
 40
1782.0
 41
1.415825
 42
50.0
 43
0.0
 44
0.0
 50
0.0
 51
0.0
 71
     0
 72
   500
 73
     1
 74
     1
 75
     0
 76
     0
 77
     0
 78
     0
281
     0
 65
     0
110
0.0
120
0.0
130
0.0
111
1.0
121
0.0
131
0.0
112
0.0
122
1.0
132
0.0
345
0
346
0
 79
     0
146
0.0
  0
ENDTAB
  0
TABLE
  2
LTYPE
  5
3
100
AcDbSymbolTable
 70
     9
  0
LTYPE
  5
C
100
AcDbSymbolTableRecord
100
AcDbLinetypeTableRecord
  2
ByBlock
 70
    64
  3

 72
    65
 73
     0
 40
0.0
  0
LTYPE
  5
D
100
AcDbSymbolTableRecord
100
AcDbLinetypeTableRecord
  2
ByLayer
 70
    64
  3

 72
    65
 73
     0
 40
0.0
  0
LTYPE
  5
E
100
AcDbSymbolTableRecord
100
AcDbLinetypeTableRecord
  2
CONTINUOUS
 70
     0
  3
Solid line
 72
    65
 73
     0
 40
0.0
  0
LTYPE
  5
F
100
AcDbSymbolTableRecord
100
AcDbLinetypeTableRecord
  2
DASHED
 70
     0
  3
__ __ __ __ __ __ __ __ __ __ __ __ __ __ __
 72
    65
 73
     2
 40
2.0
 49
1.2
 74
     0
 49
-0.8
 74
     0
  0
LTYPE
  5
10
100
AcDbSymbolTableRecord
100
AcDbLinetypeTableRecord
  2
CENTER
 70
     0
  3
____ _ ____ _ ____ _ ____ _ ____ _ ____ _ ____
 72
    65
 73
     4
 40
12.0
 49
9.0
 74
     0
 49
-1.0
 74
     0
 49
1.0
 74
     0
 49
-1.0
 74
     0
  0
LTYPE
  5
11
100
AcDbSymbolTableRecord
100
AcDbLinetypeTableRecord
  2
HIDDEN
 70
     0
  3
_ _ _ _ _ _ _ _ _ _ _ _ _ _ _ _ _ _ _ _ _ _ _
 72
    65
 73
     2
 40
3.2
 49
2.4
 74
     0
 49
-0.8
 74
     0
  0
LTYPE
  5
12
100
AcDbSymbolTableRecord
100
AcDbLinetypeTableRecord
  2
PHANTOM
 70
     0
  3
_____ _ _ _____ _ _ _____ _ _ _____ _ _ _____
 72
    65
 73
     6
 40
13.5
 49
9.0
 74
     0
 49
-1.0
 74
     0
 49
1.0
 74
     0
 49
-0.5
 74
     0
 49
1.0
 74
     0
 49
-1.0
 74
     0
  0
LTYPE
  5
13
100
AcDbSymbolTableRecord
100
AcDbLinetypeTableRecord
  2
DOT
 70
     0
  3
...............................................
 72
    65
 73
     2
 40
1.0
 49
0.5
 74
     0
 49
-0.5
 74
     0
  0
LTYPE
  5
14
100
AcDbSymbolTableRecord
100
AcDbLinetypeTableRecord
  2
DASHDOT
 70
     0
  3
__ . __ . __ . __ . __ . __ . __ . __ . __ . __
 72
    65
 73
     4
 40
8.0
 49
5.0
 74
     0
 49
-1.0
 74
     0
 49
1.0
 74
     0
 49
-1.0
 74
     0
  0
ENDTAB
  0
TABLE
  2
LAYER
  5
1
100
AcDbSymbolTable
 70
     4
  0
LAYER
  5
15
100
AcDbSymbolTableRecord
100
AcDbLayerTableRecord
  2
0
 70
     0
 62
   225
  6
CONTINUOUS
290
     1
370
    -3
390
0
  0
LAYER
  5
16
100
AcDbSymbolTableRecord
100
AcDbLayerTableRecord
  2
1
 70
     0
 62
     2
  6
CONTINUOUS
290
     1
370
    -3
390
0
  0
LAYER
  5
17
100
AcDbSymbolTableRecord
100
AcDbLayerTableRecord
  2
2
 70
     0
 62
     3
  6
CONTINUOUS
290
     1
370
    -3
390
0
  0
LAYER
  5
18
100
AcDbSymbolTableRecord
100
AcDbLayerTableRecord
  2
3
 70
     0
 62
     4
  6
CONTINUOUS
290
     1
370
    -3
390
0
  0
ENDTAB
  0
TABLE
  2
STYLE
  5
2
100
AcDbSymbolTable
 70
     1
  0
STYLE
  5
1B
100
AcDbSymbolTableRecord
100
AcDbTextStyleTableRecord
  2
STANDARD
 70
    64
 40
0.0
 41
1.0
 50
0.0
 71
     0
 42
1.0
  3
txt
  4
BIGFONT
  0
ENDTAB
  0
TABLE
  2
VIEW
  5
4
100
AcDbSymbolTable
 70
     0
  0
ENDTAB
  0
TABLE
  2
UCS
  5
5
100
AcDbSymbolTable
 70
     0
  0
ENDTAB
  0
TABLE
  2
APPID
  5
7
100
AcDbSymbolTable
 70
     1
  0
APPID
  5
1A
100
AcDbSymbolTableRecord
100
AcDbRegAppTableRecord
  2
ACAD
 70
     0
  0
ENDTAB
  0
TABLE
  2
DIMSTYLE
  5
8
100
AcDbSymbolTable
 70
     1
100
AcDbDimStyleTable
 71
     0
  0
DIMSTYLE
105
2F
100
AcDbSymbolTableRecord
100
AcDbDimStyleTableRecord
  2
Standard
 70
     0
  3

  4

 40
3.0
 41
2.0
 42
1.0
 43
0.38
 44
2.0
 45
0.0
 46
0.0
 47
0.0
 48
0.0
 71
     0
 72
     0
 73
     0
 74
     0
 75
     0
 76
     0
 77
     1
 78
     0
 79
     0
140
3.5
141
0.09
142
0.0
143
25.4
144
1.0
145
0.0
146
1.0
147
0.5
148
0.0
170
     0
171
     2
172
     0
173
     0
174
     0
175
     0
176
     0
177
     0
178
     0
179
     0
271
     3
272
     4
273
     2
274
     2
275
     0
276
     0
277
     2
278
    46
279
     0
280
     0
281
     0
282
     0
283
     1
284
     0
285
     0
286
     0
288
     0
289
     3
340
1B
341
0
342
0
343
0
344
0
371
    -2
372
    -2
  0
ENDTAB
  0
TABLE
  2
BLOCK_RECORD
  5
2A
100
AcDbSymbolTable
 70
    12
  0
BLOCK_RECORD
  5
28
100
AcDbSymbolTableRecord
100
AcDbBlockTableRecord
  2
*Model_Space
340
0
  0
BLOCK_RECORD
  5
29
100
AcDbSymbolTableRecord
100
AcDbBlockTableRecord
  2
*Paper_Space
340
0
  0
BLOCK_RECORD
  5
1C
100
AcDbSymbolTableRecord
100
AcDbBlockTableRecord
  2
*D0
340
0
  0
BLOCK_RECORD
  5
1D
100
AcDbSymbolTableRecord
100
AcDbBlockTableRecord
  2
*D1
340
0
  0
BLOCK_RECORD
  5
1E
100
AcDbSymbolTableRecord
100
AcDbBlockTableRecord
  2
*D2
340
0
  0
BLOCK_RECORD
  5
1F
100
AcDbSymbolTableRecord
100
AcDbBlockTableRecord
  2
*D3
340
0
  0
BLOCK_RECORD
  5
20
100
AcDbSymbolTableRecord
100
AcDbBlockTableRecord
  2
*D4
340
0
  0
BLOCK_RECORD
  5
21
100
AcDbSymbolTableRecord
100
AcDbBlockTableRecord
  2
*D5
340
0
  0
BLOCK_RECORD
  5
22
100
AcDbSymbolTableRecord
100
AcDbBlockTableRecord
  2
*D6
340
0
  0
BLOCK_RECORD
  5
23
100
AcDbSymbolTableRecord
100
AcDbBlockTableRecord
  2
*D7
340
0
  0
BLOCK_RECORD
  5
24
100
AcDbSymbolTableRecord
100
AcDbBlockTableRecord
  2
*D8
340
0
  0
BLOCK_RECORD
  5
25
100
AcDbSymbolTableRecord
100
AcDbBlockTableRecord
  2
*D9
340
0
  0
BLOCK_RECORD
  5
26
100
AcDbSymbolTableRecord
100
AcDbBlockTableRecord
  2
*D10
340
0
  0
BLOCK_RECORD
  5
27
100
AcDbSymbolTableRecord
100
AcDbBlockTableRecord
  2
*D11
340
0
  0
ENDTAB
  0
ENDSEC
  0
SECTION
  2
BLOCKS
  0
BLOCK
  5
2B
100
AcDbEntity
  8
0
390
0
100
AcDbBlockBegin
  2
*Model_Space
 70
     0
 10
0.0
 20
0.0
 30
0.0
  3
*Model_Space
  1

  0
ENDBLK
  5
2C
100
AcDbEntity
  8
0
390
0
100
AcDbBlockEnd
  0
BLOCK
  5
2D
100
AcDbEntity
 67
     1
  8
0
390
0
100
AcDbBlockBegin
  2
*Paper_Space
 70
     0
 10
0.0
 20
0.0
 30
0.0
  3
*Paper_Space
  1

  0
ENDBLK
  5
2E
100
AcDbEntity
 67
     1
  8
0
390
0
100
AcDbBlockEnd
  0
BLOCK
  5
7B6
100
AcDbEntity
  8
3
100
AcDbBlockBegin
  2
*D0
 70
     1
 10
0.0
 20
0.0
 30
0.0
  3
*D0
  1

  0
TEXT
  5
7B7
100
AcDbEntity
  8
3
370
    25
100
AcDbText
 10
-33.304326
 20
68.198013
 30
0.0
 40
10.5
  1
４０゜
 50
340.0
 72
     5
 11
-5.677363
 21
58.142621
 31
0.0
100
AcDbText
  0
LINE
  5
7B8
100
AcDbEntity
  8
3
370
    25
100
AcDbLine
 10
-14.445519
 20
92.312215
 30
0.0
 11
-35.611941
 21
67.087055
 31
0.0
  0
LINE
  5
7B9
100
AcDbEntity
  8
3
370
    25
100
AcDbLine
 10
-12.517156
 20
91.610348
 30
0.0
 11
-12.517156
 21
58.681241
 31
0.0
  0
LINE
  5
7BA
100
AcDbEntity
  8
3
370
    25
100
AcDbLine
 10
-33.683578
 20
69.385189
 30
0.0
 11
-29.822956
 21
64.792194
 31
0.0
  0
LINE
  5
7BB
100
AcDbEntity
  8
3
370
    25
100
AcDbLine
 10
-33.683578
 20
69.385189
 30
0.0
 11
-28.043684
 21
67.33785
 31
0.0
  0
LINE
  5
7BC
100
AcDbEntity
  8
3
370
    25
100
AcDbLine
 10
-29.822956
 20
64.792194
 30
0.0
 11
-28.043684
 21
67.33785
 31
0.0
  0
LINE
  5
7BD
100
AcDbEntity
  8
3
370
    25
100
AcDbLine
 10
-12.517156
 20
61.681241
 30
0.0
 11
-18.153569
 21
63.738142
 31
0.0
  0
LINE
  5
7BE
100
AcDbEntity
  8
3
370
    25
100
AcDbLine
 10
-12.517156
 20
61.681241
 30
0.0
 11
-18.426884
 21
60.644363
 31
0.0
  0
LINE
  5
7BF
100
AcDbEntity
  8
3
370
    25
100
AcDbLine
 10
-18.153569
 20
63.738142
 30
0.0
 11
-18.426884
 21
60.644363
 31
0.0
  0
ARC
  5
7C0
100
AcDbEntity
  8
3
370
    25
100
AcDbCircle
 10
-12.517156
 20
94.610348
 30
0.0
 40
32.929107
100
AcDbArc
 50
230.0
 51
270.0
  0
ENDBLK
  5
7C1
100
AcDbEntity
  8
3
100
AcDbBlockEnd
  0
BLOCK
  5
7C2
100
AcDbEntity
  8
3
100
AcDbBlockBegin
  2
*D1
 70
     1
 10
0.0
 20
0.0
 30
0.0
  3
*D1
  1

  0
LINE
  5
7C3
100
AcDbEntity
  8
3
370
    25
100
AcDbLine
 10
97.954872
 20
199.385756
 30
0.0
 11
97.954872
 21
213.455184
 31
0.0
  0
LINE
  5
7C4
100
AcDbEntity
  8
3
370
    25
100
AcDbLine
 10
97.954872
 20
210.455184
 30
0.0
 11
103.750427
 21
208.902269
 31
0.0
  0
LINE
  5
7C5
100
AcDbEntity
  8
3
370
    25
100
AcDbLine
 10
97.954872
 20
210.455184
 30
0.0
 11
103.750427
 21
212.008098
 31
0.0
  0
LINE
  5
7C6
100
AcDbEntity
  8
3
370
    25
100
AcDbLine
 10
103.750427
 20
208.902269
 30
0.0
 11
103.750427
 21
212.008098
 31
0.0
  0
LINE
  5
7C7
100
AcDbEntity
  8
3
370
    25
100
AcDbLine
 10
97.954872
 20
210.455184
 30
0.0
 11
123.545754
 21
210.455184
 31
0.0
  0
LINE
  5
7C8
100
AcDbEntity
  8
3
370
    25
100
AcDbLine
 10
123.545754
 20
210.455184
 30
0.0
 11
117.7502
 21
212.008098
 31
0.0
  0
LINE
  5
7C9
100
AcDbEntity
  8
3
370
    25
100
AcDbLine
 10
123.545754
 20
210.455184
 30
0.0
 11
117.7502
 21
208.902269
 31
0.0
  0
LINE
  5
7CA
100
AcDbEntity
  8
3
370
    25
100
AcDbLine
 10
117.7502
 20
212.008098
 30
0.0
 11
117.7502
 21
208.902269
 31
0.0
  0
LINE
  5
7CB
100
AcDbEntity
  8
3
370
    25
100
AcDbLine
 10
123.545754
 20
189.374683
 30
0.0
 11
123.545754
 21
213.455184
 31
0.0
  0
ENDBLK
  5
7CC
100
AcDbEntity
  8
3
100
AcDbBlockEnd
  0
BLOCK
  5
7CD
100
AcDbEntity
  8
3
100
AcDbBlockBegin
  2
*D2
 70
     1
 10
0.0
 20
0.0
 30
0.0
  3
*D2
  1

  0
TEXT
  5
7CE
100
AcDbEntity
  8
3
370
    25
100
AcDbText
 10
-319.953258
 20
-80.62393
 30
0.0
 40
10.5
  1
φ４８
 72
     5
 11
-290.553258
 21
-80.62393
 31
0.0
100
AcDbText
  0
LINE
  5
7CF
100
AcDbEntity
  8
3
370
    25
100
AcDbLine
 10
-379.953258
 20
-99.349298
 30
0.0
 11
-379.953258
 21
-79.12393
 31
0.0
  0
LINE
  5
7D0
100
AcDbEntity
  8
3
370
    25
100
AcDbLine
 10
-379.953258
 20
-82.12393
 30
0.0
 11
-385.748813
 21
-80.571016
 31
0.0
  0
LINE
  5
7D1
100
AcDbEntity
  8
3
370
    25
100
AcDbLine
 10
-379.953258
 20
-82.12393
 30
0.0
 11
-385.748813
 21
-83.676844
 31
0.0
  0
LINE
  5
7D2
100
AcDbEntity
  8
3
370
    25
100
AcDbLine
 10
-385.748813
 20
-80.571016
 30
0.0
 11
-385.748813
 21
-83.676844
 31
0.0
  0
LINE
  5
7D3
100
AcDbEntity
  8
3
370
    25
100
AcDbLine
 10
-394.953258
 20
-82.12393
 30
0.0
 11
-288.453258
 21
-82.12393
 31
0.0
  0
LINE
  5
7D4
100
AcDbEntity
  8
3
370
    25
100
AcDbLine
 10
-331.953258
 20
-82.12393
 30
0.0
 11
-326.157703
 21
-83.676844
 31
0.0
  0
LINE
  5
7D5
100
AcDbEntity
  8
3
370
    25
100
AcDbLine
 10
-331.953258
 20
-82.12393
 30
0.0
 11
-326.157703
 21
-80.571016
 31
0.0
  0
LINE
  5
7D6
100
AcDbEntity
  8
3
370
    25
100
AcDbLine
 10
-326.157703
 20
-83.676844
 30
0.0
 11
-326.157703
 21
-80.571016
 31
0.0
  0
LINE
  5
7D7
100
AcDbEntity
  8
3
370
    25
100
AcDbLine
 10
-331.953258
 20
-99.349298
 30
0.0
 11
-331.953258
 21
-79.12393
 31
0.0
  0
ENDBLK
  5
7D8
100
AcDbEntity
  8
3
100
AcDbBlockEnd
  0
BLOCK
  5
7D9
100
AcDbEntity
  8
3
100
AcDbBlockBegin
  2
*D3
 70
     1
 10
0.0
 20
0.0
 30
0.0
  3
*D3
  1

  0
LINE
  5
7DA
100
AcDbEntity
  8
3
370
    25
100
AcDbLine
 10
-12.517156
 20
91.610348
 30
0.0
 11
-12.517156
 21
-157.682636
 31
0.0
  0
LINE
  5
7DB
100
AcDbEntity
  8
3
370
    25
100
AcDbLine
 10
-12.517156
 20
-154.682636
 30
0.0
 11
-6.721601
 21
-156.235551
 31
0.0
  0
LINE
  5
7DC
100
AcDbEntity
  8
3
370
    25
100
AcDbLine
 10
-12.517156
 20
-154.682636
 30
0.0
 11
-6.721601
 21
-153.129722
 31
0.0
  0
LINE
  5
7DD
100
AcDbEntity
  8
3
370
    25
100
AcDbLine
 10
-6.721601
 20
-156.235551
 30
0.0
 11
-6.721601
 21
-153.129722
 31
0.0
  0
LINE
  5
7DE
100
AcDbEntity
  8
3
370
    25
100
AcDbLine
 10
-12.517156
 20
-154.682636
 30
0.0
 11
97.954872
 21
-154.682636
 31
0.0
  0
LINE
  5
7DF
100
AcDbEntity
  8
3
370
    25
100
AcDbLine
 10
97.954872
 20
-154.682636
 30
0.0
 11
92.159317
 21
-153.129722
 31
0.0
  0
LINE
  5
7E0
100
AcDbEntity
  8
3
370
    25
100
AcDbLine
 10
97.954872
 20
-154.682636
 30
0.0
 11
92.159317
 21
-156.235551
 31
0.0
  0
LINE
  5
7E1
100
AcDbEntity
  8
3
370
    25
100
AcDbLine
 10
92.159317
 20
-153.129722
 30
0.0
 11
92.159317
 21
-156.235551
 31
0.0
  0
LINE
  5
7E2
100
AcDbEntity
  8
3
370
    25
100
AcDbLine
 10
97.954872
 20
-97.295053
 30
0.0
 11
97.954872
 21
-157.682636
 31
0.0
  0
ENDBLK
  5
7E3
100
AcDbEntity
  8
3
100
AcDbBlockEnd
  0
BLOCK
  5
7E4
100
AcDbEntity
  8
3
100
AcDbBlockBegin
  2
*D4
 70
     1
 10
0.0
 20
0.0
 30
0.0
  3
*D4
  1

  0
LINE
  5
7E5
100
AcDbEntity
  8
3
370
    25
100
AcDbLine
 10
71.454872
 20
-105.849298
 30
0.0
 11
-49.792437
 21
-105.849298
 31
0.0
  0
LINE
  5
7E6
100
AcDbEntity
  8
3
370
    25
100
AcDbLine
 10
-46.792437
 20
-105.849298
 30
0.0
 11
-45.239522
 21
-100.053743
 31
0.0
  0
LINE
  5
7E7
100
AcDbEntity
  8
3
370
    25
100
AcDbLine
 10
-46.792437
 20
-105.849298
 30
0.0
 11
-48.345351
 21
-100.053743
 31
0.0
  0
LINE
  5
7E8
100
AcDbEntity
  8
3
370
    25
100
AcDbLine
 10
-45.239522
 20
-100.053743
 30
0.0
 11
-48.345351
 21
-100.053743
 31
0.0
  0
LINE
  5
7E9
100
AcDbEntity
  8
3
370
    25
100
AcDbLine
 10
-46.792437
 20
-105.849298
 30
0.0
 11
-46.792437
 21
94.610348
 31
0.0
  0
LINE
  5
7EA
100
AcDbEntity
  8
3
370
    25
100
AcDbLine
 10
-46.792437
 20
94.610348
 30
0.0
 11
-48.345351
 21
88.814793
 31
0.0
  0
LINE
  5
7EB
100
AcDbEntity
  8
3
370
    25
100
AcDbLine
 10
-46.792437
 20
94.610348
 30
0.0
 11
-45.239522
 21
88.814793
 31
0.0
  0
LINE
  5
7EC
100
AcDbEntity
  8
3
370
    25
100
AcDbLine
 10
-48.345351
 20
88.814793
 30
0.0
 11
-45.239522
 21
88.814793
 31
0.0
  0
LINE
  5
7ED
100
AcDbEntity
  8
3
370
    25
100
AcDbLine
 10
-15.517156
 20
94.610348
 30
0.0
 11
-49.792437
 21
94.610348
 31
0.0
  0
ENDBLK
  5
7EE
100
AcDbEntity
  8
3
100
AcDbBlockEnd
  0
BLOCK
  5
7EF
100
AcDbEntity
  8
3
100
AcDbBlockBegin
  2
*D5
 70
     1
 10
0.0
 20
0.0
 30
0.0
  3
*D5
  1

  0
LINE
  5
7F0
100
AcDbEntity
  8
3
370
    25
100
AcDbLine
 10
71.454872
 20
-105.849298
 30
0.0
 11
-96.17997
 21
-105.849298
 31
0.0
  0
LINE
  5
7F1
100
AcDbEntity
  8
3
370
    25
100
AcDbLine
 10
-93.17997
 20
-105.849298
 30
0.0
 11
-91.627056
 21
-100.053743
 31
0.0
  0
LINE
  5
7F2
100
AcDbEntity
  8
3
370
    25
100
AcDbLine
 10
-93.17997
 20
-105.849298
 30
0.0
 11
-94.732884
 21
-100.053743
 31
0.0
  0
LINE
  5
7F3
100
AcDbEntity
  8
3
370
    25
100
AcDbLine
 10
-91.627056
 20
-100.053743
 30
0.0
 11
-94.732884
 21
-100.053743
 31
0.0
  0
LINE
  5
7F4
100
AcDbEntity
  8
3
370
    25
100
AcDbLine
 10
-93.17997
 20
-105.849298
 30
0.0
 11
-93.17997
 21
217.878901
 31
0.0
  0
LINE
  5
7F5
100
AcDbEntity
  8
3
370
    25
100
AcDbLine
 10
-93.17997
 20
217.878901
 30
0.0
 11
-94.732884
 21
212.083346
 31
0.0
  0
LINE
  5
7F6
100
AcDbEntity
  8
3
370
    25
100
AcDbLine
 10
-93.17997
 20
217.878901
 30
0.0
 11
-91.627056
 21
212.083346
 31
0.0
  0
LINE
  5
7F7
100
AcDbEntity
  8
3
370
    25
100
AcDbLine
 10
-94.732884
 20
212.083346
 30
0.0
 11
-91.627056
 21
212.083346
 31
0.0
  0
LINE
  5
7F8
100
AcDbEntity
  8
3
370
    25
100
AcDbLine
 10
31.89221
 20
217.878901
 30
0.0
 11
-96.17997
 21
217.878901
 31
0.0
  0
ENDBLK
  5
7F9
100
AcDbEntity
  8
3
100
AcDbBlockEnd
  0
BLOCK
  5
7FA
100
AcDbEntity
  8
3
100
AcDbBlockBegin
  2
*D6
 70
     1
 10
0.0
 20
0.0
 30
0.0
  3
*D6
  1

  0
TEXT
  5
7FB
100
AcDbEntity
  8
3
370
    25
100
AcDbText
 10
15.623696
 20
191.502932
 30
0.0
 40
10.5
  1
２２゜
 50
79.0
 72
     5
 11
21.23348
 21
220.362771
 31
0.0
100
AcDbText
  0
LINE
  5
7FC
100
AcDbEntity
  8
3
370
    25
100
AcDbLine
 10
32.57425
 20
218.815418
 30
0.0
 11
21.864159
 21
223.142575
 31
0.0
  0
LINE
  5
7FD
100
AcDbEntity
  8
3
370
    25
100
AcDbLine
 10
18.955049
 20
190.750702
 30
0.0
 11
15.567817
 21
190.750702
 31
0.0
  0
LINE
  5
7FE
100
AcDbEntity
  8
3
370
    25
100
AcDbLine
 10
24.645711
 20
222.018756
 30
0.0
 11
21.203354
 21
217.104473
 31
0.0
  0
LINE
  5
7FF
100
AcDbEntity
  8
3
370
    25
100
AcDbLine
 10
24.645711
 20
222.018756
 30
0.0
 11
24.121684
 21
216.041683
 31
0.0
  0
LINE
  5
800
100
AcDbEntity
  8
3
370
    25
100
AcDbLine
 10
21.203354
 20
217.104473
 30
0.0
 11
24.121684
 21
216.041683
 31
0.0
  0
LINE
  5
801
100
AcDbEntity
  8
3
370
    25
100
AcDbLine
 10
18.567817
 20
190.750702
 30
0.0
 11
20.320998
 21
196.488851
 31
0.0
  0
LINE
  5
802
100
AcDbEntity
  8
3
370
    25
100
AcDbLine
 10
18.567817
 20
190.750702
 30
0.0
 11
17.217042
 21
196.596676
 31
0.0
  0
LINE
  5
803
100
AcDbEntity
  8
3
370
    25
100
AcDbLine
 10
20.320998
 20
196.488851
 30
0.0
 11
17.217042
 21
196.596676
 31
0.0
  0
ARC
  5
804
100
AcDbEntity
  8
3
370
    25
100
AcDbCircle
 10
102.036859
 20
190.750702
 30
0.0
 40
83.469042
100
AcDbArc
 50
158.0
 51
180.0
  0
ENDBLK
  5
805
100
AcDbEntity
  8
3
100
AcDbBlockEnd
  0
BLOCK
  5
806
100
AcDbEntity
  8
3
100
AcDbBlockBegin
  2
*D7
 70
     1
 10
0.0
 20
0.0
 30
0.0
  3
*D7
  1

  0
TEXT
  5
807
100
AcDbEntity
  8
3
370
    25
100
AcDbText
 10
127.454872
 20
153.528477
 30
0.0
 40
10.5
  1
φ３５
 72
     5
 11
156.854872
 21
153.528477
 31
0.0
100
AcDbText
  0
LINE
  5
808
100
AcDbEntity
  8
3
370
    25
100
AcDbLine
 10
80.454872
 20
152.028477
 30
0.0
 11
74.659317
 21
153.581391
 31
0.0
  0
LINE
  5
809
100
AcDbEntity
  8
3
370
    25
100
AcDbLine
 10
80.454872
 20
152.028477
 30
0.0
 11
74.659317
 21
150.475562
 31
0.0
  0
LINE
  5
80A
100
AcDbEntity
  8
3
370
    25
100
AcDbLine
 10
74.659317
 20
153.581391
 30
0.0
 11
74.659317
 21
150.475562
 31
0.0
  0
LINE
  5
80B
100
AcDbEntity
  8
3
370
    25
100
AcDbLine
 10
65.454872
 20
152.028477
 30
0.0
 11
158.954872
 21
152.028477
 31
0.0
  0
LINE
  5
80C
100
AcDbEntity
  8
3
370
    25
100
AcDbLine
 10
115.454872
 20
152.028477
 30
0.0
 11
121.250427
 21
150.475562
 31
0.0
  0
LINE
  5
80D
100
AcDbEntity
  8
3
370
    25
100
AcDbLine
 10
115.454872
 20
152.028477
 30
0.0
 11
121.250427
 21
153.581391
 31
0.0
  0
LINE
  5
80E
100
AcDbEntity
  8
3
370
    25
100
AcDbLine
 10
121.250427
 20
150.475562
 30
0.0
 11
121.250427
 21
153.581391
 31
0.0
  0
ENDBLK
  5
80F
100
AcDbEntity
  8
3
100
AcDbBlockEnd
  0
BLOCK
  5
810
100
AcDbEntity
  8
3
100
AcDbBlockBegin
  2
*D8
 70
     1
 10
0.0
 20
0.0
 30
0.0
  3
*D8
  1

  0
LINE
  5
811
100
AcDbEntity
  8
3
370
    25
100
AcDbLine
 10
71.454872
 20
-105.849298
 30
0.0
 11
-72.560589
 21
-105.849298
 31
0.0
  0
LINE
  5
812
100
AcDbEntity
  8
3
370
    25
100
AcDbLine
 10
-69.560589
 20
-105.849298
 30
0.0
 11
-68.007675
 21
-100.053743
 31
0.0
  0
LINE
  5
813
100
AcDbEntity
  8
3
370
    25
100
AcDbLine
 10
-69.560589
 20
-105.849298
 30
0.0
 11
-71.113503
 21
-100.053743
 31
0.0
  0
LINE
  5
814
100
AcDbEntity
  8
3
370
    25
100
AcDbLine
 10
-68.007675
 20
-100.053743
 30
0.0
 11
-71.113503
 21
-100.053743
 31
0.0
  0
LINE
  5
815
100
AcDbEntity
  8
3
370
    25
100
AcDbLine
 10
-69.560589
 20
-105.849298
 30
0.0
 11
-69.560589
 21
190.750702
 31
0.0
  0
LINE
  5
816
100
AcDbEntity
  8
3
370
    25
100
AcDbLine
 10
-69.560589
 20
190.750702
 30
0.0
 11
-71.113503
 21
184.955147
 31
0.0
  0
LINE
  5
817
100
AcDbEntity
  8
3
370
    25
100
AcDbLine
 10
-69.560589
 20
190.750702
 30
0.0
 11
-68.007675
 21
184.955147
 31
0.0
  0
LINE
  5
818
100
AcDbEntity
  8
3
370
    25
100
AcDbLine
 10
-71.113503
 20
184.955147
 30
0.0
 11
-68.007675
 21
184.955147
 31
0.0
  0
LINE
  5
819
100
AcDbEntity
  8
3
370
    25
100
AcDbLine
 10
18.955049
 20
190.750702
 30
0.0
 11
-72.560589
 21
190.750702
 31
0.0
  0
ENDBLK
  5
81A
100
AcDbEntity
  8
3
100
AcDbBlockEnd
  0
BLOCK
  5
81B
100
AcDbEntity
  8
3
100
AcDbBlockBegin
  2
*D9
 70
     1
 10
0.0
 20
0.0
 30
0.0
  3
*D9
  1

  0
LINE
  5
81C
100
AcDbEntity
  8
3
370
    25
100
AcDbLine
 10
-290.265416
 20
-317.245601
 30
0.0
 11
-182.146133
 21
-317.245601
 31
0.0
  0
LINE
  5
81D
100
AcDbEntity
  8
3
370
    25
100
AcDbLine
 10
-185.146133
 20
-317.245601
 30
0.0
 11
-183.593219
 21
-311.450046
 31
0.0
  0
LINE
  5
81E
100
AcDbEntity
  8
3
370
    25
100
AcDbLine
 10
-185.146133
 20
-317.245601
 30
0.0
 11
-186.699048
 21
-311.450046
 31
0.0
  0
LINE
  5
81F
100
AcDbEntity
  8
3
370
    25
100
AcDbLine
 10
-183.593219
 20
-311.450046
 30
0.0
 11
-186.699048
 21
-311.450046
 31
0.0
  0
LINE
  5
820
100
AcDbEntity
  8
3
370
    25
100
AcDbLine
 10
-185.146133
 20
-317.245601
 30
0.0
 11
-185.146133
 21
-105.849298
 31
0.0
  0
LINE
  5
821
100
AcDbEntity
  8
3
370
    25
100
AcDbLine
 10
-185.146133
 20
-105.849298
 30
0.0
 11
-186.699048
 21
-111.644853
 31
0.0
  0
LINE
  5
822
100
AcDbEntity
  8
3
370
    25
100
AcDbLine
 10
-185.146133
 20
-105.849298
 30
0.0
 11
-183.593219
 21
-111.644853
 31
0.0
  0
LINE
  5
823
100
AcDbEntity
  8
3
370
    25
100
AcDbLine
 10
-186.699048
 20
-111.644853
 30
0.0
 11
-183.593219
 21
-111.644853
 31
0.0
  0
LINE
  5
824
100
AcDbEntity
  8
3
370
    25
100
AcDbLine
 10
-329.453258
 20
-105.849298
 30
0.0
 11
-182.146133
 21
-105.849298
 31
0.0
  0
ENDBLK
  5
825
100
AcDbEntity
  8
3
100
AcDbBlockEnd
  0
BLOCK
  5
826
100
AcDbEntity
  8
3
100
AcDbBlockBegin
  2
*D10
 70
     1
 10
0.0
 20
0.0
 30
0.0
  3
*D10
  1

  0
TEXT
  5
827
100
AcDbEntity
  8
3
370
    25
100
AcDbText
 10
18.409662
 20
341.052175
 30
0.0
 40
10.5
  1
６０゜
 50
60.0
 72
     5
 11
33.109662
 21
366.513322
 31
0.0
100
AcDbText
  0
LINE
  5
828
100
AcDbEntity
  8
3
370
    25
100
AcDbLine
 10
57.078157
 20
378.051629
 30
0.0
 11
53.560512
 21
384.144369
 31
0.0
  0
LINE
  5
829
100
AcDbEntity
  8
3
370
    25
100
AcDbLine
 10
15.700055
 20
307.251082
 30
0.0
 11
9.166153
 21
307.251082
 31
0.0
  0
LINE
  5
82A
100
AcDbEntity
  8
3
370
    25
100
AcDbLine
 10
55.060512
 20
381.546293
 30
0.0
 11
49.320719
 21
379.798502
 31
0.0
  0
LINE
  5
82B
100
AcDbEntity
  8
3
370
    25
100
AcDbLine
 10
55.060512
 20
381.546293
 30
0.0
 11
50.963601
 21
377.162765
 31
0.0
  0
LINE
  5
82C
100
AcDbEntity
  8
3
370
    25
100
AcDbLine
 10
49.320719
 20
379.798502
 30
0.0
 11
50.963601
 21
377.162765
 31
0.0
  0
LINE
  5
82D
100
AcDbEntity
  8
3
370
    25
100
AcDbLine
 10
12.166153
 20
307.251082
 30
0.0
 11
13.913943
 21
312.990875
 31
0.0
  0
LINE
  5
82E
100
AcDbEntity
  8
3
370
    25
100
AcDbLine
 10
12.166153
 20
307.251082
 30
0.0
 11
10.809887
 21
313.095784
 31
0.0
  0
LINE
  5
82F
100
AcDbEntity
  8
3
370
    25
100
AcDbLine
 10
13.913943
 20
312.990875
 30
0.0
 11
10.809887
 21
313.095784
 31
0.0
  0
ARC
  5
830
100
AcDbEntity
  8
3
370
    25
100
AcDbCircle
 10
97.954872
 20
307.251082
 30
0.0
 40
85.78872
100
AcDbArc
 50
120.0
 51
180.0
  0
ENDBLK
  5
831
100
AcDbEntity
  8
3
100
AcDbBlockEnd
  0
BLOCK
  5
832
100
AcDbEntity
  8
3
100
AcDbBlockBegin
  2
*D11
 70
     1
 10
0.0
 20
0.0
 30
0.0
  3
*D11
  1

  0
TEXT
  5
833
100
AcDbEntity
  8
3
370
    25
100
AcDbText
 10
11.647165
 20
302.694684
 30
0.0
 40
10.5
  1
２０゜
 50
280.0
 72
     5
 11
16.752421
 21
273.741336
 31
0.0
100
AcDbText
  0
LINE
  5
834
100
AcDbEntity
  8
3
370
    25
100
AcDbLine
 10
12.073934
 20
307.251082
 30
0.0
 11
15.167163
 21
307.251082
 31
0.0
  0
LINE
  5
835
100
AcDbEntity
  8
3
370
    25
100
AcDbLine
 10
20.660628
 20
279.118278
 30
0.0
 11
14.521717
 21
276.883897
 31
0.0
  0
LINE
  5
836
100
AcDbEntity
  8
3
370
    25
100
AcDbLine
 10
12.167163
 20
307.251082
 30
0.0
 11
10.8109
 21
301.406379
 31
0.0
  0
LINE
  5
837
100
AcDbEntity
  8
3
370
    25
100
AcDbLine
 10
12.167163
 20
307.251082
 30
0.0
 11
13.914956
 21
301.511289
 31
0.0
  0
LINE
  5
838
100
AcDbEntity
  8
3
370
    25
100
AcDbLine
 10
10.8109
 20
301.406379
 30
0.0
 11
13.914956
 21
301.511289
 31
0.0
  0
LINE
  5
839
100
AcDbEntity
  8
3
370
    25
100
AcDbLine
 10
17.340795
 20
277.909957
 30
0.0
 11
17.020058
 21
283.901379
 31
0.0
  0
LINE
  5
83A
100
AcDbEntity
  8
3
370
    25
100
AcDbLine
 10
17.340795
 20
277.909957
 30
0.0
 11
14.067318
 21
282.938312
 31
0.0
  0
LINE
  5
83B
100
AcDbEntity
  8
3
370
    25
100
AcDbLine
 10
17.020058
 20
283.901379
 30
0.0
 11
14.067318
 21
282.938312
 31
0.0
  0
ARC
  5
83C
100
AcDbEntity
  8
3
370
    25
100
AcDbCircle
 10
97.954872
 20
307.251082
 30
0.0
 40
85.78771
100
AcDbArc
 50
180.0
 51
200.0
  0
ENDBLK
  5
83D
100
AcDbEntity
  8
3
100
AcDbBlockEnd
  0
ENDSEC
  0
SECTION
  2
ENTITIES
  0
LINE
  5
30
100
AcDbEntity
  8
1
370
   100
100
AcDbLine
 10
-559.532355
 20
412.543151
 30
0.0
 11
592.473578
 21
412.543151
 31
0.0
  0
LINE
  5
31
100
AcDbEntity
  8
1
370
   100
100
AcDbLine
 10
-559.532355
 20
412.543151
 30
0.0
 11
-559.532355
 21
-416.957822
 31
0.0
  0
LINE
  5
32
100
AcDbEntity
  8
1
370
   100
100
AcDbLine
 10
-559.532355
 20
-416.957822
 30
0.0
 11
592.473578
 21
-416.957822
 31
0.0
  0
LINE
  5
33
100
AcDbEntity
  8
1
370
   100
100
AcDbLine
 10
592.473578
 20
-416.957822
 30
0.0
 11
592.473578
 21
412.543151
 31
0.0
  0
TEXT
  5
34
100
AcDbEntity
  8
1
370
    50
100
AcDbText
 10
539.442664
 20
-339.379285
 30
0.0
 40
9.0
  1
設計
 72
     5
 11
555.642664
 21
-339.379285
 31
0.0
100
AcDbText
  0
TEXT
  5
35
100
AcDbEntity
  8
1
370
    50
100
AcDbText
 10
568.691217
 20
-339.149488
 30
0.0
 40
9.0
  1
製図
 72
     5
 11
584.891217
 21
-339.149488
 31
0.0
100
AcDbText
  0
TEXT
  5
36
100
AcDbEntity
  8
1
370
    50
100
AcDbText
 10
478.508617
 20
-339.379285
 30
0.0
 40
9.0
  1
承認
 72
     5
 11
494.708617
 21
-339.379285
 31
0.0
100
AcDbText
  0
TEXT
  5
37
100
AcDbEntity
  8
1
370
    50
100
AcDbText
 10
508.484518
 20
-339.297029
 30
0.0
 40
9.0
  1
検図
 72
     5
 11
524.684518
 21
-339.297029
 31
0.0
100
AcDbText
  0
LINE
  5
38
100
AcDbEntity
  8
1
370
    25
100
AcDbLine
 10
427.473578
 20
-341.957822
 30
0.0
 11
592.473578
 21
-341.957822
 31
0.0
  0
LINE
  5
39
100
AcDbEntity
  8
1
370
    25
100
AcDbLine
 10
513.723578
 20
-368.957822
 30
0.0
 11
513.723578
 21
-389.957822
 31
0.0
  0
TEXT
  5
3A
100
AcDbEntity
  8
1
370
    50
100
AcDbText
 10
479.327385
 20
-384.018792
 30
0.0
 40
9.0
  1
日　付
 72
     5
 11
504.527385
 21
-384.018792
 31
0.0
100
AcDbText
  0
LINE
  5
3B
100
AcDbEntity
  8
1
370
    50
100
AcDbLine
 10
61.473578
 20
-389.957822
 30
0.0
 11
592.473578
 21
-389.957822
 31
0.0
  0
TEXT
  5
3C
100
AcDbEntity
  8
1
370
    50
100
AcDbText
 10
431.662516
 20
-384.483609
 30
0.0
 40
9.0
  1
第三角法
 72
     5
 11
465.862516
 21
-384.483609
 31
0.0
100
AcDbText
  0
TEXT
  5
3D
100
AcDbEntity
  8
1
370
    50
100
AcDbText
 10
436.631129
 20
-338.997029
 30
0.0
 40
9.0
  1
尺　度
 72
     5
 11
461.831129
 21
-338.997029
 31
0.0
100
AcDbText
  0
LINE
  5
3E
100
AcDbEntity
  8
1
370
   100
100
AcDbLine
 10
61.473578
 20
-326.957822
 30
0.0
 11
592.473578
 21
-326.957822
 31
0.0
  0
LINE
  5
3F
100
AcDbEntity
  8
1
370
    50
100
AcDbLine
 10
317.973578
 20
-326.957822
 30
0.0
 11
317.973578
 21
-416.957822
 31
0.0
  0
LINE
  5
40
100
AcDbEntity
  8
1
370
    25
100
AcDbLine
 10
562.473578
 20
-368.957822
 30
0.0
 11
562.473578
 21
-326.957822
 31
0.0
  0
LINE
  5
41
100
AcDbEntity
  8
1
370
    25
100
AcDbLine
 10
532.473578
 20
-368.957822
 30
0.0
 11
532.473578
 21
-326.957822
 31
0.0
  0
LINE
  5
42
100
AcDbEntity
  8
1
370
    25
100
AcDbLine
 10
502.473578
 20
-368.957822
 30
0.0
 11
502.473578
 21
-326.957822
 31
0.0
  0
LINE
  5
43
100
AcDbEntity
  8
1
370
    50
100
AcDbLine
 10
427.473578
 20
-416.957822
 30
0.0
 11
427.473578
 21
-326.957822
 31
0.0
  0
LINE
  5
44
100
AcDbEntity
  8
1
370
    50
100
AcDbLine
 10
284.973578
 20
-326.957822
 30
0.0
 11
284.973578
 21
-416.957822
 31
0.0
  0
LINE
  5
45
100
AcDbEntity
  8
1
370
    50
100
AcDbLine
 10
94.473578
 20
-326.957822
 30
0.0
 11
94.473578
 21
-389.957822
 31
0.0
  0
LINE
  5
46
100
AcDbEntity
  8
1
370
    50
100
AcDbLine
 10
427.473578
 20
-368.957822
 30
0.0
 11
592.473578
 21
-368.957822
 31
0.0
  0
TEXT
  5
47
100
AcDbEntity
  8
1
370
    50
100
AcDbText
 10
430.651694
 20
-407.821408
 30
0.0
 40
9.0
  1
コードＮｏ
 41
0.9
 72
     5
 11
469.531694
 21
-407.821408
 31
0.0
100
AcDbText
  0
TEXT
  5
48
100
AcDbEntity
  8
1
370
   100
100
AcDbText
 10
79.330161
 20
-409.313489
 30
0.0
 40
12.0
  1
ミズタニバルブ工業株式会社
 41
1.2
 72
     5
 11
263.650161
 21
-409.313489
 31
0.0
100
AcDbText
  0
LINE
  5
49
100
AcDbEntity
  8
1
370
    50
100
AcDbLine
 10
61.473578
 20
-358.457822
 30
0.0
 11
427.473578
 21
-358.457822
 31
0.0
  0
LINE
  5
4A
100
AcDbEntity
  8
1
370
    50
100
AcDbLine
 10
173.223578
 20
-358.457822
 30
0.0
 11
173.223578
 21
-389.957822
 31
0.0
  0
LINE
  5
4B
100
AcDbEntity
  8
1
370
    50
100
AcDbLine
 10
206.223578
 20
-358.457822
 30
0.0
 11
206.223578
 21
-389.957822
 31
0.0
  0
LINE
  5
4C
100
AcDbEntity
  8
1
370
    50
100
AcDbLine
 10
472.473578
 20
-416.957822
 30
0.0
 11
472.473578
 21
-326.957822
 31
0.0
  0
TEXT
  5
4D
100
AcDbEntity
  8
1
370
    50
100
AcDbText
 10
517.647196
 20
-384.15044
 30
0.0
 40
9.0
  1
　　・　　・
 72
     5
 11
569.847196
 21
-384.15044
 31
0.0
100
AcDbText
  0
LINE
  5
4E
100
AcDbEntity
  8
1
370
   100
100
AcDbLine
 10
61.473578
 20
-326.957822
 30
0.0
 11
61.473578
 21
-416.957822
 31
0.0
  0
TEXT
  5
4F
100
AcDbEntity
  8
1
370
    50
100
AcDbText
 10
436.248873
 20
-360.020238
 30
0.0
 40
9.0
  1
　／ 
 72
     5
 11
452.448873
 21
-360.020238
 31
0.0
100
AcDbText
  0
TEXT
  5
50
100
AcDbEntity
  8
1
370
    50
100
AcDbText
 10
290.856184
 20
-408.037363
 30
0.0
 40
9.0
  1
備 考 
 72
     5
 11
311.556184
 21
-408.037363
 31
0.0
100
AcDbText
  0
TEXT
  5
51
100
AcDbEntity
  8
1
370
    50
100
AcDbText
 10
290.2688
 20
-346.33776
 30
0.0
 40
9.0
  1
仕 上
 72
     5
 11
310.9688
 21
-346.33776
 31
0.0
100
AcDbText
  0
TEXT
  5
52
100
AcDbEntity
  8
1
370
    50
100
AcDbText
 10
290.170764
 20
-373.337499
 30
0.0
 40
9.0
  1
表 面
 72
     5
 11
310.870764
 21
-373.337499
 31
0.0
100
AcDbText
  0
TEXT
  5
53
100
AcDbEntity
  8
1
370
    50
100
AcDbText
 10
290.170764
 20
-383.837499
 30
0.0
 40
9.0
  1
処 理
 72
     5
 11
310.870764
 21
-383.837499
 31
0.0
100
AcDbText
  0
TEXT
  5
54
100
AcDbEntity
  8
1
370
    50
100
AcDbText
 10
67.190025
 20
-347.540099
 30
0.0
 40
9.0
  1
品 名
 72
     5
 11
87.890025
 21
-347.540099
 31
0.0
100
AcDbText
  0
TEXT
  5
55
100
AcDbEntity
  8
1
370
    50
100
AcDbText
 10
66.596649
 20
-378.693801
 30
0.0
 40
9.0
  1
材 質
 72
     5
 11
87.296649
 21
-378.693801
 31
0.0
100
AcDbText
  0
TEXT
  5
56
100
AcDbEntity
  8
1
370
    50
100
AcDbText
 10
178.346649
 20
-378.693801
 30
0.0
 40
9.0
  1
規 格
 72
     5
 11
199.046649
 21
-378.693801
 31
0.0
100
AcDbText
  0
LINE
  5
57
100
AcDbEntity
  8
2
370
    50
100
AcDbLine
 10
115.454872
 20
167.650702
 30
0.0
 11
115.454872
 21
58.450702
 31
0.0
  0
LINE
  5
58
100
AcDbEntity
  8
2
370
    50
100
AcDbLine
 10
80.454872
 20
58.450702
 30
0.0
 11
80.754872
 21
58.150702
 31
0.0
  0
LINE
  5
59
100
AcDbEntity
  8
2
370
    50
100
AcDbLine
 10
115.454872
 20
58.450702
 30
0.0
 11
115.154872
 21
58.150702
 31
0.0
  0
LINE
  5
5A
100
AcDbEntity
  8
2
370
    50
100
AcDbLine
 10
80.454872
 20
58.450702
 30
0.0
 11
80.454872
 21
119.650702
 31
0.0
  0
LINE
  5
5B
100
AcDbEntity
  8
2
370
    50
100
AcDbLine
 10
80.454872
 20
138.650702
 30
0.0
 11
80.454872
 21
164.650702
 31
0.0
  0
LINE
  5
5C
100
AcDbEntity
  8
2
370
    50
100
AcDbLine
 10
80.454872
 20
138.650702
 30
0.0
 11
28.123334
 21
138.650702
 31
0.0
  0
LINE
  5
5D
100
AcDbEntity
  8
2
370
    50
100
AcDbLine
 10
80.454872
 20
119.650702
 30
0.0
 11
28.123334
 21
119.650702
 31
0.0
  0
ARC
  5
5E
100
AcDbEntity
  8
2
370
    50
100
AcDbCircle
 10
28.123334
 20
104.150702
 30
0.0
 40
34.5
100
AcDbArc
 50
90.0
 51
140.0
  0
ARC
  5
5F
100
AcDbEntity
  8
2
370
    50
100
AcDbCircle
 10
28.123334
 20
104.150702
 30
0.0
 40
15.5
100
AcDbArc
 50
90.0
 51
140.0
  0
LINE
  5
60
100
AcDbEntity
  8
2
370
    50
100
AcDbLine
 10
1.694801
 20
126.326875
 30
0.0
 11
-6.231759
 21
116.880368
 31
0.0
  0
LINE
  5
61
100
AcDbEntity
  8
2
370
    50
100
AcDbLine
 10
16.249645
 20
114.11391
 30
0.0
 11
8.323085
 21
104.667404
 31
0.0
  0
LINE
  5
62
100
AcDbEntity
  8
2
370
    50
100
AcDbLine
 10
-6.231759
 20
116.880368
 30
0.0
 11
-6.553153
 21
116.497346
 31
0.0
  0
LINE
  5
63
100
AcDbEntity
  8
2
370
    50
100
AcDbLine
 10
-6.553153
 20
116.497346
 30
0.0
 11
0.724269
 21
110.390864
 31
0.0
  0
LINE
  5
64
100
AcDbEntity
  8
2
370
    50
100
AcDbLine
 10
-6.231759
 20
116.880368
 30
0.0
 11
1.045663
 21
110.773886
 31
0.0
  0
LINE
  5
65
100
AcDbEntity
  8
2
370
    50
100
AcDbLine
 10
8.323085
 20
104.667404
 30
0.0
 11
8.001691
 21
104.284382
 31
0.0
  0
LINE
  5
66
100
AcDbEntity
  8
2
370
    50
100
AcDbLine
 10
8.001691
 20
104.284382
 30
0.0
 11
0.724269
 21
110.390864
 31
0.0
  0
LINE
  5
67
100
AcDbEntity
  8
2
370
    50
100
AcDbLine
 10
8.323085
 20
104.667404
 30
0.0
 11
1.045663
 21
110.773886
 31
0.0
  0
LINE
  5
68
100
AcDbEntity
  8
2
370
    50
100
AcDbLine
 10
115.154872
 20
58.150702
 30
0.0
 11
80.754872
 21
58.150702
 31
0.0
  0
LINE
  5
69
100
AcDbEntity
  8
2
370
    50
100
AcDbLine
 10
97.954872
 20
169.050702
 30
0.0
 11
80.454872
 21
169.050702
 31
0.0
  0
LINE
  5
6A
100
AcDbEntity
  8
2
370
    50
100
AcDbLine
 10
114.454872
 20
194.050702
 30
0.0
 11
81.454872
 21
194.050702
 31
0.0
  0
LINE
  5
6B
100
AcDbEntity
  8
2
370
    50
100
AcDbLine
 10
80.454872
 20
169.050702
 30
0.0
 11
80.454872
 21
181.850702
 31
0.0
  0
ARC
  5
6C
100
AcDbEntity
  8
2
370
    50
100
AcDbCircle
 10
114.454872
 20
193.050702
 30
0.0
 40
1.0
100
AcDbArc
 50
0.0
 51
90.0
  0
ARC
  5
6D
100
AcDbEntity
  8
2
370
    50
100
AcDbCircle
 10
81.454872
 20
193.050702
 30
0.0
 40
1.0
100
AcDbArc
 50
90.0
 51
180.0
  0
LINE
  5
6E
100
AcDbEntity
  8
2
370
    50
100
AcDbLine
 10
80.454872
 20
193.050702
 30
0.0
 11
80.454872
 21
190.250702
 31
0.0
  0
ARC
  5
6F
100
AcDbEntity
  8
2
370
    50
100
AcDbCircle
 10
63.466347
 20
186.050702
 30
0.0
 40
17.5
100
AcDbArc
 50
346.11346
 51
360.0
  0
ARC
  5
70
100
AcDbEntity
  8
2
370
    50
100
AcDbCircle
 10
63.466347
 20
186.050702
 30
0.0
 40
17.5
100
AcDbArc
 50
0.0
 51
13.88654
  0
ARC
  5
71
100
AcDbEntity
  8
2
370
    50
100
AcDbCircle
 10
109.526669
 20
186.050702
 30
0.0
 40
8.0
100
AcDbArc
 50
0.0
 51
30.0
  0
LINE
  5
72
100
AcDbEntity
  8
2
370
    50
100
AcDbLine
 10
116.454872
 20
190.050702
 30
0.0
 11
115.454872
 21
190.050702
 31
0.0
  0
LINE
  5
73
100
AcDbEntity
  8
2
370
    50
100
AcDbLine
 10
115.454872
 20
189.300702
 30
0.0
 11
115.454872
 21
190.050702
 31
0.0
  0
ARC
  5
74
100
AcDbEntity
  8
2
370
    50
100
AcDbCircle
 10
109.526669
 20
186.050702
 30
0.0
 40
8.0
100
AcDbArc
 50
330.0
 51
360.0
  0
LINE
  5
75
100
AcDbEntity
  8
2
370
    50
100
AcDbLine
 10
116.454872
 20
182.050702
 30
0.0
 11
115.454872
 21
182.050702
 31
0.0
  0
LINE
  5
76
100
AcDbEntity
  8
2
370
    50
100
AcDbLine
 10
115.454872
 20
182.800702
 30
0.0
 11
115.454872
 21
182.050702
 31
0.0
  0
LINE
  5
77
100
AcDbEntity
  8
2
370
    50
100
AcDbLine
 10
115.454872
 20
177.470178
 30
0.0
 11
115.454872
 21
186.050702
 31
0.0
  0
LINE
  5
78
100
AcDbEntity
  8
2
370
    50
100
AcDbLine
 10
115.454872
 20
186.050702
 30
0.0
 11
115.454872
 21
193.050702
 31
0.0
  0
LINE
  5
79
100
AcDbEntity
  8
2
370
    50
100
AcDbLine
 10
21.955049
 20
182.050702
 30
0.0
 11
80.503072
 21
182.050702
 31
0.0
  0
LINE
  5
7A
100
AcDbEntity
  8
2
370
    50
100
AcDbLine
 10
21.955049
 20
190.050702
 30
0.0
 11
80.503072
 21
190.050702
 31
0.0
  0
LINE
  5
7B
100
AcDbEntity
  8
2
370
    50
100
AcDbLine
 10
21.455049
 20
182.550702
 30
0.0
 11
21.455049
 21
189.550702
 31
0.0
  0
LINE
  5
7C
100
AcDbEntity
  8
2
370
    50
100
AcDbLine
 10
21.955049
 20
190.050702
 30
0.0
 11
21.455049
 21
189.550702
 31
0.0
  0
LINE
  5
7D
100
AcDbEntity
  8
2
370
    50
100
AcDbLine
 10
21.455049
 20
182.550702
 30
0.0
 11
21.955049
 21
182.050702
 31
0.0
  0
LINE
  5
7E
100
AcDbEntity
  8
2
370
    25
100
AcDbLine
 10
116.454872
 20
190.050702
 30
0.0
 11
116.454872
 21
182.050702
 31
0.0
  0
ARC
  5
7F
100
AcDbEntity
  8
2
370
    25
100
AcDbCircle
 10
65.757934
 20
129.150702
 30
0.0
 40
17.5
100
AcDbArc
 50
327.12165
 51
32.87835
  0
LINE
  5
80
100
AcDbEntity
  8
2
370
    25
100
AcDbLine
 10
80.454872
 20
58.450702
 30
0.0
 11
115.454872
 21
58.450702
 31
0.0
  0
LINE
  5
81
100
AcDbEntity
  8
2
370
    50
100
AcDbLine
 10
-339.453258
 20
194.550702
 30
0.0
 11
-372.453258
 21
194.550702
 31
0.0
  0
LINE
  5
82
100
AcDbEntity
  8
2
370
    50
100
AcDbLine
 10
-373.453258
 20
193.550702
 30
0.0
 11
-373.453258
 21
169.050702
 31
0.0
  0
LINE
  5
83
100
AcDbEntity
  8
2
370
    50
100
AcDbLine
 10
-338.453258
 20
193.550702
 30
0.0
 11
-338.453258
 21
169.050702
 31
0.0
  0
ARC
  5
84
100
AcDbEntity
  8
2
370
    50
100
AcDbCircle
 10
-372.453258
 20
193.550702
 30
0.0
 40
1.0
100
AcDbArc
 50
90.0
 51
180.0
  0
ARC
  5
85
100
AcDbEntity
  8
2
370
    50
100
AcDbCircle
 10
-339.453258
 20
193.550702
 30
0.0
 40
1.0
100
AcDbArc
 50
0.0
 51
90.0
  0
LINE
  5
86
100
AcDbEntity
  8
2
370
    50
100
AcDbLine
 10
-338.453258
 20
169.050702
 30
0.0
 11
-373.453258
 21
169.050702
 31
0.0
  0
CIRCLE
  5
87
100
AcDbEntity
  8
2
370
    50
100
AcDbCircle
 10
-355.953258
 20
186.550702
 30
0.0
 40
4.0
  0
CIRCLE
  5
88
100
AcDbEntity
  8
2
370
    25
100
AcDbCircle
 10
-355.953258
 20
186.550702
 30
0.0
 40
3.5
  0
LINE
  5
89
100
AcDbEntity
  8
2
370
    50
100
AcDbLine
 10
-338.953258
 20
168.150702
 30
0.0
 11
-372.953258
 21
168.150702
 31
0.0
  0
LINE
  5
8A
100
AcDbEntity
  8
2
370
    50
100
AcDbLine
 10
-338.453258
 20
167.650702
 30
0.0
 11
-338.453258
 21
58.450702
 31
0.0
  0
LINE
  5
8B
100
AcDbEntity
  8
2
370
    50
100
AcDbLine
 10
-338.453258
 20
167.650702
 30
0.0
 11
-338.953258
 21
168.150702
 31
0.0
  0
LINE
  5
8C
100
AcDbEntity
  8
2
370
    50
100
AcDbLine
 10
-372.953258
 20
168.150702
 30
0.0
 11
-373.453258
 21
167.650702
 31
0.0
  0
LINE
  5
8D
100
AcDbEntity
  8
2
370
    25
100
AcDbLine
 10
-338.453258
 20
167.650702
 30
0.0
 11
-373.453258
 21
167.650702
 31
0.0
  0
LINE
  5
8E
100
AcDbEntity
  8
2
370
    50
100
AcDbLine
 10
-373.453258
 20
58.450702
 30
0.0
 11
-373.153258
 21
58.150702
 31
0.0
  0
LINE
  5
8F
100
AcDbEntity
  8
2
370
    50
100
AcDbLine
 10
-338.453258
 20
58.450702
 30
0.0
 11
-338.753258
 21
58.150702
 31
0.0
  0
LINE
  5
90
100
AcDbEntity
  8
2
370
    50
100
AcDbLine
 10
-373.453258
 20
58.450702
 30
0.0
 11
-373.453258
 21
167.650702
 31
0.0
  0
LINE
  5
91
100
AcDbEntity
  8
2
370
    50
100
AcDbLine
 10
-338.753258
 20
58.150702
 30
0.0
 11
-373.153258
 21
58.150702
 31
0.0
  0
LINE
  5
92
100
AcDbEntity
  8
2
370
    25
100
AcDbLine
 10
-373.453258
 20
58.450702
 30
0.0
 11
-338.453258
 21
58.450702
 31
0.0
  0
LINE
  5
93
100
AcDbEntity
  8
2
370
    50
100
AcDbLine
 10
-365.453258
 20
129.150702
 30
0.0
 11
-365.453258
 21
110.390864
 31
0.0
  0
LINE
  5
94
100
AcDbEntity
  8
2
370
    50
100
AcDbLine
 10
-346.453258
 20
129.150702
 30
0.0
 11
-346.453258
 21
110.390864
 31
0.0
  0
ELLIPSE
  5
95
100
AcDbEntity
  8
2
370
    50
100
AcDbEllipse
 10
-355.953258
 20
110.390864
 30
0.0
 11
9.5
 21
0.0
 31
0.0
210
0.0
220
0.0
230
1.0
 40
0.642789
 41
0.0
 42
3.1415929999999999
  0
ARC
  5
96
100
AcDbEntity
  8
2
370
    50
100
AcDbCircle
 10
-355.953258
 20
129.150702
 30
0.0
 40
9.5
100
AcDbArc
 50
0.0
 51
180.0
  0
LINE
  5
97
100
AcDbEntity
  8
2
370
    50
100
AcDbLine
 10
332.621063
 20
168.150702
 30
0.0
 11
349.621063
 21
168.150702
 31
0.0
  0
LINE
  5
98
100
AcDbEntity
  8
2
370
    50
100
AcDbLine
 10
332.621063
 20
168.150702
 30
0.0
 11
315.621063
 21
168.150702
 31
0.0
  0
LINE
  5
99
100
AcDbEntity
  8
2
370
    50
100
AcDbLine
 10
315.121063
 20
167.650702
 30
0.0
 11
315.121063
 21
58.450702
 31
0.0
  0
LINE
  5
9A
100
AcDbEntity
  8
2
370
    50
100
AcDbLine
 10
315.121063
 20
167.650702
 30
0.0
 11
315.621063
 21
168.150702
 31
0.0
  0
LINE
  5
9B
100
AcDbEntity
  8
2
370
    50
100
AcDbLine
 10
349.621063
 20
168.150702
 30
0.0
 11
350.121063
 21
167.650702
 31
0.0
  0
LINE
  5
9C
100
AcDbEntity
  8
2
370
    50
100
AcDbLine
 10
350.121063
 20
58.450702
 30
0.0
 11
349.821063
 21
58.150702
 31
0.0
  0
LINE
  5
9D
100
AcDbEntity
  8
2
370
    50
100
AcDbLine
 10
315.121063
 20
58.450702
 30
0.0
 11
315.421063
 21
58.150702
 31
0.0
  0
LINE
  5
9E
100
AcDbEntity
  8
2
370
    50
100
AcDbLine
 10
350.121063
 20
58.450702
 30
0.0
 11
350.121063
 21
119.650702
 31
0.0
  0
LINE
  5
9F
100
AcDbEntity
  8
2
370
    50
100
AcDbLine
 10
350.121063
 20
138.650702
 30
0.0
 11
350.121063
 21
167.650702
 31
0.0
  0
LINE
  5
A0
100
AcDbEntity
  8
2
370
    50
100
AcDbLine
 10
350.121063
 20
138.650702
 30
0.0
 11
402.452602
 21
138.650702
 31
0.0
  0
LINE
  5
A1
100
AcDbEntity
  8
2
370
    50
100
AcDbLine
 10
350.121063
 20
119.650702
 30
0.0
 11
402.452602
 21
119.650702
 31
0.0
  0
ARC
  5
A2
100
AcDbEntity
  8
2
370
    50
100
AcDbCircle
 10
402.452602
 20
104.150702
 30
0.0
 40
34.5
100
AcDbArc
 50
40.0
 51
90.0
  0
ARC
  5
A3
100
AcDbEntity
  8
2
370
    50
100
AcDbCircle
 10
402.452602
 20
104.150702
 30
0.0
 40
15.5
100
AcDbArc
 50
40.0
 51
90.0
  0
LINE
  5
A4
100
AcDbEntity
  8
2
370
    50
100
AcDbLine
 10
428.881135
 20
126.326875
 30
0.0
 11
436.807695
 21
116.880368
 31
0.0
  0
LINE
  5
A5
100
AcDbEntity
  8
2
370
    50
100
AcDbLine
 10
414.32629
 20
114.11391
 30
0.0
 11
422.25285
 21
104.667404
 31
0.0
  0
LINE
  5
A6
100
AcDbEntity
  8
2
370
    50
100
AcDbLine
 10
436.807695
 20
116.880368
 30
0.0
 11
437.129089
 21
116.497346
 31
0.0
  0
LINE
  5
A7
100
AcDbEntity
  8
2
370
    50
100
AcDbLine
 10
437.129089
 20
116.497346
 30
0.0
 11
429.851666
 21
110.390864
 31
0.0
  0
LINE
  5
A8
100
AcDbEntity
  8
2
370
    50
100
AcDbLine
 10
436.807695
 20
116.880368
 30
0.0
 11
429.530273
 21
110.773886
 31
0.0
  0
LINE
  5
A9
100
AcDbEntity
  8
2
370
    50
100
AcDbLine
 10
422.25285
 20
104.667404
 30
0.0
 11
422.574244
 21
104.284382
 31
0.0
  0
LINE
  5
AA
100
AcDbEntity
  8
2
370
    50
100
AcDbLine
 10
422.574244
 20
104.284382
 30
0.0
 11
429.851666
 21
110.390864
 31
0.0
  0
LINE
  5
AB
100
AcDbEntity
  8
2
370
    50
100
AcDbLine
 10
422.25285
 20
104.667404
 30
0.0
 11
429.530273
 21
110.773886
 31
0.0
  0
LINE
  5
AC
100
AcDbEntity
  8
2
370
    50
100
AcDbLine
 10
356.621063
 20
-102.349298
 30
0.0
 11
356.621063
 21
-105.349298
 31
0.0
  0
LINE
  5
AD
100
AcDbEntity
  8
2
370
    50
100
AcDbLine
 10
356.121063
 20
-105.849298
 30
0.0
 11
332.621063
 21
-105.849298
 31
0.0
  0
LINE
  5
AE
100
AcDbEntity
  8
2
370
    50
100
AcDbLine
 10
332.621063
 20
-101.849298
 30
0.0
 11
356.121063
 21
-101.849298
 31
0.0
  0
LINE
  5
AF
100
AcDbEntity
  8
2
370
    50
100
AcDbLine
 10
356.121063
 20
-101.849298
 30
0.0
 11
356.621063
 21
-102.349298
 31
0.0
  0
LINE
  5
B0
100
AcDbEntity
  8
2
370
    50
100
AcDbLine
 10
356.121063
 20
-105.849298
 30
0.0
 11
356.621063
 21
-105.349298
 31
0.0
  0
LINE
  5
B1
100
AcDbEntity
  8
2
370
    50
100
AcDbLine
 10
308.621063
 20
-102.349298
 30
0.0
 11
308.621063
 21
-105.349298
 31
0.0
  0
LINE
  5
B2
100
AcDbEntity
  8
2
370
    50
100
AcDbLine
 10
309.121063
 20
-105.849298
 30
0.0
 11
332.621063
 21
-105.849298
 31
0.0
  0
LINE
  5
B3
100
AcDbEntity
  8
2
370
    50
100
AcDbLine
 10
332.621063
 20
-101.849298
 30
0.0
 11
309.121063
 21
-101.849298
 31
0.0
  0
LINE
  5
B4
100
AcDbEntity
  8
2
370
    50
100
AcDbLine
 10
309.121063
 20
-101.849298
 30
0.0
 11
308.621063
 21
-102.349298
 31
0.0
  0
LINE
  5
B5
100
AcDbEntity
  8
2
370
    50
100
AcDbLine
 10
309.121063
 20
-105.849298
 30
0.0
 11
308.621063
 21
-105.349298
 31
0.0
  0
LINE
  5
B6
100
AcDbEntity
  8
2
370
    50
100
AcDbLine
 10
332.621063
 20
169.050702
 30
0.0
 11
350.121063
 21
169.050702
 31
0.0
  0
LINE
  5
B7
100
AcDbEntity
  8
2
370
    50
100
AcDbLine
 10
316.121063
 20
194.550702
 30
0.0
 11
349.121063
 21
194.550702
 31
0.0
  0
LINE
  5
B8
100
AcDbEntity
  8
2
370
    50
100
AcDbLine
 10
332.621063
 20
169.050702
 30
0.0
 11
315.121063
 21
176.121161
 31
0.0
  0
LINE
  5
B9
100
AcDbEntity
  8
2
370
    50
100
AcDbLine
 10
350.121063
 20
169.050702
 30
0.0
 11
350.121063
 21
182.350702
 31
0.0
  0
ARC
  5
BA
100
AcDbEntity
  8
2
370
    50
100
AcDbCircle
 10
316.121063
 20
193.550702
 30
0.0
 40
1.0
100
AcDbArc
 50
90.0
 51
180.0
  0
ARC
  5
BB
100
AcDbEntity
  8
2
370
    50
100
AcDbCircle
 10
349.121063
 20
193.550702
 30
0.0
 40
1.0
100
AcDbArc
 50
0.0
 51
90.0
  0
LINE
  5
BC
100
AcDbEntity
  8
2
370
    50
100
AcDbLine
 10
350.121063
 20
193.550702
 30
0.0
 11
350.121063
 21
190.750702
 31
0.0
  0
ARC
  5
BD
100
AcDbEntity
  8
2
370
    50
100
AcDbCircle
 10
367.109589
 20
186.550702
 30
0.0
 40
17.5
100
AcDbArc
 50
180.0
 51
193.88654
  0
ARC
  5
BE
100
AcDbEntity
  8
2
370
    50
100
AcDbCircle
 10
367.109589
 20
186.550702
 30
0.0
 40
17.5
100
AcDbArc
 50
166.11346
 51
180.0
  0
ARC
  5
BF
100
AcDbEntity
  8
2
370
    50
100
AcDbCircle
 10
321.049267
 20
186.550702
 30
0.0
 40
8.0
100
AcDbArc
 50
150.0
 51
180.0
  0
LINE
  5
C0
100
AcDbEntity
  8
2
370
    50
100
AcDbLine
 10
314.121063
 20
190.550702
 30
0.0
 11
315.121063
 21
190.550702
 31
0.0
  0
LINE
  5
C1
100
AcDbEntity
  8
2
370
    50
100
AcDbLine
 10
315.121063
 20
189.800702
 30
0.0
 11
315.121063
 21
190.550702
 31
0.0
  0
ARC
  5
C2
100
AcDbEntity
  8
2
370
    50
100
AcDbCircle
 10
321.049267
 20
186.550702
 30
0.0
 40
8.0
100
AcDbArc
 50
180.0
 51
210.0
  0
LINE
  5
C3
100
AcDbEntity
  8
2
370
    50
100
AcDbLine
 10
314.121063
 20
182.550702
 30
0.0
 11
315.121063
 21
182.550702
 31
0.0
  0
LINE
  5
C4
100
AcDbEntity
  8
2
370
    50
100
AcDbLine
 10
315.121063
 20
183.300702
 30
0.0
 11
315.121063
 21
182.550702
 31
0.0
  0
LINE
  5
C5
100
AcDbEntity
  8
2
370
    50
100
AcDbLine
 10
315.121063
 20
176.121161
 30
0.0
 11
315.121063
 21
186.550702
 31
0.0
  0
LINE
  5
C6
100
AcDbEntity
  8
2
370
    50
100
AcDbLine
 10
315.121063
 20
186.550702
 30
0.0
 11
315.121063
 21
193.550702
 31
0.0
  0
LINE
  5
C7
100
AcDbEntity
  8
2
370
    50
100
AcDbLine
 10
408.620886
 20
182.550702
 30
0.0
 11
350.072864
 21
182.550702
 31
0.0
  0
LINE
  5
C8
100
AcDbEntity
  8
2
370
    50
100
AcDbLine
 10
408.620886
 20
190.550702
 30
0.0
 11
350.072864
 21
190.550702
 31
0.0
  0
LINE
  5
C9
100
AcDbEntity
  8
2
370
    50
100
AcDbLine
 10
409.120886
 20
183.050702
 30
0.0
 11
409.120886
 21
190.050702
 31
0.0
  0
LINE
  5
CA
100
AcDbEntity
  8
2
370
    50
100
AcDbLine
 10
408.620886
 20
190.550702
 30
0.0
 11
409.120886
 21
190.050702
 31
0.0
  0
LINE
  5
CB
100
AcDbEntity
  8
2
370
    50
100
AcDbLine
 10
409.120886
 20
183.050702
 30
0.0
 11
408.620886
 21
182.550702
 31
0.0
  0
LINE
  5
CC
100
AcDbEntity
  8
2
370
    25
100
AcDbLine
 10
314.121063
 20
190.550702
 30
0.0
 11
314.121063
 21
182.550702
 31
0.0
  0
ARC
  5
CD
100
AcDbEntity
  8
2
370
    25
100
AcDbCircle
 10
364.818002
 20
129.150702
 30
0.0
 40
17.5
100
AcDbArc
 50
147.12165
 51
212.87835
  0
LINE
  5
CE
100
AcDbEntity
  8
2
370
    25
100
AcDbLine
 10
315.121063
 20
167.650702
 30
0.0
 11
350.121063
 21
167.650702
 31
0.0
  0
LINE
  5
CF
100
AcDbEntity
  8
2
370
    25
100
AcDbLine
 10
350.121063
 20
58.450702
 30
0.0
 11
315.121063
 21
58.450702
 31
0.0
  0
LINE
  5
D0
100
AcDbEntity
  8
2
370
    25
100
AcDbLine
 10
308.621063
 20
-102.349298
 30
0.0
 11
356.621063
 21
-102.349298
 31
0.0
  0
LINE
  5
D1
100
AcDbEntity
  8
2
370
    25
100
AcDbLine
 10
356.621063
 20
-105.349298
 30
0.0
 11
308.621063
 21
-105.349298
 31
0.0
  0
LINE
  5
D2
100
AcDbEntity
  8
2
370
    50
100
AcDbLine
 10
309.121063
 20
-108.849298
 30
0.0
 11
356.121063
 21
-108.849298
 31
0.0
  0
LINE
  5
D3
100
AcDbEntity
  8
2
370
    50
100
AcDbLine
 10
356.121063
 20
-105.849298
 30
0.0
 11
356.121063
 21
-108.849298
 31
0.0
  0
LINE
  5
D4
100
AcDbEntity
  8
2
370
    50
100
AcDbLine
 10
309.121063
 20
-105.849298
 30
0.0
 11
309.121063
 21
-108.849298
 31
0.0
  0
HATCH
  5
D5
100
AcDbEntity
  8
2
370
    25
100
AcDbHatch
 10
0.0
 20
0.0
 30
0.0
210
0.0
220
0.0
230
1.0
  2
_U
 70
     0
 71
     1
 91
        1
 92
        1
 93
        5
 72
     1
 10
309.12106299999999
 20
-105.849298
 11
332.62106299999999
 21
-105.849298
 72
     1
 10
332.62106299999999
 20
-105.849298
 11
356.12106299999999
 21
-105.849298
 72
     1
 10
356.12106299999999
 20
-105.849298
 11
356.12106299999999
 21
-108.849298
 72
     1
 10
356.12106299999999
 20
-108.849298
 11
309.12106299999999
 21
-108.849298
 72
     1
 10
309.12106299999999
 20
-108.849298
 11
309.12106299999999
 21
-105.849298
 97
        5
330
0
330
0
330
0
330
0
330
0
 75
     0
 76
     0
 52
45.0
 41
1.0
 77
     0
 78
     1
 53
45.0
 43
0.0
 44
0.0
 45
-2.1213199999999999
 46
2.1213199999999999
 79
     0
 98
        1
 10
0.0
 20
0.0
  0
LINE
  5
D6
100
AcDbEntity
  8
2
370
    25
  6
CENTER
100
AcDbLine
 10
124.141247
 20
307.251082
 30
0.0
 11
-21.215649
 21
307.251082
 31
0.0
  0
LINE
  5
D7
100
AcDbEntity
  8
2
370
    25
100
AcDbLine
 10
21.955049
 20
190.050702
 30
0.0
 11
21.955049
 21
182.050702
 31
0.0
  0
LINE
  5
D8
100
AcDbEntity
  8
2
370
    50
100
AcDbLine
 10
83.257934
 20
316.751082
 30
0.0
 11
-12.517156
 21
316.751082
 31
0.0
  0
LINE
  5
D9
100
AcDbEntity
  8
2
370
    50
100
AcDbLine
 10
83.257934
 20
297.751082
 30
0.0
 11
-12.517156
 21
297.751082
 31
0.0
  0
POINT
  5
DA
100
AcDbEntity
  8
2
370
    50
100
AcDbPoint
 10
-12.517156
 20
94.610348
 30
0.0
  0
ELLIPSE
  5
DB
100
AcDbEntity
  8
2
370
    50
100
AcDbEllipse
 10
-12.517156
 20
307.251082
 30
0.0
 11
0.0
 21
9.5
 31
0.0
210
0.0
220
0.0
230
1.0
 40
0.766053
 41
0.0
 42
3.1415929999999999
  0
ELLIPSE
  5
DC
100
AcDbEntity
  8
2
370
    50
100
AcDbEllipse
 10
0.338596
 20
307.251082
 30
0.0
 11
0.0
 21
9.5
 31
0.0
210
0.0
220
0.0
230
1.0
 40
0.766053
 41
0.0
 42
3.1415929999999999
  0
ELLIPSE
  5
DD
100
AcDbEntity
  8
2
370
    50
100
AcDbEllipse
 10
0.724269
 20
307.251082
 30
0.0
 11
0.0
 21
9.5
 31
0.0
210
0.0
220
0.0
230
1.0
 40
0.766053
 41
0.0
 42
3.1415929999999999
  0
LINE
  5
DE
100
AcDbEntity
  8
2
370
    25
  6
CENTER
100
AcDbLine
 10
97.954872
 20
282.099776
 30
0.0
 11
97.954872
 21
332.504225
 31
0.0
  0
LINE
  5
DF
100
AcDbEntity
  8
2
370
    25
  6
DASHED
100
AcDbLine
 10
32.358949
 20
209.574127
 30
0.0
 11
77.076875
 21
191.506912
 31
0.0
  0
LINE
  5
E0
100
AcDbEntity
  8
2
370
    25
  6
DASHED
100
AcDbLine
 10
35.355802
 20
216.991598
 30
0.0
 11
86.531577
 21
196.315243
 31
0.0
  0
LINE
  5
E1
100
AcDbEntity
  8
2
370
    25
  6
DASHED
100
AcDbLine
 10
32.08266
 20
210.225022
 30
0.0
 11
34.704907
 21
216.715309
 31
0.0
  0
LINE
  5
E2
100
AcDbEntity
  8
2
370
    25
  6
DASHED
100
AcDbLine
 10
35.355802
 20
216.991598
 30
0.0
 11
34.704907
 21
216.715309
 31
0.0
  0
LINE
  5
E3
100
AcDbEntity
  8
2
370
    25
  6
DASHED
100
AcDbLine
 10
32.08266
 20
210.225022
 30
0.0
 11
32.358949
 21
209.574127
 31
0.0
  0
LINE
  5
E4
100
AcDbEntity
  8
2
370
    25
  6
DASHED
100
AcDbLine
 10
35.355802
 20
216.991598
 30
0.0
 11
32.358949
 21
209.574127
 31
0.0
  0
LINE
  5
E5
100
AcDbEntity
  8
2
370
    25
  6
DASHED
100
AcDbLine
 10
122.618571
 20
186.04929
 30
0.0
 11
119.36797
 21
187.362618
 31
0.0
  0
LINE
  5
E6
100
AcDbEntity
  8
2
370
    25
  6
DASHED
100
AcDbLine
 10
114.12022
 20
169.050702
 30
0.0
 11
116.82923
 21
169.050702
 31
0.0
  0
ARC
  5
E7
100
AcDbEntity
  8
2
370
    25
  6
DASHED
100
AcDbCircle
 10
122.243964
 20
185.122106
 30
0.0
 40
1.0
100
AcDbArc
 50
338.0
 51
68.0
  0
ARC
  5
E8
100
AcDbEntity
  8
2
370
    25
  6
DASHED
100
AcDbCircle
 10
115.052367
 20
180.477956
 30
0.0
 40
8.0
100
AcDbArc
 50
338.0
 51
8.0
  0
LINE
  5
E9
100
AcDbEntity
  8
2
370
    25
  6
DASHED
100
AcDbLine
 10
122.974512
 20
181.591341
 30
0.0
 11
122.047328
 21
181.965948
 31
0.0
  0
LINE
  5
EA
100
AcDbEntity
  8
2
370
    25
  6
DASHED
100
AcDbLine
 10
121.766373
 20
181.27056
 30
0.0
 11
122.047328
 21
181.965948
 31
0.0
  0
ARC
  5
EB
100
AcDbEntity
  8
2
370
    25
  6
DASHED
100
AcDbCircle
 10
115.052367
 20
180.477956
 30
0.0
 40
8.0
100
AcDbArc
 50
308.0
 51
338.0
  0
LINE
  5
EC
100
AcDbEntity
  8
2
370
    25
  6
DASHED
100
AcDbLine
 10
119.977659
 20
174.17387
 30
0.0
 11
119.050475
 21
174.548477
 31
0.0
  0
LINE
  5
ED
100
AcDbEntity
  8
2
370
    25
  6
DASHED
100
AcDbLine
 10
119.33143
 20
175.243865
 30
0.0
 11
119.050475
 21
174.548477
 31
0.0
  0
LINE
  5
EE
100
AcDbEntity
  8
2
370
    25
  6
DASHED
100
AcDbLine
 10
116.82923
 20
169.050702
 30
0.0
 11
120.548902
 21
178.257212
 31
0.0
  0
LINE
  5
EF
100
AcDbEntity
  8
2
370
    25
  6
DASHED
100
AcDbLine
 10
120.548902
 20
178.257212
 30
0.0
 11
123.171148
 21
184.747499
 31
0.0
  0
LINE
  5
F0
100
AcDbEntity
  8
2
370
    25
  6
DASHED
100
AcDbLine
 10
122.974512
 20
181.591341
 30
0.0
 11
119.977659
 21
174.17387
 31
0.0
  0
LINE
  5
F1
100
AcDbEntity
  8
2
370
    25
100
AcDbLine
 10
-373.453258
 20
57.850702
 30
0.0
 11
-338.453258
 21
57.850702
 31
0.0
  0
LINE
  5
F2
100
AcDbEntity
  8
2
370
    50
100
AcDbLine
 10
-338.453258
 20
57.850702
 30
0.0
 11
-338.753258
 21
58.150702
 31
0.0
  0
LINE
  5
F3
100
AcDbEntity
  8
2
370
    50
100
AcDbLine
 10
-373.453258
 20
57.850702
 30
0.0
 11
-373.153258
 21
58.150702
 31
0.0
  0
LINE
  5
F4
100
AcDbEntity
  8
2
370
    50
100
AcDbLine
 10
-373.453258
 20
57.850702
 30
0.0
 11
-373.453258
 21
-101.549298
 31
0.0
  0
LINE
  5
F5
100
AcDbEntity
  8
2
370
    50
100
AcDbLine
 10
-338.453258
 20
-101.549298
 30
0.0
 11
-338.453258
 21
57.850702
 31
0.0
  0
LINE
  5
F6
100
AcDbEntity
  8
2
370
    50
100
AcDbLine
 10
-373.453258
 20
-101.549298
 30
0.0
 11
-373.153258
 21
-101.849298
 31
0.0
  0
LINE
  5
F7
100
AcDbEntity
  8
2
370
    50
100
AcDbLine
 10
-338.453258
 20
-101.549298
 30
0.0
 11
-338.753258
 21
-101.849298
 31
0.0
  0
LINE
  5
F8
100
AcDbEntity
  8
2
370
    50
100
AcDbLine
 10
-355.953258
 20
-101.849298
 30
0.0
 11
-379.453258
 21
-101.849298
 31
0.0
  0
LINE
  5
F9
100
AcDbEntity
  8
2
370
    50
100
AcDbLine
 10
-379.453258
 20
-101.849298
 30
0.0
 11
-379.953258
 21
-102.349298
 31
0.0
  0
LINE
  5
FA
100
AcDbEntity
  8
2
370
    50
100
AcDbLine
 10
-379.953258
 20
-102.349298
 30
0.0
 11
-379.953258
 21
-105.349298
 31
0.0
  0
LINE
  5
FB
100
AcDbEntity
  8
2
370
    50
100
AcDbLine
 10
-379.953258
 20
-105.349298
 30
0.0
 11
-379.453258
 21
-105.849298
 31
0.0
  0
LINE
  5
FC
100
AcDbEntity
  8
2
370
    50
100
AcDbLine
 10
-355.953258
 20
-105.849298
 30
0.0
 11
-379.453258
 21
-105.849298
 31
0.0
  0
LINE
  5
FD
100
AcDbEntity
  8
2
370
    50
100
AcDbLine
 10
-373.453258
 20
-145.099298
 30
0.0
 11
-372.703258
 21
-145.849298
 31
0.0
  0
LINE
  5
FE
100
AcDbEntity
  8
2
370
    50
100
AcDbLine
 10
-355.953258
 20
-145.849298
 30
0.0
 11
-372.703258
 21
-145.849298
 31
0.0
  0
LINE
  5
FF
100
AcDbEntity
  8
2
370
    50
100
AcDbLine
 10
-373.453258
 20
-145.099298
 30
0.0
 11
-373.453258
 21
-139.298578
 31
0.0
  0
LINE
  5
100
100
AcDbEntity
  8
2
370
    50
100
AcDbLine
 10
-373.453258
 20
-123.849298
 30
0.0
 11
-373.453258
 21
-108.849298
 31
0.0
  0
LINE
  5
101
100
AcDbEntity
  8
2
370
    25
100
AcDbLine
 10
-372.703258
 20
-145.849298
 30
0.0
 11
-372.703258
 21
-139.298578
 31
0.0
  0
LINE
  5
102
100
AcDbEntity
  8
2
370
    25
100
AcDbLine
 10
-372.703258
 20
-123.849298
 30
0.0
 11
-372.703258
 21
-108.849298
 31
0.0
  0
LINE
  5
103
100
AcDbEntity
  8
2
370
    50
100
AcDbLine
 10
-355.953258
 20
-101.849298
 30
0.0
 11
-332.453258
 21
-101.849298
 31
0.0
  0
LINE
  5
104
100
AcDbEntity
  8
2
370
    50
100
AcDbLine
 10
-332.453258
 20
-101.849298
 30
0.0
 11
-331.953258
 21
-102.349298
 31
0.0
  0
LINE
  5
105
100
AcDbEntity
  8
2
370
    50
100
AcDbLine
 10
-331.953258
 20
-102.349298
 30
0.0
 11
-331.953258
 21
-105.349298
 31
0.0
  0
LINE
  5
106
100
AcDbEntity
  8
2
370
    50
100
AcDbLine
 10
-331.953258
 20
-105.349298
 30
0.0
 11
-332.453258
 21
-105.849298
 31
0.0
  0
LINE
  5
107
100
AcDbEntity
  8
2
370
    50
100
AcDbLine
 10
-355.953258
 20
-105.849298
 30
0.0
 11
-332.453258
 21
-105.849298
 31
0.0
  0
LINE
  5
108
100
AcDbEntity
  8
2
370
    50
100
AcDbLine
 10
-338.453258
 20
-145.099298
 30
0.0
 11
-339.203258
 21
-145.849298
 31
0.0
  0
LINE
  5
109
100
AcDbEntity
  8
2
370
    50
100
AcDbLine
 10
-355.953258
 20
-145.849298
 30
0.0
 11
-339.203258
 21
-145.849298
 31
0.0
  0
LINE
  5
10A
100
AcDbEntity
  8
2
370
    50
100
AcDbLine
 10
-338.453258
 20
-145.099298
 30
0.0
 11
-338.453258
 21
-139.298578
 31
0.0
  0
LINE
  5
10B
100
AcDbEntity
  8
2
370
    50
100
AcDbLine
 10
-338.453258
 20
-123.849298
 30
0.0
 11
-338.453258
 21
-108.849298
 31
0.0
  0
LINE
  5
10C
100
AcDbEntity
  8
2
370
    25
100
AcDbLine
 10
-339.203258
 20
-145.849298
 30
0.0
 11
-339.203258
 21
-139.298578
 31
0.0
  0
LINE
  5
10D
100
AcDbEntity
  8
2
370
    25
100
AcDbLine
 10
-339.203258
 20
-123.849298
 30
0.0
 11
-339.203258
 21
-108.849298
 31
0.0
  0
LINE
  5
10E
100
AcDbEntity
  8
2
370
    25
100
AcDbLine
 10
-373.453258
 20
-101.549298
 30
0.0
 11
-338.453258
 21
-101.549298
 31
0.0
  0
LINE
  5
10F
100
AcDbEntity
  8
2
370
    25
100
AcDbLine
 10
-379.953258
 20
-102.349298
 30
0.0
 11
-331.953258
 21
-102.349298
 31
0.0
  0
LINE
  5
110
100
AcDbEntity
  8
2
370
    25
100
AcDbLine
 10
-331.953258
 20
-105.349298
 30
0.0
 11
-379.953258
 21
-105.349298
 31
0.0
  0
LINE
  5
111
100
AcDbEntity
  8
2
370
    50
100
AcDbLine
 10
-379.453258
 20
-105.849298
 30
0.0
 11
-379.453258
 21
-108.849298
 31
0.0
  0
LINE
  5
112
100
AcDbEntity
  8
2
370
    50
100
AcDbLine
 10
-332.453258
 20
-105.849298
 30
0.0
 11
-332.453258
 21
-108.849298
 31
0.0
  0
LINE
  5
113
100
AcDbEntity
  8
2
370
    50
100
AcDbLine
 10
-379.453258
 20
-108.849298
 30
0.0
 11
-332.453258
 21
-108.849298
 31
0.0
  0
HATCH
  5
114
100
AcDbEntity
  8
2
370
    25
100
AcDbHatch
 10
0.0
 20
0.0
 30
0.0
210
0.0
220
0.0
230
1.0
  2
_U
 70
     0
 71
     1
 91
        1
 92
        1
 93
        5
 72
     1
 10
-332.45325800000001
 20
-108.849298
 11
-332.45325800000001
 21
-105.849298
 72
     1
 10
-332.45325800000001
 20
-105.849298
 11
-355.95325800000001
 21
-105.849298
 72
     1
 10
-355.95325800000001
 20
-105.849298
 11
-379.45325800000001
 21
-105.849298
 72
     1
 10
-379.45325800000001
 20
-105.849298
 11
-379.45325800000001
 21
-108.849298
 72
     1
 10
-379.45325800000001
 20
-108.849298
 11
-332.45325800000001
 21
-108.849298
 97
        5
330
0
330
0
330
0
330
0
330
0
 75
     0
 76
     0
 52
45.0
 41
1.0
 77
     0
 78
     1
 53
45.0
 43
0.0
 44
0.0
 45
-2.1213199999999999
 46
2.1213199999999999
 79
     0
 98
        1
 10
0.0
 20
0.0
  0
LINE
  5
115
100
AcDbEntity
  8
2
370
    25
100
AcDbLine
 10
-338.453258
 20
-145.099298
 30
0.0
 11
-348.864535
 21
-145.099298
 31
0.0
  0
LINE
  5
116
100
AcDbEntity
  8
2
370
    50
100
AcDbLine
 10
-348.864535
 20
-145.849298
 30
0.0
 11
-348.864535
 21
-139.298578
 31
0.0
  0
LINE
  5
117
100
AcDbEntity
  8
2
370
    50
100
AcDbLine
 10
-363.041982
 20
-145.849298
 30
0.0
 11
-363.041982
 21
-139.298578
 31
0.0
  0
LINE
  5
118
100
AcDbEntity
  8
2
370
    25
100
AcDbLine
 10
-373.453258
 20
-145.099298
 30
0.0
 11
-363.041982
 21
-145.099298
 31
0.0
  0
LINE
  5
119
100
AcDbEntity
  8
2
370
    50
100
AcDbLine
 10
-383.541258
 20
-123.849298
 30
0.0
 11
-328.365258
 21
-123.849298
 31
0.0
  0
LINE
  5
11A
100
AcDbEntity
  8
2
370
    50
100
AcDbLine
 10
-328.365258
 20
-125.504578
 30
0.0
 11
-383.541258
 21
-125.504578
 31
0.0
  0
LINE
  5
11B
100
AcDbEntity
  8
2
370
    50
100
AcDbLine
 10
-327.261738
 20
-126.056338
 30
0.0
 11
-384.644778
 21
-126.056338
 31
0.0
  0
LINE
  5
11C
100
AcDbEntity
  8
2
370
    50
100
AcDbLine
 10
-328.365258
 20
-125.504578
 30
0.0
 11
-383.541258
 21
-125.504578
 31
0.0
  0
LINE
  5
11D
100
AcDbEntity
  8
2
370
    50
100
AcDbLine
 10
-327.261738
 20
-126.056338
 30
0.0
 11
-384.644778
 21
-126.056338
 31
0.0
  0
LINE
  5
11E
100
AcDbEntity
  8
2
370
    50
100
AcDbLine
 10
-328.365258
 20
-125.504578
 30
0.0
 11
-383.541258
 21
-125.504578
 31
0.0
  0
LINE
  5
11F
100
AcDbEntity
  8
2
370
    50
100
AcDbLine
 10
-328.365258
 20
-126.056338
 30
0.0
 11
-328.365258
 21
-123.849298
 31
0.0
  0
LINE
  5
120
100
AcDbEntity
  8
2
370
    50
100
AcDbLine
 10
-383.541258
 20
-126.056338
 30
0.0
 11
-383.541258
 21
-123.849298
 31
0.0
  0
LINE
  5
121
100
AcDbEntity
  8
2
370
    50
100
AcDbLine
 10
-384.644778
 20
-138.093632
 30
0.0
 11
-384.644778
 21
-126.056338
 31
0.0
  0
LINE
  5
122
100
AcDbEntity
  8
2
370
    50
100
AcDbLine
 10
-371.24408
 20
-128.263378
 30
0.0
 11
-384.644778
 21
-128.263378
 31
0.0
  0
LINE
  5
123
100
AcDbEntity
  8
2
370
    50
100
AcDbLine
 10
-371.24408
 20
-138.093632
 30
0.0
 11
-371.24408
 21
-128.263378
 31
0.0
  0
LINE
  5
124
100
AcDbEntity
  8
2
370
    50
100
AcDbLine
 10
-369.332727
 20
-138.093632
 30
0.0
 11
-369.332727
 21
-128.263378
 31
0.0
  0
LINE
  5
125
100
AcDbEntity
  8
2
370
    50
100
AcDbLine
 10
-342.57379
 20
-128.263378
 30
0.0
 11
-369.332727
 21
-128.263378
 31
0.0
  0
LINE
  5
126
100
AcDbEntity
  8
2
370
    50
100
AcDbLine
 10
-340.662437
 20
-138.093632
 30
0.0
 11
-340.662437
 21
-128.263378
 31
0.0
  0
LINE
  5
127
100
AcDbEntity
  8
2
370
    50
100
AcDbLine
 10
-342.57379
 20
-138.093632
 30
0.0
 11
-342.57379
 21
-128.263378
 31
0.0
  0
LINE
  5
128
100
AcDbEntity
  8
2
370
    50
100
AcDbLine
 10
-327.261738
 20
-128.263378
 30
0.0
 11
-340.662437
 21
-128.263378
 31
0.0
  0
LINE
  5
129
100
AcDbEntity
  8
2
370
    50
100
AcDbLine
 10
-327.261738
 20
-138.093632
 30
0.0
 11
-327.261738
 21
-126.056338
 31
0.0
  0
ARC
  5
12A
100
AcDbEntity
  8
2
370
    50
100
AcDbCircle
 10
-333.962088
 20
-120.066762
 30
0.0
 40
19.231816
100
AcDbArc
 50
249.610566
 51
290.389434
  0
ARC
  5
12B
100
AcDbEntity
  8
2
370
    50
100
AcDbCircle
 10
-355.953258
 20
-64.414646
 30
0.0
 40
74.883932
100
AcDbArc
 50
259.707733
 51
280.292267
  0
LINE
  5
12C
100
AcDbEntity
  8
2
370
    50
100
AcDbLine
 10
-340.662437
 20
-138.093632
 30
0.0
 11
-342.57379
 21
-138.093632
 31
0.0
  0
LINE
  5
12D
100
AcDbEntity
  8
2
370
    50
100
AcDbLine
 10
-369.332727
 20
-138.093632
 30
0.0
 11
-371.24408
 21
-138.093632
 31
0.0
  0
ARC
  5
12E
100
AcDbEntity
  8
2
370
    50
100
AcDbCircle
 10
-355.953258
 20
-64.414646
 30
0.0
 40
74.883932
100
AcDbArc
 50
259.707733
 51
280.292267
  0
ARC
  5
12F
100
AcDbEntity
  8
2
370
    50
100
AcDbCircle
 10
-377.944429
 20
-120.066762
 30
0.0
 40
19.231816
100
AcDbArc
 50
249.610566
 51
290.389434
  0
LINE
  5
130
100
AcDbEntity
  8
2
370
    50
100
AcDbLine
 10
-330.572298
 20
-139.298578
 30
0.0
 11
-381.334218
 21
-139.298578
 31
0.0
  0
LINE
  5
131
100
AcDbEntity
  8
2
370
    50
100
AcDbLine
 10
-381.334218
 20
-139.298578
 30
0.0
 11
-384.644778
 21
-138.093632
 31
0.0
  0
LINE
  5
132
100
AcDbEntity
  8
2
370
    50
100
AcDbLine
 10
-330.572298
 20
-139.298578
 30
0.0
 11
-327.261738
 21
-138.093632
 31
0.0
  0
POINT
  5
133
100
AcDbEntity
  8
2
370
    50
100
AcDbPoint
 10
-355.953258
 20
-123.849298
 30
0.0
  0
HATCH
  5
134
100
AcDbEntity
  8
2
370
    25
100
AcDbHatch
 10
0.0
 20
0.0
 30
0.0
210
0.0
220
0.0
230
1.0
  2
_U
 70
     0
 71
     1
 91
        1
 92
        1
 93
        4
 72
     1
 10
-328.36525799999998
 20
-123.849298
 11
-328.36525799999998
 21
-125.504578
 72
     1
 10
-328.36525799999998
 20
-125.504578
 11
-383.54125800000003
 21
-125.504578
 72
     1
 10
-383.54125800000003
 20
-125.504578
 11
-383.54125800000003
 21
-123.849298
 72
     1
 10
-383.54125800000003
 20
-123.849298
 11
-328.36525799999998
 21
-123.849298
 97
        4
330
0
330
0
330
0
330
0
 75
     0
 76
     0
 52
45.0
 41
1.0
 77
     0
 78
     1
 53
45.0
 43
0.0
 44
0.0
 45
-2.1213199999999999
 46
2.1213199999999999
 79
     0
 98
        1
 10
0.0
 20
0.0
  0
LINE
  5
135
100
AcDbEntity
  8
2
370
    50
100
AcDbLine
 10
80.454872
 20
57.850702
 30
0.0
 11
80.454872
 21
-101.549298
 31
0.0
  0
LINE
  5
136
100
AcDbEntity
  8
2
370
    50
100
AcDbLine
 10
115.454872
 20
-101.549298
 30
0.0
 11
115.454872
 21
57.850702
 31
0.0
  0
LINE
  5
137
100
AcDbEntity
  8
2
370
    50
100
AcDbLine
 10
80.454872
 20
-101.549298
 30
0.0
 11
80.754872
 21
-101.849298
 31
0.0
  0
LINE
  5
138
100
AcDbEntity
  8
2
370
    50
100
AcDbLine
 10
115.454872
 20
-101.549298
 30
0.0
 11
115.154872
 21
-101.849298
 31
0.0
  0
LINE
  5
139
100
AcDbEntity
  8
2
370
    50
100
AcDbLine
 10
97.954872
 20
-101.849298
 30
0.0
 11
74.454872
 21
-101.849298
 31
0.0
  0
LINE
  5
13A
100
AcDbEntity
  8
2
370
    50
100
AcDbLine
 10
74.454872
 20
-101.849298
 30
0.0
 11
73.954872
 21
-102.349298
 31
0.0
  0
LINE
  5
13B
100
AcDbEntity
  8
2
370
    50
100
AcDbLine
 10
73.954872
 20
-102.349298
 30
0.0
 11
73.954872
 21
-105.349298
 31
0.0
  0
LINE
  5
13C
100
AcDbEntity
  8
2
370
    50
100
AcDbLine
 10
73.954872
 20
-105.349298
 30
0.0
 11
74.454872
 21
-105.849298
 31
0.0
  0
LINE
  5
13D
100
AcDbEntity
  8
2
370
    50
100
AcDbLine
 10
97.954872
 20
-105.849298
 30
0.0
 11
74.454872
 21
-105.849298
 31
0.0
  0
LINE
  5
13E
100
AcDbEntity
  8
2
370
    50
100
AcDbLine
 10
80.454872
 20
-123.849298
 30
0.0
 11
80.454872
 21
-108.849298
 31
0.0
  0
LINE
  5
13F
100
AcDbEntity
  8
2
370
    25
100
AcDbLine
 10
81.204872
 20
-123.849298
 30
0.0
 11
81.204872
 21
-108.849298
 31
0.0
  0
LINE
  5
140
100
AcDbEntity
  8
2
370
    50
100
AcDbLine
 10
97.954872
 20
-101.849298
 30
0.0
 11
121.454872
 21
-101.849298
 31
0.0
  0
LINE
  5
141
100
AcDbEntity
  8
2
370
    50
100
AcDbLine
 10
121.454872
 20
-101.849298
 30
0.0
 11
121.954872
 21
-102.349298
 31
0.0
  0
LINE
  5
142
100
AcDbEntity
  8
2
370
    50
100
AcDbLine
 10
121.954872
 20
-102.349298
 30
0.0
 11
121.954872
 21
-105.349298
 31
0.0
  0
LINE
  5
143
100
AcDbEntity
  8
2
370
    50
100
AcDbLine
 10
121.954872
 20
-105.349298
 30
0.0
 11
121.454872
 21
-105.849298
 31
0.0
  0
LINE
  5
144
100
AcDbEntity
  8
2
370
    50
100
AcDbLine
 10
97.954872
 20
-105.849298
 30
0.0
 11
121.454872
 21
-105.849298
 31
0.0
  0
LINE
  5
145
100
AcDbEntity
  8
2
370
    50
100
AcDbLine
 10
115.454872
 20
-123.849298
 30
0.0
 11
115.454872
 21
-108.849298
 31
0.0
  0
LINE
  5
146
100
AcDbEntity
  8
2
370
    25
100
AcDbLine
 10
114.704872
 20
-123.849298
 30
0.0
 11
114.704872
 21
-108.849298
 31
0.0
  0
LINE
  5
147
100
AcDbEntity
  8
2
370
    25
100
AcDbLine
 10
80.454872
 20
-101.549298
 30
0.0
 11
115.454872
 21
-101.549298
 31
0.0
  0
LINE
  5
148
100
AcDbEntity
  8
2
370
    25
100
AcDbLine
 10
73.954872
 20
-102.349298
 30
0.0
 11
121.954872
 21
-102.349298
 31
0.0
  0
LINE
  5
149
100
AcDbEntity
  8
2
370
    25
100
AcDbLine
 10
121.954872
 20
-105.349298
 30
0.0
 11
73.954872
 21
-105.349298
 31
0.0
  0
LINE
  5
14A
100
AcDbEntity
  8
2
370
    50
100
AcDbLine
 10
74.454872
 20
-105.849298
 30
0.0
 11
74.454872
 21
-108.849298
 31
0.0
  0
LINE
  5
14B
100
AcDbEntity
  8
2
370
    50
100
AcDbLine
 10
121.454872
 20
-105.849298
 30
0.0
 11
121.454872
 21
-108.849298
 31
0.0
  0
LINE
  5
14C
100
AcDbEntity
  8
2
370
    50
100
AcDbLine
 10
74.454872
 20
-108.849298
 30
0.0
 11
121.454872
 21
-108.849298
 31
0.0
  0
HATCH
  5
14D
100
AcDbEntity
  8
2
370
    25
100
AcDbHatch
 10
0.0
 20
0.0
 30
0.0
210
0.0
220
0.0
230
1.0
  2
_U
 70
     0
 71
     1
 91
        1
 92
        1
 93
        5
 72
     1
 10
121.45487199999999
 20
-108.849298
 11
121.45487199999999
 21
-105.849298
 72
     1
 10
121.45487199999999
 20
-105.849298
 11
97.954871999999995
 21
-105.849298
 72
     1
 10
97.954871999999995
 20
-105.849298
 11
74.454871999999995
 21
-105.849298
 72
     1
 10
74.454871999999995
 20
-105.849298
 11
74.454871999999995
 21
-108.849298
 72
     1
 10
74.454871999999995
 20
-108.849298
 11
121.45487199999999
 21
-108.849298
 97
        5
330
0
330
0
330
0
330
0
330
0
 75
     0
 76
     0
 52
45.0
 41
1.0
 77
     0
 78
     1
 53
45.0
 43
0.0
 44
0.0
 45
-2.1213199999999999
 46
2.1213199999999999
 79
     0
 98
        1
 10
0.0
 20
0.0
  0
LINE
  5
14E
100
AcDbEntity
  8
2
370
    50
100
AcDbLine
 10
80.454872
 20
57.850702
 30
0.0
 11
80.754872
 21
58.150702
 31
0.0
  0
LINE
  5
14F
100
AcDbEntity
  8
2
370
    25
100
AcDbLine
 10
80.454872
 20
57.850702
 30
0.0
 11
115.454872
 21
57.850702
 31
0.0
  0
LINE
  5
150
100
AcDbEntity
  8
2
370
    50
100
AcDbLine
 10
115.454872
 20
57.850702
 30
0.0
 11
115.154872
 21
58.150702
 31
0.0
  0
LINE
  5
151
100
AcDbEntity
  8
2
370
    50
100
AcDbLine
 10
81.954872
 20
-145.849298
 30
0.0
 11
113.954872
 21
-145.849298
 31
0.0
  0
LINE
  5
152
100
AcDbEntity
  8
2
370
    50
100
AcDbLine
 10
81.954872
 20
-137.849298
 30
0.0
 11
81.954872
 21
-145.849298
 31
0.0
  0
LINE
  5
153
100
AcDbEntity
  8
2
370
    50
100
AcDbLine
 10
113.954872
 20
-137.849298
 30
0.0
 11
113.954872
 21
-145.849298
 31
0.0
  0
LINE
  5
154
100
AcDbEntity
  8
2
370
    50
100
AcDbLine
 10
72.954872
 20
-123.849298
 30
0.0
 11
122.954872
 21
-123.849298
 31
0.0
  0
LINE
  5
155
100
AcDbEntity
  8
2
370
    50
100
AcDbLine
 10
123.954872
 20
-125.849298
 30
0.0
 11
71.954872
 21
-125.849298
 31
0.0
  0
LINE
  5
156
100
AcDbEntity
  8
2
370
    50
100
AcDbLine
 10
120.954872
 20
-137.849298
 30
0.0
 11
74.954872
 21
-137.849298
 31
0.0
  0
LINE
  5
157
100
AcDbEntity
  8
2
370
    50
100
AcDbLine
 10
71.954872
 20
-127.849298
 30
0.0
 11
71.954872
 21
-125.849298
 31
0.0
  0
LINE
  5
158
100
AcDbEntity
  8
2
370
    50
100
AcDbLine
 10
74.954872
 20
-137.849298
 30
0.0
 11
74.954872
 21
-129.849298
 31
0.0
  0
LINE
  5
159
100
AcDbEntity
  8
2
370
    50
100
AcDbLine
 10
122.954872
 20
-128.849298
 30
0.0
 11
72.954872
 21
-128.849298
 31
0.0
  0
LINE
  5
15A
100
AcDbEntity
  8
2
370
    50
100
AcDbLine
 10
75.954872
 20
-136.757298
 30
0.0
 11
75.954872
 21
-128.849298
 31
0.0
  0
LINE
  5
15B
100
AcDbEntity
  8
2
370
    50
100
AcDbLine
 10
119.954872
 20
-136.757298
 30
0.0
 11
119.954872
 21
-128.849298
 31
0.0
  0
LINE
  5
15C
100
AcDbEntity
  8
2
370
    50
100
AcDbLine
 10
98.954872
 20
-136.757298
 30
0.0
 11
98.954872
 21
-128.849298
 31
0.0
  0
LINE
  5
15D
100
AcDbEntity
  8
2
370
    50
100
AcDbLine
 10
96.954872
 20
-136.757298
 30
0.0
 11
96.954872
 21
-128.849298
 31
0.0
  0
LINE
  5
15E
100
AcDbEntity
  8
2
370
    50
100
AcDbLine
 10
75.954872
 20
-136.757298
 30
0.0
 11
74.954872
 21
-136.757298
 31
0.0
  0
LINE
  5
15F
100
AcDbEntity
  8
2
370
    50
100
AcDbLine
 10
120.954872
 20
-136.757298
 30
0.0
 11
119.954872
 21
-136.757298
 31
0.0
  0
LINE
  5
160
100
AcDbEntity
  8
2
370
    50
100
AcDbLine
 10
98.954872
 20
-136.757298
 30
0.0
 11
96.954872
 21
-136.757298
 31
0.0
  0
ARC
  5
161
100
AcDbEntity
  8
2
370
    50
100
AcDbCircle
 10
86.454872
 20
-86.822528
 30
0.0
 40
51.026769
100
AcDbArc
 50
258.125168
 51
281.874832
  0
ARC
  5
162
100
AcDbEntity
  8
2
370
    50
100
AcDbCircle
 10
109.454872
 20
-86.822528
 30
0.0
 40
51.026769
100
AcDbArc
 50
258.125168
 51
281.874832
  0
ARC
  5
163
100
AcDbEntity
  8
2
370
    50
100
AcDbCircle
 10
73.954872
 20
-129.849298
 30
0.0
 40
1.0
100
AcDbArc
 50
0.0
 51
90.0
  0
ARC
  5
164
100
AcDbEntity
  8
2
370
    50
100
AcDbCircle
 10
72.954872
 20
-127.849298
 30
0.0
 40
1.0
100
AcDbArc
 50
180.0
 51
270.0
  0
LINE
  5
165
100
AcDbEntity
  8
2
370
    50
100
AcDbLine
 10
72.954872
 20
-125.349298
 30
0.0
 11
122.954872
 21
-125.349298
 31
0.0
  0
LINE
  5
166
100
AcDbEntity
  8
2
370
    50
100
AcDbLine
 10
72.954872
 20
-123.849298
 30
0.0
 11
72.954872
 21
-125.849298
 31
0.0
  0
LINE
  5
167
100
AcDbEntity
  8
2
370
    50
100
AcDbLine
 10
72.954872
 20
-123.849298
 30
0.0
 11
122.954872
 21
-123.849298
 31
0.0
  0
LINE
  5
168
100
AcDbEntity
  8
2
370
    50
100
AcDbLine
 10
122.954872
 20
-123.849298
 30
0.0
 11
122.954872
 21
-125.849298
 31
0.0
  0
LINE
  5
169
100
AcDbEntity
  8
2
370
    50
100
AcDbLine
 10
123.954872
 20
-127.849298
 30
0.0
 11
123.954872
 21
-125.849298
 31
0.0
  0
ARC
  5
16A
100
AcDbEntity
  8
2
370
    50
100
AcDbCircle
 10
122.954872
 20
-127.849298
 30
0.0
 40
1.0
100
AcDbArc
 50
270.0
 51
360.0
  0
LINE
  5
16B
100
AcDbEntity
  8
2
370
    50
100
AcDbLine
 10
120.954872
 20
-137.849298
 30
0.0
 11
120.954872
 21
-129.849298
 31
0.0
  0
ARC
  5
16C
100
AcDbEntity
  8
2
370
    50
100
AcDbCircle
 10
121.954872
 20
-129.849298
 30
0.0
 40
1.0
100
AcDbArc
 50
90.0
 51
180.0
  0
LINE
  5
16D
100
AcDbEntity
  8
2
370
    50
100
AcDbLine
 10
315.421063
 20
58.150702
 30
0.0
 11
349.821063
 21
58.150702
 31
0.0
  0
LINE
  5
16E
100
AcDbEntity
  8
2
370
    25
100
AcDbLine
 10
350.121063
 20
57.850702
 30
0.0
 11
315.121063
 21
57.850702
 31
0.0
  0
LINE
  5
16F
100
AcDbEntity
  8
2
370
    50
100
AcDbLine
 10
350.121063
 20
57.850702
 30
0.0
 11
349.821063
 21
58.150702
 31
0.0
  0
LINE
  5
170
100
AcDbEntity
  8
2
370
    50
100
AcDbLine
 10
315.121063
 20
57.850702
 30
0.0
 11
315.421063
 21
58.150702
 31
0.0
  0
LINE
  5
171
100
AcDbEntity
  8
2
370
    50
100
AcDbLine
 10
315.121063
 20
-101.549298
 30
0.0
 11
315.121063
 21
57.850702
 31
0.0
  0
LINE
  5
172
100
AcDbEntity
  8
2
370
    50
100
AcDbLine
 10
350.121063
 20
57.850702
 30
0.0
 11
350.121063
 21
-101.549298
 31
0.0
  0
LINE
  5
173
100
AcDbEntity
  8
2
370
    50
100
AcDbLine
 10
315.121063
 20
-101.549298
 30
0.0
 11
315.421063
 21
-101.849298
 31
0.0
  0
LINE
  5
174
100
AcDbEntity
  8
2
370
    50
100
AcDbLine
 10
350.121063
 20
-101.549298
 30
0.0
 11
349.821063
 21
-101.849298
 31
0.0
  0
LINE
  5
175
100
AcDbEntity
  8
2
370
    25
100
AcDbLine
 10
315.121063
 20
-101.549298
 30
0.0
 11
350.121063
 21
-101.549298
 31
0.0
  0
LINE
  5
176
100
AcDbEntity
  8
2
370
    50
100
AcDbLine
 10
-352.953258
 20
-145.849298
 30
0.0
 11
-352.953258
 21
-158.849298
 31
0.0
  0
LINE
  5
177
100
AcDbEntity
  8
2
370
    50
100
AcDbLine
 10
-342.953258
 20
-145.849298
 30
0.0
 11
-342.953258
 21
-158.849298
 31
0.0
  0
LINE
  5
178
100
AcDbEntity
  8
2
370
    50
100
AcDbLine
 10
-347.953258
 20
-158.849298
 30
0.0
 11
-342.203258
 21
-158.849298
 31
0.0
  0
LINE
  5
179
100
AcDbEntity
  8
2
370
    50
100
AcDbLine
 10
-347.953258
 20
-174.349298
 30
0.0
 11
-342.203258
 21
-174.349298
 31
0.0
  0
LINE
  5
17A
100
AcDbEntity
  8
2
370
    50
100
AcDbLine
 10
-341.703258
 20
-159.349298
 30
0.0
 11
-341.703258
 21
-173.849298
 31
0.0
  0
LINE
  5
17B
100
AcDbEntity
  8
2
370
    50
100
AcDbLine
 10
-341.703258
 20
-159.349298
 30
0.0
 11
-342.203258
 21
-158.849298
 31
0.0
  0
LINE
  5
17C
100
AcDbEntity
  8
2
370
    50
100
AcDbLine
 10
-341.703258
 20
-173.849298
 30
0.0
 11
-342.203258
 21
-174.349298
 31
0.0
  0
LINE
  5
17D
100
AcDbEntity
  8
2
370
    50
100
AcDbLine
 10
-343.632106
 20
-173.849298
 30
0.0
 11
-346.203258
 21
-173.849298
 31
0.0
  0
LINE
  5
17E
100
AcDbEntity
  8
2
370
    50
100
AcDbLine
 10
-343.632106
 20
-159.349298
 30
0.0
 11
-346.203258
 21
-159.349298
 31
0.0
  0
LINE
  5
17F
100
AcDbEntity
  8
2
370
    50
100
AcDbLine
 10
-341.882106
 20
-159.349298
 30
0.0
 11
-341.882106
 21
-173.849298
 31
0.0
  0
LINE
  5
180
100
AcDbEntity
  8
2
370
    50
100
AcDbLine
 10
-343.632106
 20
-159.349298
 30
0.0
 11
-343.632106
 21
-173.849298
 31
0.0
  0
LINE
  5
181
100
AcDbEntity
  8
2
370
    50
100
AcDbLine
 10
-346.203258
 20
-159.349298
 30
0.0
 11
-346.203258
 21
-173.849298
 31
0.0
  0
LINE
  5
182
100
AcDbEntity
  8
2
370
    50
100
AcDbLine
 10
-341.703258
 20
-173.849298
 30
0.0
 11
-341.882106
 21
-173.849298
 31
0.0
  0
LINE
  5
183
100
AcDbEntity
  8
2
370
    50
100
AcDbLine
 10
-341.703258
 20
-159.349298
 30
0.0
 11
-341.882106
 21
-159.349298
 31
0.0
  0
ARC
  5
184
100
AcDbEntity
  8
2
370
    50
100
AcDbCircle
 10
-347.953258
 20
-165.349298
 30
0.0
 40
6.25
100
AcDbArc
 50
73.739795
 51
90.0
  0
ARC
  5
185
100
AcDbEntity
  8
2
370
    50
100
AcDbCircle
 10
-342.757106
 20
-160.755548
 30
0.0
 40
1.65625
100
AcDbArc
 50
58.109208
 51
121.890792
  0
ARC
  5
186
100
AcDbEntity
  8
2
370
    50
100
AcDbCircle
 10
-342.757106
 20
-172.443048
 30
0.0
 40
1.65625
100
AcDbArc
 50
238.109208
 51
301.890792
  0
ARC
  5
187
100
AcDbEntity
  8
2
370
    50
100
AcDbCircle
 10
-347.953258
 20
-167.849298
 30
0.0
 40
6.25
100
AcDbArc
 50
270.0
 51
286.260205
  0
LINE
  5
188
100
AcDbEntity
  8
2
370
    50
100
AcDbLine
 10
-347.953258
 20
-158.849298
 30
0.0
 11
-353.703258
 21
-158.849298
 31
0.0
  0
LINE
  5
189
100
AcDbEntity
  8
2
370
    50
100
AcDbLine
 10
-347.953258
 20
-174.349298
 30
0.0
 11
-353.703258
 21
-174.349298
 31
0.0
  0
LINE
  5
18A
100
AcDbEntity
  8
2
370
    50
100
AcDbLine
 10
-354.203258
 20
-159.349298
 30
0.0
 11
-354.203258
 21
-173.849298
 31
0.0
  0
LINE
  5
18B
100
AcDbEntity
  8
2
370
    50
100
AcDbLine
 10
-354.203258
 20
-159.349298
 30
0.0
 11
-353.703258
 21
-158.849298
 31
0.0
  0
LINE
  5
18C
100
AcDbEntity
  8
2
370
    50
100
AcDbLine
 10
-354.203258
 20
-173.849298
 30
0.0
 11
-353.703258
 21
-174.349298
 31
0.0
  0
LINE
  5
18D
100
AcDbEntity
  8
2
370
    50
100
AcDbLine
 10
-352.274411
 20
-173.849298
 30
0.0
 11
-349.703258
 21
-173.849298
 31
0.0
  0
LINE
  5
18E
100
AcDbEntity
  8
2
370
    50
100
AcDbLine
 10
-352.274411
 20
-159.349298
 30
0.0
 11
-349.703258
 21
-159.349298
 31
0.0
  0
LINE
  5
18F
100
AcDbEntity
  8
2
370
    50
100
AcDbLine
 10
-354.024411
 20
-159.349298
 30
0.0
 11
-354.024411
 21
-173.849298
 31
0.0
  0
LINE
  5
190
100
AcDbEntity
  8
2
370
    50
100
AcDbLine
 10
-352.274411
 20
-159.349298
 30
0.0
 11
-352.274411
 21
-173.849298
 31
0.0
  0
LINE
  5
191
100
AcDbEntity
  8
2
370
    50
100
AcDbLine
 10
-349.703258
 20
-159.349298
 30
0.0
 11
-349.703258
 21
-173.849298
 31
0.0
  0
LINE
  5
192
100
AcDbEntity
  8
2
370
    50
100
AcDbLine
 10
-354.203258
 20
-173.849298
 30
0.0
 11
-354.024411
 21
-173.849298
 31
0.0
  0
LINE
  5
193
100
AcDbEntity
  8
2
370
    50
100
AcDbLine
 10
-354.203258
 20
-159.349298
 30
0.0
 11
-354.024411
 21
-159.349298
 31
0.0
  0
ARC
  5
194
100
AcDbEntity
  8
2
370
    50
100
AcDbCircle
 10
-347.953258
 20
-165.349298
 30
0.0
 40
6.25
100
AcDbArc
 50
90.0
 51
106.260205
  0
ARC
  5
195
100
AcDbEntity
  8
2
370
    50
100
AcDbCircle
 10
-353.149411
 20
-160.755548
 30
0.0
 40
1.65625
100
AcDbArc
 50
58.109208
 51
121.890792
  0
ARC
  5
196
100
AcDbEntity
  8
2
370
    50
100
AcDbCircle
 10
-353.149411
 20
-172.443048
 30
0.0
 40
1.65625
100
AcDbArc
 50
238.109208
 51
301.890792
  0
ARC
  5
197
100
AcDbEntity
  8
2
370
    50
100
AcDbCircle
 10
-347.953258
 20
-167.849298
 30
0.0
 40
6.25
100
AcDbArc
 50
253.739795
 51
270.0
  0
LINE
  5
198
100
AcDbEntity
  8
2
370
    50
100
AcDbLine
 10
-368.953258
 20
-145.849298
 30
0.0
 11
-368.953258
 21
-158.849298
 31
0.0
  0
LINE
  5
199
100
AcDbEntity
  8
2
370
    50
100
AcDbLine
 10
-358.953258
 20
-145.849298
 30
0.0
 11
-358.953258
 21
-158.849298
 31
0.0
  0
LINE
  5
19A
100
AcDbEntity
  8
2
370
    50
100
AcDbLine
 10
-363.953258
 20
-158.849298
 30
0.0
 11
-358.203258
 21
-158.849298
 31
0.0
  0
LINE
  5
19B
100
AcDbEntity
  8
2
370
    50
100
AcDbLine
 10
-363.953258
 20
-174.349298
 30
0.0
 11
-358.203258
 21
-174.349298
 31
0.0
  0
LINE
  5
19C
100
AcDbEntity
  8
2
370
    50
100
AcDbLine
 10
-357.703258
 20
-159.349298
 30
0.0
 11
-357.703258
 21
-173.849298
 31
0.0
  0
LINE
  5
19D
100
AcDbEntity
  8
2
370
    50
100
AcDbLine
 10
-357.703258
 20
-159.349298
 30
0.0
 11
-358.203258
 21
-158.849298
 31
0.0
  0
LINE
  5
19E
100
AcDbEntity
  8
2
370
    50
100
AcDbLine
 10
-357.703258
 20
-173.849298
 30
0.0
 11
-358.203258
 21
-174.349298
 31
0.0
  0
LINE
  5
19F
100
AcDbEntity
  8
2
370
    50
100
AcDbLine
 10
-359.632106
 20
-173.849298
 30
0.0
 11
-362.203258
 21
-173.849298
 31
0.0
  0
LINE
  5
1A0
100
AcDbEntity
  8
2
370
    50
100
AcDbLine
 10
-359.632106
 20
-159.349298
 30
0.0
 11
-362.203258
 21
-159.349298
 31
0.0
  0
LINE
  5
1A1
100
AcDbEntity
  8
2
370
    50
100
AcDbLine
 10
-357.882106
 20
-159.349298
 30
0.0
 11
-357.882106
 21
-173.849298
 31
0.0
  0
LINE
  5
1A2
100
AcDbEntity
  8
2
370
    50
100
AcDbLine
 10
-359.632106
 20
-159.349298
 30
0.0
 11
-359.632106
 21
-173.849298
 31
0.0
  0
LINE
  5
1A3
100
AcDbEntity
  8
2
370
    50
100
AcDbLine
 10
-362.203258
 20
-159.349298
 30
0.0
 11
-362.203258
 21
-173.849298
 31
0.0
  0
LINE
  5
1A4
100
AcDbEntity
  8
2
370
    50
100
AcDbLine
 10
-357.703258
 20
-173.849298
 30
0.0
 11
-357.882106
 21
-173.849298
 31
0.0
  0
LINE
  5
1A5
100
AcDbEntity
  8
2
370
    50
100
AcDbLine
 10
-357.703258
 20
-159.349298
 30
0.0
 11
-357.882106
 21
-159.349298
 31
0.0
  0
ARC
  5
1A6
100
AcDbEntity
  8
2
370
    50
100
AcDbCircle
 10
-363.953258
 20
-165.349298
 30
0.0
 40
6.25
100
AcDbArc
 50
73.739795
 51
90.0
  0
ARC
  5
1A7
100
AcDbEntity
  8
2
370
    50
100
AcDbCircle
 10
-358.757106
 20
-160.755548
 30
0.0
 40
1.65625
100
AcDbArc
 50
58.109208
 51
121.890792
  0
ARC
  5
1A8
100
AcDbEntity
  8
2
370
    50
100
AcDbCircle
 10
-358.757106
 20
-172.443048
 30
0.0
 40
1.65625
100
AcDbArc
 50
238.109208
 51
301.890792
  0
ARC
  5
1A9
100
AcDbEntity
  8
2
370
    50
100
AcDbCircle
 10
-363.953258
 20
-167.849298
 30
0.0
 40
6.25
100
AcDbArc
 50
270.0
 51
286.260205
  0
LINE
  5
1AA
100
AcDbEntity
  8
2
370
    50
100
AcDbLine
 10
-363.953258
 20
-158.849298
 30
0.0
 11
-369.703258
 21
-158.849298
 31
0.0
  0
LINE
  5
1AB
100
AcDbEntity
  8
2
370
    50
100
AcDbLine
 10
-363.953258
 20
-174.349298
 30
0.0
 11
-369.703258
 21
-174.349298
 31
0.0
  0
LINE
  5
1AC
100
AcDbEntity
  8
2
370
    50
100
AcDbLine
 10
-370.203258
 20
-159.349298
 30
0.0
 11
-370.203258
 21
-173.849298
 31
0.0
  0
LINE
  5
1AD
100
AcDbEntity
  8
2
370
    50
100
AcDbLine
 10
-370.203258
 20
-159.349298
 30
0.0
 11
-369.703258
 21
-158.849298
 31
0.0
  0
LINE
  5
1AE
100
AcDbEntity
  8
2
370
    50
100
AcDbLine
 10
-370.203258
 20
-173.849298
 30
0.0
 11
-369.703258
 21
-174.349298
 31
0.0
  0
LINE
  5
1AF
100
AcDbEntity
  8
2
370
    50
100
AcDbLine
 10
-368.274411
 20
-173.849298
 30
0.0
 11
-365.703258
 21
-173.849298
 31
0.0
  0
LINE
  5
1B0
100
AcDbEntity
  8
2
370
    50
100
AcDbLine
 10
-368.274411
 20
-159.349298
 30
0.0
 11
-365.703258
 21
-159.349298
 31
0.0
  0
LINE
  5
1B1
100
AcDbEntity
  8
2
370
    50
100
AcDbLine
 10
-370.024411
 20
-159.349298
 30
0.0
 11
-370.024411
 21
-173.849298
 31
0.0
  0
LINE
  5
1B2
100
AcDbEntity
  8
2
370
    50
100
AcDbLine
 10
-368.274411
 20
-159.349298
 30
0.0
 11
-368.274411
 21
-173.849298
 31
0.0
  0
LINE
  5
1B3
100
AcDbEntity
  8
2
370
    50
100
AcDbLine
 10
-365.703258
 20
-159.349298
 30
0.0
 11
-365.703258
 21
-173.849298
 31
0.0
  0
LINE
  5
1B4
100
AcDbEntity
  8
2
370
    50
100
AcDbLine
 10
-370.203258
 20
-173.849298
 30
0.0
 11
-370.024411
 21
-173.849298
 31
0.0
  0
LINE
  5
1B5
100
AcDbEntity
  8
2
370
    50
100
AcDbLine
 10
-370.203258
 20
-159.349298
 30
0.0
 11
-370.024411
 21
-159.349298
 31
0.0
  0
ARC
  5
1B6
100
AcDbEntity
  8
2
370
    50
100
AcDbCircle
 10
-363.953258
 20
-165.349298
 30
0.0
 40
6.25
100
AcDbArc
 50
90.0
 51
106.260205
  0
ARC
  5
1B7
100
AcDbEntity
  8
2
370
    50
100
AcDbCircle
 10
-369.149411
 20
-160.755548
 30
0.0
 40
1.65625
100
AcDbArc
 50
58.109208
 51
121.890792
  0
ARC
  5
1B8
100
AcDbEntity
  8
2
370
    50
100
AcDbCircle
 10
-369.149411
 20
-172.443048
 30
0.0
 40
1.65625
100
AcDbArc
 50
238.109208
 51
301.890792
  0
ARC
  5
1B9
100
AcDbEntity
  8
2
370
    50
100
AcDbCircle
 10
-363.953258
 20
-167.849298
 30
0.0
 40
6.25
100
AcDbArc
 50
253.739795
 51
270.0
  0
LINE
  5
1BA
100
AcDbEntity
  8
2
370
    50
100
AcDbLine
 10
-369.953259
 20
-179.960623
 30
0.0
 11
-369.953259
 21
-174.637973
 31
0.0
  0
LINE
  5
1BB
100
AcDbEntity
  8
2
370
    50
100
AcDbLine
 10
-357.953259
 20
-179.960623
 30
0.0
 11
-357.953259
 21
-174.637973
 31
0.0
  0
LINE
  5
1BC
100
AcDbEntity
  8
2
370
    50
100
AcDbLine
 10
-361.555343
 20
-174.637973
 30
0.0
 11
-361.555343
 21
-179.960623
 31
0.0
  0
LINE
  5
1BD
100
AcDbEntity
  8
2
370
    50
100
AcDbLine
 10
-360.389077
 20
-174.637973
 30
0.0
 11
-360.389077
 21
-179.960623
 31
0.0
  0
LINE
  5
1BE
100
AcDbEntity
  8
2
370
    50
100
AcDbLine
 10
-357.991161
 20
-174.637973
 30
0.0
 11
-357.991161
 21
-179.960623
 31
0.0
  0
LINE
  5
1BF
100
AcDbEntity
  8
2
370
    50
100
AcDbLine
 10
-358.453259
 20
-174.349298
 30
0.0
 11
-368.716398
 21
-174.349298
 31
0.0
  0
LINE
  5
1C0
100
AcDbEntity
  8
2
370
    50
100
AcDbLine
 10
-368.953259
 20
-174.349298
 30
0.0
 11
-369.453259
 21
-174.349298
 31
0.0
  0
LINE
  5
1C1
100
AcDbEntity
  8
2
370
    50
100
AcDbLine
 10
-358.453259
 20
-180.249298
 30
0.0
 11
-357.953259
 21
-179.960623
 31
0.0
  0
LINE
  5
1C2
100
AcDbEntity
  8
2
370
    50
100
AcDbLine
 10
-360.389077
 20
-179.960623
 30
0.0
 11
-361.555343
 21
-179.960623
 31
0.0
  0
LINE
  5
1C3
100
AcDbEntity
  8
2
370
    50
100
AcDbLine
 10
-369.953259
 20
-179.960623
 30
0.0
 11
-369.453259
 21
-180.249298
 31
0.0
  0
LINE
  5
1C4
100
AcDbEntity
  8
2
370
    50
100
AcDbLine
 10
-369.953259
 20
-174.637973
 30
0.0
 11
-369.453259
 21
-174.349298
 31
0.0
  0
ARC
  5
1C5
100
AcDbEntity
  8
2
370
    50
100
AcDbCircle
 10
-363.953259
 20
-170.145668
 30
0.0
 40
10.10363
100
AcDbArc
 50
270.0
 51
283.729133
  0
ARC
  5
1C6
100
AcDbEntity
  8
2
370
    50
100
AcDbCircle
 10
-363.953259
 20
-184.452927
 30
0.0
 40
10.10363
100
AcDbArc
 50
76.270867
 51
90.0
  0
LINE
  5
1C7
100
AcDbEntity
  8
2
370
    50
100
AcDbLine
 10
-360.389077
 20
-174.637973
 30
0.0
 11
-361.555343
 21
-174.637973
 31
0.0
  0
LINE
  5
1C8
100
AcDbEntity
  8
2
370
    50
100
AcDbLine
 10
-357.953259
 20
-179.960623
 30
0.0
 11
-357.991161
 21
-179.960623
 31
0.0
  0
ARC
  5
1C9
100
AcDbEntity
  8
2
370
    50
100
AcDbCircle
 10
-359.190119
 20
-177.615137
 30
0.0
 40
2.634161
100
AcDbArc
 50
242.924933
 51
297.075067
  0
ARC
  5
1CA
100
AcDbEntity
  8
2
370
    50
100
AcDbCircle
 10
-359.190119
 20
-176.983458
 30
0.0
 40
2.634161
100
AcDbArc
 50
62.924933
 51
117.075067
  0
LINE
  5
1CB
100
AcDbEntity
  8
2
370
    50
100
AcDbLine
 10
-358.453259
 20
-174.349298
 30
0.0
 11
-357.953259
 21
-174.637973
 31
0.0
  0
LINE
  5
1CC
100
AcDbEntity
  8
2
370
    50
100
AcDbLine
 10
-357.953259
 20
-174.637973
 30
0.0
 11
-357.991161
 21
-174.637973
 31
0.0
  0
ARC
  5
1CD
100
AcDbEntity
  8
2
370
    50
100
AcDbCircle
 10
-363.953259
 20
-170.145668
 30
0.0
 40
10.10363
100
AcDbArc
 50
256.270867
 51
270.0
  0
LINE
  5
1CE
100
AcDbEntity
  8
2
370
    50
100
AcDbLine
 10
-367.517441
 20
-179.960623
 30
0.0
 11
-366.351174
 21
-179.960623
 31
0.0
  0
LINE
  5
1CF
100
AcDbEntity
  8
2
370
    50
100
AcDbLine
 10
-366.351174
 20
-174.637973
 30
0.0
 11
-366.351174
 21
-179.960623
 31
0.0
  0
LINE
  5
1D0
100
AcDbEntity
  8
2
370
    50
100
AcDbLine
 10
-367.517441
 20
-174.637973
 30
0.0
 11
-367.517441
 21
-179.960623
 31
0.0
  0
ARC
  5
1D1
100
AcDbEntity
  8
2
370
    50
100
AcDbCircle
 10
-368.716398
 20
-177.615137
 30
0.0
 40
2.634161
100
AcDbArc
 50
242.924933
 51
297.075067
  0
LINE
  5
1D2
100
AcDbEntity
  8
2
370
    50
100
AcDbLine
 10
-369.915356
 20
-174.637973
 30
0.0
 11
-369.915356
 21
-179.960623
 31
0.0
  0
LINE
  5
1D3
100
AcDbEntity
  8
2
370
    50
100
AcDbLine
 10
-369.915356
 20
-179.960623
 30
0.0
 11
-369.953259
 21
-179.960623
 31
0.0
  0
ARC
  5
1D4
100
AcDbEntity
  8
2
370
    50
100
AcDbCircle
 10
-363.953259
 20
-184.452927
 30
0.0
 40
10.10363
100
AcDbArc
 50
90.0
 51
103.729133
  0
LINE
  5
1D5
100
AcDbEntity
  8
2
370
    50
100
AcDbLine
 10
-367.517441
 20
-174.637973
 30
0.0
 11
-366.351174
 21
-174.637973
 31
0.0
  0
ARC
  5
1D6
100
AcDbEntity
  8
2
370
    50
100
AcDbCircle
 10
-368.716398
 20
-176.983458
 30
0.0
 40
2.634161
100
AcDbArc
 50
62.924933
 51
117.075067
  0
LINE
  5
1D7
100
AcDbEntity
  8
2
370
    50
100
AcDbLine
 10
-353.953259
 20
-179.960623
 30
0.0
 11
-353.953259
 21
-174.637973
 31
0.0
  0
LINE
  5
1D8
100
AcDbEntity
  8
2
370
    50
100
AcDbLine
 10
-341.953259
 20
-179.960623
 30
0.0
 11
-341.953259
 21
-174.637973
 31
0.0
  0
LINE
  5
1D9
100
AcDbEntity
  8
2
370
    50
100
AcDbLine
 10
-345.555343
 20
-174.637973
 30
0.0
 11
-345.555343
 21
-179.960623
 31
0.0
  0
LINE
  5
1DA
100
AcDbEntity
  8
2
370
    50
100
AcDbLine
 10
-344.389077
 20
-174.637973
 30
0.0
 11
-344.389077
 21
-179.960623
 31
0.0
  0
LINE
  5
1DB
100
AcDbEntity
  8
2
370
    50
100
AcDbLine
 10
-341.991161
 20
-174.637973
 30
0.0
 11
-341.991161
 21
-179.960623
 31
0.0
  0
LINE
  5
1DC
100
AcDbEntity
  8
2
370
    50
100
AcDbLine
 10
-342.453259
 20
-174.349298
 30
0.0
 11
-353.453259
 21
-174.349298
 31
0.0
  0
LINE
  5
1DD
100
AcDbEntity
  8
2
370
    50
100
AcDbLine
 10
-342.453259
 20
-180.249298
 30
0.0
 11
-341.953259
 21
-179.960623
 31
0.0
  0
LINE
  5
1DE
100
AcDbEntity
  8
2
370
    50
100
AcDbLine
 10
-344.389077
 20
-179.960623
 30
0.0
 11
-345.555343
 21
-179.960623
 31
0.0
  0
LINE
  5
1DF
100
AcDbEntity
  8
2
370
    50
100
AcDbLine
 10
-353.953259
 20
-179.960623
 30
0.0
 11
-353.453259
 21
-180.249298
 31
0.0
  0
LINE
  5
1E0
100
AcDbEntity
  8
2
370
    50
100
AcDbLine
 10
-353.953259
 20
-174.637973
 30
0.0
 11
-353.453259
 21
-174.349298
 31
0.0
  0
ARC
  5
1E1
100
AcDbEntity
  8
2
370
    50
100
AcDbCircle
 10
-347.953259
 20
-170.145668
 30
0.0
 40
10.10363
100
AcDbArc
 50
270.0
 51
283.729133
  0
ARC
  5
1E2
100
AcDbEntity
  8
2
370
    50
100
AcDbCircle
 10
-347.953259
 20
-184.452927
 30
0.0
 40
10.10363
100
AcDbArc
 50
76.270867
 51
90.0
  0
LINE
  5
1E3
100
AcDbEntity
  8
2
370
    50
100
AcDbLine
 10
-344.389077
 20
-174.637973
 30
0.0
 11
-345.555343
 21
-174.637973
 31
0.0
  0
LINE
  5
1E4
100
AcDbEntity
  8
2
370
    50
100
AcDbLine
 10
-341.953259
 20
-179.960623
 30
0.0
 11
-341.991161
 21
-179.960623
 31
0.0
  0
ARC
  5
1E5
100
AcDbEntity
  8
2
370
    50
100
AcDbCircle
 10
-343.190119
 20
-177.615137
 30
0.0
 40
2.634161
100
AcDbArc
 50
242.924933
 51
297.075067
  0
ARC
  5
1E6
100
AcDbEntity
  8
2
370
    50
100
AcDbCircle
 10
-343.190119
 20
-176.983458
 30
0.0
 40
2.634161
100
AcDbArc
 50
62.924933
 51
117.075067
  0
LINE
  5
1E7
100
AcDbEntity
  8
2
370
    50
100
AcDbLine
 10
-342.453259
 20
-174.349298
 30
0.0
 11
-341.953259
 21
-174.637973
 31
0.0
  0
LINE
  5
1E8
100
AcDbEntity
  8
2
370
    50
100
AcDbLine
 10
-341.953259
 20
-174.637973
 30
0.0
 11
-341.991161
 21
-174.637973
 31
0.0
  0
ARC
  5
1E9
100
AcDbEntity
  8
2
370
    50
100
AcDbCircle
 10
-347.953259
 20
-170.145668
 30
0.0
 40
10.10363
100
AcDbArc
 50
256.270867
 51
270.0
  0
LINE
  5
1EA
100
AcDbEntity
  8
2
370
    50
100
AcDbLine
 10
-351.517441
 20
-179.960623
 30
0.0
 11
-350.351174
 21
-179.960623
 31
0.0
  0
LINE
  5
1EB
100
AcDbEntity
  8
2
370
    50
100
AcDbLine
 10
-350.351174
 20
-174.637973
 30
0.0
 11
-350.351174
 21
-179.960623
 31
0.0
  0
LINE
  5
1EC
100
AcDbEntity
  8
2
370
    50
100
AcDbLine
 10
-351.517441
 20
-174.637973
 30
0.0
 11
-351.517441
 21
-179.960623
 31
0.0
  0
ARC
  5
1ED
100
AcDbEntity
  8
2
370
    50
100
AcDbCircle
 10
-352.716398
 20
-177.615137
 30
0.0
 40
2.634161
100
AcDbArc
 50
242.924933
 51
297.075067
  0
LINE
  5
1EE
100
AcDbEntity
  8
2
370
    50
100
AcDbLine
 10
-353.915356
 20
-174.637973
 30
0.0
 11
-353.915356
 21
-179.960623
 31
0.0
  0
LINE
  5
1EF
100
AcDbEntity
  8
2
370
    50
100
AcDbLine
 10
-353.915356
 20
-179.960623
 30
0.0
 11
-353.953259
 21
-179.960623
 31
0.0
  0
ARC
  5
1F0
100
AcDbEntity
  8
2
370
    50
100
AcDbCircle
 10
-347.953259
 20
-184.452927
 30
0.0
 40
10.10363
100
AcDbArc
 50
90.0
 51
103.729133
  0
LINE
  5
1F1
100
AcDbEntity
  8
2
370
    50
100
AcDbLine
 10
-351.517441
 20
-174.637973
 30
0.0
 11
-350.351174
 21
-174.637973
 31
0.0
  0
ARC
  5
1F2
100
AcDbEntity
  8
2
370
    50
100
AcDbCircle
 10
-352.716398
 20
-176.983458
 30
0.0
 40
2.634161
100
AcDbArc
 50
62.924933
 51
117.075067
  0
POINT
  5
1F3
100
AcDbEntity
  8
2
370
    50
100
AcDbPoint
 10
-293.265416
 20
-317.245601
 30
0.0
  0
POINT
  5
1F4
100
AcDbEntity
  8
2
370
    50
100
AcDbPoint
 10
93.454872
 20
-145.849298
 30
0.0
  0
POINT
  5
1F5
100
AcDbEntity
  8
2
370
    50
100
AcDbPoint
 10
-347.953258
 20
-145.849298
 30
0.0
  0
LINE
  5
1F6
100
AcDbEntity
  8
2
370
    50
100
AcDbLine
 10
88.454872
 20
-145.849298
 30
0.0
 11
88.454872
 21
-158.849298
 31
0.0
  0
LINE
  5
1F7
100
AcDbEntity
  8
2
370
    50
100
AcDbLine
 10
98.454872
 20
-145.849298
 30
0.0
 11
98.454872
 21
-158.849298
 31
0.0
  0
LINE
  5
1F8
100
AcDbEntity
  8
2
370
    50
100
AcDbLine
 10
93.454872
 20
-158.849298
 30
0.0
 11
99.204872
 21
-158.849298
 31
0.0
  0
LINE
  5
1F9
100
AcDbEntity
  8
2
370
    50
100
AcDbLine
 10
93.454872
 20
-174.349298
 30
0.0
 11
99.204872
 21
-174.349298
 31
0.0
  0
LINE
  5
1FA
100
AcDbEntity
  8
2
370
    50
100
AcDbLine
 10
99.704872
 20
-159.349298
 30
0.0
 11
99.704872
 21
-173.849298
 31
0.0
  0
LINE
  5
1FB
100
AcDbEntity
  8
2
370
    50
100
AcDbLine
 10
99.704872
 20
-159.349298
 30
0.0
 11
99.204872
 21
-158.849298
 31
0.0
  0
LINE
  5
1FC
100
AcDbEntity
  8
2
370
    50
100
AcDbLine
 10
99.704872
 20
-173.849298
 30
0.0
 11
99.204872
 21
-174.349298
 31
0.0
  0
LINE
  5
1FD
100
AcDbEntity
  8
2
370
    50
100
AcDbLine
 10
97.776025
 20
-173.849298
 30
0.0
 11
95.204872
 21
-173.849298
 31
0.0
  0
LINE
  5
1FE
100
AcDbEntity
  8
2
370
    50
100
AcDbLine
 10
97.776025
 20
-159.349298
 30
0.0
 11
95.204872
 21
-159.349298
 31
0.0
  0
LINE
  5
1FF
100
AcDbEntity
  8
2
370
    50
100
AcDbLine
 10
99.526025
 20
-159.349298
 30
0.0
 11
99.526025
 21
-173.849298
 31
0.0
  0
LINE
  5
200
100
AcDbEntity
  8
2
370
    50
100
AcDbLine
 10
97.776025
 20
-159.349298
 30
0.0
 11
97.776025
 21
-173.849298
 31
0.0
  0
LINE
  5
201
100
AcDbEntity
  8
2
370
    50
100
AcDbLine
 10
95.204872
 20
-159.349298
 30
0.0
 11
95.204872
 21
-173.849298
 31
0.0
  0
LINE
  5
202
100
AcDbEntity
  8
2
370
    50
100
AcDbLine
 10
99.704872
 20
-173.849298
 30
0.0
 11
99.526025
 21
-173.849298
 31
0.0
  0
LINE
  5
203
100
AcDbEntity
  8
2
370
    50
100
AcDbLine
 10
99.704872
 20
-159.349298
 30
0.0
 11
99.526025
 21
-159.349298
 31
0.0
  0
ARC
  5
204
100
AcDbEntity
  8
2
370
    50
100
AcDbCircle
 10
93.454872
 20
-165.349298
 30
0.0
 40
6.25
100
AcDbArc
 50
73.739795
 51
90.0
  0
ARC
  5
205
100
AcDbEntity
  8
2
370
    50
100
AcDbCircle
 10
98.651025
 20
-160.755548
 30
0.0
 40
1.65625
100
AcDbArc
 50
58.109208
 51
121.890792
  0
ARC
  5
206
100
AcDbEntity
  8
2
370
    50
100
AcDbCircle
 10
98.651025
 20
-172.443048
 30
0.0
 40
1.65625
100
AcDbArc
 50
238.109208
 51
301.890792
  0
ARC
  5
207
100
AcDbEntity
  8
2
370
    50
100
AcDbCircle
 10
93.454872
 20
-167.849298
 30
0.0
 40
6.25
100
AcDbArc
 50
270.0
 51
286.260205
  0
LINE
  5
208
100
AcDbEntity
  8
2
370
    50
100
AcDbLine
 10
93.454872
 20
-158.849298
 30
0.0
 11
87.704872
 21
-158.849298
 31
0.0
  0
LINE
  5
209
100
AcDbEntity
  8
2
370
    50
100
AcDbLine
 10
93.454872
 20
-174.349298
 30
0.0
 11
87.704872
 21
-174.349298
 31
0.0
  0
LINE
  5
20A
100
AcDbEntity
  8
2
370
    50
100
AcDbLine
 10
87.204872
 20
-159.349298
 30
0.0
 11
87.204872
 21
-173.849298
 31
0.0
  0
LINE
  5
20B
100
AcDbEntity
  8
2
370
    50
100
AcDbLine
 10
87.204872
 20
-159.349298
 30
0.0
 11
87.704872
 21
-158.849298
 31
0.0
  0
LINE
  5
20C
100
AcDbEntity
  8
2
370
    50
100
AcDbLine
 10
87.204872
 20
-173.849298
 30
0.0
 11
87.704872
 21
-174.349298
 31
0.0
  0
LINE
  5
20D
100
AcDbEntity
  8
2
370
    50
100
AcDbLine
 10
89.13372
 20
-173.849298
 30
0.0
 11
91.704872
 21
-173.849298
 31
0.0
  0
LINE
  5
20E
100
AcDbEntity
  8
2
370
    50
100
AcDbLine
 10
89.13372
 20
-159.349298
 30
0.0
 11
91.704872
 21
-159.349298
 31
0.0
  0
LINE
  5
20F
100
AcDbEntity
  8
2
370
    50
100
AcDbLine
 10
87.38372
 20
-159.349298
 30
0.0
 11
87.38372
 21
-173.849298
 31
0.0
  0
LINE
  5
210
100
AcDbEntity
  8
2
370
    50
100
AcDbLine
 10
89.13372
 20
-159.349298
 30
0.0
 11
89.13372
 21
-173.849298
 31
0.0
  0
LINE
  5
211
100
AcDbEntity
  8
2
370
    50
100
AcDbLine
 10
91.704872
 20
-159.349298
 30
0.0
 11
91.704872
 21
-173.849298
 31
0.0
  0
LINE
  5
212
100
AcDbEntity
  8
2
370
    50
100
AcDbLine
 10
87.204872
 20
-173.849298
 30
0.0
 11
87.38372
 21
-173.849298
 31
0.0
  0
LINE
  5
213
100
AcDbEntity
  8
2
370
    50
100
AcDbLine
 10
87.204872
 20
-159.349298
 30
0.0
 11
87.38372
 21
-159.349298
 31
0.0
  0
ARC
  5
214
100
AcDbEntity
  8
2
370
    50
100
AcDbCircle
 10
93.454872
 20
-165.349298
 30
0.0
 40
6.25
100
AcDbArc
 50
90.0
 51
106.260205
  0
ARC
  5
215
100
AcDbEntity
  8
2
370
    50
100
AcDbCircle
 10
88.25872
 20
-160.755548
 30
0.0
 40
1.65625
100
AcDbArc
 50
58.109208
 51
121.890792
  0
ARC
  5
216
100
AcDbEntity
  8
2
370
    50
100
AcDbCircle
 10
88.25872
 20
-172.443048
 30
0.0
 40
1.65625
100
AcDbArc
 50
238.109208
 51
301.890792
  0
ARC
  5
217
100
AcDbEntity
  8
2
370
    50
100
AcDbCircle
 10
93.454872
 20
-167.849298
 30
0.0
 40
6.25
100
AcDbArc
 50
253.739795
 51
270.0
  0
LINE
  5
218
100
AcDbEntity
  8
2
370
    50
100
AcDbLine
 10
87.454872
 20
-179.960623
 30
0.0
 11
87.454872
 21
-174.637973
 31
0.0
  0
LINE
  5
219
100
AcDbEntity
  8
2
370
    50
100
AcDbLine
 10
99.454872
 20
-179.960623
 30
0.0
 11
99.454872
 21
-174.637973
 31
0.0
  0
LINE
  5
21A
100
AcDbEntity
  8
2
370
    50
100
AcDbLine
 10
95.852788
 20
-174.637973
 30
0.0
 11
95.852788
 21
-179.960623
 31
0.0
  0
LINE
  5
21B
100
AcDbEntity
  8
2
370
    50
100
AcDbLine
 10
97.019054
 20
-174.637973
 30
0.0
 11
97.019054
 21
-179.960623
 31
0.0
  0
LINE
  5
21C
100
AcDbEntity
  8
2
370
    50
100
AcDbLine
 10
99.41697
 20
-174.637973
 30
0.0
 11
99.41697
 21
-179.960623
 31
0.0
  0
LINE
  5
21D
100
AcDbEntity
  8
2
370
    50
100
AcDbLine
 10
98.954872
 20
-174.349298
 30
0.0
 11
87.954872
 21
-174.349298
 31
0.0
  0
LINE
  5
21E
100
AcDbEntity
  8
2
370
    50
100
AcDbLine
 10
98.954872
 20
-180.249298
 30
0.0
 11
99.454872
 21
-179.960623
 31
0.0
  0
LINE
  5
21F
100
AcDbEntity
  8
2
370
    50
100
AcDbLine
 10
97.019054
 20
-179.960623
 30
0.0
 11
95.852788
 21
-179.960623
 31
0.0
  0
LINE
  5
220
100
AcDbEntity
  8
2
370
    50
100
AcDbLine
 10
87.454872
 20
-179.960623
 30
0.0
 11
87.954872
 21
-180.249298
 31
0.0
  0
LINE
  5
221
100
AcDbEntity
  8
2
370
    50
100
AcDbLine
 10
87.454872
 20
-174.637973
 30
0.0
 11
87.954872
 21
-174.349298
 31
0.0
  0
ARC
  5
222
100
AcDbEntity
  8
2
370
    50
100
AcDbCircle
 10
93.454872
 20
-170.145668
 30
0.0
 40
10.10363
100
AcDbArc
 50
270.0
 51
283.729133
  0
ARC
  5
223
100
AcDbEntity
  8
2
370
    50
100
AcDbCircle
 10
93.454872
 20
-184.452927
 30
0.0
 40
10.10363
100
AcDbArc
 50
76.270867
 51
90.0
  0
LINE
  5
224
100
AcDbEntity
  8
2
370
    50
100
AcDbLine
 10
97.019054
 20
-174.637973
 30
0.0
 11
95.852788
 21
-174.637973
 31
0.0
  0
LINE
  5
225
100
AcDbEntity
  8
2
370
    50
100
AcDbLine
 10
99.454872
 20
-179.960623
 30
0.0
 11
99.41697
 21
-179.960623
 31
0.0
  0
ARC
  5
226
100
AcDbEntity
  8
2
370
    50
100
AcDbCircle
 10
98.218012
 20
-177.615137
 30
0.0
 40
2.634161
100
AcDbArc
 50
242.924933
 51
297.075067
  0
ARC
  5
227
100
AcDbEntity
  8
2
370
    50
100
AcDbCircle
 10
98.218012
 20
-176.983458
 30
0.0
 40
2.634161
100
AcDbArc
 50
62.924933
 51
117.075067
  0
LINE
  5
228
100
AcDbEntity
  8
2
370
    50
100
AcDbLine
 10
98.954872
 20
-174.349298
 30
0.0
 11
99.454872
 21
-174.637973
 31
0.0
  0
LINE
  5
229
100
AcDbEntity
  8
2
370
    50
100
AcDbLine
 10
99.454872
 20
-174.637973
 30
0.0
 11
99.41697
 21
-174.637973
 31
0.0
  0
ARC
  5
22A
100
AcDbEntity
  8
2
370
    50
100
AcDbCircle
 10
93.454872
 20
-170.145668
 30
0.0
 40
10.10363
100
AcDbArc
 50
256.270867
 51
270.0
  0
LINE
  5
22B
100
AcDbEntity
  8
2
370
    50
100
AcDbLine
 10
89.89069
 20
-179.960623
 30
0.0
 11
91.056956
 21
-179.960623
 31
0.0
  0
LINE
  5
22C
100
AcDbEntity
  8
2
370
    50
100
AcDbLine
 10
91.056957
 20
-174.637973
 30
0.0
 11
91.056956
 21
-179.960623
 31
0.0
  0
LINE
  5
22D
100
AcDbEntity
  8
2
370
    50
100
AcDbLine
 10
89.89069
 20
-174.637973
 30
0.0
 11
89.89069
 21
-179.960623
 31
0.0
  0
ARC
  5
22E
100
AcDbEntity
  8
2
370
    50
100
AcDbCircle
 10
88.691732
 20
-177.615137
 30
0.0
 40
2.634161
100
AcDbArc
 50
242.924933
 51
297.075067
  0
LINE
  5
22F
100
AcDbEntity
  8
2
370
    50
100
AcDbLine
 10
87.492774
 20
-174.637973
 30
0.0
 11
87.492774
 21
-179.960623
 31
0.0
  0
LINE
  5
230
100
AcDbEntity
  8
2
370
    50
100
AcDbLine
 10
87.492774
 20
-179.960623
 30
0.0
 11
87.454872
 21
-179.960623
 31
0.0
  0
ARC
  5
231
100
AcDbEntity
  8
2
370
    50
100
AcDbCircle
 10
93.454872
 20
-184.452927
 30
0.0
 40
10.10363
100
AcDbArc
 50
90.0
 51
103.729133
  0
LINE
  5
232
100
AcDbEntity
  8
2
370
    50
100
AcDbLine
 10
89.89069
 20
-174.637973
 30
0.0
 11
91.056956
 21
-174.637973
 31
0.0
  0
ARC
  5
233
100
AcDbEntity
  8
2
370
    50
100
AcDbCircle
 10
88.691732
 20
-176.983458
 30
0.0
 40
2.634161
100
AcDbArc
 50
62.924933
 51
117.075067
  0
LINE
  5
234
100
AcDbEntity
  8
2
370
    50
100
AcDbLine
 10
-5.914762
 20
115.43951
 30
0.0
 11
-5.657647
 21
115.745928
 31
0.0
  0
LINE
  5
235
100
AcDbEntity
  8
2
370
    50
100
AcDbLine
 10
-5.657647
 20
115.745928
 30
0.0
 11
-5.737852
 21
115.291064
 31
0.0
  0
LINE
  5
236
100
AcDbEntity
  8
2
370
    50
100
AcDbLine
 10
6.84907
 20
104.729383
 30
0.0
 11
7.106185
 21
105.0358
 31
0.0
  0
LINE
  5
237
100
AcDbEntity
  8
2
370
    50
100
AcDbLine
 10
7.106185
 20
105.0358
 30
0.0
 11
6.67216
 21
104.877828
 31
0.0
  0
LINE
  5
238
100
AcDbEntity
  8
2
370
    50
100
AcDbLine
 10
-7.131662
 20
115.807906
 30
0.0
 11
-19.344627
 21
101.253062
 31
0.0
  0
LINE
  5
239
100
AcDbEntity
  8
2
370
    50
100
AcDbLine
 10
7.423182
 20
103.594942
 30
0.0
 11
-4.789782
 21
89.040097
 31
0.0
  0
ARC
  5
23A
100
AcDbEntity
  8
2
370
    50
100
AcDbCircle
 10
-18.961604
 20
100.931668
 30
0.0
 40
0.5
100
AcDbArc
 50
140.0
 51
230.0
  0
ARC
  5
23B
100
AcDbEntity
  8
2
370
    50
100
AcDbCircle
 10
-5.172804
 20
89.361491
 30
0.0
 40
0.5
100
AcDbArc
 50
230.0
 51
320.0
  0
ARC
  5
23C
100
AcDbEntity
  8
2
370
    50
100
AcDbCircle
 10
7.04016
 20
103.916335
 30
0.0
 40
0.5
100
AcDbArc
 50
320.0
 51
50.0
  0
ARC
  5
23D
100
AcDbEntity
  8
2
370
    50
100
AcDbCircle
 10
-6.74864
 20
115.486512
 30
0.0
 40
0.5
100
AcDbArc
 50
50.0
 51
140.0
  0
LINE
  5
23E
100
AcDbEntity
  8
2
370
    50
100
AcDbLine
 10
-6.427246
 20
115.869535
 30
0.0
 11
0.467154
 21
110.084446
 31
0.0
  0
LINE
  5
23F
100
AcDbEntity
  8
2
370
    50
100
AcDbLine
 10
0.467154
 20
110.084446
 30
0.0
 11
7.361554
 21
104.299358
 31
0.0
  0
LINE
  5
240
100
AcDbEntity
  8
2
370
    50
100
AcDbLine
 10
-19.282998
 20
100.548646
 30
0.0
 11
-5.494198
 21
88.978469
 31
0.0
  0
POINT
  5
241
100
AcDbEntity
  8
2
370
    50
100
AcDbPoint
 10
-12.517156
 20
94.610348
 30
0.0
  0
LINE
  5
242
100
AcDbEntity
  8
2
370
    50
100
AcDbLine
 10
436.490698
 20
115.43951
 30
0.0
 11
436.233583
 21
115.745928
 31
0.0
  0
LINE
  5
243
100
AcDbEntity
  8
2
370
    50
100
AcDbLine
 10
436.233583
 20
115.745928
 30
0.0
 11
436.313787
 21
115.291064
 31
0.0
  0
LINE
  5
244
100
AcDbEntity
  8
2
370
    50
100
AcDbLine
 10
423.726865
 20
104.729383
 30
0.0
 11
423.46975
 21
105.0358
 31
0.0
  0
LINE
  5
245
100
AcDbEntity
  8
2
370
    50
100
AcDbLine
 10
423.46975
 20
105.0358
 30
0.0
 11
423.903776
 21
104.877828
 31
0.0
  0
LINE
  5
246
100
AcDbEntity
  8
2
370
    50
100
AcDbLine
 10
437.707598
 20
115.807906
 30
0.0
 11
449.920562
 21
101.253062
 31
0.0
  0
LINE
  5
247
100
AcDbEntity
  8
2
370
    50
100
AcDbLine
 10
423.152753
 20
103.594942
 30
0.0
 11
435.365718
 21
89.040097
 31
0.0
  0
ARC
  5
248
100
AcDbEntity
  8
2
370
    50
100
AcDbCircle
 10
449.53754
 20
100.931668
 30
0.0
 40
0.5
100
AcDbArc
 50
310.0
 51
40.0
  0
ARC
  5
249
100
AcDbEntity
  8
2
370
    50
100
AcDbCircle
 10
435.74874
 20
89.361491
 30
0.0
 40
0.5
100
AcDbArc
 50
220.0
 51
310.0
  0
ARC
  5
24A
100
AcDbEntity
  8
2
370
    50
100
AcDbCircle
 10
423.535775
 20
103.916335
 30
0.0
 40
0.5
100
AcDbArc
 50
130.0
 51
220.0
  0
ARC
  5
24B
100
AcDbEntity
  8
2
370
    50
100
AcDbCircle
 10
437.324575
 20
115.486512
 30
0.0
 40
0.5
100
AcDbArc
 50
40.0
 51
130.0
  0
LINE
  5
24C
100
AcDbEntity
  8
2
370
    50
100
AcDbLine
 10
437.003182
 20
115.869535
 30
0.0
 11
430.108782
 21
110.084446
 31
0.0
  0
LINE
  5
24D
100
AcDbEntity
  8
2
370
    50
100
AcDbLine
 10
430.108782
 20
110.084446
 30
0.0
 11
423.214382
 21
104.299358
 31
0.0
  0
LINE
  5
24E
100
AcDbEntity
  8
2
370
    50
100
AcDbLine
 10
449.858934
 20
100.548646
 30
0.0
 11
436.070134
 21
88.978469
 31
0.0
  0
ELLIPSE
  5
24F
100
AcDbEntity
  8
2
370
    50
100
AcDbEllipse
 10
-355.953258
 20
94.670348
 30
0.0
 11
9.5
 21
0.0
 31
0.0
210
0.0
220
0.0
230
1.0
 40
0.642789
 41
0.0
 42
6.2831849999999996
  0
LINE
  5
250
100
AcDbEntity
  8
2
370
    50
100
AcDbLine
 10
-346.453258
 20
109.991237
 30
0.0
 11
-346.453258
 21
94.670348
 31
0.0
  0
LINE
  5
251
100
AcDbEntity
  8
2
370
    50
100
AcDbLine
 10
-365.453258
 20
109.991237
 30
0.0
 11
-365.453258
 21
94.670348
 31
0.0
  0
ELLIPSE
  5
252
100
AcDbEntity
  8
2
370
    50
100
AcDbEllipse
 10
-355.953258
 20
109.991237
 30
0.0
 11
9.5
 21
0.0
 31
0.0
210
0.0
220
0.0
230
1.0
 40
0.642789
 41
0.0
 42
3.1415929999999999
  0
ELLIPSE
  5
253
100
AcDbEntity
  8
2
370
    50
100
AcDbEllipse
 10
-355.953258
 20
94.670348
 30
0.0
 11
7.75
 21
0.0
 31
0.0
210
0.0
220
0.0
230
1.0
 40
0.642774
 41
0.0
 42
6.2831849999999996
  0
POINT
  5
254
100
AcDbEntity
  8
2
370
    50
100
AcDbPoint
 10
-355.953258
 20
-123.849298
 30
0.0
  0
LINE
  5
255
100
AcDbEntity
  8
2
370
    50
100
AcDbLine
 10
-347.953258
 20
-158.849298
 30
0.0
 11
-342.203258
 21
-158.849298
 31
0.0
  0
LINE
  5
256
100
AcDbEntity
  8
2
370
    50
100
AcDbLine
 10
-347.953258
 20
-174.349298
 30
0.0
 11
-342.203258
 21
-174.349298
 31
0.0
  0
LINE
  5
257
100
AcDbEntity
  8
2
370
    50
100
AcDbLine
 10
-341.703258
 20
-159.349298
 30
0.0
 11
-341.703258
 21
-173.849298
 31
0.0
  0
LINE
  5
258
100
AcDbEntity
  8
2
370
    50
100
AcDbLine
 10
-341.703258
 20
-159.349298
 30
0.0
 11
-342.203258
 21
-158.849298
 31
0.0
  0
LINE
  5
259
100
AcDbEntity
  8
2
370
    50
100
AcDbLine
 10
-341.703258
 20
-173.849298
 30
0.0
 11
-342.203258
 21
-174.349298
 31
0.0
  0
LINE
  5
25A
100
AcDbEntity
  8
2
370
    50
100
AcDbLine
 10
-343.632106
 20
-173.849298
 30
0.0
 11
-346.203258
 21
-173.849298
 31
0.0
  0
LINE
  5
25B
100
AcDbEntity
  8
2
370
    50
100
AcDbLine
 10
-343.632106
 20
-159.349298
 30
0.0
 11
-346.203258
 21
-159.349298
 31
0.0
  0
LINE
  5
25C
100
AcDbEntity
  8
2
370
    50
100
AcDbLine
 10
-341.882106
 20
-159.349298
 30
0.0
 11
-341.882106
 21
-173.849298
 31
0.0
  0
LINE
  5
25D
100
AcDbEntity
  8
2
370
    50
100
AcDbLine
 10
-343.632106
 20
-159.349298
 30
0.0
 11
-343.632106
 21
-173.849298
 31
0.0
  0
LINE
  5
25E
100
AcDbEntity
  8
2
370
    50
100
AcDbLine
 10
-346.203258
 20
-159.349298
 30
0.0
 11
-346.203258
 21
-173.849298
 31
0.0
  0
LINE
  5
25F
100
AcDbEntity
  8
2
370
    50
100
AcDbLine
 10
-341.703258
 20
-173.849298
 30
0.0
 11
-341.882106
 21
-173.849298
 31
0.0
  0
LINE
  5
260
100
AcDbEntity
  8
2
370
    50
100
AcDbLine
 10
-341.703258
 20
-159.349298
 30
0.0
 11
-341.882106
 21
-159.349298
 31
0.0
  0
ARC
  5
261
100
AcDbEntity
  8
2
370
    50
100
AcDbCircle
 10
-347.953258
 20
-165.349298
 30
0.0
 40
6.25
100
AcDbArc
 50
73.739795
 51
90.0
  0
ARC
  5
262
100
AcDbEntity
  8
2
370
    50
100
AcDbCircle
 10
-342.757106
 20
-160.755548
 30
0.0
 40
1.65625
100
AcDbArc
 50
58.109208
 51
121.890792
  0
ARC
  5
263
100
AcDbEntity
  8
2
370
    50
100
AcDbCircle
 10
-342.757106
 20
-172.443048
 30
0.0
 40
1.65625
100
AcDbArc
 50
238.109208
 51
301.890792
  0
ARC
  5
264
100
AcDbEntity
  8
2
370
    50
100
AcDbCircle
 10
-347.953258
 20
-167.849298
 30
0.0
 40
6.25
100
AcDbArc
 50
270.0
 51
286.260205
  0
LINE
  5
265
100
AcDbEntity
  8
2
370
    50
100
AcDbLine
 10
-347.953258
 20
-158.849298
 30
0.0
 11
-353.703258
 21
-158.849298
 31
0.0
  0
LINE
  5
266
100
AcDbEntity
  8
2
370
    50
100
AcDbLine
 10
-347.953258
 20
-174.349298
 30
0.0
 11
-353.703258
 21
-174.349298
 31
0.0
  0
LINE
  5
267
100
AcDbEntity
  8
2
370
    50
100
AcDbLine
 10
-354.203258
 20
-159.349298
 30
0.0
 11
-354.203258
 21
-173.849298
 31
0.0
  0
LINE
  5
268
100
AcDbEntity
  8
2
370
    50
100
AcDbLine
 10
-354.203258
 20
-159.349298
 30
0.0
 11
-353.703258
 21
-158.849298
 31
0.0
  0
LINE
  5
269
100
AcDbEntity
  8
2
370
    50
100
AcDbLine
 10
-354.203258
 20
-173.849298
 30
0.0
 11
-353.703258
 21
-174.349298
 31
0.0
  0
LINE
  5
26A
100
AcDbEntity
  8
2
370
    50
100
AcDbLine
 10
-352.274411
 20
-173.849298
 30
0.0
 11
-349.703258
 21
-173.849298
 31
0.0
  0
LINE
  5
26B
100
AcDbEntity
  8
2
370
    50
100
AcDbLine
 10
-352.274411
 20
-159.349298
 30
0.0
 11
-349.703258
 21
-159.349298
 31
0.0
  0
LINE
  5
26C
100
AcDbEntity
  8
2
370
    50
100
AcDbLine
 10
-354.024411
 20
-159.349298
 30
0.0
 11
-354.024411
 21
-173.849298
 31
0.0
  0
LINE
  5
26D
100
AcDbEntity
  8
2
370
    50
100
AcDbLine
 10
-352.274411
 20
-159.349298
 30
0.0
 11
-352.274411
 21
-173.849298
 31
0.0
  0
LINE
  5
26E
100
AcDbEntity
  8
2
370
    50
100
AcDbLine
 10
-349.703258
 20
-159.349298
 30
0.0
 11
-349.703258
 21
-173.849298
 31
0.0
  0
LINE
  5
26F
100
AcDbEntity
  8
2
370
    50
100
AcDbLine
 10
-354.203258
 20
-173.849298
 30
0.0
 11
-354.024411
 21
-173.849298
 31
0.0
  0
LINE
  5
270
100
AcDbEntity
  8
2
370
    50
100
AcDbLine
 10
-354.203258
 20
-159.349298
 30
0.0
 11
-354.024411
 21
-159.349298
 31
0.0
  0
ARC
  5
271
100
AcDbEntity
  8
2
370
    50
100
AcDbCircle
 10
-347.953258
 20
-165.349298
 30
0.0
 40
6.25
100
AcDbArc
 50
90.0
 51
106.260205
  0
ARC
  5
272
100
AcDbEntity
  8
2
370
    50
100
AcDbCircle
 10
-353.149411
 20
-160.755548
 30
0.0
 40
1.65625
100
AcDbArc
 50
58.109208
 51
121.890792
  0
ARC
  5
273
100
AcDbEntity
  8
2
370
    50
100
AcDbCircle
 10
-353.149411
 20
-172.443048
 30
0.0
 40
1.65625
100
AcDbArc
 50
238.109208
 51
301.890792
  0
ARC
  5
274
100
AcDbEntity
  8
2
370
    50
100
AcDbCircle
 10
-347.953258
 20
-167.849298
 30
0.0
 40
6.25
100
AcDbArc
 50
253.739795
 51
270.0
  0
LINE
  5
275
100
AcDbEntity
  8
2
370
    50
100
AcDbLine
 10
-363.953258
 20
-158.849298
 30
0.0
 11
-358.203258
 21
-158.849298
 31
0.0
  0
LINE
  5
276
100
AcDbEntity
  8
2
370
    50
100
AcDbLine
 10
-363.953258
 20
-174.349298
 30
0.0
 11
-358.203258
 21
-174.349298
 31
0.0
  0
LINE
  5
277
100
AcDbEntity
  8
2
370
    50
100
AcDbLine
 10
-357.703258
 20
-159.349298
 30
0.0
 11
-357.703258
 21
-173.849298
 31
0.0
  0
LINE
  5
278
100
AcDbEntity
  8
2
370
    50
100
AcDbLine
 10
-357.703258
 20
-159.349298
 30
0.0
 11
-358.203258
 21
-158.849298
 31
0.0
  0
LINE
  5
279
100
AcDbEntity
  8
2
370
    50
100
AcDbLine
 10
-357.703258
 20
-173.849298
 30
0.0
 11
-358.203258
 21
-174.349298
 31
0.0
  0
LINE
  5
27A
100
AcDbEntity
  8
2
370
    50
100
AcDbLine
 10
-359.632106
 20
-173.849298
 30
0.0
 11
-362.203258
 21
-173.849298
 31
0.0
  0
LINE
  5
27B
100
AcDbEntity
  8
2
370
    50
100
AcDbLine
 10
-359.632106
 20
-159.349298
 30
0.0
 11
-362.203258
 21
-159.349298
 31
0.0
  0
LINE
  5
27C
100
AcDbEntity
  8
2
370
    50
100
AcDbLine
 10
-357.882106
 20
-159.349298
 30
0.0
 11
-357.882106
 21
-173.849298
 31
0.0
  0
LINE
  5
27D
100
AcDbEntity
  8
2
370
    50
100
AcDbLine
 10
-359.632106
 20
-159.349298
 30
0.0
 11
-359.632106
 21
-173.849298
 31
0.0
  0
LINE
  5
27E
100
AcDbEntity
  8
2
370
    50
100
AcDbLine
 10
-362.203258
 20
-159.349298
 30
0.0
 11
-362.203258
 21
-173.849298
 31
0.0
  0
LINE
  5
27F
100
AcDbEntity
  8
2
370
    50
100
AcDbLine
 10
-357.703258
 20
-173.849298
 30
0.0
 11
-357.882106
 21
-173.849298
 31
0.0
  0
LINE
  5
280
100
AcDbEntity
  8
2
370
    50
100
AcDbLine
 10
-357.703258
 20
-159.349298
 30
0.0
 11
-357.882106
 21
-159.349298
 31
0.0
  0
ARC
  5
281
100
AcDbEntity
  8
2
370
    50
100
AcDbCircle
 10
-363.953258
 20
-165.349298
 30
0.0
 40
6.25
100
AcDbArc
 50
73.739795
 51
90.0
  0
ARC
  5
282
100
AcDbEntity
  8
2
370
    50
100
AcDbCircle
 10
-358.757106
 20
-160.755548
 30
0.0
 40
1.65625
100
AcDbArc
 50
58.109208
 51
121.890792
  0
ARC
  5
283
100
AcDbEntity
  8
2
370
    50
100
AcDbCircle
 10
-358.757106
 20
-172.443048
 30
0.0
 40
1.65625
100
AcDbArc
 50
238.109208
 51
301.890792
  0
ARC
  5
284
100
AcDbEntity
  8
2
370
    50
100
AcDbCircle
 10
-363.953258
 20
-167.849298
 30
0.0
 40
6.25
100
AcDbArc
 50
270.0
 51
286.260205
  0
LINE
  5
285
100
AcDbEntity
  8
2
370
    50
100
AcDbLine
 10
-363.953258
 20
-158.849298
 30
0.0
 11
-369.703258
 21
-158.849298
 31
0.0
  0
LINE
  5
286
100
AcDbEntity
  8
2
370
    50
100
AcDbLine
 10
-363.953258
 20
-174.349298
 30
0.0
 11
-369.703258
 21
-174.349298
 31
0.0
  0
LINE
  5
287
100
AcDbEntity
  8
2
370
    50
100
AcDbLine
 10
-370.203258
 20
-159.349298
 30
0.0
 11
-370.203258
 21
-173.849298
 31
0.0
  0
LINE
  5
288
100
AcDbEntity
  8
2
370
    50
100
AcDbLine
 10
-370.203258
 20
-159.349298
 30
0.0
 11
-369.703258
 21
-158.849298
 31
0.0
  0
LINE
  5
289
100
AcDbEntity
  8
2
370
    50
100
AcDbLine
 10
-370.203258
 20
-173.849298
 30
0.0
 11
-369.703258
 21
-174.349298
 31
0.0
  0
LINE
  5
28A
100
AcDbEntity
  8
2
370
    50
100
AcDbLine
 10
-368.274411
 20
-173.849298
 30
0.0
 11
-365.703258
 21
-173.849298
 31
0.0
  0
LINE
  5
28B
100
AcDbEntity
  8
2
370
    50
100
AcDbLine
 10
-368.274411
 20
-159.349298
 30
0.0
 11
-365.703258
 21
-159.349298
 31
0.0
  0
LINE
  5
28C
100
AcDbEntity
  8
2
370
    50
100
AcDbLine
 10
-370.024411
 20
-159.349298
 30
0.0
 11
-370.024411
 21
-173.849298
 31
0.0
  0
LINE
  5
28D
100
AcDbEntity
  8
2
370
    50
100
AcDbLine
 10
-368.274411
 20
-159.349298
 30
0.0
 11
-368.274411
 21
-173.849298
 31
0.0
  0
LINE
  5
28E
100
AcDbEntity
  8
2
370
    50
100
AcDbLine
 10
-365.703258
 20
-159.349298
 30
0.0
 11
-365.703258
 21
-173.849298
 31
0.0
  0
LINE
  5
28F
100
AcDbEntity
  8
2
370
    50
100
AcDbLine
 10
-370.203258
 20
-173.849298
 30
0.0
 11
-370.024411
 21
-173.849298
 31
0.0
  0
LINE
  5
290
100
AcDbEntity
  8
2
370
    50
100
AcDbLine
 10
-370.203258
 20
-159.349298
 30
0.0
 11
-370.024411
 21
-159.349298
 31
0.0
  0
ARC
  5
291
100
AcDbEntity
  8
2
370
    50
100
AcDbCircle
 10
-363.953258
 20
-165.349298
 30
0.0
 40
6.25
100
AcDbArc
 50
90.0
 51
106.260205
  0
ARC
  5
292
100
AcDbEntity
  8
2
370
    50
100
AcDbCircle
 10
-369.149411
 20
-160.755548
 30
0.0
 40
1.65625
100
AcDbArc
 50
58.109208
 51
121.890792
  0
ARC
  5
293
100
AcDbEntity
  8
2
370
    50
100
AcDbCircle
 10
-369.149411
 20
-172.443048
 30
0.0
 40
1.65625
100
AcDbArc
 50
238.109208
 51
301.890792
  0
ARC
  5
294
100
AcDbEntity
  8
2
370
    50
100
AcDbCircle
 10
-363.953258
 20
-167.849298
 30
0.0
 40
6.25
100
AcDbArc
 50
253.739795
 51
270.0
  0
LINE
  5
295
100
AcDbEntity
  8
2
370
    50
100
AcDbLine
 10
-369.953259
 20
-179.960623
 30
0.0
 11
-369.953259
 21
-174.637973
 31
0.0
  0
LINE
  5
296
100
AcDbEntity
  8
2
370
    50
100
AcDbLine
 10
-357.953259
 20
-179.960623
 30
0.0
 11
-357.953259
 21
-174.637973
 31
0.0
  0
LINE
  5
297
100
AcDbEntity
  8
2
370
    50
100
AcDbLine
 10
-361.555343
 20
-174.637973
 30
0.0
 11
-361.555343
 21
-179.960623
 31
0.0
  0
LINE
  5
298
100
AcDbEntity
  8
2
370
    50
100
AcDbLine
 10
-360.389077
 20
-174.637973
 30
0.0
 11
-360.389077
 21
-179.960623
 31
0.0
  0
LINE
  5
299
100
AcDbEntity
  8
2
370
    50
100
AcDbLine
 10
-357.991161
 20
-174.637973
 30
0.0
 11
-357.991161
 21
-179.960623
 31
0.0
  0
LINE
  5
29A
100
AcDbEntity
  8
2
370
    50
100
AcDbLine
 10
-358.453259
 20
-174.349298
 30
0.0
 11
-368.716398
 21
-174.349298
 31
0.0
  0
LINE
  5
29B
100
AcDbEntity
  8
2
370
    50
100
AcDbLine
 10
-368.953259
 20
-174.349298
 30
0.0
 11
-369.453259
 21
-174.349298
 31
0.0
  0
LINE
  5
29C
100
AcDbEntity
  8
2
370
    50
100
AcDbLine
 10
-358.453259
 20
-180.249298
 30
0.0
 11
-357.953259
 21
-179.960623
 31
0.0
  0
LINE
  5
29D
100
AcDbEntity
  8
2
370
    50
100
AcDbLine
 10
-360.389077
 20
-179.960623
 30
0.0
 11
-361.555343
 21
-179.960623
 31
0.0
  0
LINE
  5
29E
100
AcDbEntity
  8
2
370
    50
100
AcDbLine
 10
-369.953259
 20
-179.960623
 30
0.0
 11
-369.453259
 21
-180.249298
 31
0.0
  0
LINE
  5
29F
100
AcDbEntity
  8
2
370
    50
100
AcDbLine
 10
-369.953259
 20
-174.637973
 30
0.0
 11
-369.453259
 21
-174.349298
 31
0.0
  0
ARC
  5
2A0
100
AcDbEntity
  8
2
370
    50
100
AcDbCircle
 10
-363.953259
 20
-170.145668
 30
0.0
 40
10.10363
100
AcDbArc
 50
270.0
 51
283.729133
  0
ARC
  5
2A1
100
AcDbEntity
  8
2
370
    50
100
AcDbCircle
 10
-363.953259
 20
-184.452927
 30
0.0
 40
10.10363
100
AcDbArc
 50
76.270867
 51
90.0
  0
LINE
  5
2A2
100
AcDbEntity
  8
2
370
    50
100
AcDbLine
 10
-360.389077
 20
-174.637973
 30
0.0
 11
-361.555343
 21
-174.637973
 31
0.0
  0
LINE
  5
2A3
100
AcDbEntity
  8
2
370
    50
100
AcDbLine
 10
-357.953259
 20
-179.960623
 30
0.0
 11
-357.991161
 21
-179.960623
 31
0.0
  0
ARC
  5
2A4
100
AcDbEntity
  8
2
370
    50
100
AcDbCircle
 10
-359.190119
 20
-177.615137
 30
0.0
 40
2.634161
100
AcDbArc
 50
242.924933
 51
297.075067
  0
ARC
  5
2A5
100
AcDbEntity
  8
2
370
    50
100
AcDbCircle
 10
-359.190119
 20
-176.983458
 30
0.0
 40
2.634161
100
AcDbArc
 50
62.924933
 51
117.075067
  0
LINE
  5
2A6
100
AcDbEntity
  8
2
370
    50
100
AcDbLine
 10
-358.453259
 20
-174.349298
 30
0.0
 11
-357.953259
 21
-174.637973
 31
0.0
  0
LINE
  5
2A7
100
AcDbEntity
  8
2
370
    50
100
AcDbLine
 10
-357.953259
 20
-174.637973
 30
0.0
 11
-357.991161
 21
-174.637973
 31
0.0
  0
ARC
  5
2A8
100
AcDbEntity
  8
2
370
    50
100
AcDbCircle
 10
-363.953259
 20
-170.145668
 30
0.0
 40
10.10363
100
AcDbArc
 50
256.270867
 51
270.0
  0
LINE
  5
2A9
100
AcDbEntity
  8
2
370
    50
100
AcDbLine
 10
-367.517441
 20
-179.960623
 30
0.0
 11
-366.351174
 21
-179.960623
 31
0.0
  0
LINE
  5
2AA
100
AcDbEntity
  8
2
370
    50
100
AcDbLine
 10
-366.351174
 20
-174.637973
 30
0.0
 11
-366.351174
 21
-179.960623
 31
0.0
  0
LINE
  5
2AB
100
AcDbEntity
  8
2
370
    50
100
AcDbLine
 10
-367.517441
 20
-174.637973
 30
0.0
 11
-367.517441
 21
-179.960623
 31
0.0
  0
ARC
  5
2AC
100
AcDbEntity
  8
2
370
    50
100
AcDbCircle
 10
-368.716398
 20
-177.615137
 30
0.0
 40
2.634161
100
AcDbArc
 50
242.924933
 51
297.075067
  0
LINE
  5
2AD
100
AcDbEntity
  8
2
370
    50
100
AcDbLine
 10
-369.915356
 20
-174.637973
 30
0.0
 11
-369.915356
 21
-179.960623
 31
0.0
  0
LINE
  5
2AE
100
AcDbEntity
  8
2
370
    50
100
AcDbLine
 10
-369.915356
 20
-179.960623
 30
0.0
 11
-369.953259
 21
-179.960623
 31
0.0
  0
ARC
  5
2AF
100
AcDbEntity
  8
2
370
    50
100
AcDbCircle
 10
-363.953259
 20
-184.452927
 30
0.0
 40
10.10363
100
AcDbArc
 50
90.0
 51
103.729133
  0
LINE
  5
2B0
100
AcDbEntity
  8
2
370
    50
100
AcDbLine
 10
-367.517441
 20
-174.637973
 30
0.0
 11
-366.351174
 21
-174.637973
 31
0.0
  0
ARC
  5
2B1
100
AcDbEntity
  8
2
370
    50
100
AcDbCircle
 10
-368.716398
 20
-176.983458
 30
0.0
 40
2.634161
100
AcDbArc
 50
62.924933
 51
117.075067
  0
LINE
  5
2B2
100
AcDbEntity
  8
2
370
    50
100
AcDbLine
 10
-353.953259
 20
-179.960623
 30
0.0
 11
-353.953259
 21
-174.637973
 31
0.0
  0
LINE
  5
2B3
100
AcDbEntity
  8
2
370
    50
100
AcDbLine
 10
-341.953259
 20
-179.960623
 30
0.0
 11
-341.953259
 21
-174.637973
 31
0.0
  0
LINE
  5
2B4
100
AcDbEntity
  8
2
370
    50
100
AcDbLine
 10
-345.555343
 20
-174.637973
 30
0.0
 11
-345.555343
 21
-179.960623
 31
0.0
  0
LINE
  5
2B5
100
AcDbEntity
  8
2
370
    50
100
AcDbLine
 10
-344.389077
 20
-174.637973
 30
0.0
 11
-344.389077
 21
-179.960623
 31
0.0
  0
LINE
  5
2B6
100
AcDbEntity
  8
2
370
    50
100
AcDbLine
 10
-341.991161
 20
-174.637973
 30
0.0
 11
-341.991161
 21
-179.960623
 31
0.0
  0
LINE
  5
2B7
100
AcDbEntity
  8
2
370
    50
100
AcDbLine
 10
-342.453259
 20
-174.349298
 30
0.0
 11
-353.453259
 21
-174.349298
 31
0.0
  0
LINE
  5
2B8
100
AcDbEntity
  8
2
370
    50
100
AcDbLine
 10
-342.453259
 20
-180.249298
 30
0.0
 11
-341.953259
 21
-179.960623
 31
0.0
  0
LINE
  5
2B9
100
AcDbEntity
  8
2
370
    50
100
AcDbLine
 10
-344.389077
 20
-179.960623
 30
0.0
 11
-345.555343
 21
-179.960623
 31
0.0
  0
LINE
  5
2BA
100
AcDbEntity
  8
2
370
    50
100
AcDbLine
 10
-353.953259
 20
-179.960623
 30
0.0
 11
-353.453259
 21
-180.249298
 31
0.0
  0
LINE
  5
2BB
100
AcDbEntity
  8
2
370
    50
100
AcDbLine
 10
-353.953259
 20
-174.637973
 30
0.0
 11
-353.453259
 21
-174.349298
 31
0.0
  0
ARC
  5
2BC
100
AcDbEntity
  8
2
370
    50
100
AcDbCircle
 10
-347.953259
 20
-170.145668
 30
0.0
 40
10.10363
100
AcDbArc
 50
270.0
 51
283.729133
  0
ARC
  5
2BD
100
AcDbEntity
  8
2
370
    50
100
AcDbCircle
 10
-347.953259
 20
-184.452927
 30
0.0
 40
10.10363
100
AcDbArc
 50
76.270867
 51
90.0
  0
LINE
  5
2BE
100
AcDbEntity
  8
2
370
    50
100
AcDbLine
 10
-344.389077
 20
-174.637973
 30
0.0
 11
-345.555343
 21
-174.637973
 31
0.0
  0
LINE
  5
2BF
100
AcDbEntity
  8
2
370
    50
100
AcDbLine
 10
-341.953259
 20
-179.960623
 30
0.0
 11
-341.991161
 21
-179.960623
 31
0.0
  0
ARC
  5
2C0
100
AcDbEntity
  8
2
370
    50
100
AcDbCircle
 10
-343.190119
 20
-177.615137
 30
0.0
 40
2.634161
100
AcDbArc
 50
242.924933
 51
297.075067
  0
ARC
  5
2C1
100
AcDbEntity
  8
2
370
    50
100
AcDbCircle
 10
-343.190119
 20
-176.983458
 30
0.0
 40
2.634161
100
AcDbArc
 50
62.924933
 51
117.075067
  0
LINE
  5
2C2
100
AcDbEntity
  8
2
370
    50
100
AcDbLine
 10
-342.453259
 20
-174.349298
 30
0.0
 11
-341.953259
 21
-174.637973
 31
0.0
  0
LINE
  5
2C3
100
AcDbEntity
  8
2
370
    50
100
AcDbLine
 10
-341.953259
 20
-174.637973
 30
0.0
 11
-341.991161
 21
-174.637973
 31
0.0
  0
ARC
  5
2C4
100
AcDbEntity
  8
2
370
    50
100
AcDbCircle
 10
-347.953259
 20
-170.145668
 30
0.0
 40
10.10363
100
AcDbArc
 50
256.270867
 51
270.0
  0
LINE
  5
2C5
100
AcDbEntity
  8
2
370
    50
100
AcDbLine
 10
-351.517441
 20
-179.960623
 30
0.0
 11
-350.351174
 21
-179.960623
 31
0.0
  0
LINE
  5
2C6
100
AcDbEntity
  8
2
370
    50
100
AcDbLine
 10
-350.351174
 20
-174.637973
 30
0.0
 11
-350.351174
 21
-179.960623
 31
0.0
  0
LINE
  5
2C7
100
AcDbEntity
  8
2
370
    50
100
AcDbLine
 10
-351.517441
 20
-174.637973
 30
0.0
 11
-351.517441
 21
-179.960623
 31
0.0
  0
ARC
  5
2C8
100
AcDbEntity
  8
2
370
    50
100
AcDbCircle
 10
-352.716398
 20
-177.615137
 30
0.0
 40
2.634161
100
AcDbArc
 50
242.924933
 51
297.075067
  0
LINE
  5
2C9
100
AcDbEntity
  8
2
370
    50
100
AcDbLine
 10
-353.915356
 20
-174.637973
 30
0.0
 11
-353.915356
 21
-179.960623
 31
0.0
  0
LINE
  5
2CA
100
AcDbEntity
  8
2
370
    50
100
AcDbLine
 10
-353.915356
 20
-179.960623
 30
0.0
 11
-353.953259
 21
-179.960623
 31
0.0
  0
LINE
  5
2CB
100
AcDbEntity
  8
2
370
    25
  6
CENTER
100
AcDbLine
 10
-347.953259
 20
-216.610452
 30
0.0
 11
-347.953259
 21
-239.66636
 31
0.0
  0
ARC
  5
2CC
100
AcDbEntity
  8
2
370
    50
100
AcDbCircle
 10
-347.953259
 20
-184.452927
 30
0.0
 40
10.10363
100
AcDbArc
 50
90.0
 51
103.729133
  0
LINE
  5
2CD
100
AcDbEntity
  8
2
370
    50
100
AcDbLine
 10
-351.517441
 20
-174.637973
 30
0.0
 11
-350.351174
 21
-174.637973
 31
0.0
  0
ARC
  5
2CE
100
AcDbEntity
  8
2
370
    50
100
AcDbCircle
 10
-352.716398
 20
-176.983458
 30
0.0
 40
2.634161
100
AcDbArc
 50
62.924933
 51
117.075067
  0
LINE
  5
2CF
100
AcDbEntity
  8
2
370
    50
100
AcDbLine
 10
-302.165416
 20
-294.646349
 30
0.0
 11
-302.165416
 21
-297.046349
 31
0.0
  0
LINE
  5
2D0
100
AcDbEntity
  8
2
370
    50
100
AcDbLine
 10
-301.965416
 20
-294.446349
 30
0.0
 11
-302.165416
 21
-294.646349
 31
0.0
  0
LINE
  5
2D1
100
AcDbEntity
  8
2
370
    50
100
AcDbLine
 10
-301.965416
 20
-297.246349
 30
0.0
 11
-302.165416
 21
-297.046349
 31
0.0
  0
LINE
  5
2D2
100
AcDbEntity
  8
2
370
    50
100
AcDbLine
 10
-302.265416
 20
-303.046349
 30
0.0
 11
-284.265416
 21
-303.046349
 31
0.0
  0
LINE
  5
2D3
100
AcDbEntity
  8
2
370
    50
100
AcDbLine
 10
-299.265416
 20
-289.046349
 30
0.0
 11
-306.765416
 21
-289.046349
 31
0.0
  0
LINE
  5
2D4
100
AcDbEntity
  8
2
370
    50
100
AcDbLine
 10
-301.565416
 20
-303.046349
 30
0.0
 11
-306.765416
 21
-303.046349
 31
0.0
  0
LINE
  5
2D5
100
AcDbEntity
  8
2
370
    50
100
AcDbLine
 10
-302.165416
 20
-294.646349
 30
0.0
 11
-297.265416
 21
-294.646349
 31
0.0
  0
LINE
  5
2D6
100
AcDbEntity
  8
2
370
    50
100
AcDbLine
 10
-302.165416
 20
-297.046349
 30
0.0
 11
-297.265416
 21
-297.046349
 31
0.0
  0
LINE
  5
2D7
100
AcDbEntity
  8
2
370
    50
100
AcDbLine
 10
-302.065416
 20
-302.046349
 30
0.0
 11
-302.065416
 21
-299.446349
 31
0.0
  0
LINE
  5
2D8
100
AcDbEntity
  8
2
370
    50
100
AcDbLine
 10
-302.065416
 20
-294.546349
 30
0.0
 11
-302.065416
 21
-290.046349
 31
0.0
  0
ARC
  5
2D9
100
AcDbEntity
  8
2
370
    50
100
AcDbCircle
 10
-301.065416
 20
-290.046349
 30
0.0
 40
1.0
100
AcDbArc
 50
90.0
 51
180.0
  0
ARC
  5
2DA
100
AcDbEntity
  8
2
370
    50
100
AcDbCircle
 10
-303.065416
 20
-302.046349
 30
0.0
 40
1.0
100
AcDbArc
 50
270.0
 51
360.0
  0
ARC
  5
2DB
100
AcDbEntity
  8
2
370
    50
100
AcDbCircle
 10
-301.065416
 20
-290.046349
 30
0.0
 40
1.0
100
AcDbArc
 50
90.0
 51
180.0
  0
LINE
  5
2DC
100
AcDbEntity
  8
2
370
    50
100
AcDbLine
 10
-302.265416
 20
-297.446349
 30
0.0
 11
-302.265416
 21
-299.246349
 31
0.0
  0
LINE
  5
2DD
100
AcDbEntity
  8
2
370
    50
100
AcDbLine
 10
-302.065416
 20
-297.246349
 30
0.0
 11
-302.265416
 21
-297.446349
 31
0.0
  0
LINE
  5
2DE
100
AcDbEntity
  8
2
370
    50
100
AcDbLine
 10
-302.265416
 20
-299.246349
 30
0.0
 11
-302.065416
 21
-299.446349
 31
0.0
  0
LINE
  5
2DF
100
AcDbEntity
  8
2
370
    50
100
AcDbLine
 10
-302.065416
 20
-299.446349
 30
0.0
 11
-297.265416
 21
-299.446349
 31
0.0
  0
LINE
  5
2E0
100
AcDbEntity
  8
2
370
    50
100
AcDbLine
 10
-302.265416
 20
-299.246349
 30
0.0
 11
-297.265416
 21
-299.246349
 31
0.0
  0
LINE
  5
2E1
100
AcDbEntity
  8
2
370
    50
100
AcDbLine
 10
-302.265416
 20
-297.446349
 30
0.0
 11
-297.265416
 21
-297.446349
 31
0.0
  0
LINE
  5
2E2
100
AcDbEntity
  8
2
370
    50
100
AcDbLine
 10
-302.065416
 20
-297.246349
 30
0.0
 11
-297.265416
 21
-297.246349
 31
0.0
  0
LINE
  5
2E3
100
AcDbEntity
  8
2
370
    50
100
AcDbLine
 10
-307.765416
 20
-290.046349
 30
0.0
 11
-307.765416
 21
-302.046349
 31
0.0
  0
ARC
  5
2E4
100
AcDbEntity
  8
2
370
    50
100
AcDbCircle
 10
-306.765416
 20
-290.046349
 30
0.0
 40
1.0
100
AcDbArc
 50
90.0
 51
180.0
  0
ARC
  5
2E5
100
AcDbEntity
  8
2
370
    50
100
AcDbCircle
 10
-306.765416
 20
-302.046349
 30
0.0
 40
1.0
100
AcDbArc
 50
180.0
 51
270.0
  0
LINE
  5
2E6
100
AcDbEntity
  8
2
370
    50
100
AcDbLine
 10
-302.26521
 20
-303.445601
 30
0.0
 11
-303.26521
 21
-304.445601
 31
0.0
  0
LINE
  5
2E7
100
AcDbEntity
  8
2
370
    50
100
AcDbLine
 10
-302.26521
 20
-303.445601
 30
0.0
 11
-284.26521
 21
-303.445601
 31
0.0
  0
LINE
  5
2E8
100
AcDbEntity
  8
2
370
    50
100
AcDbLine
 10
-283.26521
 20
-304.445601
 30
0.0
 11
-303.26521
 21
-304.445601
 31
0.0
  0
LINE
  5
2E9
100
AcDbEntity
  8
2
370
    50
100
AcDbLine
 10
-303.26521
 20
-304.445601
 30
0.0
 11
-303.26521
 21
-313.245601
 31
0.0
  0
LINE
  5
2EA
100
AcDbEntity
  8
2
370
    50
100
AcDbLine
 10
-303.592078
 20
-313.245601
 30
0.0
 11
-281.26521
 21
-313.245601
 31
0.0
  0
LINE
  5
2EB
100
AcDbEntity
  8
2
370
    50
100
AcDbLine
 10
-307.121617
 20
-322.389194
 30
0.0
 11
-307.121617
 21
-315.102007
 31
0.0
  0
LINE
  5
2EC
100
AcDbEntity
  8
2
370
    50
100
AcDbLine
 10
-305.26521
 20
-324.245601
 30
0.0
 11
-281.26521
 21
-324.245601
 31
0.0
  0
LINE
  5
2ED
100
AcDbEntity
  8
2
370
    50
100
AcDbLine
 10
-305.26521
 20
-313.245601
 30
0.0
 11
-281.26521
 21
-313.245601
 31
0.0
  0
LINE
  5
2EE
100
AcDbEntity
  8
2
370
    50
100
AcDbLine
 10
-305.26521
 20
-324.245601
 30
0.0
 11
-307.121617
 21
-322.389194
 31
0.0
  0
LINE
  5
2EF
100
AcDbEntity
  8
2
370
    50
100
AcDbLine
 10
-305.26521
 20
-313.245601
 30
0.0
 11
-307.121617
 21
-315.102007
 31
0.0
  0
ARC
  5
2F0
100
AcDbEntity
  8
2
370
    50
100
AcDbCircle
 10
-303.592078
 20
-317.2849
 30
0.0
 40
4.039299
100
AcDbArc
 50
32.711809
 51
135.0
  0
ARC
  5
2F1
100
AcDbEntity
  8
2
370
    50
100
AcDbCircle
 10
-303.592078
 20
-320.206301
 30
0.0
 40
4.039299
100
AcDbArc
 50
225.0
 51
327.288191
  0
LINE
  5
2F2
100
AcDbEntity
  8
2
370
    50
100
AcDbLine
 10
-412.141101
 20
-269.054124
 30
0.0
 11
-425.141101
 21
-269.054124
 31
0.0
  0
LINE
  5
2F3
100
AcDbEntity
  8
2
370
    50
100
AcDbLine
 10
-414.059664
 20
-283.054124
 30
0.0
 11
-412.641101
 21
-283.054124
 31
0.0
  0
LINE
  5
2F4
100
AcDbEntity
  8
2
370
    50
100
AcDbLine
 10
-414.059664
 20
-285.554124
 30
0.0
 11
-412.641101
 21
-285.554124
 31
0.0
  0
ARC
  5
2F5
100
AcDbEntity
  8
2
370
    50
100
AcDbCircle
 10
-412.841101
 20
-285.854124
 30
0.0
 40
0.2
100
AcDbArc
 50
270.0
 51
360.0
  0
LINE
  5
2F6
100
AcDbEntity
  8
2
370
    50
100
AcDbLine
 10
-418.141101
 20
-285.554124
 30
0.0
 11
-414.766771
 21
-285.554124
 31
0.0
  0
LINE
  5
2F7
100
AcDbEntity
  8
2
370
    50
100
AcDbLine
 10
-418.141101
 20
-283.054124
 30
0.0
 11
-414.766771
 21
-283.054124
 31
0.0
  0
LINE
  5
2F8
100
AcDbEntity
  8
2
370
    50
100
AcDbLine
 10
-422.515432
 20
-285.554124
 30
0.0
 11
-419.141101
 21
-285.554124
 31
0.0
  0
LINE
  5
2F9
100
AcDbEntity
  8
2
370
    50
100
AcDbLine
 10
-422.515432
 20
-283.054124
 30
0.0
 11
-419.141101
 21
-283.054124
 31
0.0
  0
LINE
  5
2FA
100
AcDbEntity
  8
2
370
    50
100
AcDbLine
 10
-424.641101
 20
-285.554124
 30
0.0
 11
-423.222538
 21
-285.554124
 31
0.0
  0
LINE
  5
2FB
100
AcDbEntity
  8
2
370
    50
100
AcDbLine
 10
-424.641101
 20
-283.054124
 30
0.0
 11
-423.222538
 21
-283.054124
 31
0.0
  0
ARC
  5
2FC
100
AcDbEntity
  8
2
370
    50
100
AcDbCircle
 10
-424.441101
 20
-285.854124
 30
0.0
 40
0.2
100
AcDbArc
 50
180.0
 51
270.0
  0
LINE
  5
2FD
100
AcDbEntity
  8
2
370
    50
100
AcDbLine
 10
-424.641101
 20
-283.054124
 30
0.0
 11
-424.641101
 21
-285.854124
 31
0.0
  0
LINE
  5
2FE
100
AcDbEntity
  8
2
370
    50
100
AcDbLine
 10
-424.620232
 20
-283.054124
 30
0.0
 11
-424.620232
 21
-285.554124
 31
0.0
  0
ARC
  5
2FF
100
AcDbEntity
  8
2
370
    50
100
AcDbCircle
 10
-422.641101
 20
-281.554124
 30
0.0
 40
2.5
100
AcDbArc
 50
180.0
 51
216.869898
  0
LINE
  5
300
100
AcDbEntity
  8
2
370
    50
100
AcDbLine
 10
-423.222538
 20
-283.054124
 30
0.0
 11
-423.222538
 21
-285.554124
 31
0.0
  0
LINE
  5
301
100
AcDbEntity
  8
2
370
    50
100
AcDbLine
 10
-422.515432
 20
-283.054124
 30
0.0
 11
-422.515432
 21
-285.554124
 31
0.0
  0
LINE
  5
302
100
AcDbEntity
  8
2
370
    50
100
AcDbLine
 10
-419.141101
 20
-283.054124
 30
0.0
 11
-419.141101
 21
-285.554124
 31
0.0
  0
LINE
  5
303
100
AcDbEntity
  8
2
370
    50
100
AcDbLine
 10
-418.141101
 20
-283.054124
 30
0.0
 11
-418.141101
 21
-285.554124
 31
0.0
  0
LINE
  5
304
100
AcDbEntity
  8
2
370
    50
100
AcDbLine
 10
-414.059664
 20
-283.054124
 30
0.0
 11
-414.059664
 21
-285.554124
 31
0.0
  0
LINE
  5
305
100
AcDbEntity
  8
2
370
    50
100
AcDbLine
 10
-414.766771
 20
-283.054124
 30
0.0
 11
-414.766771
 21
-285.554124
 31
0.0
  0
LINE
  5
306
100
AcDbEntity
  8
2
370
    50
100
AcDbLine
 10
-412.641101
 20
-283.054124
 30
0.0
 11
-412.641101
 21
-285.854124
 31
0.0
  0
LINE
  5
307
100
AcDbEntity
  8
2
370
    50
100
AcDbLine
 10
-412.661971
 20
-283.054124
 30
0.0
 11
-412.661971
 21
-285.554124
 31
0.0
  0
ARC
  5
308
100
AcDbEntity
  8
2
370
    50
100
AcDbCircle
 10
-414.641101
 20
-281.554124
 30
0.0
 40
2.5
100
AcDbArc
 50
323.130102
 51
360.0
  0
LINE
  5
309
100
AcDbEntity
  8
2
370
    50
100
AcDbLine
 10
-412.141101
 20
-269.054124
 30
0.0
 11
-412.141101
 21
-281.554124
 31
0.0
  0
LINE
  5
30A
100
AcDbEntity
  8
2
370
    25
100
AcDbLine
 10
-425.121842
 20
-269.054124
 30
0.0
 11
-425.121842
 21
-281.554124
 31
0.0
  0
LINE
  5
30B
100
AcDbEntity
  8
2
370
    50
100
AcDbLine
 10
-425.141101
 20
-269.054124
 30
0.0
 11
-425.141101
 21
-281.554124
 31
0.0
  0
LINE
  5
30C
100
AcDbEntity
  8
2
370
    50
100
AcDbLine
 10
-425.641101
 20
-286.054124
 30
0.0
 11
-411.641101
 21
-286.054124
 31
0.0
  0
LINE
  5
30D
100
AcDbEntity
  8
2
370
    50
100
AcDbLine
 10
-426.141101
 20
-286.554124
 30
0.0
 11
-425.641101
 21
-286.054124
 31
0.0
  0
LINE
  5
30E
100
AcDbEntity
  8
2
370
    50
100
AcDbLine
 10
-412.891101
 20
-269.054124
 30
0.0
 11
-412.891101
 21
-233.562265
 31
0.0
  0
LINE
  5
30F
100
AcDbEntity
  8
2
370
    50
100
AcDbLine
 10
-424.391101
 20
-269.054124
 30
0.0
 11
-424.391101
 21
-233.710325
 31
0.0
  0
LINE
  5
310
100
AcDbEntity
  8
2
370
    25
100
AcDbLine
 10
-425.140962
 20
-299.853502
 30
0.0
 11
-425.140962
 21
-296.853502
 31
0.0
  0
LINE
  5
311
100
AcDbEntity
  8
2
370
    50
100
AcDbLine
 10
-427.541101
 20
-291.454759
 30
0.0
 11
-427.541101
 21
-293.854759
 31
0.0
  0
LINE
  5
312
100
AcDbEntity
  8
2
370
    50
100
AcDbLine
 10
-427.341101
 20
-291.254759
 30
0.0
 11
-427.541101
 21
-291.454759
 31
0.0
  0
LINE
  5
313
100
AcDbEntity
  8
2
370
    50
100
AcDbLine
 10
-427.341101
 20
-294.054759
 30
0.0
 11
-427.541101
 21
-293.854759
 31
0.0
  0
LINE
  5
314
100
AcDbEntity
  8
2
370
    50
100
AcDbLine
 10
-426.141101
 20
-291.254759
 30
0.0
 11
-426.141101
 21
-290.853502
 31
0.0
  0
LINE
  5
315
100
AcDbEntity
  8
2
370
    50
100
AcDbLine
 10
-426.141101
 20
-286.554124
 30
0.0
 11
-426.141101
 21
-287.853502
 31
0.0
  0
LINE
  5
316
100
AcDbEntity
  8
2
370
    50
100
AcDbLine
 10
-409.741101
 20
-291.454124
 30
0.0
 11
-409.741101
 21
-293.854124
 31
0.0
  0
LINE
  5
317
100
AcDbEntity
  8
2
370
    50
100
AcDbLine
 10
-427.541101
 20
-291.454124
 30
0.0
 11
-427.541101
 21
-293.854124
 31
0.0
  0
LINE
  5
318
100
AcDbEntity
  8
2
370
    50
100
AcDbLine
 10
-427.341101
 20
-291.254124
 30
0.0
 11
-427.541101
 21
-291.454124
 31
0.0
  0
LINE
  5
319
100
AcDbEntity
  8
2
370
    50
100
AcDbLine
 10
-409.941101
 20
-291.254124
 30
0.0
 11
-409.741101
 21
-291.454124
 31
0.0
  0
LINE
  5
31A
100
AcDbEntity
  8
2
370
    50
100
AcDbLine
 10
-409.941101
 20
-294.054124
 30
0.0
 11
-409.741101
 21
-293.854124
 31
0.0
  0
LINE
  5
31B
100
AcDbEntity
  8
2
370
    50
100
AcDbLine
 10
-409.641101
 20
-299.854124
 30
0.0
 11
-427.641101
 21
-299.854124
 31
0.0
  0
LINE
  5
31C
100
AcDbEntity
  8
2
370
    50
100
AcDbLine
 10
-410.341101
 20
-287.854124
 30
0.0
 11
-426.941101
 21
-287.854124
 31
0.0
  0
LINE
  5
31D
100
AcDbEntity
  8
2
370
    50
100
AcDbLine
 10
-422.641101
 20
-288.854124
 30
0.0
 11
-422.641101
 21
-298.854124
 31
0.0
  0
LINE
  5
31E
100
AcDbEntity
  8
2
370
    50
100
AcDbLine
 10
-414.641101
 20
-288.854124
 30
0.0
 11
-414.641101
 21
-298.854124
 31
0.0
  0
ARC
  5
31F
100
AcDbEntity
  8
2
370
    50
100
AcDbCircle
 10
-432.141101
 20
-286.854124
 30
0.0
 40
1.0
100
AcDbArc
 50
90.0
 51
180.0
  0
ARC
  5
320
100
AcDbEntity
  8
2
370
    50
100
AcDbCircle
 10
-432.141101
 20
-298.854124
 30
0.0
 40
1.0
100
AcDbArc
 50
180.0
 51
270.0
  0
LINE
  5
321
100
AcDbEntity
  8
2
370
    50
100
AcDbLine
 10
-432.141101
 20
-285.854124
 30
0.0
 11
-424.641101
 21
-285.854124
 31
0.0
  0
LINE
  5
322
100
AcDbEntity
  8
2
370
    50
100
AcDbLine
 10
-412.641101
 20
-285.854124
 30
0.0
 11
-405.141101
 21
-285.854124
 31
0.0
  0
LINE
  5
323
100
AcDbEntity
  8
2
370
    50
100
AcDbLine
 10
-432.141101
 20
-299.854124
 30
0.0
 11
-426.141101
 21
-299.854124
 31
0.0
  0
LINE
  5
324
100
AcDbEntity
  8
2
370
    50
100
AcDbLine
 10
-410.341101
 20
-299.854124
 30
0.0
 11
-405.141101
 21
-299.854124
 31
0.0
  0
LINE
  5
325
100
AcDbEntity
  8
2
370
    50
100
AcDbLine
 10
-410.341101
 20
-290.854124
 30
0.0
 11
-414.641101
 21
-290.854124
 31
0.0
  0
LINE
  5
326
100
AcDbEntity
  8
2
370
    50
100
AcDbLine
 10
-422.641101
 20
-290.854124
 30
0.0
 11
-426.941101
 21
-290.854124
 31
0.0
  0
LINE
  5
327
100
AcDbEntity
  8
2
370
    50
100
AcDbLine
 10
-409.941101
 20
-291.254124
 30
0.0
 11
-414.641101
 21
-291.254124
 31
0.0
  0
LINE
  5
328
100
AcDbEntity
  8
2
370
    50
100
AcDbLine
 10
-422.641101
 20
-291.254124
 30
0.0
 11
-427.341101
 21
-291.254124
 31
0.0
  0
LINE
  5
329
100
AcDbEntity
  8
2
370
    50
100
AcDbLine
 10
-409.741101
 20
-291.454124
 30
0.0
 11
-414.641101
 21
-291.454124
 31
0.0
  0
LINE
  5
32A
100
AcDbEntity
  8
2
370
    50
100
AcDbLine
 10
-422.641101
 20
-291.454124
 30
0.0
 11
-427.541101
 21
-291.454124
 31
0.0
  0
LINE
  5
32B
100
AcDbEntity
  8
2
370
    50
100
AcDbLine
 10
-409.741101
 20
-293.854124
 30
0.0
 11
-414.641101
 21
-293.854124
 31
0.0
  0
LINE
  5
32C
100
AcDbEntity
  8
2
370
    50
100
AcDbLine
 10
-422.641101
 20
-293.854124
 30
0.0
 11
-427.541101
 21
-293.854124
 31
0.0
  0
LINE
  5
32D
100
AcDbEntity
  8
2
370
    50
100
AcDbLine
 10
-410.341101
 20
-296.854124
 30
0.0
 11
-414.641101
 21
-296.854124
 31
0.0
  0
LINE
  5
32E
100
AcDbEntity
  8
2
370
    50
100
AcDbLine
 10
-422.641101
 20
-296.854124
 30
0.0
 11
-426.941101
 21
-296.854124
 31
0.0
  0
ARC
  5
32F
100
AcDbEntity
  8
2
370
    50
100
AcDbCircle
 10
-415.641101
 20
-288.854124
 30
0.0
 40
1.0
100
AcDbArc
 50
0.0
 51
90.0
  0
ARC
  5
330
100
AcDbEntity
  8
2
370
    50
100
AcDbCircle
 10
-421.641101
 20
-288.854124
 30
0.0
 40
1.0
100
AcDbArc
 50
90.0
 51
180.0
  0
ARC
  5
331
100
AcDbEntity
  8
2
370
    50
100
AcDbCircle
 10
-421.641101
 20
-298.854124
 30
0.0
 40
1.0
100
AcDbArc
 50
180.0
 51
270.0
  0
ARC
  5
332
100
AcDbEntity
  8
2
370
    50
100
AcDbCircle
 10
-415.641101
 20
-298.854124
 30
0.0
 40
1.0
100
AcDbArc
 50
270.0
 51
0.0
  0
LINE
  5
333
100
AcDbEntity
  8
2
370
    50
100
AcDbLine
 10
-426.941101
 20
-287.854124
 30
0.0
 11
-426.941101
 21
-290.854124
 31
0.0
  0
LINE
  5
334
100
AcDbEntity
  8
2
370
    50
100
AcDbLine
 10
-410.341101
 20
-287.854124
 30
0.0
 11
-410.341101
 21
-290.854124
 31
0.0
  0
LINE
  5
335
100
AcDbEntity
  8
2
370
    50
100
AcDbLine
 10
-410.341101
 20
-296.854124
 30
0.0
 11
-410.341101
 21
-299.854124
 31
0.0
  0
LINE
  5
336
100
AcDbEntity
  8
2
370
    50
100
AcDbLine
 10
-426.941101
 20
-296.854124
 30
0.0
 11
-426.941101
 21
-299.854124
 31
0.0
  0
LINE
  5
337
100
AcDbEntity
  8
2
370
    50
100
AcDbLine
 10
-426.141101
 20
-291.254124
 30
0.0
 11
-426.141101
 21
-290.854124
 31
0.0
  0
LINE
  5
338
100
AcDbEntity
  8
2
370
    50
100
AcDbLine
 10
-411.141101
 20
-291.254124
 30
0.0
 11
-411.141101
 21
-290.854124
 31
0.0
  0
LINE
  5
339
100
AcDbEntity
  8
2
370
    25
100
AcDbLine
 10
-423.641101
 20
-299.554707
 30
0.0
 11
-423.641101
 21
-297.249485
 31
0.0
  0
LINE
  5
33A
100
AcDbEntity
  8
2
370
    25
100
AcDbLine
 10
-423.641102
 20
-290.592937
 30
0.0
 11
-423.641101
 21
-288.160732
 31
0.0
  0
LINE
  5
33B
100
AcDbEntity
  8
2
370
    25
100
AcDbLine
 10
-413.641101
 20
-299.554707
 30
0.0
 11
-413.641101
 21
-297.249485
 31
0.0
  0
LINE
  5
33C
100
AcDbEntity
  8
2
370
    25
100
AcDbLine
 10
-413.641101
 20
-290.550259
 30
0.0
 11
-413.641101
 21
-288.081211
 31
0.0
  0
LINE
  5
33D
100
AcDbEntity
  8
2
370
    50
100
AcDbLine
 10
-427.441101
 20
-298.854124
 30
0.0
 11
-427.441101
 21
-296.254124
 31
0.0
  0
LINE
  5
33E
100
AcDbEntity
  8
2
370
    50
100
AcDbLine
 10
-427.441101
 20
-291.354124
 30
0.0
 11
-427.441101
 21
-286.854124
 31
0.0
  0
LINE
  5
33F
100
AcDbEntity
  8
2
370
    50
100
AcDbLine
 10
-409.841101
 20
-298.854124
 30
0.0
 11
-409.841101
 21
-296.254124
 31
0.0
  0
LINE
  5
340
100
AcDbEntity
  8
2
370
    50
100
AcDbLine
 10
-409.841101
 20
-291.354124
 30
0.0
 11
-409.841101
 21
-286.854124
 31
0.0
  0
ARC
  5
341
100
AcDbEntity
  8
2
370
    50
100
AcDbCircle
 10
-426.441101
 20
-286.854124
 30
0.0
 40
1.0
100
AcDbArc
 50
90.0
 51
180.0
  0
ARC
  5
342
100
AcDbEntity
  8
2
370
    50
100
AcDbCircle
 10
-410.841101
 20
-286.854124
 30
0.0
 40
1.0
100
AcDbArc
 50
0.0
 51
90.0
  0
ARC
  5
343
100
AcDbEntity
  8
2
370
    50
100
AcDbCircle
 10
-428.441101
 20
-298.854124
 30
0.0
 40
1.0
100
AcDbArc
 50
270.0
 51
0.0
  0
ARC
  5
344
100
AcDbEntity
  8
2
370
    50
100
AcDbCircle
 10
-408.841101
 20
-298.854124
 30
0.0
 40
1.0
100
AcDbArc
 50
180.0
 51
270.0
  0
LINE
  5
345
100
AcDbEntity
  8
2
370
    50
100
AcDbLine
 10
-411.141101
 20
-286.554124
 30
0.0
 11
-411.141101
 21
-287.853502
 31
0.0
  0
ARC
  5
346
100
AcDbEntity
  8
2
370
    50
100
AcDbCircle
 10
-410.841101
 20
-286.854124
 30
0.0
 40
1.0
100
AcDbArc
 50
0.0
 51
90.0
  0
LINE
  5
347
100
AcDbEntity
  8
2
370
    50
100
AcDbLine
 10
-411.141101
 20
-286.554124
 30
0.0
 11
-411.641101
 21
-286.054124
 31
0.0
  0
LINE
  5
348
100
AcDbEntity
  8
2
370
    50
100
AcDbLine
 10
-409.641101
 20
-294.254124
 30
0.0
 11
-409.641101
 21
-296.054124
 31
0.0
  0
LINE
  5
349
100
AcDbEntity
  8
2
370
    50
100
AcDbLine
 10
-427.641101
 20
-294.254124
 30
0.0
 11
-427.641101
 21
-296.054124
 31
0.0
  0
LINE
  5
34A
100
AcDbEntity
  8
2
370
    50
100
AcDbLine
 10
-409.841101
 20
-294.054124
 30
0.0
 11
-409.641101
 21
-294.254124
 31
0.0
  0
LINE
  5
34B
100
AcDbEntity
  8
2
370
    50
100
AcDbLine
 10
-409.641101
 20
-296.054124
 30
0.0
 11
-409.841101
 21
-296.254124
 31
0.0
  0
LINE
  5
34C
100
AcDbEntity
  8
2
370
    50
100
AcDbLine
 10
-427.441101
 20
-294.054124
 30
0.0
 11
-427.641101
 21
-294.254124
 31
0.0
  0
LINE
  5
34D
100
AcDbEntity
  8
2
370
    50
100
AcDbLine
 10
-427.641101
 20
-296.054124
 30
0.0
 11
-427.441101
 21
-296.254124
 31
0.0
  0
LINE
  5
34E
100
AcDbEntity
  8
2
370
    50
100
AcDbLine
 10
-426.141101
 20
-300.254124
 30
0.0
 11
-426.141101
 21
-299.854124
 31
0.0
  0
LINE
  5
34F
100
AcDbEntity
  8
2
370
    50
100
AcDbLine
 10
-426.141101
 20
-296.854124
 30
0.0
 11
-426.141101
 21
-296.254124
 31
0.0
  0
LINE
  5
350
100
AcDbEntity
  8
2
370
    50
100
AcDbLine
 10
-411.141101
 20
-300.254124
 30
0.0
 11
-411.141101
 21
-299.854124
 31
0.0
  0
LINE
  5
351
100
AcDbEntity
  8
2
370
    50
100
AcDbLine
 10
-411.141101
 20
-296.854124
 30
0.0
 11
-411.141101
 21
-296.254124
 31
0.0
  0
LINE
  5
352
100
AcDbEntity
  8
2
370
    50
100
AcDbLine
 10
-409.841101
 20
-296.254124
 30
0.0
 11
-414.641101
 21
-296.254124
 31
0.0
  0
LINE
  5
353
100
AcDbEntity
  8
2
370
    50
100
AcDbLine
 10
-422.641101
 20
-296.254124
 30
0.0
 11
-427.441101
 21
-296.254124
 31
0.0
  0
LINE
  5
354
100
AcDbEntity
  8
2
370
    50
100
AcDbLine
 10
-409.641101
 20
-296.054124
 30
0.0
 11
-414.641101
 21
-296.054124
 31
0.0
  0
LINE
  5
355
100
AcDbEntity
  8
2
370
    50
100
AcDbLine
 10
-422.641101
 20
-296.054124
 30
0.0
 11
-427.641101
 21
-296.054124
 31
0.0
  0
LINE
  5
356
100
AcDbEntity
  8
2
370
    50
100
AcDbLine
 10
-409.641101
 20
-294.254124
 30
0.0
 11
-414.641101
 21
-294.254124
 31
0.0
  0
LINE
  5
357
100
AcDbEntity
  8
2
370
    50
100
AcDbLine
 10
-422.641101
 20
-294.254124
 30
0.0
 11
-427.641101
 21
-294.254124
 31
0.0
  0
LINE
  5
358
100
AcDbEntity
  8
2
370
    50
100
AcDbLine
 10
-409.841101
 20
-294.054124
 30
0.0
 11
-414.641101
 21
-294.054124
 31
0.0
  0
LINE
  5
359
100
AcDbEntity
  8
2
370
    50
100
AcDbLine
 10
-422.641101
 20
-294.054124
 30
0.0
 11
-427.441101
 21
-294.054124
 31
0.0
  0
LINE
  5
35A
100
AcDbEntity
  8
2
370
    25
100
AcDbLine
 10
-412.141241
 20
-299.853502
 30
0.0
 11
-412.141241
 21
-296.853502
 31
0.0
  0
LINE
  5
35B
100
AcDbEntity
  8
2
370
    25
100
AcDbLine
 10
-425.140962
 20
-290.854124
 30
0.0
 11
-425.140962
 21
-287.854124
 31
0.0
  0
LINE
  5
35C
100
AcDbEntity
  8
2
370
    25
100
AcDbLine
 10
-412.141241
 20
-290.854124
 30
0.0
 11
-412.141241
 21
-287.854124
 31
0.0
  0
LINE
  5
35D
100
AcDbEntity
  8
2
370
    25
100
AcDbLine
 10
-422.706965
 20
-260.370558
 30
0.0
 11
-414.575237
 21
-252.23883
 31
0.0
  0
LINE
  5
35E
100
AcDbEntity
  8
2
370
    25
100
AcDbLine
 10
-422.706965
 20
-252.23883
 30
0.0
 11
-414.575237
 21
-260.370558
 31
0.0
  0
LINE
  5
35F
100
AcDbEntity
  8
2
370
    25
100
AcDbLine
 10
-421.937899
 20
-261.015706
 30
0.0
 11
-413.93009
 21
-253.007897
 31
0.0
  0
LINE
  5
360
100
AcDbEntity
  8
2
370
    25
100
AcDbLine
 10
-421.038875
 20
-261.530896
 30
0.0
 11
-413.4149
 21
-253.90692
 31
0.0
  0
LINE
  5
361
100
AcDbEntity
  8
2
370
    25
100
AcDbLine
 10
-419.98839
 20
-261.894624
 30
0.0
 11
-413.051172
 21
-254.957406
 31
0.0
  0
LINE
  5
362
100
AcDbEntity
  8
2
370
    25
100
AcDbLine
 10
-418.733505
 20
-262.053952
 30
0.0
 11
-412.891844
 21
-256.212291
 31
0.0
  0
LINE
  5
363
100
AcDbEntity
  8
2
370
    25
100
AcDbLine
 10
-417.113365
 20
-261.848026
 30
0.0
 11
-413.09777
 21
-257.832431
 31
0.0
  0
LINE
  5
364
100
AcDbEntity
  8
2
370
    25
100
AcDbLine
 10
-423.352112
 20
-259.601492
 30
0.0
 11
-415.344304
 21
-251.593683
 31
0.0
  0
LINE
  5
365
100
AcDbEntity
  8
2
370
    25
100
AcDbLine
 10
-423.867303
 20
-258.702469
 30
0.0
 11
-416.243327
 21
-251.078493
 31
0.0
  0
LINE
  5
366
100
AcDbEntity
  8
2
370
    25
100
AcDbLine
 10
-424.231031
 20
-257.651983
 30
0.0
 11
-417.293812
 21
-250.714765
 31
0.0
  0
LINE
  5
367
100
AcDbEntity
  8
2
370
    25
100
AcDbLine
 10
-424.390359
 20
-256.397098
 30
0.0
 11
-418.548698
 21
-250.555437
 31
0.0
  0
LINE
  5
368
100
AcDbEntity
  8
2
370
    25
100
AcDbLine
 10
-424.184433
 20
-254.776958
 30
0.0
 11
-420.168838
 21
-250.761363
 31
0.0
  0
LINE
  5
369
100
AcDbEntity
  8
2
370
    25
100
AcDbLine
 10
-421.937899
 20
-251.593683
 30
0.0
 11
-413.93009
 21
-259.601492
 31
0.0
  0
LINE
  5
36A
100
AcDbEntity
  8
2
370
    25
100
AcDbLine
 10
-421.038875
 20
-251.078493
 30
0.0
 11
-413.4149
 21
-258.702469
 31
0.0
  0
LINE
  5
36B
100
AcDbEntity
  8
2
370
    25
100
AcDbLine
 10
-419.98839
 20
-250.714765
 30
0.0
 11
-413.051172
 21
-257.651983
 31
0.0
  0
LINE
  5
36C
100
AcDbEntity
  8
2
370
    25
100
AcDbLine
 10
-418.733505
 20
-250.555437
 30
0.0
 11
-412.891844
 21
-256.397098
 31
0.0
  0
LINE
  5
36D
100
AcDbEntity
  8
2
370
    25
100
AcDbLine
 10
-417.113365
 20
-250.761363
 30
0.0
 11
-413.09777
 21
-254.776958
 31
0.0
  0
LINE
  5
36E
100
AcDbEntity
  8
2
370
    25
100
AcDbLine
 10
-423.352112
 20
-253.007897
 30
0.0
 11
-415.344304
 21
-261.015706
 31
0.0
  0
LINE
  5
36F
100
AcDbEntity
  8
2
370
    25
100
AcDbLine
 10
-423.867303
 20
-253.90692
 30
0.0
 11
-416.243327
 21
-261.530896
 31
0.0
  0
LINE
  5
370
100
AcDbEntity
  8
2
370
    25
100
AcDbLine
 10
-424.231031
 20
-254.957406
 30
0.0
 11
-417.293812
 21
-261.894624
 31
0.0
  0
LINE
  5
371
100
AcDbEntity
  8
2
370
    25
100
AcDbLine
 10
-424.390359
 20
-256.212291
 30
0.0
 11
-418.548698
 21
-262.053952
 31
0.0
  0
LINE
  5
372
100
AcDbEntity
  8
2
370
    25
100
AcDbLine
 10
-424.184433
 20
-257.832431
 30
0.0
 11
-420.168838
 21
-261.848026
 31
0.0
  0
LINE
  5
373
100
AcDbEntity
  8
2
370
    50
100
AcDbLine
 10
-404.141101
 20
-286.854124
 30
0.0
 11
-404.141101
 21
-298.854124
 31
0.0
  0
ARC
  5
374
100
AcDbEntity
  8
2
370
    50
100
AcDbCircle
 10
-405.141101
 20
-286.854124
 30
0.0
 40
1.0
100
AcDbArc
 50
0.0
 51
90.0
  0
ARC
  5
375
100
AcDbEntity
  8
2
370
    50
100
AcDbCircle
 10
-405.141101
 20
-298.854124
 30
0.0
 40
1.0
100
AcDbArc
 50
270.0
 51
360.0
  0
LINE
  5
376
100
AcDbEntity
  8
2
370
    50
100
AcDbLine
 10
-433.141101
 20
-286.854124
 30
0.0
 11
-433.141101
 21
-298.854124
 31
0.0
  0
LINE
  5
377
100
AcDbEntity
  8
2
370
    25
100
AcDbLine
 10
-413.704972
 20
-281.554124
 30
0.0
 11
-413.704972
 21
-280.304124
 31
0.0
  0
LINE
  5
378
100
AcDbEntity
  8
2
370
    25
100
AcDbLine
 10
-413.704972
 20
-270.304124
 30
0.0
 11
-413.704972
 21
-269.054124
 31
0.0
  0
LINE
  5
379
100
AcDbEntity
  8
2
370
    25
100
AcDbLine
 10
-414.412079
 20
-281.554124
 30
0.0
 11
-414.412079
 21
-280.304124
 31
0.0
  0
LINE
  5
37A
100
AcDbEntity
  8
2
370
    25
100
AcDbLine
 10
-414.412079
 20
-270.304124
 30
0.0
 11
-414.412079
 21
-269.054124
 31
0.0
  0
LINE
  5
37B
100
AcDbEntity
  8
2
370
    25
100
AcDbLine
 10
-418.141101
 20
-281.554124
 30
0.0
 11
-418.141101
 21
-280.304124
 31
0.0
  0
LINE
  5
37C
100
AcDbEntity
  8
2
370
    25
100
AcDbLine
 10
-418.141101
 20
-270.304124
 30
0.0
 11
-418.141101
 21
-269.054124
 31
0.0
  0
LINE
  5
37D
100
AcDbEntity
  8
2
370
    25
100
AcDbLine
 10
-419.141101
 20
-281.554124
 30
0.0
 11
-419.141101
 21
-280.304124
 31
0.0
  0
LINE
  5
37E
100
AcDbEntity
  8
2
370
    25
100
AcDbLine
 10
-419.141101
 20
-270.304124
 30
0.0
 11
-419.141101
 21
-269.054124
 31
0.0
  0
LINE
  5
37F
100
AcDbEntity
  8
2
370
    25
100
AcDbLine
 10
-422.870124
 20
-281.554124
 30
0.0
 11
-422.870124
 21
-280.304124
 31
0.0
  0
LINE
  5
380
100
AcDbEntity
  8
2
370
    25
100
AcDbLine
 10
-422.870124
 20
-270.304124
 30
0.0
 11
-422.870124
 21
-269.054124
 31
0.0
  0
LINE
  5
381
100
AcDbEntity
  8
2
370
    25
100
AcDbLine
 10
-423.57723
 20
-281.554124
 30
0.0
 11
-423.57723
 21
-280.304124
 31
0.0
  0
LINE
  5
382
100
AcDbEntity
  8
2
370
    25
100
AcDbLine
 10
-423.57723
 20
-270.304124
 30
0.0
 11
-423.57723
 21
-269.054124
 31
0.0
  0
POINT
  5
383
100
AcDbEntity
  8
2
370
    50
100
AcDbPoint
 10
-425.141101
 20
-270.304124
 30
0.0
  0
LINE
  5
384
100
AcDbEntity
  8
2
370
    50
100
AcDbLine
 10
-427.640836
 20
-300.253375
 30
0.0
 11
-428.640836
 21
-301.253375
 31
0.0
  0
LINE
  5
385
100
AcDbEntity
  8
2
370
    50
100
AcDbLine
 10
-409.640836
 20
-300.253375
 30
0.0
 11
-408.640836
 21
-301.253375
 31
0.0
  0
LINE
  5
386
100
AcDbEntity
  8
2
370
    50
100
AcDbLine
 10
-428.640836
 20
-301.253375
 30
0.0
 11
-408.640836
 21
-301.253375
 31
0.0
  0
LINE
  5
387
100
AcDbEntity
  8
2
370
    50
100
AcDbLine
 10
-428.640836
 20
-301.253375
 30
0.0
 11
-428.640836
 21
-310.053375
 31
0.0
  0
LINE
  5
388
100
AcDbEntity
  8
2
370
    50
100
AcDbLine
 10
-408.640836
 20
-301.253375
 30
0.0
 11
-408.640836
 21
-310.053375
 31
0.0
  0
LINE
  5
389
100
AcDbEntity
  8
2
370
    50
100
AcDbLine
 10
-408.313969
 20
-310.053375
 30
0.0
 11
-430.640836
 21
-310.053375
 31
0.0
  0
LINE
  5
38A
100
AcDbEntity
  8
2
370
    50
100
AcDbLine
 10
-432.497242
 20
-311.909782
 30
0.0
 11
-432.497242
 21
-319.196969
 31
0.0
  0
LINE
  5
38B
100
AcDbEntity
  8
2
370
    50
100
AcDbLine
 10
-404.784429
 20
-319.196969
 30
0.0
 11
-404.784429
 21
-311.909782
 31
0.0
  0
LINE
  5
38C
100
AcDbEntity
  8
2
370
    50
100
AcDbLine
 10
-406.640836
 20
-321.053375
 30
0.0
 11
-430.640836
 21
-321.053375
 31
0.0
  0
LINE
  5
38D
100
AcDbEntity
  8
2
370
    50
100
AcDbLine
 10
-425.569039
 20
-319.196969
 30
0.0
 11
-425.569039
 21
-311.909782
 31
0.0
  0
LINE
  5
38E
100
AcDbEntity
  8
2
370
    50
100
AcDbLine
 10
-411.712633
 20
-319.196969
 30
0.0
 11
-411.712633
 21
-311.909782
 31
0.0
  0
LINE
  5
38F
100
AcDbEntity
  8
2
370
    50
100
AcDbLine
 10
-406.640836
 20
-310.053375
 30
0.0
 11
-430.640836
 21
-310.053375
 31
0.0
  0
LINE
  5
390
100
AcDbEntity
  8
2
370
    50
100
AcDbLine
 10
-430.640836
 20
-310.053375
 30
0.0
 11
-432.497242
 21
-311.909782
 31
0.0
  0
LINE
  5
391
100
AcDbEntity
  8
2
370
    50
100
AcDbLine
 10
-406.640836
 20
-321.053375
 30
0.0
 11
-404.784429
 21
-319.196969
 31
0.0
  0
LINE
  5
392
100
AcDbEntity
  8
2
370
    50
100
AcDbLine
 10
-406.640836
 20
-310.053375
 30
0.0
 11
-404.784429
 21
-311.909782
 31
0.0
  0
LINE
  5
393
100
AcDbEntity
  8
2
370
    50
100
AcDbLine
 10
-430.640836
 20
-321.053375
 30
0.0
 11
-432.497242
 21
-319.196969
 31
0.0
  0
ARC
  5
394
100
AcDbEntity
  8
2
370
    50
100
AcDbCircle
 10
-418.640836
 20
-323.909782
 30
0.0
 40
13.856406
100
AcDbArc
 50
60.0
 51
120.0
  0
ARC
  5
395
100
AcDbEntity
  8
2
370
    50
100
AcDbCircle
 10
-418.640836
 20
-307.196969
 30
0.0
 40
13.856406
100
AcDbArc
 50
240.0
 51
300.0
  0
ARC
  5
396
100
AcDbEntity
  8
2
370
    50
100
AcDbCircle
 10
-428.967703
 20
-314.092675
 30
0.0
 40
4.039299
100
AcDbArc
 50
32.711809
 51
135.0
  0
ARC
  5
397
100
AcDbEntity
  8
2
370
    50
100
AcDbCircle
 10
-428.967703
 20
-317.014076
 30
0.0
 40
4.039299
100
AcDbArc
 50
225.0
 51
327.288191
  0
ARC
  5
398
100
AcDbEntity
  8
2
370
    50
100
AcDbCircle
 10
-408.313969
 20
-314.092675
 30
0.0
 40
4.039299
100
AcDbArc
 50
45.0
 51
147.288191
  0
ARC
  5
399
100
AcDbEntity
  8
2
370
    50
100
AcDbCircle
 10
-408.313969
 20
-317.014076
 30
0.0
 40
4.039299
100
AcDbArc
 50
212.711809
 51
315.0
  0
LINE
  5
39A
100
AcDbEntity
  8
2
370
    50
100
AcDbLine
 10
-409.640836
 20
-300.253375
 30
0.0
 11
-427.640836
 21
-300.253375
 31
0.0
  0
LINE
  5
39B
100
AcDbEntity
  8
2
370
    50
100
AcDbLine
 10
-369.753259
 20
-180.249298
 30
0.0
 11
-358.153259
 21
-180.249298
 31
0.0
  0
LINE
  5
39C
100
AcDbEntity
  8
2
370
    50
100
AcDbLine
 10
-357.453259
 20
-197.249298
 30
0.0
 11
-370.453259
 21
-197.249298
 31
0.0
  0
LINE
  5
39D
100
AcDbEntity
  8
2
370
    50
100
AcDbLine
 10
-357.453259
 20
-197.249298
 30
0.0
 11
-357.453259
 21
-184.749298
 31
0.0
  0
LINE
  5
39E
100
AcDbEntity
  8
2
370
    50
100
AcDbLine
 10
-370.453259
 20
-197.249298
 30
0.0
 11
-370.453259
 21
-184.749298
 31
0.0
  0
LINE
  5
39F
100
AcDbEntity
  8
2
370
    50
100
AcDbLine
 10
-360.078928
 20
-183.249298
 30
0.0
 11
-360.078928
 21
-180.749298
 31
0.0
  0
LINE
  5
3A0
100
AcDbEntity
  8
2
370
    50
100
AcDbLine
 10
-359.371822
 20
-183.249298
 30
0.0
 11
-359.371822
 21
-180.749298
 31
0.0
  0
LINE
  5
3A1
100
AcDbEntity
  8
2
370
    50
100
AcDbLine
 10
-357.974128
 20
-183.249298
 30
0.0
 11
-357.974128
 21
-180.749298
 31
0.0
  0
LINE
  5
3A2
100
AcDbEntity
  8
2
370
    50
100
AcDbLine
 10
-357.953259
 20
-183.249298
 30
0.0
 11
-357.953259
 21
-180.449298
 31
0.0
  0
LINE
  5
3A3
100
AcDbEntity
  8
2
370
    50
100
AcDbLine
 10
-363.453259
 20
-183.249298
 30
0.0
 11
-363.453259
 21
-180.749298
 31
0.0
  0
LINE
  5
3A4
100
AcDbEntity
  8
2
370
    50
100
AcDbLine
 10
-364.453259
 20
-183.249298
 30
0.0
 11
-364.453259
 21
-180.749298
 31
0.0
  0
LINE
  5
3A5
100
AcDbEntity
  8
2
370
    50
100
AcDbLine
 10
-367.827589
 20
-183.249298
 30
0.0
 11
-367.827589
 21
-180.749298
 31
0.0
  0
LINE
  5
3A6
100
AcDbEntity
  8
2
370
    50
100
AcDbLine
 10
-368.534696
 20
-183.249298
 30
0.0
 11
-368.534696
 21
-180.749298
 31
0.0
  0
LINE
  5
3A7
100
AcDbEntity
  8
2
370
    50
100
AcDbLine
 10
-369.953259
 20
-183.249298
 30
0.0
 11
-369.953259
 21
-180.449298
 31
0.0
  0
LINE
  5
3A8
100
AcDbEntity
  8
2
370
    50
100
AcDbLine
 10
-369.932389
 20
-183.249298
 30
0.0
 11
-369.932389
 21
-180.749298
 31
0.0
  0
LINE
  5
3A9
100
AcDbEntity
  8
2
370
    50
100
AcDbLine
 10
-359.371822
 20
-180.749298
 30
0.0
 11
-357.953259
 21
-180.749298
 31
0.0
  0
LINE
  5
3AA
100
AcDbEntity
  8
2
370
    50
100
AcDbLine
 10
-363.453259
 20
-180.749298
 30
0.0
 11
-360.078928
 21
-180.749298
 31
0.0
  0
LINE
  5
3AB
100
AcDbEntity
  8
2
370
    50
100
AcDbLine
 10
-369.953259
 20
-180.749298
 30
0.0
 11
-368.534696
 21
-180.749298
 31
0.0
  0
LINE
  5
3AC
100
AcDbEntity
  8
2
370
    50
100
AcDbLine
 10
-367.827589
 20
-180.749298
 30
0.0
 11
-364.453259
 21
-180.749298
 31
0.0
  0
LINE
  5
3AD
100
AcDbEntity
  8
2
370
    50
100
AcDbLine
 10
-359.371822
 20
-183.249298
 30
0.0
 11
-357.953259
 21
-183.249298
 31
0.0
  0
LINE
  5
3AE
100
AcDbEntity
  8
2
370
    50
100
AcDbLine
 10
-363.453259
 20
-183.249298
 30
0.0
 11
-360.078928
 21
-183.249298
 31
0.0
  0
LINE
  5
3AF
100
AcDbEntity
  8
2
370
    50
100
AcDbLine
 10
-369.953259
 20
-183.249298
 30
0.0
 11
-368.534696
 21
-183.249298
 31
0.0
  0
LINE
  5
3B0
100
AcDbEntity
  8
2
370
    50
100
AcDbLine
 10
-367.827589
 20
-183.249298
 30
0.0
 11
-364.453259
 21
-183.249298
 31
0.0
  0
ARC
  5
3B1
100
AcDbEntity
  8
2
370
    50
100
AcDbCircle
 10
-369.753259
 20
-180.449298
 30
0.0
 40
0.2
100
AcDbArc
 50
90.0
 51
180.0
  0
ARC
  5
3B2
100
AcDbEntity
  8
2
370
    50
100
AcDbCircle
 10
-358.153259
 20
-180.449298
 30
0.0
 40
0.2
100
AcDbArc
 50
0.0
 51
90.0
  0
ARC
  5
3B3
100
AcDbEntity
  8
2
370
    50
100
AcDbCircle
 10
-359.953259
 20
-184.749298
 30
0.0
 40
2.5
100
AcDbArc
 50
0.0
 51
36.869898
  0
ARC
  5
3B4
100
AcDbEntity
  8
2
370
    50
100
AcDbCircle
 10
-367.953259
 20
-184.749298
 30
0.0
 40
2.5
100
AcDbArc
 50
143.130102
 51
180.0
  0
LINE
  5
3B5
100
AcDbEntity
  8
2
370
    25
100
AcDbLine
 10
-357.472518
 20
-197.249298
 30
0.0
 11
-357.472518
 21
-184.749298
 31
0.0
  0
LINE
  5
3B6
100
AcDbEntity
  8
2
370
    25
100
AcDbLine
 10
-359.01713
 20
-197.249298
 30
0.0
 11
-359.01713
 21
-184.749298
 31
0.0
  0
LINE
  5
3B7
100
AcDbEntity
  8
2
370
    25
100
AcDbLine
 10
-359.724236
 20
-197.249298
 30
0.0
 11
-359.724236
 21
-184.749298
 31
0.0
  0
LINE
  5
3B8
100
AcDbEntity
  8
2
370
    25
100
AcDbLine
 10
-363.453259
 20
-197.249298
 30
0.0
 11
-363.453259
 21
-184.749298
 31
0.0
  0
LINE
  5
3B9
100
AcDbEntity
  8
2
370
    25
100
AcDbLine
 10
-364.453259
 20
-197.249298
 30
0.0
 11
-364.453259
 21
-184.749298
 31
0.0
  0
LINE
  5
3BA
100
AcDbEntity
  8
2
370
    25
100
AcDbLine
 10
-368.182281
 20
-197.249298
 30
0.0
 11
-368.182281
 21
-184.749298
 31
0.0
  0
LINE
  5
3BB
100
AcDbEntity
  8
2
370
    25
100
AcDbLine
 10
-368.889388
 20
-197.249298
 30
0.0
 11
-368.889388
 21
-184.749298
 31
0.0
  0
LINE
  5
3BC
100
AcDbEntity
  8
2
370
    25
100
AcDbLine
 10
-370.433999
 20
-197.249298
 30
0.0
 11
-370.433999
 21
-184.749298
 31
0.0
  0
LINE
  5
3BD
100
AcDbEntity
  8
2
370
    50
100
AcDbLine
 10
-358.203259
 20
-223.249298
 30
0.0
 11
-358.203259
 21
-197.249298
 31
0.0
  0
LINE
  5
3BE
100
AcDbEntity
  8
2
370
    50
100
AcDbLine
 10
-369.703259
 20
-223.249298
 30
0.0
 11
-369.703259
 21
-197.249298
 31
0.0
  0
LINE
  5
3BF
100
AcDbEntity
  8
2
370
    50
100
AcDbLine
 10
-353.753259
 20
-180.249298
 30
0.0
 11
-342.153259
 21
-180.249298
 31
0.0
  0
LINE
  5
3C0
100
AcDbEntity
  8
2
370
    50
100
AcDbLine
 10
-341.453259
 20
-197.249298
 30
0.0
 11
-354.453259
 21
-197.249298
 31
0.0
  0
LINE
  5
3C1
100
AcDbEntity
  8
2
370
    50
100
AcDbLine
 10
-341.453259
 20
-197.249298
 30
0.0
 11
-341.453259
 21
-184.749298
 31
0.0
  0
LINE
  5
3C2
100
AcDbEntity
  8
2
370
    50
100
AcDbLine
 10
-354.453259
 20
-197.249298
 30
0.0
 11
-354.453259
 21
-184.749298
 31
0.0
  0
LINE
  5
3C3
100
AcDbEntity
  8
2
370
    50
100
AcDbLine
 10
-344.078928
 20
-183.249298
 30
0.0
 11
-344.078928
 21
-180.749298
 31
0.0
  0
LINE
  5
3C4
100
AcDbEntity
  8
2
370
    50
100
AcDbLine
 10
-343.371822
 20
-183.249298
 30
0.0
 11
-343.371822
 21
-180.749298
 31
0.0
  0
LINE
  5
3C5
100
AcDbEntity
  8
2
370
    50
100
AcDbLine
 10
-341.974128
 20
-183.249298
 30
0.0
 11
-341.974128
 21
-180.749298
 31
0.0
  0
LINE
  5
3C6
100
AcDbEntity
  8
2
370
    50
100
AcDbLine
 10
-341.953259
 20
-183.249298
 30
0.0
 11
-341.953259
 21
-180.449298
 31
0.0
  0
LINE
  5
3C7
100
AcDbEntity
  8
2
370
    50
100
AcDbLine
 10
-347.453259
 20
-183.249298
 30
0.0
 11
-347.453259
 21
-180.749298
 31
0.0
  0
LINE
  5
3C8
100
AcDbEntity
  8
2
370
    50
100
AcDbLine
 10
-348.453259
 20
-183.249298
 30
0.0
 11
-348.453259
 21
-180.749298
 31
0.0
  0
LINE
  5
3C9
100
AcDbEntity
  8
2
370
    50
100
AcDbLine
 10
-351.827589
 20
-183.249298
 30
0.0
 11
-351.827589
 21
-180.749298
 31
0.0
  0
LINE
  5
3CA
100
AcDbEntity
  8
2
370
    50
100
AcDbLine
 10
-352.534696
 20
-183.249298
 30
0.0
 11
-352.534696
 21
-180.749298
 31
0.0
  0
LINE
  5
3CB
100
AcDbEntity
  8
2
370
    50
100
AcDbLine
 10
-353.953259
 20
-183.249298
 30
0.0
 11
-353.953259
 21
-180.449298
 31
0.0
  0
LINE
  5
3CC
100
AcDbEntity
  8
2
370
    50
100
AcDbLine
 10
-353.932389
 20
-183.249298
 30
0.0
 11
-353.932389
 21
-180.749298
 31
0.0
  0
LINE
  5
3CD
100
AcDbEntity
  8
2
370
    50
100
AcDbLine
 10
-343.371822
 20
-180.749298
 30
0.0
 11
-341.953259
 21
-180.749298
 31
0.0
  0
LINE
  5
3CE
100
AcDbEntity
  8
2
370
    50
100
AcDbLine
 10
-347.453259
 20
-180.749298
 30
0.0
 11
-344.078928
 21
-180.749298
 31
0.0
  0
LINE
  5
3CF
100
AcDbEntity
  8
2
370
    50
100
AcDbLine
 10
-353.953259
 20
-180.749298
 30
0.0
 11
-352.534696
 21
-180.749298
 31
0.0
  0
LINE
  5
3D0
100
AcDbEntity
  8
2
370
    50
100
AcDbLine
 10
-351.827589
 20
-180.749298
 30
0.0
 11
-348.453259
 21
-180.749298
 31
0.0
  0
LINE
  5
3D1
100
AcDbEntity
  8
2
370
    50
100
AcDbLine
 10
-343.371822
 20
-183.249298
 30
0.0
 11
-341.953259
 21
-183.249298
 31
0.0
  0
LINE
  5
3D2
100
AcDbEntity
  8
2
370
    50
100
AcDbLine
 10
-347.453259
 20
-183.249298
 30
0.0
 11
-344.078928
 21
-183.249298
 31
0.0
  0
LINE
  5
3D3
100
AcDbEntity
  8
2
370
    50
100
AcDbLine
 10
-353.953259
 20
-183.249298
 30
0.0
 11
-352.534696
 21
-183.249298
 31
0.0
  0
LINE
  5
3D4
100
AcDbEntity
  8
2
370
    50
100
AcDbLine
 10
-351.827589
 20
-183.249298
 30
0.0
 11
-348.453259
 21
-183.249298
 31
0.0
  0
ARC
  5
3D5
100
AcDbEntity
  8
2
370
    50
100
AcDbCircle
 10
-353.753259
 20
-180.449298
 30
0.0
 40
0.2
100
AcDbArc
 50
90.0
 51
180.0
  0
ARC
  5
3D6
100
AcDbEntity
  8
2
370
    50
100
AcDbCircle
 10
-342.153259
 20
-180.449298
 30
0.0
 40
0.2
100
AcDbArc
 50
0.0
 51
90.0
  0
ARC
  5
3D7
100
AcDbEntity
  8
2
370
    50
100
AcDbCircle
 10
-343.953259
 20
-184.749298
 30
0.0
 40
2.5
100
AcDbArc
 50
0.0
 51
36.869898
  0
ARC
  5
3D8
100
AcDbEntity
  8
2
370
    50
100
AcDbCircle
 10
-351.953259
 20
-184.749298
 30
0.0
 40
2.5
100
AcDbArc
 50
143.130102
 51
180.0
  0
LINE
  5
3D9
100
AcDbEntity
  8
2
370
    25
100
AcDbLine
 10
-341.472518
 20
-197.249298
 30
0.0
 11
-341.472518
 21
-184.749298
 31
0.0
  0
LINE
  5
3DA
100
AcDbEntity
  8
2
370
    25
100
AcDbLine
 10
-343.01713
 20
-197.249298
 30
0.0
 11
-343.01713
 21
-184.749298
 31
0.0
  0
LINE
  5
3DB
100
AcDbEntity
  8
2
370
    25
100
AcDbLine
 10
-343.724236
 20
-197.249298
 30
0.0
 11
-343.724236
 21
-184.749298
 31
0.0
  0
LINE
  5
3DC
100
AcDbEntity
  8
2
370
    25
100
AcDbLine
 10
-347.453259
 20
-197.249298
 30
0.0
 11
-347.453259
 21
-184.749298
 31
0.0
  0
LINE
  5
3DD
100
AcDbEntity
  8
2
370
    25
100
AcDbLine
 10
-348.453259
 20
-197.249298
 30
0.0
 11
-348.453259
 21
-184.749298
 31
0.0
  0
LINE
  5
3DE
100
AcDbEntity
  8
2
370
    25
100
AcDbLine
 10
-352.182281
 20
-197.249298
 30
0.0
 11
-352.182281
 21
-184.749298
 31
0.0
  0
LINE
  5
3DF
100
AcDbEntity
  8
2
370
    25
100
AcDbLine
 10
-352.889388
 20
-197.249298
 30
0.0
 11
-352.889388
 21
-184.749298
 31
0.0
  0
LINE
  5
3E0
100
AcDbEntity
  8
2
370
    25
100
AcDbLine
 10
-354.433999
 20
-197.249298
 30
0.0
 11
-354.433999
 21
-184.749298
 31
0.0
  0
LINE
  5
3E1
100
AcDbEntity
  8
2
370
    50
100
AcDbLine
 10
-342.203259
 20
-223.249298
 30
0.0
 11
-342.203259
 21
-197.249298
 31
0.0
  0
LINE
  5
3E2
100
AcDbEntity
  8
2
370
    50
100
AcDbLine
 10
-353.703259
 20
-223.249298
 30
0.0
 11
-353.703259
 21
-197.249298
 31
0.0
  0
ARC
  5
3E3
100
AcDbEntity
  8
2
370
    50
100
AcDbCircle
 10
-345.078259
 20
-227.250146
 30
0.0
 40
4.791667
100
AcDbArc
 50
53.130102
 51
126.869898
  0
ARC
  5
3E4
100
AcDbEntity
  8
2
370
    50
100
AcDbCircle
 10
-350.828259
 20
-219.583479
 30
0.0
 40
4.791667
100
AcDbArc
 50
233.130102
 51
306.869898
  0
ARC
  5
3E5
100
AcDbEntity
  8
2
370
    50
100
AcDbCircle
 10
-345.078259
 20
-219.583479
 30
0.0
 40
4.791667
100
AcDbArc
 50
233.130102
 51
306.869898
  0
ARC
  5
3E6
100
AcDbEntity
  8
2
370
    50
100
AcDbCircle
 10
-361.078259
 20
-227.250146
 30
0.0
 40
4.791667
100
AcDbArc
 50
53.130102
 51
126.869898
  0
ARC
  5
3E7
100
AcDbEntity
  8
2
370
    50
100
AcDbCircle
 10
-366.828259
 20
-219.583479
 30
0.0
 40
4.791667
100
AcDbArc
 50
233.130102
 51
306.869898
  0
ARC
  5
3E8
100
AcDbEntity
  8
2
370
    50
100
AcDbCircle
 10
-361.078259
 20
-219.583479
 30
0.0
 40
4.791667
100
AcDbArc
 50
233.130102
 51
306.869898
  0
POINT
  5
3E9
100
AcDbEntity
  8
2
370
    50
100
AcDbPoint
 10
-355.953258
 20
-123.849298
 30
0.0
  0
LINE
  5
3EA
100
AcDbEntity
  8
2
370
    50
100
AcDbLine
 10
-347.953258
 20
-158.849298
 30
0.0
 11
-342.203258
 21
-158.849298
 31
0.0
  0
LINE
  5
3EB
100
AcDbEntity
  8
2
370
    50
100
AcDbLine
 10
-341.703258
 20
-159.349298
 30
0.0
 11
-341.703258
 21
-173.849298
 31
0.0
  0
LINE
  5
3EC
100
AcDbEntity
  8
2
370
    50
100
AcDbLine
 10
-341.703258
 20
-159.349298
 30
0.0
 11
-342.203258
 21
-158.849298
 31
0.0
  0
LINE
  5
3ED
100
AcDbEntity
  8
2
370
    50
100
AcDbLine
 10
-343.632106
 20
-159.349298
 30
0.0
 11
-346.203258
 21
-159.349298
 31
0.0
  0
LINE
  5
3EE
100
AcDbEntity
  8
2
370
    50
100
AcDbLine
 10
-341.882106
 20
-159.349298
 30
0.0
 11
-341.882106
 21
-173.849298
 31
0.0
  0
LINE
  5
3EF
100
AcDbEntity
  8
2
370
    50
100
AcDbLine
 10
-343.632106
 20
-159.349298
 30
0.0
 11
-343.632106
 21
-173.849298
 31
0.0
  0
LINE
  5
3F0
100
AcDbEntity
  8
2
370
    50
100
AcDbLine
 10
-346.203258
 20
-159.349298
 30
0.0
 11
-346.203258
 21
-173.849298
 31
0.0
  0
LINE
  5
3F1
100
AcDbEntity
  8
2
370
    50
100
AcDbLine
 10
-341.703258
 20
-159.349298
 30
0.0
 11
-341.882106
 21
-159.349298
 31
0.0
  0
ARC
  5
3F2
100
AcDbEntity
  8
2
370
    50
100
AcDbCircle
 10
-347.953258
 20
-165.349298
 30
0.0
 40
6.25
100
AcDbArc
 50
73.739795
 51
90.0
  0
ARC
  5
3F3
100
AcDbEntity
  8
2
370
    50
100
AcDbCircle
 10
-342.757106
 20
-160.755548
 30
0.0
 40
1.65625
100
AcDbArc
 50
58.109208
 51
121.890792
  0
LINE
  5
3F4
100
AcDbEntity
  8
2
370
    50
100
AcDbLine
 10
-347.953258
 20
-158.849298
 30
0.0
 11
-353.703258
 21
-158.849298
 31
0.0
  0
LINE
  5
3F5
100
AcDbEntity
  8
2
370
    50
100
AcDbLine
 10
-354.203258
 20
-159.349298
 30
0.0
 11
-354.203258
 21
-173.849298
 31
0.0
  0
LINE
  5
3F6
100
AcDbEntity
  8
2
370
    50
100
AcDbLine
 10
-354.203258
 20
-159.349298
 30
0.0
 11
-353.703258
 21
-158.849298
 31
0.0
  0
LINE
  5
3F7
100
AcDbEntity
  8
2
370
    50
100
AcDbLine
 10
-352.274411
 20
-159.349298
 30
0.0
 11
-349.703258
 21
-159.349298
 31
0.0
  0
LINE
  5
3F8
100
AcDbEntity
  8
2
370
    50
100
AcDbLine
 10
-354.024411
 20
-159.349298
 30
0.0
 11
-354.024411
 21
-173.849298
 31
0.0
  0
LINE
  5
3F9
100
AcDbEntity
  8
2
370
    50
100
AcDbLine
 10
-352.274411
 20
-159.349298
 30
0.0
 11
-352.274411
 21
-173.849298
 31
0.0
  0
LINE
  5
3FA
100
AcDbEntity
  8
2
370
    50
100
AcDbLine
 10
-349.703258
 20
-159.349298
 30
0.0
 11
-349.703258
 21
-173.849298
 31
0.0
  0
LINE
  5
3FB
100
AcDbEntity
  8
2
370
    50
100
AcDbLine
 10
-354.203258
 20
-159.349298
 30
0.0
 11
-354.024411
 21
-159.349298
 31
0.0
  0
ARC
  5
3FC
100
AcDbEntity
  8
2
370
    50
100
AcDbCircle
 10
-347.953258
 20
-165.349298
 30
0.0
 40
6.25
100
AcDbArc
 50
90.0
 51
106.260205
  0
ARC
  5
3FD
100
AcDbEntity
  8
2
370
    50
100
AcDbCircle
 10
-353.149411
 20
-160.755548
 30
0.0
 40
1.65625
100
AcDbArc
 50
58.109208
 51
121.890792
  0
LINE
  5
3FE
100
AcDbEntity
  8
2
370
    50
100
AcDbLine
 10
-363.953258
 20
-158.849298
 30
0.0
 11
-358.203258
 21
-158.849298
 31
0.0
  0
LINE
  5
3FF
100
AcDbEntity
  8
2
370
    50
100
AcDbLine
 10
-357.703258
 20
-159.349298
 30
0.0
 11
-357.703258
 21
-173.849298
 31
0.0
  0
LINE
  5
400
100
AcDbEntity
  8
2
370
    50
100
AcDbLine
 10
-357.703258
 20
-159.349298
 30
0.0
 11
-358.203258
 21
-158.849298
 31
0.0
  0
LINE
  5
401
100
AcDbEntity
  8
2
370
    50
100
AcDbLine
 10
-359.632106
 20
-159.349298
 30
0.0
 11
-362.203258
 21
-159.349298
 31
0.0
  0
LINE
  5
402
100
AcDbEntity
  8
2
370
    50
100
AcDbLine
 10
-357.882106
 20
-159.349298
 30
0.0
 11
-357.882106
 21
-173.849298
 31
0.0
  0
LINE
  5
403
100
AcDbEntity
  8
2
370
    50
100
AcDbLine
 10
-359.632106
 20
-159.349298
 30
0.0
 11
-359.632106
 21
-173.849298
 31
0.0
  0
LINE
  5
404
100
AcDbEntity
  8
2
370
    50
100
AcDbLine
 10
-362.203258
 20
-159.349298
 30
0.0
 11
-362.203258
 21
-173.849298
 31
0.0
  0
LINE
  5
405
100
AcDbEntity
  8
2
370
    50
100
AcDbLine
 10
-357.703258
 20
-159.349298
 30
0.0
 11
-357.882106
 21
-159.349298
 31
0.0
  0
ARC
  5
406
100
AcDbEntity
  8
2
370
    50
100
AcDbCircle
 10
-363.953258
 20
-165.349298
 30
0.0
 40
6.25
100
AcDbArc
 50
73.739795
 51
90.0
  0
ARC
  5
407
100
AcDbEntity
  8
2
370
    50
100
AcDbCircle
 10
-358.757106
 20
-160.755548
 30
0.0
 40
1.65625
100
AcDbArc
 50
58.109208
 51
121.890792
  0
LINE
  5
408
100
AcDbEntity
  8
2
370
    50
100
AcDbLine
 10
-363.953258
 20
-158.849298
 30
0.0
 11
-369.703258
 21
-158.849298
 31
0.0
  0
LINE
  5
409
100
AcDbEntity
  8
2
370
    50
100
AcDbLine
 10
-370.203258
 20
-159.349298
 30
0.0
 11
-370.203258
 21
-173.849298
 31
0.0
  0
LINE
  5
40A
100
AcDbEntity
  8
2
370
    50
100
AcDbLine
 10
-370.203258
 20
-159.349298
 30
0.0
 11
-369.703258
 21
-158.849298
 31
0.0
  0
LINE
  5
40B
100
AcDbEntity
  8
2
370
    50
100
AcDbLine
 10
-368.274411
 20
-159.349298
 30
0.0
 11
-365.703258
 21
-159.349298
 31
0.0
  0
LINE
  5
40C
100
AcDbEntity
  8
2
370
    50
100
AcDbLine
 10
-370.024411
 20
-159.349298
 30
0.0
 11
-370.024411
 21
-173.849298
 31
0.0
  0
LINE
  5
40D
100
AcDbEntity
  8
2
370
    50
100
AcDbLine
 10
-368.274411
 20
-159.349298
 30
0.0
 11
-368.274411
 21
-173.849298
 31
0.0
  0
LINE
  5
40E
100
AcDbEntity
  8
2
370
    50
100
AcDbLine
 10
-365.703258
 20
-159.349298
 30
0.0
 11
-365.703258
 21
-173.849298
 31
0.0
  0
LINE
  5
40F
100
AcDbEntity
  8
2
370
    50
100
AcDbLine
 10
-370.203258
 20
-159.349298
 30
0.0
 11
-370.024411
 21
-159.349298
 31
0.0
  0
ARC
  5
410
100
AcDbEntity
  8
2
370
    50
100
AcDbCircle
 10
-363.953258
 20
-165.349298
 30
0.0
 40
6.25
100
AcDbArc
 50
90.0
 51
106.260205
  0
ARC
  5
411
100
AcDbEntity
  8
2
370
    50
100
AcDbCircle
 10
-369.149411
 20
-160.755548
 30
0.0
 40
1.65625
100
AcDbArc
 50
58.109208
 51
121.890792
  0
POINT
  5
412
100
AcDbEntity
  8
2
370
    50
100
AcDbPoint
 10
-355.953258
 20
-123.849298
 30
0.0
  0
LINE
  5
413
100
AcDbEntity
  8
2
370
    50
100
AcDbLine
 10
-347.953258
 20
-174.349298
 30
0.0
 11
-342.203258
 21
-174.349298
 31
0.0
  0
LINE
  5
414
100
AcDbEntity
  8
2
370
    50
100
AcDbLine
 10
-341.703258
 20
-173.849298
 30
0.0
 11
-342.203258
 21
-174.349298
 31
0.0
  0
LINE
  5
415
100
AcDbEntity
  8
2
370
    50
100
AcDbLine
 10
-343.632106
 20
-173.849298
 30
0.0
 11
-346.203258
 21
-173.849298
 31
0.0
  0
LINE
  5
416
100
AcDbEntity
  8
2
370
    50
100
AcDbLine
 10
-341.703258
 20
-173.849298
 30
0.0
 11
-341.882106
 21
-173.849298
 31
0.0
  0
ARC
  5
417
100
AcDbEntity
  8
2
370
    50
100
AcDbCircle
 10
-342.757106
 20
-172.443048
 30
0.0
 40
1.65625
100
AcDbArc
 50
238.109208
 51
301.890792
  0
ARC
  5
418
100
AcDbEntity
  8
2
370
    50
100
AcDbCircle
 10
-347.953258
 20
-167.849298
 30
0.0
 40
6.25
100
AcDbArc
 50
270.0
 51
286.260205
  0
LINE
  5
419
100
AcDbEntity
  8
2
370
    50
100
AcDbLine
 10
-347.953258
 20
-174.349298
 30
0.0
 11
-353.703258
 21
-174.349298
 31
0.0
  0
LINE
  5
41A
100
AcDbEntity
  8
2
370
    50
100
AcDbLine
 10
-354.203258
 20
-173.849298
 30
0.0
 11
-353.703258
 21
-174.349298
 31
0.0
  0
LINE
  5
41B
100
AcDbEntity
  8
2
370
    50
100
AcDbLine
 10
-352.274411
 20
-173.849298
 30
0.0
 11
-349.703258
 21
-173.849298
 31
0.0
  0
LINE
  5
41C
100
AcDbEntity
  8
2
370
    50
100
AcDbLine
 10
-354.203258
 20
-173.849298
 30
0.0
 11
-354.024411
 21
-173.849298
 31
0.0
  0
ARC
  5
41D
100
AcDbEntity
  8
2
370
    50
100
AcDbCircle
 10
-353.149411
 20
-172.443048
 30
0.0
 40
1.65625
100
AcDbArc
 50
238.109208
 51
301.890792
  0
ARC
  5
41E
100
AcDbEntity
  8
2
370
    50
100
AcDbCircle
 10
-347.953258
 20
-167.849298
 30
0.0
 40
6.25
100
AcDbArc
 50
253.739795
 51
270.0
  0
LINE
  5
41F
100
AcDbEntity
  8
2
370
    50
100
AcDbLine
 10
-363.953258
 20
-174.349298
 30
0.0
 11
-358.203258
 21
-174.349298
 31
0.0
  0
LINE
  5
420
100
AcDbEntity
  8
2
370
    50
100
AcDbLine
 10
-357.703258
 20
-173.849298
 30
0.0
 11
-358.203258
 21
-174.349298
 31
0.0
  0
LINE
  5
421
100
AcDbEntity
  8
2
370
    50
100
AcDbLine
 10
-359.632106
 20
-173.849298
 30
0.0
 11
-362.203258
 21
-173.849298
 31
0.0
  0
LINE
  5
422
100
AcDbEntity
  8
2
370
    50
100
AcDbLine
 10
-357.703258
 20
-173.849298
 30
0.0
 11
-357.882106
 21
-173.849298
 31
0.0
  0
ARC
  5
423
100
AcDbEntity
  8
2
370
    50
100
AcDbCircle
 10
-358.757106
 20
-172.443048
 30
0.0
 40
1.65625
100
AcDbArc
 50
238.109208
 51
301.890792
  0
ARC
  5
424
100
AcDbEntity
  8
2
370
    50
100
AcDbCircle
 10
-363.953258
 20
-167.849298
 30
0.0
 40
6.25
100
AcDbArc
 50
270.0
 51
286.260205
  0
LINE
  5
425
100
AcDbEntity
  8
2
370
    50
100
AcDbLine
 10
-363.953258
 20
-174.349298
 30
0.0
 11
-369.703258
 21
-174.349298
 31
0.0
  0
LINE
  5
426
100
AcDbEntity
  8
2
370
    50
100
AcDbLine
 10
-370.203258
 20
-173.849298
 30
0.0
 11
-369.703258
 21
-174.349298
 31
0.0
  0
LINE
  5
427
100
AcDbEntity
  8
2
370
    50
100
AcDbLine
 10
-368.274411
 20
-173.849298
 30
0.0
 11
-365.703258
 21
-173.849298
 31
0.0
  0
LINE
  5
428
100
AcDbEntity
  8
2
370
    50
100
AcDbLine
 10
-370.203258
 20
-173.849298
 30
0.0
 11
-370.024411
 21
-173.849298
 31
0.0
  0
ARC
  5
429
100
AcDbEntity
  8
2
370
    50
100
AcDbCircle
 10
-369.149411
 20
-172.443048
 30
0.0
 40
1.65625
100
AcDbArc
 50
238.109208
 51
301.890792
  0
ARC
  5
42A
100
AcDbEntity
  8
2
370
    50
100
AcDbCircle
 10
-363.953258
 20
-167.849298
 30
0.0
 40
6.25
100
AcDbArc
 50
253.739795
 51
270.0
  0
LINE
  5
42B
100
AcDbEntity
  8
2
370
    25
  6
CENTER
100
AcDbLine
 10
-363.953259
 20
-216.846956
 30
0.0
 11
-363.953259
 21
-239.66636
 31
0.0
  0
LINE
  5
42C
100
AcDbEntity
  8
2
370
    50
100
AcDbLine
 10
-369.953259
 20
-179.960623
 30
0.0
 11
-369.953259
 21
-174.637973
 31
0.0
  0
LINE
  5
42D
100
AcDbEntity
  8
2
370
    50
100
AcDbLine
 10
-357.953259
 20
-179.960623
 30
0.0
 11
-357.953259
 21
-174.637973
 31
0.0
  0
LINE
  5
42E
100
AcDbEntity
  8
2
370
    50
100
AcDbLine
 10
-361.555343
 20
-174.637973
 30
0.0
 11
-361.555343
 21
-179.960623
 31
0.0
  0
LINE
  5
42F
100
AcDbEntity
  8
2
370
    50
100
AcDbLine
 10
-360.389077
 20
-174.637973
 30
0.0
 11
-360.389077
 21
-179.960623
 31
0.0
  0
LINE
  5
430
100
AcDbEntity
  8
2
370
    50
100
AcDbLine
 10
-357.991161
 20
-174.637973
 30
0.0
 11
-357.991161
 21
-179.960623
 31
0.0
  0
LINE
  5
431
100
AcDbEntity
  8
2
370
    50
100
AcDbLine
 10
-358.453259
 20
-174.349298
 30
0.0
 11
-368.716398
 21
-174.349298
 31
0.0
  0
LINE
  5
432
100
AcDbEntity
  8
2
370
    50
100
AcDbLine
 10
-368.953259
 20
-174.349298
 30
0.0
 11
-369.453259
 21
-174.349298
 31
0.0
  0
LINE
  5
433
100
AcDbEntity
  8
2
370
    50
100
AcDbLine
 10
-358.453259
 20
-180.249298
 30
0.0
 11
-357.953259
 21
-179.960623
 31
0.0
  0
LINE
  5
434
100
AcDbEntity
  8
2
370
    50
100
AcDbLine
 10
-360.389077
 20
-179.960623
 30
0.0
 11
-361.555343
 21
-179.960623
 31
0.0
  0
LINE
  5
435
100
AcDbEntity
  8
2
370
    50
100
AcDbLine
 10
-369.953259
 20
-179.960623
 30
0.0
 11
-369.453259
 21
-180.249298
 31
0.0
  0
LINE
  5
436
100
AcDbEntity
  8
2
370
    50
100
AcDbLine
 10
-369.953259
 20
-174.637973
 30
0.0
 11
-369.453259
 21
-174.349298
 31
0.0
  0
ARC
  5
437
100
AcDbEntity
  8
2
370
    50
100
AcDbCircle
 10
-363.953259
 20
-170.145668
 30
0.0
 40
10.10363
100
AcDbArc
 50
270.0
 51
283.729133
  0
ARC
  5
438
100
AcDbEntity
  8
2
370
    50
100
AcDbCircle
 10
-363.953259
 20
-184.452927
 30
0.0
 40
10.10363
100
AcDbArc
 50
76.270867
 51
90.0
  0
LINE
  5
439
100
AcDbEntity
  8
2
370
    50
100
AcDbLine
 10
-360.389077
 20
-174.637973
 30
0.0
 11
-361.555343
 21
-174.637973
 31
0.0
  0
LINE
  5
43A
100
AcDbEntity
  8
2
370
    50
100
AcDbLine
 10
-357.953259
 20
-179.960623
 30
0.0
 11
-357.991161
 21
-179.960623
 31
0.0
  0
ARC
  5
43B
100
AcDbEntity
  8
2
370
    50
100
AcDbCircle
 10
-359.190119
 20
-177.615137
 30
0.0
 40
2.634161
100
AcDbArc
 50
242.924933
 51
297.075067
  0
ARC
  5
43C
100
AcDbEntity
  8
2
370
    50
100
AcDbCircle
 10
-359.190119
 20
-176.983458
 30
0.0
 40
2.634161
100
AcDbArc
 50
62.924933
 51
117.075067
  0
LINE
  5
43D
100
AcDbEntity
  8
2
370
    50
100
AcDbLine
 10
-358.453259
 20
-174.349298
 30
0.0
 11
-357.953259
 21
-174.637973
 31
0.0
  0
LINE
  5
43E
100
AcDbEntity
  8
2
370
    50
100
AcDbLine
 10
-357.953259
 20
-174.637973
 30
0.0
 11
-357.991161
 21
-174.637973
 31
0.0
  0
ARC
  5
43F
100
AcDbEntity
  8
2
370
    50
100
AcDbCircle
 10
-363.953259
 20
-170.145668
 30
0.0
 40
10.10363
100
AcDbArc
 50
256.270867
 51
270.0
  0
LINE
  5
440
100
AcDbEntity
  8
2
370
    50
100
AcDbLine
 10
-367.517441
 20
-179.960623
 30
0.0
 11
-366.351174
 21
-179.960623
 31
0.0
  0
LINE
  5
441
100
AcDbEntity
  8
2
370
    50
100
AcDbLine
 10
-366.351174
 20
-174.637973
 30
0.0
 11
-366.351174
 21
-179.960623
 31
0.0
  0
LINE
  5
442
100
AcDbEntity
  8
2
370
    50
100
AcDbLine
 10
-367.517441
 20
-174.637973
 30
0.0
 11
-367.517441
 21
-179.960623
 31
0.0
  0
ARC
  5
443
100
AcDbEntity
  8
2
370
    50
100
AcDbCircle
 10
-368.716398
 20
-177.615137
 30
0.0
 40
2.634161
100
AcDbArc
 50
242.924933
 51
297.075067
  0
LINE
  5
444
100
AcDbEntity
  8
2
370
    50
100
AcDbLine
 10
-369.915356
 20
-174.637973
 30
0.0
 11
-369.915356
 21
-179.960623
 31
0.0
  0
LINE
  5
445
100
AcDbEntity
  8
2
370
    50
100
AcDbLine
 10
-369.915356
 20
-179.960623
 30
0.0
 11
-369.953259
 21
-179.960623
 31
0.0
  0
ARC
  5
446
100
AcDbEntity
  8
2
370
    50
100
AcDbCircle
 10
-363.953259
 20
-184.452927
 30
0.0
 40
10.10363
100
AcDbArc
 50
90.0
 51
103.729133
  0
LINE
  5
447
100
AcDbEntity
  8
2
370
    50
100
AcDbLine
 10
-367.517441
 20
-174.637973
 30
0.0
 11
-366.351174
 21
-174.637973
 31
0.0
  0
ARC
  5
448
100
AcDbEntity
  8
2
370
    50
100
AcDbCircle
 10
-368.716398
 20
-176.983458
 30
0.0
 40
2.634161
100
AcDbArc
 50
62.924933
 51
117.075067
  0
LINE
  5
449
100
AcDbEntity
  8
2
370
    50
100
AcDbLine
 10
-353.953259
 20
-179.960623
 30
0.0
 11
-353.953259
 21
-174.637973
 31
0.0
  0
LINE
  5
44A
100
AcDbEntity
  8
2
370
    50
100
AcDbLine
 10
-341.953259
 20
-179.960623
 30
0.0
 11
-341.953259
 21
-174.637973
 31
0.0
  0
LINE
  5
44B
100
AcDbEntity
  8
2
370
    50
100
AcDbLine
 10
-345.555343
 20
-174.637973
 30
0.0
 11
-345.555343
 21
-179.960623
 31
0.0
  0
LINE
  5
44C
100
AcDbEntity
  8
2
370
    50
100
AcDbLine
 10
-344.389077
 20
-174.637973
 30
0.0
 11
-344.389077
 21
-179.960623
 31
0.0
  0
LINE
  5
44D
100
AcDbEntity
  8
2
370
    50
100
AcDbLine
 10
-341.991161
 20
-174.637973
 30
0.0
 11
-341.991161
 21
-179.960623
 31
0.0
  0
LINE
  5
44E
100
AcDbEntity
  8
2
370
    50
100
AcDbLine
 10
-342.453259
 20
-174.349298
 30
0.0
 11
-353.453259
 21
-174.349298
 31
0.0
  0
LINE
  5
44F
100
AcDbEntity
  8
2
370
    50
100
AcDbLine
 10
-342.453259
 20
-180.249298
 30
0.0
 11
-341.953259
 21
-179.960623
 31
0.0
  0
LINE
  5
450
100
AcDbEntity
  8
2
370
    50
100
AcDbLine
 10
-344.389077
 20
-179.960623
 30
0.0
 11
-345.555343
 21
-179.960623
 31
0.0
  0
LINE
  5
451
100
AcDbEntity
  8
2
370
    50
100
AcDbLine
 10
-353.953259
 20
-179.960623
 30
0.0
 11
-353.453259
 21
-180.249298
 31
0.0
  0
LINE
  5
452
100
AcDbEntity
  8
2
370
    50
100
AcDbLine
 10
-353.953259
 20
-174.637973
 30
0.0
 11
-353.453259
 21
-174.349298
 31
0.0
  0
ARC
  5
453
100
AcDbEntity
  8
2
370
    50
100
AcDbCircle
 10
-347.953259
 20
-170.145668
 30
0.0
 40
10.10363
100
AcDbArc
 50
270.0
 51
283.729133
  0
ARC
  5
454
100
AcDbEntity
  8
2
370
    50
100
AcDbCircle
 10
-347.953259
 20
-184.452927
 30
0.0
 40
10.10363
100
AcDbArc
 50
76.270867
 51
90.0
  0
LINE
  5
455
100
AcDbEntity
  8
2
370
    50
100
AcDbLine
 10
-344.389077
 20
-174.637973
 30
0.0
 11
-345.555343
 21
-174.637973
 31
0.0
  0
LINE
  5
456
100
AcDbEntity
  8
2
370
    50
100
AcDbLine
 10
-341.953259
 20
-179.960623
 30
0.0
 11
-341.991161
 21
-179.960623
 31
0.0
  0
ARC
  5
457
100
AcDbEntity
  8
2
370
    50
100
AcDbCircle
 10
-343.190119
 20
-177.615137
 30
0.0
 40
2.634161
100
AcDbArc
 50
242.924933
 51
297.075067
  0
ARC
  5
458
100
AcDbEntity
  8
2
370
    50
100
AcDbCircle
 10
-343.190119
 20
-176.983458
 30
0.0
 40
2.634161
100
AcDbArc
 50
62.924933
 51
117.075067
  0
LINE
  5
459
100
AcDbEntity
  8
2
370
    50
100
AcDbLine
 10
-342.453259
 20
-174.349298
 30
0.0
 11
-341.953259
 21
-174.637973
 31
0.0
  0
LINE
  5
45A
100
AcDbEntity
  8
2
370
    50
100
AcDbLine
 10
-341.953259
 20
-174.637973
 30
0.0
 11
-341.991161
 21
-174.637973
 31
0.0
  0
ARC
  5
45B
100
AcDbEntity
  8
2
370
    50
100
AcDbCircle
 10
-347.953259
 20
-170.145668
 30
0.0
 40
10.10363
100
AcDbArc
 50
256.270867
 51
270.0
  0
LINE
  5
45C
100
AcDbEntity
  8
2
370
    50
100
AcDbLine
 10
-351.517441
 20
-179.960623
 30
0.0
 11
-350.351174
 21
-179.960623
 31
0.0
  0
LINE
  5
45D
100
AcDbEntity
  8
2
370
    50
100
AcDbLine
 10
-350.351174
 20
-174.637973
 30
0.0
 11
-350.351174
 21
-179.960623
 31
0.0
  0
LINE
  5
45E
100
AcDbEntity
  8
2
370
    50
100
AcDbLine
 10
-351.517441
 20
-174.637973
 30
0.0
 11
-351.517441
 21
-179.960623
 31
0.0
  0
ARC
  5
45F
100
AcDbEntity
  8
2
370
    50
100
AcDbCircle
 10
-352.716398
 20
-177.615137
 30
0.0
 40
2.634161
100
AcDbArc
 50
242.924933
 51
297.075067
  0
LINE
  5
460
100
AcDbEntity
  8
2
370
    50
100
AcDbLine
 10
-353.915356
 20
-174.637973
 30
0.0
 11
-353.915356
 21
-179.960623
 31
0.0
  0
LINE
  5
461
100
AcDbEntity
  8
2
370
    50
100
AcDbLine
 10
-353.915356
 20
-179.960623
 30
0.0
 11
-353.953259
 21
-179.960623
 31
0.0
  0
LINE
  5
462
100
AcDbEntity
  8
2
370
    25
  6
CENTER
100
AcDbLine
 10
-347.953259
 20
-216.610452
 30
0.0
 11
-347.953259
 21
-239.66636
 31
0.0
  0
ARC
  5
463
100
AcDbEntity
  8
2
370
    50
100
AcDbCircle
 10
-347.953259
 20
-184.452927
 30
0.0
 40
10.10363
100
AcDbArc
 50
90.0
 51
103.729133
  0
LINE
  5
464
100
AcDbEntity
  8
2
370
    50
100
AcDbLine
 10
-351.517441
 20
-174.637973
 30
0.0
 11
-350.351174
 21
-174.637973
 31
0.0
  0
ARC
  5
465
100
AcDbEntity
  8
2
370
    50
100
AcDbCircle
 10
-352.716398
 20
-176.983458
 30
0.0
 40
2.634161
100
AcDbArc
 50
62.924933
 51
117.075067
  0
LINE
  5
466
100
AcDbEntity
  8
2
370
    50
100
AcDbLine
 10
-369.753259
 20
-180.249298
 30
0.0
 11
-358.153259
 21
-180.249298
 31
0.0
  0
LINE
  5
467
100
AcDbEntity
  8
2
370
    50
100
AcDbLine
 10
-357.453259
 20
-197.249298
 30
0.0
 11
-370.453259
 21
-197.249298
 31
0.0
  0
LINE
  5
468
100
AcDbEntity
  8
2
370
    50
100
AcDbLine
 10
-357.453259
 20
-197.249298
 30
0.0
 11
-357.453259
 21
-184.749298
 31
0.0
  0
LINE
  5
469
100
AcDbEntity
  8
2
370
    50
100
AcDbLine
 10
-370.453259
 20
-197.249298
 30
0.0
 11
-370.453259
 21
-184.749298
 31
0.0
  0
LINE
  5
46A
100
AcDbEntity
  8
2
370
    50
100
AcDbLine
 10
-360.078928
 20
-183.249298
 30
0.0
 11
-360.078928
 21
-180.749298
 31
0.0
  0
LINE
  5
46B
100
AcDbEntity
  8
2
370
    50
100
AcDbLine
 10
-359.371822
 20
-183.249298
 30
0.0
 11
-359.371822
 21
-180.749298
 31
0.0
  0
LINE
  5
46C
100
AcDbEntity
  8
2
370
    50
100
AcDbLine
 10
-357.974128
 20
-183.249298
 30
0.0
 11
-357.974128
 21
-180.749298
 31
0.0
  0
LINE
  5
46D
100
AcDbEntity
  8
2
370
    50
100
AcDbLine
 10
-357.953259
 20
-183.249298
 30
0.0
 11
-357.953259
 21
-180.449298
 31
0.0
  0
LINE
  5
46E
100
AcDbEntity
  8
2
370
    50
100
AcDbLine
 10
-363.453259
 20
-183.249298
 30
0.0
 11
-363.453259
 21
-180.749298
 31
0.0
  0
LINE
  5
46F
100
AcDbEntity
  8
2
370
    50
100
AcDbLine
 10
-364.453259
 20
-183.249298
 30
0.0
 11
-364.453259
 21
-180.749298
 31
0.0
  0
LINE
  5
470
100
AcDbEntity
  8
2
370
    50
100
AcDbLine
 10
-367.827589
 20
-183.249298
 30
0.0
 11
-367.827589
 21
-180.749298
 31
0.0
  0
LINE
  5
471
100
AcDbEntity
  8
2
370
    50
100
AcDbLine
 10
-368.534696
 20
-183.249298
 30
0.0
 11
-368.534696
 21
-180.749298
 31
0.0
  0
LINE
  5
472
100
AcDbEntity
  8
2
370
    50
100
AcDbLine
 10
-369.953259
 20
-183.249298
 30
0.0
 11
-369.953259
 21
-180.449298
 31
0.0
  0
LINE
  5
473
100
AcDbEntity
  8
2
370
    50
100
AcDbLine
 10
-369.932389
 20
-183.249298
 30
0.0
 11
-369.932389
 21
-180.749298
 31
0.0
  0
LINE
  5
474
100
AcDbEntity
  8
2
370
    50
100
AcDbLine
 10
-359.371822
 20
-180.749298
 30
0.0
 11
-357.953259
 21
-180.749298
 31
0.0
  0
LINE
  5
475
100
AcDbEntity
  8
2
370
    50
100
AcDbLine
 10
-363.453259
 20
-180.749298
 30
0.0
 11
-360.078928
 21
-180.749298
 31
0.0
  0
LINE
  5
476
100
AcDbEntity
  8
2
370
    50
100
AcDbLine
 10
-369.953259
 20
-180.749298
 30
0.0
 11
-368.534696
 21
-180.749298
 31
0.0
  0
LINE
  5
477
100
AcDbEntity
  8
2
370
    50
100
AcDbLine
 10
-367.827589
 20
-180.749298
 30
0.0
 11
-364.453259
 21
-180.749298
 31
0.0
  0
LINE
  5
478
100
AcDbEntity
  8
2
370
    50
100
AcDbLine
 10
-359.371822
 20
-183.249298
 30
0.0
 11
-357.953259
 21
-183.249298
 31
0.0
  0
LINE
  5
479
100
AcDbEntity
  8
2
370
    50
100
AcDbLine
 10
-363.453259
 20
-183.249298
 30
0.0
 11
-360.078928
 21
-183.249298
 31
0.0
  0
LINE
  5
47A
100
AcDbEntity
  8
2
370
    50
100
AcDbLine
 10
-369.953259
 20
-183.249298
 30
0.0
 11
-368.534696
 21
-183.249298
 31
0.0
  0
LINE
  5
47B
100
AcDbEntity
  8
2
370
    50
100
AcDbLine
 10
-367.827589
 20
-183.249298
 30
0.0
 11
-364.453259
 21
-183.249298
 31
0.0
  0
ARC
  5
47C
100
AcDbEntity
  8
2
370
    50
100
AcDbCircle
 10
-369.753259
 20
-180.449298
 30
0.0
 40
0.2
100
AcDbArc
 50
90.0
 51
180.0
  0
ARC
  5
47D
100
AcDbEntity
  8
2
370
    50
100
AcDbCircle
 10
-358.153259
 20
-180.449298
 30
0.0
 40
0.2
100
AcDbArc
 50
0.0
 51
90.0
  0
ARC
  5
47E
100
AcDbEntity
  8
2
370
    50
100
AcDbCircle
 10
-359.953259
 20
-184.749298
 30
0.0
 40
2.5
100
AcDbArc
 50
0.0
 51
36.869898
  0
ARC
  5
47F
100
AcDbEntity
  8
2
370
    50
100
AcDbCircle
 10
-367.953259
 20
-184.749298
 30
0.0
 40
2.5
100
AcDbArc
 50
143.130102
 51
180.0
  0
LINE
  5
480
100
AcDbEntity
  8
2
370
    25
100
AcDbLine
 10
-357.472518
 20
-197.249298
 30
0.0
 11
-357.472518
 21
-184.749298
 31
0.0
  0
LINE
  5
481
100
AcDbEntity
  8
2
370
    25
100
AcDbLine
 10
-359.01713
 20
-197.249298
 30
0.0
 11
-359.01713
 21
-184.749298
 31
0.0
  0
LINE
  5
482
100
AcDbEntity
  8
2
370
    25
100
AcDbLine
 10
-359.724236
 20
-197.249298
 30
0.0
 11
-359.724236
 21
-184.749298
 31
0.0
  0
LINE
  5
483
100
AcDbEntity
  8
2
370
    25
100
AcDbLine
 10
-363.453259
 20
-197.249298
 30
0.0
 11
-363.453259
 21
-184.749298
 31
0.0
  0
LINE
  5
484
100
AcDbEntity
  8
2
370
    25
100
AcDbLine
 10
-364.453259
 20
-197.249298
 30
0.0
 11
-364.453259
 21
-184.749298
 31
0.0
  0
LINE
  5
485
100
AcDbEntity
  8
2
370
    25
100
AcDbLine
 10
-368.182281
 20
-197.249298
 30
0.0
 11
-368.182281
 21
-184.749298
 31
0.0
  0
LINE
  5
486
100
AcDbEntity
  8
2
370
    25
100
AcDbLine
 10
-368.889388
 20
-197.249298
 30
0.0
 11
-368.889388
 21
-184.749298
 31
0.0
  0
LINE
  5
487
100
AcDbEntity
  8
2
370
    25
100
AcDbLine
 10
-370.433999
 20
-197.249298
 30
0.0
 11
-370.433999
 21
-184.749298
 31
0.0
  0
LINE
  5
488
100
AcDbEntity
  8
2
370
    50
100
AcDbLine
 10
-358.203259
 20
-223.249298
 30
0.0
 11
-358.203259
 21
-197.249298
 31
0.0
  0
LINE
  5
489
100
AcDbEntity
  8
2
370
    50
100
AcDbLine
 10
-369.703259
 20
-223.249298
 30
0.0
 11
-369.703259
 21
-197.249298
 31
0.0
  0
LINE
  5
48A
100
AcDbEntity
  8
2
370
    50
100
AcDbLine
 10
-353.753259
 20
-180.249298
 30
0.0
 11
-342.153259
 21
-180.249298
 31
0.0
  0
LINE
  5
48B
100
AcDbEntity
  8
2
370
    50
100
AcDbLine
 10
-341.453259
 20
-197.249298
 30
0.0
 11
-354.453259
 21
-197.249298
 31
0.0
  0
LINE
  5
48C
100
AcDbEntity
  8
2
370
    50
100
AcDbLine
 10
-341.453259
 20
-197.249298
 30
0.0
 11
-341.453259
 21
-184.749298
 31
0.0
  0
LINE
  5
48D
100
AcDbEntity
  8
2
370
    50
100
AcDbLine
 10
-354.453259
 20
-197.249298
 30
0.0
 11
-354.453259
 21
-184.749298
 31
0.0
  0
LINE
  5
48E
100
AcDbEntity
  8
2
370
    50
100
AcDbLine
 10
-344.078928
 20
-183.249298
 30
0.0
 11
-344.078928
 21
-180.749298
 31
0.0
  0
LINE
  5
48F
100
AcDbEntity
  8
2
370
    50
100
AcDbLine
 10
-343.371822
 20
-183.249298
 30
0.0
 11
-343.371822
 21
-180.749298
 31
0.0
  0
LINE
  5
490
100
AcDbEntity
  8
2
370
    50
100
AcDbLine
 10
-341.974128
 20
-183.249298
 30
0.0
 11
-341.974128
 21
-180.749298
 31
0.0
  0
LINE
  5
491
100
AcDbEntity
  8
2
370
    50
100
AcDbLine
 10
-341.953259
 20
-183.249298
 30
0.0
 11
-341.953259
 21
-180.449298
 31
0.0
  0
LINE
  5
492
100
AcDbEntity
  8
2
370
    50
100
AcDbLine
 10
-347.453259
 20
-183.249298
 30
0.0
 11
-347.453259
 21
-180.749298
 31
0.0
  0
LINE
  5
493
100
AcDbEntity
  8
2
370
    50
100
AcDbLine
 10
-348.453259
 20
-183.249298
 30
0.0
 11
-348.453259
 21
-180.749298
 31
0.0
  0
LINE
  5
494
100
AcDbEntity
  8
2
370
    50
100
AcDbLine
 10
-351.827589
 20
-183.249298
 30
0.0
 11
-351.827589
 21
-180.749298
 31
0.0
  0
LINE
  5
495
100
AcDbEntity
  8
2
370
    50
100
AcDbLine
 10
-352.534696
 20
-183.249298
 30
0.0
 11
-352.534696
 21
-180.749298
 31
0.0
  0
LINE
  5
496
100
AcDbEntity
  8
2
370
    50
100
AcDbLine
 10
-353.953259
 20
-183.249298
 30
0.0
 11
-353.953259
 21
-180.449298
 31
0.0
  0
LINE
  5
497
100
AcDbEntity
  8
2
370
    50
100
AcDbLine
 10
-353.932389
 20
-183.249298
 30
0.0
 11
-353.932389
 21
-180.749298
 31
0.0
  0
LINE
  5
498
100
AcDbEntity
  8
2
370
    50
100
AcDbLine
 10
-343.371822
 20
-180.749298
 30
0.0
 11
-341.953259
 21
-180.749298
 31
0.0
  0
LINE
  5
499
100
AcDbEntity
  8
2
370
    50
100
AcDbLine
 10
-347.453259
 20
-180.749298
 30
0.0
 11
-344.078928
 21
-180.749298
 31
0.0
  0
LINE
  5
49A
100
AcDbEntity
  8
2
370
    50
100
AcDbLine
 10
-353.953259
 20
-180.749298
 30
0.0
 11
-352.534696
 21
-180.749298
 31
0.0
  0
LINE
  5
49B
100
AcDbEntity
  8
2
370
    50
100
AcDbLine
 10
-351.827589
 20
-180.749298
 30
0.0
 11
-348.453259
 21
-180.749298
 31
0.0
  0
LINE
  5
49C
100
AcDbEntity
  8
2
370
    50
100
AcDbLine
 10
-343.371822
 20
-183.249298
 30
0.0
 11
-341.953259
 21
-183.249298
 31
0.0
  0
LINE
  5
49D
100
AcDbEntity
  8
2
370
    50
100
AcDbLine
 10
-347.453259
 20
-183.249298
 30
0.0
 11
-344.078928
 21
-183.249298
 31
0.0
  0
LINE
  5
49E
100
AcDbEntity
  8
2
370
    50
100
AcDbLine
 10
-353.953259
 20
-183.249298
 30
0.0
 11
-352.534696
 21
-183.249298
 31
0.0
  0
LINE
  5
49F
100
AcDbEntity
  8
2
370
    50
100
AcDbLine
 10
-351.827589
 20
-183.249298
 30
0.0
 11
-348.453259
 21
-183.249298
 31
0.0
  0
ARC
  5
4A0
100
AcDbEntity
  8
2
370
    50
100
AcDbCircle
 10
-353.753259
 20
-180.449298
 30
0.0
 40
0.2
100
AcDbArc
 50
90.0
 51
180.0
  0
ARC
  5
4A1
100
AcDbEntity
  8
2
370
    50
100
AcDbCircle
 10
-342.153259
 20
-180.449298
 30
0.0
 40
0.2
100
AcDbArc
 50
0.0
 51
90.0
  0
ARC
  5
4A2
100
AcDbEntity
  8
2
370
    50
100
AcDbCircle
 10
-343.953259
 20
-184.749298
 30
0.0
 40
2.5
100
AcDbArc
 50
0.0
 51
36.869898
  0
ARC
  5
4A3
100
AcDbEntity
  8
2
370
    50
100
AcDbCircle
 10
-351.953259
 20
-184.749298
 30
0.0
 40
2.5
100
AcDbArc
 50
143.130102
 51
180.0
  0
LINE
  5
4A4
100
AcDbEntity
  8
2
370
    25
100
AcDbLine
 10
-341.472518
 20
-197.249298
 30
0.0
 11
-341.472518
 21
-184.749298
 31
0.0
  0
LINE
  5
4A5
100
AcDbEntity
  8
2
370
    25
100
AcDbLine
 10
-343.01713
 20
-197.249298
 30
0.0
 11
-343.01713
 21
-184.749298
 31
0.0
  0
LINE
  5
4A6
100
AcDbEntity
  8
2
370
    25
100
AcDbLine
 10
-343.724236
 20
-197.249298
 30
0.0
 11
-343.724236
 21
-184.749298
 31
0.0
  0
LINE
  5
4A7
100
AcDbEntity
  8
2
370
    25
100
AcDbLine
 10
-347.453259
 20
-197.249298
 30
0.0
 11
-347.453259
 21
-184.749298
 31
0.0
  0
LINE
  5
4A8
100
AcDbEntity
  8
2
370
    25
100
AcDbLine
 10
-348.453259
 20
-197.249298
 30
0.0
 11
-348.453259
 21
-184.749298
 31
0.0
  0
LINE
  5
4A9
100
AcDbEntity
  8
2
370
    25
100
AcDbLine
 10
-352.182281
 20
-197.249298
 30
0.0
 11
-352.182281
 21
-184.749298
 31
0.0
  0
LINE
  5
4AA
100
AcDbEntity
  8
2
370
    25
100
AcDbLine
 10
-352.889388
 20
-197.249298
 30
0.0
 11
-352.889388
 21
-184.749298
 31
0.0
  0
LINE
  5
4AB
100
AcDbEntity
  8
2
370
    25
100
AcDbLine
 10
-354.433999
 20
-197.249298
 30
0.0
 11
-354.433999
 21
-184.749298
 31
0.0
  0
LINE
  5
4AC
100
AcDbEntity
  8
2
370
    50
100
AcDbLine
 10
-342.203259
 20
-223.249298
 30
0.0
 11
-342.203259
 21
-197.249298
 31
0.0
  0
LINE
  5
4AD
100
AcDbEntity
  8
2
370
    50
100
AcDbLine
 10
-353.703259
 20
-223.249298
 30
0.0
 11
-353.703259
 21
-197.249298
 31
0.0
  0
ARC
  5
4AE
100
AcDbEntity
  8
2
370
    50
100
AcDbCircle
 10
-345.078259
 20
-227.250146
 30
0.0
 40
4.791667
100
AcDbArc
 50
53.130102
 51
126.869898
  0
ARC
  5
4AF
100
AcDbEntity
  8
2
370
    50
100
AcDbCircle
 10
-350.828259
 20
-219.583479
 30
0.0
 40
4.791667
100
AcDbArc
 50
233.130102
 51
306.869898
  0
ARC
  5
4B0
100
AcDbEntity
  8
2
370
    50
100
AcDbCircle
 10
-345.078259
 20
-219.583479
 30
0.0
 40
4.791667
100
AcDbArc
 50
233.130102
 51
306.869898
  0
ARC
  5
4B1
100
AcDbEntity
  8
2
370
    50
100
AcDbCircle
 10
-361.078259
 20
-227.250146
 30
0.0
 40
4.791667
100
AcDbArc
 50
53.130102
 51
126.869898
  0
ARC
  5
4B2
100
AcDbEntity
  8
2
370
    50
100
AcDbCircle
 10
-366.828259
 20
-219.583479
 30
0.0
 40
4.791667
100
AcDbArc
 50
233.130102
 51
306.869898
  0
ARC
  5
4B3
100
AcDbEntity
  8
2
370
    50
100
AcDbCircle
 10
-361.078259
 20
-219.583479
 30
0.0
 40
4.791667
100
AcDbArc
 50
233.130102
 51
306.869898
  0
LINE
  5
4B4
100
AcDbEntity
  8
2
370
    50
100
AcDbLine
 10
-412.141101
 20
-269.054124
 30
0.0
 11
-425.141101
 21
-269.054124
 31
0.0
  0
LINE
  5
4B5
100
AcDbEntity
  8
2
370
    50
100
AcDbLine
 10
-414.059664
 20
-283.054124
 30
0.0
 11
-412.641101
 21
-283.054124
 31
0.0
  0
LINE
  5
4B6
100
AcDbEntity
  8
2
370
    50
100
AcDbLine
 10
-414.059664
 20
-285.554124
 30
0.0
 11
-412.641101
 21
-285.554124
 31
0.0
  0
ARC
  5
4B7
100
AcDbEntity
  8
2
370
    50
100
AcDbCircle
 10
-412.841101
 20
-285.854124
 30
0.0
 40
0.2
100
AcDbArc
 50
270.0
 51
360.0
  0
LINE
  5
4B8
100
AcDbEntity
  8
2
370
    50
100
AcDbLine
 10
-418.141101
 20
-285.554124
 30
0.0
 11
-414.766771
 21
-285.554124
 31
0.0
  0
LINE
  5
4B9
100
AcDbEntity
  8
2
370
    50
100
AcDbLine
 10
-418.141101
 20
-283.054124
 30
0.0
 11
-414.766771
 21
-283.054124
 31
0.0
  0
LINE
  5
4BA
100
AcDbEntity
  8
2
370
    50
100
AcDbLine
 10
-422.515432
 20
-285.554124
 30
0.0
 11
-419.141101
 21
-285.554124
 31
0.0
  0
LINE
  5
4BB
100
AcDbEntity
  8
2
370
    50
100
AcDbLine
 10
-422.515432
 20
-283.054124
 30
0.0
 11
-419.141101
 21
-283.054124
 31
0.0
  0
LINE
  5
4BC
100
AcDbEntity
  8
2
370
    50
100
AcDbLine
 10
-419.141101
 20
-283.054124
 30
0.0
 11
-419.141101
 21
-285.554124
 31
0.0
  0
LINE
  5
4BD
100
AcDbEntity
  8
2
370
    50
100
AcDbLine
 10
-418.141101
 20
-283.054124
 30
0.0
 11
-418.141101
 21
-285.554124
 31
0.0
  0
LINE
  5
4BE
100
AcDbEntity
  8
2
370
    50
100
AcDbLine
 10
-414.059664
 20
-283.054124
 30
0.0
 11
-414.059664
 21
-285.554124
 31
0.0
  0
LINE
  5
4BF
100
AcDbEntity
  8
2
370
    50
100
AcDbLine
 10
-414.766771
 20
-283.054124
 30
0.0
 11
-414.766771
 21
-285.554124
 31
0.0
  0
LINE
  5
4C0
100
AcDbEntity
  8
2
370
    50
100
AcDbLine
 10
-412.641101
 20
-283.054124
 30
0.0
 11
-412.641101
 21
-285.854124
 31
0.0
  0
LINE
  5
4C1
100
AcDbEntity
  8
2
370
    50
100
AcDbLine
 10
-412.661971
 20
-283.054124
 30
0.0
 11
-412.661971
 21
-285.554124
 31
0.0
  0
ARC
  5
4C2
100
AcDbEntity
  8
2
370
    50
100
AcDbCircle
 10
-414.641101
 20
-281.554124
 30
0.0
 40
2.5
100
AcDbArc
 50
323.130102
 51
360.0
  0
LINE
  5
4C3
100
AcDbEntity
  8
2
370
    50
100
AcDbLine
 10
-412.141101
 20
-269.054124
 30
0.0
 11
-412.141101
 21
-281.554124
 31
0.0
  0
LINE
  5
4C4
100
AcDbEntity
  8
2
370
    50
100
AcDbLine
 10
-425.641101
 20
-286.054124
 30
0.0
 11
-411.641101
 21
-286.054124
 31
0.0
  0
LINE
  5
4C5
100
AcDbEntity
  8
2
370
    50
100
AcDbLine
 10
-412.891101
 20
-269.054124
 30
0.0
 11
-412.891101
 21
-233.562265
 31
0.0
  0
LINE
  5
4C6
100
AcDbEntity
  8
2
370
    50
100
AcDbLine
 10
-412.641101
 20
-285.854124
 30
0.0
 11
-405.141101
 21
-285.854124
 31
0.0
  0
LINE
  5
4C7
100
AcDbEntity
  8
2
370
    50
100
AcDbLine
 10
-409.841101
 20
-291.354124
 30
0.0
 11
-409.841101
 21
-286.854124
 31
0.0
  0
ARC
  5
4C8
100
AcDbEntity
  8
2
370
    50
100
AcDbCircle
 10
-410.841101
 20
-286.854124
 30
0.0
 40
1.0
100
AcDbArc
 50
0.0
 51
90.0
  0
LINE
  5
4C9
100
AcDbEntity
  8
2
370
    50
100
AcDbLine
 10
-411.141101
 20
-286.554124
 30
0.0
 11
-411.141101
 21
-287.853502
 31
0.0
  0
ARC
  5
4CA
100
AcDbEntity
  8
2
370
    50
100
AcDbCircle
 10
-410.841101
 20
-286.854124
 30
0.0
 40
1.0
100
AcDbArc
 50
0.0
 51
90.0
  0
LINE
  5
4CB
100
AcDbEntity
  8
2
370
    50
100
AcDbLine
 10
-411.141101
 20
-286.554124
 30
0.0
 11
-411.641101
 21
-286.054124
 31
0.0
  0
LINE
  5
4CC
100
AcDbEntity
  8
2
370
    25
100
AcDbLine
 10
-422.706965
 20
-260.370558
 30
0.0
 11
-414.575237
 21
-252.23883
 31
0.0
  0
LINE
  5
4CD
100
AcDbEntity
  8
2
370
    25
100
AcDbLine
 10
-422.706965
 20
-252.23883
 30
0.0
 11
-414.575237
 21
-260.370558
 31
0.0
  0
LINE
  5
4CE
100
AcDbEntity
  8
2
370
    25
100
AcDbLine
 10
-421.937899
 20
-261.015706
 30
0.0
 11
-413.93009
 21
-253.007897
 31
0.0
  0
LINE
  5
4CF
100
AcDbEntity
  8
2
370
    25
100
AcDbLine
 10
-421.038875
 20
-261.530896
 30
0.0
 11
-413.4149
 21
-253.90692
 31
0.0
  0
LINE
  5
4D0
100
AcDbEntity
  8
2
370
    25
100
AcDbLine
 10
-419.98839
 20
-261.894624
 30
0.0
 11
-413.051172
 21
-254.957406
 31
0.0
  0
LINE
  5
4D1
100
AcDbEntity
  8
2
370
    25
100
AcDbLine
 10
-418.733505
 20
-262.053952
 30
0.0
 11
-412.891844
 21
-256.212291
 31
0.0
  0
LINE
  5
4D2
100
AcDbEntity
  8
2
370
    25
100
AcDbLine
 10
-417.113365
 20
-261.848026
 30
0.0
 11
-413.09777
 21
-257.832431
 31
0.0
  0
LINE
  5
4D3
100
AcDbEntity
  8
2
370
    25
100
AcDbLine
 10
-423.352112
 20
-259.601492
 30
0.0
 11
-415.344304
 21
-251.593683
 31
0.0
  0
LINE
  5
4D4
100
AcDbEntity
  8
2
370
    25
100
AcDbLine
 10
-423.867303
 20
-258.702469
 30
0.0
 11
-416.243327
 21
-251.078493
 31
0.0
  0
LINE
  5
4D5
100
AcDbEntity
  8
2
370
    25
100
AcDbLine
 10
-424.231031
 20
-257.651983
 30
0.0
 11
-417.293812
 21
-250.714765
 31
0.0
  0
LINE
  5
4D6
100
AcDbEntity
  8
2
370
    25
100
AcDbLine
 10
-424.390359
 20
-256.397098
 30
0.0
 11
-418.548698
 21
-250.555437
 31
0.0
  0
LINE
  5
4D7
100
AcDbEntity
  8
2
370
    25
100
AcDbLine
 10
-421.937899
 20
-251.593683
 30
0.0
 11
-413.93009
 21
-259.601492
 31
0.0
  0
LINE
  5
4D8
100
AcDbEntity
  8
2
370
    25
100
AcDbLine
 10
-421.038875
 20
-251.078493
 30
0.0
 11
-413.4149
 21
-258.702469
 31
0.0
  0
LINE
  5
4D9
100
AcDbEntity
  8
2
370
    25
100
AcDbLine
 10
-419.98839
 20
-250.714765
 30
0.0
 11
-413.051172
 21
-257.651983
 31
0.0
  0
LINE
  5
4DA
100
AcDbEntity
  8
2
370
    25
100
AcDbLine
 10
-418.733505
 20
-250.555437
 30
0.0
 11
-412.891844
 21
-256.397098
 31
0.0
  0
LINE
  5
4DB
100
AcDbEntity
  8
2
370
    25
100
AcDbLine
 10
-417.113365
 20
-250.761363
 30
0.0
 11
-413.09777
 21
-254.776958
 31
0.0
  0
LINE
  5
4DC
100
AcDbEntity
  8
2
370
    25
100
AcDbLine
 10
-423.352112
 20
-253.007897
 30
0.0
 11
-415.344304
 21
-261.015706
 31
0.0
  0
LINE
  5
4DD
100
AcDbEntity
  8
2
370
    25
100
AcDbLine
 10
-423.867303
 20
-253.90692
 30
0.0
 11
-416.243327
 21
-261.530896
 31
0.0
  0
LINE
  5
4DE
100
AcDbEntity
  8
2
370
    25
100
AcDbLine
 10
-424.231031
 20
-254.957406
 30
0.0
 11
-417.293812
 21
-261.894624
 31
0.0
  0
LINE
  5
4DF
100
AcDbEntity
  8
2
370
    25
100
AcDbLine
 10
-424.390359
 20
-256.212291
 30
0.0
 11
-418.548698
 21
-262.053952
 31
0.0
  0
LINE
  5
4E0
100
AcDbEntity
  8
2
370
    50
100
AcDbLine
 10
-404.141101
 20
-286.854124
 30
0.0
 11
-404.141101
 21
-298.854124
 31
0.0
  0
ARC
  5
4E1
100
AcDbEntity
  8
2
370
    50
100
AcDbCircle
 10
-405.141101
 20
-286.854124
 30
0.0
 40
1.0
100
AcDbArc
 50
0.0
 51
90.0
  0
ARC
  5
4E2
100
AcDbEntity
  8
2
370
    50
100
AcDbCircle
 10
-421.516101
 20
-229.709477
 30
0.0
 40
4.791667
100
AcDbArc
 50
233.130102
 51
306.869898
  0
ARC
  5
4E3
100
AcDbEntity
  8
2
370
    50
100
AcDbCircle
 10
-415.766101
 20
-237.376144
 30
0.0
 40
4.791667
100
AcDbArc
 50
53.130102
 51
126.869898
  0
ARC
  5
4E4
100
AcDbEntity
  8
2
370
    50
100
AcDbCircle
 10
-421.516101
 20
-237.376144
 30
0.0
 40
4.791667
100
AcDbArc
 50
53.130102
 51
126.869898
  0
LINE
  5
4E5
100
AcDbEntity
  8
2
370
    25
100
AcDbLine
 10
-413.704972
 20
-281.554124
 30
0.0
 11
-413.704972
 21
-280.304124
 31
0.0
  0
LINE
  5
4E6
100
AcDbEntity
  8
2
370
    25
100
AcDbLine
 10
-413.704972
 20
-270.304124
 30
0.0
 11
-413.704972
 21
-269.054124
 31
0.0
  0
LINE
  5
4E7
100
AcDbEntity
  8
2
370
    25
100
AcDbLine
 10
-414.412079
 20
-281.554124
 30
0.0
 11
-414.412079
 21
-280.304124
 31
0.0
  0
LINE
  5
4E8
100
AcDbEntity
  8
2
370
    25
100
AcDbLine
 10
-414.412079
 20
-270.304124
 30
0.0
 11
-414.412079
 21
-269.054124
 31
0.0
  0
LINE
  5
4E9
100
AcDbEntity
  8
2
370
    25
100
AcDbLine
 10
-418.141101
 20
-281.554124
 30
0.0
 11
-418.141101
 21
-280.304124
 31
0.0
  0
LINE
  5
4EA
100
AcDbEntity
  8
2
370
    25
100
AcDbLine
 10
-418.141101
 20
-270.304124
 30
0.0
 11
-418.141101
 21
-269.054124
 31
0.0
  0
LINE
  5
4EB
100
AcDbEntity
  8
2
370
    25
100
AcDbLine
 10
-419.141101
 20
-281.554124
 30
0.0
 11
-419.141101
 21
-280.304124
 31
0.0
  0
LINE
  5
4EC
100
AcDbEntity
  8
2
370
    25
100
AcDbLine
 10
-419.141101
 20
-270.304124
 30
0.0
 11
-419.141101
 21
-269.054124
 31
0.0
  0
POINT
  5
4ED
100
AcDbEntity
  8
2
370
    50
100
AcDbPoint
 10
-412.891101
 20
-233.562265
 30
0.0
  0
LINE
  5
4EE
100
AcDbEntity
  8
2
370
    50
100
AcDbLine
 10
-424.641101
 20
-285.554124
 30
0.0
 11
-423.222538
 21
-285.554124
 31
0.0
  0
LINE
  5
4EF
100
AcDbEntity
  8
2
370
    50
100
AcDbLine
 10
-424.641101
 20
-283.054124
 30
0.0
 11
-423.222538
 21
-283.054124
 31
0.0
  0
ARC
  5
4F0
100
AcDbEntity
  8
2
370
    50
100
AcDbCircle
 10
-424.441101
 20
-285.854124
 30
0.0
 40
0.2
100
AcDbArc
 50
180.0
 51
270.0
  0
LINE
  5
4F1
100
AcDbEntity
  8
2
370
    50
100
AcDbLine
 10
-424.641101
 20
-283.054124
 30
0.0
 11
-424.641101
 21
-285.854124
 31
0.0
  0
LINE
  5
4F2
100
AcDbEntity
  8
2
370
    50
100
AcDbLine
 10
-424.620232
 20
-283.054124
 30
0.0
 11
-424.620232
 21
-285.554124
 31
0.0
  0
ARC
  5
4F3
100
AcDbEntity
  8
2
370
    50
100
AcDbCircle
 10
-422.641101
 20
-281.554124
 30
0.0
 40
2.5
100
AcDbArc
 50
180.0
 51
216.869898
  0
LINE
  5
4F4
100
AcDbEntity
  8
2
370
    50
100
AcDbLine
 10
-423.222538
 20
-283.054124
 30
0.0
 11
-423.222538
 21
-285.554124
 31
0.0
  0
LINE
  5
4F5
100
AcDbEntity
  8
2
370
    50
100
AcDbLine
 10
-422.515432
 20
-283.054124
 30
0.0
 11
-422.515432
 21
-285.554124
 31
0.0
  0
LINE
  5
4F6
100
AcDbEntity
  8
2
370
    25
100
AcDbLine
 10
-425.121842
 20
-269.054124
 30
0.0
 11
-425.121842
 21
-281.554124
 31
0.0
  0
LINE
  5
4F7
100
AcDbEntity
  8
2
370
    50
100
AcDbLine
 10
-425.141101
 20
-269.054124
 30
0.0
 11
-425.141101
 21
-281.554124
 31
0.0
  0
LINE
  5
4F8
100
AcDbEntity
  8
2
370
    50
100
AcDbLine
 10
-426.141101
 20
-286.554124
 30
0.0
 11
-425.641101
 21
-286.054124
 31
0.0
  0
LINE
  5
4F9
100
AcDbEntity
  8
2
370
    50
100
AcDbLine
 10
-424.391101
 20
-269.054124
 30
0.0
 11
-424.391101
 21
-233.710325
 31
0.0
  0
LINE
  5
4FA
100
AcDbEntity
  8
2
370
    25
100
AcDbLine
 10
-425.140962
 20
-299.853502
 30
0.0
 11
-425.140962
 21
-296.853502
 31
0.0
  0
LINE
  5
4FB
100
AcDbEntity
  8
2
370
    50
100
AcDbLine
 10
-427.541101
 20
-291.454759
 30
0.0
 11
-427.541101
 21
-293.854759
 31
0.0
  0
LINE
  5
4FC
100
AcDbEntity
  8
2
370
    50
100
AcDbLine
 10
-427.341101
 20
-291.254759
 30
0.0
 11
-427.541101
 21
-291.454759
 31
0.0
  0
LINE
  5
4FD
100
AcDbEntity
  8
2
370
    50
100
AcDbLine
 10
-427.341101
 20
-294.054759
 30
0.0
 11
-427.541101
 21
-293.854759
 31
0.0
  0
LINE
  5
4FE
100
AcDbEntity
  8
2
370
    50
100
AcDbLine
 10
-426.141101
 20
-291.254759
 30
0.0
 11
-426.141101
 21
-290.853502
 31
0.0
  0
LINE
  5
4FF
100
AcDbEntity
  8
2
370
    50
100
AcDbLine
 10
-426.141101
 20
-286.554124
 30
0.0
 11
-426.141101
 21
-287.853502
 31
0.0
  0
LINE
  5
500
100
AcDbEntity
  8
2
370
    50
100
AcDbLine
 10
-409.741101
 20
-291.454124
 30
0.0
 11
-409.741101
 21
-293.854124
 31
0.0
  0
LINE
  5
501
100
AcDbEntity
  8
2
370
    50
100
AcDbLine
 10
-427.541101
 20
-291.454124
 30
0.0
 11
-427.541101
 21
-293.854124
 31
0.0
  0
LINE
  5
502
100
AcDbEntity
  8
2
370
    50
100
AcDbLine
 10
-427.341101
 20
-291.254124
 30
0.0
 11
-427.541101
 21
-291.454124
 31
0.0
  0
LINE
  5
503
100
AcDbEntity
  8
2
370
    50
100
AcDbLine
 10
-409.941101
 20
-291.254124
 30
0.0
 11
-409.741101
 21
-291.454124
 31
0.0
  0
LINE
  5
504
100
AcDbEntity
  8
2
370
    50
100
AcDbLine
 10
-409.941101
 20
-294.054124
 30
0.0
 11
-409.741101
 21
-293.854124
 31
0.0
  0
LINE
  5
505
100
AcDbEntity
  8
2
370
    50
100
AcDbLine
 10
-409.641101
 20
-299.854124
 30
0.0
 11
-427.641101
 21
-299.854124
 31
0.0
  0
LINE
  5
506
100
AcDbEntity
  8
2
370
    50
100
AcDbLine
 10
-410.341101
 20
-287.854124
 30
0.0
 11
-426.941101
 21
-287.854124
 31
0.0
  0
LINE
  5
507
100
AcDbEntity
  8
2
370
    50
100
AcDbLine
 10
-422.641101
 20
-288.854124
 30
0.0
 11
-422.641101
 21
-298.854124
 31
0.0
  0
LINE
  5
508
100
AcDbEntity
  8
2
370
    50
100
AcDbLine
 10
-414.641101
 20
-288.854124
 30
0.0
 11
-414.641101
 21
-298.854124
 31
0.0
  0
ARC
  5
509
100
AcDbEntity
  8
2
370
    50
100
AcDbCircle
 10
-432.141101
 20
-286.854124
 30
0.0
 40
1.0
100
AcDbArc
 50
90.0
 51
180.0
  0
ARC
  5
50A
100
AcDbEntity
  8
2
370
    50
100
AcDbCircle
 10
-432.141101
 20
-298.854124
 30
0.0
 40
1.0
100
AcDbArc
 50
180.0
 51
270.0
  0
LINE
  5
50B
100
AcDbEntity
  8
2
370
    50
100
AcDbLine
 10
-432.141101
 20
-285.854124
 30
0.0
 11
-424.641101
 21
-285.854124
 31
0.0
  0
LINE
  5
50C
100
AcDbEntity
  8
2
370
    50
100
AcDbLine
 10
-432.141101
 20
-299.854124
 30
0.0
 11
-426.141101
 21
-299.854124
 31
0.0
  0
LINE
  5
50D
100
AcDbEntity
  8
2
370
    50
100
AcDbLine
 10
-410.341101
 20
-299.854124
 30
0.0
 11
-405.141101
 21
-299.854124
 31
0.0
  0
LINE
  5
50E
100
AcDbEntity
  8
2
370
    50
100
AcDbLine
 10
-410.341101
 20
-290.854124
 30
0.0
 11
-414.641101
 21
-290.854124
 31
0.0
  0
LINE
  5
50F
100
AcDbEntity
  8
2
370
    50
100
AcDbLine
 10
-422.641101
 20
-290.854124
 30
0.0
 11
-426.941101
 21
-290.854124
 31
0.0
  0
LINE
  5
510
100
AcDbEntity
  8
2
370
    50
100
AcDbLine
 10
-409.941101
 20
-291.254124
 30
0.0
 11
-414.641101
 21
-291.254124
 31
0.0
  0
LINE
  5
511
100
AcDbEntity
  8
2
370
    50
100
AcDbLine
 10
-422.641101
 20
-291.254124
 30
0.0
 11
-427.341101
 21
-291.254124
 31
0.0
  0
LINE
  5
512
100
AcDbEntity
  8
2
370
    50
100
AcDbLine
 10
-409.741101
 20
-291.454124
 30
0.0
 11
-414.641101
 21
-291.454124
 31
0.0
  0
LINE
  5
513
100
AcDbEntity
  8
2
370
    50
100
AcDbLine
 10
-422.641101
 20
-291.454124
 30
0.0
 11
-427.541101
 21
-291.454124
 31
0.0
  0
LINE
  5
514
100
AcDbEntity
  8
2
370
    50
100
AcDbLine
 10
-409.741101
 20
-293.854124
 30
0.0
 11
-414.641101
 21
-293.854124
 31
0.0
  0
LINE
  5
515
100
AcDbEntity
  8
2
370
    50
100
AcDbLine
 10
-422.641101
 20
-293.854124
 30
0.0
 11
-427.541101
 21
-293.854124
 31
0.0
  0
LINE
  5
516
100
AcDbEntity
  8
2
370
    50
100
AcDbLine
 10
-410.341101
 20
-296.854124
 30
0.0
 11
-414.641101
 21
-296.854124
 31
0.0
  0
LINE
  5
517
100
AcDbEntity
  8
2
370
    50
100
AcDbLine
 10
-422.641101
 20
-296.854124
 30
0.0
 11
-426.941101
 21
-296.854124
 31
0.0
  0
ARC
  5
518
100
AcDbEntity
  8
2
370
    50
100
AcDbCircle
 10
-415.641101
 20
-288.854124
 30
0.0
 40
1.0
100
AcDbArc
 50
0.0
 51
90.0
  0
ARC
  5
519
100
AcDbEntity
  8
2
370
    50
100
AcDbCircle
 10
-421.641101
 20
-288.854124
 30
0.0
 40
1.0
100
AcDbArc
 50
90.0
 51
180.0
  0
ARC
  5
51A
100
AcDbEntity
  8
2
370
    50
100
AcDbCircle
 10
-421.641101
 20
-298.854124
 30
0.0
 40
1.0
100
AcDbArc
 50
180.0
 51
270.0
  0
ARC
  5
51B
100
AcDbEntity
  8
2
370
    50
100
AcDbCircle
 10
-415.641101
 20
-298.854124
 30
0.0
 40
1.0
100
AcDbArc
 50
270.0
 51
0.0
  0
LINE
  5
51C
100
AcDbEntity
  8
2
370
    50
100
AcDbLine
 10
-426.941101
 20
-287.854124
 30
0.0
 11
-426.941101
 21
-290.854124
 31
0.0
  0
LINE
  5
51D
100
AcDbEntity
  8
2
370
    50
100
AcDbLine
 10
-410.341101
 20
-287.854124
 30
0.0
 11
-410.341101
 21
-290.854124
 31
0.0
  0
LINE
  5
51E
100
AcDbEntity
  8
2
370
    50
100
AcDbLine
 10
-410.341101
 20
-296.854124
 30
0.0
 11
-410.341101
 21
-299.854124
 31
0.0
  0
LINE
  5
51F
100
AcDbEntity
  8
2
370
    50
100
AcDbLine
 10
-426.941101
 20
-296.854124
 30
0.0
 11
-426.941101
 21
-299.854124
 31
0.0
  0
LINE
  5
520
100
AcDbEntity
  8
2
370
    50
100
AcDbLine
 10
-426.141101
 20
-291.254124
 30
0.0
 11
-426.141101
 21
-290.854124
 31
0.0
  0
LINE
  5
521
100
AcDbEntity
  8
2
370
    50
100
AcDbLine
 10
-411.141101
 20
-291.254124
 30
0.0
 11
-411.141101
 21
-290.854124
 31
0.0
  0
LINE
  5
522
100
AcDbEntity
  8
2
370
    25
100
AcDbLine
 10
-423.641101
 20
-299.554707
 30
0.0
 11
-423.641101
 21
-297.249485
 31
0.0
  0
LINE
  5
523
100
AcDbEntity
  8
2
370
    25
100
AcDbLine
 10
-423.641102
 20
-290.592937
 30
0.0
 11
-423.641101
 21
-288.160732
 31
0.0
  0
LINE
  5
524
100
AcDbEntity
  8
2
370
    25
100
AcDbLine
 10
-413.641101
 20
-299.554707
 30
0.0
 11
-413.641101
 21
-297.249485
 31
0.0
  0
LINE
  5
525
100
AcDbEntity
  8
2
370
    25
100
AcDbLine
 10
-413.641101
 20
-290.550259
 30
0.0
 11
-413.641101
 21
-288.081211
 31
0.0
  0
LINE
  5
526
100
AcDbEntity
  8
2
370
    50
100
AcDbLine
 10
-427.441101
 20
-298.854124
 30
0.0
 11
-427.441101
 21
-296.254124
 31
0.0
  0
LINE
  5
527
100
AcDbEntity
  8
2
370
    50
100
AcDbLine
 10
-427.441101
 20
-291.354124
 30
0.0
 11
-427.441101
 21
-286.854124
 31
0.0
  0
LINE
  5
528
100
AcDbEntity
  8
2
370
    50
100
AcDbLine
 10
-409.841101
 20
-298.854124
 30
0.0
 11
-409.841101
 21
-296.254124
 31
0.0
  0
ARC
  5
529
100
AcDbEntity
  8
2
370
    50
100
AcDbCircle
 10
-426.441101
 20
-286.854124
 30
0.0
 40
1.0
100
AcDbArc
 50
90.0
 51
180.0
  0
ARC
  5
52A
100
AcDbEntity
  8
2
370
    50
100
AcDbCircle
 10
-428.441101
 20
-298.854124
 30
0.0
 40
1.0
100
AcDbArc
 50
270.0
 51
0.0
  0
ARC
  5
52B
100
AcDbEntity
  8
2
370
    50
100
AcDbCircle
 10
-408.841101
 20
-298.854124
 30
0.0
 40
1.0
100
AcDbArc
 50
180.0
 51
270.0
  0
LINE
  5
52C
100
AcDbEntity
  8
2
370
    50
100
AcDbLine
 10
-409.641101
 20
-294.254124
 30
0.0
 11
-409.641101
 21
-296.054124
 31
0.0
  0
LINE
  5
52D
100
AcDbEntity
  8
2
370
    50
100
AcDbLine
 10
-427.641101
 20
-294.254124
 30
0.0
 11
-427.641101
 21
-296.054124
 31
0.0
  0
LINE
  5
52E
100
AcDbEntity
  8
2
370
    50
100
AcDbLine
 10
-409.841101
 20
-294.054124
 30
0.0
 11
-409.641101
 21
-294.254124
 31
0.0
  0
LINE
  5
52F
100
AcDbEntity
  8
2
370
    50
100
AcDbLine
 10
-409.641101
 20
-296.054124
 30
0.0
 11
-409.841101
 21
-296.254124
 31
0.0
  0
LINE
  5
530
100
AcDbEntity
  8
2
370
    50
100
AcDbLine
 10
-427.441101
 20
-294.054124
 30
0.0
 11
-427.641101
 21
-294.254124
 31
0.0
  0
LINE
  5
531
100
AcDbEntity
  8
2
370
    50
100
AcDbLine
 10
-427.641101
 20
-296.054124
 30
0.0
 11
-427.441101
 21
-296.254124
 31
0.0
  0
LINE
  5
532
100
AcDbEntity
  8
2
370
    50
100
AcDbLine
 10
-426.141101
 20
-300.254124
 30
0.0
 11
-426.141101
 21
-299.854124
 31
0.0
  0
LINE
  5
533
100
AcDbEntity
  8
2
370
    50
100
AcDbLine
 10
-426.141101
 20
-296.854124
 30
0.0
 11
-426.141101
 21
-296.254124
 31
0.0
  0
LINE
  5
534
100
AcDbEntity
  8
2
370
    50
100
AcDbLine
 10
-411.141101
 20
-300.254124
 30
0.0
 11
-411.141101
 21
-299.854124
 31
0.0
  0
LINE
  5
535
100
AcDbEntity
  8
2
370
    50
100
AcDbLine
 10
-411.141101
 20
-296.854124
 30
0.0
 11
-411.141101
 21
-296.254124
 31
0.0
  0
LINE
  5
536
100
AcDbEntity
  8
2
370
    50
100
AcDbLine
 10
-409.841101
 20
-296.254124
 30
0.0
 11
-414.641101
 21
-296.254124
 31
0.0
  0
LINE
  5
537
100
AcDbEntity
  8
2
370
    50
100
AcDbLine
 10
-422.641101
 20
-296.254124
 30
0.0
 11
-427.441101
 21
-296.254124
 31
0.0
  0
LINE
  5
538
100
AcDbEntity
  8
2
370
    50
100
AcDbLine
 10
-409.641101
 20
-296.054124
 30
0.0
 11
-414.641101
 21
-296.054124
 31
0.0
  0
LINE
  5
539
100
AcDbEntity
  8
2
370
    50
100
AcDbLine
 10
-422.641101
 20
-296.054124
 30
0.0
 11
-427.641101
 21
-296.054124
 31
0.0
  0
LINE
  5
53A
100
AcDbEntity
  8
2
370
    50
100
AcDbLine
 10
-409.641101
 20
-294.254124
 30
0.0
 11
-414.641101
 21
-294.254124
 31
0.0
  0
LINE
  5
53B
100
AcDbEntity
  8
2
370
    50
100
AcDbLine
 10
-422.641101
 20
-294.254124
 30
0.0
 11
-427.641101
 21
-294.254124
 31
0.0
  0
LINE
  5
53C
100
AcDbEntity
  8
2
370
    50
100
AcDbLine
 10
-409.841101
 20
-294.054124
 30
0.0
 11
-414.641101
 21
-294.054124
 31
0.0
  0
LINE
  5
53D
100
AcDbEntity
  8
2
370
    50
100
AcDbLine
 10
-422.641101
 20
-294.054124
 30
0.0
 11
-427.441101
 21
-294.054124
 31
0.0
  0
LINE
  5
53E
100
AcDbEntity
  8
2
370
    25
100
AcDbLine
 10
-412.141241
 20
-299.853502
 30
0.0
 11
-412.141241
 21
-296.853502
 31
0.0
  0
LINE
  5
53F
100
AcDbEntity
  8
2
370
    25
100
AcDbLine
 10
-425.140962
 20
-290.854124
 30
0.0
 11
-425.140962
 21
-287.854124
 31
0.0
  0
LINE
  5
540
100
AcDbEntity
  8
2
370
    25
100
AcDbLine
 10
-412.141241
 20
-290.854124
 30
0.0
 11
-412.141241
 21
-287.854124
 31
0.0
  0
LINE
  5
541
100
AcDbEntity
  8
2
370
    25
100
AcDbLine
 10
-424.184433
 20
-254.776958
 30
0.0
 11
-420.168838
 21
-250.761363
 31
0.0
  0
LINE
  5
542
100
AcDbEntity
  8
2
370
    25
100
AcDbLine
 10
-424.184433
 20
-257.832431
 30
0.0
 11
-420.168838
 21
-261.848026
 31
0.0
  0
ARC
  5
543
100
AcDbEntity
  8
2
370
    50
100
AcDbCircle
 10
-405.141101
 20
-298.854124
 30
0.0
 40
1.0
100
AcDbArc
 50
270.0
 51
360.0
  0
LINE
  5
544
100
AcDbEntity
  8
2
370
    50
100
AcDbLine
 10
-433.141101
 20
-286.854124
 30
0.0
 11
-433.141101
 21
-298.854124
 31
0.0
  0
LINE
  5
545
100
AcDbEntity
  8
2
370
    25
100
AcDbLine
 10
-422.870124
 20
-281.554124
 30
0.0
 11
-422.870124
 21
-280.304124
 31
0.0
  0
LINE
  5
546
100
AcDbEntity
  8
2
370
    25
100
AcDbLine
 10
-422.870124
 20
-270.304124
 30
0.0
 11
-422.870124
 21
-269.054124
 31
0.0
  0
LINE
  5
547
100
AcDbEntity
  8
2
370
    25
100
AcDbLine
 10
-423.57723
 20
-281.554124
 30
0.0
 11
-423.57723
 21
-280.304124
 31
0.0
  0
LINE
  5
548
100
AcDbEntity
  8
2
370
    25
100
AcDbLine
 10
-423.57723
 20
-270.304124
 30
0.0
 11
-423.57723
 21
-269.054124
 31
0.0
  0
POINT
  5
549
100
AcDbEntity
  8
2
370
    50
100
AcDbPoint
 10
-425.141101
 20
-270.304124
 30
0.0
  0
LINE
  5
54A
100
AcDbEntity
  8
2
370
    50
100
AcDbLine
 10
-427.640836
 20
-300.253375
 30
0.0
 11
-428.640836
 21
-301.253375
 31
0.0
  0
LINE
  5
54B
100
AcDbEntity
  8
2
370
    50
100
AcDbLine
 10
-409.640836
 20
-300.253375
 30
0.0
 11
-408.640836
 21
-301.253375
 31
0.0
  0
LINE
  5
54C
100
AcDbEntity
  8
2
370
    50
100
AcDbLine
 10
-428.640836
 20
-301.253375
 30
0.0
 11
-408.640836
 21
-301.253375
 31
0.0
  0
LINE
  5
54D
100
AcDbEntity
  8
2
370
    50
100
AcDbLine
 10
-428.640836
 20
-301.253375
 30
0.0
 11
-428.640836
 21
-310.053375
 31
0.0
  0
LINE
  5
54E
100
AcDbEntity
  8
2
370
    50
100
AcDbLine
 10
-408.640836
 20
-301.253375
 30
0.0
 11
-408.640836
 21
-310.053375
 31
0.0
  0
LINE
  5
54F
100
AcDbEntity
  8
2
370
    50
100
AcDbLine
 10
-408.313969
 20
-310.053375
 30
0.0
 11
-430.640836
 21
-310.053375
 31
0.0
  0
LINE
  5
550
100
AcDbEntity
  8
2
370
    50
100
AcDbLine
 10
-432.497242
 20
-311.909782
 30
0.0
 11
-432.497242
 21
-319.196969
 31
0.0
  0
LINE
  5
551
100
AcDbEntity
  8
2
370
    50
100
AcDbLine
 10
-404.784429
 20
-319.196969
 30
0.0
 11
-404.784429
 21
-311.909782
 31
0.0
  0
LINE
  5
552
100
AcDbEntity
  8
2
370
    50
100
AcDbLine
 10
-406.640836
 20
-321.053375
 30
0.0
 11
-430.640836
 21
-321.053375
 31
0.0
  0
LINE
  5
553
100
AcDbEntity
  8
2
370
    50
100
AcDbLine
 10
-425.569039
 20
-319.196969
 30
0.0
 11
-425.569039
 21
-311.909782
 31
0.0
  0
LINE
  5
554
100
AcDbEntity
  8
2
370
    50
100
AcDbLine
 10
-411.712633
 20
-319.196969
 30
0.0
 11
-411.712633
 21
-311.909782
 31
0.0
  0
LINE
  5
555
100
AcDbEntity
  8
2
370
    50
100
AcDbLine
 10
-406.640836
 20
-310.053375
 30
0.0
 11
-430.640836
 21
-310.053375
 31
0.0
  0
LINE
  5
556
100
AcDbEntity
  8
2
370
    50
100
AcDbLine
 10
-430.640836
 20
-310.053375
 30
0.0
 11
-432.497242
 21
-311.909782
 31
0.0
  0
LINE
  5
557
100
AcDbEntity
  8
2
370
    50
100
AcDbLine
 10
-406.640836
 20
-321.053375
 30
0.0
 11
-404.784429
 21
-319.196969
 31
0.0
  0
LINE
  5
558
100
AcDbEntity
  8
2
370
    50
100
AcDbLine
 10
-406.640836
 20
-310.053375
 30
0.0
 11
-404.784429
 21
-311.909782
 31
0.0
  0
LINE
  5
559
100
AcDbEntity
  8
2
370
    50
100
AcDbLine
 10
-430.640836
 20
-321.053375
 30
0.0
 11
-432.497242
 21
-319.196969
 31
0.0
  0
ARC
  5
55A
100
AcDbEntity
  8
2
370
    50
100
AcDbCircle
 10
-418.640836
 20
-323.909782
 30
0.0
 40
13.856406
100
AcDbArc
 50
60.0
 51
120.0
  0
ARC
  5
55B
100
AcDbEntity
  8
2
370
    50
100
AcDbCircle
 10
-418.640836
 20
-307.196969
 30
0.0
 40
13.856406
100
AcDbArc
 50
240.0
 51
300.0
  0
ARC
  5
55C
100
AcDbEntity
  8
2
370
    50
100
AcDbCircle
 10
-428.967703
 20
-314.092675
 30
0.0
 40
4.039299
100
AcDbArc
 50
32.711809
 51
135.0
  0
ARC
  5
55D
100
AcDbEntity
  8
2
370
    50
100
AcDbCircle
 10
-428.967703
 20
-317.014076
 30
0.0
 40
4.039299
100
AcDbArc
 50
225.0
 51
327.288191
  0
ARC
  5
55E
100
AcDbEntity
  8
2
370
    50
100
AcDbCircle
 10
-408.313969
 20
-314.092675
 30
0.0
 40
4.039299
100
AcDbArc
 50
45.0
 51
147.288191
  0
ARC
  5
55F
100
AcDbEntity
  8
2
370
    50
100
AcDbCircle
 10
-408.313969
 20
-317.014076
 30
0.0
 40
4.039299
100
AcDbArc
 50
212.711809
 51
315.0
  0
LINE
  5
560
100
AcDbEntity
  8
2
370
    50
100
AcDbLine
 10
-409.640836
 20
-300.253375
 30
0.0
 11
-427.640836
 21
-300.253375
 31
0.0
  0
LINE
  5
561
100
AcDbEntity
  8
2
370
    25
  6
CENTER
100
AcDbLine
 10
-293.265416
 20
-215.643786
 30
0.0
 11
-293.265416
 21
-239.517265
 31
0.0
  0
LINE
  5
562
100
AcDbEntity
  8
2
370
    50
100
AcDbLine
 10
-299.765416
 20
-272.246349
 30
0.0
 11
-286.765416
 21
-272.246349
 31
0.0
  0
LINE
  5
563
100
AcDbEntity
  8
2
370
    50
100
AcDbLine
 10
-299.765416
 20
-272.246349
 30
0.0
 11
-299.765416
 21
-284.746349
 31
0.0
  0
LINE
  5
564
100
AcDbEntity
  8
2
370
    25
100
AcDbLine
 10
-286.784675
 20
-272.246349
 30
0.0
 11
-286.784675
 21
-284.746349
 31
0.0
  0
LINE
  5
565
100
AcDbEntity
  8
2
370
    50
100
AcDbLine
 10
-286.765416
 20
-272.246349
 30
0.0
 11
-286.765416
 21
-284.746349
 31
0.0
  0
LINE
  5
566
100
AcDbEntity
  8
2
370
    50
100
AcDbLine
 10
-299.015416
 20
-272.246349
 30
0.0
 11
-299.015416
 21
-236.754491
 31
0.0
  0
LINE
  5
567
100
AcDbEntity
  8
2
370
    50
100
AcDbLine
 10
-287.515416
 20
-272.246349
 30
0.0
 11
-287.515416
 21
-236.902551
 31
0.0
  0
LINE
  5
568
100
AcDbEntity
  8
2
370
    25
100
AcDbLine
 10
-289.199552
 20
-263.562784
 30
0.0
 11
-297.33128
 21
-255.431056
 31
0.0
  0
LINE
  5
569
100
AcDbEntity
  8
2
370
    25
100
AcDbLine
 10
-289.199552
 20
-255.431056
 30
0.0
 11
-297.33128
 21
-263.562784
 31
0.0
  0
LINE
  5
56A
100
AcDbEntity
  8
2
370
    25
100
AcDbLine
 10
-289.968618
 20
-264.207931
 30
0.0
 11
-297.976427
 21
-256.200122
 31
0.0
  0
LINE
  5
56B
100
AcDbEntity
  8
2
370
    25
100
AcDbLine
 10
-290.867642
 20
-264.723121
 30
0.0
 11
-298.491617
 21
-257.099146
 31
0.0
  0
LINE
  5
56C
100
AcDbEntity
  8
2
370
    25
100
AcDbLine
 10
-291.918127
 20
-265.086849
 30
0.0
 11
-298.855346
 21
-258.149631
 31
0.0
  0
LINE
  5
56D
100
AcDbEntity
  8
2
370
    25
100
AcDbLine
 10
-293.173013
 20
-265.246177
 30
0.0
 11
-299.014673
 21
-259.404517
 31
0.0
  0
LINE
  5
56E
100
AcDbEntity
  8
2
370
    25
100
AcDbLine
 10
-294.793153
 20
-265.040251
 30
0.0
 11
-298.808747
 21
-261.024656
 31
0.0
  0
LINE
  5
56F
100
AcDbEntity
  8
2
370
    25
100
AcDbLine
 10
-288.554405
 20
-262.793717
 30
0.0
 11
-296.562214
 21
-254.785909
 31
0.0
  0
LINE
  5
570
100
AcDbEntity
  8
2
370
    25
100
AcDbLine
 10
-288.039215
 20
-261.894694
 30
0.0
 11
-295.66319
 21
-254.270719
 31
0.0
  0
LINE
  5
571
100
AcDbEntity
  8
2
370
    25
100
AcDbLine
 10
-287.675486
 20
-260.844209
 30
0.0
 11
-294.612705
 21
-253.90699
 31
0.0
  0
LINE
  5
572
100
AcDbEntity
  8
2
370
    25
100
AcDbLine
 10
-287.516158
 20
-259.589323
 30
0.0
 11
-293.357819
 21
-253.747662
 31
0.0
  0
LINE
  5
573
100
AcDbEntity
  8
2
370
    25
100
AcDbLine
 10
-287.722085
 20
-257.969183
 30
0.0
 11
-291.737679
 21
-253.953589
 31
0.0
  0
LINE
  5
574
100
AcDbEntity
  8
2
370
    25
100
AcDbLine
 10
-289.968618
 20
-254.785909
 30
0.0
 11
-297.976427
 21
-262.793717
 31
0.0
  0
LINE
  5
575
100
AcDbEntity
  8
2
370
    25
100
AcDbLine
 10
-290.867642
 20
-254.270719
 30
0.0
 11
-298.491617
 21
-261.894694
 31
0.0
  0
LINE
  5
576
100
AcDbEntity
  8
2
370
    25
100
AcDbLine
 10
-291.918127
 20
-253.90699
 30
0.0
 11
-298.855346
 21
-260.844209
 31
0.0
  0
LINE
  5
577
100
AcDbEntity
  8
2
370
    25
100
AcDbLine
 10
-293.173013
 20
-253.747662
 30
0.0
 11
-299.014673
 21
-259.589323
 31
0.0
  0
LINE
  5
578
100
AcDbEntity
  8
2
370
    25
100
AcDbLine
 10
-294.793153
 20
-253.953589
 30
0.0
 11
-298.808747
 21
-257.969183
 31
0.0
  0
LINE
  5
579
100
AcDbEntity
  8
2
370
    25
100
AcDbLine
 10
-288.554405
 20
-256.200122
 30
0.0
 11
-296.562214
 21
-264.207931
 31
0.0
  0
LINE
  5
57A
100
AcDbEntity
  8
2
370
    25
100
AcDbLine
 10
-288.039215
 20
-257.099146
 30
0.0
 11
-295.66319
 21
-264.723121
 31
0.0
  0
LINE
  5
57B
100
AcDbEntity
  8
2
370
    25
100
AcDbLine
 10
-287.675486
 20
-258.149631
 30
0.0
 11
-294.612705
 21
-265.086849
 31
0.0
  0
LINE
  5
57C
100
AcDbEntity
  8
2
370
    25
100
AcDbLine
 10
-287.516158
 20
-259.404517
 30
0.0
 11
-293.357819
 21
-265.246177
 31
0.0
  0
LINE
  5
57D
100
AcDbEntity
  8
2
370
    25
100
AcDbLine
 10
-287.722085
 20
-261.024656
 30
0.0
 11
-291.737679
 21
-265.040251
 31
0.0
  0
ARC
  5
57E
100
AcDbEntity
  8
2
370
    50
100
AcDbCircle
 10
-296.140416
 20
-232.901702
 30
0.0
 40
4.791667
100
AcDbArc
 50
233.130102
 51
306.869898
  0
ARC
  5
57F
100
AcDbEntity
  8
2
370
    50
100
AcDbCircle
 10
-290.390416
 20
-240.568369
 30
0.0
 40
4.791667
100
AcDbArc
 50
53.130102
 51
126.869898
  0
ARC
  5
580
100
AcDbEntity
  8
2
370
    50
100
AcDbCircle
 10
-296.140416
 20
-240.568369
 30
0.0
 40
4.791667
100
AcDbArc
 50
53.130102
 51
126.869898
  0
LINE
  5
581
100
AcDbEntity
  8
2
370
    25
100
AcDbLine
 10
-288.329287
 20
-273.496349
 30
0.0
 11
-288.329287
 21
-272.246349
 31
0.0
  0
LINE
  5
582
100
AcDbEntity
  8
2
370
    25
100
AcDbLine
 10
-289.036394
 20
-273.496349
 30
0.0
 11
-289.036394
 21
-272.246349
 31
0.0
  0
LINE
  5
583
100
AcDbEntity
  8
2
370
    25
100
AcDbLine
 10
-292.765416
 20
-273.496349
 30
0.0
 11
-292.765416
 21
-272.246349
 31
0.0
  0
LINE
  5
584
100
AcDbEntity
  8
2
370
    25
100
AcDbLine
 10
-293.765416
 20
-273.496349
 30
0.0
 11
-293.765416
 21
-272.246349
 31
0.0
  0
LINE
  5
585
100
AcDbEntity
  8
2
370
    25
100
AcDbLine
 10
-297.494438
 20
-273.496349
 30
0.0
 11
-297.494438
 21
-272.246349
 31
0.0
  0
LINE
  5
586
100
AcDbEntity
  8
2
370
    25
100
AcDbLine
 10
-298.201545
 20
-273.496349
 30
0.0
 11
-298.201545
 21
-272.246349
 31
0.0
  0
LINE
  5
587
100
AcDbEntity
  8
2
370
    50
100
AcDbLine
 10
-297.846853
 20
-286.246349
 30
0.0
 11
-299.265416
 21
-286.246349
 31
0.0
  0
LINE
  5
588
100
AcDbEntity
  8
2
370
    50
100
AcDbLine
 10
-297.846853
 20
-288.746349
 30
0.0
 11
-299.265416
 21
-288.746349
 31
0.0
  0
ARC
  5
589
100
AcDbEntity
  8
2
370
    50
100
AcDbCircle
 10
-299.065416
 20
-289.046349
 30
0.0
 40
0.2
100
AcDbArc
 50
180.0
 51
270.0
  0
LINE
  5
58A
100
AcDbEntity
  8
2
370
    50
100
AcDbLine
 10
-293.765416
 20
-288.746349
 30
0.0
 11
-297.139746
 21
-288.746349
 31
0.0
  0
LINE
  5
58B
100
AcDbEntity
  8
2
370
    50
100
AcDbLine
 10
-293.765416
 20
-286.246349
 30
0.0
 11
-297.139746
 21
-286.246349
 31
0.0
  0
LINE
  5
58C
100
AcDbEntity
  8
2
370
    50
100
AcDbLine
 10
-289.391086
 20
-288.746349
 30
0.0
 11
-292.765416
 21
-288.746349
 31
0.0
  0
LINE
  5
58D
100
AcDbEntity
  8
2
370
    50
100
AcDbLine
 10
-289.391086
 20
-286.246349
 30
0.0
 11
-292.765416
 21
-286.246349
 31
0.0
  0
LINE
  5
58E
100
AcDbEntity
  8
2
370
    50
100
AcDbLine
 10
-287.265416
 20
-288.746349
 30
0.0
 11
-288.683979
 21
-288.746349
 31
0.0
  0
LINE
  5
58F
100
AcDbEntity
  8
2
370
    50
100
AcDbLine
 10
-287.265416
 20
-286.246349
 30
0.0
 11
-288.683979
 21
-286.246349
 31
0.0
  0
ARC
  5
590
100
AcDbEntity
  8
2
370
    50
100
AcDbCircle
 10
-287.465416
 20
-289.046349
 30
0.0
 40
0.2
100
AcDbArc
 50
270.0
 51
360.0
  0
LINE
  5
591
100
AcDbEntity
  8
2
370
    50
100
AcDbLine
 10
-287.265416
 20
-286.246349
 30
0.0
 11
-287.265416
 21
-289.046349
 31
0.0
  0
LINE
  5
592
100
AcDbEntity
  8
2
370
    50
100
AcDbLine
 10
-287.286286
 20
-286.246349
 30
0.0
 11
-287.286286
 21
-288.746349
 31
0.0
  0
ARC
  5
593
100
AcDbEntity
  8
2
370
    50
100
AcDbCircle
 10
-289.265416
 20
-284.746349
 30
0.0
 40
2.5
100
AcDbArc
 50
323.130102
 51
360.0
  0
LINE
  5
594
100
AcDbEntity
  8
2
370
    50
100
AcDbLine
 10
-288.683979
 20
-286.246349
 30
0.0
 11
-288.683979
 21
-288.746349
 31
0.0
  0
LINE
  5
595
100
AcDbEntity
  8
2
370
    50
100
AcDbLine
 10
-289.391086
 20
-286.246349
 30
0.0
 11
-289.391086
 21
-288.746349
 31
0.0
  0
LINE
  5
596
100
AcDbEntity
  8
2
370
    50
100
AcDbLine
 10
-292.765416
 20
-286.246349
 30
0.0
 11
-292.765416
 21
-288.746349
 31
0.0
  0
LINE
  5
597
100
AcDbEntity
  8
2
370
    50
100
AcDbLine
 10
-293.765416
 20
-286.246349
 30
0.0
 11
-293.765416
 21
-288.746349
 31
0.0
  0
LINE
  5
598
100
AcDbEntity
  8
2
370
    50
100
AcDbLine
 10
-297.846853
 20
-286.246349
 30
0.0
 11
-297.846853
 21
-288.746349
 31
0.0
  0
LINE
  5
599
100
AcDbEntity
  8
2
370
    50
100
AcDbLine
 10
-297.139746
 20
-286.246349
 30
0.0
 11
-297.139746
 21
-288.746349
 31
0.0
  0
LINE
  5
59A
100
AcDbEntity
  8
2
370
    50
100
AcDbLine
 10
-299.265416
 20
-286.246349
 30
0.0
 11
-299.265416
 21
-289.046349
 31
0.0
  0
LINE
  5
59B
100
AcDbEntity
  8
2
370
    50
100
AcDbLine
 10
-299.244546
 20
-286.246349
 30
0.0
 11
-299.244546
 21
-288.746349
 31
0.0
  0
ARC
  5
59C
100
AcDbEntity
  8
2
370
    50
100
AcDbCircle
 10
-297.265416
 20
-284.746349
 30
0.0
 40
2.5
100
AcDbArc
 50
180.0
 51
216.869898
  0
LINE
  5
59D
100
AcDbEntity
  8
2
370
    50
100
AcDbLine
 10
-286.265416
 20
-289.246349
 30
0.0
 11
-300.265416
 21
-289.246349
 31
0.0
  0
LINE
  5
59E
100
AcDbEntity
  8
2
370
    50
100
AcDbLine
 10
-285.765416
 20
-289.746349
 30
0.0
 11
-286.265416
 21
-289.246349
 31
0.0
  0
LINE
  5
59F
100
AcDbEntity
  8
2
370
    25
100
AcDbLine
 10
-286.765556
 20
-303.045727
 30
0.0
 11
-286.765556
 21
-300.045727
 31
0.0
  0
LINE
  5
5A0
100
AcDbEntity
  8
2
370
    50
100
AcDbLine
 10
-284.365416
 20
-294.646984
 30
0.0
 11
-284.365416
 21
-297.046984
 31
0.0
  0
LINE
  5
5A1
100
AcDbEntity
  8
2
370
    50
100
AcDbLine
 10
-284.565416
 20
-294.446984
 30
0.0
 11
-284.365416
 21
-294.646984
 31
0.0
  0
LINE
  5
5A2
100
AcDbEntity
  8
2
370
    50
100
AcDbLine
 10
-284.565416
 20
-297.246984
 30
0.0
 11
-284.365416
 21
-297.046984
 31
0.0
  0
LINE
  5
5A3
100
AcDbEntity
  8
2
370
    50
100
AcDbLine
 10
-285.765416
 20
-294.446984
 30
0.0
 11
-285.765416
 21
-294.045727
 31
0.0
  0
LINE
  5
5A4
100
AcDbEntity
  8
2
370
    50
100
AcDbLine
 10
-285.765416
 20
-289.746349
 30
0.0
 11
-285.765416
 21
-291.045727
 31
0.0
  0
LINE
  5
5A5
100
AcDbEntity
  8
2
370
    50
100
AcDbLine
 10
-302.165416
 20
-294.646349
 30
0.0
 11
-302.165416
 21
-297.046349
 31
0.0
  0
LINE
  5
5A6
100
AcDbEntity
  8
2
370
    50
100
AcDbLine
 10
-284.365416
 20
-294.646349
 30
0.0
 11
-284.365416
 21
-297.046349
 31
0.0
  0
LINE
  5
5A7
100
AcDbEntity
  8
2
370
    50
100
AcDbLine
 10
-284.565416
 20
-294.446349
 30
0.0
 11
-284.365416
 21
-294.646349
 31
0.0
  0
LINE
  5
5A8
100
AcDbEntity
  8
2
370
    50
100
AcDbLine
 10
-301.965416
 20
-294.446349
 30
0.0
 11
-302.165416
 21
-294.646349
 31
0.0
  0
LINE
  5
5A9
100
AcDbEntity
  8
2
370
    50
100
AcDbLine
 10
-301.965416
 20
-297.246349
 30
0.0
 11
-302.165416
 21
-297.046349
 31
0.0
  0
LINE
  5
5AA
100
AcDbEntity
  8
2
370
    50
100
AcDbLine
 10
-302.265416
 20
-303.046349
 30
0.0
 11
-284.265416
 21
-303.046349
 31
0.0
  0
LINE
  5
5AB
100
AcDbEntity
  8
2
370
    50
100
AcDbLine
 10
-301.565416
 20
-291.046349
 30
0.0
 11
-284.965416
 21
-291.046349
 31
0.0
  0
LINE
  5
5AC
100
AcDbEntity
  8
2
370
    50
100
AcDbLine
 10
-289.265416
 20
-292.046349
 30
0.0
 11
-289.265416
 21
-302.046349
 31
0.0
  0
LINE
  5
5AD
100
AcDbEntity
  8
2
370
    50
100
AcDbLine
 10
-297.265416
 20
-292.046349
 30
0.0
 11
-297.265416
 21
-302.046349
 31
0.0
  0
ARC
  5
5AE
100
AcDbEntity
  8
2
370
    50
100
AcDbCircle
 10
-279.765416
 20
-290.046349
 30
0.0
 40
1.0
100
AcDbArc
 50
0.0
 51
90.0
  0
ARC
  5
5AF
100
AcDbEntity
  8
2
370
    50
100
AcDbCircle
 10
-279.765416
 20
-302.046349
 30
0.0
 40
1.0
100
AcDbArc
 50
270.0
 51
360.0
  0
LINE
  5
5B0
100
AcDbEntity
  8
2
370
    50
100
AcDbLine
 10
-279.765416
 20
-289.046349
 30
0.0
 11
-287.265416
 21
-289.046349
 31
0.0
  0
LINE
  5
5B1
100
AcDbEntity
  8
2
370
    50
100
AcDbLine
 10
-299.265416
 20
-289.046349
 30
0.0
 11
-306.765416
 21
-289.046349
 31
0.0
  0
LINE
  5
5B2
100
AcDbEntity
  8
2
370
    50
100
AcDbLine
 10
-279.765416
 20
-303.046349
 30
0.0
 11
-285.765416
 21
-303.046349
 31
0.0
  0
LINE
  5
5B3
100
AcDbEntity
  8
2
370
    50
100
AcDbLine
 10
-301.565416
 20
-303.046349
 30
0.0
 11
-306.765416
 21
-303.046349
 31
0.0
  0
LINE
  5
5B4
100
AcDbEntity
  8
2
370
    50
100
AcDbLine
 10
-301.565416
 20
-294.046349
 30
0.0
 11
-297.265416
 21
-294.046349
 31
0.0
  0
LINE
  5
5B5
100
AcDbEntity
  8
2
370
    50
100
AcDbLine
 10
-289.265416
 20
-294.046349
 30
0.0
 11
-284.965416
 21
-294.046349
 31
0.0
  0
LINE
  5
5B6
100
AcDbEntity
  8
2
370
    50
100
AcDbLine
 10
-301.965416
 20
-294.446349
 30
0.0
 11
-297.265416
 21
-294.446349
 31
0.0
  0
LINE
  5
5B7
100
AcDbEntity
  8
2
370
    50
100
AcDbLine
 10
-289.265416
 20
-294.446349
 30
0.0
 11
-284.565416
 21
-294.446349
 31
0.0
  0
LINE
  5
5B8
100
AcDbEntity
  8
2
370
    50
100
AcDbLine
 10
-302.165416
 20
-294.646349
 30
0.0
 11
-297.265416
 21
-294.646349
 31
0.0
  0
LINE
  5
5B9
100
AcDbEntity
  8
2
370
    50
100
AcDbLine
 10
-289.265416
 20
-294.646349
 30
0.0
 11
-284.365416
 21
-294.646349
 31
0.0
  0
LINE
  5
5BA
100
AcDbEntity
  8
2
370
    50
100
AcDbLine
 10
-302.165416
 20
-297.046349
 30
0.0
 11
-297.265416
 21
-297.046349
 31
0.0
  0
LINE
  5
5BB
100
AcDbEntity
  8
2
370
    50
100
AcDbLine
 10
-289.265416
 20
-297.046349
 30
0.0
 11
-284.365416
 21
-297.046349
 31
0.0
  0
LINE
  5
5BC
100
AcDbEntity
  8
2
370
    50
100
AcDbLine
 10
-301.565416
 20
-300.046349
 30
0.0
 11
-297.265416
 21
-300.046349
 31
0.0
  0
LINE
  5
5BD
100
AcDbEntity
  8
2
370
    50
100
AcDbLine
 10
-289.265416
 20
-300.046349
 30
0.0
 11
-284.965416
 21
-300.046349
 31
0.0
  0
ARC
  5
5BE
100
AcDbEntity
  8
2
370
    50
100
AcDbCircle
 10
-296.265416
 20
-292.046349
 30
0.0
 40
1.0
100
AcDbArc
 50
90.0
 51
180.0
  0
ARC
  5
5BF
100
AcDbEntity
  8
2
370
    50
100
AcDbCircle
 10
-290.265416
 20
-292.046349
 30
0.0
 40
1.0
100
AcDbArc
 50
0.0
 51
90.0
  0
ARC
  5
5C0
100
AcDbEntity
  8
2
370
    50
100
AcDbCircle
 10
-290.265416
 20
-302.046349
 30
0.0
 40
1.0
100
AcDbArc
 50
270.0
 51
0.0
  0
ARC
  5
5C1
100
AcDbEntity
  8
2
370
    50
100
AcDbCircle
 10
-296.265416
 20
-302.046349
 30
0.0
 40
1.0
100
AcDbArc
 50
180.0
 51
270.0
  0
LINE
  5
5C2
100
AcDbEntity
  8
2
370
    50
100
AcDbLine
 10
-284.965416
 20
-291.046349
 30
0.0
 11
-284.965416
 21
-294.046349
 31
0.0
  0
LINE
  5
5C3
100
AcDbEntity
  8
2
370
    50
100
AcDbLine
 10
-301.565416
 20
-291.046349
 30
0.0
 11
-301.565416
 21
-294.046349
 31
0.0
  0
LINE
  5
5C4
100
AcDbEntity
  8
2
370
    50
100
AcDbLine
 10
-301.565416
 20
-300.046349
 30
0.0
 11
-301.565416
 21
-303.046349
 31
0.0
  0
LINE
  5
5C5
100
AcDbEntity
  8
2
370
    50
100
AcDbLine
 10
-284.965416
 20
-300.046349
 30
0.0
 11
-284.965416
 21
-303.046349
 31
0.0
  0
LINE
  5
5C6
100
AcDbEntity
  8
2
370
    50
100
AcDbLine
 10
-285.765416
 20
-294.446349
 30
0.0
 11
-285.765416
 21
-294.046349
 31
0.0
  0
LINE
  5
5C7
100
AcDbEntity
  8
2
370
    50
100
AcDbLine
 10
-300.765416
 20
-294.446349
 30
0.0
 11
-300.765416
 21
-294.046349
 31
0.0
  0
LINE
  5
5C8
100
AcDbEntity
  8
2
370
    25
100
AcDbLine
 10
-288.265416
 20
-302.746932
 30
0.0
 11
-288.265416
 21
-300.44171
 31
0.0
  0
LINE
  5
5C9
100
AcDbEntity
  8
2
370
    25
100
AcDbLine
 10
-288.265416
 20
-293.785163
 30
0.0
 11
-288.265416
 21
-291.352958
 31
0.0
  0
LINE
  5
5CA
100
AcDbEntity
  8
2
370
    25
100
AcDbLine
 10
-298.265416
 20
-302.746932
 30
0.0
 11
-298.265416
 21
-300.44171
 31
0.0
  0
LINE
  5
5CB
100
AcDbEntity
  8
2
370
    25
100
AcDbLine
 10
-298.265416
 20
-293.742484
 30
0.0
 11
-298.265416
 21
-291.273437
 31
0.0
  0
LINE
  5
5CC
100
AcDbEntity
  8
2
370
    50
100
AcDbLine
 10
-284.465416
 20
-302.046349
 30
0.0
 11
-284.465416
 21
-299.446349
 31
0.0
  0
LINE
  5
5CD
100
AcDbEntity
  8
2
370
    50
100
AcDbLine
 10
-284.465416
 20
-294.546349
 30
0.0
 11
-284.465416
 21
-290.046349
 31
0.0
  0
LINE
  5
5CE
100
AcDbEntity
  8
2
370
    50
100
AcDbLine
 10
-302.065416
 20
-302.046349
 30
0.0
 11
-302.065416
 21
-299.446349
 31
0.0
  0
LINE
  5
5CF
100
AcDbEntity
  8
2
370
    50
100
AcDbLine
 10
-302.065416
 20
-294.546349
 30
0.0
 11
-302.065416
 21
-290.046349
 31
0.0
  0
ARC
  5
5D0
100
AcDbEntity
  8
2
370
    50
100
AcDbCircle
 10
-285.465416
 20
-290.046349
 30
0.0
 40
1.0
100
AcDbArc
 50
0.0
 51
90.0
  0
ARC
  5
5D1
100
AcDbEntity
  8
2
370
    50
100
AcDbCircle
 10
-301.065416
 20
-290.046349
 30
0.0
 40
1.0
100
AcDbArc
 50
90.0
 51
180.0
  0
ARC
  5
5D2
100
AcDbEntity
  8
2
370
    50
100
AcDbCircle
 10
-283.465416
 20
-302.046349
 30
0.0
 40
1.0
100
AcDbArc
 50
180.0
 51
270.0
  0
ARC
  5
5D3
100
AcDbEntity
  8
2
370
    50
100
AcDbCircle
 10
-303.065416
 20
-302.046349
 30
0.0
 40
1.0
100
AcDbArc
 50
270.0
 51
360.0
  0
LINE
  5
5D4
100
AcDbEntity
  8
2
370
    50
100
AcDbLine
 10
-300.765416
 20
-289.746349
 30
0.0
 11
-300.765416
 21
-291.045727
 31
0.0
  0
ARC
  5
5D5
100
AcDbEntity
  8
2
370
    50
100
AcDbCircle
 10
-301.065416
 20
-290.046349
 30
0.0
 40
1.0
100
AcDbArc
 50
90.0
 51
180.0
  0
LINE
  5
5D6
100
AcDbEntity
  8
2
370
    50
100
AcDbLine
 10
-300.765416
 20
-289.746349
 30
0.0
 11
-300.265416
 21
-289.246349
 31
0.0
  0
LINE
  5
5D7
100
AcDbEntity
  8
2
370
    50
100
AcDbLine
 10
-302.265416
 20
-297.446349
 30
0.0
 11
-302.265416
 21
-299.246349
 31
0.0
  0
LINE
  5
5D8
100
AcDbEntity
  8
2
370
    50
100
AcDbLine
 10
-284.265416
 20
-297.446349
 30
0.0
 11
-284.265416
 21
-299.246349
 31
0.0
  0
LINE
  5
5D9
100
AcDbEntity
  8
2
370
    50
100
AcDbLine
 10
-302.065416
 20
-297.246349
 30
0.0
 11
-302.265416
 21
-297.446349
 31
0.0
  0
LINE
  5
5DA
100
AcDbEntity
  8
2
370
    50
100
AcDbLine
 10
-302.265416
 20
-299.246349
 30
0.0
 11
-302.065416
 21
-299.446349
 31
0.0
  0
LINE
  5
5DB
100
AcDbEntity
  8
2
370
    50
100
AcDbLine
 10
-284.465416
 20
-297.246349
 30
0.0
 11
-284.265416
 21
-297.446349
 31
0.0
  0
LINE
  5
5DC
100
AcDbEntity
  8
2
370
    50
100
AcDbLine
 10
-284.265416
 20
-299.246349
 30
0.0
 11
-284.465416
 21
-299.446349
 31
0.0
  0
LINE
  5
5DD
100
AcDbEntity
  8
2
370
    50
100
AcDbLine
 10
-285.765416
 20
-303.446349
 30
0.0
 11
-285.765416
 21
-303.046349
 31
0.0
  0
LINE
  5
5DE
100
AcDbEntity
  8
2
370
    50
100
AcDbLine
 10
-285.765416
 20
-300.046349
 30
0.0
 11
-285.765416
 21
-299.446349
 31
0.0
  0
LINE
  5
5DF
100
AcDbEntity
  8
2
370
    50
100
AcDbLine
 10
-300.765416
 20
-303.446349
 30
0.0
 11
-300.765416
 21
-303.046349
 31
0.0
  0
LINE
  5
5E0
100
AcDbEntity
  8
2
370
    50
100
AcDbLine
 10
-300.765416
 20
-300.046349
 30
0.0
 11
-300.765416
 21
-299.446349
 31
0.0
  0
LINE
  5
5E1
100
AcDbEntity
  8
2
370
    50
100
AcDbLine
 10
-302.065416
 20
-299.446349
 30
0.0
 11
-297.265416
 21
-299.446349
 31
0.0
  0
LINE
  5
5E2
100
AcDbEntity
  8
2
370
    50
100
AcDbLine
 10
-289.265416
 20
-299.446349
 30
0.0
 11
-284.465416
 21
-299.446349
 31
0.0
  0
LINE
  5
5E3
100
AcDbEntity
  8
2
370
    50
100
AcDbLine
 10
-302.265416
 20
-299.246349
 30
0.0
 11
-297.265416
 21
-299.246349
 31
0.0
  0
LINE
  5
5E4
100
AcDbEntity
  8
2
370
    50
100
AcDbLine
 10
-289.265416
 20
-299.246349
 30
0.0
 11
-284.265416
 21
-299.246349
 31
0.0
  0
LINE
  5
5E5
100
AcDbEntity
  8
2
370
    50
100
AcDbLine
 10
-302.265416
 20
-297.446349
 30
0.0
 11
-297.265416
 21
-297.446349
 31
0.0
  0
LINE
  5
5E6
100
AcDbEntity
  8
2
370
    50
100
AcDbLine
 10
-289.265416
 20
-297.446349
 30
0.0
 11
-284.265416
 21
-297.446349
 31
0.0
  0
LINE
  5
5E7
100
AcDbEntity
  8
2
370
    50
100
AcDbLine
 10
-302.065416
 20
-297.246349
 30
0.0
 11
-297.265416
 21
-297.246349
 31
0.0
  0
LINE
  5
5E8
100
AcDbEntity
  8
2
370
    50
100
AcDbLine
 10
-289.265416
 20
-297.246349
 30
0.0
 11
-284.465416
 21
-297.246349
 31
0.0
  0
LINE
  5
5E9
100
AcDbEntity
  8
2
370
    25
100
AcDbLine
 10
-299.765276
 20
-303.045727
 30
0.0
 11
-299.765276
 21
-300.045727
 31
0.0
  0
LINE
  5
5EA
100
AcDbEntity
  8
2
370
    25
100
AcDbLine
 10
-286.765556
 20
-294.046349
 30
0.0
 11
-286.765556
 21
-291.046349
 31
0.0
  0
LINE
  5
5EB
100
AcDbEntity
  8
2
370
    25
100
AcDbLine
 10
-299.765276
 20
-294.046349
 30
0.0
 11
-299.765276
 21
-291.046349
 31
0.0
  0
LINE
  5
5EC
100
AcDbEntity
  8
2
370
    50
100
AcDbLine
 10
-307.765416
 20
-290.046349
 30
0.0
 11
-307.765416
 21
-302.046349
 31
0.0
  0
ARC
  5
5ED
100
AcDbEntity
  8
2
370
    50
100
AcDbCircle
 10
-306.765416
 20
-290.046349
 30
0.0
 40
1.0
100
AcDbArc
 50
90.0
 51
180.0
  0
ARC
  5
5EE
100
AcDbEntity
  8
2
370
    50
100
AcDbCircle
 10
-306.765416
 20
-302.046349
 30
0.0
 40
1.0
100
AcDbArc
 50
180.0
 51
270.0
  0
LINE
  5
5EF
100
AcDbEntity
  8
2
370
    50
100
AcDbLine
 10
-278.765416
 20
-290.046349
 30
0.0
 11
-278.765416
 21
-302.046349
 31
0.0
  0
LINE
  5
5F0
100
AcDbEntity
  8
2
370
    25
100
AcDbLine
 10
-288.329287
 20
-284.746349
 30
0.0
 11
-288.329287
 21
-283.496349
 31
0.0
  0
LINE
  5
5F1
100
AcDbEntity
  8
2
370
    25
100
AcDbLine
 10
-289.036394
 20
-284.746349
 30
0.0
 11
-289.036394
 21
-283.496349
 31
0.0
  0
LINE
  5
5F2
100
AcDbEntity
  8
2
370
    25
100
AcDbLine
 10
-292.765416
 20
-284.746349
 30
0.0
 11
-292.765416
 21
-283.496349
 31
0.0
  0
LINE
  5
5F3
100
AcDbEntity
  8
2
370
    25
100
AcDbLine
 10
-293.765416
 20
-284.746349
 30
0.0
 11
-293.765416
 21
-283.496349
 31
0.0
  0
LINE
  5
5F4
100
AcDbEntity
  8
2
370
    25
100
AcDbLine
 10
-297.494438
 20
-284.746349
 30
0.0
 11
-297.494438
 21
-283.496349
 31
0.0
  0
LINE
  5
5F5
100
AcDbEntity
  8
2
370
    25
100
AcDbLine
 10
-298.201545
 20
-284.746349
 30
0.0
 11
-298.201545
 21
-283.496349
 31
0.0
  0
LINE
  5
5F6
100
AcDbEntity
  8
2
370
    50
100
AcDbLine
 10
-284.26521
 20
-303.445601
 30
0.0
 11
-283.26521
 21
-304.445601
 31
0.0
  0
LINE
  5
5F7
100
AcDbEntity
  8
2
370
    50
100
AcDbLine
 10
-302.26521
 20
-303.445601
 30
0.0
 11
-303.26521
 21
-304.445601
 31
0.0
  0
LINE
  5
5F8
100
AcDbEntity
  8
2
370
    50
100
AcDbLine
 10
-302.26521
 20
-303.445601
 30
0.0
 11
-284.26521
 21
-303.445601
 31
0.0
  0
LINE
  5
5F9
100
AcDbEntity
  8
2
370
    50
100
AcDbLine
 10
-283.26521
 20
-304.445601
 30
0.0
 11
-303.26521
 21
-304.445601
 31
0.0
  0
LINE
  5
5FA
100
AcDbEntity
  8
2
370
    50
100
AcDbLine
 10
-285.76521
 20
-303.445601
 30
0.0
 11
-285.76521
 21
-303.045601
 31
0.0
  0
LINE
  5
5FB
100
AcDbEntity
  8
2
370
    50
100
AcDbLine
 10
-300.76521
 20
-303.445601
 30
0.0
 11
-300.76521
 21
-303.045601
 31
0.0
  0
LINE
  5
5FC
100
AcDbEntity
  8
2
370
    50
100
AcDbLine
 10
-283.26521
 20
-304.445601
 30
0.0
 11
-283.26521
 21
-313.245601
 31
0.0
  0
LINE
  5
5FD
100
AcDbEntity
  8
2
370
    50
100
AcDbLine
 10
-303.26521
 20
-304.445601
 30
0.0
 11
-303.26521
 21
-313.245601
 31
0.0
  0
POINT
  5
5FE
100
AcDbEntity
  8
2
370
    50
100
AcDbPoint
 10
-293.265416
 20
-303.446349
 30
0.0
  0
POINT
  5
5FF
100
AcDbEntity
  8
2
370
    50
100
AcDbPoint
 10
-293.26521
 20
-303.445601
 30
0.0
  0
LINE
  5
600
100
AcDbEntity
  8
2
370
    50
100
AcDbLine
 10
-303.592078
 20
-313.245601
 30
0.0
 11
-281.26521
 21
-313.245601
 31
0.0
  0
LINE
  5
601
100
AcDbEntity
  8
2
370
    50
100
AcDbLine
 10
-279.408804
 20
-315.102007
 30
0.0
 11
-279.408804
 21
-322.389194
 31
0.0
  0
LINE
  5
602
100
AcDbEntity
  8
2
370
    50
100
AcDbLine
 10
-307.121617
 20
-322.389194
 30
0.0
 11
-307.121617
 21
-315.102007
 31
0.0
  0
LINE
  5
603
100
AcDbEntity
  8
2
370
    50
100
AcDbLine
 10
-305.26521
 20
-324.245601
 30
0.0
 11
-281.26521
 21
-324.245601
 31
0.0
  0
LINE
  5
604
100
AcDbEntity
  8
2
370
    50
100
AcDbLine
 10
-286.337007
 20
-322.389194
 30
0.0
 11
-286.337007
 21
-315.102007
 31
0.0
  0
LINE
  5
605
100
AcDbEntity
  8
2
370
    50
100
AcDbLine
 10
-300.193414
 20
-322.389194
 30
0.0
 11
-300.193414
 21
-315.102007
 31
0.0
  0
LINE
  5
606
100
AcDbEntity
  8
2
370
    50
100
AcDbLine
 10
-305.26521
 20
-313.245601
 30
0.0
 11
-281.26521
 21
-313.245601
 31
0.0
  0
LINE
  5
607
100
AcDbEntity
  8
2
370
    50
100
AcDbLine
 10
-281.26521
 20
-313.245601
 30
0.0
 11
-279.408804
 21
-315.102007
 31
0.0
  0
LINE
  5
608
100
AcDbEntity
  8
2
370
    50
100
AcDbLine
 10
-305.26521
 20
-324.245601
 30
0.0
 11
-307.121617
 21
-322.389194
 31
0.0
  0
LINE
  5
609
100
AcDbEntity
  8
2
370
    50
100
AcDbLine
 10
-305.26521
 20
-313.245601
 30
0.0
 11
-307.121617
 21
-315.102007
 31
0.0
  0
LINE
  5
60A
100
AcDbEntity
  8
2
370
    50
100
AcDbLine
 10
-281.26521
 20
-324.245601
 30
0.0
 11
-279.408804
 21
-322.389194
 31
0.0
  0
ARC
  5
60B
100
AcDbEntity
  8
2
370
    50
100
AcDbCircle
 10
-293.26521
 20
-327.102007
 30
0.0
 40
13.856406
100
AcDbArc
 50
60.0
 51
120.0
  0
ARC
  5
60C
100
AcDbEntity
  8
2
370
    50
100
AcDbCircle
 10
-293.26521
 20
-310.389194
 30
0.0
 40
13.856406
100
AcDbArc
 50
240.0
 51
300.0
  0
ARC
  5
60D
100
AcDbEntity
  8
2
370
    50
100
AcDbCircle
 10
-282.938343
 20
-317.2849
 30
0.0
 40
4.039299
100
AcDbArc
 50
45.0
 51
147.288191
  0
ARC
  5
60E
100
AcDbEntity
  8
2
370
    50
100
AcDbCircle
 10
-282.938343
 20
-320.206301
 30
0.0
 40
4.039299
100
AcDbArc
 50
212.711809
 51
315.0
  0
ARC
  5
60F
100
AcDbEntity
  8
2
370
    50
100
AcDbCircle
 10
-303.592078
 20
-317.2849
 30
0.0
 40
4.039299
100
AcDbArc
 50
32.711809
 51
135.0
  0
ARC
  5
610
100
AcDbEntity
  8
2
370
    50
100
AcDbCircle
 10
-303.592078
 20
-320.206301
 30
0.0
 40
4.039299
100
AcDbArc
 50
225.0
 51
327.288191
  0
POINT
  5
611
100
AcDbEntity
  8
2
370
    50
100
AcDbPoint
 10
-293.265416
 20
-317.245601
 30
0.0
  0
LINE
  5
612
100
AcDbEntity
  8
2
370
    25
  6
CENTER
100
AcDbLine
 10
-347.953259
 20
-239.66636
 30
0.0
 11
-293.265416
 21
-215.643786
 31
0.0
  0
LINE
  5
613
100
AcDbEntity
  8
2
370
    25
  6
CENTER
100
AcDbLine
 10
-363.953259
 20
-239.66636
 30
0.0
 11
-418.641101
 21
-215.643786
 31
0.0
  0
LINE
  5
614
100
AcDbEntity
  8
2
370
    25
  6
CENTER
100
AcDbLine
 10
-418.641101
 20
-215.643786
 30
0.0
 11
-418.641101
 21
-236.013702
 31
0.0
  0
LINE
  5
615
100
AcDbEntity
  8
2
370
    50
100
AcDbLine
 10
88.454872
 20
-145.849298
 30
0.0
 11
88.454872
 21
-158.849298
 31
0.0
  0
LINE
  5
616
100
AcDbEntity
  8
2
370
    50
100
AcDbLine
 10
98.454872
 20
-145.849298
 30
0.0
 11
98.454872
 21
-158.849298
 31
0.0
  0
LINE
  5
617
100
AcDbEntity
  8
2
370
    50
100
AcDbLine
 10
93.454872
 20
-158.849298
 30
0.0
 11
99.204872
 21
-158.849298
 31
0.0
  0
LINE
  5
618
100
AcDbEntity
  8
2
370
    50
100
AcDbLine
 10
93.454872
 20
-174.349298
 30
0.0
 11
99.204872
 21
-174.349298
 31
0.0
  0
LINE
  5
619
100
AcDbEntity
  8
2
370
    50
100
AcDbLine
 10
99.704872
 20
-159.349298
 30
0.0
 11
99.704872
 21
-173.849298
 31
0.0
  0
LINE
  5
61A
100
AcDbEntity
  8
2
370
    50
100
AcDbLine
 10
99.704872
 20
-159.349298
 30
0.0
 11
99.204872
 21
-158.849298
 31
0.0
  0
LINE
  5
61B
100
AcDbEntity
  8
2
370
    50
100
AcDbLine
 10
99.704872
 20
-173.849298
 30
0.0
 11
99.204872
 21
-174.349298
 31
0.0
  0
LINE
  5
61C
100
AcDbEntity
  8
2
370
    50
100
AcDbLine
 10
97.776025
 20
-173.849298
 30
0.0
 11
95.204872
 21
-173.849298
 31
0.0
  0
LINE
  5
61D
100
AcDbEntity
  8
2
370
    50
100
AcDbLine
 10
97.776025
 20
-159.349298
 30
0.0
 11
95.204872
 21
-159.349298
 31
0.0
  0
LINE
  5
61E
100
AcDbEntity
  8
2
370
    50
100
AcDbLine
 10
99.526025
 20
-159.349298
 30
0.0
 11
99.526025
 21
-173.849298
 31
0.0
  0
LINE
  5
61F
100
AcDbEntity
  8
2
370
    50
100
AcDbLine
 10
97.776025
 20
-159.349298
 30
0.0
 11
97.776025
 21
-173.849298
 31
0.0
  0
LINE
  5
620
100
AcDbEntity
  8
2
370
    50
100
AcDbLine
 10
95.204872
 20
-159.349298
 30
0.0
 11
95.204872
 21
-173.849298
 31
0.0
  0
LINE
  5
621
100
AcDbEntity
  8
2
370
    50
100
AcDbLine
 10
99.704872
 20
-173.849298
 30
0.0
 11
99.526025
 21
-173.849298
 31
0.0
  0
LINE
  5
622
100
AcDbEntity
  8
2
370
    50
100
AcDbLine
 10
99.704872
 20
-159.349298
 30
0.0
 11
99.526025
 21
-159.349298
 31
0.0
  0
ARC
  5
623
100
AcDbEntity
  8
2
370
    50
100
AcDbCircle
 10
93.454872
 20
-165.349298
 30
0.0
 40
6.25
100
AcDbArc
 50
73.739795
 51
90.0
  0
ARC
  5
624
100
AcDbEntity
  8
2
370
    50
100
AcDbCircle
 10
98.651025
 20
-160.755548
 30
0.0
 40
1.65625
100
AcDbArc
 50
58.109208
 51
121.890792
  0
ARC
  5
625
100
AcDbEntity
  8
2
370
    50
100
AcDbCircle
 10
98.651025
 20
-172.443048
 30
0.0
 40
1.65625
100
AcDbArc
 50
238.109208
 51
301.890792
  0
ARC
  5
626
100
AcDbEntity
  8
2
370
    50
100
AcDbCircle
 10
93.454872
 20
-167.849298
 30
0.0
 40
6.25
100
AcDbArc
 50
270.0
 51
286.260205
  0
LINE
  5
627
100
AcDbEntity
  8
2
370
    50
100
AcDbLine
 10
93.454872
 20
-158.849298
 30
0.0
 11
87.704872
 21
-158.849298
 31
0.0
  0
LINE
  5
628
100
AcDbEntity
  8
2
370
    50
100
AcDbLine
 10
93.454872
 20
-174.349298
 30
0.0
 11
87.704872
 21
-174.349298
 31
0.0
  0
LINE
  5
629
100
AcDbEntity
  8
2
370
    50
100
AcDbLine
 10
87.204872
 20
-159.349298
 30
0.0
 11
87.204872
 21
-173.849298
 31
0.0
  0
LINE
  5
62A
100
AcDbEntity
  8
2
370
    50
100
AcDbLine
 10
87.204872
 20
-159.349298
 30
0.0
 11
87.704872
 21
-158.849298
 31
0.0
  0
LINE
  5
62B
100
AcDbEntity
  8
2
370
    50
100
AcDbLine
 10
87.204872
 20
-173.849298
 30
0.0
 11
87.704872
 21
-174.349298
 31
0.0
  0
LINE
  5
62C
100
AcDbEntity
  8
2
370
    50
100
AcDbLine
 10
89.13372
 20
-173.849298
 30
0.0
 11
91.704872
 21
-173.849298
 31
0.0
  0
LINE
  5
62D
100
AcDbEntity
  8
2
370
    50
100
AcDbLine
 10
89.13372
 20
-159.349298
 30
0.0
 11
91.704872
 21
-159.349298
 31
0.0
  0
LINE
  5
62E
100
AcDbEntity
  8
2
370
    50
100
AcDbLine
 10
87.38372
 20
-159.349298
 30
0.0
 11
87.38372
 21
-173.849298
 31
0.0
  0
LINE
  5
62F
100
AcDbEntity
  8
2
370
    50
100
AcDbLine
 10
89.13372
 20
-159.349298
 30
0.0
 11
89.13372
 21
-173.849298
 31
0.0
  0
LINE
  5
630
100
AcDbEntity
  8
2
370
    50
100
AcDbLine
 10
91.704872
 20
-159.349298
 30
0.0
 11
91.704872
 21
-173.849298
 31
0.0
  0
LINE
  5
631
100
AcDbEntity
  8
2
370
    50
100
AcDbLine
 10
87.204872
 20
-173.849298
 30
0.0
 11
87.38372
 21
-173.849298
 31
0.0
  0
LINE
  5
632
100
AcDbEntity
  8
2
370
    50
100
AcDbLine
 10
87.204872
 20
-159.349298
 30
0.0
 11
87.38372
 21
-159.349298
 31
0.0
  0
ARC
  5
633
100
AcDbEntity
  8
2
370
    50
100
AcDbCircle
 10
93.454872
 20
-165.349298
 30
0.0
 40
6.25
100
AcDbArc
 50
90.0
 51
106.260205
  0
ARC
  5
634
100
AcDbEntity
  8
2
370
    50
100
AcDbCircle
 10
88.25872
 20
-160.755548
 30
0.0
 40
1.65625
100
AcDbArc
 50
58.109208
 51
121.890792
  0
ARC
  5
635
100
AcDbEntity
  8
2
370
    50
100
AcDbCircle
 10
88.25872
 20
-172.443048
 30
0.0
 40
1.65625
100
AcDbArc
 50
238.109208
 51
301.890792
  0
ARC
  5
636
100
AcDbEntity
  8
2
370
    50
100
AcDbCircle
 10
93.454872
 20
-167.849298
 30
0.0
 40
6.25
100
AcDbArc
 50
253.739795
 51
270.0
  0
LINE
  5
637
100
AcDbEntity
  8
2
370
    50
100
AcDbLine
 10
87.454872
 20
-179.960623
 30
0.0
 11
87.454872
 21
-174.637973
 31
0.0
  0
LINE
  5
638
100
AcDbEntity
  8
2
370
    50
100
AcDbLine
 10
99.454872
 20
-179.960623
 30
0.0
 11
99.454872
 21
-174.637973
 31
0.0
  0
LINE
  5
639
100
AcDbEntity
  8
2
370
    50
100
AcDbLine
 10
95.852788
 20
-174.637973
 30
0.0
 11
95.852788
 21
-179.960623
 31
0.0
  0
LINE
  5
63A
100
AcDbEntity
  8
2
370
    50
100
AcDbLine
 10
97.019054
 20
-174.637973
 30
0.0
 11
97.019054
 21
-179.960623
 31
0.0
  0
LINE
  5
63B
100
AcDbEntity
  8
2
370
    50
100
AcDbLine
 10
99.41697
 20
-174.637973
 30
0.0
 11
99.41697
 21
-179.960623
 31
0.0
  0
LINE
  5
63C
100
AcDbEntity
  8
2
370
    50
100
AcDbLine
 10
98.954872
 20
-174.349298
 30
0.0
 11
87.954872
 21
-174.349298
 31
0.0
  0
LINE
  5
63D
100
AcDbEntity
  8
2
370
    50
100
AcDbLine
 10
98.954872
 20
-180.249298
 30
0.0
 11
99.454872
 21
-179.960623
 31
0.0
  0
LINE
  5
63E
100
AcDbEntity
  8
2
370
    50
100
AcDbLine
 10
97.019054
 20
-179.960623
 30
0.0
 11
95.852788
 21
-179.960623
 31
0.0
  0
LINE
  5
63F
100
AcDbEntity
  8
2
370
    50
100
AcDbLine
 10
87.454872
 20
-179.960623
 30
0.0
 11
87.954872
 21
-180.249298
 31
0.0
  0
LINE
  5
640
100
AcDbEntity
  8
2
370
    50
100
AcDbLine
 10
87.454872
 20
-174.637973
 30
0.0
 11
87.954872
 21
-174.349298
 31
0.0
  0
ARC
  5
641
100
AcDbEntity
  8
2
370
    50
100
AcDbCircle
 10
93.454872
 20
-170.145668
 30
0.0
 40
10.10363
100
AcDbArc
 50
270.0
 51
283.729133
  0
ARC
  5
642
100
AcDbEntity
  8
2
370
    50
100
AcDbCircle
 10
93.454872
 20
-184.452927
 30
0.0
 40
10.10363
100
AcDbArc
 50
76.270867
 51
90.0
  0
LINE
  5
643
100
AcDbEntity
  8
2
370
    50
100
AcDbLine
 10
97.019054
 20
-174.637973
 30
0.0
 11
95.852788
 21
-174.637973
 31
0.0
  0
LINE
  5
644
100
AcDbEntity
  8
2
370
    50
100
AcDbLine
 10
99.454872
 20
-179.960623
 30
0.0
 11
99.41697
 21
-179.960623
 31
0.0
  0
ARC
  5
645
100
AcDbEntity
  8
2
370
    50
100
AcDbCircle
 10
98.218012
 20
-177.615137
 30
0.0
 40
2.634161
100
AcDbArc
 50
242.924933
 51
297.075067
  0
ARC
  5
646
100
AcDbEntity
  8
2
370
    50
100
AcDbCircle
 10
98.218012
 20
-176.983458
 30
0.0
 40
2.634161
100
AcDbArc
 50
62.924933
 51
117.075067
  0
LINE
  5
647
100
AcDbEntity
  8
2
370
    50
100
AcDbLine
 10
98.954872
 20
-174.349298
 30
0.0
 11
99.454872
 21
-174.637973
 31
0.0
  0
LINE
  5
648
100
AcDbEntity
  8
2
370
    50
100
AcDbLine
 10
99.454872
 20
-174.637973
 30
0.0
 11
99.41697
 21
-174.637973
 31
0.0
  0
ARC
  5
649
100
AcDbEntity
  8
2
370
    50
100
AcDbCircle
 10
93.454872
 20
-170.145668
 30
0.0
 40
10.10363
100
AcDbArc
 50
256.270867
 51
270.0
  0
LINE
  5
64A
100
AcDbEntity
  8
2
370
    50
100
AcDbLine
 10
89.89069
 20
-179.960623
 30
0.0
 11
91.056956
 21
-179.960623
 31
0.0
  0
LINE
  5
64B
100
AcDbEntity
  8
2
370
    50
100
AcDbLine
 10
91.056957
 20
-174.637973
 30
0.0
 11
91.056956
 21
-179.960623
 31
0.0
  0
LINE
  5
64C
100
AcDbEntity
  8
2
370
    50
100
AcDbLine
 10
89.89069
 20
-174.637973
 30
0.0
 11
89.89069
 21
-179.960623
 31
0.0
  0
ARC
  5
64D
100
AcDbEntity
  8
2
370
    50
100
AcDbCircle
 10
88.691732
 20
-177.615137
 30
0.0
 40
2.634161
100
AcDbArc
 50
242.924933
 51
297.075067
  0
LINE
  5
64E
100
AcDbEntity
  8
2
370
    50
100
AcDbLine
 10
87.492774
 20
-174.637973
 30
0.0
 11
87.492774
 21
-179.960623
 31
0.0
  0
LINE
  5
64F
100
AcDbEntity
  8
2
370
    50
100
AcDbLine
 10
87.492774
 20
-179.960623
 30
0.0
 11
87.454872
 21
-179.960623
 31
0.0
  0
ARC
  5
650
100
AcDbEntity
  8
2
370
    50
100
AcDbCircle
 10
93.454872
 20
-184.452927
 30
0.0
 40
10.10363
100
AcDbArc
 50
90.0
 51
103.729133
  0
LINE
  5
651
100
AcDbEntity
  8
2
370
    50
100
AcDbLine
 10
89.89069
 20
-174.637973
 30
0.0
 11
91.056956
 21
-174.637973
 31
0.0
  0
ARC
  5
652
100
AcDbEntity
  8
2
370
    50
100
AcDbCircle
 10
88.691732
 20
-176.983458
 30
0.0
 40
2.634161
100
AcDbArc
 50
62.924933
 51
117.075067
  0
POINT
  5
653
100
AcDbEntity
  8
2
370
    50
100
AcDbPoint
 10
93.454872
 20
-145.849298
 30
0.0
  0
LINE
  5
654
100
AcDbEntity
  8
2
370
    50
100
AcDbLine
 10
93.454872
 20
-158.849298
 30
0.0
 11
99.204872
 21
-158.849298
 31
0.0
  0
LINE
  5
655
100
AcDbEntity
  8
2
370
    50
100
AcDbLine
 10
93.454872
 20
-174.349298
 30
0.0
 11
99.204872
 21
-174.349298
 31
0.0
  0
LINE
  5
656
100
AcDbEntity
  8
2
370
    50
100
AcDbLine
 10
99.704872
 20
-159.349298
 30
0.0
 11
99.704872
 21
-173.849298
 31
0.0
  0
LINE
  5
657
100
AcDbEntity
  8
2
370
    50
100
AcDbLine
 10
99.704872
 20
-159.349298
 30
0.0
 11
99.204872
 21
-158.849298
 31
0.0
  0
LINE
  5
658
100
AcDbEntity
  8
2
370
    50
100
AcDbLine
 10
99.704872
 20
-173.849298
 30
0.0
 11
99.204872
 21
-174.349298
 31
0.0
  0
LINE
  5
659
100
AcDbEntity
  8
2
370
    50
100
AcDbLine
 10
97.776025
 20
-173.849298
 30
0.0
 11
95.204872
 21
-173.849298
 31
0.0
  0
LINE
  5
65A
100
AcDbEntity
  8
2
370
    50
100
AcDbLine
 10
97.776025
 20
-159.349298
 30
0.0
 11
95.204872
 21
-159.349298
 31
0.0
  0
LINE
  5
65B
100
AcDbEntity
  8
2
370
    50
100
AcDbLine
 10
99.526025
 20
-159.349298
 30
0.0
 11
99.526025
 21
-173.849298
 31
0.0
  0
LINE
  5
65C
100
AcDbEntity
  8
2
370
    50
100
AcDbLine
 10
97.776025
 20
-159.349298
 30
0.0
 11
97.776025
 21
-173.849298
 31
0.0
  0
LINE
  5
65D
100
AcDbEntity
  8
2
370
    50
100
AcDbLine
 10
95.204872
 20
-159.349298
 30
0.0
 11
95.204872
 21
-173.849298
 31
0.0
  0
LINE
  5
65E
100
AcDbEntity
  8
2
370
    50
100
AcDbLine
 10
99.704872
 20
-173.849298
 30
0.0
 11
99.526025
 21
-173.849298
 31
0.0
  0
LINE
  5
65F
100
AcDbEntity
  8
2
370
    50
100
AcDbLine
 10
99.704872
 20
-159.349298
 30
0.0
 11
99.526025
 21
-159.349298
 31
0.0
  0
ARC
  5
660
100
AcDbEntity
  8
2
370
    50
100
AcDbCircle
 10
93.454872
 20
-165.349298
 30
0.0
 40
6.25
100
AcDbArc
 50
73.739795
 51
90.0
  0
ARC
  5
661
100
AcDbEntity
  8
2
370
    50
100
AcDbCircle
 10
98.651025
 20
-160.755548
 30
0.0
 40
1.65625
100
AcDbArc
 50
58.109208
 51
121.890792
  0
ARC
  5
662
100
AcDbEntity
  8
2
370
    50
100
AcDbCircle
 10
98.651025
 20
-172.443048
 30
0.0
 40
1.65625
100
AcDbArc
 50
238.109208
 51
301.890792
  0
ARC
  5
663
100
AcDbEntity
  8
2
370
    50
100
AcDbCircle
 10
93.454872
 20
-167.849298
 30
0.0
 40
6.25
100
AcDbArc
 50
270.0
 51
286.260205
  0
LINE
  5
664
100
AcDbEntity
  8
2
370
    50
100
AcDbLine
 10
93.454872
 20
-158.849298
 30
0.0
 11
87.704872
 21
-158.849298
 31
0.0
  0
LINE
  5
665
100
AcDbEntity
  8
2
370
    50
100
AcDbLine
 10
93.454872
 20
-174.349298
 30
0.0
 11
87.704872
 21
-174.349298
 31
0.0
  0
LINE
  5
666
100
AcDbEntity
  8
2
370
    50
100
AcDbLine
 10
87.204872
 20
-159.349298
 30
0.0
 11
87.204872
 21
-173.849298
 31
0.0
  0
LINE
  5
667
100
AcDbEntity
  8
2
370
    50
100
AcDbLine
 10
87.204872
 20
-159.349298
 30
0.0
 11
87.704872
 21
-158.849298
 31
0.0
  0
LINE
  5
668
100
AcDbEntity
  8
2
370
    50
100
AcDbLine
 10
87.204872
 20
-173.849298
 30
0.0
 11
87.704872
 21
-174.349298
 31
0.0
  0
LINE
  5
669
100
AcDbEntity
  8
2
370
    50
100
AcDbLine
 10
89.13372
 20
-173.849298
 30
0.0
 11
91.704872
 21
-173.849298
 31
0.0
  0
LINE
  5
66A
100
AcDbEntity
  8
2
370
    50
100
AcDbLine
 10
89.13372
 20
-159.349298
 30
0.0
 11
91.704872
 21
-159.349298
 31
0.0
  0
LINE
  5
66B
100
AcDbEntity
  8
2
370
    50
100
AcDbLine
 10
87.38372
 20
-159.349298
 30
0.0
 11
87.38372
 21
-173.849298
 31
0.0
  0
LINE
  5
66C
100
AcDbEntity
  8
2
370
    50
100
AcDbLine
 10
89.13372
 20
-159.349298
 30
0.0
 11
89.13372
 21
-173.849298
 31
0.0
  0
LINE
  5
66D
100
AcDbEntity
  8
2
370
    50
100
AcDbLine
 10
91.704872
 20
-159.349298
 30
0.0
 11
91.704872
 21
-173.849298
 31
0.0
  0
LINE
  5
66E
100
AcDbEntity
  8
2
370
    50
100
AcDbLine
 10
87.204872
 20
-173.849298
 30
0.0
 11
87.38372
 21
-173.849298
 31
0.0
  0
LINE
  5
66F
100
AcDbEntity
  8
2
370
    50
100
AcDbLine
 10
87.204872
 20
-159.349298
 30
0.0
 11
87.38372
 21
-159.349298
 31
0.0
  0
ARC
  5
670
100
AcDbEntity
  8
2
370
    50
100
AcDbCircle
 10
93.454872
 20
-165.349298
 30
0.0
 40
6.25
100
AcDbArc
 50
90.0
 51
106.260205
  0
ARC
  5
671
100
AcDbEntity
  8
2
370
    50
100
AcDbCircle
 10
88.25872
 20
-160.755548
 30
0.0
 40
1.65625
100
AcDbArc
 50
58.109208
 51
121.890792
  0
ARC
  5
672
100
AcDbEntity
  8
2
370
    50
100
AcDbCircle
 10
88.25872
 20
-172.443048
 30
0.0
 40
1.65625
100
AcDbArc
 50
238.109208
 51
301.890792
  0
ARC
  5
673
100
AcDbEntity
  8
2
370
    50
100
AcDbCircle
 10
93.454872
 20
-167.849298
 30
0.0
 40
6.25
100
AcDbArc
 50
253.739795
 51
270.0
  0
LINE
  5
674
100
AcDbEntity
  8
2
370
    50
100
AcDbLine
 10
87.454872
 20
-179.960623
 30
0.0
 11
87.454872
 21
-174.637973
 31
0.0
  0
LINE
  5
675
100
AcDbEntity
  8
2
370
    50
100
AcDbLine
 10
99.454872
 20
-179.960623
 30
0.0
 11
99.454872
 21
-174.637973
 31
0.0
  0
LINE
  5
676
100
AcDbEntity
  8
2
370
    50
100
AcDbLine
 10
95.852788
 20
-174.637973
 30
0.0
 11
95.852788
 21
-179.960623
 31
0.0
  0
LINE
  5
677
100
AcDbEntity
  8
2
370
    50
100
AcDbLine
 10
97.019054
 20
-174.637973
 30
0.0
 11
97.019054
 21
-179.960623
 31
0.0
  0
LINE
  5
678
100
AcDbEntity
  8
2
370
    50
100
AcDbLine
 10
99.41697
 20
-174.637973
 30
0.0
 11
99.41697
 21
-179.960623
 31
0.0
  0
LINE
  5
679
100
AcDbEntity
  8
2
370
    50
100
AcDbLine
 10
98.954872
 20
-174.349298
 30
0.0
 11
87.954872
 21
-174.349298
 31
0.0
  0
LINE
  5
67A
100
AcDbEntity
  8
2
370
    50
100
AcDbLine
 10
98.954872
 20
-180.249298
 30
0.0
 11
99.454872
 21
-179.960623
 31
0.0
  0
LINE
  5
67B
100
AcDbEntity
  8
2
370
    50
100
AcDbLine
 10
97.019054
 20
-179.960623
 30
0.0
 11
95.852788
 21
-179.960623
 31
0.0
  0
LINE
  5
67C
100
AcDbEntity
  8
2
370
    50
100
AcDbLine
 10
87.454872
 20
-179.960623
 30
0.0
 11
87.954872
 21
-180.249298
 31
0.0
  0
LINE
  5
67D
100
AcDbEntity
  8
2
370
    50
100
AcDbLine
 10
87.454872
 20
-174.637973
 30
0.0
 11
87.954872
 21
-174.349298
 31
0.0
  0
ARC
  5
67E
100
AcDbEntity
  8
2
370
    50
100
AcDbCircle
 10
93.454872
 20
-170.145668
 30
0.0
 40
10.10363
100
AcDbArc
 50
270.0
 51
283.729133
  0
ARC
  5
67F
100
AcDbEntity
  8
2
370
    50
100
AcDbCircle
 10
93.454872
 20
-184.452927
 30
0.0
 40
10.10363
100
AcDbArc
 50
76.270867
 51
90.0
  0
LINE
  5
680
100
AcDbEntity
  8
2
370
    50
100
AcDbLine
 10
97.019054
 20
-174.637973
 30
0.0
 11
95.852788
 21
-174.637973
 31
0.0
  0
LINE
  5
681
100
AcDbEntity
  8
2
370
    50
100
AcDbLine
 10
99.454872
 20
-179.960623
 30
0.0
 11
99.41697
 21
-179.960623
 31
0.0
  0
ARC
  5
682
100
AcDbEntity
  8
2
370
    50
100
AcDbCircle
 10
98.218012
 20
-177.615137
 30
0.0
 40
2.634161
100
AcDbArc
 50
242.924933
 51
297.075067
  0
ARC
  5
683
100
AcDbEntity
  8
2
370
    50
100
AcDbCircle
 10
98.218012
 20
-176.983458
 30
0.0
 40
2.634161
100
AcDbArc
 50
62.924933
 51
117.075067
  0
LINE
  5
684
100
AcDbEntity
  8
2
370
    50
100
AcDbLine
 10
98.954872
 20
-174.349298
 30
0.0
 11
99.454872
 21
-174.637973
 31
0.0
  0
LINE
  5
685
100
AcDbEntity
  8
2
370
    50
100
AcDbLine
 10
99.454872
 20
-174.637973
 30
0.0
 11
99.41697
 21
-174.637973
 31
0.0
  0
ARC
  5
686
100
AcDbEntity
  8
2
370
    50
100
AcDbCircle
 10
93.454872
 20
-170.145668
 30
0.0
 40
10.10363
100
AcDbArc
 50
256.270867
 51
270.0
  0
LINE
  5
687
100
AcDbEntity
  8
2
370
    50
100
AcDbLine
 10
89.89069
 20
-179.960623
 30
0.0
 11
91.056956
 21
-179.960623
 31
0.0
  0
LINE
  5
688
100
AcDbEntity
  8
2
370
    50
100
AcDbLine
 10
91.056957
 20
-174.637973
 30
0.0
 11
91.056956
 21
-179.960623
 31
0.0
  0
LINE
  5
689
100
AcDbEntity
  8
2
370
    50
100
AcDbLine
 10
89.89069
 20
-174.637973
 30
0.0
 11
89.89069
 21
-179.960623
 31
0.0
  0
ARC
  5
68A
100
AcDbEntity
  8
2
370
    50
100
AcDbCircle
 10
88.691732
 20
-177.615137
 30
0.0
 40
2.634161
100
AcDbArc
 50
242.924933
 51
297.075067
  0
LINE
  5
68B
100
AcDbEntity
  8
2
370
    50
100
AcDbLine
 10
87.492774
 20
-174.637973
 30
0.0
 11
87.492774
 21
-179.960623
 31
0.0
  0
LINE
  5
68C
100
AcDbEntity
  8
2
370
    50
100
AcDbLine
 10
87.492774
 20
-179.960623
 30
0.0
 11
87.454872
 21
-179.960623
 31
0.0
  0
ARC
  5
68D
100
AcDbEntity
  8
2
370
    50
100
AcDbCircle
 10
93.454872
 20
-184.452927
 30
0.0
 40
10.10363
100
AcDbArc
 50
90.0
 51
103.729133
  0
LINE
  5
68E
100
AcDbEntity
  8
2
370
    50
100
AcDbLine
 10
89.89069
 20
-174.637973
 30
0.0
 11
91.056956
 21
-174.637973
 31
0.0
  0
ARC
  5
68F
100
AcDbEntity
  8
2
370
    50
100
AcDbCircle
 10
88.691732
 20
-176.983458
 30
0.0
 40
2.634161
100
AcDbArc
 50
62.924933
 51
117.075067
  0
LINE
  5
690
100
AcDbEntity
  8
2
370
    50
100
AcDbLine
 10
87.654872
 20
-180.249298
 30
0.0
 11
99.254872
 21
-180.249298
 31
0.0
  0
LINE
  5
691
100
AcDbEntity
  8
2
370
    50
100
AcDbLine
 10
99.954872
 20
-197.249298
 30
0.0
 11
86.954872
 21
-197.249298
 31
0.0
  0
LINE
  5
692
100
AcDbEntity
  8
2
370
    50
100
AcDbLine
 10
99.954872
 20
-197.249298
 30
0.0
 11
99.954872
 21
-184.749298
 31
0.0
  0
LINE
  5
693
100
AcDbEntity
  8
2
370
    50
100
AcDbLine
 10
86.954872
 20
-197.249298
 30
0.0
 11
86.954872
 21
-184.749298
 31
0.0
  0
LINE
  5
694
100
AcDbEntity
  8
2
370
    50
100
AcDbLine
 10
97.329202
 20
-183.249298
 30
0.0
 11
97.329202
 21
-180.749298
 31
0.0
  0
LINE
  5
695
100
AcDbEntity
  8
2
370
    50
100
AcDbLine
 10
98.036309
 20
-183.249298
 30
0.0
 11
98.036309
 21
-180.749298
 31
0.0
  0
LINE
  5
696
100
AcDbEntity
  8
2
370
    50
100
AcDbLine
 10
99.434002
 20
-183.249298
 30
0.0
 11
99.434002
 21
-180.749298
 31
0.0
  0
LINE
  5
697
100
AcDbEntity
  8
2
370
    50
100
AcDbLine
 10
99.454872
 20
-183.249298
 30
0.0
 11
99.454872
 21
-180.449298
 31
0.0
  0
LINE
  5
698
100
AcDbEntity
  8
2
370
    50
100
AcDbLine
 10
93.954872
 20
-183.249298
 30
0.0
 11
93.954872
 21
-180.749298
 31
0.0
  0
LINE
  5
699
100
AcDbEntity
  8
2
370
    50
100
AcDbLine
 10
92.954872
 20
-183.249298
 30
0.0
 11
92.954872
 21
-180.749298
 31
0.0
  0
LINE
  5
69A
100
AcDbEntity
  8
2
370
    50
100
AcDbLine
 10
89.580542
 20
-183.249298
 30
0.0
 11
89.580542
 21
-180.749298
 31
0.0
  0
LINE
  5
69B
100
AcDbEntity
  8
2
370
    50
100
AcDbLine
 10
88.873435
 20
-183.249298
 30
0.0
 11
88.873435
 21
-180.749298
 31
0.0
  0
LINE
  5
69C
100
AcDbEntity
  8
2
370
    50
100
AcDbLine
 10
87.454872
 20
-183.249298
 30
0.0
 11
87.454872
 21
-180.449298
 31
0.0
  0
LINE
  5
69D
100
AcDbEntity
  8
2
370
    50
100
AcDbLine
 10
87.475742
 20
-183.249298
 30
0.0
 11
87.475742
 21
-180.749298
 31
0.0
  0
LINE
  5
69E
100
AcDbEntity
  8
2
370
    50
100
AcDbLine
 10
98.036309
 20
-180.749298
 30
0.0
 11
99.454872
 21
-180.749298
 31
0.0
  0
LINE
  5
69F
100
AcDbEntity
  8
2
370
    50
100
AcDbLine
 10
93.954872
 20
-180.749298
 30
0.0
 11
97.329202
 21
-180.749298
 31
0.0
  0
LINE
  5
6A0
100
AcDbEntity
  8
2
370
    50
100
AcDbLine
 10
87.454872
 20
-180.749298
 30
0.0
 11
88.873435
 21
-180.749298
 31
0.0
  0
LINE
  5
6A1
100
AcDbEntity
  8
2
370
    50
100
AcDbLine
 10
89.580542
 20
-180.749298
 30
0.0
 11
92.954872
 21
-180.749298
 31
0.0
  0
LINE
  5
6A2
100
AcDbEntity
  8
2
370
    50
100
AcDbLine
 10
98.036309
 20
-183.249298
 30
0.0
 11
99.454872
 21
-183.249298
 31
0.0
  0
LINE
  5
6A3
100
AcDbEntity
  8
2
370
    50
100
AcDbLine
 10
93.954872
 20
-183.249298
 30
0.0
 11
97.329202
 21
-183.249298
 31
0.0
  0
LINE
  5
6A4
100
AcDbEntity
  8
2
370
    50
100
AcDbLine
 10
87.454872
 20
-183.249298
 30
0.0
 11
88.873435
 21
-183.249298
 31
0.0
  0
LINE
  5
6A5
100
AcDbEntity
  8
2
370
    50
100
AcDbLine
 10
89.580542
 20
-183.249298
 30
0.0
 11
92.954872
 21
-183.249298
 31
0.0
  0
ARC
  5
6A6
100
AcDbEntity
  8
2
370
    50
100
AcDbCircle
 10
87.654872
 20
-180.449298
 30
0.0
 40
0.2
100
AcDbArc
 50
90.0
 51
180.0
  0
ARC
  5
6A7
100
AcDbEntity
  8
2
370
    50
100
AcDbCircle
 10
99.254872
 20
-180.449298
 30
0.0
 40
0.2
100
AcDbArc
 50
0.0
 51
90.0
  0
ARC
  5
6A8
100
AcDbEntity
  8
2
370
    50
100
AcDbCircle
 10
97.454872
 20
-184.749298
 30
0.0
 40
2.5
100
AcDbArc
 50
0.0
 51
36.869898
  0
ARC
  5
6A9
100
AcDbEntity
  8
2
370
    50
100
AcDbCircle
 10
89.454872
 20
-184.749298
 30
0.0
 40
2.5
100
AcDbArc
 50
143.130102
 51
180.0
  0
LINE
  5
6AA
100
AcDbEntity
  8
2
370
    25
100
AcDbLine
 10
99.935613
 20
-197.249298
 30
0.0
 11
99.935613
 21
-184.749298
 31
0.0
  0
LINE
  5
6AB
100
AcDbEntity
  8
2
370
    25
100
AcDbLine
 10
98.391001
 20
-197.249298
 30
0.0
 11
98.391001
 21
-184.749298
 31
0.0
  0
LINE
  5
6AC
100
AcDbEntity
  8
2
370
    25
100
AcDbLine
 10
97.683894
 20
-197.249298
 30
0.0
 11
97.683894
 21
-184.749298
 31
0.0
  0
LINE
  5
6AD
100
AcDbEntity
  8
2
370
    25
100
AcDbLine
 10
93.954872
 20
-197.249298
 30
0.0
 11
93.954872
 21
-184.749298
 31
0.0
  0
LINE
  5
6AE
100
AcDbEntity
  8
2
370
    25
100
AcDbLine
 10
92.954872
 20
-197.249298
 30
0.0
 11
92.954872
 21
-184.749298
 31
0.0
  0
LINE
  5
6AF
100
AcDbEntity
  8
2
370
    25
100
AcDbLine
 10
89.22585
 20
-197.249298
 30
0.0
 11
89.22585
 21
-184.749298
 31
0.0
  0
LINE
  5
6B0
100
AcDbEntity
  8
2
370
    25
100
AcDbLine
 10
88.518743
 20
-197.249298
 30
0.0
 11
88.518743
 21
-184.749298
 31
0.0
  0
LINE
  5
6B1
100
AcDbEntity
  8
2
370
    25
100
AcDbLine
 10
86.974131
 20
-197.249298
 30
0.0
 11
86.974131
 21
-184.749298
 31
0.0
  0
LINE
  5
6B2
100
AcDbEntity
  8
2
370
    50
100
AcDbLine
 10
99.204872
 20
-223.249298
 30
0.0
 11
99.204872
 21
-197.249298
 31
0.0
  0
LINE
  5
6B3
100
AcDbEntity
  8
2
370
    50
100
AcDbLine
 10
87.704872
 20
-223.249298
 30
0.0
 11
87.704872
 21
-197.249298
 31
0.0
  0
ARC
  5
6B4
100
AcDbEntity
  8
2
370
    50
100
AcDbCircle
 10
96.329872
 20
-227.250146
 30
0.0
 40
4.791667
100
AcDbArc
 50
53.130102
 51
126.869898
  0
ARC
  5
6B5
100
AcDbEntity
  8
2
370
    50
100
AcDbCircle
 10
90.579872
 20
-219.583479
 30
0.0
 40
4.791667
100
AcDbArc
 50
233.130102
 51
306.869898
  0
ARC
  5
6B6
100
AcDbEntity
  8
2
370
    50
100
AcDbCircle
 10
96.329872
 20
-219.583479
 30
0.0
 40
4.791667
100
AcDbArc
 50
233.130102
 51
306.869898
  0
LINE
  5
6B7
100
AcDbEntity
  8
2
370
    50
100
AcDbLine
 10
93.454872
 20
-158.849298
 30
0.0
 11
99.204872
 21
-158.849298
 31
0.0
  0
LINE
  5
6B8
100
AcDbEntity
  8
2
370
    50
100
AcDbLine
 10
99.704872
 20
-159.349298
 30
0.0
 11
99.704872
 21
-173.849298
 31
0.0
  0
LINE
  5
6B9
100
AcDbEntity
  8
2
370
    50
100
AcDbLine
 10
99.704872
 20
-159.349298
 30
0.0
 11
99.204872
 21
-158.849298
 31
0.0
  0
LINE
  5
6BA
100
AcDbEntity
  8
2
370
    50
100
AcDbLine
 10
97.776025
 20
-159.349298
 30
0.0
 11
95.204872
 21
-159.349298
 31
0.0
  0
LINE
  5
6BB
100
AcDbEntity
  8
2
370
    50
100
AcDbLine
 10
99.526025
 20
-159.349298
 30
0.0
 11
99.526025
 21
-173.849298
 31
0.0
  0
LINE
  5
6BC
100
AcDbEntity
  8
2
370
    50
100
AcDbLine
 10
97.776025
 20
-159.349298
 30
0.0
 11
97.776025
 21
-173.849298
 31
0.0
  0
LINE
  5
6BD
100
AcDbEntity
  8
2
370
    50
100
AcDbLine
 10
95.204872
 20
-159.349298
 30
0.0
 11
95.204872
 21
-173.849298
 31
0.0
  0
LINE
  5
6BE
100
AcDbEntity
  8
2
370
    50
100
AcDbLine
 10
99.704872
 20
-159.349298
 30
0.0
 11
99.526025
 21
-159.349298
 31
0.0
  0
ARC
  5
6BF
100
AcDbEntity
  8
2
370
    50
100
AcDbCircle
 10
93.454872
 20
-165.349298
 30
0.0
 40
6.25
100
AcDbArc
 50
73.739795
 51
90.0
  0
ARC
  5
6C0
100
AcDbEntity
  8
2
370
    50
100
AcDbCircle
 10
98.651025
 20
-160.755548
 30
0.0
 40
1.65625
100
AcDbArc
 50
58.109208
 51
121.890792
  0
LINE
  5
6C1
100
AcDbEntity
  8
2
370
    50
100
AcDbLine
 10
93.454872
 20
-158.849298
 30
0.0
 11
87.704872
 21
-158.849298
 31
0.0
  0
LINE
  5
6C2
100
AcDbEntity
  8
2
370
    50
100
AcDbLine
 10
87.204872
 20
-159.349298
 30
0.0
 11
87.204872
 21
-173.849298
 31
0.0
  0
LINE
  5
6C3
100
AcDbEntity
  8
2
370
    50
100
AcDbLine
 10
87.204872
 20
-159.349298
 30
0.0
 11
87.704872
 21
-158.849298
 31
0.0
  0
LINE
  5
6C4
100
AcDbEntity
  8
2
370
    50
100
AcDbLine
 10
89.13372
 20
-159.349298
 30
0.0
 11
91.704872
 21
-159.349298
 31
0.0
  0
LINE
  5
6C5
100
AcDbEntity
  8
2
370
    50
100
AcDbLine
 10
87.38372
 20
-159.349298
 30
0.0
 11
87.38372
 21
-173.849298
 31
0.0
  0
LINE
  5
6C6
100
AcDbEntity
  8
2
370
    50
100
AcDbLine
 10
89.13372
 20
-159.349298
 30
0.0
 11
89.13372
 21
-173.849298
 31
0.0
  0
LINE
  5
6C7
100
AcDbEntity
  8
2
370
    50
100
AcDbLine
 10
91.704872
 20
-159.349298
 30
0.0
 11
91.704872
 21
-173.849298
 31
0.0
  0
LINE
  5
6C8
100
AcDbEntity
  8
2
370
    50
100
AcDbLine
 10
87.204872
 20
-159.349298
 30
0.0
 11
87.38372
 21
-159.349298
 31
0.0
  0
ARC
  5
6C9
100
AcDbEntity
  8
2
370
    50
100
AcDbCircle
 10
93.454872
 20
-165.349298
 30
0.0
 40
6.25
100
AcDbArc
 50
90.0
 51
106.260205
  0
ARC
  5
6CA
100
AcDbEntity
  8
2
370
    50
100
AcDbCircle
 10
88.25872
 20
-160.755548
 30
0.0
 40
1.65625
100
AcDbArc
 50
58.109208
 51
121.890792
  0
LINE
  5
6CB
100
AcDbEntity
  8
2
370
    50
100
AcDbLine
 10
93.454872
 20
-174.349298
 30
0.0
 11
99.204872
 21
-174.349298
 31
0.0
  0
LINE
  5
6CC
100
AcDbEntity
  8
2
370
    50
100
AcDbLine
 10
99.704872
 20
-173.849298
 30
0.0
 11
99.204872
 21
-174.349298
 31
0.0
  0
LINE
  5
6CD
100
AcDbEntity
  8
2
370
    50
100
AcDbLine
 10
97.776025
 20
-173.849298
 30
0.0
 11
95.204872
 21
-173.849298
 31
0.0
  0
LINE
  5
6CE
100
AcDbEntity
  8
2
370
    50
100
AcDbLine
 10
99.704872
 20
-173.849298
 30
0.0
 11
99.526025
 21
-173.849298
 31
0.0
  0
ARC
  5
6CF
100
AcDbEntity
  8
2
370
    50
100
AcDbCircle
 10
98.651025
 20
-172.443048
 30
0.0
 40
1.65625
100
AcDbArc
 50
238.109208
 51
301.890792
  0
ARC
  5
6D0
100
AcDbEntity
  8
2
370
    50
100
AcDbCircle
 10
93.454872
 20
-167.849298
 30
0.0
 40
6.25
100
AcDbArc
 50
270.0
 51
286.260205
  0
LINE
  5
6D1
100
AcDbEntity
  8
2
370
    50
100
AcDbLine
 10
93.454872
 20
-174.349298
 30
0.0
 11
87.704872
 21
-174.349298
 31
0.0
  0
LINE
  5
6D2
100
AcDbEntity
  8
2
370
    50
100
AcDbLine
 10
87.204872
 20
-173.849298
 30
0.0
 11
87.704872
 21
-174.349298
 31
0.0
  0
LINE
  5
6D3
100
AcDbEntity
  8
2
370
    50
100
AcDbLine
 10
89.13372
 20
-173.849298
 30
0.0
 11
91.704872
 21
-173.849298
 31
0.0
  0
LINE
  5
6D4
100
AcDbEntity
  8
2
370
    50
100
AcDbLine
 10
87.204872
 20
-173.849298
 30
0.0
 11
87.38372
 21
-173.849298
 31
0.0
  0
ARC
  5
6D5
100
AcDbEntity
  8
2
370
    50
100
AcDbCircle
 10
88.25872
 20
-172.443048
 30
0.0
 40
1.65625
100
AcDbArc
 50
238.109208
 51
301.890792
  0
ARC
  5
6D6
100
AcDbEntity
  8
2
370
    50
100
AcDbCircle
 10
93.454872
 20
-167.849298
 30
0.0
 40
6.25
100
AcDbArc
 50
253.739795
 51
270.0
  0
LINE
  5
6D7
100
AcDbEntity
  8
2
370
    50
100
AcDbLine
 10
87.454872
 20
-179.960623
 30
0.0
 11
87.454872
 21
-174.637973
 31
0.0
  0
LINE
  5
6D8
100
AcDbEntity
  8
2
370
    50
100
AcDbLine
 10
99.454872
 20
-179.960623
 30
0.0
 11
99.454872
 21
-174.637973
 31
0.0
  0
LINE
  5
6D9
100
AcDbEntity
  8
2
370
    50
100
AcDbLine
 10
95.852788
 20
-174.637973
 30
0.0
 11
95.852788
 21
-179.960623
 31
0.0
  0
LINE
  5
6DA
100
AcDbEntity
  8
2
370
    50
100
AcDbLine
 10
97.019054
 20
-174.637973
 30
0.0
 11
97.019054
 21
-179.960623
 31
0.0
  0
LINE
  5
6DB
100
AcDbEntity
  8
2
370
    50
100
AcDbLine
 10
99.41697
 20
-174.637973
 30
0.0
 11
99.41697
 21
-179.960623
 31
0.0
  0
LINE
  5
6DC
100
AcDbEntity
  8
2
370
    50
100
AcDbLine
 10
98.954872
 20
-174.349298
 30
0.0
 11
87.954872
 21
-174.349298
 31
0.0
  0
LINE
  5
6DD
100
AcDbEntity
  8
2
370
    50
100
AcDbLine
 10
98.954872
 20
-180.249298
 30
0.0
 11
99.454872
 21
-179.960623
 31
0.0
  0
LINE
  5
6DE
100
AcDbEntity
  8
2
370
    50
100
AcDbLine
 10
97.019054
 20
-179.960623
 30
0.0
 11
95.852788
 21
-179.960623
 31
0.0
  0
LINE
  5
6DF
100
AcDbEntity
  8
2
370
    50
100
AcDbLine
 10
87.454872
 20
-179.960623
 30
0.0
 11
87.954872
 21
-180.249298
 31
0.0
  0
LINE
  5
6E0
100
AcDbEntity
  8
2
370
    50
100
AcDbLine
 10
87.454872
 20
-174.637973
 30
0.0
 11
87.954872
 21
-174.349298
 31
0.0
  0
ARC
  5
6E1
100
AcDbEntity
  8
2
370
    50
100
AcDbCircle
 10
93.454872
 20
-170.145668
 30
0.0
 40
10.10363
100
AcDbArc
 50
270.0
 51
283.729133
  0
ARC
  5
6E2
100
AcDbEntity
  8
2
370
    50
100
AcDbCircle
 10
93.454872
 20
-184.452927
 30
0.0
 40
10.10363
100
AcDbArc
 50
76.270867
 51
90.0
  0
LINE
  5
6E3
100
AcDbEntity
  8
2
370
    50
100
AcDbLine
 10
97.019054
 20
-174.637973
 30
0.0
 11
95.852788
 21
-174.637973
 31
0.0
  0
LINE
  5
6E4
100
AcDbEntity
  8
2
370
    50
100
AcDbLine
 10
99.454872
 20
-179.960623
 30
0.0
 11
99.41697
 21
-179.960623
 31
0.0
  0
ARC
  5
6E5
100
AcDbEntity
  8
2
370
    50
100
AcDbCircle
 10
98.218012
 20
-177.615137
 30
0.0
 40
2.634161
100
AcDbArc
 50
242.924933
 51
297.075067
  0
ARC
  5
6E6
100
AcDbEntity
  8
2
370
    50
100
AcDbCircle
 10
98.218012
 20
-176.983458
 30
0.0
 40
2.634161
100
AcDbArc
 50
62.924933
 51
117.075067
  0
LINE
  5
6E7
100
AcDbEntity
  8
2
370
    50
100
AcDbLine
 10
98.954872
 20
-174.349298
 30
0.0
 11
99.454872
 21
-174.637973
 31
0.0
  0
LINE
  5
6E8
100
AcDbEntity
  8
2
370
    50
100
AcDbLine
 10
99.454872
 20
-174.637973
 30
0.0
 11
99.41697
 21
-174.637973
 31
0.0
  0
ARC
  5
6E9
100
AcDbEntity
  8
2
370
    50
100
AcDbCircle
 10
93.454872
 20
-170.145668
 30
0.0
 40
10.10363
100
AcDbArc
 50
256.270867
 51
270.0
  0
LINE
  5
6EA
100
AcDbEntity
  8
2
370
    50
100
AcDbLine
 10
89.89069
 20
-179.960623
 30
0.0
 11
91.056956
 21
-179.960623
 31
0.0
  0
LINE
  5
6EB
100
AcDbEntity
  8
2
370
    50
100
AcDbLine
 10
91.056957
 20
-174.637973
 30
0.0
 11
91.056956
 21
-179.960623
 31
0.0
  0
LINE
  5
6EC
100
AcDbEntity
  8
2
370
    50
100
AcDbLine
 10
89.89069
 20
-174.637973
 30
0.0
 11
89.89069
 21
-179.960623
 31
0.0
  0
ARC
  5
6ED
100
AcDbEntity
  8
2
370
    50
100
AcDbCircle
 10
88.691732
 20
-177.615137
 30
0.0
 40
2.634161
100
AcDbArc
 50
242.924933
 51
297.075067
  0
LINE
  5
6EE
100
AcDbEntity
  8
2
370
    50
100
AcDbLine
 10
87.492774
 20
-174.637973
 30
0.0
 11
87.492774
 21
-179.960623
 31
0.0
  0
LINE
  5
6EF
100
AcDbEntity
  8
2
370
    50
100
AcDbLine
 10
87.492774
 20
-179.960623
 30
0.0
 11
87.454872
 21
-179.960623
 31
0.0
  0
ARC
  5
6F0
100
AcDbEntity
  8
2
370
    50
100
AcDbCircle
 10
93.454872
 20
-184.452927
 30
0.0
 40
10.10363
100
AcDbArc
 50
90.0
 51
103.729133
  0
LINE
  5
6F1
100
AcDbEntity
  8
2
370
    50
100
AcDbLine
 10
89.89069
 20
-174.637973
 30
0.0
 11
91.056956
 21
-174.637973
 31
0.0
  0
ARC
  5
6F2
100
AcDbEntity
  8
2
370
    50
100
AcDbCircle
 10
88.691732
 20
-176.983458
 30
0.0
 40
2.634161
100
AcDbArc
 50
62.924933
 51
117.075067
  0
LINE
  5
6F3
100
AcDbEntity
  8
2
370
    50
100
AcDbLine
 10
87.654872
 20
-180.249298
 30
0.0
 11
99.254872
 21
-180.249298
 31
0.0
  0
LINE
  5
6F4
100
AcDbEntity
  8
2
370
    50
100
AcDbLine
 10
99.954872
 20
-197.249298
 30
0.0
 11
86.954872
 21
-197.249298
 31
0.0
  0
LINE
  5
6F5
100
AcDbEntity
  8
2
370
    50
100
AcDbLine
 10
99.954872
 20
-197.249298
 30
0.0
 11
99.954872
 21
-184.749298
 31
0.0
  0
LINE
  5
6F6
100
AcDbEntity
  8
2
370
    50
100
AcDbLine
 10
86.954872
 20
-197.249298
 30
0.0
 11
86.954872
 21
-184.749298
 31
0.0
  0
LINE
  5
6F7
100
AcDbEntity
  8
2
370
    50
100
AcDbLine
 10
97.329202
 20
-183.249298
 30
0.0
 11
97.329202
 21
-180.749298
 31
0.0
  0
LINE
  5
6F8
100
AcDbEntity
  8
2
370
    50
100
AcDbLine
 10
98.036309
 20
-183.249298
 30
0.0
 11
98.036309
 21
-180.749298
 31
0.0
  0
LINE
  5
6F9
100
AcDbEntity
  8
2
370
    50
100
AcDbLine
 10
99.434002
 20
-183.249298
 30
0.0
 11
99.434002
 21
-180.749298
 31
0.0
  0
LINE
  5
6FA
100
AcDbEntity
  8
2
370
    50
100
AcDbLine
 10
99.454872
 20
-183.249298
 30
0.0
 11
99.454872
 21
-180.449298
 31
0.0
  0
LINE
  5
6FB
100
AcDbEntity
  8
2
370
    50
100
AcDbLine
 10
93.954872
 20
-183.249298
 30
0.0
 11
93.954872
 21
-180.749298
 31
0.0
  0
LINE
  5
6FC
100
AcDbEntity
  8
2
370
    50
100
AcDbLine
 10
92.954872
 20
-183.249298
 30
0.0
 11
92.954872
 21
-180.749298
 31
0.0
  0
LINE
  5
6FD
100
AcDbEntity
  8
2
370
    50
100
AcDbLine
 10
89.580542
 20
-183.249298
 30
0.0
 11
89.580542
 21
-180.749298
 31
0.0
  0
LINE
  5
6FE
100
AcDbEntity
  8
2
370
    50
100
AcDbLine
 10
88.873435
 20
-183.249298
 30
0.0
 11
88.873435
 21
-180.749298
 31
0.0
  0
LINE
  5
6FF
100
AcDbEntity
  8
2
370
    50
100
AcDbLine
 10
87.454872
 20
-183.249298
 30
0.0
 11
87.454872
 21
-180.449298
 31
0.0
  0
LINE
  5
700
100
AcDbEntity
  8
2
370
    50
100
AcDbLine
 10
87.475742
 20
-183.249298
 30
0.0
 11
87.475742
 21
-180.749298
 31
0.0
  0
LINE
  5
701
100
AcDbEntity
  8
2
370
    50
100
AcDbLine
 10
98.036309
 20
-180.749298
 30
0.0
 11
99.454872
 21
-180.749298
 31
0.0
  0
LINE
  5
702
100
AcDbEntity
  8
2
370
    50
100
AcDbLine
 10
93.954872
 20
-180.749298
 30
0.0
 11
97.329202
 21
-180.749298
 31
0.0
  0
LINE
  5
703
100
AcDbEntity
  8
2
370
    50
100
AcDbLine
 10
87.454872
 20
-180.749298
 30
0.0
 11
88.873435
 21
-180.749298
 31
0.0
  0
LINE
  5
704
100
AcDbEntity
  8
2
370
    50
100
AcDbLine
 10
89.580542
 20
-180.749298
 30
0.0
 11
92.954872
 21
-180.749298
 31
0.0
  0
LINE
  5
705
100
AcDbEntity
  8
2
370
    50
100
AcDbLine
 10
98.036309
 20
-183.249298
 30
0.0
 11
99.454872
 21
-183.249298
 31
0.0
  0
LINE
  5
706
100
AcDbEntity
  8
2
370
    50
100
AcDbLine
 10
93.954872
 20
-183.249298
 30
0.0
 11
97.329202
 21
-183.249298
 31
0.0
  0
LINE
  5
707
100
AcDbEntity
  8
2
370
    50
100
AcDbLine
 10
87.454872
 20
-183.249298
 30
0.0
 11
88.873435
 21
-183.249298
 31
0.0
  0
LINE
  5
708
100
AcDbEntity
  8
2
370
    50
100
AcDbLine
 10
89.580542
 20
-183.249298
 30
0.0
 11
92.954872
 21
-183.249298
 31
0.0
  0
ARC
  5
709
100
AcDbEntity
  8
2
370
    50
100
AcDbCircle
 10
87.654872
 20
-180.449298
 30
0.0
 40
0.2
100
AcDbArc
 50
90.0
 51
180.0
  0
ARC
  5
70A
100
AcDbEntity
  8
2
370
    50
100
AcDbCircle
 10
99.254872
 20
-180.449298
 30
0.0
 40
0.2
100
AcDbArc
 50
0.0
 51
90.0
  0
ARC
  5
70B
100
AcDbEntity
  8
2
370
    50
100
AcDbCircle
 10
97.454872
 20
-184.749298
 30
0.0
 40
2.5
100
AcDbArc
 50
0.0
 51
36.869898
  0
ARC
  5
70C
100
AcDbEntity
  8
2
370
    50
100
AcDbCircle
 10
89.454872
 20
-184.749298
 30
0.0
 40
2.5
100
AcDbArc
 50
143.130102
 51
180.0
  0
LINE
  5
70D
100
AcDbEntity
  8
2
370
    25
100
AcDbLine
 10
99.935613
 20
-197.249298
 30
0.0
 11
99.935613
 21
-184.749298
 31
0.0
  0
LINE
  5
70E
100
AcDbEntity
  8
2
370
    25
100
AcDbLine
 10
98.391001
 20
-197.249298
 30
0.0
 11
98.391001
 21
-184.749298
 31
0.0
  0
LINE
  5
70F
100
AcDbEntity
  8
2
370
    25
100
AcDbLine
 10
97.683894
 20
-197.249298
 30
0.0
 11
97.683894
 21
-184.749298
 31
0.0
  0
LINE
  5
710
100
AcDbEntity
  8
2
370
    25
100
AcDbLine
 10
93.954872
 20
-197.249298
 30
0.0
 11
93.954872
 21
-184.749298
 31
0.0
  0
LINE
  5
711
100
AcDbEntity
  8
2
370
    25
100
AcDbLine
 10
92.954872
 20
-197.249298
 30
0.0
 11
92.954872
 21
-184.749298
 31
0.0
  0
LINE
  5
712
100
AcDbEntity
  8
2
370
    25
100
AcDbLine
 10
89.22585
 20
-197.249298
 30
0.0
 11
89.22585
 21
-184.749298
 31
0.0
  0
LINE
  5
713
100
AcDbEntity
  8
2
370
    25
100
AcDbLine
 10
88.518743
 20
-197.249298
 30
0.0
 11
88.518743
 21
-184.749298
 31
0.0
  0
LINE
  5
714
100
AcDbEntity
  8
2
370
    25
100
AcDbLine
 10
86.974131
 20
-197.249298
 30
0.0
 11
86.974131
 21
-184.749298
 31
0.0
  0
LINE
  5
715
100
AcDbEntity
  8
2
370
    50
100
AcDbLine
 10
99.204872
 20
-223.249298
 30
0.0
 11
99.204872
 21
-197.249298
 31
0.0
  0
LINE
  5
716
100
AcDbEntity
  8
2
370
    50
100
AcDbLine
 10
87.704872
 20
-223.249298
 30
0.0
 11
87.704872
 21
-197.249298
 31
0.0
  0
ARC
  5
717
100
AcDbEntity
  8
2
370
    50
100
AcDbCircle
 10
96.329872
 20
-227.250146
 30
0.0
 40
4.791667
100
AcDbArc
 50
53.130102
 51
126.869898
  0
ARC
  5
718
100
AcDbEntity
  8
2
370
    50
100
AcDbCircle
 10
90.579872
 20
-219.583479
 30
0.0
 40
4.791667
100
AcDbArc
 50
233.130102
 51
306.869898
  0
ARC
  5
719
100
AcDbEntity
  8
2
370
    50
100
AcDbCircle
 10
96.329872
 20
-219.583479
 30
0.0
 40
4.791667
100
AcDbArc
 50
233.130102
 51
306.869898
  0
LINE
  5
71A
100
AcDbEntity
  8
2
370
    50
100
AcDbLine
 10
80.454872
 20
138.875702
 30
0.0
 11
80.454872
 21
167.650702
 31
0.0
  0
LINE
  5
71B
100
AcDbEntity
  8
2
370
    50
100
AcDbLine
 10
80.954872
 20
168.150702
 30
0.0
 11
80.454872
 21
167.650702
 31
0.0
  0
LINE
  5
71C
100
AcDbEntity
  8
2
370
    50
100
AcDbLine
 10
114.954872
 20
168.150702
 30
0.0
 11
115.454872
 21
167.650702
 31
0.0
  0
LINE
  5
71D
100
AcDbEntity
  8
2
370
    50
100
AcDbLine
 10
115.454872
 20
189.500702
 30
0.0
 11
115.454872
 21
190.250702
 31
0.0
  0
LINE
  5
71E
100
AcDbEntity
  8
2
370
    50
100
AcDbLine
 10
115.454872
 20
183.000702
 30
0.0
 11
115.454872
 21
182.250702
 31
0.0
  0
LINE
  5
71F
100
AcDbEntity
  8
2
370
    50
100
AcDbLine
 10
115.454872
 20
189.250702
 30
0.0
 11
115.454872
 21
193.250702
 31
0.0
  0
POINT
  5
720
100
AcDbEntity
  8
2
370
    50
100
AcDbPoint
 10
97.954872
 20
175.550703
 30
0.0
  0
POINT
  5
721
100
AcDbEntity
  8
2
370
    50
100
AcDbPoint
 10
97.954872
 20
167.850702
 30
0.0
  0
LINE
  5
722
100
AcDbEntity
  8
2
370
    50
100
AcDbLine
 10
114.954872
 20
168.150702
 30
0.0
 11
97.954872
 21
168.150702
 31
0.0
  0
ARC
  5
723
100
AcDbEntity
  8
2
370
    50
100
AcDbCircle
 10
139.455928
 20
167.891965
 30
0.0
 40
56.0
100
AcDbArc
 50
178.814366
 51
179.735275
  0
ARC
  5
724
100
AcDbEntity
  8
2
370
    50
100
AcDbCircle
 10
56.453816
 20
167.391965
 30
0.0
 40
56.0
100
AcDbArc
 50
6.401069
 51
7.513384
  0
ARC
  5
725
100
AcDbEntity
  8
2
370
    50
100
AcDbCircle
 10
56.453816
 20
167.391965
 30
0.0
 40
56.0
100
AcDbArc
 50
0.776317
 51
6.401069
  0
LINE
  5
726
100
AcDbEntity
  8
2
370
    50
100
AcDbLine
 10
114.454872
 20
194.050702
 30
0.0
 11
81.454872
 21
194.050702
 31
0.0
  0
ARC
  5
727
100
AcDbEntity
  8
2
370
    50
100
AcDbCircle
 10
114.454872
 20
193.050702
 30
0.0
 40
1.0
100
AcDbArc
 50
360.0
 51
90.0
  0
ARC
  5
728
100
AcDbEntity
  8
2
370
    50
100
AcDbCircle
 10
81.454872
 20
193.050702
 30
0.0
 40
1.0
100
AcDbArc
 50
90.0
 51
180.0
  0
LINE
  5
729
100
AcDbEntity
  8
2
370
    50
100
AcDbLine
 10
80.454872
 20
193.050702
 30
0.0
 11
80.454872
 21
190.050702
 31
0.0
  0
POINT
  5
72A
100
AcDbEntity
  8
2
370
    50
100
AcDbPoint
 10
97.954872
 20
180.750223
 30
0.0
  0
LINE
  5
72B
100
AcDbEntity
  8
2
370
    50
100
AcDbLine
 10
97.954872
 20
169.050702
 30
0.0
 11
115.454872
 21
176.121161
 31
0.0
  0
LINE
  5
72C
100
AcDbEntity
  8
2
370
    50
100
AcDbLine
 10
115.454872
 20
176.121161
 30
0.0
 11
115.454872
 21
183.050702
 31
0.0
  0
LINE
  5
72D
100
AcDbEntity
  8
2
370
    50
100
AcDbLine
 10
115.454872
 20
189.050702
 30
0.0
 11
115.454872
 21
193.050702
 31
0.0
  0
ARC
  5
72E
100
AcDbEntity
  8
2
370
    50
100
AcDbCircle
 10
109.526669
 20
186.050702
 30
0.0
 40
8.0
100
AcDbArc
 50
360.0
 51
30.0
  0
LINE
  5
72F
100
AcDbEntity
  8
2
370
    50
100
AcDbLine
 10
116.454872
 20
190.050702
 30
0.0
 11
115.454872
 21
190.050702
 31
0.0
  0
ARC
  5
730
100
AcDbEntity
  8
2
370
    50
100
AcDbCircle
 10
109.526669
 20
186.050702
 30
0.0
 40
8.0
100
AcDbArc
 50
330.0
 51
360.0
  0
LINE
  5
731
100
AcDbEntity
  8
2
370
    50
100
AcDbLine
 10
116.454872
 20
182.050702
 30
0.0
 11
115.454872
 21
182.050702
 31
0.0
  0
LINE
  5
732
100
AcDbEntity
  8
2
370
    50
100
AcDbLine
 10
115.454872
 20
190.050702
 30
0.0
 11
115.454872
 21
189.050702
 31
0.0
  0
LINE
  5
733
100
AcDbEntity
  8
2
370
    50
100
AcDbLine
 10
115.454872
 20
182.050702
 30
0.0
 11
115.454872
 21
183.050702
 31
0.0
  0
LINE
  5
734
100
AcDbEntity
  8
2
370
    50
100
AcDbLine
 10
80.954872
 20
168.150702
 30
0.0
 11
97.954872
 21
168.150702
 31
0.0
  0
LINE
  5
735
100
AcDbEntity
  8
2
370
    50
100
AcDbLine
 10
80.454872
 20
167.650702
 30
0.0
 11
115.454872
 21
167.650702
 31
0.0
  0
POINT
  5
736
100
AcDbEntity
  8
2
370
    50
100
AcDbPoint
 10
97.954872
 20
194.050702
 30
0.0
  0
ARC
  5
737
100
AcDbEntity
  8
2
370
    50
100
AcDbCircle
 10
-314.452202
 20
168.391965
 30
0.0
 40
56.0
100
AcDbArc
 50
179.326005
 51
180.246846
  0
ARC
  5
738
100
AcDbEntity
  8
2
370
    50
100
AcDbCircle
 10
-397.454315
 20
167.891965
 30
0.0
 40
56.0
100
AcDbArc
 50
0.264725
 51
1.185634
  0
ARC
  5
739
100
AcDbEntity
  8
2
370
    50
100
AcDbCircle
 10
374.122119
 20
168.391965
 30
0.0
 40
56.0
100
AcDbArc
 50
173.468627
 51
180.246846
  0
ARC
  5
73A
100
AcDbEntity
  8
2
370
    50
100
AcDbCircle
 10
291.120007
 20
167.891965
 30
0.0
 40
56.0
100
AcDbArc
 50
0.264725
 51
1.185634
  0
CIRCLE
  5
73B
100
AcDbEntity
  8
2
370
    50
100
AcDbCircle
 10
97.954872
 20
307.251082
 30
0.0
 40
17.5
  0
LINE
  5
73C
100
AcDbEntity
  8
2
370
    50
100
AcDbLine
 10
80.918147
 20
303.251082
 30
0.0
 11
21.955049
 21
303.251082
 31
0.0
  0
LINE
  5
73D
100
AcDbEntity
  8
2
370
    50
100
AcDbLine
 10
80.918147
 20
311.251082
 30
0.0
 11
21.955049
 21
311.251082
 31
0.0
  0
LINE
  5
73E
100
AcDbEntity
  8
2
370
    50
100
AcDbLine
 10
21.455049
 20
303.751082
 30
0.0
 11
21.455049
 21
310.751082
 31
0.0
  0
LINE
  5
73F
100
AcDbEntity
  8
2
370
    50
100
AcDbLine
 10
21.955049
 20
311.251082
 30
0.0
 11
21.455049
 21
310.751082
 31
0.0
  0
LINE
  5
740
100
AcDbEntity
  8
2
370
    50
100
AcDbLine
 10
21.955049
 20
303.251082
 30
0.0
 11
21.455049
 21
303.751082
 31
0.0
  0
LINE
  5
741
100
AcDbEntity
  8
2
370
    50
100
AcDbLine
 10
21.955049
 20
311.251082
 30
0.0
 11
21.955049
 21
303.251082
 31
0.0
  0
ARC
  5
742
100
AcDbEntity
  8
2
370
    25
100
AcDbCircle
 10
97.954872
 20
307.251082
 30
0.0
 40
23.5
100
AcDbArc
 50
206.53799
 51
153.45978
  0
ARC
  5
743
100
AcDbEntity
  8
2
370
    50
100
AcDbCircle
 10
97.954872
 20
307.251082
 30
0.0
 40
24.0
100
AcDbArc
 50
205.943394
 51
154.054434
  0
TEXT
  5
744
100
AcDbEntity
  8
2
370
    50
100
AcDbText
 10
94.912907
 20
322.872603
 30
0.0
 40
7.0
  1
Ｈ
 50
270.0
 72
     5
 11
94.912907
 21
317.272603
 31
0.0
100
AcDbText
  0
TEXT
  5
745
100
AcDbEntity
  8
2
370
    50
100
AcDbText
 10
95.07777
 20
299.086699
 30
0.0
 40
7.0
  1
Ｃ
 50
270.0
 72
     5
 11
95.07777
 21
293.486699
 31
0.0
100
AcDbText
  0
POINT
  5
746
100
AcDbEntity
  8
2
370
    50
100
AcDbPoint
 10
97.954872
 20
307.251082
 30
0.0
  0
LINE
  5
747
100
AcDbEntity
  8
2
370
    50
100
AcDbLine
 10
116.454872
 20
311.251082
 30
0.0
 11
114.991597
 21
311.251082
 31
0.0
  0
LINE
  5
748
100
AcDbEntity
  8
2
370
    25
100
AcDbLine
 10
116.454872
 20
311.251082
 30
0.0
 11
116.454872
 21
303.251082
 31
0.0
  0
ARC
  5
749
100
AcDbEntity
  8
2
370
    50
100
AcDbCircle
 10
109.526669
 20
307.251082
 30
0.0
 40
8.0
100
AcDbArc
 50
0.0
 51
30.0
  0
ARC
  5
74A
100
AcDbEntity
  8
2
370
    50
100
AcDbCircle
 10
109.526669
 20
307.251082
 30
0.0
 40
8.0
100
AcDbArc
 50
330.0
 51
360.0
  0
LINE
  5
74B
100
AcDbEntity
  8
2
370
    50
100
AcDbLine
 10
116.454872
 20
303.251082
 30
0.0
 11
114.991597
 21
303.251082
 31
0.0
  0
LINE
  5
74C
100
AcDbEntity
  8
2
370
    25
  6
DASHED
100
AcDbLine
 10
67.755237
 20
300.516025
 30
0.0
 11
25.170319
 21
285.016382
 31
0.0
  0
LINE
  5
74D
100
AcDbEntity
  8
2
370
    25
  6
DASHED
100
AcDbLine
 10
74.729013
 20
294.540849
 30
0.0
 11
27.90648
 21
277.498841
 31
0.0
  0
LINE
  5
74E
100
AcDbEntity
  8
2
370
    25
  6
DASHED
100
AcDbLine
 10
24.871483
 20
284.375526
 30
0.0
 11
27.265624
 21
277.797677
 31
0.0
  0
LINE
  5
74F
100
AcDbEntity
  8
2
370
    25
  6
DASHED
100
AcDbLine
 10
27.90648
 20
277.498841
 30
0.0
 11
27.265624
 21
277.797677
 31
0.0
  0
LINE
  5
750
100
AcDbEntity
  8
2
370
    25
  6
DASHED
100
AcDbLine
 10
25.170319
 20
285.016382
 30
0.0
 11
24.871483
 21
284.375526
 31
0.0
  0
LINE
  5
751
100
AcDbEntity
  8
2
370
    25
  6
DASHED
100
AcDbLine
 10
27.90648
 20
277.498841
 30
0.0
 11
25.170319
 21
285.016382
 31
0.0
  0
LINE
  5
752
100
AcDbEntity
  8
2
370
    25
  6
CENTER
100
AcDbLine
 10
97.954872
 20
307.251082
 30
0.0
 11
23.479706
 21
280.144338
 31
0.0
  0
LINE
  5
753
100
AcDbEntity
  8
2
370
    25
  6
DASHED
100
AcDbLine
 10
80.571288
 20
329.360334
 30
0.0
 11
56.490859
 21
371.068859
 31
0.0
  0
LINE
  5
754
100
AcDbEntity
  8
2
370
    25
  6
DASHED
100
AcDbLine
 10
88.332812
 20
331.91698
 30
0.0
 11
63.419062
 21
375.068859
 31
0.0
  0
LINE
  5
755
100
AcDbEntity
  8
2
370
    25
  6
DASHED
100
AcDbLine
 10
56.673872
 20
371.751872
 30
0.0
 11
62.73605
 21
375.251872
 31
0.0
  0
LINE
  5
756
100
AcDbEntity
  8
2
370
    25
  6
DASHED
100
AcDbLine
 10
63.419062
 20
375.068859
 30
0.0
 11
62.73605
 21
375.251872
 31
0.0
  0
LINE
  5
757
100
AcDbEntity
  8
2
370
    25
  6
DASHED
100
AcDbLine
 10
56.490859
 20
371.068859
 30
0.0
 11
56.673872
 21
371.751872
 31
0.0
  0
LINE
  5
758
100
AcDbEntity
  8
2
370
    25
  6
DASHED
100
AcDbLine
 10
63.419062
 20
375.068859
 30
0.0
 11
56.490859
 21
371.068859
 31
0.0
  0
LINE
  5
759
100
AcDbEntity
  8
2
370
    25
  6
CENTER
100
AcDbLine
 10
58.578157
 20
375.453553
 30
0.0
 11
97.954872
 21
307.251082
 31
0.0
  0
TEXT
  5
75A
100
AcDbEntity
  8
3
370
    50
100
AcDbText
 10
-406.802292
 20
-93.373907
 30
0.0
 40
10.5
  1
取付穴径　φ３７±１
 50
90.0
 72
     5
 11
-406.802292
 21
9.526093
 31
0.0
100
AcDbText
  0
LINE
  5
75B
100
AcDbEntity
  8
3
370
    50
100
AcDbLine
 10
115.454872
 20
66.278528
 30
0.0
 11
115.454872
 21
62.278528
 31
0.0
  0
TEXT
  5
75C
100
AcDbEntity
  8
3
370
    50
100
AcDbText
 10
13.925188
 20
168.563061
 30
0.0
 40
10.5
  1
止水
 72
     5
 11
32.825188
 21
168.563061
 31
0.0
100
AcDbText
  0
TEXT
  5
75D
100
AcDbEntity
  8
3
370
    50
100
AcDbText
 10
40.760565
 20
219.098534
 30
0.0
 40
10.5
  1
吐水
 72
     5
 11
59.660565
 21
219.098534
 31
0.0
100
AcDbText
  0
POINT
  5
75E
100
AcDbEntity
  8
3
370
    50
100
AcDbPoint
 10
34.89221
 20
217.878901
 30
0.0
  0
POINT
  5
75F
100
AcDbEntity
  8
3
370
    50
100
AcDbPoint
 10
123.545754
 20
186.374683
 30
0.0
  0
TEXT
  5
760
100
AcDbEntity
  8
3
370
    50
100
AcDbText
 10
343.996307
 20
-408.501572
 30
0.0
 40
10.5
  1
外観寸法図
 72
     5
 11
394.396307
 21
-408.501572
 31
0.0
100
AcDbText
  0
TEXT
  5
761
100
AcDbEntity
  8
3
370
    50
100
AcDbText
 10
433.673767
 20
-359.558281
 30
0.0
 40
10.5
  1
１
 72
     5
 11
442.073767
 21
-359.558281
 31
0.0
100
AcDbText
  0
DIMENSION
  5
762
100
AcDbEntity
  8
3
370
    25
100
AcDbDimension
  2
*D0
 10
-12.517156
 20
94.607055
 30
0.0
 11
-3.704009
 21
57.424379
 31
0.0
 70
     2
 71
     0
 72
     0
 41
0.0
 42
0.0
  3
Standard
100
AcDb2LineAngularDimension
 13
-12.519272
 23
94.607826
 33
0.0
 14
-12.517156
 24
94.610348
 34
0.0
 15
-12.517156
 25
94.610348
 35
0.0
 16
-23.779574
 26
63.667109
 36
0.0
1001
ACAD
1000
DSTYLE
1002
{
1070
   275
1070
     0
1070
   179
1070
     0
1002
}
  0
TEXT
  5
763
100
AcDbEntity
  8
3
370
    50
100
AcDbText
 10
103.750313
 20
211.455184
 30
0.0
 40
10.5
  1
２６
 72
     5
 11
122.650313
 21
211.455184
 31
0.0
100
AcDbText
  0
DIMENSION
  5
764
100
AcDbEntity
  8
3
370
    25
100
AcDbDimension
  2
*D1
 10
123.545754
 20
210.455184
 30
0.0
 11
110.750313
 21
212.455184
 31
0.0
 71
     0
 72
     0
 41
0.0
 42
0.0
  3
Standard
100
AcDbAlignedDimension
 13
97.954872
 23
196.385756
 33
0.0
 14
123.545754
 24
186.374683
 34
0.0
100
AcDbRotatedDimension
  0
DIMENSION
  5
765
100
AcDbEntity
  8
3
370
    25
100
AcDbDimension
  2
*D2
 10
-331.953258
 20
-82.12393
 30
0.0
 11
-304.203258
 21
-75.37393
 31
0.0
 70
     1
 71
     0
 72
     0
 41
0.0
 42
0.0
  3
Standard
100
AcDbAlignedDimension
 13
-379.953258
 23
-102.349298
 33
0.0
 14
-331.953258
 24
-102.349298
 34
0.0
  0
LINE
  5
766
100
AcDbEntity
  8
3
370
    25
100
AcDbLine
 10
-386.541258
 20
-123.849298
 30
0.0
 11
-422.71006
 21
-123.849298
 31
0.0
  0
LINE
  5
767
100
AcDbEntity
  8
3
370
    25
100
AcDbLine
 10
-419.71006
 20
-123.849298
 30
0.0
 11
-421.262974
 21
-129.644853
 31
0.0
  0
LINE
  5
768
100
AcDbEntity
  8
3
370
    25
100
AcDbLine
 10
-419.71006
 20
-123.849298
 30
0.0
 11
-418.157146
 21
-129.644853
 31
0.0
  0
LINE
  5
769
100
AcDbEntity
  8
3
370
    25
100
AcDbLine
 10
-421.262974
 20
-129.644853
 30
0.0
 11
-418.157146
 21
-129.644853
 31
0.0
  0
LINE
  5
76A
100
AcDbEntity
  8
3
370
    25
100
AcDbLine
 10
-419.71006
 20
-138.849298
 30
0.0
 11
-419.71006
 21
8.822823
 31
0.0
  0
LINE
  5
76B
100
AcDbEntity
  8
3
370
    25
100
AcDbLine
 10
-419.71006
 20
-105.849298
 30
0.0
 11
-418.157146
 21
-100.053743
 31
0.0
  0
LINE
  5
76C
100
AcDbEntity
  8
3
370
    25
100
AcDbLine
 10
-419.71006
 20
-105.849298
 30
0.0
 11
-421.262974
 21
-100.053743
 31
0.0
  0
LINE
  5
76D
100
AcDbEntity
  8
3
370
    25
100
AcDbLine
 10
-418.157146
 20
-100.053743
 30
0.0
 11
-421.262974
 21
-100.053743
 31
0.0
  0
LINE
  5
76E
100
AcDbEntity
  8
3
370
    25
100
AcDbLine
 10
-382.453258
 20
-105.849298
 30
0.0
 11
-422.71006
 21
-105.849298
 31
0.0
  0
TEXT
  5
76F
100
AcDbEntity
  8
3
370
    50
100
AcDbText
 10
-421.21006
 20
-93.849298
 30
0.0
 40
10.5
  1
０～２５
 50
90.0
 72
     5
 11
-421.21006
 21
-53.949298
 31
0.0
100
AcDbText
  0
TEXT
  5
770
100
AcDbEntity
  8
3
370
    50
100
AcDbText
 10
-307.957451
 20
-150.516918
 30
0.0
 40
10.5
  1
４６六角
 72
     5
 11
-268.057451
 21
-150.516918
 31
0.0
100
AcDbText
  0
LWPOLYLINE
  5
771
100
AcDbEntity
  8
3
370
    25
100
AcDbPolyline
 90
        3
 70
     0
 10
-330.893402
 20
-133.70137
 10
-306.74614
 20
-151.484264
 10
-265.60051
 20
-151.484264
  0
LINE
  5
776
100
AcDbEntity
  8
3
370
    25
100
AcDbLine
 10
-326.22675
 20
-137.138057
 30
0.0
 11
-325.305893
 21
-135.887631
 31
0.0
  0
LINE
  5
777
100
AcDbEntity
  8
3
370
    25
100
AcDbLine
 10
-325.305893
 20
-135.887631
 30
0.0
 11
-330.893402
 21
-133.70137
 31
0.0
  0
LINE
  5
778
100
AcDbEntity
  8
3
370
    25
100
AcDbLine
 10
-330.893402
 20
-133.70137
 30
0.0
 11
-327.147608
 21
-138.388483
 31
0.0
  0
LINE
  5
779
100
AcDbEntity
  8
3
370
    25
100
AcDbLine
 10
-327.147608
 20
-138.388483
 30
0.0
 11
-326.22675
 21
-137.138057
 31
0.0
  0
LINE
  5
77A
100
AcDbEntity
  8
3
370
    25
  6
CENTER
100
AcDbLine
 10
97.954872
 20
-142.785699
 30
0.0
 11
97.954872
 21
197.546677
 31
0.0
  0
TEXT
  5
77B
100
AcDbEntity
  8
3
370
    50
100
AcDbText
 10
26.968858
 20
-153.182636
 30
0.0
 40
10.5
  1
１１０
 72
     5
 11
56.368858
 21
-153.182636
 31
0.0
100
AcDbText
  0
DIMENSION
  5
77C
100
AcDbEntity
  8
3
370
    25
100
AcDbDimension
  2
*D3
 10
97.954872
 20
-154.682636
 30
0.0
 11
42.718858
 21
-152.682636
 31
0.0
 71
     0
 72
     0
 41
0.0
 42
0.0
  3
Standard
100
AcDbAlignedDimension
 13
-12.517156
 23
94.610348
 33
0.0
 14
97.954872
 24
-94.295053
 34
0.0
100
AcDbRotatedDimension
  0
TEXT
  5
77D
100
AcDbEntity
  8
3
370
    50
100
AcDbText
 10
-48.292437
 20
-21.369475
 30
0.0
 40
10.5
  1
２００
 50
90.0
 72
     5
 11
-48.292437
 21
8.030525
 31
0.0
100
AcDbText
  0
DIMENSION
  5
77E
100
AcDbEntity
  8
3
370
    25
100
AcDbDimension
  2
*D4
 10
-46.792437
 20
94.610348
 30
0.0
 11
-49.292437
 21
-5.619475
 31
0.0
 71
     0
 72
     0
 41
0.0
 42
0.0
  3
Standard
100
AcDbAlignedDimension
 13
74.454872
 23
-105.849298
 33
0.0
 14
-12.517156
 24
94.610348
 34
0.0
 50
90.0
100
AcDbRotatedDimension
  0
TEXT
  5
77F
100
AcDbEntity
  8
3
370
    50
100
AcDbText
 10
-94.67997
 20
40.264802
 30
0.0
 40
10.5
  1
３２４
 50
90.0
 72
     5
 11
-94.67997
 21
69.664802
 31
0.0
100
AcDbText
  0
DIMENSION
  5
780
100
AcDbEntity
  8
3
370
    25
100
AcDbDimension
  2
*D5
 10
-93.17997
 20
217.878901
 30
0.0
 11
-95.67997
 21
56.014802
 31
0.0
 71
     0
 72
     0
 41
0.0
 42
0.0
  3
Standard
100
AcDbAlignedDimension
 13
74.454872
 23
-105.849298
 33
0.0
 14
34.89221
 24
217.878901
 34
0.0
 50
90.0
100
AcDbRotatedDimension
  0
DIMENSION
  5
781
100
AcDbEntity
  8
3
370
    25
100
AcDbDimension
  2
*D6
 10
28.729514
 20
190.750702
 30
0.0
 11
21.634179
 21
222.424188
 31
0.0
 70
     2
 71
     0
 72
     0
 41
0.0
 42
0.0
  3
Standard
100
AcDb2LineAngularDimension
 13
56.775984
 23
209.037283
 33
0.0
 14
102.036859
 24
190.750702
 34
0.0
 15
102.036859
 25
190.750702
 35
0.0
 16
20.101378
 26
206.677346
 36
0.0
1001
ACAD
1000
DSTYLE
1002
{
1070
   275
1070
     0
1070
   179
1070
     0
1002
}
  0
TEXT
  5
782
100
AcDbEntity
  8
3
370
    50
100
AcDbText
 10
456.286835
 20
-359.769493
 30
0.0
 40
10.5
  1
３
 72
     5
 11
464.686835
 21
-359.769493
 31
0.0
100
AcDbText
  0
DIMENSION
  5
783
100
AcDbEntity
  8
3
370
    25
100
AcDbDimension
  2
*D7
 10
115.454872
 20
152.028477
 30
0.0
 11
143.204872
 21
158.778477
 31
0.0
 70
     1
 71
     0
 72
     0
 41
0.0
 42
0.0
  3
Standard
100
AcDbAlignedDimension
 13
80.454872
 23
152.028477
 33
0.0
 14
115.454872
 24
152.028477
 34
0.0
  0
TEXT
  5
784
100
AcDbEntity
  8
3
370
    50
100
AcDbText
 10
97.327068
 20
-343.255119
 30
0.0
 40
10.5
  1
台付シングルレバー湯水混合水栓（共）
 72
     5
 11
284.227068
 21
-343.255119
 31
0.0
100
AcDbText
  0
TEXT
  5
785
100
AcDbEntity
  8
3
370
    50
100
AcDbText
 10
-274.512577
 20
-336.816865
 30
0.0
 40
10.5
  1
Ｇ１/２
 72
     5
 11
-239.862577
 21
-336.816865
 31
0.0
100
AcDbText
  0
LWPOLYLINE
  5
786
100
AcDbEntity
  8
3
370
    25
100
AcDbPolyline
 90
        3
 70
     0
 10
-283.947575
 20
-324.245601
 10
-275.212399
 20
-337.764436
 10
-237.459892
 20
-337.764436
  0
LINE
  5
78B
100
AcDbEntity
  8
3
370
    25
100
AcDbLine
 10
-280.802256
 20
-329.113396
 30
0.0
 11
-279.497934
 21
-328.27061
 31
0.0
  0
LINE
  5
78C
100
AcDbEntity
  8
3
370
    25
100
AcDbLine
 10
-279.497934
 20
-328.27061
 30
0.0
 11
-283.947575
 21
-324.245601
 31
0.0
  0
LINE
  5
78D
100
AcDbEntity
  8
3
370
    25
100
AcDbLine
 10
-283.947575
 20
-324.245601
 30
0.0
 11
-282.106578
 21
-329.956181
 31
0.0
  0
LINE
  5
78E
100
AcDbEntity
  8
3
370
    25
100
AcDbLine
 10
-282.106578
 20
-329.956181
 30
0.0
 11
-280.802256
 21
-329.113396
 31
0.0
  0
TEXT
  5
78F
100
AcDbEntity
  8
3
370
    50
100
AcDbText
 10
-357.295721
 20
-324.416436
 30
0.0
 40
10.5
  1
２６六角
 72
     5
 11
-317.395721
 21
-324.416436
 31
0.0
100
AcDbText
  0
LWPOLYLINE
  5
790
100
AcDbEntity
  8
3
370
    25
100
AcDbPolyline
 90
        3
 70
     0
 10
-307.121617
 20
-316.969255
 10
-315.063015
 20
-324.605287
 10
-355.707962
 20
-324.605287
  0
LINE
  5
795
100
AcDbEntity
  8
3
370
    25
100
AcDbLine
 10
-311.299225
 20
-320.986224
 30
0.0
 11
-310.222882
 21
-322.105611
 31
0.0
  0
LINE
  5
796
100
AcDbEntity
  8
3
370
    25
100
AcDbLine
 10
-310.222882
 20
-322.105611
 30
0.0
 11
-307.121617
 21
-316.969255
 31
0.0
  0
LINE
  5
797
100
AcDbEntity
  8
3
370
    25
100
AcDbLine
 10
-307.121617
 20
-316.969255
 30
0.0
 11
-312.375569
 21
-319.866837
 31
0.0
  0
LINE
  5
798
100
AcDbEntity
  8
3
370
    25
100
AcDbLine
 10
-312.375569
 20
-319.866837
 30
0.0
 11
-311.299225
 21
-320.986224
 31
0.0
  0
TEXT
  5
799
100
AcDbEntity
  8
3
370
    50
100
AcDbText
 10
-71.060589
 20
26.700702
 30
0.0
 40
10.5
  1
２９６
 50
90.0
 72
     5
 11
-71.060589
 21
56.100702
 31
0.0
100
AcDbText
  0
DIMENSION
  5
79A
100
AcDbEntity
  8
3
370
    25
100
AcDbDimension
  2
*D8
 10
-69.560589
 20
190.750702
 30
0.0
 11
-72.060589
 21
42.450702
 31
0.0
 71
     0
 72
     0
 41
0.0
 42
0.0
  3
Standard
100
AcDbAlignedDimension
 13
74.454872
 23
-105.849298
 33
0.0
 14
21.955049
 24
190.750702
 34
0.0
 50
90.0
100
AcDbRotatedDimension
  0
TEXT
  5
79B
100
AcDbEntity
  8
3
370
    50
100
AcDbText
 10
-186.646133
 20
-264.047449
 30
0.0
 40
10.5
  1
３５６（水側、湯側）
 50
90.0
 72
     5
 11
-186.646134
 21
-161.147449
 31
0.0
100
AcDbText
  0
DIMENSION
  5
79C
100
AcDbEntity
  8
3
370
    25
100
AcDbDimension
  2
*D9
 10
-185.146133
 20
-105.849298
 30
0.0
 11
-187.646133
 21
-211.547449
 31
0.0
 71
     0
 72
     0
 41
0.0
 42
0.0
  3
Standard
100
AcDbAlignedDimension
 13
-293.265416
 23
-317.245601
 33
0.0
 14
-332.453258
 24
-105.849298
 34
0.0
 50
90.0
100
AcDbRotatedDimension
  0
TEXT
  5
79D
100
AcDbEntity
  8
3
370
    50
100
AcDbText
 10
115.479239
 20
336.916251
 30
0.0
 40
10.5
  1
湯表示
 72
     5
 11
144.879239
 21
336.916251
 31
0.0
100
AcDbText
  0
LWPOLYLINE
  5
79E
100
AcDbEntity
  8
3
370
    25
100
AcDbPolyline
 90
        2
 70
     0
 10
102.171635
 20
321.063094
 10
113.6684
 20
334.707808
  0
LINE
  5
7A2
100
AcDbEntity
  8
3
370
    25
100
AcDbLine
 10
105.90599
 20
325.495141
 30
0.0
 11
104.718426
 21
326.495759
 31
0.0
  0
LINE
  5
7A3
100
AcDbEntity
  8
3
370
    25
100
AcDbLine
 10
104.718426
 20
326.495759
 30
0.0
 11
102.171635
 21
321.063094
 31
0.0
  0
LINE
  5
7A4
100
AcDbEntity
  8
3
370
    25
100
AcDbLine
 10
102.171635
 20
321.063094
 30
0.0
 11
107.093554
 21
324.494524
 31
0.0
  0
LINE
  5
7A5
100
AcDbEntity
  8
3
370
    25
100
AcDbLine
 10
107.093554
 20
324.494524
 30
0.0
 11
105.90599
 21
325.495141
 31
0.0
  0
TEXT
  5
7A6
100
AcDbEntity
  8
3
370
    50
100
AcDbText
 10
115.570276
 20
267.303832
 30
0.0
 40
10.5
  1
水表示
 72
     5
 11
144.970276
 21
267.303832
 31
0.0
100
AcDbText
  0
LWPOLYLINE
  5
7A7
100
AcDbEntity
  8
3
370
    25
100
AcDbPolyline
 90
        2
 70
     0
 10
102.890148
 20
293.568373
 10
114.900143
 20
278.076964
  0
LINE
  5
7AB
100
AcDbEntity
  8
3
370
    25
100
AcDbLine
 10
106.441108
 20
288.988074
 30
0.0
 11
107.668395
 21
289.939551
 31
0.0
  0
LINE
  5
7AC
100
AcDbEntity
  8
3
370
    25
100
AcDbLine
 10
107.668395
 20
289.939551
 30
0.0
 11
102.890148
 21
293.568373
 31
0.0
  0
LINE
  5
7AD
100
AcDbEntity
  8
3
370
    25
100
AcDbLine
 10
102.890148
 20
293.568373
 30
0.0
 11
105.21382
 21
288.036597
 31
0.0
  0
LINE
  5
7AE
100
AcDbEntity
  8
3
370
    25
100
AcDbLine
 10
105.21382
 20
288.036597
 30
0.0
 11
106.441108
 21
288.988074
 31
0.0
  0
TEXT
  5
7AF
100
AcDbEntity
  8
3
370
    50
100
AcDbText
 10
-4.646425
 20
324.499761
 30
0.0
 40
10.5
  1
ハンドル回転角度
 50
90.0
 72
     5
 11
-4.646425
 21
406.399761
 31
0.0
100
AcDbText
  0
POINT
  5
7B0
100
AcDbEntity
  8
3
370
    50
100
AcDbPoint
 10
166.838019
 20
-0.223273
 30
0.0
  0
TEXT
  5
7B1
100
AcDbEntity
  8
3
370
    50
100
AcDbText
 10
97.327068
 20
-355.255119
 30
0.0
 40
10.5
  1
ＭＬＺ５５２ＬＭＭＥ
 72
     5
 11
200.227068
 21
-355.255119
 31
0.0
100
AcDbText
  0
TEXT
  5
7B2
100
AcDbEntity
  8
3
370
    50
100
AcDbText
 10
484.65303
 20
-409.468369
 30
0.0
 40
15.75
  1
１１０２２５
 72
     5
 11
576.00303
 21
-409.468369
 31
0.0
100
AcDbText
  0
TEXT
  5
7B3
100
AcDbEntity
  8
3
370
    50
100
AcDbText
 10
514.778091
 20
-383.787231
 30
0.0
 40
10.5
  1
１９　１０　１
 72
     5
 11
586.178091
 21
-383.787231
 31
0.0
100
AcDbText
  0
DIMENSION
  5
7B4
100
AcDbEntity
  8
3
370
    25
100
AcDbDimension
  2
*D10
 10
31.767861
 20
307.251082
 30
0.0
 11
34.159662
 21
368.331975
 31
0.0
 70
     2
 71
     0
 72
     0
 41
0.0
 42
0.0
  3
Standard
100
AcDb2LineAngularDimension
 13
65.613447
 23
363.268073
 33
0.0
 14
97.954872
 24
307.251082
 34
0.0
 15
97.954872
 25
307.251082
 35
0.0
 16
23.659662
 26
350.145442
 36
0.0
1001
ACAD
1000
DSTYLE
1002
{
1070
   275
1070
     0
1070
   179
1070
     0
1002
}
  0
DIMENSION
  5
7B5
100
AcDbEntity
  8
3
370
    25
100
AcDbDimension
  2
*D11
 10
35.757528
 20
284.6131
 30
0.0
 11
17.117082
 21
271.67324
 31
0.0
 70
     2
 71
     0
 72
     0
 41
0.0
 42
0.0
  3
Standard
100
AcDb2LineAngularDimension
 13
2.887476
 23
307.251082
 33
0.0
 14
97.954872
 24
307.251082
 34
0.0
 15
97.954872
 25
307.251082
 35
0.0
 16
13.470471
 26
292.354203
 36
0.0
1001
ACAD
1000
DSTYLE
1002
{
1070
   275
1070
     0
1070
   179
1070
     0
1002
}
  0
ENDSEC
  0
SECTION
  2
OBJECTS
  0
DICTIONARY
  5
83E
100
AcDbDictionary
280
     0
281
     1
  3
ACAD_GROUP
350
83F
  3
ACAD_MLINESTYLE
350
840
  0
DICTIONARY
  5
83F
102
{ACAD_REACTORS
330
83E
102
}
100
AcDbDictionary
280
     0
281
     1
  0
DICTIONARY
  5
840
102
{ACAD_REACTORS
330
83E
102
}
100
AcDbDictionary
280
     0
281
     1
  3
Standard
350
841
  0
MLINESTYLE
  5
841
102
{ACAD_REACTORS
330
840
102
}
100
AcDbMlineStyle
  2
Standard
 70
     0
  3

 62
     0
 51
90.0
 52
90.0
 71
     2
 49
0.5
 62
   256
  6
ByLayer
 49
-0.5
 62
   256
  6
ByLayer
  0
ENDSEC
  0
EOF
