  0
SECTION
  2
HEADER
  9
$ACADVER
  1
AC1009
  9
$DWGCODEPAGE
  3
ansi_932
  9
$INSBASE
 10
0.0
 20
0.0
 30
0.0
  9
$EXTMIN
 10
-420.0
 20
-297.0
 30
1.000000E+20
  9
$EXTMAX
 10
420.0
 20
297.0
 30
-1.000000E+20
  9
$LIMMIN
 10
-420.0
 20
-297.0
  9
$LIMMAX
 10
420.0
 20
297.0
  9
$ORTHOMODE
 70
     0
  9
$REGENMODE
 70
     1
  9
$FILLMODE
 70
     1
  9
$QTEXTMODE
 70
     0
  9
$MIRRTEXT
 70
     1
  9
$DRAGMODE
 70
     2
  9
$LTSCALE
 40
1.0
  9
$OSMODE
 70
     0
  9
$ATTMODE
 70
     1
  9
$TEXTSIZE
 40
0.2
  9
$TRACEWID
 40
0.05
  9
$TEXTSTYLE
  7
STANDARD
  9
$CLAYER
  8
0
  9
$CELTYPE
  6
CONTINUOUS
  9
$CECOLOR
 62
   256
  9
$DIMSCALE
 40
2.0
  9
$DIMASZ
 40
2.0
  9
$DIMEXO
 40
1.0
  9
$DIMDLI
 40
0.38
  9
$DIMRND
 40
0.0
  9
$DIMDLE
 40
0.0
  9
$DIMEXE
 40
2.0
  9
$DIMTP
 40
0.0
  9
$DIMTM
 40
0.0
  9
$DIMTXT
 40
3.5
  9
$DIMCEN
 40
0.09
  9
$DIMTSZ
 40
0.0
  9
$DIMTOL
 70
     0
  9
$DIMLIM
 70
     0
  9
$DIMTIH
 70
     0
  9
$DIMTOH
 70
     0
  9
$DIMSE1
 70
     0
  9
$DIMSE2
 70
     0
  9
$DIMTAD
 70
     1
  9
$DIMZIN
 70
     0
  9
$DIMBLK
  1

  9
$DIMASO
 70
     1
  9
$DIMSHO
 70
     1
  9
$DIMPOST
  1

  9
$DIMAPOST
  1

  9
$DIMALT
 70
     0
  9
$DIMALTD
 70
     2
  9
$DIMALTF
 40
25.4
  9
$DIMLFAC
 40
1.0
  9
$DIMTOFL
 70
     0
  9
$DIMTVP
 40
0.0
  9
$DIMTIX
 70
     0
  9
$DIMSOXD
 70
     0
  9
$DIMSAH
 70
     0
  9
$DIMBLK1
  1

  9
$DIMBLK2
  1

  9
$DIMSTYLE
  2
STANDARD
  9
$DIMCLRD
 70
     0
  9
$DIMCLRE
 70
     0
  9
$DIMCLRT
 70
     0
  9
$DIMTFAC
 40
1.0
  9
$DIMGAP
 40
0.5
  9
$LUNITS
 70
     2
  9
$LUPREC
 70
     4
  9
$AXISMODE
 70
     0
  9
$AXISUNIT
 10
0.0
 20
0.0
  9
$SKETCHINC
 40
0.1
  9
$FILLETRAD
 40
0.0
  9
$AUNITS
 70
     0
  9
$AUPREC
 70
     0
  9
$MENU
  1
acad
  9
$ELEVATION
 40
0.0
  9
$PELEVATION
 40
0.0
  9
$THICKNESS
 40
0.0
  9
$LIMCHECK
 70
     0
  9
$BLIPMODE
 70
     1
  9
$CHAMFERA
 40
0.0
  9
$CHAMFERB
 40
0.0
  9
$SKPOLY
 70
     0
  9
$TDCREATE
 40
2454289.000000000
  9
$TDUPDATE
 40
0.000000000
  9
$TDINDWG
 40
0.0000000000
  9
$TDUSRTIMER
 40
0.0000000000
  9
$USRTIMER
 70
     1
  9
$ANGBASE
 50
0.0
  9
$ANGDIR
 70
     0
  9
$PDMODE
 70
     0
  9
$PDSIZE
 40
0.0
  9
$PLINEWID
 40
0.0
  9
$COORDS
 70
     0
  9
$SPLFRAME
 70
     0
  9
$SPLINETYPE
 70
     6
  9
$SPLINESEGS
 70
     8
  9
$ATTDIA
 70
     0
  9
$ATTREQ
 70
     1
  9
$HANDLING
 70
     1
  9
$HANDSEED
  5
A42
  9
$SURFTAB1
 70
     6
  9
$SURFTAB2
 70
     6
  9
$SURFTYPE
 70
     6
  9
$SURFU
 70
     6
  9
$SURFV
 70
     6
  9
$UCSNAME
  2

  9
$UCSORG
 10
0.0
 20
0.0
 30
0.0
  9
$UCSXDIR
 10
1.0
 20
0.0
 30
0.0
  9
$UCSYDIR
 10
0.0
 20
1.0
 30
0.0
  9
$PUCSNAME
  2

  9
$PUCSORG
 10
0.0
 20
0.0
 30
0.0
  9
$PUCSXDIR
 10
1.0
 20
0.0
 30
0.0
  9
$PUCSYDIR
 10
0.0
 20
1.0
 30
0.0
  9
$USERI1
 70
     0
  9
$USERI2
 70
     0
  9
$USERI3
 70
     0
  9
$USERI4
 70
     0
  9
$USERI5
 70
     0
  9
$USERR1
 40
0.0
  9
$USERR2
 40
0.0
  9
$USERR3
 40
0.0
  9
$USERR4
 40
0.0
  9
$USERR5
 40
0.0
  9
$WORLDVIEW
 70
     1
  9
$SHADEDGE
 70
     3
  9
$SHADEDIF
 70
    70
  9
$TILEMODE
 70
     1
  9
$MAXACTVP
 70
    16
  9
$PINSBASE
 10
0.0
 20
0.0
 30
0.0
  9
$PLIMCHECK
 70
     0
  9
$PEXTMIN
 10
1.000000E+20
 20
1.000000E+20
 30
1.000000E+20
  9
$PEXTMAX
 10
-1.000000E+20
 20
-1.000000E+20
 30
-1.000000E+20
  9
$PLIMMIN
 10
0.0
 20
0.0
  9
$PLIMMAX
 10
12.0
 20
9.0
  9
$UNITMODE
 70
     0
  9
$VISRETAIN
 70
     0
  9
$PLINEGEN
 70
     1
  9
$PSLTSCALE
 70
     0
  9
$TREEDEPTH
 70
  3020
  0
ENDSEC
  0
SECTION
  2
TABLES
  0
TABLE
  2
VPORT
 70
     1
  0
VPORT
  2
*ACTIVE
 70
     0
 10
0.0
 20
0.0
 11
1.0
 21
1.0
 12
0.0
 22
0.0
 13
0.0
 23
0.0
 14
1.0
 24
1.0
 15
0.0
 25
0.0
 16
0.0
 26
0.0
 36
1.0
 17
0.0
 27
0.0
 37
0.0
 40
594.0
 41
1.414141
 42
50.0
 43
0.0
 44
0.0
 50
0.0
 51
0.0
 71
     0
 72
   500
 73
     1
 74
     1
 75
     0
 76
     0
 77
     0
 78
     0
  0
ENDTAB
  0
TABLE
  2
LTYPE
 70
     7
  0
LTYPE
  2
CONTINUOUS
 70
     0
  3
Solid line
 72
    65
 73
     0
 40
0.0
  0
LTYPE
  2
DASHED
 70
     0
  3
__ __ __ __ __ __ __ __ __ __ __ __ __ __ __
 72
    65
 73
     2
 40
2.0
 49
1.2
 49
-0.8
  0
LTYPE
  2
CENTER
 70
     0
  3
____ _ ____ _ ____ _ ____ _ ____ _ ____ _ ____
 72
    65
 73
     4
 40
12.0
 49
9.0
 49
-1.0
 49
1.0
 49
-1.0
  0
LTYPE
  2
HIDDEN
 70
     0
  3
_ _ _ _ _ _ _ _ _ _ _ _ _ _ _ _ _ _ _ _ _ _ _
 72
    65
 73
     2
 40
3.2
 49
2.4
 49
-0.8
  0
LTYPE
  2
PHANTOM
 70
     0
  3
_____ _ _ _____ _ _ _____ _ _ _____ _ _ _____
 72
    65
 73
     6
 40
13.5
 49
9.0
 49
-1.0
 49
1.0
 49
-0.5
 49
1.0
 49
-1.0
  0
LTYPE
  2
DOT
 70
     0
  3
...............................................
 72
    65
 73
     2
 40
1.0
 49
0.5
 49
-0.5
  0
LTYPE
  2
DASHDOT
 70
     0
  3
__ . __ . __ . __ . __ . __ . __ . __ . __ . __
 72
    65
 73
     4
 40
8.0
 49
5.0
 49
-1.0
 49
1.0
 49
-1.0
  0
ENDTAB
  0
TABLE
  2
LAYER
 70
     5
  0
LAYER
  2
0
 70
     0
 62
     7
  6
CONTINUOUS
  0
LAYER
  2
1
 70
     0
 62
     7
  6
CONTINUOUS
  0
LAYER
  2
2
 70
     0
 62
     7
  6
CONTINUOUS
  0
LAYER
  2
3
 70
     0
 62
     7
  6
CONTINUOUS
  0
LAYER
  2
4
 70
     0
 62
     7
  6
CONTINUOUS
  0
ENDTAB
  0
TABLE
  2
STYLE
 70
     1
  0
STYLE
  2
STANDARD
 70
    64
 40
0.0
 41
1.0
 50
0.0
 71
     0
 42
1.0
  3
txt
  4
BIGFONT
  0
ENDTAB
  0
TABLE
  2
VIEW
 70
     0
  0
ENDTAB
  0
TABLE
  2
UCS
 70
     0
  0
ENDTAB
  0
TABLE
  2
APPID
 70
     1
  0
APPID
  2
ACAD
 70
     0
  0
ENDTAB
  0
TABLE
  2
DIMSTYLE
 70
     1
  0
DIMSTYLE
  2
STANDARD
 70
     0
  3

  4

  5

  6

  7

 40
2.0
 41
2.0
 42
1.0
 43
0.38
 44
2.0
 45
0.0
 46
0.0
 47
0.0
 48
0.0
 71
     0
 72
     0
 73
     0
 74
     0
 75
     0
 76
     0
 77
     1
 78
     0
140
3.5
141
0.09
142
0.0
143
25.4
144
1.0
145
0.0
146
1.0
147
0.5
170
     0
171
     2
172
     0
173
     0
174
     0
175
     0
176
     0
177
     0
178
     0
  0
ENDTAB
  0
ENDSEC
  0
SECTION
  2
BLOCKS
  0
BLOCK
  8
3
  5
88F
  2
*D0
 70
     1
 10
0.0
 20
0.0
 30
0.0
  3
*D0
  0
LINE
  8
3
 62
     2
  5
890
 10
-216.136154
 20
-51.039161
 30
0.0
 11
-216.136154
 21
-38.122861
 31
0.0
  0
LINE
  8
3
 62
     2
  5
891
 10
-216.136154
 20
-40.122861
 30
0.0
 11
-212.272451
 21
-41.158137
 31
0.0
  0
LINE
  8
3
 62
     2
  5
892
 10
-216.136154
 20
-40.122861
 30
0.0
 11
-212.272451
 21
-39.087585
 31
0.0
  0
LINE
  8
3
 62
     2
  5
893
 10
-212.272451
 20
-41.158137
 30
0.0
 11
-212.272451
 21
-39.087585
 31
0.0
  0
LINE
  8
3
 62
     2
  5
894
 10
-187.136154
 20
-40.122861
 30
0.0
 11
-274.136154
 21
-40.122861
 31
0.0
  0
LINE
  8
3
 62
     2
  5
895
 10
-264.136154
 20
-40.122861
 30
0.0
 11
-267.999857
 21
-39.087585
 31
0.0
  0
LINE
  8
3
 62
     2
  5
896
 10
-264.136154
 20
-40.122861
 30
0.0
 11
-267.999857
 21
-41.158137
 31
0.0
  0
LINE
  8
3
 62
     2
  5
897
 10
-267.999857
 20
-39.087585
 30
0.0
 11
-267.999857
 21
-41.158137
 31
0.0
  0
LINE
  8
3
 62
     2
  5
898
 10
-264.136154
 20
-51.039161
 30
0.0
 11
-264.136154
 21
-38.122861
 31
0.0
  0
ENDBLK
  8
3
  5
899
  0
BLOCK
  8
3
  5
89A
  2
*D1
 70
     1
 10
0.0
 20
0.0
 30
0.0
  3
*D1
  0
LINE
  8
3
 62
     2
  5
89B
 10
-6.700051
 20
-18.079515
 30
0.0
 11
-6.700051
 21
-71.97451
 31
0.0
  0
LINE
  8
3
 62
     2
  5
89C
 10
-6.700051
 20
-69.97451
 30
0.0
 11
-2.836348
 21
-71.009786
 31
0.0
  0
LINE
  8
3
 62
     2
  5
89D
 10
-6.700051
 20
-69.97451
 30
0.0
 11
-2.836348
 21
-68.939234
 31
0.0
  0
LINE
  8
3
 62
     2
  5
89E
 10
-2.836348
 20
-71.009786
 30
0.0
 11
-2.836348
 21
-68.939234
 31
0.0
  0
LINE
  8
3
 62
     2
  5
89F
 10
-6.700051
 20
-69.97451
 30
0.0
 11
103.771976
 21
-69.97451
 31
0.0
  0
LINE
  8
3
 62
     2
  5
8A0
 10
103.771976
 20
-69.97451
 30
0.0
 11
99.908273
 21
-68.939234
 31
0.0
  0
LINE
  8
3
 62
     2
  5
8A1
 10
103.771976
 20
-69.97451
 30
0.0
 11
99.908273
 21
-71.009786
 31
0.0
  0
LINE
  8
3
 62
     2
  5
8A2
 10
99.908273
 20
-68.939234
 30
0.0
 11
99.908273
 21
-71.009786
 31
0.0
  0
LINE
  8
3
 62
     2
  5
8A3
 10
103.771976
 20
-64.642476
 30
0.0
 11
103.771976
 21
-71.97451
 31
0.0
  0
ENDBLK
  8
3
  5
8A4
  0
BLOCK
  8
3
  5
8A5
  2
*D2
 70
     1
 10
0.0
 20
0.0
 30
0.0
  3
*D2
  0
LINE
  8
3
 62
     2
  5
8A6
 10
78.271976
 20
-56.539161
 30
0.0
 11
-38.277054
 21
-56.539161
 31
0.0
  0
LINE
  8
3
 62
     2
  5
8A7
 10
-36.277054
 20
-56.539161
 30
0.0
 11
-35.241778
 21
-52.675458
 31
0.0
  0
LINE
  8
3
 62
     2
  5
8A8
 10
-36.277054
 20
-56.539161
 30
0.0
 11
-37.31233
 21
-52.675458
 31
0.0
  0
LINE
  8
3
 62
     2
  5
8A9
 10
-35.241778
 20
-52.675458
 30
0.0
 11
-37.31233
 21
-52.675458
 31
0.0
  0
LINE
  8
3
 62
     2
  5
8AA
 10
-36.277054
 20
-56.539161
 30
0.0
 11
-36.277054
 21
-16.079515
 31
0.0
  0
LINE
  8
3
 62
     2
  5
8AB
 10
-36.277054
 20
-16.079515
 30
0.0
 11
-37.31233
 21
-19.943219
 31
0.0
  0
LINE
  8
3
 62
     2
  5
8AC
 10
-36.277054
 20
-16.079515
 30
0.0
 11
-35.241778
 21
-19.943219
 31
0.0
  0
LINE
  8
3
 62
     2
  5
8AD
 10
-37.31233
 20
-19.943219
 30
0.0
 11
-35.241778
 21
-19.943219
 31
0.0
  0
LINE
  8
3
 62
     2
  5
8AE
 10
-8.700051
 20
-16.079515
 30
0.0
 11
-38.277054
 21
-16.079515
 31
0.0
  0
ENDBLK
  8
3
  5
8AF
  0
BLOCK
  8
3
  5
8B0
  2
*D3
 70
     1
 10
0.0
 20
0.0
 30
0.0
  3
*D3
  0
TEXT
  8
3
 62
     2
  5
8B1
 10
-27.487222
 20
-42.491851
 30
0.0
 40
7.0
  1
４０゜
 50
340.0
 72
     5
 11
-9.069247
 21
-49.195445
 31
0.0
  0
LINE
  8
3
 62
     2
  5
8B2
 10
-7.985627
 20
-17.611604
 30
0.0
 11
-29.152049
 21
-42.836764
 31
0.0
  0
LINE
  8
3
 62
     2
  5
8B3
 10
-6.700051
 20
-18.079515
 30
0.0
 11
-6.700051
 21
-51.008623
 31
0.0
  0
LINE
  8
3
 62
     2
  5
8B4
 10
-27.866474
 20
-41.304675
 30
0.0
 11
-25.383891
 21
-44.44104
 31
0.0
  0
LINE
  8
3
 62
     2
  5
8B5
 10
-27.866474
 20
-41.304675
 30
0.0
 11
-24.148312
 21
-42.779555
 31
0.0
  0
LINE
  8
3
 62
     2
  5
8B6
 10
-25.383891
 20
-44.44104
 30
0.0
 11
-24.148312
 21
-42.779555
 31
0.0
  0
LINE
  8
3
 62
     2
  5
8B7
 10
-6.700051
 20
-49.008623
 30
0.0
 11
-10.496363
 21
-47.748458
 31
0.0
  0
LINE
  8
3
 62
     2
  5
8B8
 10
-6.700051
 20
-49.008623
 30
0.0
 11
-10.617837
 21
-49.815444
 31
0.0
  0
LINE
  8
3
 62
     2
  5
8B9
 10
-10.496363
 20
-47.748458
 30
0.0
 11
-10.617837
 21
-49.815444
 31
0.0
  0
ARC
  8
3
 62
     2
  5
8BA
 10
-6.700051
 20
-16.079515
 30
0.0
 40
32.929107
 50
230.0
 51
270.0
  0
ENDBLK
  8
3
  5
8BB
  0
BLOCK
  8
3
  5
8BC
  2
*D4
 70
     1
 10
0.0
 20
0.0
 30
0.0
  3
*D4
  0
LINE
  8
3
 62
     2
  5
8BD
 10
78.271976
 20
-56.539161
 30
0.0
 11
-66.017494
 21
-56.539161
 31
0.0
  0
LINE
  8
3
 62
     2
  5
8BE
 10
-64.017494
 20
-56.539161
 30
0.0
 11
-62.982218
 21
-52.675458
 31
0.0
  0
LINE
  8
3
 62
     2
  5
8BF
 10
-64.017494
 20
-56.539161
 30
0.0
 11
-65.05277
 21
-52.675458
 31
0.0
  0
LINE
  8
3
 62
     2
  5
8C0
 10
-62.982218
 20
-52.675458
 30
0.0
 11
-65.05277
 21
-52.675458
 31
0.0
  0
LINE
  8
3
 62
     2
  5
8C1
 10
-64.017494
 20
-56.539161
 30
0.0
 11
-64.017494
 21
107.189038
 31
0.0
  0
LINE
  8
3
 62
     2
  5
8C2
 10
-64.017494
 20
107.189038
 30
0.0
 11
-65.05277
 21
103.325334
 31
0.0
  0
LINE
  8
3
 62
     2
  5
8C3
 10
-64.017494
 20
107.189038
 30
0.0
 11
-62.982218
 21
103.325334
 31
0.0
  0
LINE
  8
3
 62
     2
  5
8C4
 10
-65.05277
 20
103.325334
 30
0.0
 11
-62.982218
 21
103.325334
 31
0.0
  0
LINE
  8
3
 62
     2
  5
8C5
 10
38.709314
 20
107.189038
 30
0.0
 11
-66.017494
 21
107.189038
 31
0.0
  0
ENDBLK
  8
3
  5
8C6
  0
BLOCK
  8
3
  5
8C7
  2
*D5
 70
     1
 10
0.0
 20
0.0
 30
0.0
  3
*D5
  0
LINE
  8
3
 62
     2
  5
8C8
 10
103.771976
 20
87.695892
 30
0.0
 11
103.771976
 21
101.76532
 31
0.0
  0
LINE
  8
3
 62
     2
  5
8C9
 10
103.771976
 20
99.76532
 30
0.0
 11
107.63568
 21
98.730044
 31
0.0
  0
LINE
  8
3
 62
     2
  5
8CA
 10
103.771976
 20
99.76532
 30
0.0
 11
107.63568
 21
100.800596
 31
0.0
  0
LINE
  8
3
 62
     2
  5
8CB
 10
107.63568
 20
98.730044
 30
0.0
 11
107.63568
 21
100.800596
 31
0.0
  0
LINE
  8
3
 62
     2
  5
8CC
 10
103.771976
 20
99.76532
 30
0.0
 11
129.362859
 21
99.76532
 31
0.0
  0
LINE
  8
3
 62
     2
  5
8CD
 10
129.362859
 20
99.76532
 30
0.0
 11
125.499155
 21
100.800596
 31
0.0
  0
LINE
  8
3
 62
     2
  5
8CE
 10
129.362859
 20
99.76532
 30
0.0
 11
125.499155
 21
98.730044
 31
0.0
  0
LINE
  8
3
 62
     2
  5
8CF
 10
125.499155
 20
100.800596
 30
0.0
 11
125.499155
 21
98.730044
 31
0.0
  0
LINE
  8
3
 62
     2
  5
8D0
 10
129.362859
 20
77.68482
 30
0.0
 11
129.362859
 21
101.76532
 31
0.0
  0
ENDBLK
  8
3
  5
8D1
  0
BLOCK
  8
3
  5
8D2
  2
*D6
 70
     1
 10
0.0
 20
0.0
 30
0.0
  3
*D6
  0
TEXT
  8
3
 62
     2
  5
8D3
 10
12.988411
 20
87.804309
 30
0.0
 40
7.0
  1
２２゜
 50
79.0
 72
     5
 11
16.728268
 21
107.044201
 31
0.0
  0
LINE
  8
3
 62
     2
  5
8D4
 10
39.318538
 20
107.750947
 30
0.0
 11
19.215068
 21
115.873277
 31
0.0
  0
LINE
  8
3
 62
     2
  5
8D5
 10
25.772154
 20
80.060839
 30
0.0
 11
12.253835
 21
80.060839
 31
0.0
  0
LINE
  8
3
 62
     2
  5
8D6
 10
21.069435
 20
115.124064
 30
0.0
 11
18.728622
 21
111.880518
 31
0.0
  0
LINE
  8
3
 62
     2
  5
8D7
 10
21.069435
 20
115.124064
 30
0.0
 11
20.664004
 21
111.144664
 31
0.0
  0
LINE
  8
3
 62
     2
  5
8D8
 10
18.728622
 20
111.880518
 30
0.0
 11
20.664004
 21
111.144664
 31
0.0
  0
LINE
  8
3
 62
     2
  5
8D9
 10
14.253835
 20
80.060839
 30
0.0
 11
15.368635
 21
83.902351
 31
0.0
  0
LINE
  8
3
 62
     2
  5
8DA
 10
14.253835
 20
80.060839
 30
0.0
 11
13.298524
 21
83.945086
 31
0.0
  0
LINE
  8
3
 62
     2
  5
8DB
 10
15.368635
 20
83.902351
 30
0.0
 11
13.298524
 21
83.945086
 31
0.0
  0
ARC
  8
3
 62
     2
  5
8DC
 10
107.853963
 20
80.060839
 30
0.0
 40
93.600128
 50
158.0
 51
180.0
  0
ENDBLK
  8
3
  5
8DD
  0
BLOCK
  8
3
  5
8DE
  2
*D7
 70
     1
 10
0.0
 20
0.0
 30
0.0
  3
*D7
  0
TEXT
  8
3
 62
     2
  5
8DF
 10
129.271976
 20
42.181076
 30
0.0
 40
7.0
  1
φ３５
 72
     5
 11
148.871976
 21
42.181076
 31
0.0
  0
LINE
  8
3
 62
     2
  5
8E0
 10
86.271976
 20
41.181076
 30
0.0
 11
82.408273
 21
42.216352
 31
0.0
  0
LINE
  8
3
 62
     2
  5
8E1
 10
86.271976
 20
41.181076
 30
0.0
 11
82.408273
 21
40.1458
 31
0.0
  0
LINE
  8
3
 62
     2
  5
8E2
 10
82.408273
 20
42.216352
 30
0.0
 11
82.408273
 21
40.1458
 31
0.0
  0
LINE
  8
3
 62
     2
  5
8E3
 10
76.271976
 20
41.181076
 30
0.0
 11
150.271976
 21
41.181076
 31
0.0
  0
LINE
  8
3
 62
     2
  5
8E4
 10
121.271976
 20
41.181076
 30
0.0
 11
125.13568
 21
40.1458
 31
0.0
  0
LINE
  8
3
 62
     2
  5
8E5
 10
121.271976
 20
41.181076
 30
0.0
 11
125.13568
 21
42.216352
 31
0.0
  0
LINE
  8
3
 62
     2
  5
8E6
 10
125.13568
 20
40.1458
 30
0.0
 11
125.13568
 21
42.216352
 31
0.0
  0
ENDBLK
  8
3
  5
8E7
  0
BLOCK
  8
3
  5
8E8
  2
*D8
 70
     1
 10
0.0
 20
0.0
 30
0.0
  3
*D8
  0
TEXT
  8
3
 62
     2
  5
8E9
 10
45.521736
 20
-20.039161
 30
0.0
 40
7.0
  1
φ１９
 50
90.0
 72
     5
 11
45.521736
 21
-0.439161
 31
0.0
  0
LINE
  8
3
 62
     2
  5
8EA
 10
46.521736
 20
27.960839
 30
0.0
 11
47.557012
 21
31.824542
 31
0.0
  0
LINE
  8
3
 62
     2
  5
8EB
 10
46.521736
 20
27.960839
 30
0.0
 11
45.48646
 21
31.824542
 31
0.0
  0
LINE
  8
3
 62
     2
  5
8EC
 10
47.557012
 20
31.824542
 30
0.0
 11
45.48646
 21
31.824542
 31
0.0
  0
LINE
  8
3
 62
     2
  5
8ED
 10
46.521736
 20
37.960839
 30
0.0
 11
46.521736
 21
-20.039161
 31
0.0
  0
LINE
  8
3
 62
     2
  5
8EE
 10
46.521736
 20
8.960839
 30
0.0
 11
45.48646
 21
5.097135
 31
0.0
  0
LINE
  8
3
 62
     2
  5
8EF
 10
46.521736
 20
8.960839
 30
0.0
 11
47.557012
 21
5.097135
 31
0.0
  0
LINE
  8
3
 62
     2
  5
8F0
 10
45.48646
 20
5.097135
 30
0.0
 11
47.557012
 21
5.097135
 31
0.0
  0
ENDBLK
  8
3
  5
8F1
  0
BLOCK
  8
3
  5
8F2
  2
*D9
 70
     1
 10
0.0
 20
0.0
 30
0.0
  3
*D9
  0
LINE
  8
3
 62
     2
  5
8F3
 10
-195.448311
 20
-218.435465
 30
0.0
 11
-109.92794
 21
-218.435465
 31
0.0
  0
LINE
  8
3
 62
     2
  5
8F4
 10
-111.92794
 20
-218.435465
 30
0.0
 11
-110.892664
 21
-214.571761
 31
0.0
  0
LINE
  8
3
 62
     2
  5
8F5
 10
-111.92794
 20
-218.435465
 30
0.0
 11
-112.963217
 21
-214.571761
 31
0.0
  0
LINE
  8
3
 62
     2
  5
8F6
 10
-110.892664
 20
-214.571761
 30
0.0
 11
-112.963217
 21
-214.571761
 31
0.0
  0
LINE
  8
3
 62
     2
  5
8F7
 10
-111.92794
 20
-218.435465
 30
0.0
 11
-111.92794
 21
-56.539161
 31
0.0
  0
LINE
  8
3
 62
     2
  5
8F8
 10
-111.92794
 20
-56.539161
 30
0.0
 11
-112.963217
 21
-60.402865
 31
0.0
  0
LINE
  8
3
 62
     2
  5
8F9
 10
-111.92794
 20
-56.539161
 30
0.0
 11
-110.892664
 21
-60.402865
 31
0.0
  0
LINE
  8
3
 62
     2
  5
8FA
 10
-112.963217
 20
-60.402865
 30
0.0
 11
-110.892664
 21
-60.402865
 31
0.0
  0
LINE
  8
3
 62
     2
  5
8FB
 10
-214.636154
 20
-56.539161
 30
0.0
 11
-109.92794
 21
-56.539161
 31
0.0
  0
ENDBLK
  8
3
  5
8FC
  0
BLOCK
  8
3
  5
8FD
  2
*D10
 70
     1
 10
0.0
 20
0.0
 30
0.0
  3
*D10
  0
LINE
  8
3
 62
     2
  5
8FE
 10
78.271976
 20
-56.539161
 30
0.0
 11
-51.753769
 21
-56.539161
 31
0.0
  0
LINE
  8
3
 62
     2
  5
8FF
 10
-49.753769
 20
-56.539161
 30
0.0
 11
-48.718493
 21
-52.675458
 31
0.0
  0
LINE
  8
3
 62
     2
  5
900
 10
-49.753769
 20
-56.539161
 30
0.0
 11
-50.789045
 21
-52.675458
 31
0.0
  0
LINE
  8
3
 62
     2
  5
901
 10
-48.718493
 20
-52.675458
 30
0.0
 11
-50.789045
 21
-52.675458
 31
0.0
  0
LINE
  8
3
 62
     2
  5
902
 10
-49.753769
 20
-56.539161
 30
0.0
 11
-49.753769
 21
80.060839
 31
0.0
  0
LINE
  8
3
 62
     2
  5
903
 10
-49.753769
 20
80.060839
 30
0.0
 11
-50.789045
 21
76.197135
 31
0.0
  0
LINE
  8
3
 62
     2
  5
904
 10
-49.753769
 20
80.060839
 30
0.0
 11
-48.718493
 21
76.197135
 31
0.0
  0
LINE
  8
3
 62
     2
  5
905
 10
-50.789045
 20
76.197135
 30
0.0
 11
-48.718493
 21
76.197135
 31
0.0
  0
LINE
  8
3
 62
     2
  5
906
 10
25.772154
 20
80.060839
 30
0.0
 11
-51.753769
 21
80.060839
 31
0.0
  0
ENDBLK
  8
3
  5
907
  0
BLOCK
  8
3
  5
908
  2
*D11
 70
     1
 10
0.0
 20
0.0
 30
0.0
  3
*D11
  0
TEXT
  8
3
 62
     2
  5
909
 10
24.226766
 20
230.362311
 30
0.0
 40
7.0
  1
６０゜
 50
60.0
 72
     5
 11
34.026766
 21
247.336409
 31
0.0
  0
LINE
  8
3
 62
     2
  5
90A
 10
63.395262
 20
266.49574
 30
0.0
 11
59.877617
 21
272.58848
 31
0.0
  0
LINE
  8
3
 62
     2
  5
90B
 10
22.51716
 20
196.561218
 30
0.0
 11
15.983257
 21
196.561218
 31
0.0
  0
LINE
  8
3
 62
     2
  5
90C
 10
60.877617
 20
270.856429
 30
0.0
 11
57.038206
 21
269.734409
 31
0.0
  0
LINE
  8
3
 62
     2
  5
90D
 10
60.877617
 20
270.856429
 30
0.0
 11
58.113599
 21
267.965026
 31
0.0
  0
LINE
  8
3
 62
     2
  5
90E
 10
57.038206
 20
269.734409
 30
0.0
 11
58.113599
 21
267.965026
 31
0.0
  0
LINE
  8
3
 62
     2
  5
90F
 10
17.983257
 20
196.561218
 30
0.0
 11
19.105276
 21
200.400629
 31
0.0
  0
LINE
  8
3
 62
     2
  5
910
 10
17.983257
 20
196.561218
 30
0.0
 11
17.035249
 21
200.447255
 31
0.0
  0
LINE
  8
3
 62
     2
  5
911
 10
19.105276
 20
200.400629
 30
0.0
 11
17.035249
 21
200.447255
 31
0.0
  0
ARC
  8
3
 62
     2
  5
912
 10
103.771976
 20
196.561218
 30
0.0
 40
85.78872
 50
120.0
 51
180.0
  0
ENDBLK
  8
3
  5
913
  0
BLOCK
  8
3
  5
914
  2
*D12
 70
     1
 10
0.0
 20
0.0
 30
0.0
  3
*D12
  0
TEXT
  8
3
 62
     2
  5
915
 10
17.464269
 20
192.00482
 30
0.0
 40
7.0
  1
２０゜
 50
280.0
 72
     5
 11
20.867773
 21
172.702588
 31
0.0
  0
LINE
  8
3
 62
     2
  5
916
 10
16.891038
 20
196.561218
 30
0.0
 11
19.984267
 21
196.561218
 31
0.0
  0
LINE
  8
3
 62
     2
  5
917
 10
27.417425
 20
168.770434
 30
0.0
 11
21.278514
 21
166.536053
 31
0.0
  0
LINE
  8
3
 62
     2
  5
918
 10
17.984267
 20
196.561218
 30
0.0
 11
17.03626
 21
192.675181
 31
0.0
  0
LINE
  8
3
 62
     2
  5
919
 10
17.984267
 20
196.561218
 30
0.0
 11
19.106287
 21
192.721808
 31
0.0
  0
LINE
  8
3
 62
     2
  5
91A
 10
17.03626
 20
192.675181
 30
0.0
 11
19.106287
 21
192.721808
 31
0.0
  0
LINE
  8
3
 62
     2
  5
91B
 10
23.157899
 20
167.220094
 30
0.0
 11
22.899097
 21
171.211713
 31
0.0
  0
LINE
  8
3
 62
     2
  5
91C
 10
23.157899
 20
167.220094
 30
0.0
 11
20.937961
 21
170.547536
 31
0.0
  0
LINE
  8
3
 62
     2
  5
91D
 10
22.899097
 20
171.211713
 30
0.0
 11
20.937961
 21
170.547536
 31
0.0
  0
ARC
  8
3
 62
     2
  5
91E
 10
103.771976
 20
196.561218
 30
0.0
 40
85.78771
 50
180.0
 51
200.0
  0
ENDBLK
  8
3
  5
91F
  0
ENDSEC
  0
SECTION
  2
ENTITIES
  0
LINE
  8
1
 62
     3
  5
32
 10
-373.02157
 20
275.028767
 30
0.0
 11
394.982385
 21
275.028767
 31
0.0
  0
LINE
  8
1
 62
     3
  5
33
 10
-373.02157
 20
275.028767
 30
0.0
 11
-373.02157
 21
-277.971881
 31
0.0
  0
LINE
  8
1
 62
     3
  5
34
 10
-373.02157
 20
-277.971881
 30
0.0
 11
394.982385
 21
-277.971881
 31
0.0
  0
LINE
  8
1
 62
     3
  5
35
 10
394.982385
 20
-277.971881
 30
0.0
 11
394.982385
 21
275.028767
 31
0.0
  0
TEXT
  8
1
  5
36
 10
359.628442
 20
-226.252857
 30
0.0
 40
6.0
  1
設計
 72
     5
 11
370.428442
 21
-226.252857
 31
0.0
  0
TEXT
  8
1
  5
37
 10
379.127478
 20
-226.099658
 30
0.0
 40
6.0
  1
製図
 72
     5
 11
389.927478
 21
-226.099658
 31
0.0
  0
TEXT
  8
1
  5
38
 10
319.005745
 20
-226.252857
 30
0.0
 40
6.0
  1
承認
 72
     5
 11
329.805745
 21
-226.252857
 31
0.0
  0
TEXT
  8
1
  5
39
 10
338.989679
 20
-226.19802
 30
0.0
 40
6.0
  1
検図
 72
     5
 11
349.789679
 21
-226.19802
 31
0.0
  0
LINE
  8
1
 62
     2
  5
3A
 10
284.982385
 20
-227.971881
 30
0.0
 11
394.982385
 21
-227.971881
 31
0.0
  0
LINE
  8
1
 62
     2
  5
3B
 10
342.482385
 20
-245.971881
 30
0.0
 11
342.482385
 21
-259.971881
 31
0.0
  0
TEXT
  8
1
  5
3C
 10
319.55159
 20
-256.012528
 30
0.0
 40
6.0
  1
日　付
 72
     5
 11
336.35159
 21
-256.012528
 31
0.0
  0
LINE
  8
1
  5
3D
 10
40.982385
 20
-259.971881
 30
0.0
 11
394.982385
 21
-259.971881
 31
0.0
  0
TEXT
  8
1
  5
3E
 10
287.775011
 20
-256.322406
 30
0.0
 40
6.0
  1
第三角法
 72
     5
 11
310.575011
 21
-256.322406
 31
0.0
  0
TEXT
  8
1
  5
3F
 10
291.087419
 20
-225.99802
 30
0.0
 40
6.0
  1
尺　度
 72
     5
 11
307.887419
 21
-225.99802
 31
0.0
  0
LINE
  8
1
 62
     3
  5
40
 10
40.982385
 20
-217.971881
 30
0.0
 11
394.982385
 21
-217.971881
 31
0.0
  0
LINE
  8
1
  5
41
 10
211.982385
 20
-217.971881
 30
0.0
 11
211.982385
 21
-277.971881
 31
0.0
  0
LINE
  8
1
 62
     2
  5
42
 10
374.982385
 20
-245.971881
 30
0.0
 11
374.982385
 21
-217.971881
 31
0.0
  0
LINE
  8
1
 62
     2
  5
43
 10
354.982385
 20
-245.971881
 30
0.0
 11
354.982385
 21
-217.971881
 31
0.0
  0
LINE
  8
1
 62
     2
  5
44
 10
334.982385
 20
-245.971881
 30
0.0
 11
334.982385
 21
-217.971881
 31
0.0
  0
LINE
  8
1
  5
45
 10
284.982385
 20
-277.971881
 30
0.0
 11
284.982385
 21
-217.971881
 31
0.0
  0
LINE
  8
1
  5
46
 10
189.982385
 20
-217.971881
 30
0.0
 11
189.982385
 21
-277.971881
 31
0.0
  0
LINE
  8
1
  5
47
 10
62.982385
 20
-217.971881
 30
0.0
 11
62.982385
 21
-259.971881
 31
0.0
  0
LINE
  8
1
  5
48
 10
284.982385
 20
-245.971881
 30
0.0
 11
394.982385
 21
-245.971881
 31
0.0
  0
TEXT
  8
1
  5
49
 10
287.101129
 20
-271.880939
 30
0.0
 40
6.0
  1
コードＮｏ
 41
0.9
 72
     5
 11
313.021129
 21
-271.880939
 31
0.0
  0
TEXT
  8
1
 62
     3
  5
4A
 10
52.886774
 20
-272.875659
 30
0.0
 40
8.0
  1
ミズタニバルブ工業株式会社
 41
1.2
 72
     5
 11
175.766774
 21
-272.875659
 31
0.0
  0
LINE
  8
1
  5
4B
 10
40.982385
 20
-238.971881
 30
0.0
 11
284.982385
 21
-238.971881
 31
0.0
  0
LINE
  8
1
  5
4C
 10
115.482385
 20
-238.971881
 30
0.0
 11
115.482385
 21
-259.971881
 31
0.0
  0
LINE
  8
1
  5
4D
 10
137.482385
 20
-238.971881
 30
0.0
 11
137.482385
 21
-259.971881
 31
0.0
  0
LINE
  8
1
  5
4E
 10
314.982385
 20
-277.971881
 30
0.0
 11
314.982385
 21
-217.971881
 31
0.0
  0
TEXT
  8
1
  5
4F
 10
345.098131
 20
-256.100293
 30
0.0
 40
6.0
  1
　　・　　・
 72
     5
 11
379.898131
 21
-256.100293
 31
0.0
  0
LINE
  8
1
 62
     3
  5
50
 10
40.982385
 20
-217.971881
 30
0.0
 11
40.982385
 21
-277.971881
 31
0.0
  0
TEXT
  8
1
  5
51
 10
290.832582
 20
-240.013492
 30
0.0
 40
6.0
  1
　／ 
 72
     5
 11
301.632582
 21
-240.013492
 31
0.0
  0
TEXT
  8
1
  5
52
 10
193.904123
 20
-272.024909
 30
0.0
 40
6.0
  1
備 考 
 72
     5
 11
207.704123
 21
-272.024909
 31
0.0
  0
TEXT
  8
1
  5
53
 10
193.512534
 20
-230.89184
 30
0.0
 40
6.0
  1
仕 上
 72
     5
 11
207.312534
 21
-230.89184
 31
0.0
  0
TEXT
  8
1
  5
54
 10
193.447176
 20
-248.891666
 30
0.0
 40
6.0
  1
表 面
 72
     5
 11
207.247176
 21
-248.891666
 31
0.0
  0
TEXT
  8
1
  5
55
 10
193.447176
 20
-255.891666
 30
0.0
 40
6.0
  1
処 理
 72
     5
 11
207.247176
 21
-255.891666
 31
0.0
  0
TEXT
  8
1
  5
56
 10
44.79335
 20
-231.693399
 30
0.0
 40
6.0
  1
品 名
 72
     5
 11
58.59335
 21
-231.693399
 31
0.0
  0
TEXT
  8
1
  5
57
 10
44.397766
 20
-252.462534
 30
0.0
 40
6.0
  1
材 質
 72
     5
 11
58.197766
 21
-252.462534
 31
0.0
  0
TEXT
  8
1
  5
58
 10
118.897766
 20
-252.462534
 30
0.0
 40
6.0
  1
規 格
 72
     5
 11
132.697766
 21
-252.462534
 31
0.0
  0
LINE
  8
2
  5
59
 10
-223.636154
 20
83.860839
 30
0.0
 11
-256.636154
 21
83.860839
 31
0.0
  0
LINE
  8
2
  5
5A
 10
-257.636154
 20
82.860839
 30
0.0
 11
-257.636154
 21
58.360839
 31
0.0
  0
LINE
  8
2
  5
5B
 10
-222.636154
 20
82.860839
 30
0.0
 11
-222.636154
 21
58.360839
 31
0.0
  0
ARC
  8
2
  5
5C
 10
-256.636154
 20
82.860839
 30
0.0
 40
1.0
 50
90.0
 51
180.0
  0
ARC
  8
2
  5
5D
 10
-223.636154
 20
82.860839
 30
0.0
 40
1.0
 50
0.0
 51
90.0
  0
LINE
  8
2
  5
5E
 10
-222.636154
 20
58.360839
 30
0.0
 11
-257.636154
 21
58.360839
 31
0.0
  0
CIRCLE
  8
2
  5
5F
 10
-240.136154
 20
75.860839
 30
0.0
 40
4.0
  0
CIRCLE
  8
2
 62
     2
  5
60
 10
-240.136154
 20
75.860839
 30
0.0
 40
3.5
  0
LINE
  8
2
  5
61
 10
-223.136154
 20
57.460839
 30
0.0
 11
-257.136154
 21
57.460839
 31
0.0
  0
LINE
  8
2
  5
62
 10
-222.636154
 20
56.960839
 30
0.0
 11
-222.636154
 21
-52.239161
 31
0.0
  0
LINE
  8
2
  5
63
 10
-222.636154
 20
56.960839
 30
0.0
 11
-223.136154
 21
57.460839
 31
0.0
  0
LINE
  8
2
  5
64
 10
-257.136154
 20
57.460839
 30
0.0
 11
-257.636154
 21
56.960839
 31
0.0
  0
LINE
  8
2
 62
     2
  5
65
 10
-222.636154
 20
56.960839
 30
0.0
 11
-257.636154
 21
56.960839
 31
0.0
  0
LINE
  8
2
  5
66
 10
-257.636154
 20
-52.239161
 30
0.0
 11
-257.336154
 21
-52.539161
 31
0.0
  0
LINE
  8
2
  5
67
 10
-222.636154
 20
-52.239161
 30
0.0
 11
-222.936154
 21
-52.539161
 31
0.0
  0
LINE
  8
2
  5
68
 10
-257.636154
 20
-52.239161
 30
0.0
 11
-257.636154
 21
56.960839
 31
0.0
  0
LINE
  8
2
  5
69
 10
-264.136154
 20
-53.039161
 30
0.0
 11
-264.136154
 21
-56.039161
 31
0.0
  0
LINE
  8
2
  5
6A
 10
-263.636154
 20
-56.539161
 30
0.0
 11
-240.136154
 21
-56.539161
 31
0.0
  0
LINE
  8
2
  5
6B
 10
-258.136154
 20
-52.539161
 30
0.0
 11
-257.386154
 21
-52.539161
 31
0.0
  0
LINE
  8
2
  5
6C
 10
-240.136154
 20
-52.539161
 30
0.0
 11
-263.636154
 21
-52.539161
 31
0.0
  0
LINE
  8
2
  5
6D
 10
-257.636154
 20
-59.539161
 30
0.0
 11
-257.636154
 21
-61.039161
 31
0.0
  0
LINE
  8
2
  5
6E
 10
-263.636154
 20
-52.539161
 30
0.0
 11
-264.136154
 21
-53.039161
 31
0.0
  0
LINE
  8
2
  5
6F
 10
-263.636154
 20
-56.539161
 30
0.0
 11
-264.136154
 21
-56.039161
 31
0.0
  0
LINE
  8
2
  5
70
 10
-257.636154
 20
-61.039161
 30
0.0
 11
-257.136154
 21
-61.539161
 31
0.0
  0
LINE
  8
2
  5
71
 10
-257.136154
 20
-61.539161
 30
0.0
 11
-240.136154
 21
-61.539161
 31
0.0
  0
LINE
  8
2
  5
72
 10
-216.136154
 20
-53.039161
 30
0.0
 11
-216.136154
 21
-56.039161
 31
0.0
  0
LINE
  8
2
  5
73
 10
-216.636154
 20
-56.539161
 30
0.0
 11
-240.136154
 21
-56.539161
 31
0.0
  0
LINE
  8
2
  5
74
 10
-222.136154
 20
-52.539161
 30
0.0
 11
-222.886154
 21
-52.539161
 31
0.0
  0
LINE
  8
2
  5
75
 10
-240.136154
 20
-52.539161
 30
0.0
 11
-216.636154
 21
-52.539161
 31
0.0
  0
LINE
  8
2
  5
76
 10
-222.636154
 20
-59.539161
 30
0.0
 11
-222.636154
 21
-61.039161
 31
0.0
  0
LINE
  8
2
  5
77
 10
-216.636154
 20
-52.539161
 30
0.0
 11
-216.136154
 21
-53.039161
 31
0.0
  0
LINE
  8
2
  5
78
 10
-216.636154
 20
-56.539161
 30
0.0
 11
-216.136154
 21
-56.039161
 31
0.0
  0
LINE
  8
2
  5
79
 10
-222.636154
 20
-61.039161
 30
0.0
 11
-223.136154
 21
-61.539161
 31
0.0
  0
LINE
  8
2
  5
7A
 10
-240.136154
 20
-61.539161
 30
0.0
 11
-223.136154
 21
-61.539161
 31
0.0
  0
LINE
  8
2
 62
     2
  5
7B
 10
-257.636154
 20
-52.239161
 30
0.0
 11
-222.636154
 21
-52.239161
 31
0.0
  0
LINE
  8
2
 62
     2
  5
7C
 10
-216.136154
 20
-53.039161
 30
0.0
 11
-264.136154
 21
-53.039161
 31
0.0
  0
LINE
  8
2
 62
     2
  5
7D
 10
-264.136154
 20
-56.039161
 30
0.0
 11
-216.136154
 21
-56.039161
 31
0.0
  0
LINE
  8
2
 62
     2
  5
7E
 10
-222.636154
 20
-61.039161
 30
0.0
 11
-257.636154
 21
-61.039161
 31
0.0
  0
LINE
  8
2
  5
7F
 10
-216.636154
 20
-59.539161
 30
0.0
 11
-263.636154
 21
-59.539161
 31
0.0
  0
LINE
  8
2
  5
80
 10
-263.636154
 20
-56.539161
 30
0.0
 11
-263.636154
 21
-59.539161
 31
0.0
  0
LINE
  8
2
  5
81
 10
-216.636154
 20
-56.539161
 30
0.0
 11
-216.636154
 21
-59.539161
 31
0.0
  0
POLYLINE
  8
2
  5
82
 66
     1
 10
0.0
 20
0.0
 30
0.0
 70
     1
  0
VERTEX
  8
2
  5
926
 10
-230.636154
 20
-16.019515
 30
0.0
  0
VERTEX
  8
2
  5
927
 10
-230.669198
 20
-15.51064
 30
0.0
  0
VERTEX
  8
2
  5
928
 10
-230.769028
 20
-15.001765
 30
0.0
  0
VERTEX
  8
2
  5
929
 10
-230.937819
 20
-14.49289
 30
0.0
  0
VERTEX
  8
2
  5
92A
 10
-231.179468
 20
-13.984015
 30
0.0
  0
VERTEX
  8
2
  5
92B
 10
-231.50009
 20
-13.47514
 30
0.0
  0
VERTEX
  8
2
  5
92C
 10
-231.908913
 20
-12.966265
 30
0.0
  0
VERTEX
  8
2
  5
92D
 10
-232.419942
 20
-12.45739
 30
0.0
  0
VERTEX
  8
2
  5
92E
 10
-233.055272
 20
-11.948515
 30
0.0
  0
VERTEX
  8
2
  5
92F
 10
-233.852495
 20
-11.43964
 30
0.0
  0
VERTEX
  8
2
  5
930
 10
-234.884832
 20
-10.930765
 30
0.0
  0
VERTEX
  8
2
  5
931
 10
-236.339454
 20
-10.42189
 30
0.0
  0
VERTEX
  8
2
  5
932
 10
-240.136154
 20
-9.913015
 30
0.0
  0
VERTEX
  8
2
  5
933
 10
-243.932854
 20
-10.42189
 30
0.0
  0
VERTEX
  8
2
  5
934
 10
-245.387477
 20
-10.930765
 30
0.0
  0
VERTEX
  8
2
  5
935
 10
-246.419814
 20
-11.43964
 30
0.0
  0
VERTEX
  8
2
  5
936
 10
-247.217036
 20
-11.948515
 30
0.0
  0
VERTEX
  8
2
  5
937
 10
-247.852366
 20
-12.45739
 30
0.0
  0
VERTEX
  8
2
  5
938
 10
-248.363396
 20
-12.966265
 30
0.0
  0
VERTEX
  8
2
  5
939
 10
-248.772218
 20
-13.47514
 30
0.0
  0
VERTEX
  8
2
  5
93A
 10
-249.09284
 20
-13.984015
 30
0.0
  0
VERTEX
  8
2
  5
93B
 10
-249.33449
 20
-14.49289
 30
0.0
  0
VERTEX
  8
2
  5
93C
 10
-249.50328
 20
-15.001765
 30
0.0
  0
VERTEX
  8
2
  5
93D
 10
-249.603111
 20
-15.51064
 30
0.0
  0
VERTEX
  8
2
  5
93E
 10
-249.636154
 20
-16.019515
 30
0.0
  0
VERTEX
  8
2
  5
93F
 10
-249.603111
 20
-16.52839
 30
0.0
  0
VERTEX
  8
2
  5
940
 10
-249.50328
 20
-17.037265
 30
0.0
  0
VERTEX
  8
2
  5
941
 10
-249.33449
 20
-17.54614
 30
0.0
  0
VERTEX
  8
2
  5
942
 10
-249.09284
 20
-18.055015
 30
0.0
  0
VERTEX
  8
2
  5
943
 10
-248.772218
 20
-18.56389
 30
0.0
  0
VERTEX
  8
2
  5
944
 10
-248.363396
 20
-19.072765
 30
0.0
  0
VERTEX
  8
2
  5
945
 10
-247.852366
 20
-19.58164
 30
0.0
  0
VERTEX
  8
2
  5
946
 10
-247.217036
 20
-20.090515
 30
0.0
  0
VERTEX
  8
2
  5
947
 10
-246.419814
 20
-20.59939
 30
0.0
  0
VERTEX
  8
2
  5
948
 10
-245.387477
 20
-21.108265
 30
0.0
  0
VERTEX
  8
2
  5
949
 10
-243.932854
 20
-21.61714
 30
0.0
  0
VERTEX
  8
2
  5
94A
 10
-240.136154
 20
-22.126015
 30
0.0
  0
VERTEX
  8
2
  5
94B
 10
-236.339454
 20
-21.61714
 30
0.0
  0
VERTEX
  8
2
  5
94C
 10
-234.884832
 20
-21.108265
 30
0.0
  0
VERTEX
  8
2
  5
94D
 10
-233.852495
 20
-20.59939
 30
0.0
  0
VERTEX
  8
2
  5
94E
 10
-233.055272
 20
-20.090515
 30
0.0
  0
VERTEX
  8
2
  5
94F
 10
-232.419942
 20
-19.58164
 30
0.0
  0
VERTEX
  8
2
  5
950
 10
-231.908913
 20
-19.072765
 30
0.0
  0
VERTEX
  8
2
  5
951
 10
-231.50009
 20
-18.56389
 30
0.0
  0
VERTEX
  8
2
  5
952
 10
-231.179468
 20
-18.055015
 30
0.0
  0
VERTEX
  8
2
  5
953
 10
-230.937819
 20
-17.54614
 30
0.0
  0
VERTEX
  8
2
  5
954
 10
-230.769028
 20
-17.037265
 30
0.0
  0
VERTEX
  8
2
  5
955
 10
-230.669198
 20
-16.52839
 30
0.0
  0
VERTEX
  8
2
  5
956
 10
-230.636154
 20
-16.019515
 30
0.0
  0
SEQEND
  8
2
  5
957
  0
LINE
  8
2
  5
B5
 10
-249.636154
 20
18.460839
 30
0.0
 11
-249.636154
 21
-0.299
 31
0.0
  0
LINE
  8
2
  5
B6
 10
-230.636154
 20
18.460839
 30
0.0
 11
-230.636154
 21
-0.299
 31
0.0
  0
POLYLINE
  8
2
  5
B7
 66
     1
 10
0.0
 20
0.0
 30
0.0
  0
VERTEX
  8
2
  5
958
 10
-230.636154
 20
-0.299
 30
0.0
  0
VERTEX
  8
2
  5
959
 10
-230.669198
 20
0.209875
 30
0.0
  0
VERTEX
  8
2
  5
95A
 10
-230.769028
 20
0.71875
 30
0.0
  0
VERTEX
  8
2
  5
95B
 10
-230.937819
 20
1.227625
 30
0.0
  0
VERTEX
  8
2
  5
95C
 10
-231.179468
 20
1.7365
 30
0.0
  0
VERTEX
  8
2
  5
95D
 10
-231.50009
 20
2.245375
 30
0.0
  0
VERTEX
  8
2
  5
95E
 10
-231.908913
 20
2.75425
 30
0.0
  0
VERTEX
  8
2
  5
95F
 10
-232.419942
 20
3.263125
 30
0.0
  0
VERTEX
  8
2
  5
960
 10
-233.055272
 20
3.772
 30
0.0
  0
VERTEX
  8
2
  5
961
 10
-233.852495
 20
4.280875
 30
0.0
  0
VERTEX
  8
2
  5
962
 10
-234.884832
 20
4.78975
 30
0.0
  0
VERTEX
  8
2
  5
963
 10
-236.339454
 20
5.298625
 30
0.0
  0
VERTEX
  8
2
  5
964
 10
-240.136154
 20
5.8075
 30
0.0
  0
VERTEX
  8
2
  5
965
 10
-243.932854
 20
5.298625
 30
0.0
  0
VERTEX
  8
2
  5
966
 10
-245.387477
 20
4.78975
 30
0.0
  0
VERTEX
  8
2
  5
967
 10
-246.419814
 20
4.280875
 30
0.0
  0
VERTEX
  8
2
  5
968
 10
-247.217036
 20
3.772
 30
0.0
  0
VERTEX
  8
2
  5
969
 10
-247.852366
 20
3.263125
 30
0.0
  0
VERTEX
  8
2
  5
96A
 10
-248.363396
 20
2.75425
 30
0.0
  0
VERTEX
  8
2
  5
96B
 10
-248.772218
 20
2.245375
 30
0.0
  0
VERTEX
  8
2
  5
96C
 10
-249.09284
 20
1.7365
 30
0.0
  0
VERTEX
  8
2
  5
96D
 10
-249.33449
 20
1.227625
 30
0.0
  0
VERTEX
  8
2
  5
96E
 10
-249.50328
 20
0.71875
 30
0.0
  0
VERTEX
  8
2
  5
96F
 10
-249.603111
 20
0.209875
 30
0.0
  0
VERTEX
  8
2
  5
970
 10
-249.636154
 20
-0.299
 30
0.0
  0
SEQEND
  8
2
  5
971
  0
LINE
  8
2
  5
D2
 10
-230.636154
 20
-0.698626
 30
0.0
 11
-230.636154
 21
-16.019515
 31
0.0
  0
LINE
  8
2
  5
D3
 10
-249.636154
 20
-0.698626
 30
0.0
 11
-249.636154
 21
-16.019515
 31
0.0
  0
POLYLINE
  8
2
  5
D4
 66
     1
 10
0.0
 20
0.0
 30
0.0
  0
VERTEX
  8
2
  5
972
 10
-230.636154
 20
-0.698626
 30
0.0
  0
VERTEX
  8
2
  5
973
 10
-230.669198
 20
-0.189751
 30
0.0
  0
VERTEX
  8
2
  5
974
 10
-230.769028
 20
0.319124
 30
0.0
  0
VERTEX
  8
2
  5
975
 10
-230.937819
 20
0.827999
 30
0.0
  0
VERTEX
  8
2
  5
976
 10
-231.179468
 20
1.336874
 30
0.0
  0
VERTEX
  8
2
  5
977
 10
-231.50009
 20
1.845749
 30
0.0
  0
VERTEX
  8
2
  5
978
 10
-231.908913
 20
2.354624
 30
0.0
  0
VERTEX
  8
2
  5
979
 10
-232.419942
 20
2.863499
 30
0.0
  0
VERTEX
  8
2
  5
97A
 10
-233.055272
 20
3.372374
 30
0.0
  0
VERTEX
  8
2
  5
97B
 10
-233.852495
 20
3.881249
 30
0.0
  0
VERTEX
  8
2
  5
97C
 10
-234.884832
 20
4.390124
 30
0.0
  0
VERTEX
  8
2
  5
97D
 10
-236.339454
 20
4.898999
 30
0.0
  0
VERTEX
  8
2
  5
97E
 10
-240.136154
 20
5.407874
 30
0.0
  0
VERTEX
  8
2
  5
97F
 10
-243.932854
 20
4.898999
 30
0.0
  0
VERTEX
  8
2
  5
980
 10
-245.387477
 20
4.390124
 30
0.0
  0
VERTEX
  8
2
  5
981
 10
-246.419814
 20
3.881249
 30
0.0
  0
VERTEX
  8
2
  5
982
 10
-247.217036
 20
3.372374
 30
0.0
  0
VERTEX
  8
2
  5
983
 10
-247.852366
 20
2.863499
 30
0.0
  0
VERTEX
  8
2
  5
984
 10
-248.363396
 20
2.354624
 30
0.0
  0
VERTEX
  8
2
  5
985
 10
-248.772218
 20
1.845749
 30
0.0
  0
VERTEX
  8
2
  5
986
 10
-249.09284
 20
1.336874
 30
0.0
  0
VERTEX
  8
2
  5
987
 10
-249.33449
 20
0.827999
 30
0.0
  0
VERTEX
  8
2
  5
988
 10
-249.50328
 20
0.319124
 30
0.0
  0
VERTEX
  8
2
  5
989
 10
-249.603111
 20
-0.189751
 30
0.0
  0
VERTEX
  8
2
  5
98A
 10
-249.636154
 20
-0.698626
 30
0.0
  0
SEQEND
  8
2
  5
98B
  0
ARC
  8
2
  5
EF
 10
-240.136154
 20
18.460839
 30
0.0
 40
9.5
 50
0.0
 51
180.0
  0
POLYLINE
  8
2
  5
F0
 66
     1
 10
0.0
 20
0.0
 30
0.0
 70
     1
  0
VERTEX
  8
2
  5
98C
 10
-232.386154
 20
-16.019515
 30
0.0
  0
VERTEX
  8
2
  5
98D
 10
-232.434142
 20
-15.466015
 30
0.0
  0
VERTEX
  8
2
  5
98E
 10
-232.579935
 20
-14.912515
 30
0.0
  0
VERTEX
  8
2
  5
98F
 10
-232.829384
 20
-14.359015
 30
0.0
  0
VERTEX
  8
2
  5
990
 10
-233.193654
 20
-13.805515
 30
0.0
  0
VERTEX
  8
2
  5
991
 10
-233.692189
 20
-13.252015
 30
0.0
  0
VERTEX
  8
2
  5
992
 10
-234.359645
 20
-12.698515
 30
0.0
  0
VERTEX
  8
2
  5
993
 10
-235.264974
 20
-12.145015
 30
0.0
  0
VERTEX
  8
2
  5
994
 10
-236.585702
 20
-11.591515
 30
0.0
  0
VERTEX
  8
2
  5
995
 10
-240.136154
 20
-11.038015
 30
0.0
  0
VERTEX
  8
2
  5
996
 10
-243.686606
 20
-11.591515
 30
0.0
  0
VERTEX
  8
2
  5
997
 10
-245.007334
 20
-12.145015
 30
0.0
  0
VERTEX
  8
2
  5
998
 10
-245.912663
 20
-12.698515
 30
0.0
  0
VERTEX
  8
2
  5
999
 10
-246.58012
 20
-13.252015
 30
0.0
  0
VERTEX
  8
2
  5
99A
 10
-247.078654
 20
-13.805515
 30
0.0
  0
VERTEX
  8
2
  5
99B
 10
-247.442924
 20
-14.359015
 30
0.0
  0
VERTEX
  8
2
  5
99C
 10
-247.692374
 20
-14.912515
 30
0.0
  0
VERTEX
  8
2
  5
99D
 10
-247.838166
 20
-15.466015
 30
0.0
  0
VERTEX
  8
2
  5
99E
 10
-247.886154
 20
-16.019515
 30
0.0
  0
VERTEX
  8
2
  5
99F
 10
-247.838166
 20
-16.573015
 30
0.0
  0
VERTEX
  8
2
  5
9A0
 10
-247.692374
 20
-17.126515
 30
0.0
  0
VERTEX
  8
2
  5
9A1
 10
-247.442924
 20
-17.680015
 30
0.0
  0
VERTEX
  8
2
  5
9A2
 10
-247.078654
 20
-18.233515
 30
0.0
  0
VERTEX
  8
2
  5
9A3
 10
-246.58012
 20
-18.787015
 30
0.0
  0
VERTEX
  8
2
  5
9A4
 10
-245.912663
 20
-19.340515
 30
0.0
  0
VERTEX
  8
2
  5
9A5
 10
-245.007334
 20
-19.894015
 30
0.0
  0
VERTEX
  8
2
  5
9A6
 10
-243.686606
 20
-20.447515
 30
0.0
  0
VERTEX
  8
2
  5
9A7
 10
-240.136154
 20
-21.001015
 30
0.0
  0
VERTEX
  8
2
  5
9A8
 10
-236.585702
 20
-20.447515
 30
0.0
  0
VERTEX
  8
2
  5
9A9
 10
-235.264974
 20
-19.894015
 30
0.0
  0
VERTEX
  8
2
  5
9AA
 10
-234.359645
 20
-19.340515
 30
0.0
  0
VERTEX
  8
2
  5
9AB
 10
-233.692189
 20
-18.787015
 30
0.0
  0
VERTEX
  8
2
  5
9AC
 10
-233.193654
 20
-18.233515
 30
0.0
  0
VERTEX
  8
2
  5
9AD
 10
-232.829384
 20
-17.680015
 30
0.0
  0
VERTEX
  8
2
  5
9AE
 10
-232.579935
 20
-17.126515
 30
0.0
  0
VERTEX
  8
2
  5
9AF
 10
-232.434142
 20
-16.573015
 30
0.0
  0
VERTEX
  8
2
  5
9B0
 10
-232.386154
 20
-16.019515
 30
0.0
  0
SEQEND
  8
2
  5
9B1
  0
LINE
  8
2
  6
CENTER
 62
     2
  5
117
 10
-248.136154
 20
-118.036819
 30
0.0
 11
-248.136154
 21
-137.505645
 31
0.0
  0
LINE
  8
2
  5
118
 10
-241.286154
 20
-117.539161
 30
0.0
 11
-238.986154
 21
-117.539161
 31
0.0
  0
LINE
  8
2
  5
119
 10
-241.286154
 20
-111.350976
 30
0.0
 11
-238.986154
 21
-111.350976
 31
0.0
  0
ARC
  8
2
  5
11A
 10
-240.136154
 20
-104.350976
 30
0.0
 40
7.0
 50
270.0
 51
279.455743
  0
ARC
  8
2
  5
11B
 10
-240.136154
 20
-104.350976
 30
0.0
 40
7.0
 50
260.544257
 51
270.0
  0
LINE
  8
2
  5
11C
 10
-264.636154
 20
-75.550976
 30
0.0
 11
-264.636154
 21
-81.350976
 31
0.0
  0
LINE
  8
2
  5
11D
 10
-215.636154
 20
-75.550976
 30
0.0
 11
-215.636154
 21
-81.350976
 31
0.0
  0
LINE
  8
2
  5
11E
 10
-225.886154
 20
-75.550976
 30
0.0
 11
-215.636154
 21
-75.550976
 31
0.0
  0
LINE
  8
2
  5
11F
 10
-264.636154
 20
-75.550976
 30
0.0
 11
-254.386154
 21
-75.550976
 31
0.0
  0
LINE
  8
2
  5
120
 10
-241.886154
 20
-75.550976
 30
0.0
 11
-238.386154
 21
-75.550976
 31
0.0
  0
LINE
  8
2
  5
121
 10
-264.636154
 20
-77.350976
 30
0.0
 11
-254.074339
 21
-77.350976
 31
0.0
  0
LINE
  8
2
  5
122
 10
-242.197969
 20
-77.350976
 30
0.0
 11
-238.074339
 21
-77.350976
 31
0.0
  0
LINE
  8
2
  5
123
 10
-226.197969
 20
-77.350976
 30
0.0
 11
-215.636154
 21
-77.350976
 31
0.0
  0
LINE
  8
2
  5
124
 10
-226.136154
 20
-81.350976
 30
0.0
 11
-215.636154
 21
-81.350976
 31
0.0
  0
LINE
  8
2
  5
125
 10
-264.636154
 20
-81.350976
 30
0.0
 11
-254.136154
 21
-81.350976
 31
0.0
  0
LINE
  8
2
  5
126
 10
-242.136154
 20
-81.350976
 30
0.0
 11
-238.136154
 21
-81.350976
 31
0.0
  0
ARC
  8
2
  5
127
 10
-240.136154
 20
-88.350976
 30
0.0
 40
7.0
 50
73.39845
 51
90.0
  0
ARC
  8
2
  5
128
 10
-240.136154
 20
-88.350976
 30
0.0
 40
7.0
 50
90.0
 51
106.60155
  0
LINE
  8
2
  6
CENTER
 62
     2
  5
129
 10
-282.823997
 20
-129.194644
 30
0.0
 11
-282.823997
 21
-141.025879
 31
0.0
  0
LINE
  8
2
 62
     2
  5
12A
 10
-218.136154
 20
-59.539161
 30
0.0
 11
-216.636154
 21
-58.039161
 31
0.0
  0
LINE
  8
2
 62
     2
  5
12B
 10
-220.964581
 20
-59.539161
 30
0.0
 11
-217.964581
 21
-56.539161
 31
0.0
  0
LINE
  8
2
 62
     2
  5
12C
 10
-223.793008
 20
-59.539161
 30
0.0
 11
-220.793008
 21
-56.539161
 31
0.0
  0
LINE
  8
2
 62
     2
  5
12D
 10
-226.621436
 20
-59.539161
 30
0.0
 11
-223.621436
 21
-56.539161
 31
0.0
  0
LINE
  8
2
 62
     2
  5
12E
 10
-229.449863
 20
-59.539161
 30
0.0
 11
-226.449863
 21
-56.539161
 31
0.0
  0
LINE
  8
2
 62
     2
  5
12F
 10
-232.27829
 20
-59.539161
 30
0.0
 11
-229.27829
 21
-56.539161
 31
0.0
  0
LINE
  8
2
 62
     2
  5
130
 10
-235.106717
 20
-59.539161
 30
0.0
 11
-232.106717
 21
-56.539161
 31
0.0
  0
LINE
  8
2
 62
     2
  5
131
 10
-237.935144
 20
-59.539161
 30
0.0
 11
-234.935144
 21
-56.539161
 31
0.0
  0
LINE
  8
2
 62
     2
  5
132
 10
-240.763571
 20
-59.539161
 30
0.0
 11
-237.763571
 21
-56.539161
 31
0.0
  0
LINE
  8
2
 62
     2
  5
133
 10
-243.591998
 20
-59.539161
 30
0.0
 11
-240.591998
 21
-56.539161
 31
0.0
  0
LINE
  8
2
 62
     2
  5
134
 10
-246.420425
 20
-59.539161
 30
0.0
 11
-243.420425
 21
-56.539161
 31
0.0
  0
LINE
  8
2
 62
     2
  5
135
 10
-249.248853
 20
-59.539161
 30
0.0
 11
-246.248853
 21
-56.539161
 31
0.0
  0
LINE
  8
2
 62
     2
  5
136
 10
-252.07728
 20
-59.539161
 30
0.0
 11
-249.07728
 21
-56.539161
 31
0.0
  0
LINE
  8
2
 62
     2
  5
137
 10
-254.905707
 20
-59.539161
 30
0.0
 11
-251.905707
 21
-56.539161
 31
0.0
  0
LINE
  8
2
 62
     2
  5
138
 10
-257.734134
 20
-59.539161
 30
0.0
 11
-254.734134
 21
-56.539161
 31
0.0
  0
LINE
  8
2
 62
     2
  5
139
 10
-260.562561
 20
-59.539161
 30
0.0
 11
-257.562561
 21
-56.539161
 31
0.0
  0
LINE
  8
2
 62
     2
  5
13A
 10
-263.390988
 20
-59.539161
 30
0.0
 11
-260.390988
 21
-56.539161
 31
0.0
  0
LINE
  8
2
 62
     2
  5
13B
 10
-263.636154
 20
-56.9559
 30
0.0
 11
-263.219415
 21
-56.539161
 31
0.0
  0
LINE
  8
2
  6
CENTER
 62
     2
  5
13C
 10
-248.136154
 20
-137.505645
 30
0.0
 11
-282.823997
 21
-129.194644
 31
0.0
  0
LINE
  8
2
  6
CENTER
 62
     2
  5
13D
 10
-197.448311
 20
-129.194644
 30
0.0
 11
-197.448311
 21
-141.025879
 31
0.0
  0
LINE
  8
2
  6
CENTER
 62
     2
  5
13E
 10
-232.136154
 20
-137.505645
 30
0.0
 11
-197.448311
 21
-129.194644
 31
0.0
  0
LINE
  8
2
  5
13F
 10
120.771976
 20
57.460839
 30
0.0
 11
86.771976
 21
57.460839
 31
0.0
  0
LINE
  8
2
  5
140
 10
121.271976
 20
56.960839
 30
0.0
 11
121.271976
 21
-52.239161
 31
0.0
  0
LINE
  8
2
  5
141
 10
121.271976
 20
56.960839
 30
0.0
 11
120.771976
 21
57.460839
 31
0.0
  0
LINE
  8
2
  5
142
 10
86.771976
 20
57.460839
 30
0.0
 11
86.271976
 21
56.960839
 31
0.0
  0
LINE
  8
2
  5
143
 10
86.271976
 20
-52.239161
 30
0.0
 11
86.571976
 21
-52.539161
 31
0.0
  0
LINE
  8
2
  5
144
 10
121.271976
 20
-52.239161
 30
0.0
 11
120.971976
 21
-52.539161
 31
0.0
  0
LINE
  8
2
  5
145
 10
86.271976
 20
-52.239161
 30
0.0
 11
86.271976
 21
8.960839
 31
0.0
  0
LINE
  8
2
  5
146
 10
86.271976
 20
27.960839
 30
0.0
 11
86.271976
 21
56.960839
 31
0.0
  0
LINE
  8
2
  5
147
 10
86.271976
 20
27.960839
 30
0.0
 11
33.940438
 21
27.960839
 31
0.0
  0
LINE
  8
2
  5
148
 10
86.271976
 20
8.960839
 30
0.0
 11
33.940438
 21
8.960839
 31
0.0
  0
ARC
  8
2
  5
149
 10
33.940438
 20
-6.539161
 30
0.0
 40
34.5
 50
90.0
 51
140.0
  0
ARC
  8
2
  5
14A
 10
33.940438
 20
-6.539161
 30
0.0
 40
15.5
 50
90.0
 51
140.0
  0
LINE
  8
2
  5
14B
 10
7.511905
 20
15.637011
 30
0.0
 11
-0.414655
 21
6.190505
 31
0.0
  0
LINE
  8
2
  5
14C
 10
22.066749
 20
3.424046
 30
0.0
 11
14.140189
 21
-6.02246
 31
0.0
  0
LINE
  8
2
  5
14D
 10
-0.414655
 20
6.190505
 30
0.0
 11
-0.736049
 21
5.807482
 31
0.0
  0
LINE
  8
2
  5
14E
 10
-0.097658
 20
4.749646
 30
0.0
 11
0.159457
 21
5.056064
 31
0.0
  0
LINE
  8
2
  5
14F
 10
-0.736049
 20
5.807482
 30
0.0
 11
6.541373
 21
-0.299
 31
0.0
  0
LINE
  8
2
  5
150
 10
0.159457
 20
5.056064
 30
0.0
 11
0.079252
 21
4.601201
 31
0.0
  0
LINE
  8
2
  5
151
 10
-0.414655
 20
6.190505
 30
0.0
 11
6.862767
 21
0.084022
 31
0.0
  0
LINE
  8
2
  5
152
 10
14.140189
 20
-6.02246
 30
0.0
 11
13.818795
 21
-6.405482
 31
0.0
  0
LINE
  8
2
  5
153
 10
12.666174
 20
-5.960481
 30
0.0
 11
12.92329
 21
-5.654063
 31
0.0
  0
LINE
  8
2
  5
154
 10
13.818795
 20
-6.405482
 30
0.0
 11
6.541373
 21
-0.299
 31
0.0
  0
LINE
  8
2
  5
155
 10
12.92329
 20
-5.654063
 30
0.0
 11
12.489264
 21
-5.812036
 31
0.0
  0
LINE
  8
2
  5
156
 10
14.140189
 20
-6.02246
 30
0.0
 11
6.862767
 21
0.084022
 31
0.0
  0
LINE
  8
2
  5
157
 10
-1.314558
 20
5.118042
 30
0.0
 11
-13.527522
 21
-9.436802
 31
0.0
  0
LINE
  8
2
  5
158
 10
13.240287
 20
-7.094922
 30
0.0
 11
1.027322
 21
-21.649767
 31
0.0
  0
ARC
  8
2
  5
159
 10
-13.1445
 20
-9.758196
 30
0.0
 40
0.5
 50
140.0
 51
230.0
  0
ARC
  8
2
  5
15A
 10
0.6443
 20
-21.328373
 30
0.0
 40
0.5
 50
230.0
 51
320.0
  0
ARC
  8
2
  5
15B
 10
12.857264
 20
-6.773528
 30
0.0
 40
0.5
 50
320.0
 51
50.0
  0
ARC
  8
2
  5
15C
 10
-0.931536
 20
4.796649
 30
0.0
 40
0.5
 50
50.0
 51
140.0
  0
LINE
  8
2
  5
15D
 10
-0.610142
 20
5.179671
 30
0.0
 11
6.284258
 21
-0.605418
 31
0.0
  0
LINE
  8
2
  5
15E
 10
6.284258
 20
-0.605418
 30
0.0
 11
13.178658
 21
-6.390506
 31
0.0
  0
LINE
  8
2
  5
15F
 10
79.771976
 20
-53.039161
 30
0.0
 11
79.771976
 21
-56.039161
 31
0.0
  0
LINE
  8
2
  5
160
 10
80.271976
 20
-56.539161
 30
0.0
 11
103.771976
 21
-56.539161
 31
0.0
  0
LINE
  8
2
  5
161
 10
85.771976
 20
-52.539161
 30
0.0
 11
86.521976
 21
-52.539161
 31
0.0
  0
LINE
  8
2
  5
162
 10
103.771976
 20
-52.539161
 30
0.0
 11
80.271976
 21
-52.539161
 31
0.0
  0
LINE
  8
2
  5
163
 10
86.271976
 20
-59.539161
 30
0.0
 11
86.271976
 21
-61.039161
 31
0.0
  0
LINE
  8
2
  5
164
 10
80.271976
 20
-52.539161
 30
0.0
 11
79.771976
 21
-53.039161
 31
0.0
  0
LINE
  8
2
  5
165
 10
80.271976
 20
-56.539161
 30
0.0
 11
79.771976
 21
-56.039161
 31
0.0
  0
LINE
  8
2
  5
166
 10
86.271976
 20
-61.039161
 30
0.0
 11
86.771976
 21
-61.539161
 31
0.0
  0
LINE
  8
2
  5
167
 10
86.771976
 20
-61.539161
 30
0.0
 11
103.771976
 21
-61.539161
 31
0.0
  0
LINE
  8
2
  5
168
 10
127.771976
 20
-53.039161
 30
0.0
 11
127.771976
 21
-56.039161
 31
0.0
  0
LINE
  8
2
  5
169
 10
127.271976
 20
-56.539161
 30
0.0
 11
103.771976
 21
-56.539161
 31
0.0
  0
LINE
  8
2
  5
16A
 10
121.771976
 20
-52.539161
 30
0.0
 11
121.021976
 21
-52.539161
 31
0.0
  0
LINE
  8
2
  5
16B
 10
103.771976
 20
-52.539161
 30
0.0
 11
127.271976
 21
-52.539161
 31
0.0
  0
LINE
  8
2
  5
16C
 10
121.271976
 20
-59.539161
 30
0.0
 11
121.271976
 21
-61.039161
 31
0.0
  0
LINE
  8
2
  5
16D
 10
127.271976
 20
-52.539161
 30
0.0
 11
127.771976
 21
-53.039161
 31
0.0
  0
LINE
  8
2
  5
16E
 10
127.271976
 20
-56.539161
 30
0.0
 11
127.771976
 21
-56.039161
 31
0.0
  0
LINE
  8
2
  5
16F
 10
121.271976
 20
-61.039161
 30
0.0
 11
120.771976
 21
-61.539161
 31
0.0
  0
LINE
  8
2
  5
170
 10
103.771976
 20
-61.539161
 30
0.0
 11
120.771976
 21
-61.539161
 31
0.0
  0
LINE
  8
2
  5
171
 10
103.771976
 20
58.360839
 30
0.0
 11
86.271976
 21
58.360839
 31
0.0
  0
LINE
  8
2
  5
172
 10
120.271976
 20
83.860839
 30
0.0
 11
87.271976
 21
83.860839
 31
0.0
  0
LINE
  8
2
  5
173
 10
103.771976
 20
58.360839
 30
0.0
 11
121.271976
 21
65.431297
 31
0.0
  0
LINE
  8
2
  5
174
 10
86.271976
 20
58.360839
 30
0.0
 11
86.271976
 21
71.660839
 31
0.0
  0
ARC
  8
2
  5
175
 10
120.271976
 20
82.860839
 30
0.0
 40
1.0
 50
0.0
 51
90.0
  0
ARC
  8
2
  5
176
 10
87.271976
 20
82.860839
 30
0.0
 40
1.0
 50
90.0
 51
180.0
  0
LINE
  8
2
  5
177
 10
86.271976
 20
82.860839
 30
0.0
 11
86.271976
 21
80.060839
 31
0.0
  0
ARC
  8
2
  5
178
 10
69.283451
 20
75.860839
 30
0.0
 40
17.5
 50
346.11346
 51
360.0
  0
ARC
  8
2
  5
179
 10
69.283451
 20
75.860839
 30
0.0
 40
17.5
 50
0.0
 51
13.88654
  0
ARC
  8
2
  5
17A
 10
115.343773
 20
75.860839
 30
0.0
 40
8.0
 50
0.0
 51
30.0
  0
LINE
  8
2
  5
17B
 10
122.271976
 20
79.860839
 30
0.0
 11
121.271976
 21
79.860839
 31
0.0
  0
LINE
  8
2
  5
17C
 10
121.271976
 20
79.110839
 30
0.0
 11
121.271976
 21
79.860839
 31
0.0
  0
ARC
  8
2
  5
17D
 10
115.343773
 20
75.860839
 30
0.0
 40
8.0
 50
330.0
 51
360.0
  0
LINE
  8
2
  5
17E
 10
122.271976
 20
71.860839
 30
0.0
 11
121.271976
 21
71.860839
 31
0.0
  0
LINE
  8
2
  5
17F
 10
121.271976
 20
72.610839
 30
0.0
 11
121.271976
 21
71.860839
 31
0.0
  0
LINE
  8
2
  5
180
 10
121.271976
 20
65.431297
 30
0.0
 11
121.271976
 21
75.860839
 31
0.0
  0
LINE
  8
2
  5
181
 10
121.271976
 20
75.860839
 30
0.0
 11
121.271976
 21
82.860839
 31
0.0
  0
LINE
  8
2
  5
182
 10
27.772154
 20
71.860839
 30
0.0
 11
86.320176
 21
71.860839
 31
0.0
  0
LINE
  8
2
  5
183
 10
27.772154
 20
79.860839
 30
0.0
 11
86.320176
 21
79.860839
 31
0.0
  0
LINE
  8
2
  5
184
 10
27.272154
 20
72.360839
 30
0.0
 11
27.272154
 21
79.360839
 31
0.0
  0
LINE
  8
2
  5
185
 10
27.772154
 20
79.860839
 30
0.0
 11
27.272154
 21
79.360839
 31
0.0
  0
LINE
  8
2
  5
186
 10
27.272154
 20
72.360839
 30
0.0
 11
27.772154
 21
71.860839
 31
0.0
  0
LINE
  8
2
 62
     2
  5
187
 10
122.271976
 20
79.860839
 30
0.0
 11
122.271976
 21
71.860839
 31
0.0
  0
POINT
  8
2
  5
188
 10
103.771976
 20
59.060839
 30
0.0
  0
ARC
  8
2
 62
     2
  5
189
 10
71.575038
 20
18.460839
 30
0.0
 40
17.5
 50
327.12165
 51
32.87835
  0
LINE
  8
2
  5
18A
 10
-13.465894
 20
-10.141218
 30
0.0
 11
0.322906
 21
-21.711395
 31
0.0
  0
LINE
  8
2
  5
18B
 10
110.896976
 20
-117.539161
 30
0.0
 11
110.271976
 21
-116.914161
 31
0.0
  0
LINE
  8
2
  5
18C
 10
117.646976
 20
-117.539161
 30
0.0
 11
118.271976
 21
-116.914161
 31
0.0
  0
LINE
  8
2
  5
18D
 10
110.896976
 20
-117.539161
 30
0.0
 11
117.646976
 21
-117.539161
 31
0.0
  0
LINE
  8
2
  5
18E
 10
121.271976
 20
-81.850976
 30
0.0
 11
121.271976
 21
-110.850976
 31
0.0
  0
LINE
  8
2
  5
18F
 10
120.771976
 20
-81.350976
 30
0.0
 11
121.271976
 21
-81.850976
 31
0.0
  0
LINE
  8
2
  5
190
 10
120.771976
 20
-111.350976
 30
0.0
 11
121.271976
 21
-110.850976
 31
0.0
  0
LINE
  8
2
  5
191
 10
107.771976
 20
-81.350976
 30
0.0
 11
107.271976
 21
-81.850976
 31
0.0
  0
LINE
  8
2
  5
192
 10
107.271976
 20
-81.850976
 30
0.0
 11
107.271976
 21
-110.850976
 31
0.0
  0
LINE
  8
2
  5
193
 10
107.771976
 20
-111.350976
 30
0.0
 11
107.271976
 21
-110.850976
 31
0.0
  0
LINE
  8
2
  5
194
 10
107.771976
 20
-111.350976
 30
0.0
 11
118.271976
 21
-111.350976
 31
0.0
  0
LINE
  8
2
  5
195
 10
118.271976
 20
-111.350976
 30
0.0
 11
120.771976
 21
-111.350976
 31
0.0
  0
LINE
  8
2
  5
196
 10
87.571976
 20
-77.350976
 30
0.0
 11
127.571976
 21
-77.350976
 31
0.0
  0
LINE
  8
2
  5
197
 10
87.571976
 20
-75.550976
 30
0.0
 11
127.571976
 21
-75.550976
 31
0.0
  0
LINE
  8
2
  5
198
 10
87.571976
 20
-75.550976
 30
0.0
 11
87.571976
 21
-81.350976
 31
0.0
  0
LINE
  8
2
  5
199
 10
127.571976
 20
-81.350976
 30
0.0
 11
127.571976
 21
-75.550976
 31
0.0
  0
LINE
  8
2
  5
19A
 10
118.271976
 20
-116.914161
 30
0.0
 11
118.271976
 21
-111.350976
 31
0.0
  0
LINE
  8
2
  5
19B
 10
118.271976
 20
-75.550976
 30
0.0
 11
118.271976
 21
-61.539161
 31
0.0
  0
LINE
  8
2
  5
19C
 10
117.646976
 20
-117.539161
 30
0.0
 11
117.646976
 21
-111.350976
 31
0.0
  0
LINE
  8
2
  5
19D
 10
117.646976
 20
-75.550976
 30
0.0
 11
117.646976
 21
-61.539161
 31
0.0
  0
LINE
  8
2
  5
19E
 10
110.896976
 20
-117.539161
 30
0.0
 11
110.896976
 21
-111.350976
 31
0.0
  0
LINE
  8
2
  5
19F
 10
110.896976
 20
-75.550976
 30
0.0
 11
110.896976
 21
-61.539161
 31
0.0
  0
LINE
  8
2
  5
1A0
 10
110.271976
 20
-116.914161
 30
0.0
 11
110.271976
 21
-111.350976
 31
0.0
  0
LINE
  8
2
  5
1A1
 10
110.271976
 20
-75.550976
 30
0.0
 11
110.271976
 21
-61.539161
 31
0.0
  0
LINE
  8
2
  5
1A2
 10
118.602103
 20
-81.850976
 30
0.0
 11
118.602103
 21
-110.850976
 31
0.0
  0
LINE
  8
2
  5
1A3
 10
116.870053
 20
-81.850976
 30
0.0
 11
116.870053
 21
-110.850976
 31
0.0
  0
LINE
  8
2
  5
1A4
 10
118.602103
 20
-81.850976
 30
0.0
 11
116.870053
 21
-81.850976
 31
0.0
  0
LINE
  8
2
  5
1A5
 10
118.602103
 20
-110.850976
 30
0.0
 11
116.870053
 21
-110.850976
 31
0.0
  0
ARC
  8
2
  5
1A6
 10
114.271976
 20
-88.350976
 30
0.0
 40
7.0
 50
68.213211
 51
90.0
  0
ARC
  8
2
  5
1A7
 10
119.93704
 20
-83.383032
 30
0.0
 40
2.032055
 50
48.93316
 51
131.06684
  0
ARC
  8
2
  5
1A8
 10
119.93704
 20
-109.318921
 30
0.0
 40
2.032055
 50
228.93316
 51
311.06684
  0
ARC
  8
2
  5
1A9
 10
114.271976
 20
-104.350976
 30
0.0
 40
7.0
 50
270.0
 51
291.786789
  0
ARC
  8
2
  5
1AA
 10
114.271976
 20
-88.350976
 30
0.0
 40
7.0
 50
90.0
 51
111.786789
  0
LINE
  8
2
  5
1AB
 10
111.6739
 20
-81.850976
 30
0.0
 11
111.6739
 21
-110.850976
 31
0.0
  0
LINE
  8
2
  5
1AC
 10
109.941849
 20
-81.850976
 30
0.0
 11
111.6739
 21
-81.850976
 31
0.0
  0
LINE
  8
2
  5
1AD
 10
109.941849
 20
-81.850976
 30
0.0
 11
109.941849
 21
-110.850976
 31
0.0
  0
ARC
  8
2
  5
1AE
 10
108.606913
 20
-83.383032
 30
0.0
 40
2.032055
 50
48.93316
 51
131.06684
  0
ARC
  8
2
  5
1AF
 10
108.606913
 20
-109.318921
 30
0.0
 40
2.032055
 50
228.93316
 51
311.06684
  0
LINE
  8
2
  5
1B0
 10
109.941849
 20
-110.850976
 30
0.0
 11
111.6739
 21
-110.850976
 31
0.0
  0
ARC
  8
2
  5
1B1
 10
114.271976
 20
-104.350976
 30
0.0
 40
7.0
 50
248.213211
 51
270.0
  0
POINT
  8
2
  5
1B2
 10
114.271976
 20
-117.539161
 30
0.0
  0
LINE
  8
2
 62
     2
  5
1B3
 10
121.271976
 20
56.960839
 30
0.0
 11
86.271976
 21
56.960839
 31
0.0
  0
LINE
  8
2
 62
     2
  5
1B4
 10
86.271976
 20
-52.239161
 30
0.0
 11
121.271976
 21
-52.239161
 31
0.0
  0
LINE
  8
2
 62
     2
  5
1B5
 10
127.771976
 20
-53.039161
 30
0.0
 11
79.771976
 21
-53.039161
 31
0.0
  0
LINE
  8
2
 62
     2
  5
1B6
 10
79.771976
 20
-56.039161
 30
0.0
 11
127.771976
 21
-56.039161
 31
0.0
  0
LINE
  8
2
 62
     2
  5
1B7
 10
121.271976
 20
-61.039161
 30
0.0
 11
86.271976
 21
-61.039161
 31
0.0
  0
LINE
  8
2
  5
1B8
 10
127.271976
 20
-59.539161
 30
0.0
 11
80.271976
 21
-59.539161
 31
0.0
  0
LINE
  8
2
  5
1B9
 10
80.271976
 20
-56.539161
 30
0.0
 11
80.271976
 21
-59.539161
 31
0.0
  0
LINE
  8
2
  5
1BA
 10
127.271976
 20
-56.539161
 30
0.0
 11
127.271976
 21
-59.539161
 31
0.0
  0
LINE
  8
2
 62
     2
  5
1BB
 10
112.521976
 20
-59.539161
 30
0.0
 11
115.521976
 21
-56.539161
 31
0.0
  0
LINE
  8
2
 62
     2
  5
1BC
 10
115.350404
 20
-59.539161
 30
0.0
 11
118.350404
 21
-56.539161
 31
0.0
  0
LINE
  8
2
 62
     2
  5
1BD
 10
118.178831
 20
-59.539161
 30
0.0
 11
121.178831
 21
-56.539161
 31
0.0
  0
LINE
  8
2
 62
     2
  5
1BE
 10
121.007258
 20
-59.539161
 30
0.0
 11
124.007258
 21
-56.539161
 31
0.0
  0
LINE
  8
2
 62
     2
  5
1BF
 10
123.835685
 20
-59.539161
 30
0.0
 11
126.835685
 21
-56.539161
 31
0.0
  0
LINE
  8
2
 62
     2
  5
1C0
 10
127.271976
 20
-58.931297
 30
0.0
 11
126.664112
 21
-59.539161
 31
0.0
  0
LINE
  8
2
 62
     2
  5
1C1
 10
109.693549
 20
-59.539161
 30
0.0
 11
112.693549
 21
-56.539161
 31
0.0
  0
LINE
  8
2
 62
     2
  5
1C2
 10
106.865122
 20
-59.539161
 30
0.0
 11
109.865122
 21
-56.539161
 31
0.0
  0
LINE
  8
2
 62
     2
  5
1C3
 10
104.036695
 20
-59.539161
 30
0.0
 11
107.036695
 21
-56.539161
 31
0.0
  0
LINE
  8
2
 62
     2
  5
1C4
 10
101.208268
 20
-59.539161
 30
0.0
 11
104.208268
 21
-56.539161
 31
0.0
  0
LINE
  8
2
 62
     2
  5
1C5
 10
98.379841
 20
-59.539161
 30
0.0
 11
101.379841
 21
-56.539161
 31
0.0
  0
LINE
  8
2
 62
     2
  5
1C6
 10
95.551414
 20
-59.539161
 30
0.0
 11
98.551414
 21
-56.539161
 31
0.0
  0
LINE
  8
2
 62
     2
  5
1C7
 10
92.722987
 20
-59.539161
 30
0.0
 11
95.722987
 21
-56.539161
 31
0.0
  0
LINE
  8
2
 62
     2
  5
1C8
 10
89.894559
 20
-59.539161
 30
0.0
 11
92.894559
 21
-56.539161
 31
0.0
  0
LINE
  8
2
 62
     2
  5
1C9
 10
87.066132
 20
-59.539161
 30
0.0
 11
90.066132
 21
-56.539161
 31
0.0
  0
LINE
  8
2
 62
     2
  5
1CA
 10
84.237705
 20
-59.539161
 30
0.0
 11
87.237705
 21
-56.539161
 31
0.0
  0
LINE
  8
2
 62
     2
  5
1CB
 10
81.409278
 20
-59.539161
 30
0.0
 11
84.409278
 21
-56.539161
 31
0.0
  0
LINE
  8
2
 62
     2
  5
1CC
 10
80.271976
 20
-57.848036
 30
0.0
 11
81.580851
 21
-56.539161
 31
0.0
  0
LINE
  8
2
  5
1CD
 10
238.438168
 20
57.460839
 30
0.0
 11
255.438168
 21
57.460839
 31
0.0
  0
LINE
  8
2
  5
1CE
 10
238.438168
 20
57.460839
 30
0.0
 11
221.438168
 21
57.460839
 31
0.0
  0
LINE
  8
2
  5
1CF
 10
220.938168
 20
56.960839
 30
0.0
 11
220.938168
 21
-52.239161
 31
0.0
  0
LINE
  8
2
  5
1D0
 10
220.938168
 20
56.960839
 30
0.0
 11
221.438168
 21
57.460839
 31
0.0
  0
LINE
  8
2
  5
1D1
 10
255.438168
 20
57.460839
 30
0.0
 11
255.938168
 21
56.960839
 31
0.0
  0
LINE
  8
2
  5
1D2
 10
255.938168
 20
-52.239161
 30
0.0
 11
255.638168
 21
-52.539161
 31
0.0
  0
LINE
  8
2
  5
1D3
 10
220.938168
 20
-52.239161
 30
0.0
 11
221.238168
 21
-52.539161
 31
0.0
  0
LINE
  8
2
  5
1D4
 10
255.938168
 20
-52.239161
 30
0.0
 11
255.938168
 21
8.960839
 31
0.0
  0
LINE
  8
2
  5
1D5
 10
255.938168
 20
27.960839
 30
0.0
 11
255.938168
 21
56.960839
 31
0.0
  0
LINE
  8
2
  5
1D6
 10
255.938168
 20
27.960839
 30
0.0
 11
308.269706
 21
27.960839
 31
0.0
  0
LINE
  8
2
  5
1D7
 10
255.938168
 20
8.960839
 30
0.0
 11
308.269706
 21
8.960839
 31
0.0
  0
ARC
  8
2
  5
1D8
 10
308.269706
 20
-6.539161
 30
0.0
 40
34.5
 50
40.0
 51
90.0
  0
ARC
  8
2
  5
1D9
 10
308.269706
 20
-6.539161
 30
0.0
 40
15.5
 50
40.0
 51
90.0
  0
LINE
  8
2
  5
1DA
 10
334.698239
 20
15.637011
 30
0.0
 11
342.624799
 21
6.190505
 31
0.0
  0
LINE
  8
2
  5
1DB
 10
320.143395
 20
3.424046
 30
0.0
 11
328.069955
 21
-6.02246
 31
0.0
  0
LINE
  8
2
  5
1DC
 10
342.624799
 20
6.190505
 30
0.0
 11
342.946193
 21
5.807482
 31
0.0
  0
LINE
  8
2
  5
1DD
 10
342.307802
 20
4.749646
 30
0.0
 11
342.050687
 21
5.056064
 31
0.0
  0
LINE
  8
2
  5
1DE
 10
342.946193
 20
5.807482
 30
0.0
 11
335.668771
 21
-0.299
 31
0.0
  0
LINE
  8
2
  5
1DF
 10
342.050687
 20
5.056064
 30
0.0
 11
342.130892
 21
4.601201
 31
0.0
  0
LINE
  8
2
  5
1E0
 10
342.624799
 20
6.190505
 30
0.0
 11
335.347377
 21
0.084022
 31
0.0
  0
LINE
  8
2
  5
1E1
 10
328.069955
 20
-6.02246
 30
0.0
 11
328.391349
 21
-6.405482
 31
0.0
  0
LINE
  8
2
  5
1E2
 10
329.54397
 20
-5.960481
 30
0.0
 11
329.286855
 21
-5.654063
 31
0.0
  0
LINE
  8
2
  5
1E3
 10
328.391349
 20
-6.405482
 30
0.0
 11
335.668771
 21
-0.299
 31
0.0
  0
LINE
  8
2
  5
1E4
 10
329.286855
 20
-5.654063
 30
0.0
 11
329.72088
 21
-5.812036
 31
0.0
  0
LINE
  8
2
  5
1E5
 10
328.069955
 20
-6.02246
 30
0.0
 11
335.347377
 21
0.084022
 31
0.0
  0
LINE
  8
2
  5
1E6
 10
343.524702
 20
5.118042
 30
0.0
 11
355.737666
 21
-9.436802
 31
0.0
  0
LINE
  8
2
  5
1E7
 10
328.969857
 20
-7.094922
 30
0.0
 11
341.182822
 21
-21.649767
 31
0.0
  0
ARC
  8
2
  5
1E8
 10
355.354644
 20
-9.758196
 30
0.0
 40
0.5
 50
310.0
 51
40.0
  0
ARC
  8
2
  5
1E9
 10
341.565844
 20
-21.328373
 30
0.0
 40
0.5
 50
220.0
 51
310.0
  0
ARC
  8
2
  5
1EA
 10
329.35288
 20
-6.773528
 30
0.0
 40
0.5
 50
130.0
 51
220.0
  0
ARC
  8
2
  5
1EB
 10
343.14168
 20
4.796649
 30
0.0
 40
0.5
 50
40.0
 51
130.0
  0
LINE
  8
2
  5
1EC
 10
342.820286
 20
5.179671
 30
0.0
 11
335.925886
 21
-0.605418
 31
0.0
  0
LINE
  8
2
  5
1ED
 10
335.925886
 20
-0.605418
 30
0.0
 11
329.031486
 21
-6.390506
 31
0.0
  0
LINE
  8
2
  5
1EE
 10
262.438168
 20
-53.039161
 30
0.0
 11
262.438168
 21
-56.039161
 31
0.0
  0
LINE
  8
2
  5
1EF
 10
261.938168
 20
-56.539161
 30
0.0
 11
238.438168
 21
-56.539161
 31
0.0
  0
LINE
  8
2
  5
1F0
 10
256.438168
 20
-52.539161
 30
0.0
 11
255.688168
 21
-52.539161
 31
0.0
  0
LINE
  8
2
  5
1F1
 10
238.438168
 20
-52.539161
 30
0.0
 11
261.938168
 21
-52.539161
 31
0.0
  0
LINE
  8
2
  5
1F2
 10
255.938168
 20
-59.539161
 30
0.0
 11
255.938168
 21
-61.039161
 31
0.0
  0
LINE
  8
2
  5
1F3
 10
261.938168
 20
-52.539161
 30
0.0
 11
262.438168
 21
-53.039161
 31
0.0
  0
LINE
  8
2
  5
1F4
 10
261.938168
 20
-56.539161
 30
0.0
 11
262.438168
 21
-56.039161
 31
0.0
  0
LINE
  8
2
  5
1F5
 10
255.938168
 20
-61.039161
 30
0.0
 11
255.438168
 21
-61.539161
 31
0.0
  0
LINE
  8
2
  5
1F6
 10
255.438168
 20
-61.539161
 30
0.0
 11
238.438168
 21
-61.539161
 31
0.0
  0
LINE
  8
2
  5
1F7
 10
214.438168
 20
-53.039161
 30
0.0
 11
214.438168
 21
-56.039161
 31
0.0
  0
LINE
  8
2
  5
1F8
 10
214.938168
 20
-56.539161
 30
0.0
 11
238.438168
 21
-56.539161
 31
0.0
  0
LINE
  8
2
  5
1F9
 10
220.438168
 20
-52.539161
 30
0.0
 11
221.188168
 21
-52.539161
 31
0.0
  0
LINE
  8
2
  5
1FA
 10
238.438168
 20
-52.539161
 30
0.0
 11
214.938168
 21
-52.539161
 31
0.0
  0
LINE
  8
2
  5
1FB
 10
220.938168
 20
-59.539161
 30
0.0
 11
220.938168
 21
-61.039161
 31
0.0
  0
LINE
  8
2
  5
1FC
 10
214.938168
 20
-52.539161
 30
0.0
 11
214.438168
 21
-53.039161
 31
0.0
  0
LINE
  8
2
  5
1FD
 10
214.938168
 20
-56.539161
 30
0.0
 11
214.438168
 21
-56.039161
 31
0.0
  0
LINE
  8
2
  5
1FE
 10
220.938168
 20
-61.039161
 30
0.0
 11
221.438168
 21
-61.539161
 31
0.0
  0
LINE
  8
2
  5
1FF
 10
238.438168
 20
-61.539161
 30
0.0
 11
221.438168
 21
-61.539161
 31
0.0
  0
LINE
  8
2
  5
200
 10
238.438168
 20
58.360839
 30
0.0
 11
255.938168
 21
58.360839
 31
0.0
  0
LINE
  8
2
  5
201
 10
221.938168
 20
83.860839
 30
0.0
 11
254.938168
 21
83.860839
 31
0.0
  0
LINE
  8
2
  5
202
 10
238.438168
 20
58.360839
 30
0.0
 11
220.938168
 21
65.431297
 31
0.0
  0
LINE
  8
2
  5
203
 10
255.938168
 20
58.360839
 30
0.0
 11
255.938168
 21
71.660839
 31
0.0
  0
ARC
  8
2
  5
204
 10
221.938168
 20
82.860839
 30
0.0
 40
1.0
 50
90.0
 51
180.0
  0
ARC
  8
2
  5
205
 10
254.938168
 20
82.860839
 30
0.0
 40
1.0
 50
0.0
 51
90.0
  0
LINE
  8
2
  5
206
 10
255.938168
 20
82.860839
 30
0.0
 11
255.938168
 21
80.060839
 31
0.0
  0
ARC
  8
2
  5
207
 10
272.926693
 20
75.860839
 30
0.0
 40
17.5
 50
180.0
 51
193.88654
  0
ARC
  8
2
  5
208
 10
272.926693
 20
75.860839
 30
0.0
 40
17.5
 50
166.11346
 51
180.0
  0
ARC
  8
2
  5
209
 10
226.866371
 20
75.860839
 30
0.0
 40
8.0
 50
150.0
 51
180.0
  0
LINE
  8
2
  5
20A
 10
219.938168
 20
79.860839
 30
0.0
 11
220.938168
 21
79.860839
 31
0.0
  0
LINE
  8
2
  5
20B
 10
220.938168
 20
79.110839
 30
0.0
 11
220.938168
 21
79.860839
 31
0.0
  0
ARC
  8
2
  5
20C
 10
226.866371
 20
75.860839
 30
0.0
 40
8.0
 50
180.0
 51
210.0
  0
LINE
  8
2
  5
20D
 10
219.938168
 20
71.860839
 30
0.0
 11
220.938168
 21
71.860839
 31
0.0
  0
LINE
  8
2
  5
20E
 10
220.938168
 20
72.610839
 30
0.0
 11
220.938168
 21
71.860839
 31
0.0
  0
LINE
  8
2
  5
20F
 10
220.938168
 20
65.431297
 30
0.0
 11
220.938168
 21
75.860839
 31
0.0
  0
LINE
  8
2
  5
210
 10
220.938168
 20
75.860839
 30
0.0
 11
220.938168
 21
82.860839
 31
0.0
  0
LINE
  8
2
  5
211
 10
314.437991
 20
71.860839
 30
0.0
 11
255.889968
 21
71.860839
 31
0.0
  0
LINE
  8
2
  5
212
 10
314.437991
 20
79.860839
 30
0.0
 11
255.889968
 21
79.860839
 31
0.0
  0
LINE
  8
2
  5
213
 10
314.937991
 20
72.360839
 30
0.0
 11
314.937991
 21
79.360839
 31
0.0
  0
LINE
  8
2
  5
214
 10
314.437991
 20
79.860839
 30
0.0
 11
314.937991
 21
79.360839
 31
0.0
  0
LINE
  8
2
  5
215
 10
314.937991
 20
72.360839
 30
0.0
 11
314.437991
 21
71.860839
 31
0.0
  0
LINE
  8
2
 62
     2
  5
216
 10
219.938168
 20
79.860839
 30
0.0
 11
219.938168
 21
71.860839
 31
0.0
  0
ARC
  8
2
 62
     2
  5
217
 10
270.635106
 20
18.460839
 30
0.0
 40
17.5
 50
147.12165
 51
212.87835
  0
LINE
  8
2
  5
218
 10
355.676038
 20
-10.141218
 30
0.0
 11
341.887238
 21
-21.711395
 31
0.0
  0
LINE
  8
2
 62
     2
  5
219
 10
220.938168
 20
56.960839
 30
0.0
 11
255.938168
 21
56.960839
 31
0.0
  0
LINE
  8
2
 62
     2
  5
21A
 10
255.938168
 20
-52.239161
 30
0.0
 11
220.938168
 21
-52.239161
 31
0.0
  0
LINE
  8
2
 62
     2
  5
21B
 10
214.438168
 20
-53.039161
 30
0.0
 11
262.438168
 21
-53.039161
 31
0.0
  0
LINE
  8
2
 62
     2
  5
21C
 10
262.438168
 20
-56.039161
 30
0.0
 11
214.438168
 21
-56.039161
 31
0.0
  0
LINE
  8
2
 62
     2
  5
21D
 10
220.938168
 20
-61.039161
 30
0.0
 11
255.938168
 21
-61.039161
 31
0.0
  0
LINE
  8
2
  5
21E
 10
214.938168
 20
-59.539161
 30
0.0
 11
261.938168
 21
-59.539161
 31
0.0
  0
LINE
  8
2
  5
21F
 10
261.938168
 20
-56.539161
 30
0.0
 11
261.938168
 21
-59.539161
 31
0.0
  0
LINE
  8
2
  5
220
 10
214.938168
 20
-56.539161
 30
0.0
 11
214.938168
 21
-59.539161
 31
0.0
  0
LINE
  8
2
 62
     2
  5
221
 10
223.688168
 20
-59.539161
 30
0.0
 11
226.688168
 21
-56.539161
 31
0.0
  0
LINE
  8
2
 62
     2
  5
222
 10
226.516595
 20
-59.539161
 30
0.0
 11
229.516595
 21
-56.539161
 31
0.0
  0
LINE
  8
2
 62
     2
  5
223
 10
229.345022
 20
-59.539161
 30
0.0
 11
232.345022
 21
-56.539161
 31
0.0
  0
LINE
  8
2
 62
     2
  5
224
 10
232.173449
 20
-59.539161
 30
0.0
 11
235.173449
 21
-56.539161
 31
0.0
  0
LINE
  8
2
 62
     2
  5
225
 10
235.001876
 20
-59.539161
 30
0.0
 11
238.001876
 21
-56.539161
 31
0.0
  0
LINE
  8
2
 62
     2
  5
226
 10
237.830303
 20
-59.539161
 30
0.0
 11
240.830303
 21
-56.539161
 31
0.0
  0
LINE
  8
2
 62
     2
  5
227
 10
240.65873
 20
-59.539161
 30
0.0
 11
243.65873
 21
-56.539161
 31
0.0
  0
LINE
  8
2
 62
     2
  5
228
 10
243.487157
 20
-59.539161
 30
0.0
 11
246.487157
 21
-56.539161
 31
0.0
  0
LINE
  8
2
 62
     2
  5
229
 10
246.315585
 20
-59.539161
 30
0.0
 11
249.315585
 21
-56.539161
 31
0.0
  0
LINE
  8
2
 62
     2
  5
22A
 10
249.144012
 20
-59.539161
 30
0.0
 11
252.144012
 21
-56.539161
 31
0.0
  0
LINE
  8
2
 62
     2
  5
22B
 10
251.972439
 20
-59.539161
 30
0.0
 11
254.972439
 21
-56.539161
 31
0.0
  0
LINE
  8
2
 62
     2
  5
22C
 10
254.800866
 20
-59.539161
 30
0.0
 11
257.800866
 21
-56.539161
 31
0.0
  0
LINE
  8
2
 62
     2
  5
22D
 10
257.629293
 20
-59.539161
 30
0.0
 11
260.629293
 21
-56.539161
 31
0.0
  0
LINE
  8
2
 62
     2
  5
22E
 10
260.45772
 20
-59.539161
 30
0.0
 11
261.938168
 21
-58.058714
 31
0.0
  0
LINE
  8
2
 62
     2
  5
22F
 10
220.85974
 20
-59.539161
 30
0.0
 11
223.85974
 21
-56.539161
 31
0.0
  0
LINE
  8
2
 62
     2
  5
230
 10
218.031313
 20
-59.539161
 30
0.0
 11
221.031313
 21
-56.539161
 31
0.0
  0
LINE
  8
2
 62
     2
  5
231
 10
215.202886
 20
-59.539161
 30
0.0
 11
218.202886
 21
-56.539161
 31
0.0
  0
LINE
  8
2
 62
     2
  5
232
 10
214.938168
 20
-56.975453
 30
0.0
 11
215.374459
 21
-56.539161
 31
0.0
  0
LINE
  8
2
 62
     2
  5
233
 10
27.772154
 20
79.860839
 30
0.0
 11
27.772154
 21
71.860839
 31
0.0
  0
POINT
  8
2
  5
234
 10
-6.700051
 20
-16.079515
 30
0.0
  0
LINE
  8
2
  6
CENTER
 62
     2
  5
235
 10
103.771976
 20
-62.642476
 30
0.0
 11
103.771976
 21
85.695892
 31
0.0
  0
LINE
  8
2
  6
DASHED
 62
     2
  5
236
 10
38.176053
 20
99.384263
 30
0.0
 11
82.89398
 21
81.317048
 31
0.0
  0
LINE
  8
2
  6
DASHED
 62
     2
  5
237
 10
41.172906
 20
106.801734
 30
0.0
 11
92.348682
 21
86.125379
 31
0.0
  0
LINE
  8
2
  6
DASHED
 62
     2
  5
238
 10
37.899765
 20
100.035159
 30
0.0
 11
40.522011
 21
106.525446
 31
0.0
  0
LINE
  8
2
  6
DASHED
 62
     2
  5
239
 10
41.172906
 20
106.801734
 30
0.0
 11
40.522011
 21
106.525446
 31
0.0
  0
LINE
  8
2
  6
DASHED
 62
     2
  5
23A
 10
37.899765
 20
100.035159
 30
0.0
 11
38.176053
 21
99.384263
 31
0.0
  0
LINE
  8
2
  6
DASHED
 62
     2
  5
23B
 10
41.172906
 20
106.801734
 30
0.0
 11
38.176053
 21
99.384263
 31
0.0
  0
LINE
  8
2
  6
DASHED
 62
     2
  5
23C
 10
128.435675
 20
75.859426
 30
0.0
 11
125.185074
 21
77.172754
 31
0.0
  0
LINE
  8
2
  6
DASHED
 62
     2
  5
23D
 10
119.937325
 20
58.360839
 30
0.0
 11
122.444321
 21
58.360839
 31
0.0
  0
ARC
  8
2
  6
DASHED
 62
     2
  5
23E
 10
128.061068
 20
74.932242
 30
0.0
 40
1.0
 50
338.0
 51
68.0
  0
ARC
  8
2
  6
DASHED
 62
     2
  5
23F
 10
120.869472
 20
70.288093
 30
0.0
 40
8.0
 50
338.0
 51
8.0
  0
LINE
  8
2
  6
DASHED
 62
     2
  5
240
 10
128.791616
 20
71.401478
 30
0.0
 11
127.864432
 21
71.776084
 31
0.0
  0
LINE
  8
2
  6
DASHED
 62
     2
  5
241
 10
127.583477
 20
71.080696
 30
0.0
 11
127.864432
 21
71.776084
 31
0.0
  0
ARC
  8
2
  6
DASHED
 62
     2
  5
242
 10
120.869472
 20
70.288093
 30
0.0
 40
8.0
 50
308.0
 51
338.0
  0
LINE
  8
2
  6
DASHED
 62
     2
  5
243
 10
125.794763
 20
63.984007
 30
0.0
 11
124.86758
 21
64.358613
 31
0.0
  0
LINE
  8
2
  6
DASHED
 62
     2
  5
244
 10
125.148535
 20
65.054001
 30
0.0
 11
124.86758
 21
64.358613
 31
0.0
  0
LINE
  8
2
  6
DASHED
 62
     2
  5
245
 10
122.444321
 20
58.360839
 30
0.0
 11
126.366006
 21
68.067349
 31
0.0
  0
LINE
  8
2
  6
DASHED
 62
     2
  5
246
 10
126.366006
 20
68.067349
 30
0.0
 11
128.988252
 21
74.557636
 31
0.0
  0
LINE
  8
2
  6
DASHED
 62
     2
  5
247
 10
128.791616
 20
71.401478
 30
0.0
 11
125.794763
 21
63.984007
 31
0.0
  0
LINE
  8
2
  6
CENTER
 62
     2
  5
248
 10
129.958351
 20
196.561218
 30
0.0
 11
-15.398544
 21
196.561218
 31
0.0
  0
LINE
  8
2
  5
249
 10
89.075038
 20
206.061218
 30
0.0
 11
-6.700051
 21
206.061218
 31
0.0
  0
LINE
  8
2
  5
24A
 10
89.075038
 20
187.061218
 30
0.0
 11
-6.700051
 21
187.061218
 31
0.0
  0
POLYLINE
  8
2
  5
24B
 66
     1
 10
0.0
 20
0.0
 30
0.0
  0
VERTEX
  8
2
  5
9B2
 10
-6.700051
 20
206.061218
 30
0.0
  0
VERTEX
  8
2
  5
9B3
 10
-7.219873
 20
206.036953
 30
0.0
  0
VERTEX
  8
2
  5
9B4
 10
-7.739694
 20
205.96378
 30
0.0
  0
VERTEX
  8
2
  5
9B5
 10
-8.259516
 20
205.840543
 30
0.0
  0
VERTEX
  8
2
  5
9B6
 10
-8.779337
 20
205.665209
 30
0.0
  0
VERTEX
  8
2
  5
9B7
 10
-9.299159
 20
205.434691
 30
0.0
  0
VERTEX
  8
2
  5
9B8
 10
-9.81898
 20
205.144543
 30
0.0
  0
VERTEX
  8
2
  5
9B9
 10
-10.338801
 20
204.78846
 30
0.0
  0
VERTEX
  8
2
  5
9BA
 10
-10.858623
 20
204.35741
 30
0.0
  0
VERTEX
  8
2
  5
9BB
 10
-11.378444
 20
203.838086
 30
0.0
  0
VERTEX
  8
2
  5
9BC
 10
-11.898266
 20
203.209833
 30
0.0
  0
VERTEX
  8
2
  5
9BD
 10
-12.418087
 20
202.437819
 30
0.0
  0
VERTEX
  8
2
  5
9BE
 10
-12.937909
 20
201.454466
 30
0.0
  0
VERTEX
  8
2
  5
9BF
 10
-13.45773
 20
200.087179
 30
0.0
  0
VERTEX
  8
2
  5
9C0
 10
-13.977551
 20
196.561218
 30
0.0
  0
VERTEX
  8
2
  5
9C1
 10
-13.45773
 20
193.035258
 30
0.0
  0
VERTEX
  8
2
  5
9C2
 10
-12.937909
 20
191.66797
 30
0.0
  0
VERTEX
  8
2
  5
9C3
 10
-12.418087
 20
190.684617
 30
0.0
  0
VERTEX
  8
2
  5
9C4
 10
-11.898266
 20
189.912603
 30
0.0
  0
VERTEX
  8
2
  5
9C5
 10
-11.378444
 20
189.28435
 30
0.0
  0
VERTEX
  8
2
  5
9C6
 10
-10.858623
 20
188.765026
 30
0.0
  0
VERTEX
  8
2
  5
9C7
 10
-10.338801
 20
188.333977
 30
0.0
  0
VERTEX
  8
2
  5
9C8
 10
-9.81898
 20
187.977893
 30
0.0
  0
VERTEX
  8
2
  5
9C9
 10
-9.299159
 20
187.687745
 30
0.0
  0
VERTEX
  8
2
  5
9CA
 10
-8.779337
 20
187.457227
 30
0.0
  0
VERTEX
  8
2
  5
9CB
 10
-8.259516
 20
187.281894
 30
0.0
  0
VERTEX
  8
2
  5
9CC
 10
-7.739694
 20
187.158657
 30
0.0
  0
VERTEX
  8
2
  5
9CD
 10
-7.219873
 20
187.085484
 30
0.0
  0
VERTEX
  8
2
  5
9CE
 10
-6.700051
 20
187.061218
 30
0.0
  0
SEQEND
  8
2
  5
9CF
  0
POLYLINE
  8
2
  5
26A
 66
     1
 10
0.0
 20
0.0
 30
0.0
  0
VERTEX
  8
2
  5
9D0
 10
5.635879
 20
206.036953
 30
0.0
  0
VERTEX
  8
2
  5
9D1
 10
6.155701
 20
206.061218
 30
0.0
  0
VERTEX
  8
2
  5
9D2
 10
5.635879
 20
206.036953
 30
0.0
  0
VERTEX
  8
2
  5
9D3
 10
5.116058
 20
205.96378
 30
0.0
  0
VERTEX
  8
2
  5
9D4
 10
4.596236
 20
205.840543
 30
0.0
  0
VERTEX
  8
2
  5
9D5
 10
4.076415
 20
205.665209
 30
0.0
  0
VERTEX
  8
2
  5
9D6
 10
3.556594
 20
205.434691
 30
0.0
  0
VERTEX
  8
2
  5
9D7
 10
3.036772
 20
205.144543
 30
0.0
  0
VERTEX
  8
2
  5
9D8
 10
2.516951
 20
204.78846
 30
0.0
  0
VERTEX
  8
2
  5
9D9
 10
1.997129
 20
204.35741
 30
0.0
  0
VERTEX
  8
2
  5
9DA
 10
1.477308
 20
203.838086
 30
0.0
  0
VERTEX
  8
2
  5
9DB
 10
0.957486
 20
203.209833
 30
0.0
  0
VERTEX
  8
2
  5
9DC
 10
0.437665
 20
202.437819
 30
0.0
  0
VERTEX
  8
2
  5
9DD
 10
-0.082156
 20
201.454466
 30
0.0
  0
VERTEX
  8
2
  5
9DE
 10
-0.601978
 20
200.087179
 30
0.0
  0
VERTEX
  8
2
  5
9DF
 10
-1.121799
 20
196.561218
 30
0.0
  0
VERTEX
  8
2
  5
9E0
 10
-0.601978
 20
193.035258
 30
0.0
  0
VERTEX
  8
2
  5
9E1
 10
-0.082156
 20
191.66797
 30
0.0
  0
VERTEX
  8
2
  5
9E2
 10
0.437665
 20
190.684617
 30
0.0
  0
VERTEX
  8
2
  5
9E3
 10
0.957486
 20
189.912603
 30
0.0
  0
VERTEX
  8
2
  5
9E4
 10
1.477308
 20
189.28435
 30
0.0
  0
VERTEX
  8
2
  5
9E5
 10
1.997129
 20
188.765026
 30
0.0
  0
VERTEX
  8
2
  5
9E6
 10
2.516951
 20
188.333977
 30
0.0
  0
VERTEX
  8
2
  5
9E7
 10
3.036772
 20
187.977893
 30
0.0
  0
VERTEX
  8
2
  5
9E8
 10
3.556594
 20
187.687745
 30
0.0
  0
VERTEX
  8
2
  5
9E9
 10
4.076415
 20
187.457227
 30
0.0
  0
VERTEX
  8
2
  5
9EA
 10
4.596236
 20
187.281894
 30
0.0
  0
VERTEX
  8
2
  5
9EB
 10
5.116058
 20
187.158657
 30
0.0
  0
VERTEX
  8
2
  5
9EC
 10
5.635879
 20
187.085484
 30
0.0
  0
VERTEX
  8
2
  5
9ED
 10
6.155701
 20
187.061218
 30
0.0
  0
SEQEND
  8
2
  5
9EE
  0
POLYLINE
  8
2
  5
28A
 66
     1
 10
0.0
 20
0.0
 30
0.0
  0
VERTEX
  8
2
  5
9EF
 10
6.541373
 20
206.061218
 30
0.0
  0
VERTEX
  8
2
  5
9F0
 10
6.021552
 20
206.036953
 30
0.0
  0
VERTEX
  8
2
  5
9F1
 10
5.50173
 20
205.96378
 30
0.0
  0
VERTEX
  8
2
  5
9F2
 10
4.981909
 20
205.840543
 30
0.0
  0
VERTEX
  8
2
  5
9F3
 10
4.462088
 20
205.665209
 30
0.0
  0
VERTEX
  8
2
  5
9F4
 10
3.942266
 20
205.434691
 30
0.0
  0
VERTEX
  8
2
  5
9F5
 10
3.422445
 20
205.144543
 30
0.0
  0
VERTEX
  8
2
  5
9F6
 10
2.902623
 20
204.78846
 30
0.0
  0
VERTEX
  8
2
  5
9F7
 10
2.382802
 20
204.35741
 30
0.0
  0
VERTEX
  8
2
  5
9F8
 10
1.86298
 20
203.838086
 30
0.0
  0
VERTEX
  8
2
  5
9F9
 10
1.343159
 20
203.209833
 30
0.0
  0
VERTEX
  8
2
  5
9FA
 10
0.823338
 20
202.437819
 30
0.0
  0
VERTEX
  8
2
  5
9FB
 10
0.303516
 20
201.454466
 30
0.0
  0
VERTEX
  8
2
  5
9FC
 10
-0.216305
 20
200.087179
 30
0.0
  0
VERTEX
  8
2
  5
9FD
 10
-0.736127
 20
196.561218
 30
0.0
  0
VERTEX
  8
2
  5
9FE
 10
-0.216305
 20
193.035258
 30
0.0
  0
VERTEX
  8
2
  5
9FF
 10
0.303516
 20
191.66797
 30
0.0
  0
VERTEX
  8
2
  5
A00
 10
0.823338
 20
190.684617
 30
0.0
  0
VERTEX
  8
2
  5
A01
 10
1.343159
 20
189.912603
 30
0.0
  0
VERTEX
  8
2
  5
A02
 10
1.86298
 20
189.28435
 30
0.0
  0
VERTEX
  8
2
  5
A03
 10
2.382802
 20
188.765026
 30
0.0
  0
VERTEX
  8
2
  5
A04
 10
2.902623
 20
188.333977
 30
0.0
  0
VERTEX
  8
2
  5
A05
 10
3.422445
 20
187.977893
 30
0.0
  0
VERTEX
  8
2
  5
A06
 10
3.942266
 20
187.687745
 30
0.0
  0
VERTEX
  8
2
  5
A07
 10
4.462088
 20
187.457227
 30
0.0
  0
VERTEX
  8
2
  5
A08
 10
4.981909
 20
187.281894
 30
0.0
  0
VERTEX
  8
2
  5
A09
 10
5.50173
 20
187.158657
 30
0.0
  0
VERTEX
  8
2
  5
A0A
 10
6.021552
 20
187.085484
 30
0.0
  0
VERTEX
  8
2
  5
A0B
 10
6.541373
 20
187.061218
 30
0.0
  0
SEQEND
  8
2
  5
A0C
  0
LINE
  8
2
  6
CENTER
 62
     2
  5
2A9
 10
103.771976
 20
171.409912
 30
0.0
 11
103.771976
 21
221.814362
 31
0.0
  0
LINE
  8
2
  5
2AA
 10
-254.136154
 20
-83.150486
 30
0.0
 11
-254.136154
 21
-77.827837
 31
0.0
  0
LINE
  8
2
  5
2AB
 10
-242.136154
 20
-83.150486
 30
0.0
 11
-242.136154
 21
-77.827837
 31
0.0
  0
LINE
  8
2
  5
2AC
 10
-245.738238
 20
-77.827837
 30
0.0
 11
-245.738238
 21
-83.150486
 31
0.0
  0
LINE
  8
2
  5
2AD
 10
-244.571972
 20
-77.827837
 30
0.0
 11
-244.571972
 21
-83.150486
 31
0.0
  0
LINE
  8
2
  5
2AE
 10
-242.174057
 20
-77.827837
 30
0.0
 11
-242.174057
 21
-83.150486
 31
0.0
  0
LINE
  8
2
  5
2AF
 10
-242.636154
 20
-83.439161
 30
0.0
 11
-242.136154
 21
-83.150486
 31
0.0
  0
LINE
  8
2
  5
2B0
 10
-244.571972
 20
-83.150486
 30
0.0
 11
-245.738238
 21
-83.150486
 31
0.0
  0
LINE
  8
2
  5
2B1
 10
-254.136154
 20
-83.150486
 30
0.0
 11
-253.636154
 21
-83.439161
 31
0.0
  0
LINE
  8
2
  5
2B2
 10
-254.136154
 20
-77.827837
 30
0.0
 11
-253.636154
 21
-77.539161
 31
0.0
  0
ARC
  8
2
  5
2B3
 10
-248.136154
 20
-73.335532
 30
0.0
 40
10.10363
 50
270.0
 51
283.729133
  0
ARC
  8
2
  5
2B4
 10
-248.136154
 20
-87.642791
 30
0.0
 40
10.10363
 50
76.270867
 51
90.0
  0
LINE
  8
2
  5
2B5
 10
-244.571972
 20
-77.827837
 30
0.0
 11
-245.738238
 21
-77.827837
 31
0.0
  0
LINE
  8
2
  5
2B6
 10
-242.136154
 20
-81.150486
 30
0.0
 11
-242.174057
 21
-81.150486
 31
0.0
  0
ARC
  8
2
  5
2B7
 10
-243.373014
 20
-80.805001
 30
0.0
 40
2.634161
 50
242.924933
 51
297.075067
  0
ARC
  8
2
  5
2B8
 10
-243.373014
 20
-80.173322
 30
0.0
 40
2.634161
 50
62.924933
 51
117.075067
  0
LINE
  8
2
  5
2B9
 10
-242.636154
 20
-77.539161
 30
0.0
 11
-242.136154
 21
-77.827837
 31
0.0
  0
LINE
  8
2
  5
2BA
 10
-242.136154
 20
-77.827837
 30
0.0
 11
-242.174057
 21
-77.827837
 31
0.0
  0
ARC
  8
2
  5
2BB
 10
-248.136154
 20
-73.335532
 30
0.0
 40
10.10363
 50
256.270867
 51
270.0
  0
LINE
  8
2
  5
2BC
 10
-251.700336
 20
-83.150486
 30
0.0
 11
-250.53407
 21
-83.150486
 31
0.0
  0
LINE
  8
2
  5
2BD
 10
-250.53407
 20
-77.827837
 30
0.0
 11
-250.53407
 21
-83.150486
 31
0.0
  0
LINE
  8
2
  5
2BE
 10
-251.700336
 20
-77.827837
 30
0.0
 11
-251.700336
 21
-83.150486
 31
0.0
  0
ARC
  8
2
  5
2BF
 10
-252.899294
 20
-80.805001
 30
0.0
 40
2.634161
 50
242.924933
 51
297.075067
  0
LINE
  8
2
  5
2C0
 10
-254.098252
 20
-77.827837
 30
0.0
 11
-254.098252
 21
-83.150486
 31
0.0
  0
LINE
  8
2
  5
2C1
 10
-254.098252
 20
-81.150486
 30
0.0
 11
-254.136154
 21
-81.150486
 31
0.0
  0
LINE
  8
2
  5
2C2
 10
-255.086154
 20
-83.439161
 30
0.0
 11
-241.186154
 21
-83.439161
 31
0.0
  0
LINE
  8
2
  5
2C3
 10
-255.086154
 20
-112.439161
 30
0.0
 11
-248.136154
 21
-112.439161
 31
0.0
  0
LINE
  8
2
  5
2C4
 10
-255.086154
 20
-106.939161
 30
0.0
 11
-248.136154
 21
-106.939161
 31
0.0
  0
LINE
  8
2
  5
2C5
 10
-255.086154
 20
-104.939161
 30
0.0
 11
-248.136154
 21
-104.939161
 31
0.0
  0
LINE
  8
2
  5
2C6
 10
-255.086154
 20
-99.939161
 30
0.0
 11
-248.136154
 21
-99.939161
 31
0.0
  0
LINE
  8
2
  5
2C7
 10
-255.086154
 20
-97.939161
 30
0.0
 11
-248.136154
 21
-97.939161
 31
0.0
  0
LINE
  8
2
  5
2C8
 10
-255.086154
 20
-92.939161
 30
0.0
 11
-248.136154
 21
-92.939161
 31
0.0
  0
LINE
  8
2
  5
2C9
 10
-255.086154
 20
-90.939161
 30
0.0
 11
-248.136154
 21
-90.939161
 31
0.0
  0
LINE
  8
2
  5
2CA
 10
-255.486154
 20
-111.639161
 30
0.0
 11
-255.486154
 21
-107.739161
 31
0.0
  0
LINE
  8
2
  5
2CB
 10
-255.486154
 20
-104.139161
 30
0.0
 11
-255.486154
 21
-100.739161
 31
0.0
  0
LINE
  8
2
  5
2CC
 10
-255.486154
 20
-97.139161
 30
0.0
 11
-255.486154
 21
-93.739161
 31
0.0
  0
LINE
  8
2
  5
2CD
 10
-255.486154
 20
-90.139161
 30
0.0
 11
-255.486154
 21
-84.239161
 31
0.0
  0
LINE
  8
2
  5
2CE
 10
-255.086154
 20
-92.939161
 30
0.0
 11
-255.086154
 21
-90.939161
 31
0.0
  0
LINE
  8
2
  5
2CF
 10
-255.086154
 20
-106.939161
 30
0.0
 11
-255.086154
 21
-104.939161
 31
0.0
  0
LINE
  8
2
  5
2D0
 10
-255.086154
 20
-99.939161
 30
0.0
 11
-255.086154
 21
-97.939161
 31
0.0
  0
ARC
  8
2
  5
2D1
 10
-254.486154
 20
-90.139161
 30
0.0
 40
1.0
 50
180.0
 51
233.130102
  0
ARC
  8
2
  5
2D2
 10
-254.486154
 20
-93.739161
 30
0.0
 40
1.0
 50
126.869898
 51
180.0
  0
ARC
  8
2
  5
2D3
 10
-254.486154
 20
-97.139161
 30
0.0
 40
1.0
 50
180.0
 51
233.130102
  0
ARC
  8
2
  5
2D4
 10
-254.486154
 20
-100.739161
 30
0.0
 40
1.0
 50
126.869898
 51
180.0
  0
ARC
  8
2
  5
2D5
 10
-254.486154
 20
-104.139161
 30
0.0
 40
1.0
 50
180.0
 51
233.130102
  0
ARC
  8
2
  5
2D6
 10
-254.486154
 20
-107.739161
 30
0.0
 40
1.0
 50
126.869898
 51
180.0
  0
ARC
  8
2
  5
2D7
 10
-254.486154
 20
-111.639161
 30
0.0
 40
1.0
 50
180.0
 51
233.130102
  0
ARC
  8
2
  5
2D8
 10
-254.486154
 20
-84.239161
 30
0.0
 40
1.0
 50
126.869898
 51
180.0
  0
LINE
  8
2
  5
2D9
 10
-241.186154
 20
-112.439161
 30
0.0
 11
-248.136154
 21
-112.439161
 31
0.0
  0
ARC
  8
2
  5
2DA
 10
-241.786154
 20
-111.639161
 30
0.0
 40
1.0
 50
306.869898
 51
360.0
  0
LINE
  8
2
  5
2DB
 10
-240.786154
 20
-111.639161
 30
0.0
 11
-240.786154
 21
-107.739161
 31
0.0
  0
ARC
  8
2
  5
2DC
 10
-241.786154
 20
-107.739161
 30
0.0
 40
1.0
 50
360.0
 51
53.130102
  0
LINE
  8
2
  5
2DD
 10
-241.186154
 20
-106.939161
 30
0.0
 11
-241.186154
 21
-104.939161
 31
0.0
  0
LINE
  8
2
  5
2DE
 10
-241.186154
 20
-106.939161
 30
0.0
 11
-248.136154
 21
-106.939161
 31
0.0
  0
LINE
  8
2
  5
2DF
 10
-241.186154
 20
-104.939161
 30
0.0
 11
-248.136154
 21
-104.939161
 31
0.0
  0
ARC
  8
2
  5
2E0
 10
-241.786154
 20
-104.139161
 30
0.0
 40
1.0
 50
306.869898
 51
360.0
  0
LINE
  8
2
  5
2E1
 10
-240.786154
 20
-104.139161
 30
0.0
 11
-240.786154
 21
-100.739161
 31
0.0
  0
ARC
  8
2
  5
2E2
 10
-241.786154
 20
-100.739161
 30
0.0
 40
1.0
 50
360.0
 51
53.130102
  0
LINE
  8
2
  5
2E3
 10
-241.186154
 20
-99.939161
 30
0.0
 11
-248.136154
 21
-99.939161
 31
0.0
  0
LINE
  8
2
  5
2E4
 10
-241.186154
 20
-99.939161
 30
0.0
 11
-241.186154
 21
-97.939161
 31
0.0
  0
LINE
  8
2
  5
2E5
 10
-241.186154
 20
-97.939161
 30
0.0
 11
-248.136154
 21
-97.939161
 31
0.0
  0
ARC
  8
2
  5
2E6
 10
-241.786154
 20
-97.139161
 30
0.0
 40
1.0
 50
306.869898
 51
360.0
  0
ARC
  8
2
  5
2E7
 10
-241.786154
 20
-97.139161
 30
0.0
 40
1.0
 50
306.869898
 51
360.0
  0
LINE
  8
2
  5
2E8
 10
-240.786154
 20
-97.139161
 30
0.0
 11
-240.786154
 21
-93.739161
 31
0.0
  0
ARC
  8
2
  5
2E9
 10
-241.786154
 20
-93.739161
 30
0.0
 40
1.0
 50
360.0
 51
53.130102
  0
LINE
  8
2
  5
2EA
 10
-241.186154
 20
-92.939161
 30
0.0
 11
-248.136154
 21
-92.939161
 31
0.0
  0
LINE
  8
2
  5
2EB
 10
-241.186154
 20
-92.939161
 30
0.0
 11
-241.186154
 21
-90.939161
 31
0.0
  0
LINE
  8
2
  5
2EC
 10
-241.186154
 20
-90.939161
 30
0.0
 11
-248.136154
 21
-90.939161
 31
0.0
  0
ARC
  8
2
  5
2ED
 10
-241.786154
 20
-90.139161
 30
0.0
 40
1.0
 50
306.869898
 51
360.0
  0
LINE
  8
2
  5
2EE
 10
-240.786154
 20
-90.139161
 30
0.0
 11
-240.786154
 21
-84.239161
 31
0.0
  0
ARC
  8
2
  5
2EF
 10
-241.786154
 20
-84.239161
 30
0.0
 40
1.0
 50
360.0
 51
53.130102
  0
LINE
  8
2
  5
2F0
 10
-254.986154
 20
-128.61721
 30
0.0
 11
-254.986154
 21
-112.439161
 31
0.0
  0
LINE
  8
2
  5
2F1
 10
-241.286154
 20
-128.55687
 30
0.0
 11
-241.286154
 21
-112.439161
 31
0.0
  0
ARC
  8
2
  5
2F2
 10
-248.136154
 20
-87.642791
 30
0.0
 40
10.10363
 50
90.0
 51
103.729133
  0
LINE
  8
2
  5
2F3
 10
-251.700336
 20
-77.827837
 30
0.0
 11
-250.53407
 21
-77.827837
 31
0.0
  0
ARC
  8
2
  5
2F4
 10
-252.899294
 20
-80.173322
 30
0.0
 40
2.634161
 50
62.924933
 51
117.075067
  0
POINT
  8
2
  5
2F5
 10
-248.136154
 20
-61.539161
 30
0.0
  0
POINT
  8
2
  5
2F6
 10
-232.136154
 20
-61.539161
 30
0.0
  0
POINT
  8
2
  5
2F7
 10
-248.136154
 20
-61.539161
 30
0.0
  0
LINE
  8
2
  5
2F8
 10
-238.136154
 20
-83.150486
 30
0.0
 11
-238.136154
 21
-77.827837
 31
0.0
  0
LINE
  8
2
  5
2F9
 10
-226.136154
 20
-83.150486
 30
0.0
 11
-226.136154
 21
-77.827837
 31
0.0
  0
LINE
  8
2
  5
2FA
 10
-229.738238
 20
-77.827837
 30
0.0
 11
-229.738238
 21
-83.150486
 31
0.0
  0
LINE
  8
2
  5
2FB
 10
-228.571972
 20
-77.827837
 30
0.0
 11
-228.571972
 21
-83.150486
 31
0.0
  0
LINE
  8
2
  5
2FC
 10
-226.174057
 20
-77.827837
 30
0.0
 11
-226.174057
 21
-83.150486
 31
0.0
  0
LINE
  8
2
  5
2FD
 10
-226.636154
 20
-83.439161
 30
0.0
 11
-226.136154
 21
-83.150486
 31
0.0
  0
LINE
  8
2
  5
2FE
 10
-228.571972
 20
-83.150486
 30
0.0
 11
-229.738238
 21
-83.150486
 31
0.0
  0
LINE
  8
2
  5
2FF
 10
-238.136154
 20
-83.150486
 30
0.0
 11
-237.636154
 21
-83.439161
 31
0.0
  0
LINE
  8
2
  5
300
 10
-238.136154
 20
-77.827837
 30
0.0
 11
-237.636154
 21
-77.539161
 31
0.0
  0
ARC
  8
2
  5
301
 10
-232.136154
 20
-73.335532
 30
0.0
 40
10.10363
 50
270.0
 51
283.729133
  0
ARC
  8
2
  5
302
 10
-232.136154
 20
-87.642791
 30
0.0
 40
10.10363
 50
76.270867
 51
90.0
  0
LINE
  8
2
  5
303
 10
-228.571972
 20
-77.827837
 30
0.0
 11
-229.738238
 21
-77.827837
 31
0.0
  0
LINE
  8
2
  5
304
 10
-226.136154
 20
-81.150486
 30
0.0
 11
-226.174057
 21
-81.150486
 31
0.0
  0
ARC
  8
2
  5
305
 10
-227.373014
 20
-80.805001
 30
0.0
 40
2.634161
 50
242.924933
 51
297.075067
  0
ARC
  8
2
  5
306
 10
-227.373014
 20
-80.173322
 30
0.0
 40
2.634161
 50
62.924933
 51
117.075067
  0
LINE
  8
2
  5
307
 10
-226.636154
 20
-77.539161
 30
0.0
 11
-226.136154
 21
-77.827837
 31
0.0
  0
ARC
  8
2
  5
308
 10
-232.136154
 20
-73.335532
 30
0.0
 40
10.10363
 50
256.270867
 51
270.0
  0
LINE
  8
2
  5
309
 10
-235.700336
 20
-83.150486
 30
0.0
 11
-234.53407
 21
-83.150486
 31
0.0
  0
LINE
  8
2
  5
30A
 10
-234.53407
 20
-77.827837
 30
0.0
 11
-234.53407
 21
-83.150486
 31
0.0
  0
LINE
  8
2
  5
30B
 10
-235.700336
 20
-77.827837
 30
0.0
 11
-235.700336
 21
-83.150486
 31
0.0
  0
ARC
  8
2
  5
30C
 10
-236.899294
 20
-80.805001
 30
0.0
 40
2.634161
 50
242.924933
 51
297.075067
  0
LINE
  8
2
  5
30D
 10
-238.098252
 20
-77.827837
 30
0.0
 11
-238.098252
 21
-83.150486
 31
0.0
  0
LINE
  8
2
  5
30E
 10
-238.098252
 20
-81.150486
 30
0.0
 11
-238.136154
 21
-81.150486
 31
0.0
  0
LINE
  8
2
  6
CENTER
 62
     2
  5
30F
 10
-232.136154
 20
-117.800316
 30
0.0
 11
-232.136154
 21
-137.505645
 31
0.0
  0
LINE
  8
2
  5
310
 10
-239.086154
 20
-83.439161
 30
0.0
 11
-225.186154
 21
-83.439161
 31
0.0
  0
LINE
  8
2
  5
311
 10
-239.086154
 20
-112.439161
 30
0.0
 11
-232.136154
 21
-112.439161
 31
0.0
  0
LINE
  8
2
  5
312
 10
-239.086154
 20
-106.939161
 30
0.0
 11
-232.136154
 21
-106.939161
 31
0.0
  0
LINE
  8
2
  5
313
 10
-239.086154
 20
-104.939161
 30
0.0
 11
-232.136154
 21
-104.939161
 31
0.0
  0
LINE
  8
2
  5
314
 10
-239.086154
 20
-99.939161
 30
0.0
 11
-232.136154
 21
-99.939161
 31
0.0
  0
LINE
  8
2
  5
315
 10
-239.086154
 20
-97.939161
 30
0.0
 11
-232.136154
 21
-97.939161
 31
0.0
  0
LINE
  8
2
  5
316
 10
-239.086154
 20
-92.939161
 30
0.0
 11
-232.136154
 21
-92.939161
 31
0.0
  0
LINE
  8
2
  5
317
 10
-239.086154
 20
-90.939161
 30
0.0
 11
-232.136154
 21
-90.939161
 31
0.0
  0
LINE
  8
2
  5
318
 10
-239.486154
 20
-111.639161
 30
0.0
 11
-239.486154
 21
-107.739161
 31
0.0
  0
LINE
  8
2
  5
319
 10
-239.486154
 20
-104.139161
 30
0.0
 11
-239.486154
 21
-100.739161
 31
0.0
  0
LINE
  8
2
  5
31A
 10
-239.486154
 20
-97.139161
 30
0.0
 11
-239.486154
 21
-93.739161
 31
0.0
  0
LINE
  8
2
  5
31B
 10
-239.486154
 20
-90.139161
 30
0.0
 11
-239.486154
 21
-84.239161
 31
0.0
  0
LINE
  8
2
  5
31C
 10
-239.086154
 20
-92.939161
 30
0.0
 11
-239.086154
 21
-90.939161
 31
0.0
  0
LINE
  8
2
  5
31D
 10
-239.086154
 20
-106.939161
 30
0.0
 11
-239.086154
 21
-104.939161
 31
0.0
  0
LINE
  8
2
  5
31E
 10
-239.086154
 20
-99.939161
 30
0.0
 11
-239.086154
 21
-97.939161
 31
0.0
  0
ARC
  8
2
  5
31F
 10
-238.486154
 20
-90.139161
 30
0.0
 40
1.0
 50
180.0
 51
233.130102
  0
ARC
  8
2
  5
320
 10
-238.486154
 20
-93.739161
 30
0.0
 40
1.0
 50
126.869898
 51
180.0
  0
ARC
  8
2
  5
321
 10
-238.486154
 20
-97.139161
 30
0.0
 40
1.0
 50
180.0
 51
233.130102
  0
ARC
  8
2
  5
322
 10
-238.486154
 20
-100.739161
 30
0.0
 40
1.0
 50
126.869898
 51
180.0
  0
ARC
  8
2
  5
323
 10
-238.486154
 20
-104.139161
 30
0.0
 40
1.0
 50
180.0
 51
233.130102
  0
ARC
  8
2
  5
324
 10
-238.486154
 20
-107.739161
 30
0.0
 40
1.0
 50
126.869898
 51
180.0
  0
ARC
  8
2
  5
325
 10
-238.486154
 20
-111.639161
 30
0.0
 40
1.0
 50
180.0
 51
233.130102
  0
ARC
  8
2
  5
326
 10
-238.486154
 20
-84.239161
 30
0.0
 40
1.0
 50
126.869898
 51
180.0
  0
LINE
  8
2
  5
327
 10
-225.186154
 20
-112.439161
 30
0.0
 11
-232.136154
 21
-112.439161
 31
0.0
  0
ARC
  8
2
  5
328
 10
-225.786154
 20
-111.639161
 30
0.0
 40
1.0
 50
306.869898
 51
360.0
  0
LINE
  8
2
  5
329
 10
-224.786154
 20
-111.639161
 30
0.0
 11
-224.786154
 21
-107.739161
 31
0.0
  0
ARC
  8
2
  5
32A
 10
-225.786154
 20
-107.739161
 30
0.0
 40
1.0
 50
360.0
 51
53.130102
  0
LINE
  8
2
  5
32B
 10
-225.186154
 20
-106.939161
 30
0.0
 11
-225.186154
 21
-104.939161
 31
0.0
  0
LINE
  8
2
  5
32C
 10
-225.186154
 20
-106.939161
 30
0.0
 11
-232.136154
 21
-106.939161
 31
0.0
  0
LINE
  8
2
  5
32D
 10
-225.186154
 20
-104.939161
 30
0.0
 11
-232.136154
 21
-104.939161
 31
0.0
  0
ARC
  8
2
  5
32E
 10
-225.786154
 20
-104.139161
 30
0.0
 40
1.0
 50
306.869898
 51
360.0
  0
LINE
  8
2
  5
32F
 10
-224.786154
 20
-104.139161
 30
0.0
 11
-224.786154
 21
-100.739161
 31
0.0
  0
ARC
  8
2
  5
330
 10
-225.786154
 20
-100.739161
 30
0.0
 40
1.0
 50
360.0
 51
53.130102
  0
LINE
  8
2
  5
331
 10
-225.186154
 20
-99.939161
 30
0.0
 11
-232.136154
 21
-99.939161
 31
0.0
  0
LINE
  8
2
  5
332
 10
-225.186154
 20
-99.939161
 30
0.0
 11
-225.186154
 21
-97.939161
 31
0.0
  0
LINE
  8
2
  5
333
 10
-225.186154
 20
-97.939161
 30
0.0
 11
-232.136154
 21
-97.939161
 31
0.0
  0
ARC
  8
2
  5
334
 10
-225.786154
 20
-97.139161
 30
0.0
 40
1.0
 50
306.869898
 51
360.0
  0
ARC
  8
2
  5
335
 10
-225.786154
 20
-97.139161
 30
0.0
 40
1.0
 50
306.869898
 51
360.0
  0
LINE
  8
2
  5
336
 10
-224.786154
 20
-97.139161
 30
0.0
 11
-224.786154
 21
-93.739161
 31
0.0
  0
ARC
  8
2
  5
337
 10
-225.786154
 20
-93.739161
 30
0.0
 40
1.0
 50
360.0
 51
53.130102
  0
LINE
  8
2
  5
338
 10
-225.186154
 20
-92.939161
 30
0.0
 11
-232.136154
 21
-92.939161
 31
0.0
  0
LINE
  8
2
  5
339
 10
-225.186154
 20
-92.939161
 30
0.0
 11
-225.186154
 21
-90.939161
 31
0.0
  0
LINE
  8
2
  5
33A
 10
-225.186154
 20
-90.939161
 30
0.0
 11
-232.136154
 21
-90.939161
 31
0.0
  0
ARC
  8
2
  5
33B
 10
-225.786154
 20
-90.139161
 30
0.0
 40
1.0
 50
306.869898
 51
360.0
  0
LINE
  8
2
  5
33C
 10
-224.786154
 20
-90.139161
 30
0.0
 11
-224.786154
 21
-84.239161
 31
0.0
  0
ARC
  8
2
  5
33D
 10
-225.786154
 20
-84.239161
 30
0.0
 40
1.0
 50
360.0
 51
53.130102
  0
LINE
  8
2
  5
33E
 10
-238.986154
 20
-128.677498
 30
0.0
 11
-238.986154
 21
-112.439161
 31
0.0
  0
LINE
  8
2
  5
33F
 10
-225.286154
 20
-128.691177
 30
0.0
 11
-225.286154
 21
-112.439161
 31
0.0
  0
ARC
  8
2
  5
340
 10
-232.136154
 20
-87.642791
 30
0.0
 40
10.10363
 50
90.0
 51
103.729133
  0
LINE
  8
2
  5
341
 10
-235.700336
 20
-77.827837
 30
0.0
 11
-234.53407
 21
-77.827837
 31
0.0
  0
ARC
  8
2
  5
342
 10
-236.899294
 20
-80.173322
 30
0.0
 40
2.634161
 50
62.924933
 51
117.075067
  0
POINT
  8
2
  5
343
 10
-232.136154
 20
-61.539161
 30
0.0
  0
LINE
  8
2
 62
     2
  5
344
 10
-222.925922
 20
-77.350976
 30
0.0
 11
-221.125922
 21
-75.550976
 31
0.0
  0
LINE
  8
2
 62
     2
  5
345
 10
-220.097495
 20
-77.350976
 30
0.0
 11
-218.297495
 21
-75.550976
 31
0.0
  0
LINE
  8
2
 62
     2
  5
346
 10
-217.269068
 20
-77.350976
 30
0.0
 11
-215.636154
 21
-75.718063
 31
0.0
  0
LINE
  8
2
 62
     2
  5
347
 10
-225.754349
 20
-77.350976
 30
0.0
 11
-223.954349
 21
-75.550976
 31
0.0
  0
ARC
  8
2
  5
348
 10
-235.561154
 20
-124.048064
 30
0.0
 40
5.708333
 50
233.130102
 51
306.869898
  0
ARC
  8
2
  5
349
 10
-228.711154
 20
-133.181398
 30
0.0
 40
5.708333
 50
53.130102
 51
126.869898
  0
ARC
  8
2
  5
34A
 10
-228.711154
 20
-124.048064
 30
0.0
 40
5.708333
 50
233.130102
 51
306.869898
  0
ARC
  8
2
  5
34B
 10
-251.561154
 20
-124.048064
 30
0.0
 40
5.708333
 50
233.130102
 51
306.869898
  0
ARC
  8
2
  5
34C
 10
-244.711154
 20
-133.181398
 30
0.0
 40
5.708333
 50
53.130102
 51
126.869898
  0
ARC
  8
2
  5
34D
 10
-244.711154
 20
-124.048064
 30
0.0
 40
5.708333
 50
233.130102
 51
306.869898
  0
LINE
  8
2
  5
34E
 10
-276.823997
 20
-198.435657
 30
0.0
 11
-276.823997
 21
-197.935349
 31
0.0
  0
LINE
  8
2
  5
34F
 10
-288.823997
 20
-197.935349
 30
0.0
 11
-288.823997
 21
-198.435657
 31
0.0
  0
LINE
  8
2
  5
350
 10
-276.823997
 20
-197.935349
 30
0.0
 11
-277.323997
 21
-197.435349
 31
0.0
  0
LINE
  8
2
  5
351
 10
-288.323997
 20
-197.435349
 30
0.0
 11
-288.823997
 21
-197.935349
 31
0.0
  0
LINE
  8
2
  5
352
 10
-276.823997
 20
-197.935349
 30
0.0
 11
-288.823997
 21
-197.935349
 31
0.0
  0
POINT
  8
2
  5
353
 10
-282.823997
 20
-218.435657
 30
0.0
  0
LINE
  8
2
  5
354
 10
-290.074251
 20
-169.435349
 30
0.0
 11
-275.574251
 21
-169.435349
 31
0.0
  0
LINE
  8
2
  5
355
 10
-289.724251
 20
-175.435349
 30
0.0
 11
-275.924251
 21
-175.435349
 31
0.0
  0
LINE
  8
2
  5
356
 10
-289.724251
 20
-177.935349
 30
0.0
 11
-275.924251
 21
-177.935349
 31
0.0
  0
LINE
  8
2
  5
357
 10
-289.724251
 20
-182.935349
 30
0.0
 11
-275.924251
 21
-182.935349
 31
0.0
  0
LINE
  8
2
  5
358
 10
-289.724251
 20
-185.435349
 30
0.0
 11
-275.924251
 21
-185.435349
 31
0.0
  0
LINE
  8
2
  5
359
 10
-289.724251
 20
-190.435349
 30
0.0
 11
-275.924251
 21
-190.435349
 31
0.0
  0
LINE
  8
2
  5
35A
 10
-289.724251
 20
-192.935349
 30
0.0
 11
-275.924251
 21
-192.935349
 31
0.0
  0
LINE
  8
2
  5
35B
 10
-290.074251
 20
-193.695283
 30
0.0
 11
-290.074251
 21
-196.435349
 31
0.0
  0
LINE
  8
2
  5
35C
 10
-290.074251
 20
-186.195283
 30
0.0
 11
-290.074251
 21
-189.675414
 31
0.0
  0
LINE
  8
2
  5
35D
 10
-290.074251
 20
-169.435349
 30
0.0
 11
-290.074251
 21
-174.675414
 31
0.0
  0
LINE
  8
2
  5
35E
 10
-290.074251
 20
-178.695283
 30
0.0
 11
-290.074251
 21
-182.175414
 31
0.0
  0
LINE
  8
2
  5
35F
 10
-275.574251
 20
-193.695283
 30
0.0
 11
-275.574251
 21
-196.435349
 31
0.0
  0
LINE
  8
2
  5
360
 10
-275.574251
 20
-186.195283
 30
0.0
 11
-275.574251
 21
-189.675414
 31
0.0
  0
LINE
  8
2
  5
361
 10
-275.574251
 20
-169.435349
 30
0.0
 11
-275.574251
 21
-174.675414
 31
0.0
  0
LINE
  8
2
  5
362
 10
-275.574251
 20
-178.695283
 30
0.0
 11
-275.574251
 21
-182.175414
 31
0.0
  0
LINE
  8
2
  5
363
 10
-289.724251
 20
-190.435349
 30
0.0
 11
-289.724251
 21
-192.935349
 31
0.0
  0
LINE
  8
2
  5
364
 10
-275.924251
 20
-190.435349
 30
0.0
 11
-275.924251
 21
-192.935349
 31
0.0
  0
LINE
  8
2
  5
365
 10
-289.724251
 20
-175.435349
 30
0.0
 11
-289.724251
 21
-177.935349
 31
0.0
  0
LINE
  8
2
  5
366
 10
-289.724251
 20
-182.935349
 30
0.0
 11
-289.724251
 21
-185.435349
 31
0.0
  0
LINE
  8
2
  5
367
 10
-275.924251
 20
-175.435349
 30
0.0
 11
-275.924251
 21
-177.935349
 31
0.0
  0
LINE
  8
2
  5
368
 10
-275.924251
 20
-182.935349
 30
0.0
 11
-275.924251
 21
-185.435349
 31
0.0
  0
LINE
  8
2
  5
369
 10
-275.924251
 20
-169.435349
 30
0.0
 11
-275.924251
 21
-137.357422
 31
0.0
  0
LINE
  8
2
  5
36A
 10
-289.724251
 20
-169.435349
 30
0.0
 11
-289.724251
 21
-137.357422
 31
0.0
  0
ARC
  8
2
  5
36B
 10
-276.574251
 20
-193.695283
 30
0.0
 40
1.0
 50
0.0
 51
49.458398
  0
ARC
  8
2
  5
36C
 10
-276.574251
 20
-189.675414
 30
0.0
 40
1.0
 50
310.541602
 51
360.0
  0
ARC
  8
2
  5
36D
 10
-276.574251
 20
-186.195283
 30
0.0
 40
1.0
 50
0.0
 51
49.458398
  0
ARC
  8
2
  5
36E
 10
-276.574251
 20
-182.175414
 30
0.0
 40
1.0
 50
310.541602
 51
360.0
  0
ARC
  8
2
  5
36F
 10
-276.574251
 20
-178.695283
 30
0.0
 40
1.0
 50
0.0
 51
49.458398
  0
ARC
  8
2
  5
370
 10
-276.574251
 20
-174.675414
 30
0.0
 40
1.0
 50
310.541602
 51
360.0
  0
ARC
  8
2
  5
371
 10
-289.074251
 20
-193.695283
 30
0.0
 40
1.0
 50
130.541602
 51
180.0
  0
ARC
  8
2
  5
372
 10
-289.074251
 20
-189.675414
 30
0.0
 40
1.0
 50
180.0
 51
229.458398
  0
ARC
  8
2
  5
373
 10
-289.074251
 20
-186.195283
 30
0.0
 40
1.0
 50
130.541602
 51
180.0
  0
ARC
  8
2
  5
374
 10
-289.074251
 20
-182.175414
 30
0.0
 40
1.0
 50
180.0
 51
229.458398
  0
ARC
  8
2
  5
375
 10
-289.074251
 20
-178.695283
 30
0.0
 40
1.0
 50
130.541602
 51
180.0
  0
ARC
  8
2
  5
376
 10
-289.074251
 20
-174.675414
 30
0.0
 40
1.0
 50
180.0
 51
229.458398
  0
ARC
  8
2
  5
377
 10
-276.574251
 20
-196.435349
 30
0.0
 40
1.0
 50
270.0
 51
360.0
  0
ARC
  8
2
  5
378
 10
-289.074251
 20
-196.435349
 30
0.0
 40
1.0
 50
180.0
 51
270.0
  0
LINE
  8
2
  5
379
 10
-289.074251
 20
-197.435349
 30
0.0
 11
-276.574251
 21
-197.435349
 31
0.0
  0
ARC
  8
2
  5
37A
 10
-286.274124
 20
-132.914705
 30
0.0
 40
5.750212
 50
233.130102
 51
306.869898
  0
ARC
  8
2
  5
37B
 10
-279.37387
 20
-142.115044
 30
0.0
 40
5.750212
 50
53.130102
 51
126.869898
  0
ARC
  8
2
  5
37C
 10
-286.274124
 20
-142.115044
 30
0.0
 40
5.750212
 50
53.130102
 51
126.869898
  0
LINE
  8
2
  5
37D
 10
-292.824251
 20
-210.435657
 30
0.0
 11
-272.824251
 21
-210.435657
 31
0.0
  0
LINE
  8
2
  5
37E
 10
-272.824251
 20
-198.435657
 30
0.0
 11
-282.823997
 21
-198.435657
 31
0.0
  0
LINE
  8
2
  5
37F
 10
-282.823997
 20
-198.435657
 30
0.0
 11
-292.824251
 21
-198.435657
 31
0.0
  0
POINT
  8
2
  5
380
 10
-282.823997
 20
-198.435657
 30
0.0
  0
LINE
  8
2
  5
381
 10
-271.824251
 20
-199.013007
 30
0.0
 11
-271.824251
 21
-209.858306
 31
0.0
  0
LINE
  8
2
  5
382
 10
-272.824251
 20
-198.435657
 30
0.0
 11
-271.824251
 21
-199.013007
 31
0.0
  0
LINE
  8
2
  5
383
 10
-272.824251
 20
-210.435657
 30
0.0
 11
-271.824251
 21
-209.858306
 31
0.0
  0
LINE
  8
2
  5
384
 10
-276.455285
 20
-199.013007
 30
0.0
 11
-276.455285
 21
-209.858306
 31
0.0
  0
LINE
  8
2
  5
385
 10
-278.241675
 20
-199.013007
 30
0.0
 11
-278.241675
 21
-209.858306
 31
0.0
  0
LINE
  8
2
  5
386
 10
-276.455285
 20
-199.013007
 30
0.0
 11
-278.241675
 21
-199.013007
 31
0.0
  0
ARC
  8
2
  5
387
 10
-282.823997
 20
-216.90885
 30
0.0
 40
18.473194
 50
75.637701
 51
90.000787
  0
ARC
  8
2
  5
388
 10
-274.139768
 20
-203.36763
 30
0.0
 40
4.931973
 50
61.998739
 51
118.001261
  0
ARC
  8
2
  5
389
 10
-274.139768
 20
-205.503684
 30
0.0
 40
4.931973
 50
241.998739
 51
298.001261
  0
ARC
  8
2
  5
38A
 10
-282.823997
 20
-191.962463
 30
0.0
 40
18.473194
 50
269.999213
 51
284.362299
  0
LINE
  8
2
  5
38B
 10
-276.455285
 20
-209.858306
 30
0.0
 11
-278.241675
 21
-209.858306
 31
0.0
  0
LINE
  8
2
  5
38C
 10
-287.406826
 20
-199.013007
 30
0.0
 11
-287.406826
 21
-209.858306
 31
0.0
  0
LINE
  8
2
  5
38D
 10
-289.193217
 20
-199.013007
 30
0.0
 11
-289.193217
 21
-209.858306
 31
0.0
  0
LINE
  8
2
  5
38E
 10
-289.193217
 20
-199.013007
 30
0.0
 11
-287.406826
 21
-199.013007
 31
0.0
  0
ARC
  8
2
  5
38F
 10
-282.824505
 20
-216.90885
 30
0.0
 40
18.473194
 50
89.999213
 51
104.362299
  0
ARC
  8
2
  5
390
 10
-291.508734
 20
-203.36763
 30
0.0
 40
4.931973
 50
61.998739
 51
118.001261
  0
LINE
  8
2
  5
391
 10
-289.193217
 20
-209.858306
 30
0.0
 11
-287.406826
 21
-209.858306
 31
0.0
  0
ARC
  8
2
  5
392
 10
-282.824505
 20
-191.962463
 30
0.0
 40
18.473194
 50
255.637701
 51
270.000787
  0
ARC
  8
2
  5
393
 10
-291.508734
 20
-205.503684
 30
0.0
 40
4.931973
 50
241.998739
 51
298.001261
  0
LINE
  8
2
  5
394
 10
-292.824251
 20
-210.435657
 30
0.0
 11
-293.824251
 21
-209.858306
 31
0.0
  0
LINE
  8
2
  5
395
 10
-292.824251
 20
-198.435657
 30
0.0
 11
-293.824251
 21
-199.013007
 31
0.0
  0
LINE
  8
2
  5
396
 10
-293.824251
 20
-199.013007
 30
0.0
 11
-293.824251
 21
-209.858306
 31
0.0
  0
POINT
  8
2
  5
397
 10
-197.448311
 20
-218.435465
 30
0.0
  0
LINE
  8
2
  5
398
 10
104.79244
 20
-75.550976
 30
0.0
 11
115.771976
 21
-75.550976
 31
0.0
  0
LINE
  8
2
  5
399
 10
88.79244
 20
-75.550976
 30
0.0
 11
93.751513
 21
-75.550976
 31
0.0
  0
LINE
  8
2
  5
39A
 10
89.271976
 20
-77.350976
 30
0.0
 11
93.271976
 21
-77.350976
 31
0.0
  0
LINE
  8
2
  5
39B
 10
105.271976
 20
-77.350976
 30
0.0
 11
115.771976
 21
-77.350976
 31
0.0
  0
LINE
  8
2
  5
39C
 10
87.571976
 20
-81.350976
 30
0.0
 11
127.571976
 21
-81.350976
 31
0.0
  0
LINE
  8
2
  5
39D
 10
93.071976
 20
-75.539161
 30
0.0
 11
105.471976
 21
-75.539161
 31
0.0
  0
LINE
  8
2
  5
39E
 10
104.771976
 20
-75.539161
 30
0.0
 11
99.271976
 21
-75.539161
 31
0.0
  0
LINE
  8
2
  5
39F
 10
94.271976
 20
-75.539161
 30
0.0
 11
93.771976
 21
-75.539161
 31
0.0
  0
LINE
  8
2
  5
3A0
 10
92.321976
 20
-83.439161
 30
0.0
 11
106.221976
 21
-83.439161
 31
0.0
  0
LINE
  8
2
  5
3A1
 10
92.321976
 20
-112.439161
 30
0.0
 11
99.271976
 21
-112.439161
 31
0.0
  0
LINE
  8
2
  5
3A2
 10
92.321976
 20
-106.939161
 30
0.0
 11
99.271976
 21
-106.939161
 31
0.0
  0
LINE
  8
2
  5
3A3
 10
92.321976
 20
-104.939161
 30
0.0
 11
99.271976
 21
-104.939161
 31
0.0
  0
LINE
  8
2
  5
3A4
 10
92.321976
 20
-99.939161
 30
0.0
 11
99.271976
 21
-99.939161
 31
0.0
  0
LINE
  8
2
  5
3A5
 10
92.321976
 20
-97.939161
 30
0.0
 11
99.271976
 21
-97.939161
 31
0.0
  0
LINE
  8
2
  5
3A6
 10
92.321976
 20
-92.939161
 30
0.0
 11
99.271976
 21
-92.939161
 31
0.0
  0
LINE
  8
2
  5
3A7
 10
92.321976
 20
-90.939161
 30
0.0
 11
99.271976
 21
-90.939161
 31
0.0
  0
LINE
  8
2
  5
3A8
 10
91.921976
 20
-111.639161
 30
0.0
 11
91.921976
 21
-107.739161
 31
0.0
  0
LINE
  8
2
  5
3A9
 10
91.921976
 20
-104.139161
 30
0.0
 11
91.921976
 21
-100.739161
 31
0.0
  0
LINE
  8
2
  5
3AA
 10
91.921976
 20
-97.139161
 30
0.0
 11
91.921976
 21
-93.739161
 31
0.0
  0
LINE
  8
2
  5
3AB
 10
91.921976
 20
-90.139161
 30
0.0
 11
91.921976
 21
-84.239161
 31
0.0
  0
LINE
  8
2
  5
3AC
 10
92.321976
 20
-92.939161
 30
0.0
 11
92.321976
 21
-90.939161
 31
0.0
  0
LINE
  8
2
  5
3AD
 10
92.321976
 20
-106.939161
 30
0.0
 11
92.321976
 21
-104.939161
 31
0.0
  0
LINE
  8
2
  5
3AE
 10
92.321976
 20
-99.939161
 30
0.0
 11
92.321976
 21
-97.939161
 31
0.0
  0
ARC
  8
2
  5
3AF
 10
92.921976
 20
-90.139161
 30
0.0
 40
1.0
 50
180.0
 51
233.130102
  0
ARC
  8
2
  5
3B0
 10
92.921976
 20
-93.739161
 30
0.0
 40
1.0
 50
126.869898
 51
180.0
  0
ARC
  8
2
  5
3B1
 10
92.921976
 20
-97.139161
 30
0.0
 40
1.0
 50
180.0
 51
233.130102
  0
ARC
  8
2
  5
3B2
 10
92.921976
 20
-100.739161
 30
0.0
 40
1.0
 50
126.869898
 51
180.0
  0
ARC
  8
2
  5
3B3
 10
92.921976
 20
-104.139161
 30
0.0
 40
1.0
 50
180.0
 51
233.130102
  0
ARC
  8
2
  5
3B4
 10
92.921976
 20
-107.739161
 30
0.0
 40
1.0
 50
126.869898
 51
180.0
  0
ARC
  8
2
  5
3B5
 10
92.921976
 20
-111.639161
 30
0.0
 40
1.0
 50
180.0
 51
233.130102
  0
ARC
  8
2
  5
3B6
 10
92.921976
 20
-84.239161
 30
0.0
 40
1.0
 50
126.869898
 51
180.0
  0
LINE
  8
2
  5
3B7
 10
106.221976
 20
-112.439161
 30
0.0
 11
99.271976
 21
-112.439161
 31
0.0
  0
ARC
  8
2
  5
3B8
 10
105.621976
 20
-111.639161
 30
0.0
 40
1.0
 50
306.869898
 51
360.0
  0
LINE
  8
2
  5
3B9
 10
106.621976
 20
-111.639161
 30
0.0
 11
106.621976
 21
-107.739161
 31
0.0
  0
ARC
  8
2
  5
3BA
 10
105.621976
 20
-107.739161
 30
0.0
 40
1.0
 50
360.0
 51
53.130102
  0
LINE
  8
2
  5
3BB
 10
106.221976
 20
-106.939161
 30
0.0
 11
106.221976
 21
-104.939161
 31
0.0
  0
LINE
  8
2
  5
3BC
 10
106.221976
 20
-106.939161
 30
0.0
 11
99.271976
 21
-106.939161
 31
0.0
  0
LINE
  8
2
  5
3BD
 10
106.221976
 20
-104.939161
 30
0.0
 11
99.271976
 21
-104.939161
 31
0.0
  0
ARC
  8
2
  5
3BE
 10
105.621976
 20
-104.139161
 30
0.0
 40
1.0
 50
306.869898
 51
360.0
  0
LINE
  8
2
  5
3BF
 10
106.621976
 20
-104.139161
 30
0.0
 11
106.621976
 21
-100.739161
 31
0.0
  0
ARC
  8
2
  5
3C0
 10
105.621976
 20
-100.739161
 30
0.0
 40
1.0
 50
360.0
 51
53.130102
  0
LINE
  8
2
  5
3C1
 10
106.221976
 20
-99.939161
 30
0.0
 11
99.271976
 21
-99.939161
 31
0.0
  0
LINE
  8
2
  5
3C2
 10
106.221976
 20
-99.939161
 30
0.0
 11
106.221976
 21
-97.939161
 31
0.0
  0
LINE
  8
2
  5
3C3
 10
106.221976
 20
-97.939161
 30
0.0
 11
99.271976
 21
-97.939161
 31
0.0
  0
ARC
  8
2
  5
3C4
 10
105.621976
 20
-97.139161
 30
0.0
 40
1.0
 50
306.869898
 51
360.0
  0
ARC
  8
2
  5
3C5
 10
105.621976
 20
-97.139161
 30
0.0
 40
1.0
 50
306.869898
 51
360.0
  0
LINE
  8
2
  5
3C6
 10
106.621976
 20
-97.139161
 30
0.0
 11
106.621976
 21
-93.739161
 31
0.0
  0
ARC
  8
2
  5
3C7
 10
105.621976
 20
-93.739161
 30
0.0
 40
1.0
 50
360.0
 51
53.130102
  0
LINE
  8
2
  5
3C8
 10
106.221976
 20
-92.939161
 30
0.0
 11
99.271976
 21
-92.939161
 31
0.0
  0
LINE
  8
2
  5
3C9
 10
106.221976
 20
-92.939161
 30
0.0
 11
106.221976
 21
-90.939161
 31
0.0
  0
LINE
  8
2
  5
3CA
 10
106.221976
 20
-90.939161
 30
0.0
 11
99.271976
 21
-90.939161
 31
0.0
  0
ARC
  8
2
  5
3CB
 10
105.621976
 20
-90.139161
 30
0.0
 40
1.0
 50
306.869898
 51
360.0
  0
LINE
  8
2
  5
3CC
 10
106.621976
 20
-90.139161
 30
0.0
 11
106.621976
 21
-84.239161
 31
0.0
  0
ARC
  8
2
  5
3CD
 10
105.621976
 20
-84.239161
 30
0.0
 40
1.0
 50
360.0
 51
53.130102
  0
LINE
  8
2
  5
3CE
 10
92.421976
 20
-143.578735
 30
0.0
 11
92.421976
 21
-112.439161
 31
0.0
  0
LINE
  8
2
  5
3CF
 10
106.121976
 20
-143.642105
 30
0.0
 11
106.121976
 21
-112.439161
 31
0.0
  0
ARC
  8
2
  5
3D0
 10
95.846976
 20
-139.048064
 30
0.0
 40
5.708333
 50
233.130102
 51
306.869898
  0
ARC
  8
2
  5
3D1
 10
102.696976
 20
-148.181398
 30
0.0
 40
5.708333
 50
53.130102
 51
126.869898
  0
ARC
  8
2
  5
3D2
 10
102.696976
 20
-139.048064
 30
0.0
 40
5.708333
 50
233.130102
 51
306.869898
  0
LINE
  8
2
 62
     2
  5
3D3
 10
126.671976
 20
-77.350976
 30
0.0
 11
127.571976
 21
-76.450976
 31
0.0
  0
LINE
  8
2
 62
     2
  5
3D4
 10
125.643549
 20
-75.550976
 30
0.0
 11
123.843549
 21
-77.350976
 31
0.0
  0
LINE
  8
2
 62
     2
  5
3D5
 10
122.815122
 20
-75.550976
 30
0.0
 11
121.015122
 21
-77.350976
 31
0.0
  0
LINE
  8
2
 62
     2
  5
3D6
 10
119.986695
 20
-75.550976
 30
0.0
 11
118.186695
 21
-77.350976
 31
0.0
  0
LINE
  8
2
 62
     2
  5
3D7
 10
117.158268
 20
-75.550976
 30
0.0
 11
115.358268
 21
-77.350976
 31
0.0
  0
LINE
  8
2
 62
     2
  5
3D8
 10
114.329841
 20
-75.550976
 30
0.0
 11
112.529841
 21
-77.350976
 31
0.0
  0
LINE
  8
2
 62
     2
  5
3D9
 10
111.501414
 20
-75.550976
 30
0.0
 11
109.701414
 21
-77.350976
 31
0.0
  0
LINE
  8
2
 62
     2
  5
3DA
 10
108.672987
 20
-75.550976
 30
0.0
 11
106.872987
 21
-77.350976
 31
0.0
  0
LINE
  8
2
 62
     2
  5
3DB
 10
105.844559
 20
-75.550976
 30
0.0
 11
104.044559
 21
-77.350976
 31
0.0
  0
LINE
  8
2
 62
     2
  5
3DC
 10
103.016132
 20
-75.550976
 30
0.0
 11
101.216132
 21
-77.350976
 31
0.0
  0
LINE
  8
2
 62
     2
  5
3DD
 10
100.187705
 20
-75.550976
 30
0.0
 11
98.387705
 21
-77.350976
 31
0.0
  0
LINE
  8
2
 62
     2
  5
3DE
 10
97.359278
 20
-75.550976
 30
0.0
 11
95.559278
 21
-77.350976
 31
0.0
  0
LINE
  8
2
 62
     2
  5
3DF
 10
94.530851
 20
-75.550976
 30
0.0
 11
92.730851
 21
-77.350976
 31
0.0
  0
LINE
  8
2
 62
     2
  5
3E0
 10
91.702424
 20
-75.550976
 30
0.0
 11
89.902424
 21
-77.350976
 31
0.0
  0
LINE
  8
2
 62
     2
  5
3E1
 10
88.873997
 20
-75.550976
 30
0.0
 11
87.571976
 21
-76.852997
 31
0.0
  0
LINE
  8
2
  5
3E2
 10
93.271976
 20
-83.150486
 30
0.0
 11
93.271976
 21
-81.350976
 31
0.0
  0
LINE
  8
2
  5
3E3
 10
105.271976
 20
-83.150486
 30
0.0
 11
105.271976
 21
-81.350976
 31
0.0
  0
LINE
  8
2
  5
3E4
 10
101.669892
 20
-81.350976
 30
0.0
 11
101.669892
 21
-83.150486
 31
0.0
  0
LINE
  8
2
  5
3E5
 10
102.836158
 20
-81.350976
 30
0.0
 11
102.836158
 21
-83.150486
 31
0.0
  0
LINE
  8
2
  5
3E6
 10
105.234074
 20
-81.350976
 30
0.0
 11
105.234074
 21
-83.150486
 31
0.0
  0
LINE
  8
2
  5
3E7
 10
104.771976
 20
-83.439161
 30
0.0
 11
105.271976
 21
-83.150486
 31
0.0
  0
LINE
  8
2
  5
3E8
 10
102.836158
 20
-83.150486
 30
0.0
 11
101.669892
 21
-83.150486
 31
0.0
  0
LINE
  8
2
  5
3E9
 10
93.271976
 20
-83.150486
 30
0.0
 11
93.771976
 21
-83.439161
 31
0.0
  0
ARC
  8
2
  5
3EA
 10
99.271976
 20
-73.335532
 30
0.0
 40
10.10363
 50
270.0
 51
283.729133
  0
LINE
  8
2
  5
3EB
 10
105.271976
 20
-83.150486
 30
0.0
 11
105.234074
 21
-83.150486
 31
0.0
  0
ARC
  8
2
  5
3EC
 10
104.035116
 20
-80.805001
 30
0.0
 40
2.634161
 50
242.924933
 51
297.075067
  0
ARC
  8
2
  5
3ED
 10
99.271976
 20
-73.335532
 30
0.0
 40
10.10363
 50
256.270867
 51
270.0
  0
LINE
  8
2
  5
3EE
 10
95.707795
 20
-83.150486
 30
0.0
 11
96.874061
 21
-83.150486
 31
0.0
  0
LINE
  8
2
  5
3EF
 10
96.874061
 20
-81.350976
 30
0.0
 11
96.874061
 21
-83.150486
 31
0.0
  0
LINE
  8
2
  5
3F0
 10
95.707794
 20
-81.350976
 30
0.0
 11
95.707795
 21
-83.150486
 31
0.0
  0
ARC
  8
2
  5
3F1
 10
94.508837
 20
-80.805001
 30
0.0
 40
2.634161
 50
242.924933
 51
297.075067
  0
LINE
  8
2
  5
3F2
 10
93.309879
 20
-81.350976
 30
0.0
 11
93.309879
 21
-83.150486
 31
0.0
  0
LINE
  8
2
  5
3F3
 10
93.309879
 20
-83.150486
 30
0.0
 11
93.271976
 21
-83.150486
 31
0.0
  0
LINE
  8
2
 62
     2
  5
3F4
 10
-261.436154
 20
-77.350976
 30
0.0
 11
-259.636154
 21
-75.550976
 31
0.0
  0
LINE
  8
2
 62
     2
  5
3F5
 10
-258.607727
 20
-77.350976
 30
0.0
 11
-256.807727
 21
-75.550976
 31
0.0
  0
LINE
  8
2
 62
     2
  5
3F6
 10
-254.636154
 20
-76.207831
 30
0.0
 11
-255.7793
 21
-77.350976
 31
0.0
  0
LINE
  8
2
 62
     2
  5
3F7
 10
-264.264581
 20
-77.350976
 30
0.0
 11
-262.464581
 21
-75.550976
 31
0.0
  0
LINE
  8
2
 62
     2
  5
3F8
 10
-241.636154
 20
-77.050976
 30
0.0
 11
-240.136154
 21
-75.550976
 31
0.0
  0
LINE
  8
2
 62
     2
  5
3F9
 10
-238.636154
 20
-76.879403
 30
0.0
 11
-239.107727
 21
-77.350976
 31
0.0
  0
POINT
  8
2
  5
3FA
 10
-232.136154
 20
-77.539161
 30
0.0
  0
LINE
  8
2
  5
3FB
 10
-237.136154
 20
-61.539161
 30
0.0
 11
-237.136154
 21
-62.039161
 31
0.0
  0
LINE
  8
2
  5
3FC
 10
-227.136154
 20
-61.539161
 30
0.0
 11
-227.136154
 21
-62.039161
 31
0.0
  0
LINE
  8
2
  5
3FD
 10
-232.136154
 20
-62.039161
 30
0.0
 11
-226.386154
 21
-62.039161
 31
0.0
  0
LINE
  8
2
  5
3FE
 10
-232.136154
 20
-77.539161
 30
0.0
 11
-226.386154
 21
-77.539161
 31
0.0
  0
LINE
  8
2
  5
3FF
 10
-225.886154
 20
-62.539161
 30
0.0
 11
-225.886154
 21
-77.039161
 31
0.0
  0
LINE
  8
2
  5
400
 10
-225.886154
 20
-62.539161
 30
0.0
 11
-226.386154
 21
-62.039161
 31
0.0
  0
LINE
  8
2
  5
401
 10
-225.886154
 20
-77.039161
 30
0.0
 11
-226.386154
 21
-77.539161
 31
0.0
  0
LINE
  8
2
  5
402
 10
-227.815002
 20
-77.039161
 30
0.0
 11
-230.386154
 21
-77.039161
 31
0.0
  0
LINE
  8
2
  5
403
 10
-227.815002
 20
-62.539161
 30
0.0
 11
-230.386154
 21
-62.539161
 31
0.0
  0
LINE
  8
2
  5
404
 10
-226.065002
 20
-62.539161
 30
0.0
 11
-226.065002
 21
-77.039161
 31
0.0
  0
LINE
  8
2
  5
405
 10
-227.815002
 20
-62.539161
 30
0.0
 11
-227.815002
 21
-77.039161
 31
0.0
  0
LINE
  8
2
  5
406
 10
-230.386154
 20
-62.539161
 30
0.0
 11
-230.386154
 21
-77.039161
 31
0.0
  0
LINE
  8
2
  5
407
 10
-225.886154
 20
-77.039161
 30
0.0
 11
-226.065002
 21
-77.039161
 31
0.0
  0
LINE
  8
2
  5
408
 10
-225.886154
 20
-62.539161
 30
0.0
 11
-226.065002
 21
-62.539161
 31
0.0
  0
ARC
  8
2
  5
409
 10
-232.136154
 20
-68.539161
 30
0.0
 40
6.25
 50
73.739795
 51
90.0
  0
ARC
  8
2
  5
40A
 10
-226.940002
 20
-63.945411
 30
0.0
 40
1.65625
 50
58.109208
 51
121.890792
  0
ARC
  8
2
  5
40B
 10
-226.940002
 20
-75.632911
 30
0.0
 40
1.65625
 50
238.109208
 51
301.890792
  0
ARC
  8
2
  5
40C
 10
-232.136154
 20
-71.039161
 30
0.0
 40
6.25
 50
270.0
 51
286.260205
  0
LINE
  8
2
  5
40D
 10
-232.136154
 20
-62.039161
 30
0.0
 11
-237.886154
 21
-62.039161
 31
0.0
  0
LINE
  8
2
  5
40E
 10
-238.386154
 20
-62.539161
 30
0.0
 11
-238.386154
 21
-77.039161
 31
0.0
  0
LINE
  8
2
  5
40F
 10
-238.386154
 20
-62.539161
 30
0.0
 11
-237.886154
 21
-62.039161
 31
0.0
  0
LINE
  8
2
  5
410
 10
-238.386154
 20
-77.039161
 30
0.0
 11
-237.886154
 21
-77.539161
 31
0.0
  0
LINE
  8
2
  5
411
 10
-236.457307
 20
-77.039161
 30
0.0
 11
-233.886154
 21
-77.039161
 31
0.0
  0
LINE
  8
2
  5
412
 10
-236.457307
 20
-62.539161
 30
0.0
 11
-233.886154
 21
-62.539161
 31
0.0
  0
LINE
  8
2
  5
413
 10
-238.207307
 20
-62.539161
 30
0.0
 11
-238.207307
 21
-77.039161
 31
0.0
  0
LINE
  8
2
  5
414
 10
-236.457307
 20
-62.539161
 30
0.0
 11
-236.457307
 21
-77.039161
 31
0.0
  0
LINE
  8
2
  5
415
 10
-233.886154
 20
-62.539161
 30
0.0
 11
-233.886154
 21
-77.039161
 31
0.0
  0
LINE
  8
2
  5
416
 10
-238.386154
 20
-77.039161
 30
0.0
 11
-238.207307
 21
-77.039161
 31
0.0
  0
LINE
  8
2
  5
417
 10
-238.386154
 20
-62.539161
 30
0.0
 11
-238.207307
 21
-62.539161
 31
0.0
  0
ARC
  8
2
  5
418
 10
-232.136154
 20
-68.539161
 30
0.0
 40
6.25
 50
90.0
 51
106.260205
  0
ARC
  8
2
  5
419
 10
-237.332307
 20
-63.945411
 30
0.0
 40
1.65625
 50
58.109208
 51
121.890792
  0
ARC
  8
2
  5
41A
 10
-237.332307
 20
-75.632911
 30
0.0
 40
1.65625
 50
238.109208
 51
301.890792
  0
ARC
  8
2
  5
41B
 10
-232.136154
 20
-71.039161
 30
0.0
 40
6.25
 50
253.739795
 51
270.0
  0
LINE
  8
2
  5
41C
 10
-253.136154
 20
-61.539161
 30
0.0
 11
-253.136154
 21
-62.039161
 31
0.0
  0
LINE
  8
2
  5
41D
 10
-243.136154
 20
-61.539161
 30
0.0
 11
-243.136154
 21
-62.039161
 31
0.0
  0
LINE
  8
2
  5
41E
 10
-248.136154
 20
-62.039161
 30
0.0
 11
-242.386154
 21
-62.039161
 31
0.0
  0
LINE
  8
2
  5
41F
 10
-241.886154
 20
-62.539161
 30
0.0
 11
-241.886154
 21
-77.039161
 31
0.0
  0
LINE
  8
2
  5
420
 10
-241.886154
 20
-62.539161
 30
0.0
 11
-242.386154
 21
-62.039161
 31
0.0
  0
LINE
  8
2
  5
421
 10
-241.886154
 20
-77.039161
 30
0.0
 11
-242.386154
 21
-77.539161
 31
0.0
  0
LINE
  8
2
  5
422
 10
-243.815002
 20
-77.039161
 30
0.0
 11
-246.386154
 21
-77.039161
 31
0.0
  0
LINE
  8
2
  5
423
 10
-243.815002
 20
-62.539161
 30
0.0
 11
-246.386154
 21
-62.539161
 31
0.0
  0
LINE
  8
2
  5
424
 10
-242.065002
 20
-62.539161
 30
0.0
 11
-242.065002
 21
-77.039161
 31
0.0
  0
LINE
  8
2
  5
425
 10
-243.815002
 20
-62.539161
 30
0.0
 11
-243.815002
 21
-77.039161
 31
0.0
  0
LINE
  8
2
  5
426
 10
-246.386154
 20
-62.539161
 30
0.0
 11
-246.386154
 21
-77.039161
 31
0.0
  0
LINE
  8
2
  5
427
 10
-241.886154
 20
-77.039161
 30
0.0
 11
-242.065002
 21
-77.039161
 31
0.0
  0
LINE
  8
2
  5
428
 10
-241.886154
 20
-62.539161
 30
0.0
 11
-242.065002
 21
-62.539161
 31
0.0
  0
ARC
  8
2
  5
429
 10
-248.136154
 20
-68.539161
 30
0.0
 40
6.25
 50
73.739795
 51
90.0
  0
ARC
  8
2
  5
42A
 10
-242.940002
 20
-63.945411
 30
0.0
 40
1.65625
 50
58.109208
 51
121.890792
  0
ARC
  8
2
  5
42B
 10
-242.940002
 20
-75.632911
 30
0.0
 40
1.65625
 50
238.109208
 51
301.890792
  0
ARC
  8
2
  5
42C
 10
-248.136154
 20
-71.039161
 30
0.0
 40
6.25
 50
270.0
 51
286.260205
  0
LINE
  8
2
  5
42D
 10
-248.136154
 20
-62.039161
 30
0.0
 11
-253.886154
 21
-62.039161
 31
0.0
  0
LINE
  8
2
  5
42E
 10
-248.136154
 20
-77.539161
 30
0.0
 11
-253.886154
 21
-77.539161
 31
0.0
  0
LINE
  8
2
  5
42F
 10
-254.386154
 20
-62.539161
 30
0.0
 11
-254.386154
 21
-77.039161
 31
0.0
  0
LINE
  8
2
  5
430
 10
-254.386154
 20
-62.539161
 30
0.0
 11
-253.886154
 21
-62.039161
 31
0.0
  0
LINE
  8
2
  5
431
 10
-254.386154
 20
-77.039161
 30
0.0
 11
-253.886154
 21
-77.539161
 31
0.0
  0
LINE
  8
2
  5
432
 10
-252.457307
 20
-77.039161
 30
0.0
 11
-249.886154
 21
-77.039161
 31
0.0
  0
LINE
  8
2
  5
433
 10
-252.457307
 20
-62.539161
 30
0.0
 11
-249.886154
 21
-62.539161
 31
0.0
  0
LINE
  8
2
  5
434
 10
-254.207307
 20
-62.539161
 30
0.0
 11
-254.207307
 21
-77.039161
 31
0.0
  0
LINE
  8
2
  5
435
 10
-252.457307
 20
-62.539161
 30
0.0
 11
-252.457307
 21
-77.039161
 31
0.0
  0
LINE
  8
2
  5
436
 10
-249.886154
 20
-62.539161
 30
0.0
 11
-249.886154
 21
-77.039161
 31
0.0
  0
LINE
  8
2
  5
437
 10
-254.386154
 20
-77.039161
 30
0.0
 11
-254.207307
 21
-77.039161
 31
0.0
  0
LINE
  8
2
  5
438
 10
-254.386154
 20
-62.539161
 30
0.0
 11
-254.207307
 21
-62.539161
 31
0.0
  0
ARC
  8
2
  5
439
 10
-248.136154
 20
-68.539161
 30
0.0
 40
6.25
 50
90.0
 51
106.260205
  0
ARC
  8
2
  5
43A
 10
-253.332307
 20
-63.945411
 30
0.0
 40
1.65625
 50
58.109208
 51
121.890792
  0
ARC
  8
2
  5
43B
 10
-253.332307
 20
-75.632911
 30
0.0
 40
1.65625
 50
238.109208
 51
301.890792
  0
ARC
  8
2
  5
43C
 10
-248.136154
 20
-71.039161
 30
0.0
 40
6.25
 50
253.739795
 51
270.0
  0
LINE
  8
2
  5
43D
 10
-242.386154
 20
-77.539161
 30
0.0
 11
-252.899294
 21
-77.539161
 31
0.0
  0
LINE
  8
2
  5
43E
 10
-226.636154
 20
-77.539161
 30
0.0
 11
-237.886154
 21
-77.539161
 31
0.0
  0
POINT
  8
2
  5
43F
 10
99.271976
 20
-77.539161
 30
0.0
  0
LINE
  8
2
  5
440
 10
94.271976
 20
-61.539161
 30
0.0
 11
94.271976
 21
-62.039161
 31
0.0
  0
LINE
  8
2
  5
441
 10
104.271976
 20
-61.539161
 30
0.0
 11
104.271976
 21
-62.039161
 31
0.0
  0
LINE
  8
2
  5
442
 10
99.271976
 20
-62.039161
 30
0.0
 11
105.021976
 21
-62.039161
 31
0.0
  0
LINE
  8
2
  5
443
 10
105.521976
 20
-62.539161
 30
0.0
 11
105.521976
 21
-75.539161
 31
0.0
  0
LINE
  8
2
  5
444
 10
105.521976
 20
-62.539161
 30
0.0
 11
105.021976
 21
-62.039161
 31
0.0
  0
LINE
  8
2
  5
445
 10
103.593129
 20
-62.539161
 30
0.0
 11
101.021976
 21
-62.539161
 31
0.0
  0
LINE
  8
2
  5
446
 10
105.343129
 20
-62.539161
 30
0.0
 11
105.343129
 21
-75.539161
 31
0.0
  0
LINE
  8
2
  5
447
 10
103.593129
 20
-62.539161
 30
0.0
 11
103.593129
 21
-75.539161
 31
0.0
  0
LINE
  8
2
  5
448
 10
101.021976
 20
-62.539161
 30
0.0
 11
101.021976
 21
-75.539161
 31
0.0
  0
LINE
  8
2
  5
449
 10
105.521976
 20
-62.539161
 30
0.0
 11
105.343129
 21
-62.539161
 31
0.0
  0
ARC
  8
2
  5
44A
 10
99.271976
 20
-68.539161
 30
0.0
 40
6.25
 50
73.739795
 51
90.0
  0
ARC
  8
2
  5
44B
 10
104.468129
 20
-63.945411
 30
0.0
 40
1.65625
 50
58.109208
 51
121.890792
  0
LINE
  8
2
  5
44C
 10
99.271976
 20
-62.039161
 30
0.0
 11
93.521976
 21
-62.039161
 31
0.0
  0
LINE
  8
2
  5
44D
 10
93.021976
 20
-62.539161
 30
0.0
 11
93.021976
 21
-75.539161
 31
0.0
  0
LINE
  8
2
  5
44E
 10
93.021976
 20
-62.539161
 30
0.0
 11
93.521976
 21
-62.039161
 31
0.0
  0
LINE
  8
2
  5
44F
 10
94.950824
 20
-62.539161
 30
0.0
 11
97.521976
 21
-62.539161
 31
0.0
  0
LINE
  8
2
  5
450
 10
93.200824
 20
-62.539161
 30
0.0
 11
93.200824
 21
-75.539161
 31
0.0
  0
LINE
  8
2
  5
451
 10
94.950824
 20
-62.539161
 30
0.0
 11
94.950824
 21
-75.539161
 31
0.0
  0
LINE
  8
2
  5
452
 10
97.521976
 20
-62.539161
 30
0.0
 11
97.521976
 21
-75.539161
 31
0.0
  0
LINE
  8
2
  5
453
 10
93.021976
 20
-62.539161
 30
0.0
 11
93.200824
 21
-62.539161
 31
0.0
  0
ARC
  8
2
  5
454
 10
99.271976
 20
-68.539161
 30
0.0
 40
6.25
 50
90.0
 51
106.260205
  0
ARC
  8
2
  5
455
 10
94.075824
 20
-63.945411
 30
0.0
 40
1.65625
 50
58.109208
 51
121.890792
  0
LINE
  8
2
  5
456
 10
-282.823997
 20
-225.435657
 30
0.0
 11
-270.823997
 21
-225.435657
 31
0.0
  0
LINE
  8
2
  5
457
 10
-282.823997
 20
-214.435657
 30
0.0
 11
-270.823997
 21
-214.435657
 31
0.0
  0
LINE
  8
2
  5
458
 10
-270.823997
 20
-214.435657
 30
0.0
 11
-269.823997
 21
-215.435657
 31
0.0
  0
LINE
  8
2
  5
459
 10
-274.931692
 20
-215.435657
 30
0.0
 11
-277.823997
 21
-215.435657
 31
0.0
  0
ARC
  8
2
  5
45A
 10
-272.377844
 20
-218.196725
 30
0.0
 40
3.761069
 50
47.232751
 51
132.767249
  0
ARC
  8
2
  5
45B
 10
-282.823997
 20
-227.435657
 30
0.0
 40
13.0
 50
67.380135
 51
90.0
  0
ARC
  8
2
  5
45C
 10
-272.377844
 20
-221.674588
 30
0.0
 40
3.761069
 50
227.232751
 51
312.767249
  0
ARC
  8
2
  5
45D
 10
-282.823997
 20
-212.435657
 30
0.0
 40
13.0
 50
270.0
 51
292.619865
  0
LINE
  8
2
  5
45E
 10
-270.823997
 20
-225.435657
 30
0.0
 11
-269.823997
 21
-224.435657
 31
0.0
  0
LINE
  8
2
  5
45F
 10
-277.823997
 20
-224.435657
 30
0.0
 11
-274.931692
 21
-224.435657
 31
0.0
  0
LINE
  8
2
  5
460
 10
-274.473997
 20
-214.435657
 30
0.0
 11
-274.473997
 21
-210.435657
 31
0.0
  0
LINE
  8
2
 62
     2
  5
461
 10
-275.323997
 20
-212.435657
 30
0.0
 11
-275.323997
 21
-210.435657
 31
0.0
  0
LINE
  8
2
  5
462
 10
-275.323997
 20
-212.435657
 30
0.0
 11
-274.473997
 21
-213.285657
 31
0.0
  0
LINE
  8
2
 62
     2
  5
463
 10
-274.473997
 20
-212.435657
 30
0.0
 11
-282.823997
 21
-212.435657
 31
0.0
  0
LINE
  8
2
  5
464
 10
-274.181692
 20
-219.935657
 30
0.0
 11
-279.323997
 21
-219.935657
 31
0.0
  0
LINE
  8
2
  5
465
 10
-270.323997
 20
-219.935657
 30
0.0
 11
-269.823997
 21
-219.435657
 31
0.0
  0
LINE
  8
2
  5
466
 10
-270.323997
 20
-219.935657
 30
0.0
 11
-269.823997
 21
-220.435657
 31
0.0
  0
LINE
  8
2
  5
467
 10
-274.931692
 20
-219.435657
 30
0.0
 11
-277.823997
 21
-219.435657
 31
0.0
  0
LINE
  8
2
  5
468
 10
-269.823997
 20
-224.435657
 30
0.0
 11
-269.823997
 21
-220.435657
 31
0.0
  0
LINE
  8
2
  5
469
 10
-269.823997
 20
-219.435657
 30
0.0
 11
-269.823997
 21
-215.435657
 31
0.0
  0
LINE
  8
2
  5
46A
 10
-274.931692
 20
-220.435657
 30
0.0
 11
-277.823997
 21
-220.435657
 31
0.0
  0
LINE
  8
2
  5
46B
 10
-277.823997
 20
-219.435657
 30
0.0
 11
-279.323997
 21
-219.935657
 31
0.0
  0
LINE
  8
2
  5
46C
 10
-274.931692
 20
-219.435657
 30
0.0
 11
-274.181692
 21
-219.935657
 31
0.0
  0
LINE
  8
2
  5
46D
 10
-274.931692
 20
-220.435657
 30
0.0
 11
-274.181692
 21
-219.935657
 31
0.0
  0
LINE
  8
2
  5
46E
 10
-277.823997
 20
-220.435657
 30
0.0
 11
-279.323997
 21
-219.935657
 31
0.0
  0
LINE
  8
2
  5
46F
 10
-277.823997
 20
-224.435657
 30
0.0
 11
-277.823997
 21
-220.435657
 31
0.0
  0
LINE
  8
2
  5
470
 10
-277.823997
 20
-219.435657
 30
0.0
 11
-277.823997
 21
-215.435657
 31
0.0
  0
LINE
  8
2
  5
471
 10
-274.931692
 20
-224.435657
 30
0.0
 11
-274.931692
 21
-220.435657
 31
0.0
  0
LINE
  8
2
  5
472
 10
-274.931692
 20
-219.435657
 30
0.0
 11
-274.931692
 21
-215.435657
 31
0.0
  0
LINE
  8
2
  5
473
 10
-270.323997
 20
-219.935657
 30
0.0
 11
-270.681692
 21
-219.935657
 31
0.0
  0
LINE
  8
2
  5
474
 10
-269.823997
 20
-219.435657
 30
0.0
 11
-270.681692
 21
-219.935657
 31
0.0
  0
LINE
  8
2
  5
475
 10
-269.823997
 20
-220.435657
 30
0.0
 11
-270.681692
 21
-219.935657
 31
0.0
  0
POINT
  8
2
  5
476
 10
-282.823997
 20
-218.435657
 30
0.0
  0
LINE
  8
2
  5
477
 10
-282.823997
 20
-225.435657
 30
0.0
 11
-294.823997
 21
-225.435657
 31
0.0
  0
LINE
  8
2
  5
478
 10
-282.823997
 20
-214.435657
 30
0.0
 11
-294.823997
 21
-214.435657
 31
0.0
  0
LINE
  8
2
  5
479
 10
-294.823997
 20
-214.435657
 30
0.0
 11
-295.823997
 21
-215.435657
 31
0.0
  0
LINE
  8
2
  5
47A
 10
-290.716302
 20
-215.435657
 30
0.0
 11
-287.823997
 21
-215.435657
 31
0.0
  0
ARC
  8
2
  5
47B
 10
-293.270149
 20
-218.196725
 30
0.0
 40
3.761069
 50
47.232751
 51
132.767249
  0
ARC
  8
2
  5
47C
 10
-282.823997
 20
-227.435657
 30
0.0
 40
13.0
 50
90.0
 51
112.619865
  0
ARC
  8
2
  5
47D
 10
-293.270149
 20
-221.674588
 30
0.0
 40
3.761069
 50
227.232751
 51
312.767249
  0
ARC
  8
2
  5
47E
 10
-282.823997
 20
-212.435657
 30
0.0
 40
13.0
 50
247.380135
 51
270.0
  0
LINE
  8
2
  5
47F
 10
-294.823997
 20
-225.435657
 30
0.0
 11
-295.823997
 21
-224.435657
 31
0.0
  0
LINE
  8
2
  5
480
 10
-287.823997
 20
-224.435657
 30
0.0
 11
-290.716302
 21
-224.435657
 31
0.0
  0
LINE
  8
2
  5
481
 10
-291.173997
 20
-214.435657
 30
0.0
 11
-291.173997
 21
-210.435657
 31
0.0
  0
LINE
  8
2
 62
     2
  5
482
 10
-290.323997
 20
-212.435657
 30
0.0
 11
-290.323997
 21
-210.435657
 31
0.0
  0
LINE
  8
2
  5
483
 10
-290.323997
 20
-212.435657
 30
0.0
 11
-291.173997
 21
-213.285657
 31
0.0
  0
LINE
  8
2
 62
     2
  5
484
 10
-291.173997
 20
-212.435657
 30
0.0
 11
-282.823997
 21
-212.435657
 31
0.0
  0
LINE
  8
2
  5
485
 10
-291.466302
 20
-219.935657
 30
0.0
 11
-286.323997
 21
-219.935657
 31
0.0
  0
LINE
  8
2
  5
486
 10
-295.323997
 20
-219.935657
 30
0.0
 11
-295.823997
 21
-219.435657
 31
0.0
  0
LINE
  8
2
  5
487
 10
-295.323997
 20
-219.935657
 30
0.0
 11
-295.823997
 21
-220.435657
 31
0.0
  0
LINE
  8
2
  5
488
 10
-290.716302
 20
-219.435657
 30
0.0
 11
-287.823997
 21
-219.435657
 31
0.0
  0
LINE
  8
2
  5
489
 10
-295.823997
 20
-224.435657
 30
0.0
 11
-295.823997
 21
-220.435657
 31
0.0
  0
LINE
  8
2
  5
48A
 10
-295.823997
 20
-219.435657
 30
0.0
 11
-295.823997
 21
-215.435657
 31
0.0
  0
LINE
  8
2
  5
48B
 10
-290.716302
 20
-220.435657
 30
0.0
 11
-287.823997
 21
-220.435657
 31
0.0
  0
LINE
  8
2
  5
48C
 10
-287.823997
 20
-219.435657
 30
0.0
 11
-286.323997
 21
-219.935657
 31
0.0
  0
LINE
  8
2
  5
48D
 10
-290.716302
 20
-219.435657
 30
0.0
 11
-291.466302
 21
-219.935657
 31
0.0
  0
LINE
  8
2
  5
48E
 10
-290.716302
 20
-220.435657
 30
0.0
 11
-291.466302
 21
-219.935657
 31
0.0
  0
LINE
  8
2
  5
48F
 10
-287.823997
 20
-220.435657
 30
0.0
 11
-286.323997
 21
-219.935657
 31
0.0
  0
LINE
  8
2
  5
490
 10
-287.823997
 20
-224.435657
 30
0.0
 11
-287.823997
 21
-220.435657
 31
0.0
  0
LINE
  8
2
  5
491
 10
-287.823997
 20
-219.435657
 30
0.0
 11
-287.823997
 21
-215.435657
 31
0.0
  0
LINE
  8
2
  5
492
 10
-290.716302
 20
-224.435657
 30
0.0
 11
-290.716302
 21
-220.435657
 31
0.0
  0
LINE
  8
2
  5
493
 10
-290.716302
 20
-219.435657
 30
0.0
 11
-290.716302
 21
-215.435657
 31
0.0
  0
LINE
  8
2
  5
494
 10
-295.323997
 20
-219.935657
 30
0.0
 11
-294.966302
 21
-219.935657
 31
0.0
  0
LINE
  8
2
  5
495
 10
-295.823997
 20
-219.435657
 30
0.0
 11
-294.966302
 21
-219.935657
 31
0.0
  0
LINE
  8
2
  5
496
 10
-295.823997
 20
-220.435657
 30
0.0
 11
-294.966302
 21
-219.935657
 31
0.0
  0
LINE
  8
2
  5
497
 10
-191.448311
 20
-198.435465
 30
0.0
 11
-191.448311
 21
-197.935157
 31
0.0
  0
LINE
  8
2
  5
498
 10
-203.448311
 20
-197.935157
 30
0.0
 11
-203.448311
 21
-198.435465
 31
0.0
  0
LINE
  8
2
  5
499
 10
-191.448311
 20
-197.935157
 30
0.0
 11
-191.948311
 21
-197.435157
 31
0.0
  0
LINE
  8
2
  5
49A
 10
-202.948311
 20
-197.435157
 30
0.0
 11
-203.448311
 21
-197.935157
 31
0.0
  0
LINE
  8
2
  5
49B
 10
-191.448311
 20
-197.935157
 30
0.0
 11
-203.448311
 21
-197.935157
 31
0.0
  0
LINE
  8
2
  5
49C
 10
-204.698565
 20
-169.435157
 30
0.0
 11
-190.198565
 21
-169.435157
 31
0.0
  0
LINE
  8
2
  5
49D
 10
-204.348565
 20
-175.435157
 30
0.0
 11
-190.548565
 21
-175.435157
 31
0.0
  0
LINE
  8
2
  5
49E
 10
-204.348565
 20
-177.935157
 30
0.0
 11
-190.548565
 21
-177.935157
 31
0.0
  0
LINE
  8
2
  5
49F
 10
-204.348565
 20
-182.935157
 30
0.0
 11
-190.548565
 21
-182.935157
 31
0.0
  0
LINE
  8
2
  5
4A0
 10
-204.348565
 20
-185.435157
 30
0.0
 11
-190.548565
 21
-185.435157
 31
0.0
  0
LINE
  8
2
  5
4A1
 10
-204.348565
 20
-190.435157
 30
0.0
 11
-190.548565
 21
-190.435157
 31
0.0
  0
LINE
  8
2
  5
4A2
 10
-204.348565
 20
-192.935157
 30
0.0
 11
-190.548565
 21
-192.935157
 31
0.0
  0
LINE
  8
2
  5
4A3
 10
-204.698565
 20
-193.695091
 30
0.0
 11
-204.698565
 21
-196.435157
 31
0.0
  0
LINE
  8
2
  5
4A4
 10
-204.698565
 20
-186.195091
 30
0.0
 11
-204.698565
 21
-189.675223
 31
0.0
  0
LINE
  8
2
  5
4A5
 10
-204.698565
 20
-169.435157
 30
0.0
 11
-204.698565
 21
-174.675223
 31
0.0
  0
LINE
  8
2
  5
4A6
 10
-204.698565
 20
-178.695091
 30
0.0
 11
-204.698565
 21
-182.175223
 31
0.0
  0
LINE
  8
2
  5
4A7
 10
-190.198565
 20
-193.695091
 30
0.0
 11
-190.198565
 21
-196.435157
 31
0.0
  0
LINE
  8
2
  5
4A8
 10
-190.198565
 20
-186.195091
 30
0.0
 11
-190.198565
 21
-189.675223
 31
0.0
  0
LINE
  8
2
  5
4A9
 10
-190.198565
 20
-169.435157
 30
0.0
 11
-190.198565
 21
-174.675223
 31
0.0
  0
LINE
  8
2
  5
4AA
 10
-190.198565
 20
-178.695091
 30
0.0
 11
-190.198565
 21
-182.175223
 31
0.0
  0
LINE
  8
2
  5
4AB
 10
-204.348565
 20
-190.435157
 30
0.0
 11
-204.348565
 21
-192.935157
 31
0.0
  0
LINE
  8
2
  5
4AC
 10
-190.548565
 20
-190.435157
 30
0.0
 11
-190.548565
 21
-192.935157
 31
0.0
  0
LINE
  8
2
  5
4AD
 10
-204.348565
 20
-175.435157
 30
0.0
 11
-204.348565
 21
-177.935157
 31
0.0
  0
LINE
  8
2
  5
4AE
 10
-204.348565
 20
-182.935157
 30
0.0
 11
-204.348565
 21
-185.435157
 31
0.0
  0
LINE
  8
2
  5
4AF
 10
-190.548565
 20
-175.435157
 30
0.0
 11
-190.548565
 21
-177.935157
 31
0.0
  0
LINE
  8
2
  5
4B0
 10
-190.548565
 20
-182.935157
 30
0.0
 11
-190.548565
 21
-185.435157
 31
0.0
  0
LINE
  8
2
  5
4B1
 10
-190.548565
 20
-169.435157
 30
0.0
 11
-190.548565
 21
-137.357422
 31
0.0
  0
LINE
  8
2
  5
4B2
 10
-204.348565
 20
-169.435157
 30
0.0
 11
-204.348565
 21
-137.357422
 31
0.0
  0
ARC
  8
2
  5
4B3
 10
-191.198565
 20
-193.695091
 30
0.0
 40
1.0
 50
0.0
 51
49.458398
  0
ARC
  8
2
  5
4B4
 10
-191.198565
 20
-189.675223
 30
0.0
 40
1.0
 50
310.541602
 51
360.0
  0
ARC
  8
2
  5
4B5
 10
-191.198565
 20
-186.195091
 30
0.0
 40
1.0
 50
0.0
 51
49.458398
  0
ARC
  8
2
  5
4B6
 10
-191.198565
 20
-182.175223
 30
0.0
 40
1.0
 50
310.541602
 51
360.0
  0
ARC
  8
2
  5
4B7
 10
-191.198565
 20
-178.695091
 30
0.0
 40
1.0
 50
0.0
 51
49.458398
  0
ARC
  8
2
  5
4B8
 10
-191.198565
 20
-174.675223
 30
0.0
 40
1.0
 50
310.541602
 51
360.0
  0
ARC
  8
2
  5
4B9
 10
-203.698565
 20
-193.695091
 30
0.0
 40
1.0
 50
130.541602
 51
180.0
  0
ARC
  8
2
  5
4BA
 10
-203.698565
 20
-189.675223
 30
0.0
 40
1.0
 50
180.0
 51
229.458398
  0
ARC
  8
2
  5
4BB
 10
-203.698565
 20
-186.195091
 30
0.0
 40
1.0
 50
130.541602
 51
180.0
  0
ARC
  8
2
  5
4BC
 10
-203.698565
 20
-182.175223
 30
0.0
 40
1.0
 50
180.0
 51
229.458398
  0
ARC
  8
2
  5
4BD
 10
-203.698565
 20
-178.695091
 30
0.0
 40
1.0
 50
130.541602
 51
180.0
  0
ARC
  8
2
  5
4BE
 10
-203.698565
 20
-174.675223
 30
0.0
 40
1.0
 50
180.0
 51
229.458398
  0
ARC
  8
2
  5
4BF
 10
-191.198565
 20
-196.435157
 30
0.0
 40
1.0
 50
270.0
 51
360.0
  0
ARC
  8
2
  5
4C0
 10
-203.698565
 20
-196.435157
 30
0.0
 40
1.0
 50
180.0
 51
270.0
  0
LINE
  8
2
  5
4C1
 10
-203.698565
 20
-197.435157
 30
0.0
 11
-191.198565
 21
-197.435157
 31
0.0
  0
ARC
  8
2
  5
4C2
 10
-200.898438
 20
-132.914513
 30
0.0
 40
5.750212
 50
233.130102
 51
306.869898
  0
ARC
  8
2
  5
4C3
 10
-193.998185
 20
-142.114852
 30
0.0
 40
5.750212
 50
53.130102
 51
126.869898
  0
ARC
  8
2
  5
4C4
 10
-200.898438
 20
-142.114852
 30
0.0
 40
5.750212
 50
53.130102
 51
126.869898
  0
LINE
  8
2
  5
4C5
 10
-207.448565
 20
-210.435465
 30
0.0
 11
-187.448565
 21
-210.435465
 31
0.0
  0
LINE
  8
2
  5
4C6
 10
-187.448565
 20
-198.435465
 30
0.0
 11
-197.448311
 21
-198.435465
 31
0.0
  0
LINE
  8
2
  5
4C7
 10
-197.448311
 20
-198.435465
 30
0.0
 11
-207.448565
 21
-198.435465
 31
0.0
  0
POINT
  8
2
  5
4C8
 10
-197.448311
 20
-198.435465
 30
0.0
  0
LINE
  8
2
  5
4C9
 10
-186.448565
 20
-199.012815
 30
0.0
 11
-186.448565
 21
-209.858114
 31
0.0
  0
LINE
  8
2
  5
4CA
 10
-187.448565
 20
-198.435465
 30
0.0
 11
-186.448565
 21
-199.012815
 31
0.0
  0
LINE
  8
2
  5
4CB
 10
-187.448565
 20
-210.435465
 30
0.0
 11
-186.448565
 21
-209.858114
 31
0.0
  0
LINE
  8
2
  5
4CC
 10
-191.079599
 20
-199.012815
 30
0.0
 11
-191.079599
 21
-209.858114
 31
0.0
  0
LINE
  8
2
  5
4CD
 10
-192.86599
 20
-199.012815
 30
0.0
 11
-192.86599
 21
-209.858114
 31
0.0
  0
LINE
  8
2
  5
4CE
 10
-191.079599
 20
-199.012815
 30
0.0
 11
-192.86599
 21
-199.012815
 31
0.0
  0
ARC
  8
2
  5
4CF
 10
-197.448311
 20
-216.908658
 30
0.0
 40
18.473194
 50
75.637701
 51
90.000787
  0
ARC
  8
2
  5
4D0
 10
-188.764082
 20
-203.367438
 30
0.0
 40
4.931973
 50
61.998739
 51
118.001261
  0
ARC
  8
2
  5
4D1
 10
-188.764082
 20
-205.503492
 30
0.0
 40
4.931973
 50
241.998739
 51
298.001261
  0
ARC
  8
2
  5
4D2
 10
-197.448311
 20
-191.962271
 30
0.0
 40
18.473194
 50
269.999213
 51
284.362299
  0
LINE
  8
2
  5
4D3
 10
-191.079599
 20
-209.858114
 30
0.0
 11
-192.86599
 21
-209.858114
 31
0.0
  0
LINE
  8
2
  5
4D4
 10
-202.031141
 20
-199.012815
 30
0.0
 11
-202.031141
 21
-209.858114
 31
0.0
  0
LINE
  8
2
  5
4D5
 10
-203.817532
 20
-199.012815
 30
0.0
 11
-203.817532
 21
-209.858114
 31
0.0
  0
LINE
  8
2
  5
4D6
 10
-203.817532
 20
-199.012815
 30
0.0
 11
-202.031141
 21
-199.012815
 31
0.0
  0
ARC
  8
2
  5
4D7
 10
-197.448819
 20
-216.908658
 30
0.0
 40
18.473194
 50
89.999213
 51
104.362299
  0
ARC
  8
2
  5
4D8
 10
-206.133048
 20
-203.367438
 30
0.0
 40
4.931973
 50
61.998739
 51
118.001261
  0
LINE
  8
2
  5
4D9
 10
-203.817532
 20
-209.858114
 30
0.0
 11
-202.031141
 21
-209.858114
 31
0.0
  0
ARC
  8
2
  5
4DA
 10
-197.448819
 20
-191.962271
 30
0.0
 40
18.473194
 50
255.637701
 51
270.000787
  0
ARC
  8
2
  5
4DB
 10
-206.133048
 20
-205.503492
 30
0.0
 40
4.931973
 50
241.998739
 51
298.001261
  0
LINE
  8
2
  5
4DC
 10
-207.448565
 20
-210.435465
 30
0.0
 11
-208.448565
 21
-209.858114
 31
0.0
  0
LINE
  8
2
  5
4DD
 10
-207.448565
 20
-198.435465
 30
0.0
 11
-208.448565
 21
-199.012815
 31
0.0
  0
LINE
  8
2
  5
4DE
 10
-208.448565
 20
-199.012815
 30
0.0
 11
-208.448565
 21
-209.858114
 31
0.0
  0
LINE
  8
2
  5
4DF
 10
-197.448311
 20
-225.435465
 30
0.0
 11
-185.448311
 21
-225.435465
 31
0.0
  0
LINE
  8
2
  5
4E0
 10
-197.448311
 20
-214.435465
 30
0.0
 11
-185.448311
 21
-214.435465
 31
0.0
  0
LINE
  8
2
  5
4E1
 10
-185.448311
 20
-214.435465
 30
0.0
 11
-184.448311
 21
-215.435465
 31
0.0
  0
LINE
  8
2
  5
4E2
 10
-189.556007
 20
-215.435465
 30
0.0
 11
-192.448311
 21
-215.435465
 31
0.0
  0
ARC
  8
2
  5
4E3
 10
-187.002159
 20
-218.196533
 30
0.0
 40
3.761069
 50
47.232751
 51
132.767249
  0
ARC
  8
2
  5
4E4
 10
-197.448311
 20
-227.435465
 30
0.0
 40
13.0
 50
67.380135
 51
90.0
  0
ARC
  8
2
  5
4E5
 10
-187.002159
 20
-221.674396
 30
0.0
 40
3.761069
 50
227.232751
 51
312.767249
  0
ARC
  8
2
  5
4E6
 10
-197.448311
 20
-212.435465
 30
0.0
 40
13.0
 50
270.0
 51
292.619865
  0
LINE
  8
2
  5
4E7
 10
-185.448311
 20
-225.435465
 30
0.0
 11
-184.448311
 21
-224.435465
 31
0.0
  0
LINE
  8
2
  5
4E8
 10
-192.448311
 20
-224.435465
 30
0.0
 11
-189.556007
 21
-224.435465
 31
0.0
  0
LINE
  8
2
  5
4E9
 10
-189.098311
 20
-214.435465
 30
0.0
 11
-189.098311
 21
-210.435465
 31
0.0
  0
LINE
  8
2
 62
     2
  5
4EA
 10
-189.948311
 20
-212.435465
 30
0.0
 11
-189.948311
 21
-210.435465
 31
0.0
  0
LINE
  8
2
  5
4EB
 10
-189.948311
 20
-212.435465
 30
0.0
 11
-189.098311
 21
-213.285465
 31
0.0
  0
LINE
  8
2
 62
     2
  5
4EC
 10
-189.098311
 20
-212.435465
 30
0.0
 11
-197.448311
 21
-212.435465
 31
0.0
  0
LINE
  8
2
  5
4ED
 10
-188.806007
 20
-219.935465
 30
0.0
 11
-193.948311
 21
-219.935465
 31
0.0
  0
LINE
  8
2
  5
4EE
 10
-184.948311
 20
-219.935465
 30
0.0
 11
-184.448311
 21
-219.435465
 31
0.0
  0
LINE
  8
2
  5
4EF
 10
-184.948311
 20
-219.935465
 30
0.0
 11
-184.448311
 21
-220.435465
 31
0.0
  0
LINE
  8
2
  5
4F0
 10
-189.556007
 20
-219.435465
 30
0.0
 11
-192.448311
 21
-219.435465
 31
0.0
  0
LINE
  8
2
  5
4F1
 10
-184.448311
 20
-224.435465
 30
0.0
 11
-184.448311
 21
-220.435465
 31
0.0
  0
LINE
  8
2
  5
4F2
 10
-184.448311
 20
-219.435465
 30
0.0
 11
-184.448311
 21
-215.435465
 31
0.0
  0
LINE
  8
2
  5
4F3
 10
-189.556007
 20
-220.435465
 30
0.0
 11
-192.448311
 21
-220.435465
 31
0.0
  0
LINE
  8
2
  5
4F4
 10
-192.448311
 20
-219.435465
 30
0.0
 11
-193.948311
 21
-219.935465
 31
0.0
  0
LINE
  8
2
  5
4F5
 10
-189.556007
 20
-219.435465
 30
0.0
 11
-188.806007
 21
-219.935465
 31
0.0
  0
LINE
  8
2
  5
4F6
 10
-189.556007
 20
-220.435465
 30
0.0
 11
-188.806007
 21
-219.935465
 31
0.0
  0
LINE
  8
2
  5
4F7
 10
-192.448311
 20
-220.435465
 30
0.0
 11
-193.948311
 21
-219.935465
 31
0.0
  0
LINE
  8
2
  5
4F8
 10
-192.448311
 20
-224.435465
 30
0.0
 11
-192.448311
 21
-220.435465
 31
0.0
  0
LINE
  8
2
  5
4F9
 10
-192.448311
 20
-219.435465
 30
0.0
 11
-192.448311
 21
-215.435465
 31
0.0
  0
LINE
  8
2
  5
4FA
 10
-189.556007
 20
-224.435465
 30
0.0
 11
-189.556007
 21
-220.435465
 31
0.0
  0
LINE
  8
2
  5
4FB
 10
-189.556007
 20
-219.435465
 30
0.0
 11
-189.556007
 21
-215.435465
 31
0.0
  0
LINE
  8
2
  5
4FC
 10
-184.948311
 20
-219.935465
 30
0.0
 11
-185.306007
 21
-219.935465
 31
0.0
  0
LINE
  8
2
  5
4FD
 10
-184.448311
 20
-219.435465
 30
0.0
 11
-185.306007
 21
-219.935465
 31
0.0
  0
LINE
  8
2
  5
4FE
 10
-184.448311
 20
-220.435465
 30
0.0
 11
-185.306007
 21
-219.935465
 31
0.0
  0
POINT
  8
2
  5
4FF
 10
-197.448311
 20
-218.435465
 30
0.0
  0
LINE
  8
2
  5
500
 10
-197.448311
 20
-225.435465
 30
0.0
 11
-209.448311
 21
-225.435465
 31
0.0
  0
LINE
  8
2
  5
501
 10
-197.448311
 20
-214.435465
 30
0.0
 11
-209.448311
 21
-214.435465
 31
0.0
  0
LINE
  8
2
  5
502
 10
-209.448311
 20
-214.435465
 30
0.0
 11
-210.448311
 21
-215.435465
 31
0.0
  0
LINE
  8
2
  5
503
 10
-205.340616
 20
-215.435465
 30
0.0
 11
-202.448311
 21
-215.435465
 31
0.0
  0
ARC
  8
2
  5
504
 10
-207.894464
 20
-218.196533
 30
0.0
 40
3.761069
 50
47.232751
 51
132.767249
  0
ARC
  8
2
  5
505
 10
-197.448311
 20
-227.435465
 30
0.0
 40
13.0
 50
90.0
 51
112.619865
  0
ARC
  8
2
  5
506
 10
-207.894464
 20
-221.674396
 30
0.0
 40
3.761069
 50
227.232751
 51
312.767249
  0
ARC
  8
2
  5
507
 10
-197.448311
 20
-212.435465
 30
0.0
 40
13.0
 50
247.380135
 51
270.0
  0
LINE
  8
2
  5
508
 10
-209.448311
 20
-225.435465
 30
0.0
 11
-210.448311
 21
-224.435465
 31
0.0
  0
LINE
  8
2
  5
509
 10
-202.448311
 20
-224.435465
 30
0.0
 11
-205.340616
 21
-224.435465
 31
0.0
  0
LINE
  8
2
  5
50A
 10
-205.798311
 20
-214.435465
 30
0.0
 11
-205.798311
 21
-210.435465
 31
0.0
  0
LINE
  8
2
 62
     2
  5
50B
 10
-204.948311
 20
-212.435465
 30
0.0
 11
-204.948311
 21
-210.435465
 31
0.0
  0
LINE
  8
2
  5
50C
 10
-204.948311
 20
-212.435465
 30
0.0
 11
-205.798311
 21
-213.285465
 31
0.0
  0
LINE
  8
2
 62
     2
  5
50D
 10
-205.798311
 20
-212.435465
 30
0.0
 11
-197.448311
 21
-212.435465
 31
0.0
  0
LINE
  8
2
  5
50E
 10
-206.090616
 20
-219.935465
 30
0.0
 11
-200.948311
 21
-219.935465
 31
0.0
  0
LINE
  8
2
  5
50F
 10
-209.948311
 20
-219.935465
 30
0.0
 11
-210.448311
 21
-219.435465
 31
0.0
  0
LINE
  8
2
  5
510
 10
-209.948311
 20
-219.935465
 30
0.0
 11
-210.448311
 21
-220.435465
 31
0.0
  0
LINE
  8
2
  5
511
 10
-205.340616
 20
-219.435465
 30
0.0
 11
-202.448311
 21
-219.435465
 31
0.0
  0
LINE
  8
2
  5
512
 10
-210.448311
 20
-224.435465
 30
0.0
 11
-210.448311
 21
-220.435465
 31
0.0
  0
LINE
  8
2
  5
513
 10
-210.448311
 20
-219.435465
 30
0.0
 11
-210.448311
 21
-215.435465
 31
0.0
  0
LINE
  8
2
  5
514
 10
-205.340616
 20
-220.435465
 30
0.0
 11
-202.448311
 21
-220.435465
 31
0.0
  0
LINE
  8
2
  5
515
 10
-202.448311
 20
-219.435465
 30
0.0
 11
-200.948311
 21
-219.935465
 31
0.0
  0
LINE
  8
2
  5
516
 10
-205.340616
 20
-219.435465
 30
0.0
 11
-206.090616
 21
-219.935465
 31
0.0
  0
LINE
  8
2
  5
517
 10
-205.340616
 20
-220.435465
 30
0.0
 11
-206.090616
 21
-219.935465
 31
0.0
  0
LINE
  8
2
  5
518
 10
-202.448311
 20
-220.435465
 30
0.0
 11
-200.948311
 21
-219.935465
 31
0.0
  0
LINE
  8
2
  5
519
 10
-202.448311
 20
-224.435465
 30
0.0
 11
-202.448311
 21
-220.435465
 31
0.0
  0
LINE
  8
2
  5
51A
 10
-202.448311
 20
-219.435465
 30
0.0
 11
-202.448311
 21
-215.435465
 31
0.0
  0
LINE
  8
2
  5
51B
 10
-205.340616
 20
-224.435465
 30
0.0
 11
-205.340616
 21
-220.435465
 31
0.0
  0
LINE
  8
2
  5
51C
 10
-205.340616
 20
-219.435465
 30
0.0
 11
-205.340616
 21
-215.435465
 31
0.0
  0
LINE
  8
2
  5
51D
 10
-209.948311
 20
-219.935465
 30
0.0
 11
-209.590616
 21
-219.935465
 31
0.0
  0
LINE
  8
2
  5
51E
 10
-210.448311
 20
-219.435465
 30
0.0
 11
-209.590616
 21
-219.935465
 31
0.0
  0
LINE
  8
2
  5
51F
 10
-210.448311
 20
-220.435465
 30
0.0
 11
-209.590616
 21
-219.935465
 31
0.0
  0
ARC
  8
2
  5
520
 10
145.273033
 20
57.202101
 30
0.0
 40
56.0
 50
178.814366
 51
179.735275
  0
ARC
  8
2
  5
521
 10
62.27092
 20
57.202101
 30
0.0
 40
56.0
 50
0.264725
 51
7.022942
  0
ARC
  8
2
  5
522
 10
-198.635098
 20
57.202101
 30
0.0
 40
56.0
 50
178.814366
 51
179.735275
  0
ARC
  8
2
  5
523
 10
-281.63721
 20
57.202101
 30
0.0
 40
56.0
 50
0.264725
 51
1.185634
  0
ARC
  8
2
  5
524
 10
279.939224
 20
57.202101
 30
0.0
 40
56.0
 50
172.977058
 51
179.735275
  0
ARC
  8
2
  5
525
 10
196.937111
 20
57.202101
 30
0.0
 40
56.0
 50
0.264725
 51
1.185634
  0
ARC
  8
2
 62
     2
  5
526
 10
103.771976
 20
196.561218
 30
0.0
 40
23.5
 50
206.53799
 51
153.45978
  0
ARC
  8
2
  5
527
 10
103.771976
 20
196.561218
 30
0.0
 40
24.0
 50
205.943394
 51
154.054434
  0
CIRCLE
  8
2
  5
528
 10
103.771976
 20
196.561218
 30
0.0
 40
17.5
  0
LINE
  8
2
  5
529
 10
86.735251
 20
192.561218
 30
0.0
 11
27.772154
 21
192.561218
 31
0.0
  0
LINE
  8
2
  5
52A
 10
86.735251
 20
200.561218
 30
0.0
 11
27.772154
 21
200.561218
 31
0.0
  0
LINE
  8
2
  5
52B
 10
27.272154
 20
193.061218
 30
0.0
 11
27.272154
 21
200.061218
 31
0.0
  0
LINE
  8
2
  5
52C
 10
27.772154
 20
200.561218
 30
0.0
 11
27.272154
 21
200.061218
 31
0.0
  0
LINE
  8
2
  5
52D
 10
27.772154
 20
192.561218
 30
0.0
 11
27.272154
 21
193.061218
 31
0.0
  0
LINE
  8
2
  5
52E
 10
27.772154
 20
200.561218
 30
0.0
 11
27.772154
 21
192.561218
 31
0.0
  0
ARC
  8
2
 62
     2
  5
52F
 10
103.771976
 20
196.561218
 30
0.0
 40
23.5
 50
206.53799
 51
153.45978
  0
ARC
  8
2
  5
530
 10
103.771976
 20
196.561218
 30
0.0
 40
24.0
 50
205.943394
 51
154.054434
  0
TEXT
  8
2
  5
531
 10
100.730011
 20
212.182739
 30
0.0
 40
7.0
  1
Ｈ
 50
270.0
 72
     5
 11
100.730011
 21
206.582739
 31
0.0
  0
TEXT
  8
2
  5
532
 10
100.894875
 20
188.396835
 30
0.0
 40
7.0
  1
Ｃ
 50
270.0
 72
     5
 11
100.894875
 21
182.796835
 31
0.0
  0
POINT
  8
2
  5
533
 10
103.771976
 20
196.561218
 30
0.0
  0
LINE
  8
2
  5
534
 10
122.271976
 20
200.561218
 30
0.0
 11
120.808702
 21
200.561218
 31
0.0
  0
LINE
  8
2
 62
     2
  5
535
 10
122.271976
 20
200.561218
 30
0.0
 11
122.271976
 21
192.561218
 31
0.0
  0
ARC
  8
2
  5
536
 10
115.343773
 20
196.561218
 30
0.0
 40
8.0
 50
0.0
 51
30.0
  0
ARC
  8
2
  5
537
 10
115.343773
 20
196.561218
 30
0.0
 40
8.0
 50
330.0
 51
360.0
  0
LINE
  8
2
  5
538
 10
122.271976
 20
192.561218
 30
0.0
 11
120.808702
 21
192.561218
 31
0.0
  0
LINE
  8
2
  6
DASHED
 62
     2
  5
539
 10
73.572342
 20
189.826161
 30
0.0
 11
30.987423
 21
174.326518
 31
0.0
  0
LINE
  8
2
  6
DASHED
 62
     2
  5
53A
 10
80.546117
 20
183.850986
 30
0.0
 11
33.723584
 21
166.808977
 31
0.0
  0
LINE
  8
2
  6
DASHED
 62
     2
  5
53B
 10
30.688587
 20
173.685662
 30
0.0
 11
33.082728
 21
167.107814
 31
0.0
  0
LINE
  8
2
  6
DASHED
 62
     2
  5
53C
 10
33.723584
 20
166.808977
 30
0.0
 11
33.082728
 21
167.107814
 31
0.0
  0
LINE
  8
2
  6
DASHED
 62
     2
  5
53D
 10
30.987423
 20
174.326518
 30
0.0
 11
30.688587
 21
173.685662
 31
0.0
  0
LINE
  8
2
  6
DASHED
 62
     2
  5
53E
 10
33.723584
 20
166.808977
 30
0.0
 11
30.987423
 21
174.326518
 31
0.0
  0
LINE
  8
2
  6
CENTER
 62
     2
  5
53F
 10
103.771976
 20
196.561218
 30
0.0
 11
29.29681
 21
169.454474
 31
0.0
  0
LINE
  8
2
  6
DASHED
 62
     2
  5
540
 10
86.388392
 20
218.67047
 30
0.0
 11
62.307963
 21
260.378996
 31
0.0
  0
LINE
  8
2
  6
DASHED
 62
     2
  5
541
 10
94.149916
 20
221.227116
 30
0.0
 11
69.236167
 21
264.378996
 31
0.0
  0
LINE
  8
2
  6
DASHED
 62
     2
  5
542
 10
62.490976
 20
261.062008
 30
0.0
 11
68.553154
 21
264.562008
 31
0.0
  0
LINE
  8
2
  6
DASHED
 62
     2
  5
543
 10
69.236167
 20
264.378996
 30
0.0
 11
68.553154
 21
264.562008
 31
0.0
  0
LINE
  8
2
  6
DASHED
 62
     2
  5
544
 10
62.307963
 20
260.378996
 30
0.0
 11
62.490976
 21
261.062008
 31
0.0
  0
LINE
  8
2
  6
DASHED
 62
     2
  5
545
 10
69.236167
 20
264.378996
 30
0.0
 11
62.307963
 21
260.378996
 31
0.0
  0
LINE
  8
2
  6
CENTER
 62
     2
  5
546
 10
64.395262
 20
264.763689
 30
0.0
 11
103.771976
 21
196.561218
 31
0.0
  0
TEXT
  8
3
  5
547
 10
226.627838
 20
-272.447357
 30
0.0
 40
7.0
  1
外観寸法図
 72
     5
 11
260.227838
 21
-272.447357
 31
0.0
  0
TEXT
  8
3
  5
548
 10
288.787354
 20
-240.051102
 30
0.0
 40
7.0
  1
１
 72
     5
 11
294.387354
 21
-240.051102
 31
0.0
  0
TEXT
  8
3
  5
549
 10
303.428314
 20
-240.051102
 30
0.0
 40
7.0
  1
２
 72
     5
 11
309.028314
 21
-240.051102
 31
0.0
  0
TEXT
  8
3
  5
54A
 10
-208.136154
 20
-39.122861
 30
0.0
 40
7.0
  1
φ４８
 72
     5
 11
-188.536154
 21
-39.122861
 31
0.0
  0
DIMENSION
  8
3
 62
     2
  5
54B
  2
*D0
 10
-264.136154
 20
-40.122861
 30
0.0
 11
-240.136154
 21
-38.122861
 31
0.0
 70
     1
 13
-216.136154
 23
-53.039161
 33
0.0
 14
-264.136154
 24
-53.039161
 34
0.0
  3
Standard
  0
TEXT
  8
3
  5
54C
 10
-291.844818
 20
-47.54746
 30
0.0
 40
7.0
  1
５～３０
 50
90.0
 72
     5
 11
-291.844818
 21
-20.94746
 31
0.0
  0
TEXT
  8
3
  5
54D
 10
-254.330078
 20
-239.108688
 30
0.0
 40
7.0
  1
Ｇ１／２
 72
     5
 11
-227.730078
 21
-239.108688
 31
0.0
  0
POLYLINE
  8
3
 62
     2
  5
54E
 66
     1
 10
0.0
 20
0.0
 30
0.0
  0
VERTEX
  8
3
 62
     2
  5
A0D
 10
-204.257339
 20
-225.753836
 30
0.0
  0
VERTEX
  8
3
 62
     2
  5
A0E
 10
-225.77269
 20
-239.752991
 30
0.0
  0
VERTEX
  8
3
 62
     2
  5
A0F
 10
-252.507706
 20
-239.752991
 30
0.0
  0
SEQEND
  8
3
 62
     2
  5
A10
  0
LINE
  8
3
 62
     2
  5
553
 10
-207.495861
 20
-227.861009
 30
0.0
 11
-206.931246
 21
-228.728769
 31
0.0
  0
LINE
  8
3
 62
     2
  5
554
 10
-206.931246
 20
-228.728769
 30
0.0
 11
-204.257339
 21
-225.753836
 31
0.0
  0
LINE
  8
3
 62
     2
  5
555
 10
-204.257339
 20
-225.753836
 30
0.0
 11
-208.060477
 21
-226.99325
 31
0.0
  0
LINE
  8
3
 62
     2
  5
556
 10
-208.060477
 20
-226.99325
 30
0.0
 11
-207.495861
 21
-227.861009
 31
0.0
  0
POLYLINE
  8
3
 62
     2
  5
557
 66
     1
 10
0.0
 20
0.0
 30
0.0
  0
VERTEX
  8
3
 62
     2
  5
A11
 10
-275.368134
 20
-225.753836
 30
0.0
  0
VERTEX
  8
3
 62
     2
  5
A12
 10
-252.516968
 20
-239.843262
 30
0.0
  0
SEQEND
  8
3
 62
     2
  5
A13
  0
LINE
  8
3
 62
     2
  5
55B
 10
-272.079325
 20
-227.781629
 30
0.0
 11
-271.53598
 21
-226.900395
 31
0.0
  0
LINE
  8
3
 62
     2
  5
55C
 10
-271.53598
 20
-226.900395
 30
0.0
 11
-275.368134
 21
-225.753836
 31
0.0
  0
LINE
  8
3
 62
     2
  5
55D
 10
-275.368134
 20
-225.753836
 30
0.0
 11
-272.62267
 21
-228.662862
 31
0.0
  0
LINE
  8
3
 62
     2
  5
55E
 10
-272.62267
 20
-228.662862
 30
0.0
 11
-272.079325
 21
-227.781629
 31
0.0
  0
LINE
  8
3
 62
     2
  5
55F
 10
-266.636154
 20
-75.550976
 30
0.0
 11
-292.634048
 21
-75.550976
 31
0.0
  0
LINE
  8
3
 62
     2
  5
560
 10
-290.634048
 20
-75.550976
 30
0.0
 11
-291.669325
 21
-79.41468
 31
0.0
  0
LINE
  8
3
 62
     2
  5
561
 10
-290.634048
 20
-75.550976
 30
0.0
 11
-289.598772
 21
-79.41468
 31
0.0
  0
LINE
  8
3
 62
     2
  5
562
 10
-291.669325
 20
-79.41468
 30
0.0
 11
-289.598772
 21
-79.41468
 31
0.0
  0
LINE
  8
3
 62
     2
  5
563
 10
-290.634048
 20
-85.550976
 30
0.0
 11
-290.634048
 21
20.881195
 31
0.0
  0
LINE
  8
3
 62
     2
  5
564
 10
-290.634048
 20
-56.539161
 30
0.0
 11
-289.598772
 21
-52.675458
 31
0.0
  0
LINE
  8
3
 62
     2
  5
565
 10
-290.634048
 20
-56.539161
 30
0.0
 11
-291.669325
 21
-52.675458
 31
0.0
  0
LINE
  8
3
 62
     2
  5
566
 10
-289.598772
 20
-52.675458
 30
0.0
 11
-291.669325
 21
-52.675458
 31
0.0
  0
LINE
  8
3
 62
     2
  5
567
 10
-265.636154
 20
-56.539161
 30
0.0
 11
-292.634048
 21
-56.539161
 31
0.0
  0
POINT
  8
3
  5
568
 10
-257.636154
 20
51.960839
 30
0.0
  0
TEXT
  8
3
  5
569
 10
135.235809
 20
-111.004005
 30
0.0
 40
7.0
  1
１３六角
 72
     5
 11
161.835809
 21
-111.004005
 31
0.0
  0
POLYLINE
  8
3
 62
     2
  5
56A
 66
     1
 10
0.0
 20
0.0
 30
0.0
  0
VERTEX
  8
3
 62
     2
  5
A14
 10
120.309807
 20
-102.26503
 30
0.0
  0
VERTEX
  8
3
 62
     2
  5
A15
 10
134.545258
 20
-112.307991
 30
0.0
  0
VERTEX
  8
3
 62
     2
  5
A16
 10
164.481476
 20
-112.307991
 30
0.0
  0
SEQEND
  8
3
 62
     2
  5
A17
  0
LINE
  8
3
 62
     2
  5
56F
 10
123.466912
 20
-104.492335
 30
0.0
 11
124.063717
 21
-103.646391
 31
0.0
  0
LINE
  8
3
 62
     2
  5
570
 10
124.063717
 20
-103.646391
 30
0.0
 11
120.309807
 21
-102.26503
 31
0.0
  0
LINE
  8
3
 62
     2
  5
571
 10
120.309807
 20
-102.26503
 30
0.0
 11
122.870108
 21
-105.338279
 31
0.0
  0
LINE
  8
3
 62
     2
  5
572
 10
122.870108
 20
-105.338279
 30
0.0
 11
123.466912
 21
-104.492335
 31
0.0
  0
TEXT
  8
3
  5
573
 10
38.035962
 20
-68.97451
 30
0.0
 40
7.0
  1
１１０
 72
     5
 11
57.635962
 21
-68.97451
 31
0.0
  0
DIMENSION
  8
3
 62
     2
  5
574
  2
*D1
 10
103.771976
 20
-69.97451
 30
0.0
 11
48.535962
 21
-67.97451
 31
0.0
 13
-6.700051
 23
-16.079515
 33
0.0
 14
103.771976
 24
-62.642476
 34
0.0
  3
Standard
  0
TEXT
  8
3
  5
575
 10
-37.277054
 20
-43.309338
 30
0.0
 40
7.0
  1
４０
 50
90.0
 72
     5
 11
-37.277054
 21
-30.709338
 31
0.0
  0
DIMENSION
  8
3
 62
     2
  5
576
  2
*D2
 10
-36.277054
 20
-16.079515
 30
0.0
 11
-38.777054
 21
-36.309338
 31
0.0
 13
80.271976
 23
-56.539161
 33
0.0
 14
-6.700051
 24
-16.079515
 34
0.0
 50
90.0
  3
Standard
  0
DIMENSION
  8
3
 62
     2
  5
577
  2
*D3
 10
-6.700051
 20
-16.082808
 30
0.0
 11
-7.753677
 21
-49.674274
 31
0.0
 70
     2
 13
-6.702168
 23
-16.082038
 33
0.0
 14
-6.700051
 24
-16.079515
 34
0.0
 15
-6.700051
 25
-16.079515
 35
0.0
 16
-17.96247
 26
-47.022755
 36
0.0
  3
Standard
1001
ACAD
1000
DSTYLE
1002
{
1070
   275
1070
     0
1070
   179
1070
     0
1002
}
  0
TEXT
  8
3
  5
578
 10
29.530751
 20
61.9002
 30
0.0
 40
7.0
  1
止水
 72
     5
 11
42.130751
 21
61.9002
 31
0.0
  0
TEXT
  8
3
  5
579
 10
67.054295
 20
100.153099
 30
0.0
 40
7.0
  1
吐水
 72
     5
 11
79.654295
 21
100.153099
 31
0.0
  0
POINT
  8
3
  5
57A
 10
40.709314
 20
107.189038
 30
0.0
  0
TEXT
  8
3
  5
57B
 10
-65.017494
 20
14.824938
 30
0.0
 40
7.0
  1
１６４
 50
90.0
 72
     5
 11
-65.017494
 21
34.424938
 31
0.0
  0
DIMENSION
  8
3
 62
     2
  5
57C
  2
*D4
 10
-64.017494
 20
107.189038
 30
0.0
 11
-66.517494
 21
25.324938
 31
0.0
 13
80.271976
 23
-56.539161
 33
0.0
 14
40.709314
 24
107.189038
 34
0.0
 50
90.0
  3
Standard
  0
POINT
  8
3
  5
57D
 10
129.362859
 20
75.68482
 30
0.0
  0
TEXT
  8
3
  5
57E
 10
109.567418
 20
100.76532
 30
0.0
 40
7.0
  1
２６
 72
     5
 11
122.167418
 21
100.76532
 31
0.0
  0
DIMENSION
  8
3
 62
     2
  5
57F
  2
*D5
 10
129.362859
 20
99.76532
 30
0.0
 11
116.567418
 21
101.76532
 31
0.0
 13
103.771976
 23
85.695892
 33
0.0
 14
129.362859
 24
75.68482
 34
0.0
  3
Standard
  0
TEXT
  8
3
  5
580
 10
-253.225571
 20
-188.621613
 30
0.0
 40
7.0
  1
２０六角
 72
     5
 11
-226.625571
 21
-188.621613
 31
0.0
  0
TEXT
  8
3
  5
581
 10
-253.682556
 20
-208.926666
 30
0.0
 40
7.0
  1
２４六角
 72
     5
 11
-227.082556
 21
-208.926666
 31
0.0
  0
DIMENSION
  8
3
 62
     2
  5
582
  2
*D6
 10
41.290472
 20
80.060839
 30
0.0
 11
16.9954
 21
108.418479
 31
0.0
 70
     2
 13
61.276377
 23
98.879405
 33
0.0
 14
107.853963
 24
80.060839
 34
0.0
 15
107.853963
 25
80.060839
 35
0.0
 16
15.973533
 26
97.920585
 36
0.0
  3
Standard
1001
ACAD
1000
DSTYLE
1002
{
1070
   275
1070
     0
1070
   179
1070
     0
1002
}
  0
DIMENSION
  8
3
 62
     2
  5
583
  2
*D7
 10
121.271976
 20
41.181076
 30
0.0
 11
139.771976
 21
45.681076
 31
0.0
 70
     1
 13
86.271976
 23
41.181076
 33
0.0
 14
121.271976
 24
41.181076
 34
0.0
  3
Standard
  0
DIMENSION
  8
3
 62
     2
  5
584
  2
*D8
 10
46.521736
 20
8.960839
 30
0.0
 11
35.021736
 21
-13.039161
 31
0.0
 70
     1
 13
46.521736
 23
27.960839
 33
0.0
 14
46.521736
 24
8.960839
 34
0.0
 50
270.0
  3
Standard
  0
TEXT
  8
3
  5
585
 10
65.195799
 20
-227.117035
 30
0.0
 40
7.0
  1
台付シングルレバー湯水混合水栓（共）
 72
     5
 11
189.795799
 21
-227.117035
 31
0.0
  0
POLYLINE
  8
3
 62
     2
  5
586
 66
     1
 10
0.0
 20
0.0
 30
0.0
  0
VERTEX
  8
3
 62
     2
  5
A18
 10
-271.824251
 20
-203.876953
 30
0.0
  0
VERTEX
  8
3
 62
     2
  5
A19
 10
-253.210007
 20
-189.060913
 30
0.0
  0
VERTEX
  8
3
 62
     2
  5
A1A
 10
-239.163513
 20
-189.060913
 30
0.0
  0
SEQEND
  8
3
 62
     2
  5
A1B
  0
LINE
  8
3
 62
     2
  5
58B
 10
-268.801245
 20
-201.470786
 30
0.0
 11
-269.445975
 21
-200.660774
 31
0.0
  0
LINE
  8
3
 62
     2
  5
58C
 10
-269.445975
 20
-200.660774
 30
0.0
 11
-271.824251
 21
-203.876953
 31
0.0
  0
LINE
  8
3
 62
     2
  5
58D
 10
-271.824251
 20
-203.876953
 30
0.0
 11
-268.156514
 21
-202.280798
 31
0.0
  0
LINE
  8
3
 62
     2
  5
58E
 10
-268.156514
 20
-202.280798
 30
0.0
 11
-268.801245
 21
-201.470786
 31
0.0
  0
POLYLINE
  8
3
 62
     2
  5
58F
 66
     1
 10
0.0
 20
0.0
 30
0.0
  0
VERTEX
  8
3
 62
     2
  5
A1C
 10
-269.823997
 20
-218.252228
 30
0.0
  0
VERTEX
  8
3
 62
     2
  5
A1D
 10
-253.896301
 20
-209.36261
 30
0.0
  0
VERTEX
  8
3
 62
     2
  5
A1E
 10
-237.984253
 20
-209.36261
 30
0.0
  0
SEQEND
  8
3
 62
     2
  5
A1F
  0
LINE
  8
3
 62
     2
  5
594
 10
-266.450197
 20
-216.369231
 30
0.0
 11
-266.954744
 21
-215.465224
 31
0.0
  0
LINE
  8
3
 62
     2
  5
595
 10
-266.954744
 20
-215.465224
 30
0.0
 11
-269.823997
 21
-218.252228
 31
0.0
  0
LINE
  8
3
 62
     2
  5
596
 10
-269.823997
 20
-218.252228
 30
0.0
 11
-265.945649
 21
-217.273238
 31
0.0
  0
LINE
  8
3
 62
     2
  5
597
 10
-265.945649
 20
-217.273238
 30
0.0
 11
-266.450197
 21
-216.369231
 31
0.0
  0
POLYLINE
  8
3
 62
     2
  5
598
 66
     1
 10
0.0
 20
0.0
 30
0.0
  0
VERTEX
  8
3
 62
     2
  5
A20
 10
-210.448311
 20
-218.252228
 30
0.0
  0
VERTEX
  8
3
 62
     2
  5
A21
 10
-226.376007
 20
-209.36261
 30
0.0
  0
VERTEX
  8
3
 62
     2
  5
A22
 10
-242.288055
 20
-209.36261
 30
0.0
  0
SEQEND
  8
3
 62
     2
  5
A23
  0
LINE
  8
3
 62
     2
  5
59D
 10
-213.822112
 20
-216.369231
 30
0.0
 11
-214.326659
 21
-217.273238
 31
0.0
  0
LINE
  8
3
 62
     2
  5
59E
 10
-214.326659
 20
-217.273238
 30
0.0
 11
-210.448311
 21
-218.252228
 31
0.0
  0
LINE
  8
3
 62
     2
  5
59F
 10
-210.448311
 20
-218.252228
 30
0.0
 11
-213.317564
 21
-215.465224
 31
0.0
  0
LINE
  8
3
 62
     2
  5
5A0
 10
-213.317564
 20
-215.465224
 30
0.0
 11
-213.822112
 21
-216.369231
 31
0.0
  0
POLYLINE
  8
3
 62
     2
  5
5A1
 66
     1
 10
0.0
 20
0.0
 30
0.0
  0
VERTEX
  8
3
 62
     2
  5
A24
 10
-208.448058
 20
-203.876953
 30
0.0
  0
VERTEX
  8
3
 62
     2
  5
A25
 10
-227.062302
 20
-189.060913
 30
0.0
  0
VERTEX
  8
3
 62
     2
  5
A26
 10
-241.108795
 20
-189.060913
 30
0.0
  0
SEQEND
  8
3
 62
     2
  5
A27
  0
LINE
  8
3
 62
     2
  5
5A6
 10
-211.471064
 20
-201.470786
 30
0.0
 11
-212.115794
 21
-202.280798
 31
0.0
  0
LINE
  8
3
 62
     2
  5
5A7
 10
-212.115794
 20
-202.280798
 30
0.0
 11
-208.448058
 21
-203.876953
 31
0.0
  0
LINE
  8
3
 62
     2
  5
5A8
 10
-208.448058
 20
-203.876953
 30
0.0
 11
-210.826333
 21
-200.660774
 31
0.0
  0
LINE
  8
3
 62
     2
  5
5A9
 10
-210.826333
 20
-200.660774
 30
0.0
 11
-211.471064
 21
-201.470786
 31
0.0
  0
TEXT
  8
3
  5
5AA
 10
-112.92794
 20
-172.487313
 30
0.0
 40
7.0
  1
４１０（水側、湯側）
 50
90.0
 72
     5
 11
-112.92794
 21
-103.887313
 31
0.0
  0
DIMENSION
  8
3
 62
     2
  5
5AB
  2
*D9
 10
-111.92794
 20
-56.539161
 30
0.0
 11
-114.42794
 21
-137.487313
 31
0.0
 13
-197.448311
 23
-218.435465
 33
0.0
 14
-216.636154
 24
-56.539161
 34
0.0
 50
90.0
  3
Standard
  0
TEXT
  8
3
  5
5AC
 10
-50.753769
 20
1.260839
 30
0.0
 40
7.0
  1
１３６
 50
90.0
 72
     5
 11
-50.753769
 21
20.860839
 31
0.0
  0
DIMENSION
  8
3
 62
     2
  5
5AD
  2
*D10
 10
-49.753769
 20
80.060839
 30
0.0
 11
-52.253769
 21
11.760839
 31
0.0
 13
80.271976
 23
-56.539161
 33
0.0
 14
27.772154
 24
80.060839
 34
0.0
 50
90.0
  3
Standard
  0
TEXT
  8
3
  5
5AE
 10
-281.069046
 20
-46.700358
 30
0.0
 40
7.0
  1
取付穴径　φ３７
 50
90.0
 72
     5
 11
-281.069046
 21
7.899642
 31
0.0
  0
TEXT
  8
3
  5
5AF
 10
-284.569046
 20
9.299642
 30
0.0
 40
3.5
  1
＋１
 50
90.0
 72
     5
 11
-284.569046
 21
15.599642
 31
0.0
  0
TEXT
  8
3
  5
5B0
 10
-281.069046
 20
9.299642
 30
0.0
 40
3.5
  1
－２
 50
90.0
 72
     5
 11
-281.069046
 21
15.599642
 31
0.0
  0
TEXT
  8
3
  5
5B1
 10
64.855337
 20
-235.628509
 30
0.0
 40
7.0
  1
ＭＬＺ５５２ＭＭＸＥ
 72
     5
 11
133.455337
 21
-235.628509
 31
0.0
  0
TEXT
  8
3
  5
5B2
 10
343.092163
 20
-256.049408
 30
0.0
 40
7.0
  1
１９　１０　１
 72
     5
 11
390.692163
 21
-256.049408
 31
0.0
  0
TEXT
  8
3
  5
5B3
 10
323.793304
 20
-273.13916
 30
0.0
 40
10.5
  1
１１０２２４
 72
     5
 11
384.693304
 21
-273.13916
 31
0.0
  0
POINT
  8
3
  5
5B4
 10
159.045547
 20
31.347134
 30
0.0
  0
POINT
  8
3
  5
5B5
 10
159.045547
 20
28.347134
 30
0.0
  0
POINT
  8
3
  5
5B6
 10
159.045547
 20
28.347134
 30
0.0
  0
TEXT
  8
3
  5
5B7
 10
120.522293
 20
221.210754
 30
0.0
 40
7.0
  1
湯表示
 72
     5
 11
140.122293
 21
221.210754
 31
0.0
  0
POLYLINE
  8
3
 62
     2
  5
5B8
 66
     1
 10
0.0
 20
0.0
 30
0.0
  0
VERTEX
  8
3
 62
     2
  5
A28
 10
107.988739
 20
210.37323
 30
0.0
  0
VERTEX
  8
3
 62
     2
  5
A29
 10
119.485504
 20
224.017944
 30
0.0
  0
SEQEND
  8
3
 62
     2
  5
A2A
  0
LINE
  8
3
 62
     2
  5
5BC
 10
110.478309
 20
213.327928
 30
0.0
 11
109.6866
 21
213.995007
 31
0.0
  0
LINE
  8
3
 62
     2
  5
5BD
 10
109.6866
 20
213.995007
 30
0.0
 11
107.988739
 21
210.37323
 31
0.0
  0
LINE
  8
3
 62
     2
  5
5BE
 10
107.988739
 20
210.37323
 30
0.0
 11
111.270018
 21
212.66085
 31
0.0
  0
LINE
  8
3
 62
     2
  5
5BF
 10
111.270018
 20
212.66085
 30
0.0
 11
110.478309
 21
213.327928
 31
0.0
  0
TEXT
  8
3
  5
5C0
 10
122.14222
 20
164.082489
 30
0.0
 40
7.0
  1
水表示
 72
     5
 11
141.74222
 21
164.082489
 31
0.0
  0
POLYLINE
  8
3
 62
     2
  5
5C1
 66
     1
 10
0.0
 20
0.0
 30
0.0
  0
VERTEX
  8
3
 62
     2
  5
A2B
 10
108.707253
 20
182.87851
 30
0.0
  0
VERTEX
  8
3
 62
     2
  5
A2C
 10
120.717247
 20
167.3871
 30
0.0
  0
SEQEND
  8
3
 62
     2
  5
A2D
  0
LINE
  8
3
 62
     2
  5
5C5
 10
111.074559
 20
179.824977
 30
0.0
 11
111.892751
 21
180.459294
 31
0.0
  0
LINE
  8
3
 62
     2
  5
5C6
 10
111.892751
 20
180.459294
 30
0.0
 11
108.707253
 21
182.87851
 31
0.0
  0
LINE
  8
3
 62
     2
  5
5C7
 10
108.707253
 20
182.87851
 30
0.0
 11
110.256367
 21
179.190659
 31
0.0
  0
LINE
  8
3
 62
     2
  5
5C8
 10
110.256367
 20
179.190659
 30
0.0
 11
111.074559
 21
179.824977
 31
0.0
  0
TEXT
  8
3
  5
5C9
 10
10.522242
 20
209.101166
 30
0.0
 40
7.0
  1
ハンドル回転角度
 50
90.0
 72
     5
 11
10.522242
 21
263.701166
 31
0.0
  0
DIMENSION
  8
3
 62
     2
  5
5CA
  2
*D11
 10
31.051063
 20
196.561218
 30
0.0
 11
34.726766
 21
248.548845
 31
0.0
 70
     2
 13
67.912907
 23
258.670949
 33
0.0
 14
103.771976
 24
196.561218
 34
0.0
 15
103.771976
 25
196.561218
 35
0.0
 16
29.476766
 26
239.455578
 36
0.0
  3
Standard
1001
ACAD
1000
DSTYLE
1002
{
1070
   275
1070
     0
1070
   179
1070
     0
1002
}
  0
DIMENSION
  8
3
 62
     2
  5
5CB
  2
*D12
 10
35.435721
 20
171.688855
 30
0.0
 11
21.110881
 21
171.323857
 31
0.0
 70
     2
 13
11.797809
 23
196.561218
 33
0.0
 14
103.771976
 24
196.561218
 34
0.0
 15
103.771976
 25
196.561218
 35
0.0
 16
19.287575
 26
181.664339
 36
0.0
  3
Standard
1001
ACAD
1000
DSTYLE
1002
{
1070
   275
1070
     0
1070
   179
1070
     0
1002
}
  0
LINE
  8
4
  5
5CC
 10
-247.636154
 20
49.960839
 30
0.0
 11
-247.636154
 21
33.960839
 31
0.0
  0
ARC
  8
4
  5
5CD
 10
-249.636154
 20
49.960839
 30
0.0
 40
2.0
 50
0.0
 51
90.0
  0
LINE
  8
4
  5
5CE
 10
-257.636154
 20
51.960839
 30
0.0
 11
-249.636154
 21
51.960839
 31
0.0
  0
LINE
  8
4
  5
5CF
 10
-257.636154
 20
31.960839
 30
0.0
 11
-249.736154
 21
31.960839
 31
0.0
  0
LINE
  8
4
  5
5D0
 10
-313.687186
 20
78.831146
 30
0.0
 11
-313.687186
 21
65.831146
 31
0.0
  0
LINE
  8
4
  5
5D1
 10
-333.687186
 20
78.831146
 30
0.0
 11
-333.687186
 21
65.831146
 31
0.0
  0
LINE
  8
4
  5
5D2
 10
-312.687186
 20
78.831146
 30
0.0
 11
-312.687186
 21
65.831146
 31
0.0
  0
LINE
  8
4
  5
5D3
 10
-334.687186
 20
78.831146
 30
0.0
 11
-334.687186
 21
65.831146
 31
0.0
  0
LINE
  8
4
  5
5D4
 10
-315.687186
 20
81.831146
 30
0.0
 11
-331.687186
 21
81.831146
 31
0.0
  0
LINE
  8
4
  5
5D5
 10
-315.687186
 20
80.831146
 30
0.0
 11
-331.687186
 21
80.831146
 31
0.0
  0
LINE
  8
4
  5
5D6
 10
-315.687186
 20
63.831146
 30
0.0
 11
-331.687186
 21
63.831146
 31
0.0
  0
LINE
  8
4
  5
5D7
 10
-315.687186
 20
62.831146
 30
0.0
 11
-331.687186
 21
62.831146
 31
0.0
  0
LINE
  8
4
  5
5D8
 10
-313.687186
 20
74.831146
 30
0.0
 11
-333.687186
 21
74.831146
 31
0.0
  0
ARC
  8
4
  5
5D9
 10
-331.687186
 20
78.831146
 30
0.0
 40
3.0
 50
90.0
 51
180.0
  0
ARC
  8
4
  5
5DA
 10
-315.687186
 20
78.831146
 30
0.0
 40
3.0
 50
0.0
 51
90.0
  0
ARC
  8
4
  5
5DB
 10
-315.687186
 20
65.831146
 30
0.0
 40
3.0
 50
270.0
 51
0.0
  0
ARC
  8
4
  5
5DC
 10
-331.687186
 20
65.831146
 30
0.0
 40
3.0
 50
180.0
 51
270.0
  0
ARC
  8
4
  5
5DD
 10
-331.687186
 20
78.831146
 30
0.0
 40
2.0
 50
90.0
 51
180.0
  0
ARC
  8
4
  5
5DE
 10
-315.687186
 20
78.831146
 30
0.0
 40
2.0
 50
360.0
 51
90.0
  0
ARC
  8
4
  5
5DF
 10
-315.687186
 20
65.831146
 30
0.0
 40
2.0
 50
270.0
 51
360.0
  0
ARC
  8
4
  5
5E0
 10
-331.687186
 20
65.831146
 30
0.0
 40
2.0
 50
180.0
 51
270.0
  0
CIRCLE
  8
4
  5
5E1
 10
-329.187186
 20
69.331146
 30
0.0
 40
4.0
  0
LINE
  8
4
  5
5E2
 10
-331.478961
 20
71.976475
 30
0.0
 11
-326.541857
 21
67.039371
 31
0.0
  0
LINE
  8
4
  5
5E3
 10
-331.832515
 20
71.622922
 30
0.0
 11
-326.89541
 21
66.685817
 31
0.0
  0
ARC
  8
4
  5
5E4
 10
-329.187186
 20
69.331146
 30
0.0
 40
3.5
 50
319.096044
 51
130.903956
  0
ARC
  8
4
  5
5E5
 10
-329.187186
 20
69.331146
 30
0.0
 40
3.5
 50
139.096044
 51
310.903956
  0
LINE
  8
4
  5
5E6
 10
-327.187186
 20
67.684699
 30
0.0
 11
-327.187186
 21
70.981146
 31
0.0
  0
LINE
  8
4
  5
5E7
 10
-327.887186
 20
68.831146
 30
0.0
 11
-327.887186
 21
71.481146
 31
0.0
  0
LINE
  8
4
  5
5E8
 10
-328.587186
 20
69.331146
 30
0.0
 11
-328.587186
 21
71.981146
 31
0.0
  0
LINE
  8
4
  5
5E9
 10
-329.287186
 20
69.331146
 30
0.0
 11
-329.287186
 21
71.981146
 31
0.0
  0
LINE
  8
4
  5
5EA
 10
-329.460774
 20
66.331146
 30
0.0
 11
-328.187186
 21
66.331146
 31
0.0
  0
ARC
  8
4
  5
5EB
 10
-328.937186
 20
71.981146
 30
0.0
 40
0.35
 50
0.0
 51
180.0
  0
ARC
  8
4
  5
5EC
 10
-329.637186
 20
71.481146
 30
0.0
 40
0.35
 50
0.0
 51
180.0
  0
ARC
  8
4
  5
5ED
 10
-328.237186
 20
71.481146
 30
0.0
 40
0.35
 50
0.0
 51
180.0
  0
ARC
  8
4
  5
5EE
 10
-327.537186
 20
70.981146
 30
0.0
 40
0.35
 50
0.0
 51
180.0
  0
ARC
  8
4
  5
5EF
 10
-328.187186
 20
67.331146
 30
0.0
 40
1.0
 50
270.0
 51
342.20057
  0
LINE
  8
4
  5
5F0
 10
-329.987186
 20
68.331146
 30
0.0
 11
-329.987186
 21
69.777593
 31
0.0
  0
LINE
  8
4
  5
5F1
 10
-329.987186
 20
70.484699
 30
0.0
 11
-329.987186
 21
71.481146
 31
0.0
  0
LINE
  8
4
  5
5F2
 10
-331.024773
 20
69.23304
 30
0.0
 11
-329.987186
 21
68.331146
 31
0.0
  0
LINE
  8
4
  5
5F3
 10
-331.616938
 20
68.704732
 30
0.0
 11
-330.285154
 21
66.76511
 31
0.0
  0
ARC
  8
4
  5
5F4
 10
-331.287186
 20
68.931146
 30
0.0
 40
0.4
 50
49.002125
 51
214.474285
  0
ARC
  8
4
  5
5F5
 10
-329.460774
 20
67.331146
 30
0.0
 40
1.0
 50
214.474285
 51
270.0
  0
TEXT
  8
4
  5
5F6
 10
-323.052402
 20
71.68561
 30
0.0
 40
2.2
  1
やけどの
 72
     5
 11
-314.692402
 21
71.68561
 31
0.0
  0
TEXT
  8
4
  5
5F7
 10
-323.052402
 20
68.48561
 30
0.0
 40
2.2
  1
恐れあり
 72
     5
 11
-314.692402
 21
68.48561
 31
0.0
  0
TEXT
  8
4
  5
5F8
 10
-323.052402
 20
65.28561
 30
0.0
 40
2.2
  1
さわるな
 72
     5
 11
-314.692402
 21
65.28561
 31
0.0
  0
TEXT
  8
4
  5
5F9
 10
-324.833291
 20
75.662353
 30
0.0
 40
4.0
  1
注 意
 72
     5
 11
-315.633291
 21
75.662353
 31
0.0
  0
LINE
  8
4
  5
5FA
 10
-325.913683
 20
75.331146
 30
0.0
 11
-331.687186
 21
75.331146
 31
0.0
  0
LINE
  8
4
  5
5FB
 10
-331.687186
 20
75.331146
 30
0.0
 11
-328.800434
 21
80.331146
 31
0.0
  0
LINE
  8
4
  5
5FC
 10
-328.800434
 20
80.331146
 30
0.0
 11
-325.913683
 21
75.331146
 31
0.0
  0
TEXT
  8
4
  5
5FD
 10
-330.766559
 20
75.606623
 30
0.0
 40
4.0
  1
！
 72
     5
 11
-327.566559
 21
75.606623
 31
0.0
  0
LINE
  8
4
 62
     2
  5
5FE
 10
-333.187186
 20
69.331146
 30
0.0
 11
-332.644924
 21
69.873408
 31
0.0
  0
LINE
  8
4
 62
     2
  5
5FF
 10
-331.363962
 20
71.154369
 30
0.0
 11
-331.010409
 21
71.507923
 31
0.0
  0
LINE
  8
4
 62
     2
  5
600
 10
-329.729448
 20
72.788884
 30
0.0
 11
-329.187186
 21
73.331146
 31
0.0
  0
LINE
  8
4
 62
     2
  5
601
 10
-333.177826
 20
69.057663
 30
0.0
 11
-332.679988
 21
69.555502
 31
0.0
  0
LINE
  8
4
 62
     2
  5
602
 10
-331.222541
 20
71.012948
 30
0.0
 11
-330.868988
 21
71.366501
 31
0.0
  0
LINE
  8
4
 62
     2
  5
603
 10
-329.411541
 20
72.823948
 30
0.0
 11
-328.913703
 21
73.321786
 31
0.0
  0
LINE
  8
4
 62
     2
  5
604
 10
-333.151869
 20
68.800778
 30
0.0
 11
-332.686581
 21
69.266066
 31
0.0
  0
LINE
  8
4
 62
     2
  5
605
 10
-331.08112
 20
70.871527
 30
0.0
 11
-330.727566
 21
71.22508
 31
0.0
  0
LINE
  8
4
 62
     2
  5
606
 10
-329.122105
 20
72.830541
 30
0.0
 11
-328.656818
 21
73.295829
 31
0.0
  0
LINE
  8
4
 62
     2
  5
607
 10
-333.111763
 20
68.558041
 30
0.0
 11
-332.671339
 21
68.998465
 31
0.0
  0
LINE
  8
4
 62
     2
  5
608
 10
-330.939698
 20
70.730105
 30
0.0
 11
-330.586145
 21
71.083659
 31
0.0
  0
LINE
  8
4
 62
     2
  5
609
 10
-328.854504
 20
72.815299
 30
0.0
 11
-328.41408
 21
73.255723
 31
0.0
  0
LINE
  8
4
 62
     2
  5
60A
 10
-333.059274
 20
68.327687
 30
0.0
 11
-332.638365
 21
68.748596
 31
0.0
  0
LINE
  8
4
 62
     2
  5
60B
 10
-330.798277
 20
70.588684
 30
0.0
 11
-330.444724
 21
70.942237
 31
0.0
  0
LINE
  8
4
 62
     2
  5
60C
 10
-328.604636
 20
72.782325
 30
0.0
 11
-328.183726
 21
73.203235
 31
0.0
  0
LINE
  8
4
 62
     2
  5
60D
 10
-332.995716
 20
68.108403
 30
0.0
 11
-332.590393
 21
68.513725
 31
0.0
  0
LINE
  8
4
 62
     2
  5
60E
 10
-330.656856
 20
70.447263
 30
0.0
 11
-330.303302
 21
70.800816
 31
0.0
  0
LINE
  8
4
 62
     2
  5
60F
 10
-328.369765
 20
72.734354
 30
0.0
 11
-327.964442
 21
73.139676
 31
0.0
  0
LINE
  8
4
 62
     2
  5
610
 10
-332.922088
 20
67.899188
 30
0.0
 11
-332.529345
 21
68.29193
 31
0.0
  0
LINE
  8
4
 62
     2
  5
611
 10
-330.515434
 20
70.305841
 30
0.0
 11
-330.161881
 21
70.659395
 31
0.0
  0
LINE
  8
4
 62
     2
  5
612
 10
-328.14797
 20
72.673306
 30
0.0
 11
-327.755227
 21
73.066048
 31
0.0
  0
LINE
  8
4
 62
     2
  5
613
 10
-332.839167
 20
67.699266
 30
0.0
 11
-332.456616
 21
68.081817
 31
0.0
  0
LINE
  8
4
 62
     2
  5
614
 10
-330.374013
 20
70.16442
 30
0.0
 11
-330.02046
 21
70.517973
 31
0.0
  0
LINE
  8
4
 62
     2
  5
615
 10
-327.937856
 20
72.600577
 30
0.0
 11
-327.555306
 21
72.983127
 31
0.0
  0
LINE
  8
4
 62
     2
  5
616
 10
-332.747558
 20
67.508032
 30
0.0
 11
-332.373245
 21
67.882345
 31
0.0
  0
LINE
  8
4
 62
     2
  5
617
 10
-330.232592
 20
70.022999
 30
0.0
 11
-329.879038
 21
70.376552
 31
0.0
  0
LINE
  8
4
 62
     2
  5
618
 10
-327.738385
 20
72.517206
 30
0.0
 11
-327.364071
 21
72.891519
 31
0.0
  0
LINE
  8
4
 62
     2
  5
619
 10
-332.647737
 20
67.32501
 30
0.0
 11
-332.280016
 21
67.692732
 31
0.0
  0
LINE
  8
4
 62
     2
  5
61A
 10
-330.09117
 20
69.881577
 30
0.0
 11
-329.737617
 21
70.235131
 31
0.0
  0
LINE
  8
4
 62
     2
  5
61B
 10
-327.548771
 20
72.423976
 30
0.0
 11
-327.18105
 21
72.791698
 31
0.0
  0
LINE
  8
4
 62
     2
  5
61C
 10
-332.540074
 20
67.14983
 30
0.0
 11
-332.177521
 21
67.512384
 31
0.0
  0
LINE
  8
4
 62
     2
  5
61D
 10
-329.949749
 20
69.740156
 30
0.0
 11
-329.596196
 21
70.093709
 31
0.0
  0
LINE
  8
4
 62
     2
  5
61E
 10
-327.368424
 20
72.321481
 30
0.0
 11
-327.00587
 21
72.684035
 31
0.0
  0
LINE
  8
4
 62
     2
  5
61F
 10
-332.424853
 20
66.982209
 30
0.0
 11
-332.066205
 21
67.340857
 31
0.0
  0
LINE
  8
4
 62
     2
  5
620
 10
-329.808328
 20
69.598734
 30
0.0
 11
-329.454774
 21
69.952288
 31
0.0
  0
LINE
  8
4
 62
     2
  5
621
 10
-327.196897
 20
72.210165
 30
0.0
 11
-326.838248
 21
72.568814
 31
0.0
  0
LINE
  8
4
 62
     2
  5
622
 10
-332.302286
 20
66.821933
 30
0.0
 11
-331.946392
 21
67.177827
 31
0.0
  0
LINE
  8
4
 62
     2
  5
623
 10
-329.666906
 20
69.457313
 30
0.0
 11
-329.313353
 21
69.810867
 31
0.0
  0
LINE
  8
4
 62
     2
  5
624
 10
-327.033867
 20
72.090352
 30
0.0
 11
-326.677973
 21
72.446246
 31
0.0
  0
LINE
  8
4
 62
     2
  5
625
 10
-332.172519
 20
66.668857
 30
0.0
 11
-331.818305
 21
67.023071
 31
0.0
  0
LINE
  8
4
 62
     2
  5
626
 10
-329.525485
 20
69.315892
 30
0.0
 11
-329.171931
 21
69.669445
 31
0.0
  0
LINE
  8
4
 62
     2
  5
627
 10
-326.879111
 20
71.962266
 30
0.0
 11
-326.524897
 21
72.31648
 31
0.0
  0
LINE
  8
4
 62
     2
  5
628
 10
-332.035642
 20
66.522891
 30
0.0
 11
-331.682079
 21
66.876455
 31
0.0
  0
LINE
  8
4
 62
     2
  5
629
 10
-329.384063
 20
69.17447
 30
0.0
 11
-329.03051
 21
69.528024
 31
0.0
  0
LINE
  8
4
 62
     2
  5
62A
 10
-326.732495
 20
71.826039
 30
0.0
 11
-326.378931
 21
72.179603
 31
0.0
  0
LINE
  8
4
 62
     2
  5
62B
 10
-331.891689
 20
66.384002
 30
0.0
 11
-331.537764
 21
66.737927
 31
0.0
  0
LINE
  8
4
 62
     2
  5
62C
 10
-329.242642
 20
69.033049
 30
0.0
 11
-328.889089
 21
69.386602
 31
0.0
  0
LINE
  8
4
 62
     2
  5
62D
 10
-326.593967
 20
71.681724
 30
0.0
 11
-326.240041
 21
72.03565
 31
0.0
  0
LINE
  8
4
 62
     2
  5
62E
 10
-331.740641
 20
66.252207
 30
0.0
 11
-331.385331
 21
66.607517
 31
0.0
  0
LINE
  8
4
 62
     2
  5
62F
 10
-329.101221
 20
68.891628
 30
0.0
 11
-328.747667
 21
69.245181
 31
0.0
  0
LINE
  8
4
 62
     2
  5
630
 10
-326.463557
 20
71.529292
 30
0.0
 11
-326.108247
 21
71.884602
 31
0.0
  0
LINE
  8
4
 62
     2
  5
631
 10
-331.582425
 20
66.127581
 30
0.0
 11
-331.224672
 21
66.485334
 31
0.0
  0
LINE
  8
4
 62
     2
  5
632
 10
-328.959799
 20
68.750206
 30
0.0
 11
-328.606246
 21
69.10376
 31
0.0
  0
LINE
  8
4
 62
     2
  5
633
 10
-326.341373
 20
71.368633
 30
0.0
 11
-325.983621
 21
71.726385
 31
0.0
  0
LINE
  8
4
 62
     2
  5
634
 10
-331.41691
 20
66.010253
 30
0.0
 11
-331.055589
 21
66.371574
 31
0.0
  0
LINE
  8
4
 62
     2
  5
635
 10
-328.818378
 20
68.608785
 30
0.0
 11
-328.464825
 21
68.962338
 31
0.0
  0
LINE
  8
4
 62
     2
  5
636
 10
-326.227613
 20
71.19955
 30
0.0
 11
-325.866293
 21
71.56087
 31
0.0
  0
LINE
  8
4
 62
     2
  5
637
 10
-331.243904
 20
65.900416
 30
0.0
 11
-330.877789
 21
66.266532
 31
0.0
  0
LINE
  8
4
 62
     2
  5
638
 10
-328.676957
 20
68.467364
 30
0.0
 11
-328.323403
 21
68.820917
 31
0.0
  0
LINE
  8
4
 62
     2
  5
639
 10
-326.122571
 20
71.021749
 30
0.0
 11
-325.756456
 21
71.387865
 31
0.0
  0
LINE
  8
4
 62
     2
  5
63A
 10
-331.063146
 20
65.798332
 30
0.0
 11
-330.690863
 21
66.170615
 31
0.0
  0
LINE
  8
4
 62
     2
  5
63B
 10
-328.535535
 20
68.325942
 30
0.0
 11
-328.181982
 21
68.679496
 31
0.0
  0
LINE
  8
4
 62
     2
  5
63C
 10
-326.026655
 20
70.834823
 30
0.0
 11
-325.654372
 21
71.207106
 31
0.0
  0
LINE
  8
4
 62
     2
  5
63D
 10
-330.874289
 20
65.704346
 30
0.0
 11
-330.494264
 21
66.084371
 31
0.0
  0
LINE
  8
4
 62
     2
  5
63E
 10
-328.394114
 20
68.184521
 30
0.0
 11
-328.040561
 21
68.538074
 31
0.0
  0
LINE
  8
4
 62
     2
  5
63F
 10
-325.940411
 20
70.638224
 30
0.0
 11
-325.560385
 21
71.01825
 31
0.0
  0
LINE
  8
4
 62
     2
  5
640
 10
-330.676893
 20
65.6189
 30
0.0
 11
-330.287268
 21
66.008524
 31
0.0
  0
LINE
  8
4
 62
     2
  5
641
 10
-328.252693
 20
68.0431
 30
0.0
 11
-327.899139
 21
68.396653
 31
0.0
  0
LINE
  8
4
 62
     2
  5
642
 10
-325.864564
 20
70.431229
 30
0.0
 11
-325.474939
 21
70.820853
 31
0.0
  0
LINE
  8
4
 62
     2
  5
643
 10
-330.47039
 20
65.54256
 30
0.0
 11
-330.068918
 21
65.944031
 31
0.0
  0
LINE
  8
4
 62
     2
  5
644
 10
-328.111271
 20
67.901678
 30
0.0
 11
-327.757718
 21
68.255232
 31
0.0
  0
LINE
  8
4
 62
     2
  5
645
 10
-325.800071
 20
70.212879
 30
0.0
 11
-325.398599
 21
70.61435
 31
0.0
  0
LINE
  8
4
 62
     2
  5
646
 10
-330.254059
 20
65.476048
 30
0.0
 11
-329.837933
 21
65.892174
 31
0.0
  0
LINE
  8
4
 62
     2
  5
647
 10
-327.96985
 20
67.760257
 30
0.0
 11
-327.616297
 21
68.11381
 31
0.0
  0
LINE
  8
4
 62
     2
  5
648
 10
-325.748214
 20
69.981893
 30
0.0
 11
-325.332088
 21
70.398019
 31
0.0
  0
LINE
  8
4
 62
     2
  5
649
 10
-330.02697
 20
65.420294
 30
0.0
 11
-329.592563
 21
65.854701
 31
0.0
  0
LINE
  8
4
 62
     2
  5
64A
 10
-327.828429
 20
67.618835
 30
0.0
 11
-327.474875
 21
67.972389
 31
0.0
  0
LINE
  8
4
 62
     2
  5
64B
 10
-325.710741
 20
69.736523
 30
0.0
 11
-325.276334
 21
70.17093
 31
0.0
  0
LINE
  8
4
 62
     2
  5
64C
 10
-329.787909
 20
65.376512
 30
0.0
 11
-329.330346
 21
65.834075
 31
0.0
  0
LINE
  8
4
 62
     2
  5
64D
 10
-327.687007
 20
67.477414
 30
0.0
 11
-327.333454
 21
67.830968
 31
0.0
  0
LINE
  8
4
 62
     2
  5
64E
 10
-325.690115
 20
69.474306
 30
0.0
 11
-325.232552
 21
69.93187
 31
0.0
  0
LINE
  8
4
 62
     2
  5
64F
 10
-329.535259
 20
65.346319
 30
0.0
 11
-329.04765
 21
65.833929
 31
0.0
  0
LINE
  8
4
 62
     2
  5
650
 10
-327.545586
 20
67.335993
 30
0.0
 11
-327.192032
 21
67.689546
 31
0.0
  0
LINE
  8
4
 62
     2
  5
651
 10
-325.689968
 20
69.19161
 30
0.0
 11
-325.202359
 21
69.67922
 31
0.0
  0
LINE
  8
4
 62
     2
  5
652
 10
-329.266797
 20
65.331938
 30
0.0
 11
-328.738742
 21
65.859994
 31
0.0
  0
LINE
  8
4
 62
     2
  5
653
 10
-327.404164
 20
67.194571
 30
0.0
 11
-327.050611
 21
67.548125
 31
0.0
  0
LINE
  8
4
 62
     2
  5
654
 10
-325.716033
 20
68.882702
 30
0.0
 11
-325.187978
 21
69.410758
 31
0.0
  0
LINE
  8
4
 62
     2
  5
655
 10
-328.979344
 20
65.33655
 30
0.0
 11
-328.393589
 21
65.922304
 31
0.0
  0
LINE
  8
4
 62
     2
  5
656
 10
-327.262743
 20
67.05315
 30
0.0
 11
-326.90919
 21
67.406703
 31
0.0
  0
LINE
  8
4
 62
     2
  5
657
 10
-325.778344
 20
68.53755
 30
0.0
 11
-325.192589
 21
69.123304
 31
0.0
  0
LINE
  8
4
 62
     2
  5
658
 10
-328.668077
 20
65.364973
 30
0.0
 11
-327.991236
 21
66.041814
 31
0.0
  0
LINE
  8
4
 62
     2
  5
659
 10
-327.121322
 20
66.911729
 30
0.0
 11
-326.767768
 21
67.265282
 31
0.0
  0
LINE
  8
4
 62
     2
  5
65A
 10
-325.897854
 20
68.135197
 30
0.0
 11
-325.221013
 21
68.812037
 31
0.0
  0
LINE
  8
4
 62
     2
  5
65B
 10
-328.325046
 20
65.425162
 30
0.0
 11
-327.467389
 21
66.282819
 31
0.0
  0
LINE
  8
4
 62
     2
  5
65C
 10
-326.9799
 20
66.770307
 30
0.0
 11
-326.626347
 21
67.123861
 31
0.0
  0
LINE
  8
4
 62
     2
  5
65D
 10
-326.138859
 20
67.611349
 30
0.0
 11
-325.281201
 21
68.469007
 31
0.0
  0
LINE
  8
4
 62
     2
  5
65E
 10
-327.935254
 20
65.532111
 30
0.0
 11
-325.388151
 21
68.079214
 31
0.0
  0
LINE
  8
4
 62
     2
  5
65F
 10
-327.462416
 20
65.722106
 30
0.0
 11
-325.578146
 21
67.606377
 31
0.0
  0
LINE
  8
4
 62
     2
  5
660
 10
-326.715467
 20
66.186213
 30
0.0
 11
-326.042252
 21
66.859427
 31
0.0
  0
LINE
  8
4
 62
     2
  5
661
 10
-333.176394
 20
69.624781
 30
0.0
 11
-332.569298
 21
70.231876
 31
0.0
  0
LINE
  8
4
 62
     2
  5
662
 10
-331.505384
 20
71.295791
 30
0.0
 11
-331.15183
 21
71.649344
 31
0.0
  0
LINE
  8
4
 62
     2
  5
663
 10
-330.087916
 20
72.713259
 30
0.0
 11
-329.480821
 21
73.320354
 31
0.0
  0
LINE
  8
4
 62
     2
  5
664
 10
-333.139947
 20
69.94407
 30
0.0
 11
-332.425868
 21
70.658149
 31
0.0
  0
LINE
  8
4
 62
     2
  5
665
 10
-331.646805
 20
71.437212
 30
0.0
 11
-331.293252
 21
71.790765
 31
0.0
  0
LINE
  8
4
 62
     2
  5
666
 10
-330.514189
 20
72.569828
 30
0.0
 11
-329.80011
 21
73.283908
 31
0.0
  0
LINE
  8
4
 62
     2
  5
667
 10
-333.068482
 20
70.298378
 30
0.0
 11
-332.109389
 21
71.257471
 31
0.0
  0
LINE
  8
4
 62
     2
  5
668
 10
-331.788227
 20
71.578633
 30
0.0
 11
-331.434673
 21
71.932187
 31
0.0
  0
LINE
  8
4
 62
     2
  5
669
 10
-331.11351
 20
72.25335
 30
0.0
 11
-330.154417
 21
73.212443
 31
0.0
  0
LINE
  8
4
 62
     2
  5
66A
 10
-332.943358
 20
70.706345
 30
0.0
 11
-330.562385
 21
73.087318
 31
0.0
  0
LINE
  8
4
 62
     2
  5
66B
 10
-332.713788
 20
71.218757
 30
0.0
 11
-331.074797
 21
72.857748
 31
0.0
  0
TEXT
  8
4
  5
66C
 10
-352.070469
 20
53.229384
 30
0.0
 40
6.4
  1
（やけど注意表示）
 72
     5
 11
-295.750468
 21
53.229384
 31
0.0
  0
POLYLINE
  8
4
 62
     2
  5
66D
 66
     1
 10
0.0
 20
0.0
 30
0.0
  0
VERTEX
  8
4
 62
     2
  5
A2E
 10
-253.338993
 20
46.378806
 30
0.0
  0
VERTEX
  8
4
 62
     2
  5
A2F
 10
-284.810489
 20
72.2694
 30
0.0
  0
VERTEX
  8
4
 62
     2
  5
A30
 10
-310.359897
 20
72.2694
 30
0.0
  0
SEQEND
  8
4
 62
     2
  5
A31
  0
LINE
  8
4
 62
     2
  5
672
 10
-256.322763
 20
48.833458
 30
0.0
 11
-256.980485
 21
48.033959
 31
0.0
  0
LINE
  8
4
 62
     2
  5
673
 10
-256.980485
 20
48.033959
 30
0.0
 11
-253.338993
 21
46.378806
 31
0.0
  0
LINE
  8
4
 62
     2
  5
674
 10
-253.338993
 20
46.378806
 30
0.0
 11
-255.665041
 21
49.632957
 31
0.0
  0
LINE
  8
4
 62
     2
  5
675
 10
-255.665041
 20
49.632957
 30
0.0
 11
-256.322763
 21
48.833458
 31
0.0
  0
LINE
  8
4
  5
676
 10
-257.636154
 20
51.960839
 30
0.0
 11
-257.636154
 21
31.960839
 31
0.0
  0
ARC
  8
4
  5
677
 10
-249.636154
 20
33.960839
 30
0.0
 40
2.0
 50
270.0
 51
360.0
  0
LINE
  8
4
  5
678
 10
92.771976
 20
-45.661161
 30
0.0
 11
92.771976
 21
-48.661161
 31
0.0
  0
LINE
  8
4
  5
679
 10
94.021976
 20
-49.911161
 30
0.0
 11
113.521976
 21
-49.911161
 31
0.0
  0
LINE
  8
4
  5
67A
 10
94.021976
 20
-44.411161
 30
0.0
 11
113.521976
 21
-44.411161
 31
0.0
  0
ARC
  8
4
  5
67B
 10
94.021976
 20
-45.661161
 30
0.0
 40
1.25
 50
90.0
 51
180.0
  0
ARC
  8
4
  5
67C
 10
94.021976
 20
-48.661161
 30
0.0
 40
1.25
 50
180.0
 51
270.0
  0
LINE
  8
4
 62
     2
  5
67D
 10
98.271976
 20
-49.911161
 30
0.0
 11
103.771976
 21
-44.411161
 31
0.0
  0
LINE
  8
4
 62
     2
  5
67E
 10
99.68619
 20
-49.911161
 30
0.0
 11
105.18619
 21
-44.411161
 31
0.0
  0
LINE
  8
4
 62
     2
  5
67F
 10
101.100404
 20
-49.911161
 30
0.0
 11
106.600404
 21
-44.411161
 31
0.0
  0
LINE
  8
4
 62
     2
  5
680
 10
102.514617
 20
-49.911161
 30
0.0
 11
108.014617
 21
-44.411161
 31
0.0
  0
LINE
  8
4
 62
     2
  5
681
 10
103.928831
 20
-49.911161
 30
0.0
 11
109.428831
 21
-44.411161
 31
0.0
  0
LINE
  8
4
 62
     2
  5
682
 10
105.343044
 20
-49.911161
 30
0.0
 11
110.843044
 21
-44.411161
 31
0.0
  0
LINE
  8
4
 62
     2
  5
683
 10
106.757258
 20
-49.911161
 30
0.0
 11
112.257258
 21
-44.411161
 31
0.0
  0
LINE
  8
4
 62
     2
  5
684
 10
113.663441
 20
-44.419192
 30
0.0
 11
108.171471
 21
-49.911161
 31
0.0
  0
LINE
  8
4
 62
     2
  5
685
 10
114.548685
 20
-44.948161
 30
0.0
 11
109.585685
 21
-49.911161
 31
0.0
  0
LINE
  8
4
 62
     2
  5
686
 10
114.771976
 20
-46.139084
 30
0.0
 11
110.999899
 21
-49.911161
 31
0.0
  0
LINE
  8
4
 62
     2
  5
687
 10
114.771976
 20
-47.553297
 30
0.0
 11
112.414112
 21
-49.911161
 31
0.0
  0
LINE
  8
4
 62
     2
  5
688
 10
113.880992
 20
-49.858495
 30
0.0
 11
114.71931
 21
-49.020177
 31
0.0
  0
LINE
  8
4
 62
     2
  5
689
 10
96.857763
 20
-49.911161
 30
0.0
 11
102.357763
 21
-44.411161
 31
0.0
  0
LINE
  8
4
 62
     2
  5
68A
 10
95.443549
 20
-49.911161
 30
0.0
 11
100.943549
 21
-44.411161
 31
0.0
  0
LINE
  8
4
 62
     2
  5
68B
 10
94.029336
 20
-49.911161
 30
0.0
 11
99.529336
 21
-44.411161
 31
0.0
  0
LINE
  8
4
 62
     2
  5
68C
 10
93.063152
 20
-49.463132
 30
0.0
 11
98.115122
 21
-44.411161
 31
0.0
  0
LINE
  8
4
 62
     2
  5
68D
 10
92.771976
 20
-48.340094
 30
0.0
 11
96.700909
 21
-44.411161
 31
0.0
  0
LINE
  8
4
 62
     2
  5
68E
 10
92.771976
 20
-46.92588
 30
0.0
 11
95.286695
 21
-44.411161
 31
0.0
  0
LINE
  8
4
 62
     2
  5
68F
 10
92.782226
 20
-45.501417
 30
0.0
 11
93.862232
 21
-44.421411
 31
0.0
  0
ARC
  8
4
  5
690
 10
113.521976
 20
-45.661161
 30
0.0
 40
1.25
 50
360.0
 51
90.0
  0
LINE
  8
4
  5
691
 10
114.771976
 20
-45.661161
 30
0.0
 11
114.771976
 21
-48.661161
 31
0.0
  0
ARC
  8
4
  5
692
 10
113.521976
 20
-48.661161
 30
0.0
 40
1.25
 50
270.0
 51
360.0
  0
TEXT
  8
4
  5
693
 10
131.564855
 20
-49.550847
 30
0.0
 40
7.0
  1
（商標表示）
 72
     5
 11
172.164855
 21
-49.550847
 31
0.0
  0
POINT
  8
4
  5
694
 10
103.771976
 20
-49.911161
 30
0.0
  0
POINT
  8
4
  5
695
 10
103.771976
 20
-49.911161
 30
0.0
  0
LINE
  8
4
  5
696
 10
226.438168
 20
-37.911161
 30
0.0
 11
226.438168
 21
-49.911161
 31
0.0
  0
LINE
  8
4
  5
697
 10
252.438168
 20
-37.911161
 30
0.0
 11
252.438168
 21
-49.911161
 31
0.0
  0
LINE
  8
4
  5
698
 10
226.438168
 20
-37.911161
 30
0.0
 11
252.438168
 21
-37.911161
 31
0.0
  0
LINE
  8
4
  5
699
 10
226.438168
 20
-49.911161
 30
0.0
 11
252.438168
 21
-49.911161
 31
0.0
  0
LINE
  8
4
 62
     2
  5
69A
 10
227.438168
 20
-49.911161
 30
0.0
 11
239.438168
 21
-37.911161
 31
0.0
  0
LINE
  8
4
 62
     2
  5
69B
 10
228.852381
 20
-49.911161
 30
0.0
 11
240.852381
 21
-37.911161
 31
0.0
  0
LINE
  8
4
 62
     2
  5
69C
 10
230.266595
 20
-49.911161
 30
0.0
 11
242.266595
 21
-37.911161
 31
0.0
  0
LINE
  8
4
 62
     2
  5
69D
 10
231.680808
 20
-49.911161
 30
0.0
 11
243.680808
 21
-37.911161
 31
0.0
  0
LINE
  8
4
 62
     2
  5
69E
 10
233.095022
 20
-49.911161
 30
0.0
 11
245.095022
 21
-37.911161
 31
0.0
  0
LINE
  8
4
 62
     2
  5
69F
 10
234.509235
 20
-49.911161
 30
0.0
 11
246.509235
 21
-37.911161
 31
0.0
  0
LINE
  8
4
 62
     2
  5
6A0
 10
235.923449
 20
-49.911161
 30
0.0
 11
247.923449
 21
-37.911161
 31
0.0
  0
LINE
  8
4
 62
     2
  5
6A1
 10
237.337663
 20
-49.911161
 30
0.0
 11
249.337663
 21
-37.911161
 31
0.0
  0
LINE
  8
4
 62
     2
  5
6A2
 10
238.751876
 20
-49.911161
 30
0.0
 11
250.751876
 21
-37.911161
 31
0.0
  0
LINE
  8
4
 62
     2
  5
6A3
 10
240.16609
 20
-49.911161
 30
0.0
 11
252.16609
 21
-37.911161
 31
0.0
  0
LINE
  8
4
 62
     2
  5
6A4
 10
252.438168
 20
-39.053297
 30
0.0
 11
241.580303
 21
-49.911161
 31
0.0
  0
LINE
  8
4
 62
     2
  5
6A5
 10
252.438168
 20
-40.467511
 30
0.0
 11
242.994517
 21
-49.911161
 31
0.0
  0
LINE
  8
4
 62
     2
  5
6A6
 10
252.438168
 20
-41.881724
 30
0.0
 11
244.40873
 21
-49.911161
 31
0.0
  0
LINE
  8
4
 62
     2
  5
6A7
 10
252.438168
 20
-43.295938
 30
0.0
 11
245.822944
 21
-49.911161
 31
0.0
  0
LINE
  8
4
 62
     2
  5
6A8
 10
252.438168
 20
-44.710151
 30
0.0
 11
247.237157
 21
-49.911161
 31
0.0
  0
LINE
  8
4
 62
     2
  5
6A9
 10
252.438168
 20
-46.124365
 30
0.0
 11
248.651371
 21
-49.911161
 31
0.0
  0
LINE
  8
4
 62
     2
  5
6AA
 10
252.438168
 20
-47.538578
 30
0.0
 11
250.065585
 21
-49.911161
 31
0.0
  0
LINE
  8
4
 62
     2
  5
6AB
 10
252.438168
 20
-48.952792
 30
0.0
 11
251.479798
 21
-49.911161
 31
0.0
  0
LINE
  8
4
 62
     2
  5
6AC
 10
226.438168
 20
-49.496948
 30
0.0
 11
238.023954
 21
-37.911161
 31
0.0
  0
LINE
  8
4
 62
     2
  5
6AD
 10
226.438168
 20
-48.082734
 30
0.0
 11
236.60974
 21
-37.911161
 31
0.0
  0
LINE
  8
4
 62
     2
  5
6AE
 10
226.438168
 20
-46.668521
 30
0.0
 11
235.195527
 21
-37.911161
 31
0.0
  0
LINE
  8
4
 62
     2
  5
6AF
 10
226.438168
 20
-45.254307
 30
0.0
 11
233.781313
 21
-37.911161
 31
0.0
  0
LINE
  8
4
 62
     2
  5
6B0
 10
226.438168
 20
-43.840094
 30
0.0
 11
232.3671
 21
-37.911161
 31
0.0
  0
LINE
  8
4
 62
     2
  5
6B1
 10
226.438168
 20
-42.42588
 30
0.0
 11
230.952886
 21
-37.911161
 31
0.0
  0
LINE
  8
4
 62
     2
  5
6B2
 10
226.438168
 20
-41.011667
 30
0.0
 11
229.538673
 21
-37.911161
 31
0.0
  0
LINE
  8
4
 62
     2
  5
6B3
 10
226.438168
 20
-39.597453
 30
0.0
 11
228.124459
 21
-37.911161
 31
0.0
  0
LINE
  8
4
 62
     2
  5
6B4
 10
226.438168
 20
-38.183239
 30
0.0
 11
226.710246
 21
-37.911161
 31
0.0
  0
LINE
  8
4
  5
6B5
 10
288.630437
 20
-29.187543
 30
0.0
 11
288.630437
 21
-41.187543
 31
0.0
  0
LINE
  8
4
  5
6B6
 10
288.630437
 20
-29.187543
 30
0.0
 11
316.630437
 21
-29.187543
 31
0.0
  0
LINE
  8
4
  5
6B7
 10
288.630437
 20
-41.187543
 30
0.0
 11
316.630437
 21
-41.187543
 31
0.0
  0
TEXT
  8
4
  5
6B8
 10
271.927476
 20
-50.980113
 30
0.0
 40
6.4
  1
（製品コードＮＯ及び
 72
     5
 11
334.647477
 21
-50.980113
 31
0.0
  0
TEXT
  8
4
  5
6B9
 10
271.927476
 20
-58.380113
 30
0.0
 40
6.4
  1
　ロットＮＯの表示）
 72
     5
 11
334.647477
 21
-58.380113
 31
0.0
  0
POLYLINE
  8
4
 62
     2
  5
6BA
 66
     1
 10
0.0
 20
0.0
 30
0.0
  0
VERTEX
  8
4
 62
     2
  5
A32
 10
248.006197
 20
-43.010061
 30
0.0
  0
VERTEX
  8
4
 62
     2
  5
A33
 10
284.197267
 20
-35.034847
 30
0.0
  0
SEQEND
  8
4
 62
     2
  5
A34
  0
LINE
  8
4
 62
     2
  5
6BE
 10
251.779373
 20
-42.178589
 30
0.0
 11
251.55658
 21
-41.167569
 31
0.0
  0
LINE
  8
4
 62
     2
  5
6BF
 10
251.55658
 20
-41.167569
 30
0.0
 11
248.006197
 21
-43.010061
 31
0.0
  0
LINE
  8
4
 62
     2
  5
6C0
 10
248.006197
 20
-43.010061
 30
0.0
 11
252.002165
 21
-43.189608
 31
0.0
  0
LINE
  8
4
 62
     2
  5
6C1
 10
252.002165
 20
-43.189608
 30
0.0
 11
251.779373
 21
-42.178589
 31
0.0
  0
LINE
  8
4
 62
     2
  5
6C2
 10
-257.636154
 20
41.960839
 30
0.0
 11
-248.221941
 21
51.375052
 31
0.0
  0
LINE
  8
4
 62
     2
  5
6C3
 10
-257.636154
 20
40.546625
 30
0.0
 11
-247.704303
 21
50.478477
 31
0.0
  0
LINE
  8
4
 62
     2
  5
6C4
 10
-247.636154
 20
49.132411
 30
0.0
 11
-257.636154
 21
39.132411
 31
0.0
  0
LINE
  8
4
 62
     2
  5
6C5
 10
-247.636154
 20
47.718198
 30
0.0
 11
-257.636154
 21
37.718198
 31
0.0
  0
LINE
  8
4
 62
     2
  5
6C6
 10
-247.636154
 20
46.303984
 30
0.0
 11
-257.636154
 21
36.303984
 31
0.0
  0
LINE
  8
4
 62
     2
  5
6C7
 10
-247.636154
 20
44.889771
 30
0.0
 11
-257.636154
 21
34.889771
 31
0.0
  0
LINE
  8
4
 62
     2
  5
6C8
 10
-247.636154
 20
43.475557
 30
0.0
 11
-257.636154
 21
33.475557
 31
0.0
  0
LINE
  8
4
 62
     2
  5
6C9
 10
-247.636154
 20
42.061344
 30
0.0
 11
-257.636154
 21
32.061344
 31
0.0
  0
LINE
  8
4
 62
     2
  5
6CA
 10
-247.636154
 20
40.64713
 30
0.0
 11
-256.322446
 21
31.960839
 31
0.0
  0
LINE
  8
4
 62
     2
  5
6CB
 10
-247.636154
 20
39.232916
 30
0.0
 11
-254.908232
 21
31.960839
 31
0.0
  0
LINE
  8
4
 62
     2
  5
6CC
 10
-247.636154
 20
37.818703
 30
0.0
 11
-253.494019
 21
31.960839
 31
0.0
  0
LINE
  8
4
 62
     2
  5
6CD
 10
-247.636154
 20
36.404489
 30
0.0
 11
-252.079805
 21
31.960839
 31
0.0
  0
LINE
  8
4
 62
     2
  5
6CE
 10
-247.636154
 20
34.990276
 30
0.0
 11
-250.665591
 21
31.960839
 31
0.0
  0
LINE
  8
4
 62
     2
  5
6CF
 10
-249.207377
 20
32.00484
 30
0.0
 11
-247.682655
 21
33.529561
 31
0.0
  0
LINE
  8
4
 62
     2
  5
6D0
 10
-257.636154
 20
43.375052
 30
0.0
 11
-249.118516
 21
51.89269
 31
0.0
  0
LINE
  8
4
 62
     2
  5
6D1
 10
-257.636154
 20
44.789266
 30
0.0
 11
-250.464581
 21
51.960839
 31
0.0
  0
LINE
  8
4
 62
     2
  5
6D2
 10
-257.636154
 20
46.203479
 30
0.0
 11
-251.878795
 21
51.960839
 31
0.0
  0
LINE
  8
4
 62
     2
  5
6D3
 10
-257.636154
 20
47.617693
 30
0.0
 11
-253.293008
 21
51.960839
 31
0.0
  0
LINE
  8
4
 62
     2
  5
6D4
 10
-257.636154
 20
49.031906
 30
0.0
 11
-254.707222
 21
51.960839
 31
0.0
  0
LINE
  8
4
 62
     2
  5
6D5
 10
-257.636154
 20
50.44612
 30
0.0
 11
-256.121436
 21
51.960839
 31
0.0
  0
LINE
  8
4
 62
     2
  5
6D6
 10
-257.636154
 20
51.860333
 30
0.0
 11
-257.535649
 21
51.960839
 31
0.0
  0
LINE
  8
4
  5
6D7
 10
150.011595
 20
-38.883351
 30
0.0
 11
152.374171
 21
-38.883351
 31
0.0
  0
LINE
  8
4
  5
6D8
 10
150.011595
 20
-38.253373
 30
0.0
 11
152.811686
 21
-38.6469
 31
0.0
  0
LINE
  8
4
  5
6D9
 10
152.435062
 20
-37.710341
 30
0.0
 11
150.011595
 21
-37.369745
 31
0.0
  0
LINE
  8
4
  5
6DA
 10
150.011595
 20
-37.133294
 30
0.0
 11
152.811686
 21
-37.133294
 31
0.0
  0
ARC
  8
4
  5
6DB
 10
152.374171
 20
-36.69578
 30
0.0
 40
0.437514
 50
0.0
 51
90.0
  0
ARC
  8
4
  5
6DC
 10
152.374171
 20
-38.143597
 30
0.0
 40
0.437514
 50
360.0
 51
82.0
  0
ARC
  8
4
  5
6DD
 10
152.374171
 20
-39.320865
 30
0.0
 40
0.437514
 50
0.0
 51
90.0
  0
LINE
  8
4
  5
6DE
 10
153.686714
 20
-36.258266
 30
0.0
 11
153.686714
 21
-37.133294
 31
0.0
  0
LINE
  8
4
  5
6DF
 10
153.686714
 20
-37.133294
 30
0.0
 11
154.911753
 21
-37.133294
 31
0.0
  0
LINE
  8
4
  5
6E0
 10
155.786782
 20
-36.69578
 30
0.0
 11
155.786782
 21
-37.833317
 31
0.0
  0
LINE
  8
4
  5
6E1
 10
154.911753
 20
-37.133294
 30
0.0
 11
154.911753
 21
-37.833317
 31
0.0
  0
LINE
  8
4
  5
6E2
 10
153.2492
 20
-38.883351
 30
0.0
 11
153.861719
 21
-38.883351
 31
0.0
  0
ARC
  8
4
  5
6E3
 10
153.861719
 20
-37.833317
 30
0.0
 40
1.050034
 50
270.0
 51
360.0
  0
ARC
  8
4
  5
6E4
 10
157.104689
 20
-36.78489
 30
0.0
 40
2.100068
 50
228.524141
 51
272.241513
  0
ARC
  8
4
  5
6E5
 10
157.104689
 20
-36.78489
 30
0.0
 40
2.975096
 50
232.173442
 51
271.582042
  0
LINE
  8
4
  5
6E6
 10
156.816024
 20
-37.658311
 30
0.0
 11
157.82642
 21
-37.658311
 31
0.0
  0
LINE
  8
4
  5
6E7
 10
157.624341
 20
-36.258266
 30
0.0
 11
156.816024
 21
-37.658311
 31
0.0
  0
LINE
  8
4
  5
6E8
 10
158.129539
 20
-37.133294
 30
0.0
 11
157.82642
 21
-37.658311
 31
0.0
  0
LINE
  8
4
  5
6E9
 10
158.129539
 20
-37.133294
 30
0.0
 11
158.84938
 21
-37.133294
 31
0.0
  0
ARC
  8
4
  5
6EA
 10
159.286895
 20
-36.69578
 30
0.0
 40
0.437514
 50
0.0
 51
90.0
  0
LINE
  8
4
  5
6EB
 10
157.624341
 20
-38.883351
 30
0.0
 11
157.799347
 21
-38.883351
 31
0.0
  0
ARC
  8
4
  5
6EC
 10
157.799347
 20
-37.833317
 30
0.0
 40
1.925062
 50
270.0
 51
360.0
  0
LINE
  8
4
  5
6ED
 10
158.324363
 20
-38.358334
 30
0.0
 11
158.708703
 21
-38.358334
 31
0.0
  0
LINE
  8
4
  5
6EE
 10
158.324363
 20
-37.483306
 30
0.0
 11
158.84938
 21
-37.483306
 31
0.0
  0
LINE
  8
4
  5
6EF
 10
158.324363
 20
-38.358334
 30
0.0
 11
158.324363
 21
-37.483306
 31
0.0
  0
LINE
  8
4
  5
6F0
 10
158.84938
 20
-37.133294
 30
0.0
 11
158.84938
 21
-37.483306
 31
0.0
  0
ARC
  8
4
  5
6F1
 10
157.799347
 20
-37.833317
 30
0.0
 40
1.050034
 50
270.0
 51
330.0
  0
LINE
  8
4
  5
6F2
 10
160.161923
 20
-37.133294
 30
0.0
 11
162.261991
 21
-37.133294
 31
0.0
  0
LINE
  8
4
  5
6F3
 10
160.161923
 20
-38.883351
 30
0.0
 11
161.824476
 21
-38.883351
 31
0.0
  0
ARC
  8
4
  5
6F4
 10
161.824476
 20
-36.69578
 30
0.0
 40
0.437514
 50
0.0
 51
90.0
  0
ARC
  8
4
  5
6F5
 10
161.824476
 20
-39.320865
 30
0.0
 40
0.437514
 50
0.0
 51
90.0
  0
ARC
  8
4
  5
6F6
 10
153.861719
 20
-37.833317
 30
0.0
 40
1.925062
 50
270.0
 51
317.461176
  0
ARC
  8
4
  5
6F7
 10
153.861719
 20
-37.833317
 30
0.0
 40
1.925062
 50
344.17338
 51
360.0
  0
CIRCLE
  8
4
  5
6F8
 10
156.574307
 20
-36.520774
 30
0.0
 40
0.262508
  0
CIRCLE
  8
4
  5
6F9
 10
156.04929
 20
-36.520774
 30
0.0
 40
0.262508
  0
LINE
  8
4
  5
6FA
 10
153.2492
 20
-38.883351
 30
0.0
 11
153.2492
 21
-39.758379
 31
0.0
  0
LINE
  8
4
  5
6FB
 10
157.186827
 20
-38.883351
 30
0.0
 11
157.186827
 21
-39.758379
 31
0.0
  0
LINE
  8
4
  5
6FC
 10
157.624341
 20
-38.883351
 30
0.0
 11
157.624341
 21
-39.758379
 31
0.0
  0
LINE
  8
4
  5
6FD
 10
159.724409
 20
-36.69578
 30
0.0
 11
159.724409
 21
-37.833317
 31
0.0
  0
LINE
  8
4
  5
6FE
 10
150.011595
 20
-36.258266
 30
0.0
 11
152.374171
 21
-36.258266
 31
0.0
  0
LINE
  8
4
  5
6FF
 10
153.686714
 20
-36.258266
 30
0.0
 11
155.349267
 21
-36.258266
 31
0.0
  0
LINE
  8
4
  5
700
 10
157.624341
 20
-36.258266
 30
0.0
 11
159.286895
 21
-36.258266
 31
0.0
  0
LINE
  8
4
  5
701
 10
160.161923
 20
-36.258266
 30
0.0
 11
161.824476
 21
-36.258266
 31
0.0
  0
LINE
  8
4
  5
702
 10
160.161923
 20
-39.758379
 30
0.0
 11
162.261991
 21
-39.758379
 31
0.0
  0
LINE
  8
4
  5
703
 10
157.624341
 20
-39.758379
 30
0.0
 11
157.799347
 21
-39.758379
 31
0.0
  0
LINE
  8
4
  5
704
 10
150.011595
 20
-39.758379
 30
0.0
 11
152.811686
 21
-39.758379
 31
0.0
  0
LINE
  8
4
  5
705
 10
152.811686
 20
-37.133294
 30
0.0
 11
152.811686
 21
-36.69578
 31
0.0
  0
LINE
  8
4
  5
706
 10
152.811686
 20
-39.758379
 30
0.0
 11
152.811686
 21
-39.320865
 31
0.0
  0
LINE
  8
4
  5
707
 10
152.811686
 20
-38.6469
 30
0.0
 11
152.811686
 21
-38.143597
 31
0.0
  0
LINE
  8
4
  5
708
 10
150.011595
 20
-39.758379
 30
0.0
 11
150.011595
 21
-38.883351
 31
0.0
  0
LINE
  8
4
  5
709
 10
150.011595
 20
-38.253373
 30
0.0
 11
150.011595
 21
-37.369745
 31
0.0
  0
LINE
  8
4
  5
70A
 10
150.011595
 20
-37.133294
 30
0.0
 11
150.011595
 21
-36.258266
 31
0.0
  0
LINE
  8
4
  5
70B
 10
162.261991
 20
-37.133294
 30
0.0
 11
162.261991
 21
-36.69578
 31
0.0
  0
LINE
  8
4
  5
70C
 10
160.161923
 20
-39.758379
 30
0.0
 11
160.161923
 21
-38.883351
 31
0.0
  0
LINE
  8
4
  5
70D
 10
160.161923
 20
-37.133294
 30
0.0
 11
160.161923
 21
-36.258266
 31
0.0
  0
LINE
  8
4
  5
70E
 10
153.2492
 20
-39.758379
 30
0.0
 11
153.861719
 21
-39.758379
 31
0.0
  0
LINE
  8
4
  5
70F
 10
157.006921
 20
-39.758379
 30
0.0
 11
157.186827
 21
-39.758379
 31
0.0
  0
ARC
  8
4
  5
710
 10
155.349267
 20
-36.69578
 30
0.0
 40
0.437514
 50
0.0
 51
90.0
  0
LINE
  8
4
  5
711
 10
142.136465
 20
-38.795848
 30
0.0
 11
142.136465
 21
-37.220797
 31
0.0
  0
LINE
  8
4
  5
712
 10
142.486476
 20
-37.220797
 30
0.0
 11
142.486476
 21
-38.795848
 31
0.0
  0
LINE
  8
4
  5
713
 10
142.486476
 20
-37.220797
 30
0.0
 11
142.136465
 21
-37.220797
 31
0.0
  0
LINE
  8
4
  5
714
 10
142.486476
 20
-38.795848
 30
0.0
 11
142.136465
 21
-38.795848
 31
0.0
  0
LINE
  8
4
  5
715
 10
141.247241
 20
-39.072553
 30
0.0
 11
141.073994
 21
-39.245799
 31
0.0
  0
LINE
  8
4
  5
716
 10
143.186499
 20
-37.220797
 30
0.0
 11
143.396506
 21
-37.220797
 31
0.0
  0
LINE
  8
4
  5
717
 10
142.748985
 20
-38.795848
 30
0.0
 11
143.028994
 21
-38.795848
 31
0.0
  0
LINE
  8
4
  5
718
 10
142.748985
 20
-38.795848
 30
0.0
 11
142.748985
 21
-38.515839
 31
0.0
  0
LINE
  8
4
  5
719
 10
143.396506
 20
-37.500806
 30
0.0
 11
143.396506
 21
-37.220797
 31
0.0
  0
LINE
  8
4
  5
71A
 10
143.239001
 20
-37.500806
 30
0.0
 11
143.396506
 21
-37.500806
 31
0.0
  0
LINE
  8
4
  5
71B
 10
142.888575
 20
-37.978717
 30
0.0
 11
143.107579
 21
-38.182354
 31
0.0
  0
ARC
  8
4
  5
71C
 10
143.239001
 20
-37.675812
 30
0.0
 40
0.175006
 50
90.0
 51
227.082289
  0
LINE
  8
4
  5
71D
 10
143.119831
 20
-37.803974
 30
0.0
 11
143.338835
 21
-38.007611
 31
0.0
  0
ARC
  8
4
  5
71E
 10
143.028994
 20
-38.340833
 30
0.0
 40
0.455015
 50
270.0
 51
47.082289
  0
ARC
  8
4
  5
71F
 10
142.976492
 20
-38.323333
 30
0.0
 40
0.192506
 50
270.0
 51
47.082289
  0
ARC
  8
4
  5
720
 10
143.186499
 20
-37.658311
 30
0.0
 40
0.437514
 50
90.0
 51
227.082289
  0
LINE
  8
4
  5
721
 10
142.976492
 20
-38.515839
 30
0.0
 11
142.748985
 21
-38.515839
 31
0.0
  0
LINE
  8
4
  5
722
 10
141.506445
 20
-38.172828
 30
0.0
 11
141.506445
 21
-37.220797
 31
0.0
  0
LINE
  8
4
  5
723
 10
141.821455
 20
-38.172828
 30
0.0
 11
141.821455
 21
-37.220797
 31
0.0
  0
LINE
  8
4
  5
724
 10
141.821455
 20
-37.220797
 30
0.0
 11
141.506445
 21
-37.220797
 31
0.0
  0
ARC
  8
4
  5
725
 10
141.198435
 20
-38.172828
 30
0.0
 40
0.62302
 50
190.22669
 51
360.0
  0
ARC
  8
4
  5
726
 10
141.163434
 20
-38.172828
 30
0.0
 40
0.343011
 50
190.573586
 51
360.0
  0
ARC
  8
4
  5
727
 10
142.311471
 20
-38.008322
 30
0.0
 40
1.505049
 50
225.0
 51
188.720397
  0
ARC
  8
4
  5
728
 10
142.311471
 20
-38.008322
 30
0.0
 40
1.750056
 50
225.0
 51
189.066832
  0
LINE
  8
4
  5
729
 10
164.712132
 20
-39.758379
 30
0.0
 11
164.712132
 21
-37.424971
 31
0.0
  0
LINE
  8
4
  5
72A
 10
163.312087
 20
-39.758379
 30
0.0
 11
163.312087
 21
-37.424971
 31
0.0
  0
LINE
  8
4
  5
72B
 10
162.962075
 20
-39.758379
 30
0.0
 11
163.662098
 21
-39.758379
 31
0.0
  0
LINE
  8
4
  5
72C
 10
164.362121
 20
-39.758379
 30
0.0
 11
165.062143
 21
-39.758379
 31
0.0
  0
LINE
  8
4
  5
72D
 10
140.823821
 20
-38.236507
 30
0.0
 11
140.826247
 21
-38.23577
 31
0.0
  0
LINE
  8
4
 62
     2
  5
72E
 10
142.136465
 20
-38.358334
 30
0.0
 11
142.486476
 21
-38.008322
 31
0.0
  0
LINE
  8
4
 62
     2
  5
72F
 10
142.264636
 20
-38.795848
 30
0.0
 11
142.486476
 21
-38.574008
 31
0.0
  0
LINE
  8
4
 62
     2
  5
730
 10
142.136465
 20
-37.792648
 30
0.0
 11
142.486476
 21
-37.442637
 31
0.0
  0
LINE
  8
4
 62
     2
  5
731
 10
142.142631
 20
-37.220797
 30
0.0
 11
142.136465
 21
-37.226963
 31
0.0
  0
LINE
  8
4
 62
     2
  5
732
 10
143.195453
 20
-38.764307
 30
0.0
 11
143.452467
 21
-38.507293
 31
0.0
  0
LINE
  8
4
 62
     2
  5
733
 10
142.748985
 20
-38.64509
 30
0.0
 11
142.878236
 21
-38.515839
 31
0.0
  0
LINE
  8
4
 62
     2
  5
734
 10
143.151322
 20
-38.242752
 30
0.0
 11
143.362633
 21
-38.031441
 31
0.0
  0
LINE
  8
4
 62
     2
  5
735
 10
143.396506
 20
-37.431883
 30
0.0
 11
143.327583
 21
-37.500806
 31
0.0
  0
LINE
  8
4
 62
     2
  5
736
 10
143.079831
 20
-37.748558
 30
0.0
 11
142.869028
 21
-37.959361
 31
0.0
  0
LINE
  8
4
 62
     2
  5
737
 10
142.790578
 20
-37.472126
 30
0.0
 11
143.000314
 21
-37.26239
 31
0.0
  0
LINE
  8
4
 62
     2
  5
738
 10
141.516053
 20
-39.567171
 30
0.0
 11
141.698616
 21
-39.384607
 31
0.0
  0
LINE
  8
4
 62
     2
  5
739
 10
143.687747
 20
-37.395476
 30
0.0
 11
143.870319
 21
-37.212904
 31
0.0
  0
LINE
  8
4
 62
     2
  5
73A
 10
141.932136
 20
-39.716773
 30
0.0
 11
142.142402
 21
-39.506507
 31
0.0
  0
LINE
  8
4
 62
     2
  5
73B
 10
143.809647
 20
-37.839262
 30
0.0
 11
144.019921
 21
-37.628987
 31
0.0
  0
LINE
  8
4
 62
     2
  5
73C
 10
142.462767
 20
-39.751827
 30
0.0
 11
142.768262
 21
-39.446332
 31
0.0
  0
LINE
  8
4
 62
     2
  5
73D
 10
143.749472
 20
-38.465122
 30
0.0
 11
144.054975
 21
-38.159619
 31
0.0
  0
LINE
  8
4
 62
     2
  5
73E
 10
143.408107
 20
-39.372173
 30
0.0
 11
143.675321
 21
-39.104958
 31
0.0
  0
LINE
  8
4
 62
     2
  5
73F
 10
141.176822
 20
-39.340715
 30
0.0
 11
141.350436
 21
-39.167102
 31
0.0
  0
LINE
  8
4
 62
     2
  5
740
 10
143.470242
 20
-37.047296
 30
0.0
 11
143.643864
 21
-36.873674
 31
0.0
  0
LINE
  8
4
 62
     2
  5
741
 10
141.144821
 20
-38.807031
 30
0.0
 11
141.821455
 21
-38.130397
 31
0.0
  0
LINE
  8
4
 62
     2
  5
742
 10
143.175173
 20
-36.776679
 30
0.0
 11
143.351226
 21
-36.600627
 31
0.0
  0
LINE
  8
4
 62
     2
  5
743
 10
140.758665
 20
-38.627502
 30
0.0
 11
140.947128
 21
-38.439039
 31
0.0
  0
LINE
  8
4
 62
     2
  5
744
 10
141.506445
 20
-37.879722
 30
0.0
 11
141.821455
 21
-37.564712
 31
0.0
  0
LINE
  8
4
 62
     2
  5
745
 10
142.799568
 20
-36.586599
 30
0.0
 11
142.990709
 21
-36.395458
 31
0.0
  0
LINE
  8
4
 62
     2
  5
746
 10
140.577252
 20
-38.24323
 30
0.0
 11
140.809418
 21
-38.011064
 31
0.0
  0
LINE
  8
4
 62
     2
  5
747
 10
141.506445
 20
-37.314037
 30
0.0
 11
141.599684
 21
-37.220797
 31
0.0
  0
LINE
  8
4
 62
     2
  5
748
 10
142.314204
 20
-36.506278
 30
0.0
 11
142.546378
 21
-36.274103
 31
0.0
  0
LINE
  8
4
 62
     2
  5
749
 10
140.596847
 20
-37.657949
 30
0.0
 11
141.033348
 21
-37.221448
 31
0.0
  0
LINE
  8
4
 62
     2
  5
74A
 10
141.524587
 20
-36.730209
 30
0.0
 11
141.961098
 21
-36.293698
 31
0.0
  0
LINE
  8
4
  5
74B
 10
162.261991
 20
-39.320865
 30
0.0
 11
162.261991
 21
-39.758379
 31
0.0
  0
LINE
  8
4
  5
74C
 10
146.161595
 20
-37.424971
 30
0.0
 11
145.461573
 21
-37.424971
 31
0.0
  0
LINE
  8
4
  5
74D
 10
164.712132
 20
-37.424971
 30
0.0
 11
164.012109
 21
-38.637445
 31
0.0
  0
LINE
  8
4
  5
74E
 10
163.312087
 20
-37.424971
 30
0.0
 11
164.012109
 21
-38.637445
 31
0.0
  0
LINE
  8
4
  5
74F
 10
145.811584
 20
-37.424971
 30
0.0
 11
145.811584
 21
-39.058356
 31
0.0
  0
LINE
  8
4
  5
750
 10
148.611674
 20
-37.424971
 30
0.0
 11
149.311697
 21
-37.424971
 31
0.0
  0
LINE
  8
4
  5
751
 10
147.211629
 20
-37.424971
 30
0.0
 11
146.511606
 21
-37.424971
 31
0.0
  0
LINE
  8
4
  5
752
 10
146.861618
 20
-37.424971
 30
0.0
 11
147.273061
 21
-39.758379
 31
0.0
  0
LINE
  8
4
  5
753
 10
147.273061
 20
-39.758379
 30
0.0
 11
147.911652
 21
-38.003865
 31
0.0
  0
LINE
  8
4
  5
754
 10
148.550243
 20
-39.758379
 30
0.0
 11
147.911652
 21
-38.003865
 31
0.0
  0
LINE
  8
4
  5
755
 10
148.961686
 20
-37.424971
 30
0.0
 11
148.550243
 21
-39.758379
 31
0.0
  0
ARC
  8
4
  5
756
 10
145.111561
 20
-39.058356
 30
0.0
 40
0.700023
 50
180.0
 51
360.0
  0
LINE
  8
4
  5
757
 10
140.561414
 20
-35.258234
 30
0.0
 11
164.562189
 21
-35.258234
 31
0.0
  0
LINE
  8
4
  5
758
 10
140.561414
 20
-40.758411
 30
0.0
 11
164.562189
 21
-40.758411
 31
0.0
  0
POINT
  8
4
  5
759
 10
142.311471
 20
-38.008322
 30
0.0
  0
LINE
  8
4
  5
75A
 10
139.561382
 20
-39.758379
 30
0.0
 11
139.561382
 21
-36.258266
 31
0.0
  0
LINE
  8
4
  5
75B
 10
165.562221
 20
-39.758379
 30
0.0
 11
165.562221
 21
-36.258266
 31
0.0
  0
LINE
  8
4
 62
     2
  5
75C
 10
152.592928
 20
-37.133294
 30
0.0
 11
152.811686
 21
-36.914537
 31
0.0
  0
LINE
  8
4
 62
     2
  5
75D
 10
152.027243
 20
-37.133294
 30
0.0
 11
152.7255
 21
-36.435037
 31
0.0
  0
LINE
  8
4
 62
     2
  5
75E
 10
151.461558
 20
-37.133294
 30
0.0
 11
152.336586
 21
-36.258266
 31
0.0
  0
LINE
  8
4
 62
     2
  5
75F
 10
150.895872
 20
-37.133294
 30
0.0
 11
151.7709
 21
-36.258266
 31
0.0
  0
LINE
  8
4
 62
     2
  5
760
 10
150.330187
 20
-37.133294
 30
0.0
 11
151.205215
 21
-36.258266
 31
0.0
  0
LINE
  8
4
 62
     2
  5
761
 10
150.011595
 20
-36.8862
 30
0.0
 11
150.63953
 21
-36.258266
 31
0.0
  0
LINE
  8
4
 62
     2
  5
762
 10
150.011595
 20
-36.320515
 30
0.0
 11
150.073844
 21
-36.258266
 31
0.0
  0
LINE
  8
4
 62
     2
  5
763
 10
152.024642
 20
-38.536288
 30
0.0
 11
152.704367
 21
-37.856562
 31
0.0
  0
LINE
  8
4
 62
     2
  5
764
 10
152.811686
 20
-38.31493
 30
0.0
 11
152.520622
 21
-38.605993
 31
0.0
  0
LINE
  8
4
 62
     2
  5
765
 10
151.528662
 20
-38.466583
 30
0.0
 11
152.303406
 21
-37.691838
 31
0.0
  0
LINE
  8
4
 62
     2
  5
766
 10
151.032682
 20
-38.396877
 30
0.0
 11
151.807426
 21
-37.622133
 31
0.0
  0
LINE
  8
4
 62
     2
  5
767
 10
150.536702
 20
-38.327172
 30
0.0
 11
151.311446
 21
-37.552427
 31
0.0
  0
LINE
  8
4
 62
     2
  5
768
 10
150.040722
 20
-38.257466
 30
0.0
 11
150.815466
 21
-37.482722
 31
0.0
  0
LINE
  8
4
 62
     2
  5
769
 10
150.011595
 20
-37.720908
 30
0.0
 11
150.319486
 21
-37.413016
 31
0.0
  0
LINE
  8
4
 62
     2
  5
76A
 10
151.936657
 20
-39.758379
 30
0.0
 11
152.683541
 21
-39.011496
 31
0.0
  0
LINE
  8
4
 62
     2
  5
76B
 10
152.811686
 20
-39.449036
 30
0.0
 11
152.502343
 21
-39.758379
 31
0.0
  0
LINE
  8
4
 62
     2
  5
76C
 10
151.370972
 20
-39.758379
 30
0.0
 11
152.246
 21
-38.883351
 31
0.0
  0
LINE
  8
4
 62
     2
  5
76D
 10
150.805286
 20
-39.758379
 30
0.0
 11
151.680315
 21
-38.883351
 31
0.0
  0
LINE
  8
4
 62
     2
  5
76E
 10
150.239601
 20
-39.758379
 30
0.0
 11
151.114629
 21
-38.883351
 31
0.0
  0
LINE
  8
4
 62
     2
  5
76F
 10
150.011595
 20
-39.420699
 30
0.0
 11
150.548944
 21
-38.883351
 31
0.0
  0
LINE
  8
4
 62
     2
  5
770
 10
154.911753
 20
-37.133294
 30
0.0
 11
155.658637
 21
-36.386411
 31
0.0
  0
LINE
  8
4
 62
     2
  5
771
 10
153.2492
 20
-39.361533
 30
0.0
 11
153.727382
 21
-38.883351
 31
0.0
  0
LINE
  8
4
 62
     2
  5
772
 10
154.911753
 20
-37.69898
 30
0.0
 11
155.786782
 21
-36.823951
 31
0.0
  0
LINE
  8
4
 62
     2
  5
773
 10
153.418039
 20
-39.758379
 30
0.0
 11
154.550813
 21
-38.625606
 31
0.0
  0
LINE
  8
4
 62
     2
  5
774
 10
154.654008
 20
-38.52241
 30
0.0
 11
155.786782
 21
-37.389637
 31
0.0
  0
LINE
  8
4
 62
     2
  5
775
 10
153.987862
 20
-39.754242
 30
0.0
 11
155.782644
 21
-37.95946
 31
0.0
  0
LINE
  8
4
 62
     2
  5
776
 10
154.785588
 20
-39.522202
 30
0.0
 11
155.843618
 21
-38.464171
 31
0.0
  0
LINE
  8
4
 62
     2
  5
777
 10
155.551315
 20
-39.322159
 30
0.0
 11
156.19552
 21
-38.677955
 31
0.0
  0
LINE
  8
4
 62
     2
  5
778
 10
155.923784
 20
-39.515376
 30
0.0
 11
156.612656
 21
-38.826504
 31
0.0
  0
LINE
  8
4
 62
     2
  5
779
 10
156.344042
 20
-39.660804
 30
0.0
 11
157.119943
 21
-38.884902
 31
0.0
  0
LINE
  8
4
 62
     2
  5
77A
 10
156.824198
 20
-39.746333
 30
0.0
 11
157.186827
 21
-39.383704
 31
0.0
  0
LINE
  8
4
 62
     2
  5
77B
 10
155.221096
 20
-36.258266
 30
0.0
 11
154.346068
 21
-37.133294
 31
0.0
  0
LINE
  8
4
 62
     2
  5
77C
 10
154.655411
 20
-36.258266
 30
0.0
 11
153.780382
 21
-37.133294
 31
0.0
  0
LINE
  8
4
 62
     2
  5
77D
 10
154.089725
 20
-36.258266
 30
0.0
 11
153.686714
 21
-36.661277
 31
0.0
  0
LINE
  8
4
 62
     2
  5
77E
 10
155.786782
 20
-36.520774
 30
0.0
 11
156.04929
 21
-36.258266
 31
0.0
  0
LINE
  8
4
 62
     2
  5
77F
 10
156.093751
 20
-36.77949
 30
0.0
 11
156.308006
 21
-36.565236
 31
0.0
  0
LINE
  8
4
 62
     2
  5
780
 10
156.311799
 20
-36.520774
 30
0.0
 11
156.574307
 21
-36.258266
 31
0.0
  0
LINE
  8
4
 62
     2
  5
781
 10
156.618768
 20
-36.77949
 30
0.0
 11
156.833023
 21
-36.565236
 31
0.0
  0
LINE
  8
4
 62
     2
  5
782
 10
161.386962
 20
-37.133294
 30
0.0
 11
162.133846
 21
-36.386411
 31
0.0
  0
LINE
  8
4
 62
     2
  5
783
 10
161.952648
 20
-37.133294
 30
0.0
 11
162.261991
 21
-36.823951
 31
0.0
  0
LINE
  8
4
 62
     2
  5
784
 10
161.696305
 20
-36.258266
 30
0.0
 11
160.821277
 21
-37.133294
 31
0.0
  0
LINE
  8
4
 62
     2
  5
785
 10
161.13062
 20
-36.258266
 30
0.0
 11
160.255591
 21
-37.133294
 31
0.0
  0
LINE
  8
4
 62
     2
  5
786
 10
160.564934
 20
-36.258266
 30
0.0
 11
160.161923
 21
-36.661277
 31
0.0
  0
LINE
  8
4
 62
     2
  5
787
 10
161.386962
 20
-39.758379
 30
0.0
 11
162.133846
 21
-39.011496
 31
0.0
  0
LINE
  8
4
 62
     2
  5
788
 10
162.261991
 20
-39.449036
 30
0.0
 11
161.952648
 21
-39.758379
 31
0.0
  0
LINE
  8
4
 62
     2
  5
789
 10
160.821277
 20
-39.758379
 30
0.0
 11
161.696305
 21
-38.883351
 31
0.0
  0
LINE
  8
4
 62
     2
  5
78A
 10
160.255591
 20
-39.758379
 30
0.0
 11
161.13062
 21
-38.883351
 31
0.0
  0
LINE
  8
4
 62
     2
  5
78B
 10
160.161923
 20
-39.286362
 30
0.0
 11
160.564934
 21
-38.883351
 31
0.0
  0
LINE
  8
4
 62
     2
  5
78C
 10
158.324363
 20
-37.658311
 30
0.0
 11
158.499369
 21
-37.483306
 31
0.0
  0
LINE
  8
4
 62
     2
  5
78D
 10
158.84938
 20
-37.133294
 30
0.0
 11
159.596264
 21
-36.386411
 31
0.0
  0
LINE
  8
4
 62
     2
  5
78E
 10
157.624341
 20
-38.924019
 30
0.0
 11
157.665009
 21
-38.883351
 31
0.0
  0
LINE
  8
4
 62
     2
  5
78F
 10
158.324363
 20
-38.223997
 30
0.0
 11
159.724409
 21
-36.823951
 31
0.0
  0
LINE
  8
4
 62
     2
  5
790
 10
157.624341
 20
-39.489705
 30
0.0
 11
158.48844
 21
-38.625606
 31
0.0
  0
LINE
  8
4
 62
     2
  5
791
 10
158.591635
 20
-38.52241
 30
0.0
 11
159.724409
 21
-37.389637
 31
0.0
  0
LINE
  8
4
 62
     2
  5
792
 10
157.925489
 20
-39.754242
 30
0.0
 11
159.720271
 21
-37.95946
 31
0.0
  0
LINE
  8
4
 62
     2
  5
793
 10
158.723215
 20
-39.522202
 30
0.0
 11
159.488231
 21
-38.757185
 31
0.0
  0
LINE
  8
4
 62
     2
  5
794
 10
157.758678
 20
-37.658311
 30
0.0
 11
157.918957
 21
-37.498032
 31
0.0
  0
LINE
  8
4
 62
     2
  5
795
 10
158.283695
 20
-37.133294
 30
0.0
 11
159.158723
 21
-36.258266
 31
0.0
  0
LINE
  8
4
 62
     2
  5
796
 10
157.192993
 20
-37.658311
 30
0.0
 11
158.593038
 21
-36.258266
 31
0.0
  0
LINE
  8
4
 62
     2
  5
797
 10
157.073817
 20
-37.211801
 30
0.0
 11
158.027352
 21
-36.258266
 31
0.0
  0
ARC
  8
4
  5
798
 10
140.561414
 20
-36.258266
 30
0.0
 40
1.000032
 50
90.0
 51
180.0
  0
ARC
  8
4
  5
799
 10
140.561414
 20
-39.758379
 30
0.0
 40
1.000032
 50
180.0
 51
270.0
  0
ARC
  8
4
  5
79A
 10
164.562189
 20
-36.258266
 30
0.0
 40
1.000032
 50
0.0
 51
90.0
  0
ARC
  8
4
  5
79B
 10
164.562189
 20
-39.758379
 30
0.0
 40
1.000032
 50
270.0
 51
360.0
  0
LINE
  8
4
  5
79C
 10
316.630437
 20
-29.187543
 30
0.0
 11
316.630437
 21
-41.187543
 31
0.0
  0
TEXT
  8
4
  5
79D
 10
357.925385
 20
-240.051102
 30
0.0
 40
7.0
  1
小野　山中
 72
     5
 11
391.525385
 21
-240.051102
 31
0.0
  0
POINT
  8
4
  5
79E
 10
103.771976
 20
-17.698483
 30
0.0
  0
LINE
  8
4
  5
79F
 10
88.771976
 20
-20.698483
 30
0.0
 11
88.771976
 21
-39.698483
 31
0.0
  0
LINE
  8
4
  5
7A0
 10
91.771976
 20
-17.698483
 30
0.0
 11
115.771976
 21
-17.698483
 31
0.0
  0
ARC
  8
4
  5
7A1
 10
91.771976
 20
-20.698483
 30
0.0
 40
3.0
 50
90.0
 51
180.0
  0
LINE
  8
4
  5
7A2
 10
118.771976
 20
-20.698483
 30
0.0
 11
118.771976
 21
-39.698483
 31
0.0
  0
LINE
  8
4
  5
7A3
 10
91.771976
 20
-42.698483
 30
0.0
 11
115.771976
 21
-42.698483
 31
0.0
  0
ARC
  8
4
  5
7A4
 10
115.771976
 20
-20.698483
 30
0.0
 40
3.0
 50
0.0
 51
90.0
  0
ARC
  8
4
  5
7A5
 10
115.771976
 20
-39.698483
 30
0.0
 40
3.0
 50
270.0
 51
360.0
  0
ARC
  8
4
  5
7A6
 10
91.771976
 20
-39.698483
 30
0.0
 40
3.0
 50
180.0
 51
270.0
  0
POINT
  8
4
  5
7A7
 10
103.771976
 20
-17.698483
 30
0.0
  0
TEXT
  8
4
  5
7A8
 10
131.470979
 20
-6.422275
 30
0.0
 40
7.0
  1
（節湯Ｃ１表示）
 72
     5
 11
186.070979
 21
-6.422275
 31
0.0
  0
LINE
  8
4
  5
7A9
 10
144.045547
 20
25.347134
 30
0.0
 11
144.045547
 21
6.347134
 31
0.0
  0
LINE
  8
4
  5
7AA
 10
147.045547
 20
28.347134
 30
0.0
 11
171.045547
 21
28.347134
 31
0.0
  0
ARC
  8
4
  5
7AB
 10
147.045547
 20
25.347134
 30
0.0
 40
3.0
 50
90.0
 51
180.0
  0
LINE
  8
4
  5
7AC
 10
174.045547
 20
25.347134
 30
0.0
 11
174.045547
 21
6.347134
 31
0.0
  0
LINE
  8
4
  5
7AD
 10
147.045547
 20
3.347134
 30
0.0
 11
171.045547
 21
3.347134
 31
0.0
  0
ARC
  8
4
  5
7AE
 10
171.045547
 20
25.347134
 30
0.0
 40
3.0
 50
0.0
 51
90.0
  0
ARC
  8
4
  5
7AF
 10
171.045547
 20
6.347134
 30
0.0
 40
3.0
 50
270.0
 51
360.0
  0
ARC
  8
4
  5
7B0
 10
147.045547
 20
6.347134
 30
0.0
 40
3.0
 50
180.0
 51
270.0
  0
LINE
  8
4
  5
7B1
 10
162.32517
 20
25.057377
 30
0.0
 11
161.136448
 21
18.024805
 31
0.0
  0
LINE
  8
4
  5
7B2
 10
157.570284
 20
25.057377
 30
0.0
 11
158.759005
 21
18.024805
 31
0.0
  0
ARC
  8
4
  5
7B3
 10
159.947727
 20
25.459238
 30
0.0
 40
2.411168
 50
350.405932
 51
189.594068
  0
ARC
  8
4
  5
7B4
 10
159.947727
 20
18.225736
 30
0.0
 40
1.205584
 50
189.594068
 51
350.405932
  0
LINE
  8
4
  6
DASHED
  5
7B5
 10
157.017487
 20
26.164676
 30
0.0
 11
152.914958
 21
22.771485
 31
0.0
  0
ARC
  8
4
  6
DASHED
  5
7B6
 10
153.68333
 20
21.842487
 30
0.0
 40
1.205584
 50
129.594068
 51
290.405932
  0
LINE
  8
4
  6
DASHED
  5
7B7
 10
157.480978
 20
21.968963
 30
0.0
 11
154.10368
 21
20.712559
 31
0.0
  0
LINE
  8
4
  6
DASHED
  5
7B8
 10
162.853198
 20
24.564483
 30
0.0
 11
164.694407
 21
19.615191
 31
0.0
  0
ARC
  8
4
  6
DASHED
  5
7B9
 10
163.564478
 20
19.194841
 30
0.0
 40
1.205584
 50
219.594068
 51
20.405932
  0
LINE
  8
4
  6
DASHED
  5
7BA
 10
161.954794
 20
19.249451
 30
0.0
 11
162.63548
 21
18.42647
 31
0.0
  0
ARC
  8
4
  5
7BB
 10
159.947727
 20
25.459238
 30
0.0
 40
10.946661
 50
270.0
 51
300.0
  0
ARC
  8
4
  5
7BC
 10
159.947727
 20
25.459238
 30
0.0
 40
9.741077
 50
270.0
 51
300.0
  0
CIRCLE
  8
4
  5
7BD
 10
150.989673
 20
20.287304
 30
0.0
 40
0.602792
  0
ARC
  8
4
  5
7BE
 10
165.119661
 20
16.501185
 30
0.0
 40
0.602792
 50
300.0
 51
120.0
  0
ARC
  8
4
  5
7BF
 10
159.947727
 20
15.115369
 30
0.0
 40
0.602792
 50
90.0
 51
270.0
  0
ARC
  8
4
  5
7C0
 10
159.947727
 20
25.459238
 30
0.0
 40
9.741077
 50
218.34082
 51
261.65918
  0
ARC
  8
4
  5
7C1
 10
159.947727
 20
25.459238
 30
0.0
 40
10.946661
 50
218.34082
 51
261.65918
  0
ARC
  8
4
  5
7C2
 10
151.834672
 20
19.042543
 30
0.0
 40
0.602792
 50
38.34082
 51
218.34082
  0
ARC
  8
4
  5
7C3
 10
158.447233
 20
15.224779
 30
0.0
 40
0.602792
 50
261.65918
 51
81.65918
  0
TEXT
  8
4
  5
7C4
 10
148.846586
 20
4.53572
 30
0.0
 40
1.75
  1
レバー正面で　　が出ます
 72
     5
 11
169.496586
 21
4.53572
 31
0.0
  0
TEXT
  8
4
  5
7C5
 10
164.433008
 20
7.581366
 30
0.0
 40
1.75
  1
でお知らせ
 72
     5
 11
172.833008
 21
7.581366
 31
0.0
  0
TEXT
  8
4
  5
7C6
 10
152.207151
 20
7.050229
 30
0.0
 40
3.15
  1
クリック
 72
     5
 11
164.177151
 21
7.050229
 31
0.0
  0
TEXT
  8
4
  5
7C7
 10
159.605721
 20
3.86605
 30
0.0
 40
3.15
  1
水
 72
     5
 11
162.125721
 21
3.86605
 31
0.0
  0
LINE
  8
4
  5
7C8
 10
159.947727
 20
14.211181
 30
0.0
 11
160.632881
 21
13.024459
 31
0.0
  0
LINE
  8
4
  5
7C9
 10
159.947727
 20
14.211181
 30
0.0
 11
159.262573
 21
13.024459
 31
0.0
  0
LINE
  8
4
  5
7CA
 10
157.994522
 20
14.382065
 30
0.0
 11
157.113705
 21
13.332347
 31
0.0
  0
LINE
  8
4
  5
7CB
 10
157.994522
 20
14.382065
 30
0.0
 11
158.463195
 21
13.094396
 31
0.0
  0
LINE
  8
4
  5
7CC
 10
157.113705
 20
13.332347
 30
0.0
 11
158.463195
 21
13.094396
 31
0.0
  0
LINE
  8
4
  5
7CD
 10
159.262573
 20
13.024459
 30
0.0
 11
160.632881
 21
13.024459
 31
0.0
  0
TEXT
  8
4
  5
7CE
 10
145.492151
 20
10.713378
 30
0.0
 40
1.75
  1
湯の出始める位置を
 72
     5
 11
160.892151
 21
10.713378
 31
0.0
  0
LINE
  8
4
 62
     2
  5
7CF
 10
164.983829
 20
17.088473
 30
0.0
 11
162.780931
 21
14.885576
 31
0.0
  0
LINE
  8
4
 62
     2
  5
7D0
 10
165.264512
 20
17.086314
 30
0.0
 11
163.178352
 21
15.000154
 31
0.0
  0
LINE
  8
4
 62
     2
  5
7D1
 10
165.45985
 20
16.998809
 30
0.0
 11
163.601341
 21
15.1403
 31
0.0
  0
LINE
  8
4
 62
     2
  5
7D2
 10
165.603966
 20
16.860082
 30
0.0
 11
164.057044
 21
15.31316
 31
0.0
  0
LINE
  8
4
 62
     2
  5
7D3
 10
165.697968
 20
16.671242
 30
0.0
 11
164.557033
 21
15.530307
 31
0.0
  0
LINE
  8
4
 62
     2
  5
7D4
 10
165.714761
 20
16.405192
 30
0.0
 11
165.122515
 21
15.812946
 31
0.0
  0
LINE
  8
4
 62
     2
  5
7D5
 10
164.415869
 20
16.803356
 30
0.0
 11
162.404293
 21
14.79178
 31
0.0
  0
LINE
  8
4
 62
     2
  5
7D6
 10
163.874263
 20
16.544593
 30
0.0
 11
162.045042
 21
14.715372
 31
0.0
  0
LINE
  8
4
 62
     2
  5
7D7
 10
163.395585
 20
16.348757
 30
0.0
 11
161.70067
 21
14.653842
 31
0.0
  0
LINE
  8
4
 62
     2
  5
7D8
 10
162.9594
 20
16.195416
 30
0.0
 11
161.369254
 21
14.605269
 31
0.0
  0
LINE
  8
4
 62
     2
  5
7D9
 10
162.554605
 20
16.073463
 30
0.0
 11
161.049285
 21
14.568143
 31
0.0
  0
LINE
  8
4
 62
     2
  5
7DA
 10
162.174358
 20
15.976058
 30
0.0
 11
160.739552
 21
14.541253
 31
0.0
  0
LINE
  8
4
 62
     2
  5
7DB
 10
161.814083
 20
15.898626
 30
0.0
 11
160.439066
 21
14.52361
 31
0.0
  0
LINE
  8
4
 62
     2
  5
7DC
 10
161.470541
 20
15.837927
 30
0.0
 11
160.147005
 21
14.514391
 31
0.0
  0
LINE
  8
4
 62
     2
  5
7DD
 10
161.141337
 20
15.791566
 30
0.0
 11
159.867686
 21
14.517915
 31
0.0
  0
LINE
  8
4
 62
     2
  5
7DE
 10
160.824641
 20
15.757712
 30
0.0
 11
159.655228
 21
14.588299
 31
0.0
  0
LINE
  8
4
 62
     2
  5
7DF
 10
160.519013
 20
15.734928
 30
0.0
 11
159.498037
 21
14.713951
 31
0.0
  0
LINE
  8
4
 62
     2
  5
7E0
 10
160.223303
 20
15.72206
 30
0.0
 11
159.389398
 21
14.888155
 31
0.0
  0
LINE
  8
4
 62
     2
  5
7E1
 10
159.34504
 20
15.12664
 30
0.0
 11
159.936456
 21
15.718056
 31
0.0
  0
LINE
  8
4
 62
     2
  5
7E2
 10
159.696943
 20
13.024459
 30
0.0
 11
160.290304
 21
13.61782
 31
0.0
  0
LINE
  8
4
 62
     2
  5
7E3
 10
159.979786
 20
13.024459
 30
0.0
 11
160.393832
 21
13.438505
 31
0.0
  0
LINE
  8
4
 62
     2
  5
7E4
 10
160.262628
 20
13.024459
 30
0.0
 11
160.497359
 21
13.25919
 31
0.0
  0
LINE
  8
4
 62
     2
  5
7E5
 10
160.545471
 20
13.024459
 30
0.0
 11
160.600887
 21
13.079875
 31
0.0
  0
LINE
  8
4
 62
     2
  5
7E6
 10
159.4141
 20
13.024459
 30
0.0
 11
160.186776
 21
13.797135
 31
0.0
  0
LINE
  8
4
 62
     2
  5
7E7
 10
159.441952
 20
13.335154
 30
0.0
 11
160.083249
 21
13.97645
 31
0.0
  0
LINE
  8
4
 62
     2
  5
7E8
 10
159.828323
 20
14.004367
 30
0.0
 11
159.979721
 21
14.155766
 31
0.0
  0
LINE
  8
4
 62
     2
  5
7E9
 10
157.716659
 20
13.22603
 30
0.0
 11
158.228859
 21
13.73823
 31
0.0
  0
LINE
  8
4
 62
     2
  5
7EA
 10
157.957105
 20
13.183633
 30
0.0
 11
158.304334
 21
13.530863
 31
0.0
  0
LINE
  8
4
 62
     2
  5
7EB
 10
158.19755
 20
13.141236
 30
0.0
 11
158.37981
 21
13.323496
 31
0.0
  0
LINE
  8
4
 62
     2
  5
7EC
 10
158.437996
 20
13.098839
 30
0.0
 11
158.455285
 21
13.116128
 31
0.0
  0
LINE
  8
4
 62
     2
  5
7ED
 10
157.476213
 20
13.268427
 30
0.0
 11
158.153383
 21
13.945597
 31
0.0
  0
LINE
  8
4
 62
     2
  5
7EE
 10
157.235768
 20
13.310824
 30
0.0
 11
158.077908
 21
14.152965
 31
0.0
  0
LINE
  8
4
 62
     2
  5
7EF
 10
157.839934
 20
14.197833
 30
0.0
 11
158.002432
 21
14.360332
 31
0.0
  0
LINE
  8
4
 62
     2
  5
7F0
 10
155.360902
 20
16.865658
 30
0.0
 11
154.474396
 21
15.979152
 31
0.0
  0
LINE
  8
4
 62
     2
  5
7F1
 10
155.546984
 20
16.768896
 30
0.0
 11
154.655152
 21
15.877065
 31
0.0
  0
LINE
  8
4
 62
     2
  5
7F2
 10
155.736449
 20
16.675519
 30
0.0
 11
154.838822
 21
15.777892
 31
0.0
  0
LINE
  8
4
 62
     2
  5
7F3
 10
155.929374
 20
16.585602
 30
0.0
 11
155.025454
 21
15.681681
 31
0.0
  0
LINE
  8
4
 62
     2
  5
7F4
 10
156.125843
 20
16.499228
 30
0.0
 11
155.215105
 21
15.58849
 31
0.0
  0
LINE
  8
4
 62
     2
  5
7F5
 10
156.325948
 20
16.41649
 30
0.0
 11
155.407835
 21
15.498377
 31
0.0
  0
LINE
  8
4
 62
     2
  5
7F6
 10
156.529791
 20
16.33749
 30
0.0
 11
155.603709
 21
15.411408
 31
0.0
  0
LINE
  8
4
 62
     2
  5
7F7
 10
156.737484
 20
16.262341
 30
0.0
 11
155.802799
 21
15.327656
 31
0.0
  0
LINE
  8
4
 62
     2
  5
7F8
 10
156.949153
 20
16.191167
 30
0.0
 11
156.005185
 21
15.247199
 31
0.0
  0
LINE
  8
4
 62
     2
  5
7F9
 10
157.164937
 20
16.124108
 30
0.0
 11
156.210952
 21
15.170123
 31
0.0
  0
LINE
  8
4
 62
     2
  5
7FA
 10
157.384987
 20
16.061315
 30
0.0
 11
156.420193
 21
15.096522
 31
0.0
  0
LINE
  8
4
 62
     2
  5
7FB
 10
157.609476
 20
16.002962
 30
0.0
 11
156.633013
 21
15.026498
 31
0.0
  0
LINE
  8
4
 62
     2
  5
7FC
 10
157.838593
 20
15.949236
 30
0.0
 11
156.849523
 21
14.960166
 31
0.0
  0
LINE
  8
4
 62
     2
  5
7FD
 10
158.072552
 20
15.900352
 30
0.0
 11
157.069848
 21
14.897648
 31
0.0
  0
LINE
  8
4
 62
     2
  5
7FE
 10
158.311591
 20
15.856549
 30
0.0
 11
157.294122
 21
14.83908
 31
0.0
  0
LINE
  8
4
 62
     2
  5
7FF
 10
158.55563
 20
15.817745
 30
0.0
 11
157.522497
 21
14.784612
 31
0.0
  0
LINE
  8
4
 62
     2
  5
800
 10
158.760503
 20
15.739775
 30
0.0
 11
157.755138
 21
14.73441
 31
0.0
  0
LINE
  8
4
 62
     2
  5
801
 10
158.912096
 20
15.608525
 30
0.0
 11
157.992228
 21
14.688657
 31
0.0
  0
LINE
  8
4
 62
     2
  5
802
 10
159.014651
 20
15.428237
 30
0.0
 11
158.233972
 21
14.647558
 31
0.0
  0
LINE
  8
4
 62
     2
  5
803
 10
158.492982
 20
14.623726
 30
0.0
 11
159.048287
 21
15.17903
 31
0.0
  0
LINE
  8
4
 62
     2
  5
804
 10
155.178137
 20
16.965735
 30
0.0
 11
154.296508
 21
16.084106
 31
0.0
  0
LINE
  8
4
 62
     2
  5
805
 10
154.998626
 20
17.069066
 30
0.0
 11
154.121445
 21
16.191886
 31
0.0
  0
LINE
  8
4
 62
     2
  5
806
 10
154.822313
 20
17.175597
 30
0.0
 11
153.94917
 21
16.302454
 31
0.0
  0
LINE
  8
4
 62
     2
  5
807
 10
154.649149
 20
17.285276
 30
0.0
 11
153.77965
 21
16.415776
 31
0.0
  0
LINE
  8
4
 62
     2
  5
808
 10
154.479091
 20
17.398059
 30
0.0
 11
153.612853
 21
16.531822
 31
0.0
  0
LINE
  8
4
 62
     2
  5
809
 10
154.312097
 20
17.513909
 30
0.0
 11
153.448753
 21
16.650565
 31
0.0
  0
LINE
  8
4
 62
     2
  5
80A
 10
154.148134
 20
17.632789
 30
0.0
 11
153.287326
 21
16.77198
 31
0.0
  0
LINE
  8
4
 62
     2
  5
80B
 10
153.987173
 20
17.75467
 30
0.0
 11
153.128551
 21
16.896048
 31
0.0
  0
LINE
  8
4
 62
     2
  5
80C
 10
153.829186
 20
17.879526
 30
0.0
 11
152.97241
 21
17.02275
 31
0.0
  0
LINE
  8
4
 62
     2
  5
80D
 10
153.674153
 20
18.007335
 30
0.0
 11
152.818888
 21
17.15207
 31
0.0
  0
LINE
  8
4
 62
     2
  5
80E
 10
153.522056
 20
18.138081
 30
0.0
 11
152.667972
 21
17.283998
 31
0.0
  0
LINE
  8
4
 62
     2
  5
80F
 10
153.372882
 20
18.271749
 30
0.0
 11
152.519654
 21
17.418522
 31
0.0
  0
LINE
  8
4
 62
     2
  5
810
 10
153.22662
 20
18.40833
 30
0.0
 11
152.373926
 21
17.555636
 31
0.0
  0
LINE
  8
4
 62
     2
  5
811
 10
153.083264
 20
18.547817
 30
0.0
 11
152.230783
 21
17.695337
 31
0.0
  0
LINE
  8
4
 62
     2
  5
812
 10
152.942813
 20
18.690209
 30
0.0
 11
152.090225
 21
17.837621
 31
0.0
  0
LINE
  8
4
 62
     2
  5
813
 10
152.805266
 20
18.835505
 30
0.0
 11
151.952251
 21
17.98249
 31
0.0
  0
LINE
  8
4
 62
     2
  5
814
 10
152.67063
 20
18.983711
 30
0.0
 11
151.816866
 21
18.129948
 31
0.0
  0
LINE
  8
4
 62
     2
  5
815
 10
152.538912
 20
19.134837
 30
0.0
 11
151.684076
 21
18.28
 31
0.0
  0
LINE
  8
4
 62
     2
  5
816
 10
152.410126
 20
19.288893
 30
0.0
 11
151.553889
 21
18.432655
 31
0.0
  0
LINE
  8
4
 62
     2
  5
817
 10
152.284287
 20
19.445897
 30
0.0
 11
152.283413
 21
19.445023
 31
0.0
  0
LINE
  8
4
 62
     2
  5
818
 10
152.283413
 20
19.445023
 30
0.0
 11
151.426316
 21
18.587925
 31
0.0
  0
LINE
  8
4
 62
     2
  5
819
 10
151.306886
 20
18.751339
 30
0.0
 11
152.125877
 21
19.570329
 31
0.0
  0
LINE
  8
4
 62
     2
  5
81A
 10
151.236983
 20
18.964278
 30
0.0
 11
151.912938
 21
19.640233
 31
0.0
  0
LINE
  8
4
 62
     2
  5
81B
 10
151.289417
 20
19.299555
 30
0.0
 11
151.57766
 21
19.587798
 31
0.0
  0
LINE
  8
4
 62
     2
  5
81C
 10
150.386882
 20
20.287304
 30
0.0
 11
150.989673
 21
20.890096
 31
0.0
  0
LINE
  8
4
 62
     2
  5
81D
 10
150.43462
 20
20.0522
 30
0.0
 11
151.224777
 21
20.842357
 31
0.0
  0
LINE
  8
4
 62
     2
  5
81E
 10
150.545286
 20
19.880023
 30
0.0
 11
151.396954
 21
20.731691
 31
0.0
  0
LINE
  8
4
 62
     2
  5
81F
 10
150.704396
 20
19.75629
 30
0.0
 11
151.520687
 21
20.572581
 31
0.0
  0
LINE
  8
4
 62
     2
  5
820
 10
150.919553
 20
19.688604
 30
0.0
 11
151.588373
 21
20.357424
 31
0.0
  0
LINE
  8
4
 62
     2
  5
821
 10
151.264702
 20
19.750911
 30
0.0
 11
151.526066
 21
20.012275
 31
0.0
  0
LINE
  8
4
 62
     2
  5
822
 10
93.771976
 20
-42.698483
 30
0.0
 11
117.893297
 21
-18.577163
 31
0.0
  0
LINE
  8
4
 62
     2
  5
823
 10
95.18619
 20
-42.698483
 30
0.0
 11
118.479083
 21
-19.40559
 31
0.0
  0
LINE
  8
4
 62
     2
  5
824
 10
96.600404
 20
-42.698483
 30
0.0
 11
118.767329
 21
-20.531558
 31
0.0
  0
LINE
  8
4
 62
     2
  5
825
 10
118.771976
 20
-21.941124
 30
0.0
 11
98.014617
 21
-42.698483
 31
0.0
  0
LINE
  8
4
 62
     2
  5
826
 10
118.771976
 20
-23.355338
 30
0.0
 11
99.428831
 21
-42.698483
 31
0.0
  0
LINE
  8
4
 62
     2
  5
827
 10
118.771976
 20
-24.769551
 30
0.0
 11
100.843044
 21
-42.698483
 31
0.0
  0
LINE
  8
4
 62
     2
  5
828
 10
118.771976
 20
-26.183765
 30
0.0
 11
102.257258
 21
-42.698483
 31
0.0
  0
LINE
  8
4
 62
     2
  5
829
 10
118.771976
 20
-27.597978
 30
0.0
 11
103.671471
 21
-42.698483
 31
0.0
  0
LINE
  8
4
 62
     2
  5
82A
 10
118.771976
 20
-29.012192
 30
0.0
 11
105.085685
 21
-42.698483
 31
0.0
  0
LINE
  8
4
 62
     2
  5
82B
 10
118.771976
 20
-30.426405
 30
0.0
 11
106.499899
 21
-42.698483
 31
0.0
  0
LINE
  8
4
 62
     2
  5
82C
 10
118.771976
 20
-31.840619
 30
0.0
 11
107.914112
 21
-42.698483
 31
0.0
  0
LINE
  8
4
 62
     2
  5
82D
 10
118.771976
 20
-33.254833
 30
0.0
 11
109.328326
 21
-42.698483
 31
0.0
  0
LINE
  8
4
 62
     2
  5
82E
 10
118.771976
 20
-34.669046
 30
0.0
 11
110.742539
 21
-42.698483
 31
0.0
  0
LINE
  8
4
 62
     2
  5
82F
 10
118.771976
 20
-36.08326
 30
0.0
 11
112.156753
 21
-42.698483
 31
0.0
  0
LINE
  8
4
 62
     2
  5
830
 10
118.771976
 20
-37.497473
 30
0.0
 11
113.570966
 21
-42.698483
 31
0.0
  0
LINE
  8
4
 62
     2
  5
831
 10
118.771976
 20
-38.911687
 30
0.0
 11
114.98518
 21
-42.698483
 31
0.0
  0
LINE
  8
4
 62
     2
  5
832
 10
116.485475
 20
-42.612402
 30
0.0
 11
118.685895
 21
-40.411982
 31
0.0
  0
LINE
  8
4
 62
     2
  5
833
 10
92.357763
 20
-42.698483
 30
0.0
 11
117.06487
 21
-17.991377
 31
0.0
  0
LINE
  8
4
 62
     2
  5
834
 10
91.035383
 20
-42.606649
 30
0.0
 11
115.938902
 21
-17.703131
 31
0.0
  0
LINE
  8
4
 62
     2
  5
835
 10
90.063409
 20
-42.16441
 30
0.0
 11
114.529336
 21
-17.698483
 31
0.0
  0
LINE
  8
4
 62
     2
  5
836
 10
89.347807
 20
-41.465798
 30
0.0
 11
113.115122
 21
-17.698483
 31
0.0
  0
LINE
  8
4
 62
     2
  5
837
 10
88.885046
 20
-40.514346
 30
0.0
 11
111.700909
 21
-17.698483
 31
0.0
  0
LINE
  8
4
 62
     2
  5
838
 10
88.771976
 20
-39.213202
 30
0.0
 11
110.286695
 21
-17.698483
 31
0.0
  0
LINE
  8
4
 62
     2
  5
839
 10
88.771976
 20
-37.798988
 30
0.0
 11
108.872482
 21
-17.698483
 31
0.0
  0
LINE
  8
4
 62
     2
  5
83A
 10
88.771976
 20
-36.384775
 30
0.0
 11
107.458268
 21
-17.698483
 31
0.0
  0
LINE
  8
4
 62
     2
  5
83B
 10
88.771976
 20
-34.970561
 30
0.0
 11
106.044054
 21
-17.698483
 31
0.0
  0
LINE
  8
4
 62
     2
  5
83C
 10
88.771976
 20
-33.556348
 30
0.0
 11
104.629841
 21
-17.698483
 31
0.0
  0
LINE
  8
4
 62
     2
  5
83D
 10
88.771976
 20
-32.142134
 30
0.0
 11
103.215627
 21
-17.698483
 31
0.0
  0
LINE
  8
4
 62
     2
  5
83E
 10
88.771976
 20
-30.727921
 30
0.0
 11
101.801414
 21
-17.698483
 31
0.0
  0
LINE
  8
4
 62
     2
  5
83F
 10
88.771976
 20
-29.313707
 30
0.0
 11
100.3872
 21
-17.698483
 31
0.0
  0
LINE
  8
4
 62
     2
  5
840
 10
88.771976
 20
-27.899493
 30
0.0
 11
98.972987
 21
-17.698483
 31
0.0
  0
LINE
  8
4
 62
     2
  5
841
 10
88.771976
 20
-26.48528
 30
0.0
 11
97.558773
 21
-17.698483
 31
0.0
  0
LINE
  8
4
 62
     2
  5
842
 10
88.771976
 20
-25.071066
 30
0.0
 11
96.144559
 21
-17.698483
 31
0.0
  0
LINE
  8
4
 62
     2
  5
843
 10
88.771976
 20
-23.656853
 30
0.0
 11
94.730346
 21
-17.698483
 31
0.0
  0
LINE
  8
4
 62
     2
  5
844
 10
88.771976
 20
-22.242639
 30
0.0
 11
93.316132
 21
-17.698483
 31
0.0
  0
LINE
  8
4
 62
     2
  5
845
 10
88.771976
 20
-20.828426
 30
0.0
 11
91.901919
 21
-17.698483
 31
0.0
  0
POLYLINE
  8
4
 62
     2
  5
846
 66
     1
 10
0.0
 20
0.0
 30
0.0
  0
VERTEX
  8
4
 62
     2
  5
A35
 10
111.508873
 20
-25.273785
 30
0.0
  0
VERTEX
  8
4
 62
     2
  5
A36
 10
131.682617
 20
-4.603931
 30
0.0
  0
SEQEND
  8
4
 62
     2
  5
A37
  0
LINE
  8
4
 62
     2
  5
84A
 10
114.20754
 20
-22.508753
 30
0.0
 11
113.466652
 21
-21.785647
 31
0.0
  0
LINE
  8
4
 62
     2
  5
84B
 10
113.466652
 20
-21.785647
 30
0.0
 11
111.508873
 21
-25.273785
 31
0.0
  0
LINE
  8
4
 62
     2
  5
84C
 10
111.508873
 20
-25.273785
 30
0.0
 11
114.948428
 21
-23.231858
 31
0.0
  0
LINE
  8
4
 62
     2
  5
84D
 10
114.948428
 20
-23.231858
 30
0.0
 11
114.20754
 21
-22.508753
 31
0.0
  0
POLYLINE
  8
4
 62
     2
  5
84E
 66
     1
 10
0.0
 20
0.0
 30
0.0
  0
VERTEX
  8
4
 62
     2
  5
A38
 10
111.344719
 20
-46.838959
 30
0.0
  0
VERTEX
  8
4
 62
     2
  5
A39
 10
132.143539
 20
-45.619656
 30
0.0
  0
SEQEND
  8
4
 62
     2
  5
A3A
  0
LINE
  8
4
 62
     2
  5
852
 10
115.2018
 20
-46.612843
 30
0.0
 11
115.141212
 21
-45.579341
 31
0.0
  0
LINE
  8
4
 62
     2
  5
853
 10
115.141212
 20
-45.579341
 30
0.0
 11
111.344719
 21
-46.838959
 31
0.0
  0
LINE
  8
4
 62
     2
  5
854
 10
111.344719
 20
-46.838959
 30
0.0
 11
115.262388
 21
-47.646344
 31
0.0
  0
LINE
  8
4
 62
     2
  5
855
 10
115.262388
 20
-47.646344
 30
0.0
 11
115.2018
 21
-46.612843
 31
0.0
  0
TEXT
  8
4
  5
856
 10
288.513051
 20
-40.325959
 30
0.0
 40
5.0
  1
１９Ｊ０１５Ｍ
 41
0.8
 72
     5
 11
315.713051
 21
-40.325959
 31
0.0
  0
TEXT
  8
4
  5
857
 10
288.39302
 20
-34.453601
 30
0.0
 40
5.0
  1
１１０２２４
 41
0.9
 72
     5
 11
314.49302
 21
-34.453601
 31
0.0
  0
LINE
  8
4
  6
DASHED
  5
858
 10
-204.348565
 20
-159.435157
 30
0.0
 11
-190.548565
 21
-159.435157
 31
0.0
  0
LINE
  8
4
  6
DASHED
  5
859
 10
-204.348565
 20
-149.435157
 30
0.0
 11
-190.548565
 21
-149.435157
 31
0.0
  0
LINE
  8
4
  6
DASHED
  5
85A
 10
-289.724251
 20
-159.435349
 30
0.0
 11
-275.924251
 21
-159.435349
 31
0.0
  0
LINE
  8
4
  6
DASHED
  5
85B
 10
-289.724251
 20
-149.435349
 30
0.0
 11
-275.924251
 21
-149.435349
 31
0.0
  0
TEXT
  8
4
  5
85C
 10
-348.278534
 20
-132.476387
 30
0.0
 40
7.0
  1
（給湯接続の表示）
 72
     5
 11
-286.678534
 21
-132.476387
 31
0.0
  0
TEXT
  8
4
  5
85D
 10
-341.253387
 20
-124.284889
 30
0.0
 40
7.0
  1
赤色
 72
     5
 11
-328.653387
 21
-124.284889
 31
0.0
  0
TEXT
  8
4
  5
85E
 10
-184.499557
 20
-124.141075
 30
0.0
 40
7.0
  1
青色
 72
     5
 11
-171.899557
 21
-124.141075
 31
0.0
  0
TEXT
  8
4
  5
85F
 10
-191.524704
 20
-132.332573
 30
0.0
 40
7.0
  1
（給水接続の表示）
 72
     5
 11
-129.924704
 21
-132.332573
 31
0.0
  0
LINE
  8
4
 62
     2
  5
860
 10
-289.724251
 20
-156.335349
 30
0.0
 11
-282.824251
 21
-149.435349
 31
0.0
  0
LINE
  8
4
 62
     2
  5
861
 10
-289.724251
 20
-157.183877
 30
0.0
 11
-281.975723
 21
-149.435349
 31
0.0
  0
LINE
  8
4
 62
     2
  5
862
 10
-289.724251
 20
-158.032405
 30
0.0
 11
-281.127194
 21
-149.435349
 31
0.0
  0
LINE
  8
4
 62
     2
  5
863
 10
-289.724251
 20
-158.880933
 30
0.0
 11
-280.278666
 21
-149.435349
 31
0.0
  0
LINE
  8
4
 62
     2
  5
864
 10
-289.430138
 20
-159.435349
 30
0.0
 11
-279.430138
 21
-149.435349
 31
0.0
  0
LINE
  8
4
 62
     2
  5
865
 10
-288.58161
 20
-159.435349
 30
0.0
 11
-278.58161
 21
-149.435349
 31
0.0
  0
LINE
  8
4
 62
     2
  5
866
 10
-287.733082
 20
-159.435349
 30
0.0
 11
-277.733082
 21
-149.435349
 31
0.0
  0
LINE
  8
4
 62
     2
  5
867
 10
-286.884554
 20
-159.435349
 30
0.0
 11
-276.884554
 21
-149.435349
 31
0.0
  0
LINE
  8
4
 62
     2
  5
868
 10
-286.036025
 20
-159.435349
 30
0.0
 11
-276.036025
 21
-149.435349
 31
0.0
  0
LINE
  8
4
 62
     2
  5
869
 10
-285.187497
 20
-159.435349
 30
0.0
 11
-275.924251
 21
-150.172102
 31
0.0
  0
LINE
  8
4
 62
     2
  5
86A
 10
-284.338969
 20
-159.435349
 30
0.0
 11
-275.924251
 21
-151.02063
 31
0.0
  0
LINE
  8
4
 62
     2
  5
86B
 10
-283.490441
 20
-159.435349
 30
0.0
 11
-275.924251
 21
-151.869159
 31
0.0
  0
LINE
  8
4
 62
     2
  5
86C
 10
-282.641913
 20
-159.435349
 30
0.0
 11
-275.924251
 21
-152.717687
 31
0.0
  0
LINE
  8
4
 62
     2
  5
86D
 10
-281.793384
 20
-159.435349
 30
0.0
 11
-275.924251
 21
-153.566215
 31
0.0
  0
LINE
  8
4
 62
     2
  5
86E
 10
-280.944856
 20
-159.435349
 30
0.0
 11
-275.924251
 21
-154.414743
 31
0.0
  0
LINE
  8
4
 62
     2
  5
86F
 10
-280.096328
 20
-159.435349
 30
0.0
 11
-275.924251
 21
-155.263271
 31
0.0
  0
LINE
  8
4
 62
     2
  5
870
 10
-279.2478
 20
-159.435349
 30
0.0
 11
-275.924251
 21
-156.111799
 31
0.0
  0
LINE
  8
4
 62
     2
  5
871
 10
-278.399272
 20
-159.435349
 30
0.0
 11
-275.924251
 21
-156.960328
 31
0.0
  0
LINE
  8
4
 62
     2
  5
872
 10
-277.550744
 20
-159.435349
 30
0.0
 11
-275.924251
 21
-157.808856
 31
0.0
  0
LINE
  8
4
 62
     2
  5
873
 10
-276.702215
 20
-159.435349
 30
0.0
 11
-275.924251
 21
-158.657384
 31
0.0
  0
LINE
  8
4
 62
     2
  5
874
 10
-289.724251
 20
-155.48682
 30
0.0
 11
-283.672779
 21
-149.435349
 31
0.0
  0
LINE
  8
4
 62
     2
  5
875
 10
-289.724251
 20
-154.638292
 30
0.0
 11
-284.521307
 21
-149.435349
 31
0.0
  0
LINE
  8
4
 62
     2
  5
876
 10
-289.724251
 20
-153.789764
 30
0.0
 11
-285.369835
 21
-149.435349
 31
0.0
  0
LINE
  8
4
 62
     2
  5
877
 10
-289.724251
 20
-152.941236
 30
0.0
 11
-286.218363
 21
-149.435349
 31
0.0
  0
LINE
  8
4
 62
     2
  5
878
 10
-289.724251
 20
-152.092708
 30
0.0
 11
-287.066892
 21
-149.435349
 31
0.0
  0
LINE
  8
4
 62
     2
  5
879
 10
-289.724251
 20
-151.24418
 30
0.0
 11
-287.91542
 21
-149.435349
 31
0.0
  0
LINE
  8
4
 62
     2
  5
87A
 10
-289.724251
 20
-150.395651
 30
0.0
 11
-288.763948
 21
-149.435349
 31
0.0
  0
LINE
  8
4
 62
     2
  5
87B
 10
-289.724251
 20
-149.547123
 30
0.0
 11
-289.612476
 21
-149.435349
 31
0.0
  0
LINE
  8
4
 62
     2
  5
87C
 10
-190.548565
 20
-156.335157
 30
0.0
 11
-197.448565
 21
-149.435157
 31
0.0
  0
LINE
  8
4
 62
     2
  5
87D
 10
-190.548565
 20
-154.213836
 30
0.0
 11
-195.327245
 21
-149.435157
 31
0.0
  0
LINE
  8
4
 62
     2
  5
87E
 10
-190.548565
 20
-152.092516
 30
0.0
 11
-193.205925
 21
-149.435157
 31
0.0
  0
LINE
  8
4
 62
     2
  5
87F
 10
-190.548565
 20
-149.971196
 30
0.0
 11
-191.084604
 21
-149.435157
 31
0.0
  0
LINE
  8
4
 62
     2
  5
880
 10
-190.548565
 20
-158.456477
 30
0.0
 11
-199.569886
 21
-149.435157
 31
0.0
  0
LINE
  8
4
 62
     2
  5
881
 10
-191.691206
 20
-159.435157
 30
0.0
 11
-201.691206
 21
-149.435157
 31
0.0
  0
LINE
  8
4
 62
     2
  5
882
 10
-193.812526
 20
-159.435157
 30
0.0
 11
-203.812526
 21
-149.435157
 31
0.0
  0
LINE
  8
4
 62
     2
  5
883
 10
-195.933847
 20
-159.435157
 30
0.0
 11
-204.348565
 21
-151.020438
 31
0.0
  0
LINE
  8
4
 62
     2
  5
884
 10
-198.055167
 20
-159.435157
 30
0.0
 11
-204.348565
 21
-153.141758
 31
0.0
  0
LINE
  8
4
 62
     2
  5
885
 10
-200.176487
 20
-159.435157
 30
0.0
 11
-204.348565
 21
-155.263079
 31
0.0
  0
LINE
  8
4
 62
     2
  5
886
 10
-202.297808
 20
-159.435157
 30
0.0
 11
-204.348565
 21
-157.384399
 31
0.0
  0
POLYLINE
  8
4
 62
     2
  5
887
 66
     1
 10
0.0
 20
0.0
 30
0.0
  0
VERTEX
  8
4
 62
     2
  5
A3B
 10
-192.583176
 20
-152.9655
 30
0.0
  0
VERTEX
  8
4
 62
     2
  5
A3C
 10
-174.900467
 20
-133.349213
 30
0.0
  0
SEQEND
  8
4
 62
     2
  5
A3D
  0
POLYLINE
  8
4
 62
     2
  5
88B
 66
     1
 10
0.0
 20
0.0
 30
0.0
  0
VERTEX
  8
4
 62
     2
  5
A3E
 10
-284.565796
 20
-153.80481
 30
0.0
  0
VERTEX
  8
4
 62
     2
  5
A3F
 10
-309.874908
 20
-133.484344
 30
0.0
  0
SEQEND
  8
4
 62
     2
  5
A40
  0
ENDSEC
  0
EOF
