  0
SECTION
  2
HEADER
  9
$ACADVER
  1
AC1015
  9
$ACADMAINTVER
 70
     6
  9
$DWGCODEPAGE
  3
ANSI_932
  9
$INSBASE
 10
0.0
 20
0.0
 30
0.0
  9
$EXTMIN
 10
-841.0
 20
-594.0
 30
1.000000E+20
  9
$EXTMAX
 10
841.0
 20
594.0
 30
-1.000000E+20
  9
$LIMMIN
 10
-841.0
 20
-594.0
  9
$LIMMAX
 10
841.0
 20
594.0
  9
$ORTHOMODE
 70
     0
  9
$REGENMODE
 70
     1
  9
$FILLMODE
 70
     1
  9
$QTEXTMODE
 70
     0
  9
$MIRRTEXT
 70
     1
  9
$LTSCALE
 40
1.0
  9
$ATTMODE
 70
     1
  9
$TEXTSIZE
 40
0.2
  9
$TRACEWID
 40
0.05
  9
$TEXTSTYLE
  7
STANDARD
  9
$CLAYER
  8
0
  9
$CELTYPE
  6
CONTINUOUS
  9
$CECOLOR
 62
   256
  9
$CELTSCALE
 40
1.0
  9
$DISPSILH
 70
     0
  9
$DIMSCALE
 40
2.0
  9
$DIMASZ
 40
2.0
  9
$DIMEXO
 40
1.0
  9
$DIMDLI
 40
0.38
  9
$DIMRND
 40
0.0
  9
$DIMDLE
 40
0.0
  9
$DIMEXE
 40
2.0
  9
$DIMTP
 40
0.0
  9
$DIMTM
 40
0.0
  9
$DIMTXT
 40
3.5
  9
$DIMCEN
 40
0.09
  9
$DIMTSZ
 40
0.0
  9
$DIMTOL
 70
     0
  9
$DIMLIM
 70
     0
  9
$DIMTIH
 70
     0
  9
$DIMTOH
 70
     0
  9
$DIMSE1
 70
     0
  9
$DIMSE2
 70
     0
  9
$DIMTAD
 70
     1
  9
$DIMZIN
 70
     0
  9
$DIMBLK
  1

  9
$DIMASO
 70
     1
  9
$DIMSHO
 70
     1
  9
$DIMPOST
  1

  9
$DIMAPOST
  1

  9
$DIMALT
 70
     0
  9
$DIMALTD
 70
     2
  9
$DIMALTF
 40
25.4
  9
$DIMLFAC
 40
1.0
  9
$DIMTOFL
 70
     0
  9
$DIMTVP
 40
0.0
  9
$DIMTIX
 70
     0
  9
$DIMSOXD
 70
     0
  9
$DIMSAH
 70
     0
  9
$DIMBLK1
  1

  9
$DIMBLK2
  1

  9
$DIMSTYLE
  2
Standard
  9
$DIMCLRD
 70
     0
  9
$DIMCLRE
 70
     0
  9
$DIMCLRT
 70
     0
  9
$DIMTFAC
 40
1.0
  9
$DIMGAP
 40
0.5
  9
$DIMJUST
 70
     0
  9
$DIMSD1
 70
     0
  9
$DIMSD2
 70
     0
  9
$DIMTOLJ
 70
     1
  9
$DIMTZIN
 70
     0
  9
$DIMALTZ
 70
     0
  9
$DIMALTTZ
 70
     0
  9
$DIMUPT
 70
     0
  9
$DIMDEC
 70
     3
  9
$DIMTDEC
 70
     4
  9
$DIMALTU
 70
     2
  9
$DIMALTTD
 70
     2
  9
$DIMTXSTY
  7
STANDARD
  9
$DIMAUNIT
 70
     0
  9
$DIMADEC
 70
     0
  9
$DIMALTRND
 40
0.0
  9
$DIMAZIN
 70
     0
  9
$DIMDSEP
 70
     0
  9
$DIMATFIT
 70
     3
  9
$DIMFRAC
 70
     0
  9
$DIMLDRBLK
  1

  9
$DIMLUNIT
 70
     2
  9
$DIMLWD
 70
     0
  9
$DIMLWE
 70
     0
  9
$DIMTMOVE
 70
     0
  9
$LUNITS
 70
     2
  9
$LUPREC
 70
     4
  9
$SKETCHINC
 40
0.1
  9
$FILLETRAD
 40
0.0
  9
$AUNITS
 70
     0
  9
$AUPREC
 70
     0
  9
$MENU
  1
acad
  9
$ELEVATION
 40
0.0
  9
$PELEVATION
 40
0.0
  9
$THICKNESS
 40
0.0
  9
$LIMCHECK
 70
     0
  9
$CHAMFERA
 40
0.0
  9
$CHAMFERB
 40
0.0
  9
$CHAMFERC
 40
0.0
  9
$CHAMFERD
 40
0.0
  9
$SKPOLY
 70
     0
  9
$TDCREATE
 40
2454540.000000000
  9
$TDUCREATE
 40
0.000000000
  9
$TDUPDATE
 40
0.000000000
  9
$TDUUPDATE
 40
2447892.625000000
  9
$TDINDWG
 40
0.0000000000
  9
$TDUSRTIMER
 40
0.0000000000
  9
$USRTIMER
 70
     1
  9
$ANGBASE
 50
0.0
  9
$ANGDIR
 70
     0
  9
$PDMODE
 70
     0
  9
$PDSIZE
 40
0.0
  9
$PLINEWID
 40
0.0
  9
$SPLFRAME
 70
     0
  9
$SPLINETYPE
 70
     6
  9
$SPLINESEGS
 70
     8
  9
$HANDSEED
  5
3E1
  9
$SURFTAB1
 70
     6
  9
$SURFTAB2
 70
     6
  9
$SURFTYPE
 70
     6
  9
$SURFU
 70
     6
  9
$SURFV
 70
     6
  9
$UCSBASE
  2

  9
$UCSNAME
  2

  9
$UCSORG
 10
0.0
 20
0.0
 30
0.0
  9
$UCSXDIR
 10
1.0
 20
0.0
 30
0.0
  9
$UCSYDIR
 10
0.0
 20
1.0
 30
0.0
  9
$UCSORTHOREF
  2

  9
$UCSORTHOVIEW
 70
     0
  9
$UCSORGTOP
 10
0.0
 20
0.0
 30
0.0
  9
$UCSORGBOTTOM
 10
0.0
 20
0.0
 30
0.0
  9
$UCSORGLEFT
 10
0.0
 20
0.0
 30
0.0
  9
$UCSORGRIGHT
 10
0.0
 20
0.0
 30
0.0
  9
$UCSORGFRONT
 10
0.0
 20
0.0
 30
0.0
  9
$UCSORGBACK
 10
0.0
 20
0.0
 30
0.0
  9
$PUCSBASE
  2

  9
$PUCSNAME
  2

  9
$PUCSORG
 10
0.0
 20
0.0
 30
0.0
  9
$PUCSXDIR
 10
1.0
 20
0.0
 30
0.0
  9
$PUCSYDIR
 10
0.0
 20
1.0
 30
0.0
  9
$PUCSORTHOREF
  2

  9
$PUCSORTHOVIEW
 70
     0
  9
$PUCSORGTOP
 10
0.0
 20
0.0
 30
0.0
  9
$PUCSORGBOTTOM
 10
0.0
 20
0.0
 30
0.0
  9
$PUCSORGLEFT
 10
0.0
 20
0.0
 30
0.0
  9
$PUCSORGRIGHT
 10
0.0
 20
0.0
 30
0.0
  9
$PUCSORGFRONT
 10
0.0
 20
0.0
 30
0.0
  9
$PUCSORGBACK
 10
0.0
 20
0.0
 30
0.0
  9
$USERI1
 70
     0
  9
$USERI2
 70
     0
  9
$USERI3
 70
     0
  9
$USERI4
 70
     0
  9
$USERI5
 70
     0
  9
$USERR1
 40
0.0
  9
$USERR2
 40
0.0
  9
$USERR3
 40
0.0
  9
$USERR4
 40
0.0
  9
$USERR5
 40
0.0
  9
$WORLDVIEW
 70
     1
  9
$SHADEDGE
 70
     3
  9
$SHADEDIF
 70
    70
  9
$TILEMODE
 70
     1
  9
$MAXACTVP
 70
    16
  9
$PINSBASE
 10
0.0
 20
0.0
 30
0.0
  9
$PLIMCHECK
 70
     0
  9
$PEXTMIN
 10
1.000000E+20
 20
1.000000E+20
 30
1.000000E+20
  9
$PEXTMAX
 10
-1.000000E+20
 20
-1.000000E+20
 30
-1.000000E+20
  9
$PLIMMIN
 10
0.0
 20
0.0
  9
$PLIMMAX
 10
12.0
 20
9.0
  9
$UNITMODE
 70
     0
  9
$VISRETAIN
 70
     0
  9
$PLINEGEN
 70
     1
  9
$PSLTSCALE
 70
     0
  9
$TREEDEPTH
 70
  3020
  9
$CMLSTYLE
  2
Standard
  9
$CMLJUST
 70
     0
  9
$CMLSCALE
 40
1.0
  9
$PROXYGRAPHICS
 70
     0
  9
$MEASUREMENT
 70
     0
  9
$CELWEIGHT
370
     0
  9
$ENDCAPS
280
     0
  9
$JOINSTYLE
280
     0
  9
$LWDISPLAY
290
     0
  9
$INSUNITS
 70
     0
  9
$HYPERLINKBASE
  1

  9
$STYLESHEET
  1

  9
$XEDIT
290
     1
  9
$CEPSNTYPE
380
     0
  9
$PSTYLEMODE
290
     1
  9
$FINGERPRINTGUID
  2

  9
$VERSIONGUID
  2

  9
$EXTNAMES
290
     1
  9
$PSVPSCALE
 40
0.0
  0
ENDSEC
  0
SECTION
  2
CLASSES
  0
CLASS
  1
LWPOLYLINE
  2
AcDbPolyline
  3
AutoCAD 2000
 90
        0
280
     0
281
     1
  0
CLASS
  1
IMAGE
  2
AcDbRasterImage
  3
ISM
 90
      127
280
     0
281
     1
  0
CLASS
  1
OLE2FRAME
  2
AcDbOle2Frame
  3
AutoCAD 2000
 90
        0
280
     0
281
     1
  0
CLASS
  1
HATCH
  2
AcDbHatch
  3
AutoCAD 2000
 90
        0
280
     0
281
     1
  0
CLASS
  1
DICTIONARYVAR
  2
AcDbDictionaryVar
  3
AutoCAD 2000
 90
        0
280
     0
281
     0
  0
CLASS
  1
RASTERVARIABLES
  2
AcDbRasterVariables
  3
ISM
 90
        0
280
     0
281
     0
  0
CLASS
  1
IMAGEDEF
  2
AcDbRasterImageDef
  3
ISM
 90
        0
280
     0
281
     0
  0
CLASS
  1
IMAGEDEF_REACTOR
  2
AcDbRasterImageDefReactor
  3
ISM
 90
        1
280
     0
281
     0
  0
CLASS
  1
IDBUFFER
  2
AcDbIdBuffer
  3
AutoCAD 2000
 90
        0
280
     0
281
     0
  0
CLASS
  1
SPATIAL_FILTER
  2
AcDbSpatialFilter
  3
AutoCAD 2000
 90
        0
280
     0
281
     0
  0
CLASS
  1
XRECORD
  2
AcDbXrecord
  3
AutoCAD 2000
 90
        0
280
     0
281
     0
  0
CLASS
  1
SORTENTSTABLE
  2
AcDbSortentsTable
  3
AutoCAD 2000
 90
        0
280
     0
281
     0
  0
CLASS
  1
LAYER_INDEX
  2
AcDbLayerIndex
  3
AutoCAD 2000
 90
        0
280
     0
281
     0
  0
CLASS
  1
SPATIAL_INDEX
  2
AcDbSpatialIndex
  3
AutoCAD 2000
 90
        0
280
     0
281
     0
  0
CLASS
  1
OBJECT_PTR
  2
CAseDLPNTableRecord
  3
"ASE-LPNTableRecord"
 90
        1
280
     0
281
     0
  0
CLASS
  1
LAYOUT
  2
AcDbLayout
  3
AutoCAD 2000
 90
        0
280
     0
281
     0
  0
CLASS
  1
PLOTSETTINGS
  2
AcDbPlotSettings
  3
AutoCAD 2000
 90
        0
280
     0
281
     0
  0
CLASS
  1
ACDBDICTIONARYWDFLT
  2
AcDbDictionaryWithDefault
  3
AutoCAD 2000
 90
        0
280
     0
281
     0
  0
CLASS
  1
ACDBPLACEHOLDER
  2
AcDbPlaceHolder
  3
AutoCAD 2000
 90
        0
280
     0
281
     0
  0
CLASS
  1
VBA_PROJECT
  2
AcDbVbaProject
  3
acadvba
 90
        0
280
     0
281
     0
  0
CLASS
  1
WIPEOUT
  2
AcDbWipeout
  3
WipeOut|AutoCAD Express Tool|expresstools@autodesk.com
 90
      127
280
     0
281
     1
  0
CLASS
  1
WIPEOUTVARIABLES
  2
AcDbWipeoutVariables
  3
WipeOut|AutoCAD Express Tool|expresstools@autodesk.com
 90
        0
280
     0
281
     0
  0
CLASS
  1
RTEXT
  2
RText
  3
RText|AutoCAD Express Tool|expresstools@autodesk.com
 90
        0
280
     0
281
     1
  0
CLASS
  1
ARCALIGNEDTEXT
  2
AcDbArcAlignedText
  3
ATEXT|AutoCAD Express Tool|expresstools@autodesk.com
 90
        0
280
     0
281
     1
  0
ENDSEC
  0
SECTION
  2
TABLES
  0
TABLE
  2
VPORT
  5
6
100
AcDbSymbolTable
 70
     1
  0
VPORT
  5
1B
100
AcDbSymbolTableRecord
100
AcDbViewportTableRecord
  2
*ACTIVE
 70
     0
 10
0.0
 20
0.0
 11
1.0
 21
1.0
 12
0.0
 22
0.0
 13
0.0
 23
0.0
 14
1.0
 24
1.0
 15
0.0
 25
0.0
 16
0.0
 26
0.0
 36
1.0
 17
0.0
 27
0.0
 37
0.0
 40
1188.0
 41
1.415825
 42
50.0
 43
0.0
 44
0.0
 50
0.0
 51
0.0
 71
     0
 72
   500
 73
     1
 74
     1
 75
     0
 76
     0
 77
     0
 78
     0
281
     0
 65
     0
110
0.0
120
0.0
130
0.0
111
1.0
121
0.0
131
0.0
112
0.0
122
1.0
132
0.0
345
0
346
0
 79
     0
146
0.0
  0
ENDTAB
  0
TABLE
  2
LTYPE
  5
3
100
AcDbSymbolTable
 70
     9
  0
LTYPE
  5
C
100
AcDbSymbolTableRecord
100
AcDbLinetypeTableRecord
  2
ByBlock
 70
    64
  3

 72
    65
 73
     0
 40
0.0
  0
LTYPE
  5
D
100
AcDbSymbolTableRecord
100
AcDbLinetypeTableRecord
  2
ByLayer
 70
    64
  3

 72
    65
 73
     0
 40
0.0
  0
LTYPE
  5
E
100
AcDbSymbolTableRecord
100
AcDbLinetypeTableRecord
  2
CONTINUOUS
 70
     0
  3
Solid line
 72
    65
 73
     0
 40
0.0
  0
LTYPE
  5
F
100
AcDbSymbolTableRecord
100
AcDbLinetypeTableRecord
  2
DASHED
 70
     0
  3
__ __ __ __ __ __ __ __ __ __ __ __ __ __ __
 72
    65
 73
     2
 40
2.0
 49
1.2
 74
     0
 49
-0.8
 74
     0
  0
LTYPE
  5
10
100
AcDbSymbolTableRecord
100
AcDbLinetypeTableRecord
  2
CENTER
 70
     0
  3
____ _ ____ _ ____ _ ____ _ ____ _ ____ _ ____
 72
    65
 73
     4
 40
12.0
 49
9.0
 74
     0
 49
-1.0
 74
     0
 49
1.0
 74
     0
 49
-1.0
 74
     0
  0
LTYPE
  5
11
100
AcDbSymbolTableRecord
100
AcDbLinetypeTableRecord
  2
HIDDEN
 70
     0
  3
_ _ _ _ _ _ _ _ _ _ _ _ _ _ _ _ _ _ _ _ _ _ _
 72
    65
 73
     2
 40
3.2
 49
2.4
 74
     0
 49
-0.8
 74
     0
  0
LTYPE
  5
12
100
AcDbSymbolTableRecord
100
AcDbLinetypeTableRecord
  2
PHANTOM
 70
     0
  3
_____ _ _ _____ _ _ _____ _ _ _____ _ _ _____
 72
    65
 73
     6
 40
13.5
 49
9.0
 74
     0
 49
-1.0
 74
     0
 49
1.0
 74
     0
 49
-0.5
 74
     0
 49
1.0
 74
     0
 49
-1.0
 74
     0
  0
LTYPE
  5
13
100
AcDbSymbolTableRecord
100
AcDbLinetypeTableRecord
  2
DOT
 70
     0
  3
...............................................
 72
    65
 73
     2
 40
1.0
 49
0.5
 74
     0
 49
-0.5
 74
     0
  0
LTYPE
  5
14
100
AcDbSymbolTableRecord
100
AcDbLinetypeTableRecord
  2
DASHDOT
 70
     0
  3
__ . __ . __ . __ . __ . __ . __ . __ . __ . __
 72
    65
 73
     4
 40
8.0
 49
5.0
 74
     0
 49
-1.0
 74
     0
 49
1.0
 74
     0
 49
-1.0
 74
     0
  0
ENDTAB
  0
TABLE
  2
LAYER
  5
1
100
AcDbSymbolTable
 70
     6
  0
LAYER
  5
15
100
AcDbSymbolTableRecord
100
AcDbLayerTableRecord
  2
0
 70
     0
 62
   225
  6
CONTINUOUS
290
     1
370
    -3
390
0
  0
LAYER
  5
16
100
AcDbSymbolTableRecord
100
AcDbLayerTableRecord
  2
1
 70
     0
 62
     2
  6
CONTINUOUS
290
     1
370
    -3
390
0
  0
LAYER
  5
17
100
AcDbSymbolTableRecord
100
AcDbLayerTableRecord
  2
2
 70
     0
 62
     3
  6
CONTINUOUS
290
     1
370
    -3
390
0
  0
LAYER
  5
18
100
AcDbSymbolTableRecord
100
AcDbLayerTableRecord
  2
3
 70
     0
 62
     4
  6
CONTINUOUS
290
     1
370
    -3
390
0
  0
LAYER
  5
19
100
AcDbSymbolTableRecord
100
AcDbLayerTableRecord
  2
4
 70
     0
 62
     1
  6
CONTINUOUS
290
     1
370
    -3
390
0
  0
LAYER
  5
1A
100
AcDbSymbolTableRecord
100
AcDbLayerTableRecord
  2
5
 70
     0
 62
     6
  6
CONTINUOUS
290
     1
370
    -3
390
0
  0
ENDTAB
  0
TABLE
  2
STYLE
  5
2
100
AcDbSymbolTable
 70
     1
  0
STYLE
  5
1D
100
AcDbSymbolTableRecord
100
AcDbTextStyleTableRecord
  2
STANDARD
 70
    64
 40
0.0
 41
1.0
 50
0.0
 71
     0
 42
1.0
  3
txt
  4
BIGFONT
  0
ENDTAB
  0
TABLE
  2
VIEW
  5
4
100
AcDbSymbolTable
 70
     0
  0
ENDTAB
  0
TABLE
  2
UCS
  5
5
100
AcDbSymbolTable
 70
     0
  0
ENDTAB
  0
TABLE
  2
APPID
  5
7
100
AcDbSymbolTable
 70
     1
  0
APPID
  5
1C
100
AcDbSymbolTableRecord
100
AcDbRegAppTableRecord
  2
ACAD
 70
     0
  0
ENDTAB
  0
TABLE
  2
DIMSTYLE
  5
8
100
AcDbSymbolTable
 70
     1
100
AcDbDimStyleTable
 71
     0
  0
DIMSTYLE
105
2F
100
AcDbSymbolTableRecord
100
AcDbDimStyleTableRecord
  2
Standard
 70
     0
  3

  4

 40
2.0
 41
2.0
 42
1.0
 43
0.38
 44
2.0
 45
0.0
 46
0.0
 47
0.0
 48
0.0
 71
     0
 72
     0
 73
     0
 74
     0
 75
     0
 76
     0
 77
     1
 78
     0
 79
     0
140
3.5
141
0.09
142
0.0
143
25.4
144
1.0
145
0.0
146
1.0
147
0.5
148
0.0
170
     0
171
     2
172
     0
173
     0
174
     0
175
     0
176
     0
177
     0
178
     0
179
     0
271
     3
272
     4
273
     2
274
     2
275
     0
276
     0
277
     2
278
    46
279
     0
280
     0
281
     0
282
     0
283
     1
284
     0
285
     0
286
     0
288
     0
289
     3
340
1D
341
0
342
0
343
0
344
0
371
    -2
372
    -2
  0
ENDTAB
  0
TABLE
  2
BLOCK_RECORD
  5
2A
100
AcDbSymbolTable
 70
    10
  0
BLOCK_RECORD
  5
28
100
AcDbSymbolTableRecord
100
AcDbBlockTableRecord
  2
*Model_Space
340
0
  0
BLOCK_RECORD
  5
29
100
AcDbSymbolTableRecord
100
AcDbBlockTableRecord
  2
*Paper_Space
340
0
  0
BLOCK_RECORD
  5
1E
100
AcDbSymbolTableRecord
100
AcDbBlockTableRecord
  2
*D0
340
0
  0
BLOCK_RECORD
  5
1F
100
AcDbSymbolTableRecord
100
AcDbBlockTableRecord
  2
*D1
340
0
  0
BLOCK_RECORD
  5
20
100
AcDbSymbolTableRecord
100
AcDbBlockTableRecord
  2
*D2
340
0
  0
BLOCK_RECORD
  5
21
100
AcDbSymbolTableRecord
100
AcDbBlockTableRecord
  2
*D3
340
0
  0
BLOCK_RECORD
  5
22
100
AcDbSymbolTableRecord
100
AcDbBlockTableRecord
  2
*D4
340
0
  0
BLOCK_RECORD
  5
23
100
AcDbSymbolTableRecord
100
AcDbBlockTableRecord
  2
*D5
340
0
  0
BLOCK_RECORD
  5
24
100
AcDbSymbolTableRecord
100
AcDbBlockTableRecord
  2
*D6
340
0
  0
BLOCK_RECORD
  5
25
100
AcDbSymbolTableRecord
100
AcDbBlockTableRecord
  2
*D7
340
0
  0
BLOCK_RECORD
  5
26
100
AcDbSymbolTableRecord
100
AcDbBlockTableRecord
  2
*D8
340
0
  0
BLOCK_RECORD
  5
27
100
AcDbSymbolTableRecord
100
AcDbBlockTableRecord
  2
*D9
340
0
  0
ENDTAB
  0
ENDSEC
  0
SECTION
  2
BLOCKS
  0
BLOCK
  5
2B
100
AcDbEntity
  8
0
390
0
100
AcDbBlockBegin
  2
*Model_Space
 70
     0
 10
0.0
 20
0.0
 30
0.0
  3
*Model_Space
  1

  0
ENDBLK
  5
2C
100
AcDbEntity
  8
0
390
0
100
AcDbBlockEnd
  0
BLOCK
  5
2D
100
AcDbEntity
 67
     1
  8
0
390
0
100
AcDbBlockBegin
  2
*Paper_Space
 70
     0
 10
0.0
 20
0.0
 30
0.0
  3
*Paper_Space
  1

  0
ENDBLK
  5
2E
100
AcDbEntity
 67
     1
  8
0
390
0
100
AcDbBlockEnd
  0
BLOCK
  5
367
100
AcDbEntity
  8
3
100
AcDbBlockBegin
  2
*D0
 70
     1
 10
0.0
 20
0.0
 30
0.0
  3
*D0
  1

  0
TEXT
  5
368
100
AcDbEntity
  8
3
370
    25
100
AcDbText
 10
-204.149722
 20
-117.174927
 30
0.0
 40
7.0
  1
１３５
 72
     5
 11
-184.549722
 21
-117.174927
 31
0.0
100
AcDbText
  0
LINE
  5
369
100
AcDbEntity
  8
3
370
    25
100
AcDbLine
 10
-261.149387
 20
10.007529
 30
0.0
 11
-261.149387
 21
-120.174927
 31
0.0
  0
LINE
  5
36A
100
AcDbEntity
  8
3
370
    25
100
AcDbLine
 10
-261.149387
 20
-118.174927
 30
0.0
 11
-257.285683
 21
-119.210203
 31
0.0
  0
LINE
  5
36B
100
AcDbEntity
  8
3
370
    25
100
AcDbLine
 10
-261.149387
 20
-118.174927
 30
0.0
 11
-257.285683
 21
-117.139651
 31
0.0
  0
LINE
  5
36C
100
AcDbEntity
  8
3
370
    25
100
AcDbLine
 10
-257.285683
 20
-119.210203
 30
0.0
 11
-257.285683
 21
-117.139651
 31
0.0
  0
LINE
  5
36D
100
AcDbEntity
  8
3
370
    25
100
AcDbLine
 10
-261.149387
 20
-118.174927
 30
0.0
 11
-126.150058
 21
-118.174927
 31
0.0
  0
LINE
  5
36E
100
AcDbEntity
  8
3
370
    25
100
AcDbLine
 10
-126.150058
 20
-118.174927
 30
0.0
 11
-130.013761
 21
-117.139651
 31
0.0
  0
LINE
  5
36F
100
AcDbEntity
  8
3
370
    25
100
AcDbLine
 10
-126.150058
 20
-118.174927
 30
0.0
 11
-130.013761
 21
-119.210203
 31
0.0
  0
LINE
  5
370
100
AcDbEntity
  8
3
370
    25
100
AcDbLine
 10
-130.013761
 20
-117.139651
 30
0.0
 11
-130.013761
 21
-119.210203
 31
0.0
  0
LINE
  5
371
100
AcDbEntity
  8
3
370
    25
100
AcDbLine
 10
-126.150058
 20
10.007529
 30
0.0
 11
-126.150058
 21
-120.174927
 31
0.0
  0
ENDBLK
  5
372
100
AcDbEntity
  8
3
100
AcDbBlockEnd
  0
BLOCK
  5
373
100
AcDbEntity
  8
3
100
AcDbBlockBegin
  2
*D1
 70
     1
 10
0.0
 20
0.0
 30
0.0
  3
*D1
  1

  0
LINE
  5
374
100
AcDbEntity
  8
3
370
    25
100
AcDbLine
 10
-289.434058
 20
-18.276471
 30
0.0
 11
-289.434058
 21
-154.007355
 31
0.0
  0
LINE
  5
375
100
AcDbEntity
  8
3
370
    25
100
AcDbLine
 10
-289.434058
 20
-152.007355
 30
0.0
 11
-285.570354
 21
-153.042631
 31
0.0
  0
LINE
  5
376
100
AcDbEntity
  8
3
370
    25
100
AcDbLine
 10
-289.434058
 20
-152.007355
 30
0.0
 11
-285.570354
 21
-150.972079
 31
0.0
  0
LINE
  5
377
100
AcDbEntity
  8
3
370
    25
100
AcDbLine
 10
-285.570354
 20
-153.042631
 30
0.0
 11
-285.570354
 21
-150.972079
 31
0.0
  0
LINE
  5
378
100
AcDbEntity
  8
3
370
    25
100
AcDbLine
 10
-289.434058
 20
-152.007355
 30
0.0
 11
-97.865387
 21
-152.007355
 31
0.0
  0
LINE
  5
379
100
AcDbEntity
  8
3
370
    25
100
AcDbLine
 10
-97.865387
 20
-152.007355
 30
0.0
 11
-101.72909
 21
-150.972079
 31
0.0
  0
LINE
  5
37A
100
AcDbEntity
  8
3
370
    25
100
AcDbLine
 10
-97.865387
 20
-152.007355
 30
0.0
 11
-101.72909
 21
-153.042631
 31
0.0
  0
LINE
  5
37B
100
AcDbEntity
  8
3
370
    25
100
AcDbLine
 10
-101.72909
 20
-150.972079
 30
0.0
 11
-101.72909
 21
-153.042631
 31
0.0
  0
LINE
  5
37C
100
AcDbEntity
  8
3
370
    25
100
AcDbLine
 10
-97.865387
 20
-18.276471
 30
0.0
 11
-97.865387
 21
-154.007355
 31
0.0
  0
ENDBLK
  5
37D
100
AcDbEntity
  8
3
100
AcDbBlockEnd
  0
BLOCK
  5
37E
100
AcDbEntity
  8
3
100
AcDbBlockBegin
  2
*D2
 70
     1
 10
0.0
 20
0.0
 30
0.0
  3
*D2
  1

  0
TEXT
  5
37F
100
AcDbEntity
  8
3
370
    25
100
AcDbText
 10
-295.752048
 20
8.426728
 30
0.0
 40
7.0
  1
４０
 50
44.99932
 72
     5
 11
-286.842397
 21
17.336167
 31
0.0
100
AcDbText
  0
LINE
  5
380
100
AcDbEntity
  8
3
370
    25
100
AcDbLine
 10
-262.563584
 20
13.42176
 30
0.0
 11
-277.367004
 21
28.225532
 31
0.0
  0
LINE
  5
381
100
AcDbEntity
  8
3
370
    25
100
AcDbLine
 10
-275.952808
 20
26.811301
 30
0.0
 11
-279.416933
 21
24.811342
 31
0.0
  0
LINE
  5
382
100
AcDbEntity
  8
3
370
    25
100
AcDbLine
 10
-275.952808
 20
26.811301
 30
0.0
 11
-277.952849
 21
23.347223
 31
0.0
  0
LINE
  5
383
100
AcDbEntity
  8
3
370
    25
100
AcDbLine
 10
-279.416933
 20
24.811342
 30
0.0
 11
-277.952849
 21
23.347223
 31
0.0
  0
LINE
  5
384
100
AcDbEntity
  8
3
370
    25
100
AcDbLine
 10
-275.952808
 20
26.811301
 30
0.0
 11
-304.237479
 21
-1.472699
 31
0.0
  0
LINE
  5
385
100
AcDbEntity
  8
3
370
    25
100
AcDbLine
 10
-304.237479
 20
-1.472699
 30
0.0
 11
-300.773353
 21
0.52726
 31
0.0
  0
LINE
  5
386
100
AcDbEntity
  8
3
370
    25
100
AcDbLine
 10
-304.237479
 20
-1.472699
 30
0.0
 11
-302.237437
 21
1.991379
 31
0.0
  0
LINE
  5
387
100
AcDbEntity
  8
3
370
    25
100
AcDbLine
 10
-300.773353
 20
0.52726
 30
0.0
 11
-302.237437
 21
1.991379
 31
0.0
  0
LINE
  5
388
100
AcDbEntity
  8
3
370
    25
100
AcDbLine
 10
-290.848255
 20
-14.86224
 30
0.0
 11
-305.651675
 21
-0.058468
 31
0.0
  0
ENDBLK
  5
389
100
AcDbEntity
  8
3
100
AcDbBlockEnd
  0
BLOCK
  5
38A
100
AcDbEntity
  8
3
100
AcDbBlockBegin
  2
*D3
 70
     1
 10
0.0
 20
0.0
 30
0.0
  3
*D3
  1

  0
TEXT
  5
38B
100
AcDbEntity
  8
3
370
    25
100
AcDbText
 10
2.596127
 20
42.007351
 30
0.0
 40
7.0
  1
７４
 50
90.0
 72
     5
 11
2.596127
 21
54.607351
 31
0.0
100
AcDbText
  0
LINE
  5
38C
100
AcDbEntity
  8
3
370
    25
100
AcDbLine
 10
236.349942
 20
12.007173
 30
0.0
 11
1.596127
 21
12.007173
 31
0.0
  0
LINE
  5
38D
100
AcDbEntity
  8
3
370
    25
100
AcDbLine
 10
3.596127
 20
12.007173
 30
0.0
 11
4.631403
 21
15.870876
 31
0.0
  0
LINE
  5
38E
100
AcDbEntity
  8
3
370
    25
100
AcDbLine
 10
3.596127
 20
12.007173
 30
0.0
 11
2.560851
 21
15.870876
 31
0.0
  0
LINE
  5
38F
100
AcDbEntity
  8
3
370
    25
100
AcDbLine
 10
4.631403
 20
15.870876
 30
0.0
 11
2.560851
 21
15.870876
 31
0.0
  0
LINE
  5
390
100
AcDbEntity
  8
3
370
    25
100
AcDbLine
 10
3.596127
 20
12.007173
 30
0.0
 11
3.596127
 21
86.007529
 31
0.0
  0
LINE
  5
391
100
AcDbEntity
  8
3
370
    25
100
AcDbLine
 10
3.596127
 20
86.007529
 30
0.0
 11
2.560851
 21
82.143826
 31
0.0
  0
LINE
  5
392
100
AcDbEntity
  8
3
370
    25
100
AcDbLine
 10
3.596127
 20
86.007529
 30
0.0
 11
4.631403
 21
82.143826
 31
0.0
  0
LINE
  5
393
100
AcDbEntity
  8
3
370
    25
100
AcDbLine
 10
2.560851
 20
82.143826
 30
0.0
 11
4.631403
 21
82.143826
 31
0.0
  0
LINE
  5
394
100
AcDbEntity
  8
3
370
    25
100
AcDbLine
 10
217.849942
 20
86.007529
 30
0.0
 11
1.596127
 21
86.007529
 31
0.0
  0
ENDBLK
  5
395
100
AcDbEntity
  8
3
100
AcDbBlockEnd
  0
BLOCK
  5
396
100
AcDbEntity
  8
3
100
AcDbBlockBegin
  2
*D4
 70
     1
 10
0.0
 20
0.0
 30
0.0
  3
*D4
  1

  0
LINE
  5
397
100
AcDbEntity
  8
3
370
    25
100
AcDbLine
 10
206.35006
 20
-19.642438
 30
0.0
 11
206.35006
 21
-118.001236
 31
0.0
  0
LINE
  5
398
100
AcDbEntity
  8
3
370
    25
100
AcDbLine
 10
206.35006
 20
-116.001236
 30
0.0
 11
210.213763
 21
-117.036512
 31
0.0
  0
LINE
  5
399
100
AcDbEntity
  8
3
370
    25
100
AcDbLine
 10
206.35006
 20
-116.001236
 30
0.0
 11
210.213763
 21
-114.96596
 31
0.0
  0
LINE
  5
39A
100
AcDbEntity
  8
3
370
    25
100
AcDbLine
 10
210.213763
 20
-117.036512
 30
0.0
 11
210.213763
 21
-114.96596
 31
0.0
  0
LINE
  5
39B
100
AcDbEntity
  8
3
370
    25
100
AcDbLine
 10
206.35006
 20
-116.001236
 30
0.0
 11
295.349942
 21
-116.001236
 31
0.0
  0
LINE
  5
39C
100
AcDbEntity
  8
3
370
    25
100
AcDbLine
 10
295.349942
 20
-116.001236
 30
0.0
 11
291.486239
 21
-114.96596
 31
0.0
  0
LINE
  5
39D
100
AcDbEntity
  8
3
370
    25
100
AcDbLine
 10
295.349942
 20
-116.001236
 30
0.0
 11
291.486239
 21
-117.036512
 31
0.0
  0
LINE
  5
39E
100
AcDbEntity
  8
3
370
    25
100
AcDbLine
 10
291.486239
 20
-114.96596
 30
0.0
 11
291.486239
 21
-117.036512
 31
0.0
  0
LINE
  5
39F
100
AcDbEntity
  8
3
370
    25
100
AcDbLine
 10
295.349942
 20
-41.276827
 30
0.0
 11
295.349942
 21
-118.001236
 31
0.0
  0
ENDBLK
  5
3A0
100
AcDbEntity
  8
3
100
AcDbBlockEnd
  0
BLOCK
  5
3A1
100
AcDbEntity
  8
3
100
AcDbBlockBegin
  2
*D5
 70
     1
 10
0.0
 20
0.0
 30
0.0
  3
*D5
  1

  0
LINE
  5
3A2
100
AcDbEntity
  8
3
370
    25
100
AcDbLine
 10
295.349942
 20
-41.276827
 30
0.0
 11
295.349942
 21
-118.001236
 31
0.0
  0
LINE
  5
3A3
100
AcDbEntity
  8
3
370
    25
100
AcDbLine
 10
295.349942
 20
-116.001236
 30
0.0
 11
291.486239
 21
-114.96596
 31
0.0
  0
LINE
  5
3A4
100
AcDbEntity
  8
3
370
    25
100
AcDbLine
 10
295.349942
 20
-116.001236
 30
0.0
 11
291.486239
 21
-117.036512
 31
0.0
  0
LINE
  5
3A5
100
AcDbEntity
  8
3
370
    25
100
AcDbLine
 10
291.486239
 20
-114.96596
 30
0.0
 11
291.486239
 21
-117.036512
 31
0.0
  0
LINE
  5
3A6
100
AcDbEntity
  8
3
370
    25
100
AcDbLine
 10
285.349942
 20
-116.001236
 30
0.0
 11
345.349942
 21
-116.001236
 31
0.0
  0
LINE
  5
3A7
100
AcDbEntity
  8
3
370
    25
100
AcDbLine
 10
309.349942
 20
-116.001236
 30
0.0
 11
313.213646
 21
-117.036512
 31
0.0
  0
LINE
  5
3A8
100
AcDbEntity
  8
3
370
    25
100
AcDbLine
 10
309.349942
 20
-116.001236
 30
0.0
 11
313.213646
 21
-114.96596
 31
0.0
  0
LINE
  5
3A9
100
AcDbEntity
  8
3
370
    25
100
AcDbLine
 10
313.213646
 20
-117.036512
 30
0.0
 11
313.213646
 21
-114.96596
 31
0.0
  0
LINE
  5
3AA
100
AcDbEntity
  8
3
370
    25
100
AcDbLine
 10
309.349942
 20
-27.576827
 30
0.0
 11
309.349942
 21
-118.001236
 31
0.0
  0
ENDBLK
  5
3AB
100
AcDbEntity
  8
3
100
AcDbBlockEnd
  0
BLOCK
  5
3AC
100
AcDbEntity
  8
3
100
AcDbBlockBegin
  2
*D6
 70
     1
 10
0.0
 20
0.0
 30
0.0
  3
*D6
  1

  0
TEXT
  5
3AD
100
AcDbEntity
  8
3
370
    25
100
AcDbText
 10
2.596127
 20
-42.143149
 30
0.0
 40
7.0
  1
９４
 50
90.0
 72
     5
 11
2.596127
 21
-29.543149
 31
0.0
100
AcDbText
  0
LINE
  5
3AE
100
AcDbEntity
  8
3
370
    25
100
AcDbLine
 10
26.739231
 20
-82.293471
 30
0.0
 11
1.596127
 21
-82.293471
 31
0.0
  0
LINE
  5
3AF
100
AcDbEntity
  8
3
370
    25
100
AcDbLine
 10
3.596127
 20
-82.293471
 30
0.0
 11
4.631403
 21
-78.429767
 31
0.0
  0
LINE
  5
3B0
100
AcDbEntity
  8
3
370
    25
100
AcDbLine
 10
3.596127
 20
-82.293471
 30
0.0
 11
2.560851
 21
-78.429767
 31
0.0
  0
LINE
  5
3B1
100
AcDbEntity
  8
3
370
    25
100
AcDbLine
 10
4.631403
 20
-78.429767
 30
0.0
 11
2.560851
 21
-78.429767
 31
0.0
  0
LINE
  5
3B2
100
AcDbEntity
  8
3
370
    25
100
AcDbLine
 10
3.596127
 20
-82.293471
 30
0.0
 11
3.596127
 21
12.007173
 31
0.0
  0
LINE
  5
3B3
100
AcDbEntity
  8
3
370
    25
100
AcDbLine
 10
3.596127
 20
12.007173
 30
0.0
 11
2.560851
 21
8.14347
 31
0.0
  0
LINE
  5
3B4
100
AcDbEntity
  8
3
370
    25
100
AcDbLine
 10
3.596127
 20
12.007173
 30
0.0
 11
4.631403
 21
8.14347
 31
0.0
  0
LINE
  5
3B5
100
AcDbEntity
  8
3
370
    25
100
AcDbLine
 10
2.560851
 20
8.14347
 30
0.0
 11
4.631403
 21
8.14347
 31
0.0
  0
LINE
  5
3B6
100
AcDbEntity
  8
3
370
    25
100
AcDbLine
 10
236.349942
 20
12.007173
 30
0.0
 11
1.596127
 21
12.007173
 31
0.0
  0
ENDBLK
  5
3B7
100
AcDbEntity
  8
3
100
AcDbBlockEnd
  0
BLOCK
  5
3B8
100
AcDbEntity
  8
3
100
AcDbBlockBegin
  2
*D7
 70
     1
 10
0.0
 20
0.0
 30
0.0
  3
*D7
  1

  0
TEXT
  5
3B9
100
AcDbEntity
  8
3
370
    25
100
AcDbText
 10
110.850214
 20
-115.001236
 30
0.0
 40
7.0
  1
１７０
 72
     5
 11
130.450214
 21
-115.001236
 31
0.0
100
AcDbText
  0
LINE
  5
3BA
100
AcDbEntity
  8
3
370
    25
100
AcDbLine
 10
36.350368
 20
-84.293471
 30
0.0
 11
36.350368
 21
-118.001236
 31
0.0
  0
LINE
  5
3BB
100
AcDbEntity
  8
3
370
    25
100
AcDbLine
 10
36.350368
 20
-116.001236
 30
0.0
 11
40.214071
 21
-117.036512
 31
0.0
  0
LINE
  5
3BC
100
AcDbEntity
  8
3
370
    25
100
AcDbLine
 10
36.350368
 20
-116.001236
 30
0.0
 11
40.214071
 21
-114.96596
 31
0.0
  0
LINE
  5
3BD
100
AcDbEntity
  8
3
370
    25
100
AcDbLine
 10
40.214071
 20
-117.036512
 30
0.0
 11
40.214071
 21
-114.96596
 31
0.0
  0
LINE
  5
3BE
100
AcDbEntity
  8
3
370
    25
100
AcDbLine
 10
36.350368
 20
-116.001236
 30
0.0
 11
206.35006
 21
-116.001236
 31
0.0
  0
LINE
  5
3BF
100
AcDbEntity
  8
3
370
    25
100
AcDbLine
 10
206.35006
 20
-116.001236
 30
0.0
 11
202.486356
 21
-114.96596
 31
0.0
  0
LINE
  5
3C0
100
AcDbEntity
  8
3
370
    25
100
AcDbLine
 10
206.35006
 20
-116.001236
 30
0.0
 11
202.486356
 21
-117.036512
 31
0.0
  0
LINE
  5
3C1
100
AcDbEntity
  8
3
370
    25
100
AcDbLine
 10
202.486356
 20
-114.96596
 30
0.0
 11
202.486356
 21
-117.036512
 31
0.0
  0
LINE
  5
3C2
100
AcDbEntity
  8
3
370
    25
100
AcDbLine
 10
206.35006
 20
-19.642438
 30
0.0
 11
206.35006
 21
-118.001236
 31
0.0
  0
ENDBLK
  5
3C3
100
AcDbEntity
  8
3
100
AcDbBlockEnd
  0
BLOCK
  5
3C4
100
AcDbEntity
  8
3
100
AcDbBlockBegin
  2
*D8
 70
     1
 10
0.0
 20
0.0
 30
0.0
  3
*D8
  1

  0
TEXT
  5
3C5
100
AcDbEntity
  8
3
370
    25
100
AcDbText
 10
-203.705399
 20
-29.411993
 30
0.0
 40
7.0
  1
１８０゜
 72
     5
 11
-177.105399
 21
-29.411993
 31
0.0
100
AcDbText
  0
LINE
  5
3C6
100
AcDbEntity
  8
3
370
    25
100
AcDbLine
 10
-233.83464
 20
12.007529
 30
0.0
 11
-238.091013
 21
12.007529
 31
0.0
  0
LINE
  5
3C7
100
AcDbEntity
  8
3
370
    25
100
AcDbLine
 10
-151.946396
 20
12.007529
 30
0.0
 11
-147.690023
 21
12.007529
 31
0.0
  0
LINE
  5
3C8
100
AcDbEntity
  8
3
370
    25
100
AcDbLine
 10
-236.091013
 20
12.007529
 30
0.0
 11
-236.952475
 21
8.101395
 31
0.0
  0
LINE
  5
3C9
100
AcDbEntity
  8
3
370
    25
100
AcDbLine
 10
-236.091013
 20
12.007529
 30
0.0
 11
-234.883994
 21
8.193987
 31
0.0
  0
LINE
  5
3CA
100
AcDbEntity
  8
3
370
    25
100
AcDbLine
 10
-236.952475
 20
8.101395
 30
0.0
 11
-234.883994
 21
8.193987
 31
0.0
  0
LINE
  5
3CB
100
AcDbEntity
  8
3
370
    25
100
AcDbLine
 10
-149.690023
 20
12.007529
 30
0.0
 11
-150.897042
 21
8.193987
 31
0.0
  0
LINE
  5
3CC
100
AcDbEntity
  8
3
370
    25
100
AcDbLine
 10
-149.690023
 20
12.007529
 30
0.0
 11
-148.828561
 21
8.101395
 31
0.0
  0
LINE
  5
3CD
100
AcDbEntity
  8
3
370
    25
100
AcDbLine
 10
-150.897042
 20
8.193987
 30
0.0
 11
-148.828561
 21
8.101395
 31
0.0
  0
ARC
  5
3CE
100
AcDbEntity
  8
3
370
    25
100
AcDbCircle
 10
-192.890518
 20
12.007529
 30
0.0
 40
43.200495
100
AcDbArc
 50
180.0
 51
360.0
  0
ENDBLK
  5
3CF
100
AcDbEntity
  8
3
100
AcDbBlockEnd
  0
BLOCK
  5
3D0
100
AcDbEntity
  8
3
100
AcDbBlockBegin
  2
*D9
 70
     1
 10
0.0
 20
0.0
 30
0.0
  3
*D9
  1

  0
TEXT
  5
3D1
100
AcDbEntity
  8
3
370
    25
100
AcDbText
 10
332.450439
 20
-23.276827
 30
0.0
 40
7.0
  1
４６
 50
90.0
 72
     5
 11
332.450439
 21
-10.676827
 31
0.0
100
AcDbText
  0
LINE
  5
3D2
100
AcDbEntity
  8
3
370
    25
100
AcDbLine
 10
297.349942
 20
-39.276827
 30
0.0
 11
335.450439
 21
-39.276827
 31
0.0
  0
LINE
  5
3D3
100
AcDbEntity
  8
3
370
    25
100
AcDbLine
 10
333.450439
 20
-39.276827
 30
0.0
 11
334.485716
 21
-35.413124
 31
0.0
  0
LINE
  5
3D4
100
AcDbEntity
  8
3
370
    25
100
AcDbLine
 10
333.450439
 20
-39.276827
 30
0.0
 11
332.415163
 21
-35.413124
 31
0.0
  0
LINE
  5
3D5
100
AcDbEntity
  8
3
370
    25
100
AcDbLine
 10
334.485716
 20
-35.413124
 30
0.0
 11
332.415163
 21
-35.413124
 31
0.0
  0
LINE
  5
3D6
100
AcDbEntity
  8
3
370
    25
100
AcDbLine
 10
333.450439
 20
-39.276827
 30
0.0
 11
333.450439
 21
6.723173
 31
0.0
  0
LINE
  5
3D7
100
AcDbEntity
  8
3
370
    25
100
AcDbLine
 10
333.450439
 20
6.723173
 30
0.0
 11
332.415163
 21
2.85947
 31
0.0
  0
LINE
  5
3D8
100
AcDbEntity
  8
3
370
    25
100
AcDbLine
 10
333.450439
 20
6.723173
 30
0.0
 11
334.485716
 21
2.85947
 31
0.0
  0
LINE
  5
3D9
100
AcDbEntity
  8
3
370
    25
100
AcDbLine
 10
332.415163
 20
2.85947
 30
0.0
 11
334.485716
 21
2.85947
 31
0.0
  0
LINE
  5
3DA
100
AcDbEntity
  8
3
370
    25
100
AcDbLine
 10
297.349942
 20
6.723173
 30
0.0
 11
335.450439
 21
6.723173
 31
0.0
  0
ENDBLK
  5
3DB
100
AcDbEntity
  8
3
100
AcDbBlockEnd
  0
ENDSEC
  0
SECTION
  2
ENTITIES
  0
LINE
  5
30
100
AcDbEntity
  8
1
370
   100
100
AcDbLine
 10
-373.02157
 20
275.028767
 30
0.0
 11
394.982385
 21
275.028767
 31
0.0
  0
LINE
  5
31
100
AcDbEntity
  8
1
370
   100
100
AcDbLine
 10
-373.02157
 20
275.028767
 30
0.0
 11
-373.02157
 21
-277.971881
 31
0.0
  0
LINE
  5
32
100
AcDbEntity
  8
1
370
   100
100
AcDbLine
 10
-373.02157
 20
-277.971881
 30
0.0
 11
394.982385
 21
-277.971881
 31
0.0
  0
LINE
  5
33
100
AcDbEntity
  8
1
370
   100
100
AcDbLine
 10
394.982385
 20
-277.971881
 30
0.0
 11
394.982385
 21
275.028767
 31
0.0
  0
TEXT
  5
34
100
AcDbEntity
  8
1
370
    50
100
AcDbText
 10
359.628442
 20
-226.252857
 30
0.0
 40
6.0
  1
設計
 72
     5
 11
370.428442
 21
-226.252857
 31
0.0
100
AcDbText
  0
TEXT
  5
35
100
AcDbEntity
  8
1
370
    50
100
AcDbText
 10
379.127478
 20
-226.099658
 30
0.0
 40
6.0
  1
製図
 72
     5
 11
389.927478
 21
-226.099658
 31
0.0
100
AcDbText
  0
TEXT
  5
36
100
AcDbEntity
  8
1
370
    50
100
AcDbText
 10
319.005745
 20
-226.252857
 30
0.0
 40
6.0
  1
承認
 72
     5
 11
329.805745
 21
-226.252857
 31
0.0
100
AcDbText
  0
TEXT
  5
37
100
AcDbEntity
  8
1
370
    50
100
AcDbText
 10
338.989679
 20
-226.19802
 30
0.0
 40
6.0
  1
検図
 72
     5
 11
349.789679
 21
-226.19802
 31
0.0
100
AcDbText
  0
LINE
  5
38
100
AcDbEntity
  8
1
370
    25
100
AcDbLine
 10
284.982385
 20
-227.971881
 30
0.0
 11
394.982385
 21
-227.971881
 31
0.0
  0
LINE
  5
39
100
AcDbEntity
  8
1
370
    25
100
AcDbLine
 10
342.482385
 20
-245.971881
 30
0.0
 11
342.482385
 21
-259.971881
 31
0.0
  0
TEXT
  5
3A
100
AcDbEntity
  8
1
370
    50
100
AcDbText
 10
319.55159
 20
-256.012528
 30
0.0
 40
6.0
  1
日　付
 72
     5
 11
336.35159
 21
-256.012528
 31
0.0
100
AcDbText
  0
LINE
  5
3B
100
AcDbEntity
  8
1
370
    50
100
AcDbLine
 10
40.982385
 20
-259.971881
 30
0.0
 11
394.982385
 21
-259.971881
 31
0.0
  0
TEXT
  5
3C
100
AcDbEntity
  8
1
370
    50
100
AcDbText
 10
287.775011
 20
-256.322406
 30
0.0
 40
6.0
  1
第三角法
 72
     5
 11
310.575011
 21
-256.322406
 31
0.0
100
AcDbText
  0
TEXT
  5
3D
100
AcDbEntity
  8
1
370
    50
100
AcDbText
 10
291.087419
 20
-225.99802
 30
0.0
 40
6.0
  1
尺　度
 72
     5
 11
307.887419
 21
-225.99802
 31
0.0
100
AcDbText
  0
LINE
  5
3E
100
AcDbEntity
  8
1
370
   100
100
AcDbLine
 10
40.982385
 20
-217.971881
 30
0.0
 11
394.982385
 21
-217.971881
 31
0.0
  0
LINE
  5
3F
100
AcDbEntity
  8
1
370
    50
100
AcDbLine
 10
211.982385
 20
-217.971881
 30
0.0
 11
211.982385
 21
-277.971881
 31
0.0
  0
LINE
  5
40
100
AcDbEntity
  8
1
370
    25
100
AcDbLine
 10
374.982385
 20
-245.971881
 30
0.0
 11
374.982385
 21
-217.971881
 31
0.0
  0
LINE
  5
41
100
AcDbEntity
  8
1
370
    25
100
AcDbLine
 10
354.982385
 20
-245.971881
 30
0.0
 11
354.982385
 21
-217.971881
 31
0.0
  0
LINE
  5
42
100
AcDbEntity
  8
1
370
    25
100
AcDbLine
 10
334.982385
 20
-245.971881
 30
0.0
 11
334.982385
 21
-217.971881
 31
0.0
  0
LINE
  5
43
100
AcDbEntity
  8
1
370
    50
100
AcDbLine
 10
284.982385
 20
-277.971881
 30
0.0
 11
284.982385
 21
-217.971881
 31
0.0
  0
LINE
  5
44
100
AcDbEntity
  8
1
370
    50
100
AcDbLine
 10
189.982385
 20
-217.971881
 30
0.0
 11
189.982385
 21
-277.971881
 31
0.0
  0
LINE
  5
45
100
AcDbEntity
  8
1
370
    50
100
AcDbLine
 10
62.982385
 20
-217.971881
 30
0.0
 11
62.982385
 21
-259.971881
 31
0.0
  0
LINE
  5
46
100
AcDbEntity
  8
1
370
    50
100
AcDbLine
 10
284.982385
 20
-245.971881
 30
0.0
 11
394.982385
 21
-245.971881
 31
0.0
  0
TEXT
  5
47
100
AcDbEntity
  8
1
370
    50
100
AcDbText
 10
287.101129
 20
-271.880939
 30
0.0
 40
6.0
  1
コードＮｏ
 41
0.9
 72
     5
 11
313.021129
 21
-271.880939
 31
0.0
100
AcDbText
  0
TEXT
  5
48
100
AcDbEntity
  8
1
370
   100
100
AcDbText
 10
52.886774
 20
-272.875659
 30
0.0
 40
8.0
  1
ミズタニバルブ工業株式会社
 41
1.2
 72
     5
 11
175.766774
 21
-272.875659
 31
0.0
100
AcDbText
  0
LINE
  5
49
100
AcDbEntity
  8
1
370
    50
100
AcDbLine
 10
40.982385
 20
-238.971881
 30
0.0
 11
284.982385
 21
-238.971881
 31
0.0
  0
LINE
  5
4A
100
AcDbEntity
  8
1
370
    50
100
AcDbLine
 10
115.482385
 20
-238.971881
 30
0.0
 11
115.482385
 21
-259.971881
 31
0.0
  0
LINE
  5
4B
100
AcDbEntity
  8
1
370
    50
100
AcDbLine
 10
137.482385
 20
-238.971881
 30
0.0
 11
137.482385
 21
-259.971881
 31
0.0
  0
LINE
  5
4C
100
AcDbEntity
  8
1
370
    50
100
AcDbLine
 10
314.982385
 20
-277.971881
 30
0.0
 11
314.982385
 21
-217.971881
 31
0.0
  0
TEXT
  5
4D
100
AcDbEntity
  8
1
370
    50
100
AcDbText
 10
345.098131
 20
-256.100293
 30
0.0
 40
6.0
  1
　　・　　・
 72
     5
 11
379.898131
 21
-256.100293
 31
0.0
100
AcDbText
  0
LINE
  5
4E
100
AcDbEntity
  8
1
370
   100
100
AcDbLine
 10
40.982385
 20
-217.971881
 30
0.0
 11
40.982385
 21
-277.971881
 31
0.0
  0
TEXT
  5
4F
100
AcDbEntity
  8
1
370
    50
100
AcDbText
 10
290.832582
 20
-240.013492
 30
0.0
 40
6.0
  1
　／ 
 72
     5
 11
301.632582
 21
-240.013492
 31
0.0
100
AcDbText
  0
TEXT
  5
50
100
AcDbEntity
  8
1
370
    50
100
AcDbText
 10
193.904123
 20
-272.024909
 30
0.0
 40
6.0
  1
備 考 
 72
     5
 11
207.704123
 21
-272.024909
 31
0.0
100
AcDbText
  0
TEXT
  5
51
100
AcDbEntity
  8
1
370
    50
100
AcDbText
 10
193.512534
 20
-230.89184
 30
0.0
 40
6.0
  1
仕 上
 72
     5
 11
207.312534
 21
-230.89184
 31
0.0
100
AcDbText
  0
TEXT
  5
52
100
AcDbEntity
  8
1
370
    50
100
AcDbText
 10
193.447176
 20
-248.891666
 30
0.0
 40
6.0
  1
表 面
 72
     5
 11
207.247176
 21
-248.891666
 31
0.0
100
AcDbText
  0
TEXT
  5
53
100
AcDbEntity
  8
1
370
    50
100
AcDbText
 10
193.447176
 20
-255.891666
 30
0.0
 40
6.0
  1
処 理
 72
     5
 11
207.247176
 21
-255.891666
 31
0.0
100
AcDbText
  0
TEXT
  5
54
100
AcDbEntity
  8
1
370
    50
100
AcDbText
 10
44.79335
 20
-231.693399
 30
0.0
 40
6.0
  1
品 名
 72
     5
 11
58.59335
 21
-231.693399
 31
0.0
100
AcDbText
  0
TEXT
  5
55
100
AcDbEntity
  8
1
370
    50
100
AcDbText
 10
44.397766
 20
-252.462534
 30
0.0
 40
6.0
  1
材 質
 72
     5
 11
58.197766
 21
-252.462534
 31
0.0
100
AcDbText
  0
TEXT
  5
56
100
AcDbEntity
  8
1
370
    50
100
AcDbText
 10
118.897766
 20
-252.462534
 30
0.0
 40
6.0
  1
規 格
 72
     5
 11
132.697766
 21
-252.462534
 31
0.0
100
AcDbText
  0
ARC
  5
57
100
AcDbEntity
  8
2
370
    50
100
AcDbCircle
 10
-186.431298
 20
56.428367
 30
0.0
 40
100.0
100
AcDbArc
 50
168.537652
 51
188.388164
  0
ARC
  5
58
100
AcDbEntity
  8
2
370
    50
100
AcDbCircle
 10
-335.868895
 20
56.428367
 30
0.0
 40
100.0
100
AcDbArc
 50
351.611836
 51
11.462348
  0
ARC
  5
59
100
AcDbEntity
  8
2
370
    50
100
AcDbCircle
 10
-261.150097
 20
-55.686556
 30
0.0
 40
140.0
100
AcDbArc
 50
93.788374
 51
96.34007
  0
ARC
  5
5A
100
AcDbEntity
  8
2
370
    50
100
AcDbCircle
 10
-261.150097
 20
-55.686556
 30
0.0
 40
140.0
100
AcDbArc
 50
83.65993
 51
86.211626
  0
ARC
  5
5B
100
AcDbEntity
  8
2
370
    50
100
AcDbCircle
 10
-275.616349
 20
74.512244
 30
0.0
 40
9.0
100
AcDbArc
 50
96.34007
 51
168.537652
  0
ARC
  5
5C
100
AcDbEntity
  8
2
370
    50
100
AcDbCircle
 10
-246.683844
 20
74.512244
 30
0.0
 40
9.0
100
AcDbArc
 50
11.462348
 51
83.65993
  0
ARC
  5
5D
100
AcDbEntity
  8
2
370
    50
100
AcDbCircle
 10
-277.447127
 20
43.007529
 30
0.0
 40
8.0
100
AcDbArc
 50
188.388164
 51
270.0
  0
ARC
  5
5E
100
AcDbEntity
  8
2
370
    50
100
AcDbCircle
 10
-244.853066
 20
43.007529
 30
0.0
 40
8.0
100
AcDbArc
 50
270.0
 51
351.611836
  0
LINE
  5
5F
100
AcDbEntity
  8
2
370
    50
100
AcDbLine
 10
-277.447127
 20
35.007529
 30
0.0
 11
-244.853066
 21
35.007529
 31
0.0
  0
LINE
  5
60
100
AcDbEntity
  8
2
370
    50
100
AcDbLine
 10
-269.900097
 20
84.626468
 30
0.0
 11
-269.900097
 21
84.007529
 31
0.0
  0
LINE
  5
61
100
AcDbEntity
  8
2
370
    50
100
AcDbLine
 10
-252.400097
 20
84.626468
 30
0.0
 11
-252.400097
 21
84.007529
 31
0.0
  0
ARC
  5
62
100
AcDbEntity
  8
2
370
    50
100
AcDbCircle
 10
-268.900097
 20
84.626468
 30
0.0
 40
1.0
100
AcDbArc
 50
95.629843
 51
180.0
  0
ARC
  5
63
100
AcDbEntity
  8
2
370
    50
100
AcDbCircle
 10
-253.400097
 20
84.626468
 30
0.0
 40
1.0
100
AcDbArc
 50
0.0
 51
84.370157
  0
ARC
  5
64
100
AcDbEntity
  8
2
370
    50
100
AcDbCircle
 10
-261.150097
 20
6.007529
 30
0.0
 40
80.0
100
AcDbArc
 50
84.370157
 51
95.629843
  0
LINE
  5
65
100
AcDbEntity
  8
2
370
    50
100
AcDbLine
 10
-270.400097
 20
84.007529
 30
0.0
 11
-261.150058
 21
84.007529
 31
0.0
  0
LINE
  5
66
100
AcDbEntity
  8
2
370
    50
100
AcDbLine
 10
-261.150058
 20
84.007529
 30
0.0
 11
-251.900097
 21
84.007529
 31
0.0
  0
LINE
  5
67
100
AcDbEntity
  8
2
370
    50
100
AcDbLine
 10
144.266706
 20
20.75754
 30
0.0
 11
144.849942
 21
20.75754
 31
0.0
  0
LINE
  5
68
100
AcDbEntity
  8
2
370
    50
100
AcDbLine
 10
144.849942
 20
3.25754
 30
0.0
 11
144.266706
 21
3.25754
 31
0.0
  0
ARC
  5
69
100
AcDbEntity
  8
2
370
    50
100
AcDbCircle
 10
144.266706
 20
4.25754
 30
0.0
 40
1.0
100
AcDbArc
 50
189.100302
 51
270.0
  0
ARC
  5
6A
100
AcDbEntity
  8
2
370
    50
100
AcDbCircle
 10
144.266706
 20
19.75754
 30
0.0
 40
1.0
100
AcDbArc
 50
90.0
 51
170.899698
  0
LINE
  5
6B
100
AcDbEntity
  8
2
370
    50
100
AcDbLine
 10
152.855176
 20
27.934115
 30
0.0
 11
177.827889
 21
28.484984
 31
0.0
  0
LINE
  5
6C
100
AcDbEntity
  8
2
370
    50
100
AcDbLine
 10
152.855176
 20
-3.919057
 30
0.0
 11
177.827889
 21
-4.469925
 31
0.0
  0
ARC
  5
6D
100
AcDbEntity
  8
2
370
    50
100
AcDbCircle
 10
153.053657
 20
18.936304
 30
0.0
 40
9.0
100
AcDbArc
 50
91.263673
 51
152.405115
  0
ARC
  5
6E
100
AcDbEntity
  8
2
370
    50
100
AcDbCircle
 10
153.053657
 20
5.078754
 30
0.0
 40
9.0
100
AcDbArc
 50
207.594885
 51
268.736327
  0
ARC
  5
6F
100
AcDbEntity
  8
2
370
    50
100
AcDbCircle
 10
177.849942
 20
27.485227
 30
0.0
 40
1.0
100
AcDbArc
 50
0.0
 51
91.263673
  0
ARC
  5
70
100
AcDbEntity
  8
2
370
    50
100
AcDbCircle
 10
177.849942
 20
-3.470169
 30
0.0
 40
1.0
100
AcDbArc
 50
268.736327
 51
360.0
  0
ARC
  5
71
100
AcDbEntity
  8
2
370
    50
100
AcDbCircle
 10
146.849942
 20
22.178823
 30
0.0
 40
2.0
100
AcDbArc
 50
152.405115
 51
180.0
  0
ARC
  5
72
100
AcDbEntity
  8
2
370
    50
100
AcDbCircle
 10
146.849942
 20
1.836236
 30
0.0
 40
2.0
100
AcDbArc
 50
180.0
 51
207.594885
  0
LINE
  5
73
100
AcDbEntity
  8
2
370
    50
100
AcDbLine
 10
-159.890058
 20
14.507529
 30
0.0
 11
-159.890058
 21
9.507529
 31
0.0
  0
LINE
  5
74
100
AcDbEntity
  8
2
370
    50
100
AcDbLine
 10
-171.422541
 20
15.007529
 30
0.0
 11
-170.445443
 21
15.007529
 31
0.0
  0
LINE
  5
75
100
AcDbEntity
  8
2
370
    50
100
AcDbLine
 10
-171.422541
 20
9.007529
 30
0.0
 11
-170.445443
 21
9.007529
 31
0.0
  0
ARC
  5
76
100
AcDbEntity
  8
2
370
    50
100
AcDbCircle
 10
-161.390058
 20
9.507529
 30
0.0
 40
1.5
100
AcDbArc
 50
257.396547
 51
360.0
  0
ARC
  5
77
100
AcDbEntity
  8
2
370
    50
100
AcDbCircle
 10
-161.390058
 20
14.507529
 30
0.0
 40
1.5
100
AcDbArc
 50
0.0
 51
98.713388
  0
ARC
  5
78
100
AcDbEntity
  8
2
370
    50
100
AcDbCircle
 10
-170.445443
 20
55.007529
 30
0.0
 40
40.0
100
AcDbArc
 50
270.0
 51
282.603453
  0
ARC
  5
79
100
AcDbEntity
  8
2
370
    50
100
AcDbCircle
 10
-170.445443
 20
-30.992471
 30
0.0
 40
40.0
100
AcDbArc
 50
77.396547
 51
90.0
  0
ARC
  5
7A
100
AcDbEntity
  8
2
370
    50
100
AcDbCircle
 10
-171.422541
 20
25.007529
 30
0.0
 40
10.0
100
AcDbArc
 50
210.321686
 51
270.0
  0
ARC
  5
7B
100
AcDbEntity
  8
2
370
    50
100
AcDbCircle
 10
-171.422541
 20
-0.992471
 30
0.0
 40
10.0
100
AcDbArc
 50
90.0
 51
149.678314
  0
ARC
  5
7C
100
AcDbEntity
  8
2
370
    50
100
AcDbCircle
 10
-171.422541
 20
25.007529
 30
0.0
 40
9.25
100
AcDbArc
 50
210.321686
 51
263.003582
  0
ARC
  5
7D
100
AcDbEntity
  8
2
370
    50
100
AcDbCircle
 10
-171.422541
 20
-0.992471
 30
0.0
 40
9.25
100
AcDbArc
 50
96.996418
 51
149.678314
  0
ARC
  5
7E
100
AcDbEntity
  8
2
370
    50
100
AcDbCircle
 10
-167.676967
 20
-31.513499
 30
0.0
 40
40.0
100
AcDbArc
 50
81.286612
 51
96.996418
  0
ARC
  5
7F
100
AcDbEntity
  8
2
370
    50
100
AcDbCircle
 10
-167.676967
 20
55.528558
 30
0.0
 40
40.0
100
AcDbArc
 50
263.003582
 51
278.713388
  0
CIRCLE
  5
80
100
AcDbEntity
  8
2
370
    50
100
AcDbCircle
 10
-193.650058
 20
12.007529
 30
0.0
 40
8.75
  0
ARC
  5
81
100
AcDbEntity
  8
2
370
    50
100
AcDbCircle
 10
-193.650058
 20
12.007529
 30
0.0
 40
15.75
100
AcDbArc
 50
30.321686
 51
180.0
  0
ARC
  5
82
100
AcDbEntity
  8
2
370
    50
100
AcDbCircle
 10
-193.650058
 20
12.007529
 30
0.0
 40
15.75
100
AcDbArc
 50
180.0
 51
329.678314
  0
ARC
  5
83
100
AcDbEntity
  8
2
370
    50
100
AcDbCircle
 10
-193.650058
 20
12.007529
 30
0.0
 40
16.5
100
AcDbArc
 50
30.321686
 51
180.0
  0
ARC
  5
84
100
AcDbEntity
  8
2
370
    50
100
AcDbCircle
 10
-193.650058
 20
12.007529
 30
0.0
 40
16.5
100
AcDbArc
 50
180.0
 51
329.678314
  0
ARC
  5
85
100
AcDbEntity
  8
2
370
    50
100
AcDbCircle
 10
-370.814998
 20
55.913194
 30
0.0
 40
120.0
100
AcDbArc
 50
355.059572
 51
9.155483
  0
ARC
  5
86
100
AcDbEntity
  8
2
370
    50
100
AcDbCircle
 10
-151.485117
 20
55.913194
 30
0.0
 40
120.0
100
AcDbArc
 50
170.844517
 51
184.940428
  0
ARC
  5
87
100
AcDbEntity
  8
2
370
    50
100
AcDbCircle
 10
-261.150058
 20
73.587609
 30
0.0
 40
8.91992
100
AcDbArc
 50
9.155483
 51
170.844517
  0
ARC
  5
88
100
AcDbEntity
  8
2
370
    50
100
AcDbCircle
 10
-261.150058
 20
46.43364
 30
0.0
 40
9.926111
100
AcDbArc
 50
184.940428
 51
355.059572
  0
LINE
  5
89
100
AcDbEntity
  8
2
370
    50
100
AcDbLine
 10
-246.650058
 20
80.507529
 30
0.0
 11
-246.650058
 21
39.507529
 31
0.0
  0
LINE
  5
8A
100
AcDbEntity
  8
2
370
    50
100
AcDbLine
 10
-275.650058
 20
80.507529
 30
0.0
 11
-275.650058
 21
39.507529
 31
0.0
  0
ARC
  5
8B
100
AcDbEntity
  8
2
370
    50
100
AcDbCircle
 10
-335.868857
 20
56.428367
 30
0.0
 40
99.5
100
AcDbArc
 50
352.362481
 51
11.528523
  0
ARC
  5
8C
100
AcDbEntity
  8
2
370
    50
100
AcDbCircle
 10
-186.431259
 20
56.428367
 30
0.0
 40
99.5
100
AcDbArc
 50
168.471477
 51
187.637519
  0
ARC
  5
8D
100
AcDbEntity
  8
2
370
    50
100
AcDbCircle
 10
-276.085277
 20
74.715167
 30
0.0
 40
8.0
100
AcDbArc
 50
105.117347
 51
168.471477
  0
ARC
  5
8E
100
AcDbEntity
  8
2
370
    50
100
AcDbCircle
 10
-277.650058
 20
80.507529
 30
0.0
 40
2.0
100
AcDbArc
 50
0.0
 51
105.117347
  0
ARC
  5
8F
100
AcDbEntity
  8
2
370
    50
100
AcDbCircle
 10
-246.214839
 20
74.715167
 30
0.0
 40
8.0
100
AcDbArc
 50
11.528523
 51
74.882653
  0
ARC
  5
90
100
AcDbEntity
  8
2
370
    50
100
AcDbCircle
 10
-244.650058
 20
80.507529
 30
0.0
 40
2.0
100
AcDbArc
 50
74.882653
 51
180.0
  0
ARC
  5
91
100
AcDbEntity
  8
2
370
    50
100
AcDbCircle
 10
-277.119537
 20
44.267519
 30
0.0
 40
8.0
100
AcDbArc
 50
187.637519
 51
252.175397
  0
ARC
  5
92
100
AcDbEntity
  8
2
370
    50
100
AcDbCircle
 10
-278.650058
 20
39.507529
 30
0.0
 40
3.0
100
AcDbArc
 50
252.175397
 51
360.0
  0
ARC
  5
93
100
AcDbEntity
  8
2
370
    50
100
AcDbCircle
 10
-243.650058
 20
39.507529
 30
0.0
 40
3.0
100
AcDbArc
 50
180.0
 51
287.824603
  0
ARC
  5
94
100
AcDbEntity
  8
2
370
    50
100
AcDbCircle
 10
-245.180578
 20
44.267519
 30
0.0
 40
8.0
100
AcDbArc
 50
287.824603
 51
352.362481
  0
LINE
  5
95
100
AcDbEntity
  8
2
370
    50
100
AcDbLine
 10
139.849942
 20
9.841677
 30
0.0
 11
139.849942
 21
14.173381
 31
0.0
  0
LINE
  5
96
100
AcDbEntity
  8
2
370
    50
100
AcDbLine
 10
140.442644
 20
15.594477
 30
0.0
 11
144.25724
 21
19.372038
 31
0.0
  0
LINE
  5
97
100
AcDbEntity
  8
2
370
    50
100
AcDbLine
 10
144.25724
 20
4.64302
 30
0.0
 11
140.442644
 21
8.420582
 31
0.0
  0
LINE
  5
98
100
AcDbEntity
  8
2
370
    50
100
AcDbLine
 10
144.849942
 20
1.836236
 30
0.0
 11
144.849942
 21
3.221925
 31
0.0
  0
LINE
  5
99
100
AcDbEntity
  8
2
370
    50
100
AcDbLine
 10
144.849942
 20
20.793133
 30
0.0
 11
144.849942
 21
22.178823
 31
0.0
  0
ARC
  5
9A
100
AcDbEntity
  8
2
370
    50
100
AcDbCircle
 10
192.649942
 20
12.00754
 30
0.0
 40
50.0
100
AcDbArc
 50
170.899698
 51
172.936326
  0
ARC
  5
9B
100
AcDbEntity
  8
2
370
    50
100
AcDbCircle
 10
192.649942
 20
12.00754
 30
0.0
 40
50.0
100
AcDbArc
 50
187.063702
 51
189.100302
  0
ARC
  5
9C
100
AcDbEntity
  8
2
370
    50
100
AcDbCircle
 10
142.849942
 20
20.793133
 30
0.0
 40
2.0
100
AcDbArc
 50
314.720511
 51
0.0
  0
ARC
  5
9D
100
AcDbEntity
  8
2
370
    50
100
AcDbCircle
 10
142.849942
 20
3.221925
 30
0.0
 40
2.0
100
AcDbArc
 50
360.0
 51
45.279489
  0
ARC
  5
9E
100
AcDbEntity
  8
2
370
    50
100
AcDbCircle
 10
141.849942
 20
14.173381
 30
0.0
 40
2.0
100
AcDbArc
 50
134.720511
 51
180.0
  0
ARC
  5
9F
100
AcDbEntity
  8
2
370
    50
100
AcDbCircle
 10
141.849942
 20
9.841677
 30
0.0
 40
2.0
100
AcDbArc
 50
180.0
 51
225.279489
  0
ARC
  5
A0
100
AcDbEntity
  8
2
370
    50
100
AcDbCircle
 10
156.123768
 20
-116.91118
 30
0.0
 40
132.918709
100
AcDbArc
 50
85.337098
 51
96.456271
  0
ARC
  5
A1
100
AcDbEntity
  8
2
370
    50
100
AcDbCircle
 10
167.888074
 20
27.32438
 30
0.0
 40
11.795822
100
AcDbArc
 50
265.337098
 51
327.621093
  0
ARC
  5
A2
100
AcDbEntity
  8
2
370
    50
100
AcDbCircle
 10
156.123768
 20
140.926239
 30
0.0
 40
132.918709
100
AcDbArc
 50
263.636374
 51
274.662902
  0
ARC
  5
A3
100
AcDbEntity
  8
2
370
    50
100
AcDbCircle
 10
167.888074
 20
-3.309321
 30
0.0
 40
11.795822
100
AcDbArc
 50
32.378907
 51
94.662902
  0
ARC
  5
A4
100
AcDbEntity
  8
2
370
    25
100
AcDbCircle
 10
217.849942
 20
12.007529
 30
0.0
 40
41.0
100
AcDbArc
 50
170.796655
 51
189.579339
  0
LINE
  5
A5
100
AcDbEntity
  8
2
370
    50
100
AcDbLine
 10
178.849942
 20
27.485227
 30
0.0
 11
178.849942
 21
-3.470169
 31
0.0
  0
LINE
  5
A6
100
AcDbEntity
  8
2
370
    50
100
AcDbLine
 10
228.349942
 20
-0.492471
 30
0.0
 11
228.349942
 21
-2.519139
 31
0.0
  0
LINE
  5
A7
100
AcDbEntity
  8
2
370
    50
100
AcDbLine
 10
-273.150058
 20
35.007529
 30
0.0
 11
-273.150058
 21
9.507529
 31
0.0
  0
LINE
  5
A8
100
AcDbEntity
  8
2
370
    50
100
AcDbLine
 10
-249.150058
 20
35.007529
 30
0.0
 11
-249.150058
 21
34.007529
 31
0.0
  0
LINE
  5
A9
100
AcDbEntity
  8
2
370
    50
100
AcDbLine
 10
-138.150058
 20
35.007529
 30
0.0
 11
-138.150058
 21
34.007529
 31
0.0
  0
LINE
  5
AA
100
AcDbEntity
  8
2
370
    50
100
AcDbLine
 10
-114.150058
 20
35.007529
 30
0.0
 11
-114.150058
 21
9.507529
 31
0.0
  0
LINE
  5
AB
100
AcDbEntity
  8
2
370
    50
100
AcDbLine
 10
-138.150058
 20
34.007529
 30
0.0
 11
-114.150058
 21
34.007529
 31
0.0
  0
LINE
  5
AC
100
AcDbEntity
  8
2
370
    50
100
AcDbLine
 10
-273.150058
 20
34.007529
 30
0.0
 11
-249.150058
 21
34.007529
 31
0.0
  0
ARC
  5
AD
100
AcDbEntity
  8
2
370
    50
100
AcDbCircle
 10
-126.650058
 20
9.507529
 30
0.0
 40
12.5
100
AcDbArc
 50
270.0
 51
360.0
  0
ARC
  5
AE
100
AcDbEntity
  8
2
370
    50
100
AcDbCircle
 10
-260.650058
 20
9.507529
 30
0.0
 40
12.5
100
AcDbArc
 50
180.0
 51
270.0
  0
ARC
  5
AF
100
AcDbEntity
  8
2
370
    50
100
AcDbCircle
 10
-237.150058
 20
34.007529
 30
0.0
 40
12.0
100
AcDbArc
 50
180.0
 51
274.873779
  0
ARC
  5
B0
100
AcDbEntity
  8
2
370
    50
100
AcDbCircle
 10
-150.150058
 20
34.007529
 30
0.0
 40
12.0
100
AcDbArc
 50
265.126221
 51
360.0
  0
ARC
  5
B1
100
AcDbEntity
  8
2
370
    50
100
AcDbCircle
 10
-225.570332
 20
123.009088
 30
0.0
 40
100.0
100
AcDbArc
 50
273.049601
 51
283.027259
  0
ARC
  5
B2
100
AcDbEntity
  8
2
370
    50
100
AcDbCircle
 10
-161.729784
 20
123.009088
 30
0.0
 40
100.0
100
AcDbArc
 50
256.972741
 51
266.950399
  0
ARC
  5
B3
100
AcDbEntity
  8
2
370
    50
100
AcDbCircle
 10
-193.650058
 20
-476.141224
 30
0.0
 40
500.0
100
AcDbArc
 50
85.126221
 51
86.950399
  0
ARC
  5
B4
100
AcDbEntity
  8
2
370
    50
100
AcDbCircle
 10
-193.650058
 20
-476.141224
 30
0.0
 40
500.0
100
AcDbArc
 50
93.049601
 51
94.873779
  0
LINE
  5
B5
100
AcDbEntity
  8
2
370
    50
100
AcDbLine
 10
-168.650058
 20
4.007529
 30
0.0
 11
-154.27478
 21
4.007529
 31
0.0
  0
ARC
  5
B6
100
AcDbEntity
  8
2
370
    50
100
AcDbCircle
 10
-168.650058
 20
-7.992471
 30
0.0
 40
12.0
100
AcDbArc
 50
90.0
 51
169.677073
  0
ARC
  5
B7
100
AcDbEntity
  8
2
370
    50
100
AcDbCircle
 10
-126.150058
 20
27.007529
 30
0.0
 40
30.0
100
AcDbArc
 50
242.047113
 51
270.0
  0
ARC
  5
B8
100
AcDbEntity
  8
2
370
    50
100
AcDbCircle
 10
-154.27478
 20
-25.992471
 30
0.0
 40
30.0
100
AcDbArc
 50
62.047113
 51
90.0
  0
ARC
  5
B9
100
AcDbEntity
  8
2
370
    50
100
AcDbCircle
 10
-218.650058
 20
-7.992471
 30
0.0
 40
12.0
100
AcDbArc
 50
10.28816
 51
90.0
  0
LINE
  5
BA
100
AcDbEntity
  8
2
370
    50
100
AcDbLine
 10
-218.650058
 20
4.007529
 30
0.0
 11
-233.025336
 21
4.007529
 31
0.0
  0
ARC
  5
BB
100
AcDbEntity
  8
2
370
    50
100
AcDbCircle
 10
-233.025336
 20
-25.992471
 30
0.0
 40
30.0
100
AcDbArc
 50
90.0
 51
117.952887
  0
ARC
  5
BC
100
AcDbEntity
  8
2
370
    50
100
AcDbCircle
 10
-261.150058
 20
27.007529
 30
0.0
 40
30.0
100
AcDbArc
 50
270.0
 51
297.952887
  0
LINE
  5
BD
100
AcDbEntity
  8
2
370
    50
100
AcDbLine
 10
-138.150058
 20
35.007529
 30
0.0
 11
-114.150058
 21
35.007529
 31
0.0
  0
ARC
  5
BE
100
AcDbEntity
  8
2
370
    50
100
AcDbCircle
 10
-51.43122
 20
56.428367
 30
0.0
 40
100.0
100
AcDbArc
 50
168.537652
 51
188.388164
  0
ARC
  5
BF
100
AcDbEntity
  8
2
370
    50
100
AcDbCircle
 10
-51.431259
 20
56.428367
 30
0.0
 40
99.5
100
AcDbArc
 50
168.471477
 51
187.637519
  0
ARC
  5
C0
100
AcDbEntity
  8
2
370
    50
100
AcDbCircle
 10
-140.616272
 20
74.512244
 30
0.0
 40
9.0
100
AcDbArc
 50
96.34007
 51
168.537652
  0
ARC
  5
C1
100
AcDbEntity
  8
2
370
    50
100
AcDbCircle
 10
-141.085277
 20
74.715167
 30
0.0
 40
8.0
100
AcDbArc
 50
105.117347
 51
168.471477
  0
ARC
  5
C2
100
AcDbEntity
  8
2
370
    50
100
AcDbCircle
 10
-142.650058
 20
80.507529
 30
0.0
 40
2.0
100
AcDbArc
 50
0.0
 51
105.117347
  0
LINE
  5
C3
100
AcDbEntity
  8
2
370
    50
100
AcDbLine
 10
-140.650058
 20
80.507529
 30
0.0
 11
-140.650058
 21
39.507529
 31
0.0
  0
ARC
  5
C4
100
AcDbEntity
  8
2
370
    50
100
AcDbCircle
 10
-143.650058
 20
39.507529
 30
0.0
 40
3.0
100
AcDbArc
 50
252.175397
 51
360.0
  0
ARC
  5
C5
100
AcDbEntity
  8
2
370
    50
100
AcDbCircle
 10
-143.650058
 20
39.507529
 30
0.0
 40
3.0
100
AcDbArc
 50
252.175397
 51
360.0
  0
ARC
  5
C6
100
AcDbEntity
  8
2
370
    50
100
AcDbCircle
 10
-142.119537
 20
44.267519
 30
0.0
 40
8.0
100
AcDbArc
 50
187.637519
 51
252.175397
  0
ARC
  5
C7
100
AcDbEntity
  8
2
370
    50
100
AcDbCircle
 10
-142.447049
 20
43.007529
 30
0.0
 40
8.0
100
AcDbArc
 50
188.388164
 51
270.0
  0
LINE
  5
C8
100
AcDbEntity
  8
2
370
    50
100
AcDbLine
 10
-109.852989
 20
35.007529
 30
0.0
 11
-142.447049
 21
35.007529
 31
0.0
  0
ARC
  5
C9
100
AcDbEntity
  8
2
370
    50
100
AcDbCircle
 10
-109.852989
 20
43.007529
 30
0.0
 40
8.0
100
AcDbArc
 50
270.0
 51
351.611836
  0
ARC
  5
CA
100
AcDbEntity
  8
2
370
    50
100
AcDbCircle
 10
-200.868818
 20
56.428367
 30
0.0
 40
100.0
100
AcDbArc
 50
351.611836
 51
11.462348
  0
ARC
  5
CB
100
AcDbEntity
  8
2
370
    50
100
AcDbCircle
 10
-111.683766
 20
74.512244
 30
0.0
 40
9.0
100
AcDbArc
 50
11.462348
 51
83.65993
  0
ARC
  5
CC
100
AcDbEntity
  8
2
370
    50
100
AcDbCircle
 10
-111.683766
 20
74.512244
 30
0.0
 40
9.0
100
AcDbArc
 50
11.462348
 51
83.65993
  0
ARC
  5
CD
100
AcDbEntity
  8
2
370
    50
100
AcDbCircle
 10
-126.150019
 20
-55.686556
 30
0.0
 40
140.0
100
AcDbArc
 50
83.65993
 51
86.211626
  0
LINE
  5
CE
100
AcDbEntity
  8
2
370
    50
100
AcDbLine
 10
-116.900019
 20
84.007529
 30
0.0
 11
-126.150058
 21
84.007529
 31
0.0
  0
LINE
  5
CF
100
AcDbEntity
  8
2
370
    50
100
AcDbLine
 10
-126.150058
 20
84.007529
 30
0.0
 11
-135.400019
 21
84.007529
 31
0.0
  0
ARC
  5
D0
100
AcDbEntity
  8
2
370
    50
100
AcDbCircle
 10
-126.150019
 20
-55.686556
 30
0.0
 40
140.0
100
AcDbArc
 50
93.788374
 51
96.34007
  0
ARC
  5
D1
100
AcDbEntity
  8
2
370
    50
100
AcDbCircle
 10
-126.150019
 20
-55.686556
 30
0.0
 40
140.0
100
AcDbArc
 50
93.788374
 51
96.34007
  0
ARC
  5
D2
100
AcDbEntity
  8
2
370
    50
100
AcDbCircle
 10
-126.150019
 20
6.007529
 30
0.0
 40
80.0
100
AcDbArc
 50
84.370157
 51
95.629843
  0
ARC
  5
D3
100
AcDbEntity
  8
2
370
    50
100
AcDbCircle
 10
-133.900019
 20
84.626468
 30
0.0
 40
1.0
100
AcDbArc
 50
95.629843
 51
180.0
  0
ARC
  5
D4
100
AcDbEntity
  8
2
370
    50
100
AcDbCircle
 10
-118.400019
 20
84.626468
 30
0.0
 40
1.0
100
AcDbArc
 50
0.0
 51
84.370157
  0
ARC
  5
D5
100
AcDbEntity
  8
2
370
    50
100
AcDbCircle
 10
-126.150058
 20
73.587609
 30
0.0
 40
8.91992
100
AcDbArc
 50
9.155483
 51
170.844517
  0
ARC
  5
D6
100
AcDbEntity
  8
2
370
    50
100
AcDbCircle
 10
-16.485117
 20
55.913194
 30
0.0
 40
120.0
100
AcDbArc
 50
170.844517
 51
184.940428
  0
ARC
  5
D7
100
AcDbEntity
  8
2
370
    50
100
AcDbCircle
 10
-235.814998
 20
55.913194
 30
0.0
 40
120.0
100
AcDbArc
 50
355.059572
 51
9.155483
  0
ARC
  5
D8
100
AcDbEntity
  8
2
370
    50
100
AcDbCircle
 10
-126.150058
 20
46.43364
 30
0.0
 40
9.926111
100
AcDbArc
 50
184.940428
 51
355.059572
  0
LINE
  5
D9
100
AcDbEntity
  8
2
370
    50
100
AcDbLine
 10
-111.650058
 20
80.507529
 30
0.0
 11
-111.650058
 21
39.507529
 31
0.0
  0
ARC
  5
DA
100
AcDbEntity
  8
2
370
    50
100
AcDbCircle
 10
-109.650058
 20
80.507529
 30
0.0
 40
2.0
100
AcDbArc
 50
74.882653
 51
180.0
  0
ARC
  5
DB
100
AcDbEntity
  8
2
370
    50
100
AcDbCircle
 10
-111.214839
 20
74.715167
 30
0.0
 40
8.0
100
AcDbArc
 50
11.528523
 51
74.882653
  0
ARC
  5
DC
100
AcDbEntity
  8
2
370
    50
100
AcDbCircle
 10
-200.868857
 20
56.428367
 30
0.0
 40
99.5
100
AcDbArc
 50
352.362481
 51
11.528523
  0
ARC
  5
DD
100
AcDbEntity
  8
2
370
    50
100
AcDbCircle
 10
-110.180578
 20
44.267519
 30
0.0
 40
8.0
100
AcDbArc
 50
287.824603
 51
352.362481
  0
ARC
  5
DE
100
AcDbEntity
  8
2
370
    50
100
AcDbCircle
 10
-110.180578
 20
44.267519
 30
0.0
 40
8.0
100
AcDbArc
 50
287.824603
 51
352.362481
  0
ARC
  5
DF
100
AcDbEntity
  8
2
370
    50
100
AcDbCircle
 10
-108.650058
 20
39.507529
 30
0.0
 40
3.0
100
AcDbArc
 50
180.0
 51
287.824603
  0
LINE
  5
E0
100
AcDbEntity
  8
2
370
    50
100
AcDbLine
 10
-126.150058
 20
84.007529
 30
0.0
 11
-135.400019
 21
84.007529
 31
0.0
  0
LINE
  5
E1
100
AcDbEntity
  8
2
370
    50
100
AcDbLine
 10
-117.400019
 20
84.626468
 30
0.0
 11
-117.400019
 21
84.007529
 31
0.0
  0
ARC
  5
E2
100
AcDbEntity
  8
2
370
    50
100
AcDbCircle
 10
-126.150019
 20
-55.686556
 30
0.0
 40
140.0
100
AcDbArc
 50
83.65993
 51
86.211626
  0
ARC
  5
E3
100
AcDbEntity
  8
2
370
    50
100
AcDbCircle
 10
-133.900019
 20
84.626468
 30
0.0
 40
1.0
100
AcDbArc
 50
95.629843
 51
180.0
  0
ARC
  5
E4
100
AcDbEntity
  8
2
370
    50
100
AcDbCircle
 10
-133.900019
 20
84.626468
 30
0.0
 40
1.0
100
AcDbArc
 50
95.629843
 51
180.0
  0
LINE
  5
E5
100
AcDbEntity
  8
2
370
    50
100
AcDbLine
 10
-134.900019
 20
84.626468
 30
0.0
 11
-134.900019
 21
84.007529
 31
0.0
  0
POINT
  5
E6
100
AcDbEntity
  8
2
370
    50
100
AcDbPoint
 10
-193.649722
 20
11.007529
 30
0.0
  0
POINT
  5
E7
100
AcDbEntity
  8
2
370
    50
100
AcDbPoint
 10
-126.150058
 20
12.007529
 30
0.0
  0
ARC
  5
E8
100
AcDbEntity
  8
2
370
    50
100
AcDbCircle
 10
228.349942
 20
-13.492471
 30
0.0
 40
10.0
100
AcDbArc
 50
90.0
 51
155.759357
  0
LINE
  5
E9
100
AcDbEntity
  8
2
370
    50
100
AcDbLine
 10
185.849942
 20
24.507529
 30
0.0
 11
185.849942
 21
-0.492471
 31
0.0
  0
ARC
  5
EA
100
AcDbEntity
  8
2
370
    50
100
AcDbCircle
 10
182.916055
 20
-10.052403
 30
0.0
 40
10.0
100
AcDbArc
 50
3.816611
 51
72.939054
  0
LINE
  5
EB
100
AcDbEntity
  8
2
370
    50
100
AcDbLine
 10
178.849942
 20
0.757529
 30
0.0
 11
185.849942
 21
0.757529
 31
0.0
  0
LINE
  5
EC
100
AcDbEntity
  8
2
370
    50
100
AcDbLine
 10
178.849942
 20
23.257529
 30
0.0
 11
185.849942
 21
23.257529
 31
0.0
  0
LINE
  5
ED
100
AcDbEntity
  8
2
370
    50
100
AcDbLine
 10
207.349942
 20
35.007529
 30
0.0
 11
207.349942
 21
12.007529
 31
0.0
  0
ARC
  5
EE
100
AcDbEntity
  8
2
370
    50
100
AcDbCircle
 10
263.410391
 20
-771.72383
 30
0.0
 40
800.0
100
AcDbArc
 50
94.018327
 51
95.563597
  0
LINE
  5
EF
100
AcDbEntity
  8
2
370
    50
100
AcDbLine
 10
219.849942
 20
-0.492471
 30
0.0
 11
238.349942
 21
-0.492471
 31
0.0
  0
ARC
  5
F0
100
AcDbEntity
  8
2
370
    50
100
AcDbCircle
 10
219.849942
 20
12.007529
 30
0.0
 40
12.5
100
AcDbArc
 50
180.0
 51
270.0
  0
LINE
  5
F1
100
AcDbEntity
  8
2
370
    50
100
AcDbLine
 10
233.849942
 20
24.507529
 30
0.0
 11
238.349942
 21
24.507529
 31
0.0
  0
LINE
  5
F2
100
AcDbEntity
  8
2
370
    50
100
AcDbLine
 10
228.349942
 20
-3.492471
 30
0.0
 11
228.349942
 21
-0.492471
 31
0.0
  0
LINE
  5
F3
100
AcDbEntity
  8
2
370
    50
100
AcDbLine
 10
232.349942
 20
30.317004
 30
0.0
 11
232.349942
 21
35.007529
 31
0.0
  0
ARC
  5
F4
100
AcDbEntity
  8
2
370
    50
100
AcDbCircle
 10
244.349942
 20
30.317004
 30
0.0
 40
12.0
100
AcDbArc
 50
180.0
 51
208.955024
  0
LINE
  5
F5
100
AcDbEntity
  8
2
370
    50
100
AcDbLine
 10
207.349942
 20
34.007529
 30
0.0
 11
232.349942
 21
34.007529
 31
0.0
  0
ARC
  5
F6
100
AcDbEntity
  8
2
370
    50
100
AcDbCircle
 10
294.56878
 20
56.428367
 30
0.0
 40
100.0
100
AcDbArc
 50
168.537652
 51
188.388164
  0
ARC
  5
F7
100
AcDbEntity
  8
2
370
    50
100
AcDbCircle
 10
294.568741
 20
56.428367
 30
0.0
 40
99.5
100
AcDbArc
 50
168.471477
 51
187.637519
  0
ARC
  5
F8
100
AcDbEntity
  8
2
370
    50
100
AcDbCircle
 10
205.383728
 20
74.512244
 30
0.0
 40
9.0
100
AcDbArc
 50
96.34007
 51
168.537652
  0
ARC
  5
F9
100
AcDbEntity
  8
2
370
    50
100
AcDbCircle
 10
204.914723
 20
74.715167
 30
0.0
 40
8.0
100
AcDbArc
 50
105.117347
 51
168.471477
  0
ARC
  5
FA
100
AcDbEntity
  8
2
370
    50
100
AcDbCircle
 10
203.349942
 20
80.507529
 30
0.0
 40
2.0
100
AcDbArc
 50
0.0
 51
105.117347
  0
LINE
  5
FB
100
AcDbEntity
  8
2
370
    50
100
AcDbLine
 10
205.349942
 20
80.507529
 30
0.0
 11
205.349942
 21
39.507529
 31
0.0
  0
ARC
  5
FC
100
AcDbEntity
  8
2
370
    50
100
AcDbCircle
 10
202.349942
 20
39.507529
 30
0.0
 40
3.0
100
AcDbArc
 50
252.175397
 51
360.0
  0
ARC
  5
FD
100
AcDbEntity
  8
2
370
    50
100
AcDbCircle
 10
203.880463
 20
44.267519
 30
0.0
 40
8.0
100
AcDbArc
 50
187.637519
 51
252.175397
  0
ARC
  5
FE
100
AcDbEntity
  8
2
370
    50
100
AcDbCircle
 10
203.552951
 20
43.007529
 30
0.0
 40
8.0
100
AcDbArc
 50
188.388164
 51
270.0
  0
LINE
  5
FF
100
AcDbEntity
  8
2
370
    50
100
AcDbLine
 10
236.147011
 20
35.007529
 30
0.0
 11
203.552951
 21
35.007529
 31
0.0
  0
ARC
  5
100
100
AcDbEntity
  8
2
370
    50
100
AcDbCircle
 10
236.147011
 20
43.007529
 30
0.0
 40
8.0
100
AcDbArc
 50
270.0
 51
351.611836
  0
ARC
  5
101
100
AcDbEntity
  8
2
370
    50
100
AcDbCircle
 10
145.131182
 20
56.428367
 30
0.0
 40
100.0
100
AcDbArc
 50
351.611836
 51
11.462348
  0
ARC
  5
102
100
AcDbEntity
  8
2
370
    50
100
AcDbCircle
 10
234.316234
 20
74.512244
 30
0.0
 40
9.0
100
AcDbArc
 50
11.462348
 51
83.65993
  0
ARC
  5
103
100
AcDbEntity
  8
2
370
    50
100
AcDbCircle
 10
234.316234
 20
74.512244
 30
0.0
 40
9.0
100
AcDbArc
 50
11.462348
 51
83.65993
  0
ARC
  5
104
100
AcDbEntity
  8
2
370
    50
100
AcDbCircle
 10
219.849981
 20
-55.686556
 30
0.0
 40
140.0
100
AcDbArc
 50
83.65993
 51
86.211626
  0
LINE
  5
105
100
AcDbEntity
  8
2
370
    50
100
AcDbLine
 10
229.099981
 20
84.007529
 30
0.0
 11
219.849942
 21
84.007529
 31
0.0
  0
LINE
  5
106
100
AcDbEntity
  8
2
370
    50
100
AcDbLine
 10
219.849942
 20
84.007529
 30
0.0
 11
210.599981
 21
84.007529
 31
0.0
  0
ARC
  5
107
100
AcDbEntity
  8
2
370
    50
100
AcDbCircle
 10
219.849981
 20
-55.686556
 30
0.0
 40
140.0
100
AcDbArc
 50
93.788374
 51
96.34007
  0
ARC
  5
108
100
AcDbEntity
  8
2
370
    50
100
AcDbCircle
 10
219.849981
 20
6.007529
 30
0.0
 40
80.0
100
AcDbArc
 50
84.370157
 51
95.629843
  0
ARC
  5
109
100
AcDbEntity
  8
2
370
    50
100
AcDbCircle
 10
212.099981
 20
84.626468
 30
0.0
 40
1.0
100
AcDbArc
 50
95.629843
 51
180.0
  0
ARC
  5
10A
100
AcDbEntity
  8
2
370
    50
100
AcDbCircle
 10
227.599981
 20
84.626468
 30
0.0
 40
1.0
100
AcDbArc
 50
0.0
 51
84.370157
  0
ARC
  5
10B
100
AcDbEntity
  8
2
370
    50
100
AcDbCircle
 10
219.849942
 20
73.587609
 30
0.0
 40
8.91992
100
AcDbArc
 50
9.155483
 51
170.844517
  0
ARC
  5
10C
100
AcDbEntity
  8
2
370
    50
100
AcDbCircle
 10
329.514883
 20
55.913194
 30
0.0
 40
120.0
100
AcDbArc
 50
170.844517
 51
184.940428
  0
ARC
  5
10D
100
AcDbEntity
  8
2
370
    50
100
AcDbCircle
 10
110.185002
 20
55.913194
 30
0.0
 40
120.0
100
AcDbArc
 50
355.059572
 51
9.155483
  0
ARC
  5
10E
100
AcDbEntity
  8
2
370
    50
100
AcDbCircle
 10
219.849942
 20
46.43364
 30
0.0
 40
9.926111
100
AcDbArc
 50
184.940428
 51
355.059572
  0
LINE
  5
10F
100
AcDbEntity
  8
2
370
    50
100
AcDbLine
 10
234.349942
 20
80.507529
 30
0.0
 11
234.349942
 21
39.507529
 31
0.0
  0
ARC
  5
110
100
AcDbEntity
  8
2
370
    50
100
AcDbCircle
 10
236.349942
 20
80.507529
 30
0.0
 40
2.0
100
AcDbArc
 50
74.882653
 51
180.0
  0
ARC
  5
111
100
AcDbEntity
  8
2
370
    50
100
AcDbCircle
 10
234.785161
 20
74.715167
 30
0.0
 40
8.0
100
AcDbArc
 50
11.528523
 51
74.882653
  0
ARC
  5
112
100
AcDbEntity
  8
2
370
    50
100
AcDbCircle
 10
145.131143
 20
56.428367
 30
0.0
 40
99.5
100
AcDbArc
 50
352.362481
 51
11.528523
  0
ARC
  5
113
100
AcDbEntity
  8
2
370
    50
100
AcDbCircle
 10
235.819422
 20
44.267519
 30
0.0
 40
8.0
100
AcDbArc
 50
287.824603
 51
352.362481
  0
ARC
  5
114
100
AcDbEntity
  8
2
370
    50
100
AcDbCircle
 10
235.819422
 20
44.267519
 30
0.0
 40
8.0
100
AcDbArc
 50
287.824603
 51
352.362481
  0
ARC
  5
115
100
AcDbEntity
  8
2
370
    50
100
AcDbCircle
 10
237.349942
 20
39.507529
 30
0.0
 40
3.0
100
AcDbArc
 50
180.0
 51
287.824603
  0
LINE
  5
116
100
AcDbEntity
  8
2
370
    50
100
AcDbLine
 10
219.849942
 20
84.007529
 30
0.0
 11
210.599981
 21
84.007529
 31
0.0
  0
LINE
  5
117
100
AcDbEntity
  8
2
370
    50
100
AcDbLine
 10
228.599981
 20
84.626468
 30
0.0
 11
228.599981
 21
84.007529
 31
0.0
  0
LINE
  5
118
100
AcDbEntity
  8
2
370
    50
100
AcDbLine
 10
211.099981
 20
84.626468
 30
0.0
 11
211.099981
 21
84.007529
 31
0.0
  0
LINE
  5
119
100
AcDbEntity
  8
2
370
    50
100
AcDbLine
 10
178.849942
 20
24.507529
 30
0.0
 11
178.849942
 21
-0.492471
 31
0.0
  0
LINE
  5
11A
100
AcDbEntity
  8
2
370
    50
100
AcDbLine
 10
192.893877
 20
-9.386771
 30
0.0
 11
219.231651
 21
-9.386771
 31
0.0
  0
LINE
  5
11B
100
AcDbEntity
  8
2
370
    50
100
AcDbLine
 10
-185.749722
 20
-82.293471
 30
0.0
 11
-201.549722
 21
-82.293471
 31
0.0
  0
LINE
  5
11C
100
AcDbEntity
  8
2
370
    50
100
AcDbLine
 10
-185.749722
 20
-77.293471
 30
0.0
 11
-201.549722
 21
-77.293471
 31
0.0
  0
LINE
  5
11D
100
AcDbEntity
  8
2
370
    50
100
AcDbLine
 10
-185.749722
 20
-20.293471
 30
0.0
 11
-185.749722
 21
-77.293471
 31
0.0
  0
LINE
  5
11E
100
AcDbEntity
  8
2
370
    50
100
AcDbLine
 10
-201.549722
 20
-20.293471
 30
0.0
 11
-201.549722
 21
-77.293471
 31
0.0
  0
ARC
  5
11F
100
AcDbEntity
  8
2
370
    50
100
AcDbCircle
 10
-193.649722
 20
-49.293471
 30
0.0
 40
7.9
100
AcDbArc
 50
0.0
 51
180.0
  0
ARC
  5
120
100
AcDbEntity
  8
2
370
    50
100
AcDbCircle
 10
-198.427223
 20
-79.793471
 30
0.0
 40
4.0
100
AcDbArc
 50
141.317813
 51
218.682187
  0
ARC
  5
121
100
AcDbEntity
  8
2
370
    50
100
AcDbCircle
 10
-188.872221
 20
-79.793471
 30
0.0
 40
4.0
100
AcDbArc
 50
321.317813
 51
38.682187
  0
POINT
  5
122
100
AcDbEntity
  8
2
370
    50
100
AcDbPoint
 10
206.35006
 20
-17.642438
 30
0.0
  0
POINT
  5
123
100
AcDbEntity
  8
2
370
    50
100
AcDbPoint
 10
-126.150058
 20
86.007529
 30
0.0
  0
POINT
  5
124
100
AcDbEntity
  8
2
370
    50
100
AcDbPoint
 10
-261.150058
 20
86.007529
 30
0.0
  0
POINT
  5
125
100
AcDbEntity
  8
2
370
    50
100
AcDbPoint
 10
-261.149387
 20
12.007529
 30
0.0
  0
CIRCLE
  5
126
100
AcDbEntity
  8
2
370
    50
100
AcDbCircle
 10
-289.433658
 20
-16.276742
 30
0.0
 40
11.25
  0
LINE
  5
127
100
AcDbEntity
  8
2
370
    50
100
AcDbLine
 10
-273.150058
 20
19.217605
 30
0.0
 11
-297.388609
 21
-8.321791
 31
0.0
  0
LINE
  5
128
100
AcDbEntity
  8
2
370
    50
100
AcDbLine
 10
-281.478707
 20
-24.231693
 30
0.0
 11
-257.02302
 21
-2.707241
 31
0.0
  0
POINT
  5
129
100
AcDbEntity
  8
2
370
    50
100
AcDbPoint
 10
-289.433658
 20
-16.276742
 30
0.0
  0
ARC
  5
12A
100
AcDbEntity
  8
2
370
    50
100
AcDbCircle
 10
-289.433658
 20
-16.276742
 30
0.0
 40
23.0
100
AcDbArc
 50
77.866041
 51
12.133959
  0
CIRCLE
  5
12B
100
AcDbEntity
  8
2
370
    50
100
AcDbCircle
 10
-289.433658
 20
-16.276742
 30
0.0
 40
10.0
  0
LINE
  5
12C
100
AcDbEntity
  8
2
370
    50
100
AcDbLine
 10
-279.433658
 20
-20.859318
 30
0.0
 11
-279.433658
 21
-11.694166
 31
0.0
  0
LINE
  5
12D
100
AcDbEntity
  8
2
370
    50
100
AcDbLine
 10
-299.433658
 20
-20.859318
 30
0.0
 11
-299.433658
 21
-11.694166
 31
0.0
  0
ARC
  5
12E
100
AcDbEntity
  8
2
370
    50
100
AcDbCircle
 10
-289.433658
 20
-16.276742
 30
0.0
 40
11.0
100
AcDbArc
 50
24.619977
 51
155.380023
  0
ARC
  5
12F
100
AcDbEntity
  8
2
370
    50
100
AcDbCircle
 10
-289.433658
 20
-16.276742
 30
0.0
 40
11.0
100
AcDbArc
 50
204.619977
 51
335.380023
  0
CIRCLE
  5
130
100
AcDbEntity
  8
2
370
    50
100
AcDbCircle
 10
-289.433658
 20
-16.276742
 30
0.0
 40
4.5
  0
LINE
  5
131
100
AcDbEntity
  8
2
370
    50
100
AcDbLine
 10
-288.433658
 20
-11.88926
 30
0.0
 11
-288.433658
 21
-20.664224
 31
0.0
  0
LINE
  5
132
100
AcDbEntity
  8
2
370
    50
100
AcDbLine
 10
-290.433658
 20
-11.88926
 30
0.0
 11
-290.433658
 21
-20.664224
 31
0.0
  0
ARC
  5
133
100
AcDbEntity
  8
2
370
    50
100
AcDbCircle
 10
-289.433658
 20
-16.276742
 30
0.0
 40
12.5
100
AcDbArc
 50
112.567101
 51
337.432899
  0
CIRCLE
  5
134
100
AcDbEntity
  8
2
370
    50
100
AcDbCircle
 10
-97.865116
 20
-16.276742
 30
0.0
 40
11.25
  0
LINE
  5
135
100
AcDbEntity
  8
2
370
    50
100
AcDbLine
 10
-114.150058
 20
19.21913
 30
0.0
 11
-89.910164
 21
-8.321791
 31
0.0
  0
POINT
  5
136
100
AcDbEntity
  8
2
370
    50
100
AcDbPoint
 10
-97.865116
 20
-16.276742
 30
0.0
  0
ARC
  5
137
100
AcDbEntity
  8
2
370
    50
100
AcDbCircle
 10
-97.865116
 20
-16.276742
 30
0.0
 40
23.0
100
AcDbArc
 50
167.866041
 51
102.133959
  0
CIRCLE
  5
138
100
AcDbEntity
  8
2
370
    50
100
AcDbCircle
 10
-97.865116
 20
-16.276742
 30
0.0
 40
10.0
  0
LINE
  5
139
100
AcDbEntity
  8
2
370
    50
100
AcDbLine
 10
-87.865116
 20
-20.859318
 30
0.0
 11
-87.865116
 21
-11.694166
 31
0.0
  0
ARC
  5
13A
100
AcDbEntity
  8
2
370
    50
100
AcDbCircle
 10
-97.865116
 20
-16.276742
 30
0.0
 40
11.0
100
AcDbArc
 50
24.619977
 51
155.380023
  0
ARC
  5
13B
100
AcDbEntity
  8
2
370
    50
100
AcDbCircle
 10
-97.865116
 20
-16.276742
 30
0.0
 40
11.0
100
AcDbArc
 50
204.619977
 51
335.380023
  0
CIRCLE
  5
13C
100
AcDbEntity
  8
2
370
    50
100
AcDbCircle
 10
-97.865116
 20
-16.276742
 30
0.0
 40
4.5
  0
LINE
  5
13D
100
AcDbEntity
  8
2
370
    50
100
AcDbLine
 10
-98.865116
 20
-11.88926
 30
0.0
 11
-98.865116
 21
-20.664224
 31
0.0
  0
LINE
  5
13E
100
AcDbEntity
  8
2
370
    50
100
AcDbLine
 10
-96.865116
 20
-11.88926
 30
0.0
 11
-96.865116
 21
-20.664224
 31
0.0
  0
ARC
  5
13F
100
AcDbEntity
  8
2
370
    50
100
AcDbCircle
 10
-97.865116
 20
-16.276742
 30
0.0
 40
12.5
100
AcDbArc
 50
202.567101
 51
67.432899
  0
LINE
  5
140
100
AcDbEntity
  8
2
370
    50
100
AcDbLine
 10
-105.820067
 20
-24.231693
 30
0.0
 11
-130.275502
 21
-2.707462
 31
0.0
  0
CIRCLE
  5
141
100
AcDbEntity
  8
2
370
    50
100
AcDbCircle
 10
-97.865116
 20
-16.276742
 30
0.0
 40
11.25
  0
LINE
  5
142
100
AcDbEntity
  8
2
370
    50
100
AcDbLine
 10
-108.649387
 20
12.969369
 30
0.0
 11
-89.910164
 21
-8.321791
 31
0.0
  0
LINE
  5
143
100
AcDbEntity
  8
2
370
    50
100
AcDbLine
 10
-105.820067
 20
-24.231693
 30
0.0
 11
-128.247408
 21
-4.492471
 31
0.0
  0
POINT
  5
144
100
AcDbEntity
  8
2
370
    50
100
AcDbPoint
 10
-97.865116
 20
-16.276742
 30
0.0
  0
CIRCLE
  5
145
100
AcDbEntity
  8
2
370
    50
100
AcDbCircle
 10
-97.865116
 20
-16.276742
 30
0.0
 40
10.0
  0
LINE
  5
146
100
AcDbEntity
  8
2
370
    50
100
AcDbLine
 10
-107.865116
 20
-20.859318
 30
0.0
 11
-107.865116
 21
-11.694166
 31
0.0
  0
LINE
  5
147
100
AcDbEntity
  8
2
370
    50
100
AcDbLine
 10
-87.865116
 20
-20.859318
 30
0.0
 11
-87.865116
 21
-11.694166
 31
0.0
  0
ARC
  5
148
100
AcDbEntity
  8
2
370
    50
100
AcDbCircle
 10
-97.865116
 20
-16.276742
 30
0.0
 40
11.0
100
AcDbArc
 50
24.619977
 51
155.380023
  0
ARC
  5
149
100
AcDbEntity
  8
2
370
    50
100
AcDbCircle
 10
-97.865116
 20
-16.276742
 30
0.0
 40
11.0
100
AcDbArc
 50
204.619977
 51
335.380023
  0
CIRCLE
  5
14A
100
AcDbEntity
  8
2
370
    50
100
AcDbCircle
 10
-97.865116
 20
-16.276742
 30
0.0
 40
4.5
  0
LINE
  5
14B
100
AcDbEntity
  8
2
370
    50
100
AcDbLine
 10
-98.865116
 20
-11.88926
 30
0.0
 11
-98.865116
 21
-20.664224
 31
0.0
  0
LINE
  5
14C
100
AcDbEntity
  8
2
370
    50
100
AcDbLine
 10
-96.865116
 20
-11.88926
 30
0.0
 11
-96.865116
 21
-20.664224
 31
0.0
  0
LINE
  5
14D
100
AcDbEntity
  8
2
370
    50
100
AcDbLine
 10
240.349942
 20
3.007173
 30
0.0
 11
240.349942
 21
2.906164
 31
0.0
  0
LINE
  5
14E
100
AcDbEntity
  8
2
370
    50
100
AcDbLine
 10
274.349942
 20
25.307173
 30
0.0
 11
274.349942
 21
-4.526827
 31
0.0
  0
LINE
  5
14F
100
AcDbEntity
  8
2
370
    50
100
AcDbLine
 10
260.849942
 20
25.807173
 30
0.0
 11
273.849942
 21
25.807173
 31
0.0
  0
LINE
  5
150
100
AcDbEntity
  8
2
370
    50
100
AcDbLine
 10
260.349942
 20
25.007173
 30
0.0
 11
260.349942
 21
-4.776827
 31
0.0
  0
LINE
  5
151
100
AcDbEntity
  8
2
370
    50
100
AcDbLine
 10
260.349942
 20
25.307173
 30
0.0
 11
260.349942
 21
25.007173
 31
0.0
  0
LINE
  5
152
100
AcDbEntity
  8
2
370
    50
100
AcDbLine
 10
260.849942
 20
-4.776827
 30
0.0
 11
260.349942
 21
-4.776827
 31
0.0
  0
LINE
  5
153
100
AcDbEntity
  8
2
370
    50
100
AcDbLine
 10
282.349942
 20
-5.026827
 30
0.0
 11
274.849942
 21
-5.026827
 31
0.0
  0
LINE
  5
154
100
AcDbEntity
  8
2
370
    50
100
AcDbLine
 10
282.349942
 20
-27.526827
 30
0.0
 11
260.849942
 21
-27.526827
 31
0.0
  0
LINE
  5
155
100
AcDbEntity
  8
2
370
    50
100
AcDbLine
 10
253.349942
 20
-0.168331
 30
0.0
 11
253.349942
 21
24.182678
 31
0.0
  0
LINE
  5
156
100
AcDbEntity
  8
2
370
    50
100
AcDbLine
 10
240.349942
 20
27.257173
 30
0.0
 11
251.349942
 21
27.257173
 31
0.0
  0
LINE
  5
157
100
AcDbEntity
  8
2
370
    50
100
AcDbLine
 10
240.349942
 20
-3.242827
 30
0.0
 11
251.349942
 21
-3.242827
 31
0.0
  0
LINE
  5
158
100
AcDbEntity
  8
2
370
    50
100
AcDbLine
 10
253.349942
 20
25.007173
 30
0.0
 11
260.349942
 21
25.007173
 31
0.0
  0
LINE
  5
159
100
AcDbEntity
  8
2
370
    50
100
AcDbLine
 10
253.349942
 20
-0.992827
 30
0.0
 11
260.349942
 21
-0.992827
 31
0.0
  0
LINE
  5
15A
100
AcDbEntity
  8
2
370
    50
100
AcDbLine
 10
253.349942
 20
24.107173
 30
0.0
 11
256.349942
 21
24.107173
 31
0.0
  0
LINE
  5
15B
100
AcDbEntity
  8
2
370
    50
100
AcDbLine
 10
256.349942
 20
24.107173
 30
0.0
 11
257.908788
 21
25.007173
 31
0.0
  0
LINE
  5
15C
100
AcDbEntity
  8
2
370
    50
100
AcDbLine
 10
253.349942
 20
-0.092827
 30
0.0
 11
256.349942
 21
-0.092827
 31
0.0
  0
LINE
  5
15D
100
AcDbEntity
  8
2
370
    50
100
AcDbLine
 10
256.349942
 20
-0.092827
 30
0.0
 11
257.908788
 21
-0.992827
 31
0.0
  0
LINE
  5
15E
100
AcDbEntity
  8
2
370
    50
100
AcDbLine
 10
256.349942
 20
-0.092827
 30
0.0
 11
257.908788
 21
-0.992827
 31
0.0
  0
LINE
  5
15F
100
AcDbEntity
  8
2
370
    50
100
AcDbLine
 10
253.349942
 20
-0.992827
 30
0.0
 11
260.349942
 21
-0.992827
 31
0.0
  0
LINE
  5
160
100
AcDbEntity
  8
2
370
    50
100
AcDbLine
 10
253.349942
 20
-0.092827
 30
0.0
 11
256.349942
 21
-0.092827
 31
0.0
  0
LINE
  5
161
100
AcDbEntity
  8
2
370
    50
100
AcDbLine
 10
260.849942
 20
-5.276827
 30
0.0
 11
257.08601
 21
-5.276827
 31
0.0
  0
LINE
  5
162
100
AcDbEntity
  8
2
370
    50
100
AcDbLine
 10
260.849942
 20
-27.276827
 30
0.0
 11
257.08601
 21
-27.276827
 31
0.0
  0
ARC
  5
163
100
AcDbEntity
  8
2
370
    50
100
AcDbCircle
 10
254.849942
 20
-11.276827
 30
0.0
 40
5.0
100
AcDbArc
 50
90.0
 51
180.0
  0
ARC
  5
164
100
AcDbEntity
  8
2
370
    50
100
AcDbCircle
 10
254.849942
 20
-21.276827
 30
0.0
 40
5.0
100
AcDbArc
 50
180.0
 51
270.0
  0
ARC
  5
165
100
AcDbEntity
  8
2
370
    50
100
AcDbCircle
 10
257.08601
 20
-8.276827
 30
0.0
 40
3.0
100
AcDbArc
 50
90.0
 51
138.189685
  0
LINE
  5
166
100
AcDbEntity
  8
2
370
    50
100
AcDbLine
 10
260.849942
 20
-27.526827
 30
0.0
 11
260.849942
 21
-4.776827
 31
0.0
  0
LINE
  5
167
100
AcDbEntity
  8
2
370
    50
100
AcDbLine
 10
248.948018
 20
-19.701827
 30
0.0
 11
248.948018
 21
-12.851827
 31
0.0
  0
LINE
  5
168
100
AcDbEntity
  8
2
370
    50
100
AcDbLine
 10
249.849942
 20
-21.276827
 30
0.0
 11
249.849942
 21
-20.701827
 31
0.0
  0
LINE
  5
169
100
AcDbEntity
  8
2
370
    50
100
AcDbLine
 10
249.849942
 20
-11.276827
 30
0.0
 11
249.849942
 21
-20.697006
 31
0.0
  0
ARC
  5
16A
100
AcDbEntity
  8
2
370
    50
100
AcDbCircle
 10
249.948018
 20
-12.851827
 30
0.0
 40
1.0
100
AcDbArc
 50
95.628401
 51
180.0
  0
LINE
  5
16B
100
AcDbEntity
  8
2
370
    50
100
AcDbLine
 10
256.349942
 20
24.107173
 30
0.0
 11
256.349942
 21
-0.092827
 31
0.0
  0
ARC
  5
16C
100
AcDbEntity
  8
2
370
    50
100
AcDbCircle
 10
249.948018
 20
-19.701827
 30
0.0
 40
1.0
100
AcDbArc
 50
180.0
 51
264.371599
  0
ARC
  5
16D
100
AcDbEntity
  8
2
370
    50
100
AcDbCircle
 10
257.08601
 20
-24.276827
 30
0.0
 40
3.0
100
AcDbArc
 50
221.810315
 51
270.0
  0
LINE
  5
16E
100
AcDbEntity
  8
2
370
    50
100
AcDbLine
 10
251.349942
 20
2.906164
 30
0.0
 11
240.349942
 21
2.906164
 31
0.0
  0
LINE
  5
16F
100
AcDbEntity
  8
2
370
    50
100
AcDbLine
 10
251.349942
 20
5.96048
 30
0.0
 11
240.349942
 21
5.96048
 31
0.0
  0
LINE
  5
170
100
AcDbEntity
  8
2
370
    50
100
AcDbLine
 10
251.349942
 20
18.053866
 30
0.0
 11
240.349942
 21
18.053866
 31
0.0
  0
LINE
  5
171
100
AcDbEntity
  8
2
370
    50
100
AcDbLine
 10
251.349942
 20
21.108182
 30
0.0
 11
240.349942
 21
21.108182
 31
0.0
  0
ARC
  5
172
100
AcDbEntity
  8
2
370
    50
100
AcDbCircle
 10
243.209317
 20
12.007173
 30
0.0
 40
10.140625
100
AcDbArc
 50
323.395774
 51
36.604226
  0
ARC
  5
173
100
AcDbEntity
  8
2
370
    50
100
AcDbCircle
 10
249.986812
 20
-0.168331
 30
0.0
 40
3.363131
100
AcDbArc
 50
293.910931
 51
66.089069
  0
LINE
  5
174
100
AcDbEntity
  8
2
370
    50
100
AcDbLine
 10
251.349942
 20
21.108182
 30
0.0
 11
251.349942
 21
18.053866
 31
0.0
  0
LINE
  5
175
100
AcDbEntity
  8
2
370
    50
100
AcDbLine
 10
251.349942
 20
5.96048
 30
0.0
 11
251.349942
 21
2.906164
 31
0.0
  0
ARC
  5
176
100
AcDbEntity
  8
2
370
    50
100
AcDbCircle
 10
249.986812
 20
24.182678
 30
0.0
 40
3.363131
100
AcDbArc
 50
293.910931
 51
66.089069
  0
LINE
  5
177
100
AcDbEntity
  8
2
370
    50
100
AcDbLine
 10
260.849942
 20
-11.526827
 30
0.0
 11
254.849942
 21
-11.526827
 31
0.0
  0
LINE
  5
178
100
AcDbEntity
  8
2
370
    50
100
AcDbLine
 10
260.849942
 20
-21.026827
 30
0.0
 11
254.849942
 21
-21.026827
 31
0.0
  0
LINE
  5
179
100
AcDbEntity
  8
2
370
    50
100
AcDbLine
 10
254.849942
 20
-6.276827
 30
0.0
 11
254.849942
 21
-26.276827
 31
0.0
  0
ARC
  5
17A
100
AcDbEntity
  8
2
370
    50
100
AcDbCircle
 10
273.849942
 20
25.307173
 30
0.0
 40
0.5
100
AcDbArc
 50
0.0
 51
90.0
  0
ARC
  5
17B
100
AcDbEntity
  8
2
370
    50
100
AcDbCircle
 10
260.849942
 20
25.307173
 30
0.0
 40
0.5
100
AcDbArc
 50
90.0
 51
180.0
  0
ARC
  5
17C
100
AcDbEntity
  8
2
370
    50
100
AcDbCircle
 10
274.849942
 20
-4.526827
 30
0.0
 40
0.5
100
AcDbArc
 50
180.0
 51
270.0
  0
LINE
  5
17D
100
AcDbEntity
  8
2
370
    50
100
AcDbLine
 10
295.349942
 20
-39.276827
 30
0.0
 11
295.349942
 21
6.723173
 31
0.0
  0
LINE
  5
17E
100
AcDbEntity
  8
2
370
    50
100
AcDbLine
 10
292.849942
 20
-39.276827
 30
0.0
 11
292.849942
 21
6.723173
 31
0.0
  0
LINE
  5
17F
100
AcDbEntity
  8
2
370
    50
100
AcDbLine
 10
295.349942
 20
-5.776827
 30
0.0
 11
308.149942
 21
-5.776827
 31
0.0
  0
LINE
  5
180
100
AcDbEntity
  8
2
370
    25
100
AcDbLine
 10
295.349942
 20
-6.976827
 30
0.0
 11
309.349942
 21
-6.976827
 31
0.0
  0
LINE
  5
181
100
AcDbEntity
  8
2
370
    25
100
AcDbLine
 10
295.349942
 20
-25.576827
 30
0.0
 11
309.349942
 21
-25.576827
 31
0.0
  0
LINE
  5
182
100
AcDbEntity
  8
2
370
    50
100
AcDbLine
 10
295.349942
 20
-26.776827
 30
0.0
 11
308.149942
 21
-26.776827
 31
0.0
  0
LINE
  5
183
100
AcDbEntity
  8
2
370
    50
100
AcDbLine
 10
292.849942
 20
-39.276827
 30
0.0
 11
285.536209
 21
-29.0376
 31
0.0
  0
LINE
  5
184
100
AcDbEntity
  8
2
370
    50
100
AcDbLine
 10
292.849942
 20
6.723173
 30
0.0
 11
285.536209
 21
-3.516054
 31
0.0
  0
LINE
  5
185
100
AcDbEntity
  8
2
370
    50
100
AcDbLine
 10
285.349942
 20
-6.976827
 30
0.0
 11
285.349942
 21
-25.576827
 31
0.0
  0
LINE
  5
186
100
AcDbEntity
  8
2
370
    50
100
AcDbLine
 10
285.349942
 20
-28.456362
 30
0.0
 11
285.349942
 21
-4.097292
 31
0.0
  0
ARC
  5
187
100
AcDbEntity
  8
2
370
    50
100
AcDbCircle
 10
286.349942
 20
-4.097292
 30
0.0
 40
1.0
100
AcDbArc
 50
144.462322
 51
180.0
  0
LINE
  5
188
100
AcDbEntity
  8
2
370
    50
100
AcDbLine
 10
282.349942
 20
-5.026827
 30
0.0
 11
282.349942
 21
-27.526827
 31
0.0
  0
LINE
  5
189
100
AcDbEntity
  8
2
370
    50
100
AcDbLine
 10
285.349942
 20
-6.976827
 30
0.0
 11
283.271481
 21
-5.776827
 31
0.0
  0
LINE
  5
18A
100
AcDbEntity
  8
2
370
    50
100
AcDbLine
 10
282.349942
 20
-26.776827
 30
0.0
 11
285.349942
 21
-26.776827
 31
0.0
  0
LINE
  5
18B
100
AcDbEntity
  8
2
370
    50
100
AcDbLine
 10
285.349942
 20
-6.976827
 30
0.0
 11
285.349942
 21
-25.576827
 31
0.0
  0
LINE
  5
18C
100
AcDbEntity
  8
2
370
    50
100
AcDbLine
 10
285.349942
 20
-25.576827
 30
0.0
 11
283.271481
 21
-26.776827
 31
0.0
  0
LINE
  5
18D
100
AcDbEntity
  8
2
370
    50
100
AcDbLine
 10
285.349942
 20
-6.976827
 30
0.0
 11
283.271481
 21
-5.776827
 31
0.0
  0
LINE
  5
18E
100
AcDbEntity
  8
2
370
    50
100
AcDbLine
 10
285.349942
 20
-28.456362
 30
0.0
 11
285.349942
 21
-4.097292
 31
0.0
  0
LINE
  5
18F
100
AcDbEntity
  8
2
370
    50
100
AcDbLine
 10
282.349942
 20
-5.026827
 30
0.0
 11
282.349942
 21
-27.526827
 31
0.0
  0
LINE
  5
190
100
AcDbEntity
  8
2
370
    50
100
AcDbLine
 10
282.349942
 20
-5.776827
 30
0.0
 11
285.349942
 21
-5.776827
 31
0.0
  0
LINE
  5
191
100
AcDbEntity
  8
2
370
    50
100
AcDbLine
 10
295.349942
 20
6.723173
 30
0.0
 11
292.849942
 21
6.723173
 31
0.0
  0
ARC
  5
192
100
AcDbEntity
  8
2
370
    50
100
AcDbCircle
 10
286.349942
 20
-28.456362
 30
0.0
 40
1.0
100
AcDbArc
 50
180.0
 51
215.537678
  0
LINE
  5
193
100
AcDbEntity
  8
2
370
    25
100
AcDbLine
 10
308.149942
 20
-26.776827
 30
0.0
 11
308.149942
 21
-5.776827
 31
0.0
  0
LINE
  5
194
100
AcDbEntity
  8
2
370
    50
100
AcDbLine
 10
309.349942
 20
-25.576827
 30
0.0
 11
309.349942
 21
-6.976827
 31
0.0
  0
LINE
  5
195
100
AcDbEntity
  8
2
370
    50
100
AcDbLine
 10
308.149942
 20
-26.776827
 30
0.0
 11
309.349942
 21
-25.576827
 31
0.0
  0
LINE
  5
196
100
AcDbEntity
  8
2
370
    50
100
AcDbLine
 10
309.349942
 20
-6.976827
 30
0.0
 11
308.149942
 21
-5.776827
 31
0.0
  0
LINE
  5
197
100
AcDbEntity
  8
2
370
    50
100
AcDbLine
 10
238.349942
 20
-0.168331
 30
0.0
 11
238.349942
 21
24.182678
 31
0.0
  0
ARC
  5
198
100
AcDbEntity
  8
2
370
    50
100
AcDbCircle
 10
241.713073
 20
24.182678
 30
0.0
 40
3.363131
100
AcDbArc
 50
113.910931
 51
246.089069
  0
LINE
  5
199
100
AcDbEntity
  8
2
370
    50
100
AcDbLine
 10
240.349942
 20
21.108182
 30
0.0
 11
240.349942
 21
18.053866
 31
0.0
  0
ARC
  5
19A
100
AcDbEntity
  8
2
370
    50
100
AcDbCircle
 10
248.490567
 20
12.007173
 30
0.0
 40
10.140625
100
AcDbArc
 50
143.395774
 51
216.604226
  0
LINE
  5
19B
100
AcDbEntity
  8
2
370
    50
100
AcDbLine
 10
240.349942
 20
5.96048
 30
0.0
 11
240.349942
 21
2.906164
 31
0.0
  0
ARC
  5
19C
100
AcDbEntity
  8
2
370
    50
100
AcDbCircle
 10
241.713073
 20
-0.168331
 30
0.0
 40
3.363131
100
AcDbArc
 50
113.910931
 51
246.089069
  0
LINE
  5
19D
100
AcDbEntity
  8
2
370
    50
100
AcDbLine
 10
292.849942
 20
-39.276827
 30
0.0
 11
295.349942
 21
-39.276827
 31
0.0
  0
POINT
  5
19E
100
AcDbEntity
  8
2
370
    50
100
AcDbPoint
 10
238.349942
 20
12.007173
 30
0.0
  0
POINT
  5
19F
100
AcDbEntity
  8
2
370
    50
100
AcDbPoint
 10
219.849942
 20
86.007529
 30
0.0
  0
POINT
  5
1A0
100
AcDbEntity
  8
2
370
    50
100
AcDbPoint
 10
36.350368
 20
-82.293471
 30
0.0
  0
POINT
  5
1A1
100
AcDbEntity
  8
2
370
    50
100
AcDbPoint
 10
206.35006
 20
-17.642438
 30
0.0
  0
ARC
  5
1A2
100
AcDbEntity
  8
2
370
    50
100
AcDbCircle
 10
176.449575
 20
-19.393471
 30
0.0
 40
22.0
100
AcDbArc
 50
270.0
 51
357.655427
  0
ARC
  5
1A3
100
AcDbEntity
  8
2
370
    50
100
AcDbCircle
 10
66.089231
 20
-79.193471
 30
0.0
 40
22.0
100
AcDbArc
 50
90.0
 51
175.045556
  0
ARC
  5
1A4
100
AcDbEntity
  8
2
370
    50
100
AcDbCircle
 10
176.449575
 20
-19.393471
 30
0.0
 40
37.8
100
AcDbArc
 50
270.0
 51
358.635686
  0
ARC
  5
1A5
100
AcDbEntity
  8
2
370
    50
100
AcDbCircle
 10
66.089231
 20
-79.193471
 30
0.0
 40
37.8
100
AcDbArc
 50
90.0
 51
177.118839
  0
ARC
  5
1A6
100
AcDbEntity
  8
2
370
    50
100
AcDbCircle
 10
41.008524
 20
-79.742149
 30
0.0
 40
4.0
100
AcDbArc
 50
320.369767
 51
37.74654
  0
LINE
  5
1A7
100
AcDbEntity
  8
2
370
    50
100
AcDbLine
 10
44.17143
 20
-77.293471
 30
0.0
 11
28.337013
 21
-77.293471
 31
0.0
  0
ARC
  5
1A8
100
AcDbEntity
  8
2
370
    50
100
AcDbCircle
 10
31.50955
 20
-79.729657
 30
0.0
 40
4.0
100
AcDbArc
 50
142.479401
 51
219.862948
  0
LINE
  5
1A9
100
AcDbEntity
  8
2
370
    50
100
AcDbLine
 10
28.739231
 20
-82.293471
 30
0.0
 11
44.089231
 21
-82.293471
 31
0.0
  0
LINE
  5
1AA
100
AcDbEntity
  8
2
370
    50
100
AcDbLine
 10
91.198575
 20
-41.393471
 30
0.0
 11
66.089231
 21
-41.393471
 31
0.0
  0
LINE
  5
1AB
100
AcDbEntity
  8
2
370
    50
100
AcDbLine
 10
198.431158
 20
-20.293471
 30
0.0
 11
195.949575
 21
-20.293471
 31
0.0
  0
LINE
  5
1AC
100
AcDbEntity
  8
2
370
    50
100
AcDbLine
 10
221.749575
 20
-12.293471
 30
0.0
 11
221.749575
 21
-15.293471
 31
0.0
  0
LINE
  5
1AD
100
AcDbEntity
  8
2
370
    50
100
AcDbLine
 10
190.949575
 20
-12.293471
 30
0.0
 11
190.949575
 21
-15.293471
 31
0.0
  0
ARC
  5
1AE
100
AcDbEntity
  8
2
370
    50
100
AcDbCircle
 10
216.749575
 20
-15.293471
 30
0.0
 40
5.0
100
AcDbArc
 50
270.0
 51
360.0
  0
ARC
  5
1AF
100
AcDbEntity
  8
2
370
    50
100
AcDbCircle
 10
219.749575
 20
-12.293471
 30
0.0
 40
2.0
100
AcDbArc
 50
0.0
 51
90.0
  0
LINE
  5
1B0
100
AcDbEntity
  8
2
370
    50
100
AcDbLine
 10
198.449575
 20
-10.293471
 30
0.0
 11
219.749575
 21
-10.293471
 31
0.0
  0
ARC
  5
1B1
100
AcDbEntity
  8
2
370
    50
100
AcDbCircle
 10
192.949575
 20
-12.293471
 30
0.0
 40
2.0
100
AcDbArc
 50
90.0
 51
180.0
  0
ARC
  5
1B2
100
AcDbEntity
  8
2
370
    50
100
AcDbCircle
 10
195.949575
 20
-15.293471
 30
0.0
 40
5.0
100
AcDbArc
 50
180.0
 51
270.0
  0
LINE
  5
1B3
100
AcDbEntity
  8
2
370
    50
100
AcDbLine
 10
216.749575
 20
-20.293471
 30
0.0
 11
198.431158
 21
-20.293471
 31
0.0
  0
LINE
  5
1B4
100
AcDbEntity
  8
2
370
    50
100
AcDbLine
 10
192.984575
 20
-10.293471
 30
0.0
 11
198.449575
 21
-10.293471
 31
0.0
  0
LINE
  5
1B5
100
AcDbEntity
  8
2
370
    50
100
AcDbLine
 10
215.049575
 20
-15.293471
 30
0.0
 11
213.049575
 21
-15.293471
 31
0.0
  0
LINE
  5
1B6
100
AcDbEntity
  8
2
370
    50
100
AcDbLine
 10
215.049575
 20
-12.293471
 30
0.0
 11
213.049575
 21
-12.293471
 31
0.0
  0
LINE
  5
1B7
100
AcDbEntity
  8
2
370
    50
100
AcDbLine
 10
215.049575
 20
-12.293471
 30
0.0
 11
215.049575
 21
-15.293471
 31
0.0
  0
LINE
  5
1B8
100
AcDbEntity
  8
2
370
    50
100
AcDbLine
 10
213.049575
 20
-12.293471
 30
0.0
 11
213.049575
 21
-15.293471
 31
0.0
  0
ARC
  5
1B9
100
AcDbEntity
  8
2
370
    50
100
AcDbCircle
 10
206.349575
 20
-22.515971
 30
0.0
 40
12.2225
100
AcDbArc
 50
56.758486
 51
90.0
  0
ARC
  5
1BA
100
AcDbEntity
  8
2
370
    50
100
AcDbCircle
 10
219.749575
 20
-15.293471
 30
0.0
 40
2.0
100
AcDbArc
 50
270.0
 51
360.0
  0
ARC
  5
1BB
100
AcDbEntity
  8
2
370
    50
100
AcDbCircle
 10
206.349575
 20
-5.070971
 30
0.0
 40
12.2225
100
AcDbArc
 50
270.0
 51
303.241514
  0
LINE
  5
1BC
100
AcDbEntity
  8
2
370
    50
100
AcDbLine
 10
219.749575
 20
-17.293471
 30
0.0
 11
217.709824
 21
-17.293471
 31
0.0
  0
ARC
  5
1BD
100
AcDbEntity
  8
2
370
    50
100
AcDbCircle
 10
217.879699
 20
-14.298284
 30
0.0
 40
3.0
100
AcDbArc
 50
199.373743
 51
273.246122
  0
ARC
  5
1BE
100
AcDbEntity
  8
2
370
    50
100
AcDbCircle
 10
217.879699
 20
-13.288657
 30
0.0
 40
3.0
100
AcDbArc
 50
86.753878
 51
160.626257
  0
LINE
  5
1BF
100
AcDbEntity
  8
2
370
    50
100
AcDbLine
 10
176.418915
 20
-57.193471
 30
0.0
 11
66.089231
 21
-57.193471
 31
0.0
  0
LINE
  5
1C0
100
AcDbEntity
  8
2
370
    50
100
AcDbLine
 10
95.219344
 20
-57.193471
 30
0.0
 11
66.089231
 21
-57.193471
 31
0.0
  0
LINE
  5
1C1
100
AcDbEntity
  8
2
370
    50
100
AcDbLine
 10
176.499165
 20
-41.393471
 30
0.0
 11
66.089231
 21
-41.393471
 31
0.0
  0
ARC
  5
1C2
100
AcDbEntity
  8
2
370
    50
100
AcDbCircle
 10
206.349575
 20
-22.515971
 30
0.0
 40
12.2225
100
AcDbArc
 50
90.0
 51
123.241514
  0
ARC
  5
1C3
100
AcDbEntity
  8
2
370
    50
100
AcDbCircle
 10
206.349575
 20
-5.070971
 30
0.0
 40
12.2225
100
AcDbArc
 50
236.758486
 51
270.0
  0
LINE
  5
1C4
100
AcDbEntity
  8
2
370
    50
100
AcDbLine
 10
199.649575
 20
-12.293471
 30
0.0
 11
199.649575
 21
-15.293471
 31
0.0
  0
LINE
  5
1C5
100
AcDbEntity
  8
2
370
    50
100
AcDbLine
 10
197.649575
 20
-15.293471
 30
0.0
 11
199.649575
 21
-15.293471
 31
0.0
  0
LINE
  5
1C6
100
AcDbEntity
  8
2
370
    50
100
AcDbLine
 10
197.649575
 20
-12.293471
 30
0.0
 11
199.649575
 21
-12.293471
 31
0.0
  0
LINE
  5
1C7
100
AcDbEntity
  8
2
370
    50
100
AcDbLine
 10
197.649575
 20
-12.293471
 30
0.0
 11
197.649575
 21
-15.293471
 31
0.0
  0
ARC
  5
1C8
100
AcDbEntity
  8
2
370
    50
100
AcDbCircle
 10
194.819451
 20
-13.288657
 30
0.0
 40
3.0
100
AcDbArc
 50
19.373743
 51
93.246122
  0
ARC
  5
1C9
100
AcDbEntity
  8
2
370
    50
100
AcDbCircle
 10
194.819451
 20
-14.298284
 30
0.0
 40
3.0
100
AcDbArc
 50
266.753878
 51
340.626257
  0
LINE
  5
1CA
100
AcDbEntity
  8
2
370
    50
100
AcDbLine
 10
192.949575
 20
-17.293471
 30
0.0
 11
194.989326
 21
-17.293471
 31
0.0
  0
ARC
  5
1CB
100
AcDbEntity
  8
2
370
    50
100
AcDbCircle
 10
192.949575
 20
-15.293471
 30
0.0
 40
2.0
100
AcDbArc
 50
180.0
 51
270.0
  0
LINE
  5
1CC
100
AcDbEntity
  8
2
370
    50
100
AcDbLine
 10
218.10006
 20
-10.293471
 30
0.0
 11
218.10006
 21
-9.386771
 31
0.0
  0
LINE
  5
1CD
100
AcDbEntity
  8
2
370
    50
100
AcDbLine
 10
194.60006
 20
-10.293471
 30
0.0
 11
194.60006
 21
-9.386771
 31
0.0
  0
LINE
  5
1CE
100
AcDbEntity
  8
2
370
    50
100
AcDbLine
 10
-201.568842
 20
-20.293471
 30
0.0
 11
-204.050425
 21
-20.293471
 31
0.0
  0
LINE
  5
1CF
100
AcDbEntity
  8
2
370
    50
100
AcDbLine
 10
-178.250425
 20
-12.293471
 30
0.0
 11
-178.250425
 21
-15.293471
 31
0.0
  0
LINE
  5
1D0
100
AcDbEntity
  8
2
370
    50
100
AcDbLine
 10
-209.050425
 20
-12.293471
 30
0.0
 11
-209.050425
 21
-15.293471
 31
0.0
  0
ARC
  5
1D1
100
AcDbEntity
  8
2
370
    50
100
AcDbCircle
 10
-183.250425
 20
-15.293471
 30
0.0
 40
5.0
100
AcDbArc
 50
270.0
 51
360.0
  0
ARC
  5
1D2
100
AcDbEntity
  8
2
370
    50
100
AcDbCircle
 10
-180.250425
 20
-12.293471
 30
0.0
 40
2.0
100
AcDbArc
 50
0.0
 51
90.0
  0
LINE
  5
1D3
100
AcDbEntity
  8
2
370
    50
100
AcDbLine
 10
-201.550425
 20
-10.293471
 30
0.0
 11
-180.250425
 21
-10.293471
 31
0.0
  0
ARC
  5
1D4
100
AcDbEntity
  8
2
370
    50
100
AcDbCircle
 10
-207.050425
 20
-12.293471
 30
0.0
 40
2.0
100
AcDbArc
 50
90.0
 51
180.0
  0
ARC
  5
1D5
100
AcDbEntity
  8
2
370
    50
100
AcDbCircle
 10
-204.050425
 20
-15.293471
 30
0.0
 40
5.0
100
AcDbArc
 50
180.0
 51
270.0
  0
LINE
  5
1D6
100
AcDbEntity
  8
2
370
    50
100
AcDbLine
 10
-183.250425
 20
-20.293471
 30
0.0
 11
-201.568842
 21
-20.293471
 31
0.0
  0
LINE
  5
1D7
100
AcDbEntity
  8
2
370
    50
100
AcDbLine
 10
-207.015425
 20
-10.293471
 30
0.0
 11
-201.550425
 21
-10.293471
 31
0.0
  0
LINE
  5
1D8
100
AcDbEntity
  8
2
370
    50
100
AcDbLine
 10
-184.950425
 20
-15.293471
 30
0.0
 11
-186.950425
 21
-15.293471
 31
0.0
  0
LINE
  5
1D9
100
AcDbEntity
  8
2
370
    50
100
AcDbLine
 10
-184.950425
 20
-12.293471
 30
0.0
 11
-186.950425
 21
-12.293471
 31
0.0
  0
LINE
  5
1DA
100
AcDbEntity
  8
2
370
    50
100
AcDbLine
 10
-184.950425
 20
-12.293471
 30
0.0
 11
-184.950425
 21
-15.293471
 31
0.0
  0
LINE
  5
1DB
100
AcDbEntity
  8
2
370
    50
100
AcDbLine
 10
-186.950425
 20
-12.293471
 30
0.0
 11
-186.950425
 21
-15.293471
 31
0.0
  0
ARC
  5
1DC
100
AcDbEntity
  8
2
370
    50
100
AcDbCircle
 10
-193.650425
 20
-22.515971
 30
0.0
 40
12.2225
100
AcDbArc
 50
56.758486
 51
90.0
  0
ARC
  5
1DD
100
AcDbEntity
  8
2
370
    50
100
AcDbCircle
 10
-180.250425
 20
-15.293471
 30
0.0
 40
2.0
100
AcDbArc
 50
270.0
 51
360.0
  0
ARC
  5
1DE
100
AcDbEntity
  8
2
370
    50
100
AcDbCircle
 10
-193.650425
 20
-5.070971
 30
0.0
 40
12.2225
100
AcDbArc
 50
270.0
 51
303.241514
  0
LINE
  5
1DF
100
AcDbEntity
  8
2
370
    50
100
AcDbLine
 10
-180.250425
 20
-17.293471
 30
0.0
 11
-182.290176
 21
-17.293471
 31
0.0
  0
ARC
  5
1E0
100
AcDbEntity
  8
2
370
    50
100
AcDbCircle
 10
-182.120301
 20
-14.298284
 30
0.0
 40
3.0
100
AcDbArc
 50
199.373743
 51
273.246122
  0
ARC
  5
1E1
100
AcDbEntity
  8
2
370
    50
100
AcDbCircle
 10
-182.120301
 20
-13.288657
 30
0.0
 40
3.0
100
AcDbArc
 50
86.753878
 51
160.626257
  0
ARC
  5
1E2
100
AcDbEntity
  8
2
370
    50
100
AcDbCircle
 10
-193.650425
 20
-22.515971
 30
0.0
 40
12.2225
100
AcDbArc
 50
90.0
 51
123.241514
  0
ARC
  5
1E3
100
AcDbEntity
  8
2
370
    50
100
AcDbCircle
 10
-193.650425
 20
-5.070971
 30
0.0
 40
12.2225
100
AcDbArc
 50
236.758486
 51
270.0
  0
LINE
  5
1E4
100
AcDbEntity
  8
2
370
    50
100
AcDbLine
 10
-200.350425
 20
-12.293471
 30
0.0
 11
-200.350425
 21
-15.293471
 31
0.0
  0
LINE
  5
1E5
100
AcDbEntity
  8
2
370
    50
100
AcDbLine
 10
-202.350425
 20
-15.293471
 30
0.0
 11
-200.350425
 21
-15.293471
 31
0.0
  0
LINE
  5
1E6
100
AcDbEntity
  8
2
370
    50
100
AcDbLine
 10
-202.350425
 20
-12.293471
 30
0.0
 11
-200.350425
 21
-12.293471
 31
0.0
  0
LINE
  5
1E7
100
AcDbEntity
  8
2
370
    50
100
AcDbLine
 10
-202.350425
 20
-12.293471
 30
0.0
 11
-202.350425
 21
-15.293471
 31
0.0
  0
ARC
  5
1E8
100
AcDbEntity
  8
2
370
    50
100
AcDbCircle
 10
-205.180549
 20
-13.288657
 30
0.0
 40
3.0
100
AcDbArc
 50
19.373743
 51
93.246122
  0
ARC
  5
1E9
100
AcDbEntity
  8
2
370
    50
100
AcDbCircle
 10
-205.180549
 20
-14.298284
 30
0.0
 40
3.0
100
AcDbArc
 50
266.753878
 51
340.626257
  0
LINE
  5
1EA
100
AcDbEntity
  8
2
370
    50
100
AcDbLine
 10
-207.050425
 20
-17.293471
 30
0.0
 11
-205.010674
 21
-17.293471
 31
0.0
  0
ARC
  5
1EB
100
AcDbEntity
  8
2
370
    50
100
AcDbCircle
 10
-207.050425
 20
-15.293471
 30
0.0
 40
2.0
100
AcDbArc
 50
180.0
 51
270.0
  0
LINE
  5
1EC
100
AcDbEntity
  8
2
370
    50
100
AcDbLine
 10
-181.89994
 20
-10.293471
 30
0.0
 11
-181.89994
 21
-9.386771
 31
0.0
  0
LINE
  5
1ED
100
AcDbEntity
  8
2
370
    50
100
AcDbLine
 10
-205.39994
 20
-10.293471
 30
0.0
 11
-205.39994
 21
-9.386771
 31
0.0
  0
LINE
  5
1EE
100
AcDbEntity
  8
2
370
    50
100
AcDbLine
 10
-206.531096
 20
-9.386771
 30
0.0
 11
-180.768349
 21
-9.386771
 31
0.0
  0
LINE
  5
1EF
100
AcDbEntity
  8
2
370
    50
100
AcDbLine
 10
-180.455819
 20
-5.84212
 30
0.0
 11
-180.768349
 21
-9.386771
 31
0.0
  0
LINE
  5
1F0
100
AcDbEntity
  8
2
370
    50
100
AcDbLine
 10
-206.842994
 20
-5.849284
 30
0.0
 11
-206.531096
 21
-9.386771
 31
0.0
  0
TEXT
  5
1F1
100
AcDbEntity
  8
3
370
    50
100
AcDbText
 10
230.278992
 20
-272.075134
 30
0.0
 40
7.0
  1
外観寸法図
 72
     5
 11
263.878992
 21
-272.075134
 31
0.0
100
AcDbText
  0
TEXT
  5
1F2
100
AcDbEntity
  8
3
370
    50
100
AcDbText
 10
288.320221
 20
-239.912292
 30
0.0
 40
7.0
  1
１
 72
     5
 11
293.920221
 21
-239.912292
 31
0.0
100
AcDbText
  0
TEXT
  5
1F3
100
AcDbEntity
  8
3
370
    50
100
AcDbText
 10
303.537354
 20
-240.199203
 30
0.0
 40
7.0
  1
２
 72
     5
 11
309.137354
 21
-240.199203
 31
0.0
100
AcDbText
  0
DIMENSION
  5
1F4
100
AcDbEntity
  8
3
370
    25
100
AcDbDimension
  2
*D0
 10
-126.150058
 20
-118.174927
 30
0.0
 11
-193.649722
 21
-113.674927
 31
0.0
 71
     0
 72
     0
 41
0.0
 42
0.0
  3
Standard
100
AcDbAlignedDimension
 13
-261.149387
 23
12.007529
 33
0.0
 14
-126.150058
 24
12.007529
 34
0.0
100
AcDbRotatedDimension
  0
TEXT
  5
1F5
100
AcDbEntity
  8
3
370
    50
100
AcDbText
 10
-235.649722
 20
-151.007355
 30
0.0
 40
7.0
  1
２００（ＭＡＸ　２１５）
 72
     5
 11
-153.049722
 21
-151.007355
 31
0.0
100
AcDbText
  0
DIMENSION
  5
1F6
100
AcDbEntity
  8
3
370
    25
100
AcDbDimension
  2
*D1
 10
-97.865387
 20
-152.007355
 30
0.0
 11
-193.649722
 21
-150.007355
 31
0.0
 70
     1
 71
     0
 72
     0
 41
0.0
 42
0.0
  3
Standard
100
AcDbAlignedDimension
 13
-289.434058
 23
-16.276471
 33
0.0
 14
-97.865387
 24
-16.276471
 34
0.0
 50
180.0
  0
DIMENSION
  5
1F7
100
AcDbEntity
  8
3
370
    25
100
AcDbDimension
  2
*D2
 10
-304.237479
 20
-1.472699
 30
0.0
 11
-290.802241
 21
10.901572
 31
0.0
 70
     1
 71
     0
 72
     0
 41
0.0
 42
0.0
  3
Standard
100
AcDbAlignedDimension
 13
-261.149387
 23
12.007529
 33
0.0
 14
-289.434058
 24
-16.276471
 34
0.0
 50
44.99932
  0
TEXT
  5
1F8
100
AcDbEntity
  8
3
370
    50
100
AcDbText
 10
312.677734
 20
31.318832
 30
0.0
 40
8.0
  1
ＰＪ１／２
 72
     5
 11
351.077734
 21
31.318832
 31
0.0
100
AcDbText
  0
LWPOLYLINE
  5
1F9
100
AcDbEntity
  8
3
370
    25
100
AcDbPolyline
 90
        3
 70
     0
 10
301.073186
 20
-5.776827
 10
310.89005
 20
28.290491
 10
350.648412
 20
28.290491
  0
LINE
  5
1FE
100
AcDbEntity
  8
3
370
    25
100
AcDbLine
 10
302.143021
 20
-2.064192
 30
0.0
 11
301.148224
 21
-1.777531
 31
0.0
  0
LINE
  5
1FF
100
AcDbEntity
  8
3
370
    25
100
AcDbLine
 10
301.148224
 20
-1.777531
 30
0.0
 11
301.073186
 21
-5.776827
 31
0.0
  0
LINE
  5
200
100
AcDbEntity
  8
3
370
    25
100
AcDbLine
 10
301.073186
 20
-5.776827
 30
0.0
 11
303.137819
 21
-2.350854
 31
0.0
  0
LINE
  5
201
100
AcDbEntity
  8
3
370
    25
100
AcDbLine
 10
303.137819
 20
-2.350854
 30
0.0
 11
302.143021
 21
-2.064192
 31
0.0
  0
DIMENSION
  5
202
100
AcDbEntity
  8
3
370
    25
100
AcDbDimension
  2
*D3
 10
3.596127
 20
86.007529
 30
0.0
 11
-4.403873
 21
49.007351
 31
0.0
 71
     0
 72
     0
 41
0.0
 42
0.0
  3
Standard
100
AcDbAlignedDimension
 13
238.349942
 23
12.007173
 33
0.0
 14
219.849942
 24
86.007529
 34
0.0
 50
90.0
100
AcDbRotatedDimension
  0
TEXT
  5
203
100
AcDbEntity
  8
3
370
    50
100
AcDbText
 10
236.850001
 20
-115.001236
 30
0.0
 40
7.0
  1
（８９）
 72
     5
 11
263.450001
 21
-115.001236
 31
0.0
100
AcDbText
  0
DIMENSION
  5
204
100
AcDbEntity
  8
3
370
    25
100
AcDbDimension
  2
*D4
 10
295.349942
 20
-116.001236
 30
0.0
 11
250.850001
 21
-114.001236
 31
0.0
 71
     0
 72
     0
 41
0.0
 42
0.0
  3
Standard
100
AcDbAlignedDimension
 13
206.35006
 23
-17.642438
 33
0.0
 14
295.349942
 24
-39.276827
 34
0.0
100
AcDbRotatedDimension
  0
TEXT
  5
205
100
AcDbEntity
  8
3
370
    50
100
AcDbText
 10
317.349942
 20
-115.001236
 30
0.0
 40
7.0
  1
（１４）
 72
     5
 11
343.949942
 21
-115.001236
 31
0.0
100
AcDbText
  0
DIMENSION
  5
206
100
AcDbEntity
  8
3
370
    25
100
AcDbDimension
  2
*D5
 10
309.349942
 20
-116.001236
 30
0.0
 11
302.349942
 21
-114.001236
 31
0.0
 71
     0
 72
     0
 41
0.0
 42
0.0
  3
Standard
100
AcDbAlignedDimension
 13
295.349942
 23
-39.276827
 33
0.0
 14
309.349942
 24
-25.576827
 34
0.0
100
AcDbRotatedDimension
  0
TEXT
  5
207
100
AcDbEntity
  8
3
370
    50
100
AcDbText
 10
67.982487
 20
-227.59259
 30
0.0
 40
7.0
  1
一時止水付混合栓
 72
     5
 11
122.582487
 21
-227.59259
 31
0.0
100
AcDbText
  0
TEXT
  5
208
100
AcDbEntity
  8
3
370
    50
100
AcDbText
 10
67.982487
 20
-235.994034
 30
0.0
 40
7.0
  1
Ｋ１３－５５
 72
     5
 11
108.582487
 21
-235.994034
 31
0.0
100
AcDbText
  0
TEXT
  5
209
100
AcDbEntity
  8
3
370
    50
100
AcDbText
 10
322.774139
 20
-273.055786
 30
0.0
 40
10.5
  1
３００４００
 72
     5
 11
383.674139
 21
-273.055786
 31
0.0
100
AcDbText
  0
TEXT
  5
20A
100
AcDbEntity
  8
3
370
    50
100
AcDbText
 10
-275.004822
 20
109.546944
 30
0.0
 40
7.0
  1
（湯表示）
 72
     5
 11
-241.404822
 21
109.546944
 31
0.0
100
AcDbText
  0
TEXT
  5
20B
100
AcDbEntity
  8
3
370
    50
100
AcDbText
 10
-135.294623
 20
117.546944
 30
0.0
 40
7.0
  1
サックス
 72
     5
 11
-108.694623
 21
117.546944
 31
0.0
100
AcDbText
  0
TEXT
  5
20C
100
AcDbEntity
  8
3
370
    50
100
AcDbText
 10
-275.004822
 20
117.546944
 30
0.0
 40
7.0
  1
ピンク
 72
     5
 11
-255.404822
 21
117.546944
 31
0.0
100
AcDbText
  0
TEXT
  5
20D
100
AcDbEntity
  8
3
370
    50
100
AcDbText
 10
-135.294623
 20
109.546944
 30
0.0
 40
7.0
  1
（水表示）
 72
     5
 11
-101.694623
 21
109.546944
 31
0.0
100
AcDbText
  0
LWPOLYLINE
  5
20E
100
AcDbEntity
  8
3
370
    25
100
AcDbPolyline
 90
        2
 70
     0
 10
-260.709686
 20
86.369972
 10
-262.658966
 20
107.154556
  0
LWPOLYLINE
  5
212
100
AcDbEntity
  8
3
370
    25
100
AcDbPolyline
 90
        2
 70
     0
 10
-126.589758
 20
86.369972
 10
-124.640479
 20
107.154556
  0
LWPOLYLINE
  5
216
100
AcDbEntity
  8
3
370
    25
100
AcDbPolyline
 90
        2
 70
     0
 10
-116.896065
 20
29.898924
 10
-95.164124
 20
37.821548
  0
DIMENSION
  5
21A
100
AcDbEntity
  8
3
370
    25
100
AcDbDimension
  2
*D6
 10
3.596127
 20
12.007173
 30
0.0
 11
-4.403873
 21
-35.143149
 31
0.0
 71
     0
 72
     0
 41
0.0
 42
0.0
  3
Standard
100
AcDbAlignedDimension
 13
28.739231
 23
-82.293471
 33
0.0
 14
238.349942
 24
12.007173
 34
0.0
 50
90.0
100
AcDbRotatedDimension
  0
DIMENSION
  5
21B
100
AcDbEntity
  8
3
370
    25
100
AcDbDimension
  2
*D7
 10
206.35006
 20
-116.001236
 30
0.0
 11
121.350214
 21
-111.501236
 31
0.0
 71
     0
 72
     0
 41
0.0
 42
0.0
  3
Standard
100
AcDbAlignedDimension
 13
36.350368
 23
-82.293471
 33
0.0
 14
206.35006
 24
-17.642438
 34
0.0
100
AcDbRotatedDimension
  0
LINE
  5
21C
100
AcDbEntity
  8
3
370
    25
  6
CENTER
100
AcDbLine
 10
-232.874664
 20
12.007529
 30
0.0
 11
-152.906372
 21
12.007529
 31
0.0
  0
DIMENSION
  5
21D
100
AcDbEntity
  8
3
370
    25
100
AcDbDimension
  2
*D8
 10
-158.202769
 20
12.007529
 30
0.0
 11
-175.705399
 21
-29.411993
 31
0.0
 70
     2
 71
     0
 72
     0
 41
0.0
 42
0.0
  3
Standard
100
AcDb2LineAngularDimension
 13
-227.578267
 23
12.007529
 33
0.0
 14
-192.890518
 24
12.007529
 34
0.0
 15
-192.890518
 25
12.007529
 35
0.0
 16
-192.890518
 26
-31.192966
 36
0.0
1001
ACAD
1000
DSTYLE
1002
{
1070
   275
1070
     0
1070
   179
1070
     0
1002
}
  0
TEXT
  5
21E
100
AcDbEntity
  8
3
370
    50
100
AcDbText
 10
-242.256409
 20
-6.452256
 30
0.0
 40
7.0
  1
パイプ吐水
 72
     5
 11
-208.656409
 21
-6.452256
 31
0.0
100
AcDbText
  0
TEXT
  5
21F
100
AcDbEntity
  8
3
370
    50
100
AcDbText
 10
-172.340012
 20
-6.675532
 30
0.0
 40
7.0
  1
止水
 72
     5
 11
-159.740012
 21
-6.675532
 31
0.0
100
AcDbText
  0
LWPOLYLINE
  5
220
100
AcDbEntity
  8
3
370
    25
100
AcDbPolyline
 90
        2
 70
     0
 10
-112.06336
 20
10.867721
 10
-97.267797
 20
22.177433
  0
LINE
  5
224
100
AcDbEntity
  8
3
370
    25
100
AcDbLine
 10
-108.993743
 20
13.214133
 30
0.0
 11
-109.622462
 21
14.036635
 31
0.0
  0
LINE
  5
225
100
AcDbEntity
  8
3
370
    25
100
AcDbLine
 10
-109.622462
 20
14.036635
 30
0.0
 11
-112.06336
 21
10.867721
 31
0.0
  0
LINE
  5
226
100
AcDbEntity
  8
3
370
    25
100
AcDbLine
 10
-112.06336
 20
10.867721
 30
0.0
 11
-108.365023
 21
12.391631
 31
0.0
  0
LINE
  5
227
100
AcDbEntity
  8
3
370
    25
100
AcDbLine
 10
-108.365023
 20
12.391631
 30
0.0
 11
-108.993743
 21
13.214133
 31
0.0
  0
TEXT
  5
228
100
AcDbEntity
  8
3
370
    50
100
AcDbText
 10
-95.278875
 20
22.177433
 30
0.0
 40
7.0
  1
逆止弁内蔵
 72
     5
 11
-61.678875
 21
22.177433
 31
0.0
100
AcDbText
  0
DIMENSION
  5
229
100
AcDbEntity
  8
3
370
    25
100
AcDbDimension
  2
*D9
 10
333.450439
 20
6.723173
 30
0.0
 11
325.450439
 21
-16.276827
 31
0.0
 71
     0
 72
     0
 41
0.0
 42
0.0
  3
Standard
100
AcDbAlignedDimension
 13
295.349942
 23
-39.276827
 33
0.0
 14
295.349942
 24
6.723173
 34
0.0
 50
90.0
100
AcDbRotatedDimension
  0
TEXT
  5
22A
100
AcDbEntity
  8
3
370
    50
100
AcDbText
 10
-326.489685
 20
26.445669
 30
0.0
 40
7.0
  1
逆止弁内蔵
 72
     5
 11
-292.889685
 21
26.445669
 31
0.0
100
AcDbText
  0
LWPOLYLINE
  5
22B
100
AcDbEntity
  8
3
370
    25
100
AcDbPolyline
 90
        2
 70
     0
 10
-276.691742
 20
10.486423
 10
-289.616364
 20
26.445669
  0
LINE
  5
22F
100
AcDbEntity
  8
3
370
    25
100
AcDbLine
 10
-279.123372
 20
13.488986
 30
0.0
 11
-279.927906
 21
12.837432
 31
0.0
  0
LINE
  5
230
100
AcDbEntity
  8
3
370
    25
100
AcDbLine
 10
-279.927906
 20
12.837432
 30
0.0
 11
-276.691742
 21
10.486423
 31
0.0
  0
LINE
  5
231
100
AcDbEntity
  8
3
370
    25
100
AcDbLine
 10
-276.691742
 20
10.486423
 30
0.0
 11
-278.318838
 21
14.140539
 31
0.0
  0
LINE
  5
232
100
AcDbEntity
  8
3
370
    25
100
AcDbLine
 10
-278.318838
 20
14.140539
 30
0.0
 11
-279.123372
 21
13.488986
 31
0.0
  0
TEXT
  5
233
100
AcDbEntity
  8
4
370
    50
100
AcDbText
 10
-95.596031
 20
36.019127
 30
0.0
 40
7.0
  1
（商標表示）
 72
     5
 11
-54.996031
 21
36.019127
 31
0.0
100
AcDbText
  0
LINE
  5
234
100
AcDbEntity
  8
4
370
    50
100
AcDbLine
 10
-250.62065
 20
28.668074
 30
0.0
 11
-250.62065
 21
15.668074
 31
0.0
  0
LINE
  5
235
100
AcDbEntity
  8
4
370
    50
100
AcDbLine
 10
-270.62065
 20
28.668074
 30
0.0
 11
-270.62065
 21
15.668074
 31
0.0
  0
LINE
  5
236
100
AcDbEntity
  8
4
370
    50
100
AcDbLine
 10
-249.62065
 20
28.668074
 30
0.0
 11
-249.62065
 21
15.668074
 31
0.0
  0
LINE
  5
237
100
AcDbEntity
  8
4
370
    50
100
AcDbLine
 10
-271.62065
 20
28.668074
 30
0.0
 11
-271.62065
 21
15.668074
 31
0.0
  0
LINE
  5
238
100
AcDbEntity
  8
4
370
    50
100
AcDbLine
 10
-252.62065
 20
31.668074
 30
0.0
 11
-268.62065
 21
31.668074
 31
0.0
  0
LINE
  5
239
100
AcDbEntity
  8
4
370
    50
100
AcDbLine
 10
-252.62065
 20
30.668074
 30
0.0
 11
-268.62065
 21
30.668074
 31
0.0
  0
LINE
  5
23A
100
AcDbEntity
  8
4
370
    50
100
AcDbLine
 10
-252.62065
 20
13.668074
 30
0.0
 11
-268.62065
 21
13.668074
 31
0.0
  0
LINE
  5
23B
100
AcDbEntity
  8
4
370
    50
100
AcDbLine
 10
-252.62065
 20
12.668074
 30
0.0
 11
-268.62065
 21
12.668074
 31
0.0
  0
LINE
  5
23C
100
AcDbEntity
  8
4
370
    50
100
AcDbLine
 10
-250.62065
 20
24.668074
 30
0.0
 11
-270.62065
 21
24.668074
 31
0.0
  0
ARC
  5
23D
100
AcDbEntity
  8
4
370
    50
100
AcDbCircle
 10
-268.62065
 20
28.668074
 30
0.0
 40
3.0
100
AcDbArc
 50
90.0
 51
180.0
  0
ARC
  5
23E
100
AcDbEntity
  8
4
370
    50
100
AcDbCircle
 10
-252.62065
 20
28.668074
 30
0.0
 40
3.0
100
AcDbArc
 50
0.0
 51
90.0
  0
ARC
  5
23F
100
AcDbEntity
  8
4
370
    50
100
AcDbCircle
 10
-252.62065
 20
15.668074
 30
0.0
 40
3.0
100
AcDbArc
 50
270.0
 51
0.0
  0
ARC
  5
240
100
AcDbEntity
  8
4
370
    50
100
AcDbCircle
 10
-268.62065
 20
15.668074
 30
0.0
 40
3.0
100
AcDbArc
 50
180.0
 51
270.0
  0
ARC
  5
241
100
AcDbEntity
  8
4
370
    50
100
AcDbCircle
 10
-268.62065
 20
28.668074
 30
0.0
 40
2.0
100
AcDbArc
 50
90.0
 51
180.0
  0
ARC
  5
242
100
AcDbEntity
  8
4
370
    50
100
AcDbCircle
 10
-252.62065
 20
28.668074
 30
0.0
 40
2.0
100
AcDbArc
 50
360.0
 51
90.0
  0
ARC
  5
243
100
AcDbEntity
  8
4
370
    50
100
AcDbCircle
 10
-252.62065
 20
15.668074
 30
0.0
 40
2.0
100
AcDbArc
 50
270.0
 51
360.0
  0
ARC
  5
244
100
AcDbEntity
  8
4
370
    50
100
AcDbCircle
 10
-268.62065
 20
15.668074
 30
0.0
 40
2.0
100
AcDbArc
 50
180.0
 51
270.0
  0
POINT
  5
245
100
AcDbEntity
  8
4
370
    50
100
AcDbPoint
 10
-266.12065
 20
19.168074
 30
0.0
  0
CIRCLE
  5
246
100
AcDbEntity
  8
4
370
    50
100
AcDbCircle
 10
-266.12065
 20
19.168074
 30
0.0
 40
4.0
  0
LINE
  5
247
100
AcDbEntity
  8
4
370
    50
100
AcDbLine
 10
-268.412426
 20
21.813403
 30
0.0
 11
-263.475321
 21
16.876299
 31
0.0
  0
LINE
  5
248
100
AcDbEntity
  8
4
370
    50
100
AcDbLine
 10
-268.765979
 20
21.45985
 30
0.0
 11
-263.828875
 21
16.522745
 31
0.0
  0
ARC
  5
249
100
AcDbEntity
  8
4
370
    50
100
AcDbCircle
 10
-266.12065
 20
19.168074
 30
0.0
 40
3.5
100
AcDbArc
 50
319.096044
 51
130.903956
  0
ARC
  5
24A
100
AcDbEntity
  8
4
370
    50
100
AcDbCircle
 10
-266.12065
 20
19.168074
 30
0.0
 40
3.5
100
AcDbArc
 50
139.096044
 51
310.903956
  0
LINE
  5
24B
100
AcDbEntity
  8
4
370
    50
100
AcDbLine
 10
-264.12065
 20
17.521628
 30
0.0
 11
-264.12065
 21
20.818074
 31
0.0
  0
LINE
  5
24C
100
AcDbEntity
  8
4
370
    50
100
AcDbLine
 10
-264.82065
 20
18.668074
 30
0.0
 11
-264.82065
 21
21.318074
 31
0.0
  0
LINE
  5
24D
100
AcDbEntity
  8
4
370
    50
100
AcDbLine
 10
-265.52065
 20
19.168074
 30
0.0
 11
-265.52065
 21
21.818074
 31
0.0
  0
LINE
  5
24E
100
AcDbEntity
  8
4
370
    50
100
AcDbLine
 10
-266.22065
 20
19.168074
 30
0.0
 11
-266.22065
 21
21.818074
 31
0.0
  0
LINE
  5
24F
100
AcDbEntity
  8
4
370
    50
100
AcDbLine
 10
-266.394238
 20
16.168074
 30
0.0
 11
-265.12065
 21
16.168074
 31
0.0
  0
ARC
  5
250
100
AcDbEntity
  8
4
370
    50
100
AcDbCircle
 10
-265.87065
 20
21.818074
 30
0.0
 40
0.35
100
AcDbArc
 50
0.0
 51
180.0
  0
ARC
  5
251
100
AcDbEntity
  8
4
370
    50
100
AcDbCircle
 10
-266.57065
 20
21.318074
 30
0.0
 40
0.35
100
AcDbArc
 50
0.0
 51
180.0
  0
ARC
  5
252
100
AcDbEntity
  8
4
370
    50
100
AcDbCircle
 10
-265.17065
 20
21.318074
 30
0.0
 40
0.35
100
AcDbArc
 50
0.0
 51
180.0
  0
ARC
  5
253
100
AcDbEntity
  8
4
370
    50
100
AcDbCircle
 10
-264.47065
 20
20.818074
 30
0.0
 40
0.35
100
AcDbArc
 50
0.0
 51
180.0
  0
ARC
  5
254
100
AcDbEntity
  8
4
370
    50
100
AcDbCircle
 10
-265.12065
 20
17.168074
 30
0.0
 40
1.0
100
AcDbArc
 50
270.0
 51
342.20057
  0
LINE
  5
255
100
AcDbEntity
  8
4
370
    50
100
AcDbLine
 10
-266.92065
 20
18.168074
 30
0.0
 11
-266.92065
 21
19.614521
 31
0.0
  0
LINE
  5
256
100
AcDbEntity
  8
4
370
    50
100
AcDbLine
 10
-266.92065
 20
20.321628
 30
0.0
 11
-266.92065
 21
21.318074
 31
0.0
  0
LINE
  5
257
100
AcDbEntity
  8
4
370
    50
100
AcDbLine
 10
-267.958238
 20
19.069968
 30
0.0
 11
-266.92065
 21
18.168074
 31
0.0
  0
LINE
  5
258
100
AcDbEntity
  8
4
370
    50
100
AcDbLine
 10
-268.550402
 20
18.54166
 30
0.0
 11
-267.218619
 21
16.602038
 31
0.0
  0
ARC
  5
259
100
AcDbEntity
  8
4
370
    50
100
AcDbCircle
 10
-268.22065
 20
18.768074
 30
0.0
 40
0.4
100
AcDbArc
 50
49.002125
 51
214.474285
  0
ARC
  5
25A
100
AcDbEntity
  8
4
370
    50
100
AcDbCircle
 10
-266.394238
 20
17.168074
 30
0.0
 40
1.0
100
AcDbArc
 50
214.474285
 51
270.0
  0
TEXT
  5
25B
100
AcDbEntity
  8
4
370
    50
100
AcDbText
 10
-259.985867
 20
21.522538
 30
0.0
 40
2.2
  1
やけどの
 72
     5
 11
-251.625867
 21
21.522538
 31
0.0
100
AcDbText
  0
TEXT
  5
25C
100
AcDbEntity
  8
4
370
    50
100
AcDbText
 10
-259.985867
 20
18.322538
 30
0.0
 40
2.2
  1
恐れあり
 72
     5
 11
-251.625867
 21
18.322538
 31
0.0
100
AcDbText
  0
TEXT
  5
25D
100
AcDbEntity
  8
4
370
    50
100
AcDbText
 10
-259.985867
 20
15.122538
 30
0.0
 40
2.2
  1
さわるな
 72
     5
 11
-251.625867
 21
15.122538
 31
0.0
100
AcDbText
  0
TEXT
  5
25E
100
AcDbEntity
  8
4
370
    50
100
AcDbText
 10
-261.766756
 20
25.499282
 30
0.0
 40
4.0
  1
注 意
 72
     5
 11
-252.566756
 21
25.499282
 31
0.0
100
AcDbText
  0
LINE
  5
25F
100
AcDbEntity
  8
4
370
    50
100
AcDbLine
 10
-262.847148
 20
25.168074
 30
0.0
 11
-268.62065
 21
25.168074
 31
0.0
  0
LINE
  5
260
100
AcDbEntity
  8
4
370
    50
100
AcDbLine
 10
-268.62065
 20
25.168074
 30
0.0
 11
-265.733899
 21
30.168074
 31
0.0
  0
LINE
  5
261
100
AcDbEntity
  8
4
370
    50
100
AcDbLine
 10
-265.733899
 20
30.168074
 30
0.0
 11
-262.847148
 21
25.168074
 31
0.0
  0
TEXT
  5
262
100
AcDbEntity
  8
4
370
    50
100
AcDbText
 10
-267.700023
 20
25.443551
 30
0.0
 40
4.0
  1
！
 72
     5
 11
-264.500023
 21
25.443551
 31
0.0
100
AcDbText
  0
LINE
  5
263
100
AcDbEntity
  8
4
370
    25
100
AcDbLine
 10
-270.12065
 20
19.168074
 30
0.0
 11
-269.578388
 21
19.710336
 31
0.0
  0
LINE
  5
264
100
AcDbEntity
  8
4
370
    25
100
AcDbLine
 10
-268.297427
 20
20.991298
 30
0.0
 11
-267.943874
 21
21.344851
 31
0.0
  0
LINE
  5
265
100
AcDbEntity
  8
4
370
    25
100
AcDbLine
 10
-266.662912
 20
22.625812
 30
0.0
 11
-266.12065
 21
23.168074
 31
0.0
  0
LINE
  5
266
100
AcDbEntity
  8
4
370
    25
100
AcDbLine
 10
-270.11129
 20
18.894592
 30
0.0
 11
-269.613452
 21
19.39243
 31
0.0
  0
LINE
  5
267
100
AcDbEntity
  8
4
370
    25
100
AcDbLine
 10
-268.156006
 20
20.849876
 30
0.0
 11
-267.802452
 21
21.20343
 31
0.0
  0
LINE
  5
268
100
AcDbEntity
  8
4
370
    25
100
AcDbLine
 10
-266.345006
 20
22.660876
 30
0.0
 11
-265.847168
 21
23.158714
 31
0.0
  0
LINE
  5
269
100
AcDbEntity
  8
4
370
    25
100
AcDbLine
 10
-270.085333
 20
18.637706
 30
0.0
 11
-269.620045
 21
19.102994
 31
0.0
  0
LINE
  5
26A
100
AcDbEntity
  8
4
370
    25
100
AcDbLine
 10
-268.014584
 20
20.708455
 30
0.0
 11
-267.661031
 21
21.062008
 31
0.0
  0
LINE
  5
26B
100
AcDbEntity
  8
4
370
    25
100
AcDbLine
 10
-266.05557
 20
22.667469
 30
0.0
 11
-265.590282
 21
23.132757
 31
0.0
  0
LINE
  5
26C
100
AcDbEntity
  8
4
370
    25
100
AcDbLine
 10
-270.045228
 20
18.394969
 30
0.0
 11
-269.604803
 21
18.835393
 31
0.0
  0
LINE
  5
26D
100
AcDbEntity
  8
4
370
    25
100
AcDbLine
 10
-267.873163
 20
20.567034
 30
0.0
 11
-267.51961
 21
20.920587
 31
0.0
  0
LINE
  5
26E
100
AcDbEntity
  8
4
370
    25
100
AcDbLine
 10
-265.787969
 20
22.652227
 30
0.0
 11
-265.347545
 21
23.092652
 31
0.0
  0
LINE
  5
26F
100
AcDbEntity
  8
4
370
    25
100
AcDbLine
 10
-269.992739
 20
18.164615
 30
0.0
 11
-269.571829
 21
18.585525
 31
0.0
  0
LINE
  5
270
100
AcDbEntity
  8
4
370
    25
100
AcDbLine
 10
-267.731742
 20
20.425612
 30
0.0
 11
-267.378188
 21
20.779166
 31
0.0
  0
LINE
  5
271
100
AcDbEntity
  8
4
370
    25
100
AcDbLine
 10
-265.538101
 20
22.619253
 30
0.0
 11
-265.117191
 21
23.040163
 31
0.0
  0
LINE
  5
272
100
AcDbEntity
  8
4
370
    25
100
AcDbLine
 10
-269.92918
 20
17.945331
 30
0.0
 11
-269.523858
 21
18.350653
 31
0.0
  0
LINE
  5
273
100
AcDbEntity
  8
4
370
    25
100
AcDbLine
 10
-267.59032
 20
20.284191
 30
0.0
 11
-267.236767
 21
20.637744
 31
0.0
  0
LINE
  5
274
100
AcDbEntity
  8
4
370
    25
100
AcDbLine
 10
-265.303229
 20
22.571282
 30
0.0
 11
-264.897907
 21
22.976604
 31
0.0
  0
LINE
  5
275
100
AcDbEntity
  8
4
370
    25
100
AcDbLine
 10
-269.855553
 20
17.736116
 30
0.0
 11
-269.46281
 21
18.128859
 31
0.0
  0
LINE
  5
276
100
AcDbEntity
  8
4
370
    25
100
AcDbLine
 10
-267.448899
 20
20.14277
 30
0.0
 11
-267.095346
 21
20.496323
 31
0.0
  0
LINE
  5
277
100
AcDbEntity
  8
4
370
    25
100
AcDbLine
 10
-265.081435
 20
22.510234
 30
0.0
 11
-264.688692
 21
22.902977
 31
0.0
  0
LINE
  5
278
100
AcDbEntity
  8
4
370
    25
100
AcDbLine
 10
-269.772632
 20
17.536194
 30
0.0
 11
-269.390081
 21
17.918745
 31
0.0
  0
LINE
  5
279
100
AcDbEntity
  8
4
370
    25
100
AcDbLine
 10
-267.307478
 20
20.001348
 30
0.0
 11
-266.953924
 21
20.354902
 31
0.0
  0
LINE
  5
27A
100
AcDbEntity
  8
4
370
    25
100
AcDbLine
 10
-264.871321
 20
22.437505
 30
0.0
 11
-264.48877
 21
22.820056
 31
0.0
  0
LINE
  5
27B
100
AcDbEntity
  8
4
370
    25
100
AcDbLine
 10
-269.681023
 20
17.34496
 30
0.0
 11
-269.30671
 21
17.719273
 31
0.0
  0
LINE
  5
27C
100
AcDbEntity
  8
4
370
    25
100
AcDbLine
 10
-267.166056
 20
19.859927
 30
0.0
 11
-266.812503
 21
20.21348
 31
0.0
  0
LINE
  5
27D
100
AcDbEntity
  8
4
370
    25
100
AcDbLine
 10
-264.671849
 20
22.354134
 30
0.0
 11
-264.297536
 21
22.728447
 31
0.0
  0
LINE
  5
27E
100
AcDbEntity
  8
4
370
    25
100
AcDbLine
 10
-269.581202
 20
17.161938
 30
0.0
 11
-269.21348
 21
17.52966
 31
0.0
  0
LINE
  5
27F
100
AcDbEntity
  8
4
370
    25
100
AcDbLine
 10
-267.024635
 20
19.718505
 30
0.0
 11
-266.671081
 21
20.072059
 31
0.0
  0
LINE
  5
280
100
AcDbEntity
  8
4
370
    25
100
AcDbLine
 10
-264.482236
 20
22.260904
 30
0.0
 11
-264.114514
 21
22.628626
 31
0.0
  0
LINE
  5
281
100
AcDbEntity
  8
4
370
    25
100
AcDbLine
 10
-269.473539
 20
16.986759
 30
0.0
 11
-269.110985
 21
17.349312
 31
0.0
  0
LINE
  5
282
100
AcDbEntity
  8
4
370
    25
100
AcDbLine
 10
-266.883213
 20
19.577084
 30
0.0
 11
-266.52966
 21
19.930637
 31
0.0
  0
LINE
  5
283
100
AcDbEntity
  8
4
370
    25
100
AcDbLine
 10
-264.301888
 20
22.158409
 30
0.0
 11
-263.939335
 21
22.520963
 31
0.0
  0
LINE
  5
284
100
AcDbEntity
  8
4
370
    25
100
AcDbLine
 10
-269.358318
 20
16.819137
 30
0.0
 11
-268.999669
 21
17.177786
 31
0.0
  0
LINE
  5
285
100
AcDbEntity
  8
4
370
    25
100
AcDbLine
 10
-266.741792
 20
19.435663
 30
0.0
 11
-266.388239
 21
19.789216
 31
0.0
  0
LINE
  5
286
100
AcDbEntity
  8
4
370
    25
100
AcDbLine
 10
-264.130362
 20
22.047093
 30
0.0
 11
-263.771713
 21
22.405742
 31
0.0
  0
LINE
  5
287
100
AcDbEntity
  8
4
370
    25
100
AcDbLine
 10
-269.235751
 20
16.658861
 30
0.0
 11
-268.879856
 21
17.014756
 31
0.0
  0
LINE
  5
288
100
AcDbEntity
  8
4
370
    25
100
AcDbLine
 10
-266.600371
 20
19.294241
 30
0.0
 11
-266.246817
 21
19.647795
 31
0.0
  0
LINE
  5
289
100
AcDbEntity
  8
4
370
    25
100
AcDbLine
 10
-263.967332
 20
21.92728
 30
0.0
 11
-263.611437
 21
22.283175
 31
0.0
  0
LINE
  5
28A
100
AcDbEntity
  8
4
370
    25
100
AcDbLine
 10
-269.105984
 20
16.505785
 30
0.0
 11
-268.75177
 21
16.859999
 31
0.0
  0
LINE
  5
28B
100
AcDbEntity
  8
4
370
    25
100
AcDbLine
 10
-266.458949
 20
19.15282
 30
0.0
 11
-266.105396
 21
19.506373
 31
0.0
  0
LINE
  5
28C
100
AcDbEntity
  8
4
370
    25
100
AcDbLine
 10
-263.812575
 20
21.799194
 30
0.0
 11
-263.458361
 21
22.153408
 31
0.0
  0
LINE
  5
28D
100
AcDbEntity
  8
4
370
    25
100
AcDbLine
 10
-268.969107
 20
16.35982
 30
0.0
 11
-268.615543
 21
16.713383
 31
0.0
  0
LINE
  5
28E
100
AcDbEntity
  8
4
370
    25
100
AcDbLine
 10
-266.317528
 20
19.011399
 30
0.0
 11
-265.963975
 21
19.364952
 31
0.0
  0
LINE
  5
28F
100
AcDbEntity
  8
4
370
    25
100
AcDbLine
 10
-263.665959
 20
21.662967
 30
0.0
 11
-263.312396
 21
22.016531
 31
0.0
  0
LINE
  5
290
100
AcDbEntity
  8
4
370
    25
100
AcDbLine
 10
-268.825154
 20
16.22093
 30
0.0
 11
-268.471228
 21
16.574856
 31
0.0
  0
LINE
  5
291
100
AcDbEntity
  8
4
370
    25
100
AcDbLine
 10
-266.176107
 20
18.869977
 30
0.0
 11
-265.822553
 21
19.223531
 31
0.0
  0
LINE
  5
292
100
AcDbEntity
  8
4
370
    25
100
AcDbLine
 10
-263.527432
 20
21.518652
 30
0.0
 11
-263.173506
 21
21.872578
 31
0.0
  0
LINE
  5
293
100
AcDbEntity
  8
4
370
    25
100
AcDbLine
 10
-268.674106
 20
16.089135
 30
0.0
 11
-268.318796
 21
16.444445
 31
0.0
  0
LINE
  5
294
100
AcDbEntity
  8
4
370
    25
100
AcDbLine
 10
-266.034685
 20
18.728556
 30
0.0
 11
-265.681132
 21
19.082109
 31
0.0
  0
LINE
  5
295
100
AcDbEntity
  8
4
370
    25
100
AcDbLine
 10
-263.397021
 20
21.36622
 30
0.0
 11
-263.041711
 21
21.72153
 31
0.0
  0
LINE
  5
296
100
AcDbEntity
  8
4
370
    25
100
AcDbLine
 10
-268.515889
 20
15.964509
 30
0.0
 11
-268.158137
 21
16.322262
 31
0.0
  0
LINE
  5
297
100
AcDbEntity
  8
4
370
    25
100
AcDbLine
 10
-265.893264
 20
18.587135
 30
0.0
 11
-265.539711
 21
18.940688
 31
0.0
  0
LINE
  5
298
100
AcDbEntity
  8
4
370
    25
100
AcDbLine
 10
-263.274838
 20
21.205561
 30
0.0
 11
-262.917085
 21
21.563313
 31
0.0
  0
LINE
  5
299
100
AcDbEntity
  8
4
370
    25
100
AcDbLine
 10
-268.350375
 20
15.847181
 30
0.0
 11
-267.989054
 21
16.208502
 31
0.0
  0
LINE
  5
29A
100
AcDbEntity
  8
4
370
    25
100
AcDbLine
 10
-265.751843
 20
18.445713
 30
0.0
 11
-265.398289
 21
18.799267
 31
0.0
  0
LINE
  5
29B
100
AcDbEntity
  8
4
370
    25
100
AcDbLine
 10
-263.161078
 20
21.036478
 30
0.0
 11
-262.799757
 21
21.397798
 31
0.0
  0
LINE
  5
29C
100
AcDbEntity
  8
4
370
    25
100
AcDbLine
 10
-268.177369
 20
15.737344
 30
0.0
 11
-267.811253
 21
16.10346
 31
0.0
  0
LINE
  5
29D
100
AcDbEntity
  8
4
370
    25
100
AcDbLine
 10
-265.610421
 20
18.304292
 30
0.0
 11
-265.256868
 21
18.657845
 31
0.0
  0
LINE
  5
29E
100
AcDbEntity
  8
4
370
    25
100
AcDbLine
 10
-263.056036
 20
20.858677
 30
0.0
 11
-262.68992
 21
21.224793
 31
0.0
  0
LINE
  5
29F
100
AcDbEntity
  8
4
370
    25
100
AcDbLine
 10
-267.99661
 20
15.63526
 30
0.0
 11
-267.624327
 21
16.007543
 31
0.0
  0
LINE
  5
2A0
100
AcDbEntity
  8
4
370
    25
100
AcDbLine
 10
-265.469
 20
18.162871
 30
0.0
 11
-265.115447
 21
18.516424
 31
0.0
  0
LINE
  5
2A1
100
AcDbEntity
  8
4
370
    25
100
AcDbLine
 10
-262.960119
 20
20.671751
 30
0.0
 11
-262.587836
 21
21.044034
 31
0.0
  0
LINE
  5
2A2
100
AcDbEntity
  8
4
370
    25
100
AcDbLine
 10
-267.807754
 20
15.541274
 30
0.0
 11
-267.427728
 21
15.921299
 31
0.0
  0
LINE
  5
2A3
100
AcDbEntity
  8
4
370
    25
100
AcDbLine
 10
-265.327579
 20
18.021449
 30
0.0
 11
-264.974025
 21
18.375003
 31
0.0
  0
LINE
  5
2A4
100
AcDbEntity
  8
4
370
    25
100
AcDbLine
 10
-262.873875
 20
20.475152
 30
0.0
 11
-262.49385
 21
20.855178
 31
0.0
  0
LINE
  5
2A5
100
AcDbEntity
  8
4
370
    25
100
AcDbLine
 10
-267.610357
 20
15.455828
 30
0.0
 11
-267.220733
 21
15.845452
 31
0.0
  0
LINE
  5
2A6
100
AcDbEntity
  8
4
370
    25
100
AcDbLine
 10
-265.186157
 20
17.880028
 30
0.0
 11
-264.832604
 21
18.233581
 31
0.0
  0
LINE
  5
2A7
100
AcDbEntity
  8
4
370
    25
100
AcDbLine
 10
-262.798028
 20
20.268157
 30
0.0
 11
-262.408404
 21
20.657781
 31
0.0
  0
LINE
  5
2A8
100
AcDbEntity
  8
4
370
    25
100
AcDbLine
 10
-267.403854
 20
15.379488
 30
0.0
 11
-267.002383
 21
15.780959
 31
0.0
  0
LINE
  5
2A9
100
AcDbEntity
  8
4
370
    25
100
AcDbLine
 10
-265.044736
 20
17.738606
 30
0.0
 11
-264.691182
 21
18.09216
 31
0.0
  0
LINE
  5
2AA
100
AcDbEntity
  8
4
370
    25
100
AcDbLine
 10
-262.733535
 20
20.049807
 30
0.0
 11
-262.332064
 21
20.451278
 31
0.0
  0
LINE
  5
2AB
100
AcDbEntity
  8
4
370
    25
100
AcDbLine
 10
-267.187523
 20
15.312976
 30
0.0
 11
-266.771397
 21
15.729102
 31
0.0
  0
LINE
  5
2AC
100
AcDbEntity
  8
4
370
    25
100
AcDbLine
 10
-264.903314
 20
17.597185
 30
0.0
 11
-264.549761
 21
17.950738
 31
0.0
  0
LINE
  5
2AD
100
AcDbEntity
  8
4
370
    25
100
AcDbLine
 10
-262.681678
 20
19.818821
 30
0.0
 11
-262.265552
 21
20.234947
 31
0.0
  0
LINE
  5
2AE
100
AcDbEntity
  8
4
370
    25
100
AcDbLine
 10
-266.960434
 20
15.257222
 30
0.0
 11
-266.526027
 21
15.691629
 31
0.0
  0
LINE
  5
2AF
100
AcDbEntity
  8
4
370
    25
100
AcDbLine
 10
-264.761893
 20
17.455764
 30
0.0
 11
-264.40834
 21
17.809317
 31
0.0
  0
LINE
  5
2B0
100
AcDbEntity
  8
4
370
    25
100
AcDbLine
 10
-262.644205
 20
19.573451
 30
0.0
 11
-262.209798
 21
20.007858
 31
0.0
  0
LINE
  5
2B1
100
AcDbEntity
  8
4
370
    25
100
AcDbLine
 10
-266.721374
 20
15.21344
 30
0.0
 11
-266.263811
 21
15.671003
 31
0.0
  0
LINE
  5
2B2
100
AcDbEntity
  8
4
370
    25
100
AcDbLine
 10
-264.620472
 20
17.314342
 30
0.0
 11
-264.266918
 21
17.667896
 31
0.0
  0
LINE
  5
2B3
100
AcDbEntity
  8
4
370
    25
100
AcDbLine
 10
-262.623579
 20
19.311235
 30
0.0
 11
-262.166016
 21
19.768798
 31
0.0
  0
LINE
  5
2B4
100
AcDbEntity
  8
4
370
    25
100
AcDbLine
 10
-266.468724
 20
15.183248
 30
0.0
 11
-265.981115
 21
15.670857
 31
0.0
  0
LINE
  5
2B5
100
AcDbEntity
  8
4
370
    25
100
AcDbLine
 10
-264.47905
 20
17.172921
 30
0.0
 11
-264.125497
 21
17.526474
 31
0.0
  0
LINE
  5
2B6
100
AcDbEntity
  8
4
370
    25
100
AcDbLine
 10
-262.623433
 20
19.028539
 30
0.0
 11
-262.135824
 21
19.516148
 31
0.0
  0
LINE
  5
2B7
100
AcDbEntity
  8
4
370
    25
100
AcDbLine
 10
-266.200262
 20
15.168867
 30
0.0
 11
-265.672207
 21
15.696922
 31
0.0
  0
LINE
  5
2B8
100
AcDbEntity
  8
4
370
    25
100
AcDbLine
 10
-264.337629
 20
17.0315
 30
0.0
 11
-263.984076
 21
17.385053
 31
0.0
  0
LINE
  5
2B9
100
AcDbEntity
  8
4
370
    25
100
AcDbLine
 10
-262.649498
 20
18.719631
 30
0.0
 11
-262.121443
 21
19.247686
 31
0.0
  0
LINE
  5
2BA
100
AcDbEntity
  8
4
370
    25
100
AcDbLine
 10
-265.912808
 20
15.173478
 30
0.0
 11
-265.327054
 21
15.759232
 31
0.0
  0
LINE
  5
2BB
100
AcDbEntity
  8
4
370
    25
100
AcDbLine
 10
-264.196208
 20
16.890078
 30
0.0
 11
-263.842654
 21
17.243632
 31
0.0
  0
LINE
  5
2BC
100
AcDbEntity
  8
4
370
    25
100
AcDbLine
 10
-262.711808
 20
18.374478
 30
0.0
 11
-262.126054
 21
18.960232
 31
0.0
  0
LINE
  5
2BD
100
AcDbEntity
  8
4
370
    25
100
AcDbLine
 10
-265.601542
 20
15.201902
 30
0.0
 11
-264.924701
 21
15.878742
 31
0.0
  0
LINE
  5
2BE
100
AcDbEntity
  8
4
370
    25
100
AcDbLine
 10
-264.054786
 20
16.748657
 30
0.0
 11
-263.701233
 21
17.10221
 31
0.0
  0
LINE
  5
2BF
100
AcDbEntity
  8
4
370
    25
100
AcDbLine
 10
-262.831318
 20
17.972125
 30
0.0
 11
-262.154478
 21
18.648966
 31
0.0
  0
LINE
  5
2C0
100
AcDbEntity
  8
4
370
    25
100
AcDbLine
 10
-265.258511
 20
15.26209
 30
0.0
 11
-264.400853
 21
16.119747
 31
0.0
  0
LINE
  5
2C1
100
AcDbEntity
  8
4
370
    25
100
AcDbLine
 10
-263.913365
 20
16.607236
 30
0.0
 11
-263.559812
 21
16.960789
 31
0.0
  0
LINE
  5
2C2
100
AcDbEntity
  8
4
370
    25
100
AcDbLine
 10
-263.072323
 20
17.448277
 30
0.0
 11
-262.214666
 21
18.305935
 31
0.0
  0
LINE
  5
2C3
100
AcDbEntity
  8
4
370
    25
100
AcDbLine
 10
-264.868719
 20
15.369039
 30
0.0
 11
-262.321615
 21
17.916143
 31
0.0
  0
LINE
  5
2C4
100
AcDbEntity
  8
4
370
    25
100
AcDbLine
 10
-264.395881
 20
15.559034
 30
0.0
 11
-262.51161
 21
17.443305
 31
0.0
  0
LINE
  5
2C5
100
AcDbEntity
  8
4
370
    25
100
AcDbLine
 10
-263.648931
 20
16.023141
 30
0.0
 11
-262.975717
 21
16.696355
 31
0.0
  0
LINE
  5
2C6
100
AcDbEntity
  8
4
370
    25
100
AcDbLine
 10
-270.109858
 20
19.461709
 30
0.0
 11
-269.502763
 21
20.068805
 31
0.0
  0
LINE
  5
2C7
100
AcDbEntity
  8
4
370
    25
100
AcDbLine
 10
-268.438848
 20
21.132719
 30
0.0
 11
-268.085295
 21
21.486272
 31
0.0
  0
LINE
  5
2C8
100
AcDbEntity
  8
4
370
    25
100
AcDbLine
 10
-267.021381
 20
22.550187
 30
0.0
 11
-266.414285
 21
23.157282
 31
0.0
  0
LINE
  5
2C9
100
AcDbEntity
  8
4
370
    25
100
AcDbLine
 10
-270.073412
 20
19.780998
 30
0.0
 11
-269.359333
 21
20.495078
 31
0.0
  0
LINE
  5
2CA
100
AcDbEntity
  8
4
370
    25
100
AcDbLine
 10
-268.58027
 20
21.27414
 30
0.0
 11
-268.226716
 21
21.627694
 31
0.0
  0
LINE
  5
2CB
100
AcDbEntity
  8
4
370
    25
100
AcDbLine
 10
-267.447654
 20
22.406757
 30
0.0
 11
-266.733574
 21
23.120836
 31
0.0
  0
LINE
  5
2CC
100
AcDbEntity
  8
4
370
    25
100
AcDbLine
 10
-270.001947
 20
20.135306
 30
0.0
 11
-269.042854
 21
21.094399
 31
0.0
  0
LINE
  5
2CD
100
AcDbEntity
  8
4
370
    25
100
AcDbLine
 10
-268.721691
 20
21.415562
 30
0.0
 11
-268.368138
 21
21.769115
 31
0.0
  0
LINE
  5
2CE
100
AcDbEntity
  8
4
370
    25
100
AcDbLine
 10
-268.046975
 20
22.090278
 30
0.0
 11
-267.087882
 21
23.049371
 31
0.0
  0
LINE
  5
2CF
100
AcDbEntity
  8
4
370
    25
100
AcDbLine
 10
-269.876822
 20
20.543273
 30
0.0
 11
-267.495849
 21
22.924246
 31
0.0
  0
LINE
  5
2D0
100
AcDbEntity
  8
4
370
    25
100
AcDbLine
 10
-269.647253
 20
21.055686
 30
0.0
 11
-268.008262
 21
22.694677
 31
0.0
  0
TEXT
  5
2D1
100
AcDbEntity
  8
4
370
    50
100
AcDbText
 10
-232.833572
 20
40.804543
 30
0.0
 40
7.0
  1
（やけど注意表示）
 72
     5
 11
-171.233572
 21
40.804543
 31
0.0
100
AcDbText
  0
LWPOLYLINE
  5
2D2
100
AcDbEntity
  8
4
370
    25
100
AcDbPolyline
 90
        2
 70
     0
 10
-248.392471
 20
26.049477
 10
-225.253586
 20
38.013058
  0
LINE
  5
2D6
100
AcDbEntity
  8
4
370
    50
100
AcDbLine
 10
-131.292758
 20
26.348343
 30
0.0
 11
-129.267859
 21
26.348343
 31
0.0
  0
LINE
  5
2D7
100
AcDbEntity
  8
4
370
    50
100
AcDbLine
 10
-131.292758
 20
26.88828
 30
0.0
 11
-128.892878
 21
26.550999
 31
0.0
  0
LINE
  5
2D8
100
AcDbEntity
  8
4
370
    50
100
AcDbLine
 10
-129.215672
 20
27.353697
 30
0.0
 11
-131.292758
 21
27.645613
 31
0.0
  0
LINE
  5
2D9
100
AcDbEntity
  8
4
370
    50
100
AcDbLine
 10
-131.292758
 20
27.848268
 30
0.0
 11
-128.892878
 21
27.848268
 31
0.0
  0
ARC
  5
2DA
100
AcDbEntity
  8
4
370
    50
100
AcDbCircle
 10
-129.267859
 20
28.22325
 30
0.0
 40
0.374981
100
AcDbArc
 50
0.0
 51
90.0
  0
ARC
  5
2DB
100
AcDbEntity
  8
4
370
    50
100
AcDbCircle
 10
-129.267859
 20
26.982366
 30
0.0
 40
0.374981
100
AcDbArc
 50
360.0
 51
82.0
  0
ARC
  5
2DC
100
AcDbEntity
  8
4
370
    50
100
AcDbCircle
 10
-129.267859
 20
25.973362
 30
0.0
 40
0.374981
100
AcDbArc
 50
0.0
 51
90.0
  0
LINE
  5
2DD
100
AcDbEntity
  8
4
370
    50
100
AcDbLine
 10
-128.142915
 20
28.598231
 30
0.0
 11
-128.142915
 21
27.848268
 31
0.0
  0
LINE
  5
2DE
100
AcDbEntity
  8
4
370
    50
100
AcDbLine
 10
-128.142915
 20
27.848268
 30
0.0
 11
-127.092968
 21
27.848268
 31
0.0
  0
LINE
  5
2DF
100
AcDbEntity
  8
4
370
    50
100
AcDbLine
 10
-126.343005
 20
28.22325
 30
0.0
 11
-126.343005
 21
27.248298
 31
0.0
  0
LINE
  5
2E0
100
AcDbEntity
  8
4
370
    50
100
AcDbLine
 10
-127.092968
 20
27.848268
 30
0.0
 11
-127.092968
 21
27.248298
 31
0.0
  0
LINE
  5
2E1
100
AcDbEntity
  8
4
370
    50
100
AcDbLine
 10
-128.517897
 20
26.348343
 30
0.0
 11
-127.992923
 21
26.348343
 31
0.0
  0
ARC
  5
2E2
100
AcDbEntity
  8
4
370
    50
100
AcDbCircle
 10
-127.992923
 20
27.248298
 30
0.0
 40
0.899955
100
AcDbArc
 50
270.0
 51
360.0
  0
ARC
  5
2E3
100
AcDbEntity
  8
4
370
    50
100
AcDbCircle
 10
-125.213463
 20
28.146876
 30
0.0
 40
1.79991
100
AcDbArc
 50
228.524141
 51
272.241513
  0
ARC
  5
2E4
100
AcDbEntity
  8
4
370
    50
100
AcDbCircle
 10
-125.213463
 20
28.146876
 30
0.0
 40
2.549873
100
AcDbArc
 50
232.173442
 51
271.582042
  0
LINE
  5
2E5
100
AcDbEntity
  8
4
370
    50
100
AcDbLine
 10
-125.46087
 20
27.398291
 30
0.0
 11
-124.594888
 21
27.398291
 31
0.0
  0
LINE
  5
2E6
100
AcDbEntity
  8
4
370
    50
100
AcDbLine
 10
-124.768084
 20
28.598231
 30
0.0
 11
-125.46087
 21
27.398291
 31
0.0
  0
LINE
  5
2E7
100
AcDbEntity
  8
4
370
    50
100
AcDbLine
 10
-124.335093
 20
27.848268
 30
0.0
 11
-124.594888
 21
27.398291
 31
0.0
  0
LINE
  5
2E8
100
AcDbEntity
  8
4
370
    50
100
AcDbLine
 10
-124.335093
 20
27.848268
 30
0.0
 11
-123.718137
 21
27.848268
 31
0.0
  0
ARC
  5
2E9
100
AcDbEntity
  8
4
370
    50
100
AcDbCircle
 10
-123.343155
 20
28.22325
 30
0.0
 40
0.374981
100
AcDbArc
 50
0.0
 51
90.0
  0
LINE
  5
2EA
100
AcDbEntity
  8
4
370
    50
100
AcDbLine
 10
-124.768084
 20
26.348343
 30
0.0
 11
-124.618092
 21
26.348343
 31
0.0
  0
ARC
  5
2EB
100
AcDbEntity
  8
4
370
    50
100
AcDbCircle
 10
-124.618092
 20
27.248298
 30
0.0
 40
1.649918
100
AcDbArc
 50
270.0
 51
360.0
  0
LINE
  5
2EC
100
AcDbEntity
  8
4
370
    50
100
AcDbLine
 10
-124.168114
 20
26.798321
 30
0.0
 11
-123.838708
 21
26.798321
 31
0.0
  0
LINE
  5
2ED
100
AcDbEntity
  8
4
370
    50
100
AcDbLine
 10
-124.168114
 20
27.548283
 30
0.0
 11
-123.718137
 21
27.548283
 31
0.0
  0
LINE
  5
2EE
100
AcDbEntity
  8
4
370
    50
100
AcDbLine
 10
-124.168114
 20
26.798321
 30
0.0
 11
-124.168114
 21
27.548283
 31
0.0
  0
LINE
  5
2EF
100
AcDbEntity
  8
4
370
    50
100
AcDbLine
 10
-123.718137
 20
27.848268
 30
0.0
 11
-123.718137
 21
27.548283
 31
0.0
  0
ARC
  5
2F0
100
AcDbEntity
  8
4
370
    50
100
AcDbCircle
 10
-124.618092
 20
27.248298
 30
0.0
 40
0.899955
100
AcDbArc
 50
270.0
 51
330.0
  0
LINE
  5
2F1
100
AcDbEntity
  8
4
370
    50
100
AcDbLine
 10
-122.593193
 20
27.848268
 30
0.0
 11
-120.793283
 21
27.848268
 31
0.0
  0
LINE
  5
2F2
100
AcDbEntity
  8
4
370
    50
100
AcDbLine
 10
-122.593193
 20
26.348343
 30
0.0
 11
-121.168264
 21
26.348343
 31
0.0
  0
ARC
  5
2F3
100
AcDbEntity
  8
4
370
    50
100
AcDbCircle
 10
-121.168264
 20
28.22325
 30
0.0
 40
0.374981
100
AcDbArc
 50
0.0
 51
90.0
  0
ARC
  5
2F4
100
AcDbEntity
  8
4
370
    50
100
AcDbCircle
 10
-121.168264
 20
25.973362
 30
0.0
 40
0.374981
100
AcDbArc
 50
0.0
 51
90.0
  0
ARC
  5
2F5
100
AcDbEntity
  8
4
370
    50
100
AcDbCircle
 10
-127.992923
 20
27.248298
 30
0.0
 40
1.649918
100
AcDbArc
 50
270.0
 51
317.461176
  0
ARC
  5
2F6
100
AcDbEntity
  8
4
370
    50
100
AcDbCircle
 10
-127.992923
 20
27.248298
 30
0.0
 40
1.649918
100
AcDbArc
 50
344.17338
 51
360.0
  0
CIRCLE
  5
2F7
100
AcDbEntity
  8
4
370
    50
100
AcDbCircle
 10
-125.668039
 20
28.373242
 30
0.0
 40
0.224989
  0
CIRCLE
  5
2F8
100
AcDbEntity
  8
4
370
    50
100
AcDbCircle
 10
-126.118017
 20
28.373242
 30
0.0
 40
0.224989
  0
LINE
  5
2F9
100
AcDbEntity
  8
4
370
    50
100
AcDbLine
 10
-128.517897
 20
26.348343
 30
0.0
 11
-128.517897
 21
25.598381
 31
0.0
  0
LINE
  5
2FA
100
AcDbEntity
  8
4
370
    50
100
AcDbLine
 10
-125.143065
 20
26.348343
 30
0.0
 11
-125.143065
 21
25.598381
 31
0.0
  0
LINE
  5
2FB
100
AcDbEntity
  8
4
370
    50
100
AcDbLine
 10
-124.768084
 20
26.360931
 30
0.0
 11
-124.768084
 21
25.598381
 31
0.0
  0
LINE
  5
2FC
100
AcDbEntity
  8
4
370
    50
100
AcDbLine
 10
-122.968174
 20
28.22325
 30
0.0
 11
-122.968174
 21
27.248298
 31
0.0
  0
LINE
  5
2FD
100
AcDbEntity
  8
4
370
    50
100
AcDbLine
 10
-131.292758
 20
28.598231
 30
0.0
 11
-129.267859
 21
28.598231
 31
0.0
  0
LINE
  5
2FE
100
AcDbEntity
  8
4
370
    50
100
AcDbLine
 10
-128.142915
 20
28.598231
 30
0.0
 11
-126.717987
 21
28.598231
 31
0.0
  0
LINE
  5
2FF
100
AcDbEntity
  8
4
370
    50
100
AcDbLine
 10
-124.768084
 20
28.598231
 30
0.0
 11
-123.343155
 21
28.598231
 31
0.0
  0
LINE
  5
300
100
AcDbEntity
  8
4
370
    50
100
AcDbLine
 10
-122.593193
 20
28.598231
 30
0.0
 11
-121.168264
 21
28.598231
 31
0.0
  0
LINE
  5
301
100
AcDbEntity
  8
4
370
    50
100
AcDbLine
 10
-122.593193
 20
25.598381
 30
0.0
 11
-120.793283
 21
25.598381
 31
0.0
  0
LINE
  5
302
100
AcDbEntity
  8
4
370
    50
100
AcDbLine
 10
-124.768084
 20
25.598381
 30
0.0
 11
-124.618092
 21
25.598381
 31
0.0
  0
LINE
  5
303
100
AcDbEntity
  8
4
370
    50
100
AcDbLine
 10
-131.292758
 20
25.598381
 30
0.0
 11
-128.892878
 21
25.598381
 31
0.0
  0
LINE
  5
304
100
AcDbEntity
  8
4
370
    50
100
AcDbLine
 10
-128.892878
 20
27.848268
 30
0.0
 11
-128.892878
 21
28.22325
 31
0.0
  0
LINE
  5
305
100
AcDbEntity
  8
4
370
    50
100
AcDbLine
 10
-128.892878
 20
25.598381
 30
0.0
 11
-128.892878
 21
25.973362
 31
0.0
  0
LINE
  5
306
100
AcDbEntity
  8
4
370
    50
100
AcDbLine
 10
-128.892878
 20
26.550999
 30
0.0
 11
-128.892878
 21
26.982366
 31
0.0
  0
LINE
  5
307
100
AcDbEntity
  8
4
370
    50
100
AcDbLine
 10
-120.793283
 20
27.848268
 30
0.0
 11
-120.793283
 21
28.22325
 31
0.0
  0
LINE
  5
308
100
AcDbEntity
  8
4
370
    50
100
AcDbLine
 10
-122.593193
 20
25.598381
 30
0.0
 11
-122.593193
 21
26.348343
 31
0.0
  0
LINE
  5
309
100
AcDbEntity
  8
4
370
    50
100
AcDbLine
 10
-122.593193
 20
27.848268
 30
0.0
 11
-122.593193
 21
28.598231
 31
0.0
  0
LINE
  5
30A
100
AcDbEntity
  8
4
370
    50
100
AcDbLine
 10
-128.517897
 20
25.598381
 30
0.0
 11
-127.992923
 21
25.598381
 31
0.0
  0
LINE
  5
30B
100
AcDbEntity
  8
4
370
    50
100
AcDbLine
 10
-125.297258
 20
25.598381
 30
0.0
 11
-125.143065
 21
25.598381
 31
0.0
  0
ARC
  5
30C
100
AcDbEntity
  8
4
370
    50
100
AcDbCircle
 10
-126.717987
 20
28.22325
 30
0.0
 40
0.374981
100
AcDbArc
 50
0.0
 51
90.0
  0
LINE
  5
30D
100
AcDbEntity
  8
4
370
    50
100
AcDbLine
 10
-128.84302
 20
30.727397
 30
0.0
 11
-128.84302
 21
32.302397
 31
0.0
  0
LINE
  5
30E
100
AcDbEntity
  8
4
370
    50
100
AcDbLine
 10
-128.49302
 20
32.302397
 30
0.0
 11
-128.49302
 21
30.727397
 31
0.0
  0
LINE
  5
30F
100
AcDbEntity
  8
4
370
    50
100
AcDbLine
 10
-128.49302
 20
32.302397
 30
0.0
 11
-128.84302
 21
32.302397
 31
0.0
  0
LINE
  5
310
100
AcDbEntity
  8
4
370
    50
100
AcDbLine
 10
-128.49302
 20
30.727397
 30
0.0
 11
-128.84302
 21
30.727397
 31
0.0
  0
LINE
  5
311
100
AcDbEntity
  8
4
370
    50
100
AcDbLine
 10
-129.732216
 20
30.450701
 30
0.0
 11
-129.905457
 21
30.27746
 31
0.0
  0
LINE
  5
312
100
AcDbEntity
  8
4
370
    50
100
AcDbLine
 10
-127.79302
 20
32.302397
 30
0.0
 11
-127.58302
 21
32.302397
 31
0.0
  0
LINE
  5
313
100
AcDbEntity
  8
4
370
    50
100
AcDbLine
 10
-128.23052
 20
30.727397
 30
0.0
 11
-127.95052
 21
30.727397
 31
0.0
  0
LINE
  5
314
100
AcDbEntity
  8
4
370
    50
100
AcDbLine
 10
-128.23052
 20
30.727397
 30
0.0
 11
-128.23052
 21
31.007397
 31
0.0
  0
LINE
  5
315
100
AcDbEntity
  8
4
370
    50
100
AcDbLine
 10
-127.58302
 20
32.022397
 30
0.0
 11
-127.58302
 21
32.302397
 31
0.0
  0
LINE
  5
316
100
AcDbEntity
  8
4
370
    50
100
AcDbLine
 10
-127.74052
 20
32.022397
 30
0.0
 11
-127.58302
 21
32.022397
 31
0.0
  0
LINE
  5
317
100
AcDbEntity
  8
4
370
    50
100
AcDbLine
 10
-128.090935
 20
31.544501
 30
0.0
 11
-127.871938
 21
31.340871
 31
0.0
  0
ARC
  5
318
100
AcDbEntity
  8
4
370
    50
100
AcDbCircle
 10
-127.74052
 20
31.847397
 30
0.0
 40
0.175
100
AcDbArc
 50
90.0
 51
227.082289
  0
LINE
  5
319
100
AcDbEntity
  8
4
370
    50
100
AcDbLine
 10
-127.859686
 20
31.719239
 30
0.0
 11
-127.640689
 21
31.515608
 31
0.0
  0
ARC
  5
31A
100
AcDbEntity
  8
4
370
    50
100
AcDbCircle
 10
-127.95052
 20
31.182397
 30
0.0
 40
0.455
100
AcDbArc
 50
270.0
 51
47.082289
  0
ARC
  5
31B
100
AcDbEntity
  8
4
370
    50
100
AcDbCircle
 10
-128.00302
 20
31.199897
 30
0.0
 40
0.1925
100
AcDbArc
 50
270.0
 51
47.082289
  0
ARC
  5
31C
100
AcDbEntity
  8
4
370
    50
100
AcDbCircle
 10
-127.79302
 20
31.864897
 30
0.0
 40
0.4375
100
AcDbArc
 50
90.0
 51
227.082289
  0
LINE
  5
31D
100
AcDbEntity
  8
4
370
    50
100
AcDbLine
 10
-128.00302
 20
31.007397
 30
0.0
 11
-128.23052
 21
31.007397
 31
0.0
  0
LINE
  5
31E
100
AcDbEntity
  8
4
370
    50
100
AcDbLine
 10
-129.47302
 20
31.350397
 30
0.0
 11
-129.47302
 21
32.302397
 31
0.0
  0
LINE
  5
31F
100
AcDbEntity
  8
4
370
    50
100
AcDbLine
 10
-129.15802
 20
31.350397
 30
0.0
 11
-129.15802
 21
32.302397
 31
0.0
  0
LINE
  5
320
100
AcDbEntity
  8
4
370
    50
100
AcDbLine
 10
-129.15802
 20
32.302397
 30
0.0
 11
-129.47302
 21
32.302397
 31
0.0
  0
ARC
  5
321
100
AcDbEntity
  8
4
370
    50
100
AcDbCircle
 10
-129.78102
 20
31.350397
 30
0.0
 40
0.623
100
AcDbArc
 50
190.22669
 51
360.0
  0
ARC
  5
322
100
AcDbEntity
  8
4
370
    50
100
AcDbCircle
 10
-129.81602
 20
31.350397
 30
0.0
 40
0.343
100
AcDbArc
 50
190.573586
 51
360.0
  0
ARC
  5
323
100
AcDbEntity
  8
4
370
    50
100
AcDbCircle
 10
-128.66802
 20
31.514897
 30
0.0
 40
1.505
100
AcDbArc
 50
225.0
 51
188.720397
  0
ARC
  5
324
100
AcDbEntity
  8
4
370
    50
100
AcDbCircle
 10
-128.66802
 20
31.514897
 30
0.0
 40
1.75
100
AcDbArc
 50
225.0
 51
189.066832
  0
LINE
  5
325
100
AcDbEntity
  8
4
370
    50
100
AcDbLine
 10
-130.155623
 20
31.28672
 30
0.0
 11
-130.153196
 21
31.287457
 31
0.0
  0
LINE
  5
326
100
AcDbEntity
  8
4
370
    50
100
AcDbLine
 10
-130.394123
 20
31.239787
 30
0.0
 11
-130.396155
 21
31.23912
 31
0.0
  0
HATCH
  5
327
100
AcDbEntity
  8
4
370
    25
100
AcDbHatch
 10
0.0
 20
0.0
 30
0.0
210
0.0
220
0.0
230
1.0
  2
_U
 70
     0
 71
     1
 91
        1
 92
        1
 93
        4
 72
     1
 10
-128.49302
 20
32.302396999999999
 11
-128.49302
 21
30.727397
 72
     1
 10
-128.49302
 20
30.727397
 11
-128.84302
 21
30.727397
 72
     1
 10
-128.84302
 20
30.727397
 11
-128.84302
 21
32.302396999999999
 72
     1
 10
-128.84302
 20
32.302396999999999
 11
-128.49302
 21
32.302396999999999
 97
        4
330
0
330
0
330
0
330
0
 75
     0
 76
     0
 52
45.0
 41
1.0
 77
     0
 78
     1
 53
45.0
 43
0.0
 44
0.0
 45
-0.282843
 46
0.282843
 79
     0
 98
        1
 10
0.0
 20
0.0
  0
LINE
  5
328
100
AcDbEntity
  8
4
370
    25
100
AcDbLine
 10
-127.784066
 20
30.758937
 30
0.0
 11
-127.527061
 21
31.015943
 31
0.0
  0
LINE
  5
329
100
AcDbEntity
  8
4
370
    25
100
AcDbLine
 10
-128.23052
 20
30.878169
 30
0.0
 11
-128.101292
 21
31.007397
 31
0.0
  0
LINE
  5
32A
100
AcDbEntity
  8
4
370
    25
100
AcDbLine
 10
-127.828202
 20
31.280487
 30
0.0
 11
-127.616901
 21
31.491788
 31
0.0
  0
LINE
  5
32B
100
AcDbEntity
  8
4
370
    25
100
AcDbLine
 10
-127.58302
 20
32.091354
 30
0.0
 11
-127.651978
 21
32.022397
 31
0.0
  0
LINE
  5
32C
100
AcDbEntity
  8
4
370
    25
100
AcDbLine
 10
-127.899696
 20
31.774678
 30
0.0
 11
-128.110499
 21
31.563876
 31
0.0
  0
LINE
  5
32D
100
AcDbEntity
  8
4
370
    25
100
AcDbLine
 10
-128.18888
 20
32.05118
 30
0.0
 11
-127.979303
 21
32.260756
 31
0.0
  0
LINE
  5
32E
100
AcDbEntity
  8
4
370
    25
100
AcDbLine
 10
-129.463413
 20
29.956099
 30
0.0
 11
-129.280855
 21
30.138657
 31
0.0
  0
LINE
  5
32F
100
AcDbEntity
  8
4
370
    25
100
AcDbLine
 10
-127.291789
 20
32.127723
 30
0.0
 11
-127.109223
 21
32.310289
 31
0.0
  0
LINE
  5
330
100
AcDbEntity
  8
4
370
    25
100
AcDbLine
 10
-129.047328
 20
29.806498
 30
0.0
 11
-128.837068
 21
30.016759
 31
0.0
  0
LINE
  5
331
100
AcDbEntity
  8
4
370
    25
100
AcDbLine
 10
-127.169891
 20
31.683936
 30
0.0
 11
-126.959622
 21
31.894205
 31
0.0
  0
LINE
  5
332
100
AcDbEntity
  8
4
370
    25
100
AcDbLine
 10
-128.516689
 20
29.771452
 30
0.0
 11
-128.21119
 21
30.076951
 31
0.0
  0
LINE
  5
333
100
AcDbEntity
  8
4
370
    25
100
AcDbLine
 10
-127.230083
 20
31.058058
 30
0.0
 11
-126.924576
 21
31.363565
 31
0.0
  0
LINE
  5
334
100
AcDbEntity
  8
4
370
    25
100
AcDbLine
 10
-127.57114
 20
30.151315
 30
0.0
 11
-127.304439
 21
30.418017
 31
0.0
  0
LINE
  5
335
100
AcDbEntity
  8
4
370
    25
100
AcDbLine
 10
-129.802642
 20
30.182555
 30
0.0
 11
-129.629034
 21
30.356163
 31
0.0
  0
LINE
  5
336
100
AcDbEntity
  8
4
370
    25
100
AcDbLine
 10
-127.509295
 20
32.475902
 30
0.0
 11
-127.335679
 21
32.649518
 31
0.0
  0
LINE
  5
337
100
AcDbEntity
  8
4
370
    25
100
AcDbLine
 10
-129.834666
 20
30.716217
 30
0.0
 11
-129.15802
 21
31.392862
 31
0.0
  0
LINE
  5
338
100
AcDbEntity
  8
4
370
    25
100
AcDbLine
 10
-127.804367
 20
32.746516
 30
0.0
 11
-127.62832
 21
32.922563
 31
0.0
  0
LINE
  5
339
100
AcDbEntity
  8
4
370
    25
100
AcDbLine
 10
-130.220803
 20
30.895765
 30
0.0
 11
-130.03235
 21
31.084219
 31
0.0
  0
LINE
  5
33A
100
AcDbEntity
  8
4
370
    25
100
AcDbLine
 10
-129.47302
 20
31.643548
 30
0.0
 11
-129.15802
 21
31.958548
 31
0.0
  0
LINE
  5
33B
100
AcDbEntity
  8
4
370
    25
100
AcDbLine
 10
-128.17998
 20
32.936588
 30
0.0
 11
-127.988843
 21
33.127726
 31
0.0
  0
LINE
  5
33C
100
AcDbEntity
  8
4
370
    25
100
AcDbLine
 10
-130.402192
 20
31.280061
 30
0.0
 11
-130.170025
 21
31.512229
 31
0.0
  0
LINE
  5
33D
100
AcDbEntity
  8
4
370
    25
100
AcDbLine
 10
-129.47302
 20
32.209233
 30
0.0
 11
-129.379857
 21
32.302397
 31
0.0
  0
LINE
  5
33E
100
AcDbEntity
  8
4
370
    25
100
AcDbLine
 10
-128.665361
 20
33.016893
 30
0.0
 11
-128.433185
 21
33.249069
 31
0.0
  0
LINE
  5
33F
100
AcDbEntity
  8
4
370
    25
100
AcDbLine
 10
-130.382566
 20
31.865373
 30
0.0
 11
-129.945955
 21
32.301984
 31
0.0
  0
LINE
  5
340
100
AcDbEntity
  8
4
370
    25
100
AcDbLine
 10
-129.455117
 20
32.792823
 30
0.0
 11
-129.018497
 21
33.229442
 31
0.0
  0
LINE
  5
341
100
AcDbEntity
  8
4
370
    50
100
AcDbLine
 10
-120.793283
 20
25.973362
 30
0.0
 11
-120.793283
 21
25.598381
 31
0.0
  0
LINE
  5
342
100
AcDbEntity
  8
4
370
    50
100
AcDbLine
 10
-124.81802
 20
32.09823
 30
0.0
 11
-125.51802
 21
32.09823
 31
0.0
  0
LINE
  5
343
100
AcDbEntity
  8
4
370
    50
100
AcDbLine
 10
-125.16802
 20
32.09823
 30
0.0
 11
-125.16802
 21
30.464897
 31
0.0
  0
LINE
  5
344
100
AcDbEntity
  8
4
370
    50
100
AcDbLine
 10
-122.36802
 20
32.09823
 30
0.0
 11
-121.66802
 21
32.09823
 31
0.0
  0
LINE
  5
345
100
AcDbEntity
  8
4
370
    50
100
AcDbLine
 10
-123.76802
 20
32.09823
 30
0.0
 11
-124.46802
 21
32.09823
 31
0.0
  0
LINE
  5
346
100
AcDbEntity
  8
4
370
    50
100
AcDbLine
 10
-124.11802
 20
32.09823
 30
0.0
 11
-123.706591
 21
29.764897
 31
0.0
  0
LINE
  5
347
100
AcDbEntity
  8
4
370
    50
100
AcDbLine
 10
-123.706591
 20
29.764897
 30
0.0
 11
-123.06802
 21
31.519355
 31
0.0
  0
LINE
  5
348
100
AcDbEntity
  8
4
370
    50
100
AcDbLine
 10
-122.42945
 20
29.764897
 30
0.0
 11
-123.06802
 21
31.519355
 31
0.0
  0
LINE
  5
349
100
AcDbEntity
  8
4
370
    50
100
AcDbLine
 10
-122.01802
 20
32.09823
 30
0.0
 11
-122.42945
 21
29.764897
 31
0.0
  0
ARC
  5
34A
100
AcDbEntity
  8
4
370
    50
100
AcDbCircle
 10
-125.86802
 20
30.464897
 30
0.0
 40
0.7
100
AcDbArc
 50
180.0
 51
360.0
  0
LINE
  5
34B
100
AcDbEntity
  8
4
370
    50
100
AcDbLine
 10
-125.34302
 20
22.098498
 30
0.0
 11
-125.34302
 21
24.431831
 31
0.0
  0
LINE
  5
34C
100
AcDbEntity
  8
4
370
    50
100
AcDbLine
 10
-126.74302
 20
22.098498
 30
0.0
 11
-126.74302
 21
24.431831
 31
0.0
  0
LINE
  5
34D
100
AcDbEntity
  8
4
370
    50
100
AcDbLine
 10
-127.09302
 20
22.098498
 30
0.0
 11
-126.39302
 21
22.098498
 31
0.0
  0
LINE
  5
34E
100
AcDbEntity
  8
4
370
    50
100
AcDbLine
 10
-125.69302
 20
22.098498
 30
0.0
 11
-124.99302
 21
22.098498
 31
0.0
  0
LINE
  5
34F
100
AcDbEntity
  8
4
370
    50
100
AcDbLine
 10
-125.34302
 20
24.431831
 30
0.0
 11
-126.04302
 21
23.219395
 31
0.0
  0
LINE
  5
350
100
AcDbEntity
  8
4
370
    50
100
AcDbLine
 10
-126.74302
 20
24.431831
 30
0.0
 11
-126.04302
 21
23.219395
 31
0.0
  0
LINE
  5
351
100
AcDbEntity
  8
4
370
    50
100
AcDbLine
 10
-131.292758
 20
28.598231
 30
0.0
 11
-131.292758
 21
27.848268
 31
0.0
  0
LINE
  5
352
100
AcDbEntity
  8
4
370
    50
100
AcDbLine
 10
-131.292758
 20
27.645613
 30
0.0
 11
-131.292758
 21
26.88828
 31
0.0
  0
LINE
  5
353
100
AcDbEntity
  8
4
370
    50
100
AcDbLine
 10
-131.292758
 20
26.348343
 30
0.0
 11
-131.292758
 21
25.598381
 31
0.0
  0
LINE
  5
354
100
AcDbEntity
  8
5
370
   100
100
AcDbLine
 10
161.482385
 20
218.028767
 30
0.0
 11
394.982385
 21
218.028767
 31
0.0
  0
LINE
  5
355
100
AcDbEntity
  8
5
370
    25
100
AcDbLine
 10
161.482385
 20
233.028767
 30
0.0
 11
394.982385
 21
233.028767
 31
0.0
  0
LINE
  5
356
100
AcDbEntity
  8
5
370
    25
100
AcDbLine
 10
161.482385
 20
248.028767
 30
0.0
 11
394.982385
 21
248.028767
 31
0.0
  0
LINE
  5
357
100
AcDbEntity
  8
5
370
    50
100
AcDbLine
 10
161.482385
 20
263.028767
 30
0.0
 11
394.982385
 21
263.028767
 31
0.0
  0
TEXT
  5
358
100
AcDbEntity
  8
5
370
    50
100
AcDbText
 10
165.052644
 20
265.950703
 30
0.0
 40
6.0
  1
記号
 72
     5
 11
175.852644
 21
265.950703
 31
0.0
100
AcDbText
  0
TEXT
  5
359
100
AcDbEntity
  8
5
370
    50
100
AcDbText
 10
316.856729
 20
265.859212
 30
0.0
 40
6.0
  1
訂 正 記 事
 72
     5
 11
357.656729
 21
265.859212
 31
0.0
100
AcDbText
  0
TEXT
  5
35A
100
AcDbEntity
  8
5
370
    50
100
AcDbText
 10
380.887817
 20
265.835536
 30
0.0
 40
6.0
  1
印
 72
     5
 11
385.687817
 21
265.835536
 31
0.0
100
AcDbText
  0
LINE
  5
35B
100
AcDbEntity
  8
5
370
   100
100
AcDbLine
 10
161.482385
 20
218.028767
 30
0.0
 11
161.482385
 21
275.028767
 31
0.0
  0
LINE
  5
35C
100
AcDbEntity
  8
5
370
    25
100
AcDbLine
 10
180.482385
 20
218.028767
 30
0.0
 11
180.482385
 21
275.028767
 31
0.0
  0
LINE
  5
35D
100
AcDbEntity
  8
5
370
    25
100
AcDbLine
 10
372.982385
 20
218.028767
 30
0.0
 11
372.982385
 21
275.028767
 31
0.0
  0
LINE
  5
35E
100
AcDbEntity
  8
5
370
    25
100
AcDbLine
 10
302.982385
 20
218.028767
 30
0.0
 11
302.982385
 21
275.028767
 31
0.0
  0
LINE
  5
35F
100
AcDbEntity
  8
5
370
    50
100
AcDbLine
 10
232.982385
 20
218.028767
 30
0.0
 11
232.982385
 21
275.028767
 31
0.0
  0
TEXT
  5
360
100
AcDbEntity
  8
5
370
    50
100
AcDbText
 10
246.91768
 20
265.924672
 30
0.0
 40
6.0
  1
変　更　理　由
 72
     5
 11
287.71768
 21
265.924672
 31
0.0
100
AcDbText
  0
TEXT
  5
361
100
AcDbEntity
  8
5
370
    50
100
AcDbText
 10
194.793748
 20
266.40334
 30
0.0
 40
6.0
  1
日　　付
 72
     5
 11
217.593748
 21
266.40334
 31
0.0
100
AcDbText
  0
TEXT
  5
362
100
AcDbEntity
  8
5
370
    50
100
AcDbText
 10
183.098131
 20
252.400355
 30
0.0
 40
6.0
  1
　　・　　・
 72
     5
 11
217.898131
 21
252.400355
 31
0.0
100
AcDbText
  0
TEXT
  5
363
100
AcDbEntity
  8
5
370
    50
100
AcDbText
 10
183.098131
 20
237.400355
 30
0.0
 40
6.0
  1
　　・　　・
 72
     5
 11
217.898131
 21
237.400355
 31
0.0
100
AcDbText
  0
TEXT
  5
364
100
AcDbEntity
  8
5
370
    50
100
AcDbText
 10
183.098131
 20
222.400355
 30
0.0
 40
6.0
  1
　　・　　・
 72
     5
 11
217.898131
 21
222.400355
 31
0.0
100
AcDbText
  0
TEXT
  5
365
100
AcDbEntity
  8
5
370
    50
100
AcDbText
 10
357.228058
 20
-240.199203
 30
0.0
 40
7.0
  1
長井　小野
 72
     5
 11
390.828058
 21
-240.199203
 31
0.0
100
AcDbText
  0
TEXT
  5
366
100
AcDbEntity
  8
5
370
    50
100
AcDbText
 10
344.88205
 20
-256.268799
 30
0.0
 40
6.0
  1
０８　　６　２１
 72
     5
 11
391.68205
 21
-256.268799
 31
0.0
100
AcDbText
  0
ENDSEC
  0
SECTION
  2
OBJECTS
  0
DICTIONARY
  5
3DC
100
AcDbDictionary
280
     0
281
     1
  3
ACAD_GROUP
350
3DD
  3
ACAD_MLINESTYLE
350
3DE
  0
DICTIONARY
  5
3DD
102
{ACAD_REACTORS
330
3DC
102
}
100
AcDbDictionary
280
     0
281
     1
  0
DICTIONARY
  5
3DE
102
{ACAD_REACTORS
330
3DC
102
}
100
AcDbDictionary
280
     0
281
     1
  3
Standard
350
3DF
  0
MLINESTYLE
  5
3DF
102
{ACAD_REACTORS
330
3DE
102
}
100
AcDbMlineStyle
  2
Standard
 70
     0
  3

 62
     0
 51
90.0
 52
90.0
 71
     2
 49
0.5
 62
   256
  6
ByLayer
 49
-0.5
 62
   256
  6
ByLayer
  0
ENDSEC
  0
EOF
