  0
SECTION
  2
HEADER
  9
$ACADVER
  1
AC1015
  9
$ACADMAINTVER
 70
     6
  9
$DWGCODEPAGE
  3
ANSI_932
  9
$INSBASE
 10
0.0
 20
0.0
 30
0.0
  9
$EXTMIN
 10
-841.0
 20
-594.0
 30
1.000000E+20
  9
$EXTMAX
 10
841.0
 20
594.0
 30
-1.000000E+20
  9
$LIMMIN
 10
-841.0
 20
-594.0
  9
$LIMMAX
 10
841.0
 20
594.0
  9
$ORTHOMODE
 70
     0
  9
$REGENMODE
 70
     1
  9
$FILLMODE
 70
     1
  9
$QTEXTMODE
 70
     0
  9
$MIRRTEXT
 70
     1
  9
$LTSCALE
 40
1.0
  9
$ATTMODE
 70
     1
  9
$TEXTSIZE
 40
0.2
  9
$TRACEWID
 40
0.05
  9
$TEXTSTYLE
  7
STANDARD
  9
$CLAYER
  8
0
  9
$CELTYPE
  6
CONTINUOUS
  9
$CECOLOR
 62
   256
  9
$CELTSCALE
 40
1.0
  9
$DISPSILH
 70
     0
  9
$DIMSCALE
 40
2.0
  9
$DIMASZ
 40
2.0
  9
$DIMEXO
 40
1.0
  9
$DIMDLI
 40
0.38
  9
$DIMRND
 40
0.0
  9
$DIMDLE
 40
0.0
  9
$DIMEXE
 40
2.0
  9
$DIMTP
 40
0.0
  9
$DIMTM
 40
0.0
  9
$DIMTXT
 40
3.5
  9
$DIMCEN
 40
0.09
  9
$DIMTSZ
 40
0.0
  9
$DIMTOL
 70
     0
  9
$DIMLIM
 70
     0
  9
$DIMTIH
 70
     0
  9
$DIMTOH
 70
     0
  9
$DIMSE1
 70
     0
  9
$DIMSE2
 70
     0
  9
$DIMTAD
 70
     1
  9
$DIMZIN
 70
     0
  9
$DIMBLK
  1

  9
$DIMASO
 70
     1
  9
$DIMSHO
 70
     1
  9
$DIMPOST
  1

  9
$DIMAPOST
  1

  9
$DIMALT
 70
     0
  9
$DIMALTD
 70
     2
  9
$DIMALTF
 40
25.4
  9
$DIMLFAC
 40
1.0
  9
$DIMTOFL
 70
     0
  9
$DIMTVP
 40
0.0
  9
$DIMTIX
 70
     0
  9
$DIMSOXD
 70
     0
  9
$DIMSAH
 70
     0
  9
$DIMBLK1
  1

  9
$DIMBLK2
  1

  9
$DIMSTYLE
  2
Standard
  9
$DIMCLRD
 70
     0
  9
$DIMCLRE
 70
     0
  9
$DIMCLRT
 70
     0
  9
$DIMTFAC
 40
1.0
  9
$DIMGAP
 40
0.5
  9
$DIMJUST
 70
     0
  9
$DIMSD1
 70
     0
  9
$DIMSD2
 70
     0
  9
$DIMTOLJ
 70
     1
  9
$DIMTZIN
 70
     0
  9
$DIMALTZ
 70
     0
  9
$DIMALTTZ
 70
     0
  9
$DIMUPT
 70
     0
  9
$DIMDEC
 70
     3
  9
$DIMTDEC
 70
     4
  9
$DIMALTU
 70
     2
  9
$DIMALTTD
 70
     2
  9
$DIMTXSTY
  7
STANDARD
  9
$DIMAUNIT
 70
     0
  9
$DIMADEC
 70
     2
  9
$DIMALTRND
 40
0.0
  9
$DIMAZIN
 70
     0
  9
$DIMDSEP
 70
     0
  9
$DIMATFIT
 70
     3
  9
$DIMFRAC
 70
     0
  9
$DIMLDRBLK
  1

  9
$DIMLUNIT
 70
     2
  9
$DIMLWD
 70
     0
  9
$DIMLWE
 70
     0
  9
$DIMTMOVE
 70
     0
  9
$LUNITS
 70
     2
  9
$LUPREC
 70
     4
  9
$SKETCHINC
 40
0.1
  9
$FILLETRAD
 40
0.0
  9
$AUNITS
 70
     0
  9
$AUPREC
 70
     0
  9
$MENU
  1
acad
  9
$ELEVATION
 40
0.0
  9
$PELEVATION
 40
0.0
  9
$THICKNESS
 40
0.0
  9
$LIMCHECK
 70
     0
  9
$CHAMFERA
 40
0.0
  9
$CHAMFERB
 40
0.0
  9
$CHAMFERC
 40
0.0
  9
$CHAMFERD
 40
0.0
  9
$SKPOLY
 70
     0
  9
$TDCREATE
 40
2457507.000000000
  9
$TDUCREATE
 40
0.000000000
  9
$TDUPDATE
 40
0.000000000
  9
$TDUUPDATE
 40
2447892.625000000
  9
$TDINDWG
 40
0.0000000000
  9
$TDUSRTIMER
 40
0.0000000000
  9
$USRTIMER
 70
     1
  9
$ANGBASE
 50
0.0
  9
$ANGDIR
 70
     0
  9
$PDMODE
 70
     0
  9
$PDSIZE
 40
0.0
  9
$PLINEWID
 40
0.0
  9
$SPLFRAME
 70
     0
  9
$SPLINETYPE
 70
     6
  9
$SPLINESEGS
 70
     8
  9
$HANDSEED
  5
D45
  9
$SURFTAB1
 70
     6
  9
$SURFTAB2
 70
     6
  9
$SURFTYPE
 70
     6
  9
$SURFU
 70
     6
  9
$SURFV
 70
     6
  9
$UCSBASE
  2

  9
$UCSNAME
  2

  9
$UCSORG
 10
0.0
 20
0.0
 30
0.0
  9
$UCSXDIR
 10
1.0
 20
0.0
 30
0.0
  9
$UCSYDIR
 10
0.0
 20
1.0
 30
0.0
  9
$UCSORTHOREF
  2

  9
$UCSORTHOVIEW
 70
     0
  9
$UCSORGTOP
 10
0.0
 20
0.0
 30
0.0
  9
$UCSORGBOTTOM
 10
0.0
 20
0.0
 30
0.0
  9
$UCSORGLEFT
 10
0.0
 20
0.0
 30
0.0
  9
$UCSORGRIGHT
 10
0.0
 20
0.0
 30
0.0
  9
$UCSORGFRONT
 10
0.0
 20
0.0
 30
0.0
  9
$UCSORGBACK
 10
0.0
 20
0.0
 30
0.0
  9
$PUCSBASE
  2

  9
$PUCSNAME
  2

  9
$PUCSORG
 10
0.0
 20
0.0
 30
0.0
  9
$PUCSXDIR
 10
1.0
 20
0.0
 30
0.0
  9
$PUCSYDIR
 10
0.0
 20
1.0
 30
0.0
  9
$PUCSORTHOREF
  2

  9
$PUCSORTHOVIEW
 70
     0
  9
$PUCSORGTOP
 10
0.0
 20
0.0
 30
0.0
  9
$PUCSORGBOTTOM
 10
0.0
 20
0.0
 30
0.0
  9
$PUCSORGLEFT
 10
0.0
 20
0.0
 30
0.0
  9
$PUCSORGRIGHT
 10
0.0
 20
0.0
 30
0.0
  9
$PUCSORGFRONT
 10
0.0
 20
0.0
 30
0.0
  9
$PUCSORGBACK
 10
0.0
 20
0.0
 30
0.0
  9
$USERI1
 70
     0
  9
$USERI2
 70
     0
  9
$USERI3
 70
     0
  9
$USERI4
 70
     0
  9
$USERI5
 70
     0
  9
$USERR1
 40
0.0
  9
$USERR2
 40
0.0
  9
$USERR3
 40
0.0
  9
$USERR4
 40
0.0
  9
$USERR5
 40
0.0
  9
$WORLDVIEW
 70
     1
  9
$SHADEDGE
 70
     3
  9
$SHADEDIF
 70
    70
  9
$TILEMODE
 70
     1
  9
$MAXACTVP
 70
    16
  9
$PINSBASE
 10
0.0
 20
0.0
 30
0.0
  9
$PLIMCHECK
 70
     0
  9
$PEXTMIN
 10
1.000000E+20
 20
1.000000E+20
 30
1.000000E+20
  9
$PEXTMAX
 10
-1.000000E+20
 20
-1.000000E+20
 30
-1.000000E+20
  9
$PLIMMIN
 10
0.0
 20
0.0
  9
$PLIMMAX
 10
12.0
 20
9.0
  9
$UNITMODE
 70
     0
  9
$VISRETAIN
 70
     0
  9
$PLINEGEN
 70
     1
  9
$PSLTSCALE
 70
     0
  9
$TREEDEPTH
 70
  3020
  9
$CMLSTYLE
  2
Standard
  9
$CMLJUST
 70
     0
  9
$CMLSCALE
 40
1.0
  9
$PROXYGRAPHICS
 70
     0
  9
$MEASUREMENT
 70
     0
  9
$CELWEIGHT
370
     0
  9
$ENDCAPS
280
     0
  9
$JOINSTYLE
280
     0
  9
$LWDISPLAY
290
     0
  9
$INSUNITS
 70
     0
  9
$HYPERLINKBASE
  1

  9
$STYLESHEET
  1

  9
$XEDIT
290
     1
  9
$CEPSNTYPE
380
     0
  9
$PSTYLEMODE
290
     1
  9
$FINGERPRINTGUID
  2

  9
$VERSIONGUID
  2

  9
$EXTNAMES
290
     1
  9
$PSVPSCALE
 40
0.0
  0
ENDSEC
  0
SECTION
  2
CLASSES
  0
CLASS
  1
LWPOLYLINE
  2
AcDbPolyline
  3
AutoCAD 2000
 90
        0
280
     0
281
     1
  0
CLASS
  1
IMAGE
  2
AcDbRasterImage
  3
ISM
 90
      127
280
     0
281
     1
  0
CLASS
  1
OLE2FRAME
  2
AcDbOle2Frame
  3
AutoCAD 2000
 90
        0
280
     0
281
     1
  0
CLASS
  1
HATCH
  2
AcDbHatch
  3
AutoCAD 2000
 90
        0
280
     0
281
     1
  0
CLASS
  1
DICTIONARYVAR
  2
AcDbDictionaryVar
  3
AutoCAD 2000
 90
        0
280
     0
281
     0
  0
CLASS
  1
RASTERVARIABLES
  2
AcDbRasterVariables
  3
ISM
 90
        0
280
     0
281
     0
  0
CLASS
  1
IMAGEDEF
  2
AcDbRasterImageDef
  3
ISM
 90
        0
280
     0
281
     0
  0
CLASS
  1
IMAGEDEF_REACTOR
  2
AcDbRasterImageDefReactor
  3
ISM
 90
        1
280
     0
281
     0
  0
CLASS
  1
IDBUFFER
  2
AcDbIdBuffer
  3
AutoCAD 2000
 90
        0
280
     0
281
     0
  0
CLASS
  1
SPATIAL_FILTER
  2
AcDbSpatialFilter
  3
AutoCAD 2000
 90
        0
280
     0
281
     0
  0
CLASS
  1
XRECORD
  2
AcDbXrecord
  3
AutoCAD 2000
 90
        0
280
     0
281
     0
  0
CLASS
  1
SORTENTSTABLE
  2
AcDbSortentsTable
  3
AutoCAD 2000
 90
        0
280
     0
281
     0
  0
CLASS
  1
LAYER_INDEX
  2
AcDbLayerIndex
  3
AutoCAD 2000
 90
        0
280
     0
281
     0
  0
CLASS
  1
SPATIAL_INDEX
  2
AcDbSpatialIndex
  3
AutoCAD 2000
 90
        0
280
     0
281
     0
  0
CLASS
  1
OBJECT_PTR
  2
CAseDLPNTableRecord
  3
"ASE-LPNTableRecord"
 90
        1
280
     0
281
     0
  0
CLASS
  1
LAYOUT
  2
AcDbLayout
  3
AutoCAD 2000
 90
        0
280
     0
281
     0
  0
CLASS
  1
PLOTSETTINGS
  2
AcDbPlotSettings
  3
AutoCAD 2000
 90
        0
280
     0
281
     0
  0
CLASS
  1
ACDBDICTIONARYWDFLT
  2
AcDbDictionaryWithDefault
  3
AutoCAD 2000
 90
        0
280
     0
281
     0
  0
CLASS
  1
ACDBPLACEHOLDER
  2
AcDbPlaceHolder
  3
AutoCAD 2000
 90
        0
280
     0
281
     0
  0
CLASS
  1
VBA_PROJECT
  2
AcDbVbaProject
  3
acadvba
 90
        0
280
     0
281
     0
  0
CLASS
  1
WIPEOUT
  2
AcDbWipeout
  3
WipeOut|AutoCAD Express Tool|expresstools@autodesk.com
 90
      127
280
     0
281
     1
  0
CLASS
  1
WIPEOUTVARIABLES
  2
AcDbWipeoutVariables
  3
WipeOut|AutoCAD Express Tool|expresstools@autodesk.com
 90
        0
280
     0
281
     0
  0
CLASS
  1
RTEXT
  2
RText
  3
RText|AutoCAD Express Tool|expresstools@autodesk.com
 90
        0
280
     0
281
     1
  0
CLASS
  1
ARCALIGNEDTEXT
  2
AcDbArcAlignedText
  3
ATEXT|AutoCAD Express Tool|expresstools@autodesk.com
 90
        0
280
     0
281
     1
  0
ENDSEC
  0
SECTION
  2
TABLES
  0
TABLE
  2
VPORT
  5
6
100
AcDbSymbolTable
 70
     1
  0
VPORT
  5
1A
100
AcDbSymbolTableRecord
100
AcDbViewportTableRecord
  2
*ACTIVE
 70
     0
 10
0.0
 20
0.0
 11
1.0
 21
1.0
 12
0.0
 22
0.0
 13
0.0
 23
0.0
 14
1.0
 24
1.0
 15
0.0
 25
0.0
 16
0.0
 26
0.0
 36
1.0
 17
0.0
 27
0.0
 37
0.0
 40
1188.0
 41
1.415825
 42
50.0
 43
0.0
 44
0.0
 50
0.0
 51
0.0
 71
     0
 72
   500
 73
     1
 74
     1
 75
     0
 76
     0
 77
     0
 78
     0
281
     0
 65
     0
110
0.0
120
0.0
130
0.0
111
1.0
121
0.0
131
0.0
112
0.0
122
1.0
132
0.0
345
0
346
0
 79
     0
146
0.0
  0
ENDTAB
  0
TABLE
  2
LTYPE
  5
3
100
AcDbSymbolTable
 70
     9
  0
LTYPE
  5
C
100
AcDbSymbolTableRecord
100
AcDbLinetypeTableRecord
  2
ByBlock
 70
    64
  3

 72
    65
 73
     0
 40
0.0
  0
LTYPE
  5
D
100
AcDbSymbolTableRecord
100
AcDbLinetypeTableRecord
  2
ByLayer
 70
    64
  3

 72
    65
 73
     0
 40
0.0
  0
LTYPE
  5
E
100
AcDbSymbolTableRecord
100
AcDbLinetypeTableRecord
  2
CONTINUOUS
 70
     0
  3
Solid line
 72
    65
 73
     0
 40
0.0
  0
LTYPE
  5
F
100
AcDbSymbolTableRecord
100
AcDbLinetypeTableRecord
  2
DASHED
 70
     0
  3
__ __ __ __ __ __ __ __ __ __ __ __ __ __ __
 72
    65
 73
     2
 40
2.0
 49
1.2
 74
     0
 49
-0.8
 74
     0
  0
LTYPE
  5
10
100
AcDbSymbolTableRecord
100
AcDbLinetypeTableRecord
  2
CENTER
 70
     0
  3
____ _ ____ _ ____ _ ____ _ ____ _ ____ _ ____
 72
    65
 73
     4
 40
12.0
 49
9.0
 74
     0
 49
-1.0
 74
     0
 49
1.0
 74
     0
 49
-1.0
 74
     0
  0
LTYPE
  5
11
100
AcDbSymbolTableRecord
100
AcDbLinetypeTableRecord
  2
HIDDEN
 70
     0
  3
_ _ _ _ _ _ _ _ _ _ _ _ _ _ _ _ _ _ _ _ _ _ _
 72
    65
 73
     2
 40
3.2
 49
2.4
 74
     0
 49
-0.8
 74
     0
  0
LTYPE
  5
12
100
AcDbSymbolTableRecord
100
AcDbLinetypeTableRecord
  2
PHANTOM
 70
     0
  3
_____ _ _ _____ _ _ _____ _ _ _____ _ _ _____
 72
    65
 73
     6
 40
13.5
 49
9.0
 74
     0
 49
-1.0
 74
     0
 49
1.0
 74
     0
 49
-0.5
 74
     0
 49
1.0
 74
     0
 49
-1.0
 74
     0
  0
LTYPE
  5
13
100
AcDbSymbolTableRecord
100
AcDbLinetypeTableRecord
  2
DOT
 70
     0
  3
...............................................
 72
    65
 73
     2
 40
1.0
 49
0.5
 74
     0
 49
-0.5
 74
     0
  0
LTYPE
  5
14
100
AcDbSymbolTableRecord
100
AcDbLinetypeTableRecord
  2
DASHDOT
 70
     0
  3
__ . __ . __ . __ . __ . __ . __ . __ . __ . __
 72
    65
 73
     4
 40
8.0
 49
5.0
 74
     0
 49
-1.0
 74
     0
 49
1.0
 74
     0
 49
-1.0
 74
     0
  0
ENDTAB
  0
TABLE
  2
LAYER
  5
1
100
AcDbSymbolTable
 70
     5
  0
LAYER
  5
15
100
AcDbSymbolTableRecord
100
AcDbLayerTableRecord
  2
0
 70
     0
 62
   225
  6
CONTINUOUS
290
     1
370
    -3
390
0
  0
LAYER
  5
16
100
AcDbSymbolTableRecord
100
AcDbLayerTableRecord
  2
1
 70
     0
 62
     2
  6
CONTINUOUS
290
     1
370
    -3
390
0
  0
LAYER
  5
17
100
AcDbSymbolTableRecord
100
AcDbLayerTableRecord
  2
2
 70
     0
 62
     3
  6
CONTINUOUS
290
     1
370
    -3
390
0
  0
LAYER
  5
18
100
AcDbSymbolTableRecord
100
AcDbLayerTableRecord
  2
3
 70
     0
 62
     4
  6
CONTINUOUS
290
     1
370
    -3
390
0
  0
LAYER
  5
19
100
AcDbSymbolTableRecord
100
AcDbLayerTableRecord
  2
4
 70
     0
 62
     1
  6
CONTINUOUS
290
     1
370
    -3
390
0
  0
ENDTAB
  0
TABLE
  2
STYLE
  5
2
100
AcDbSymbolTable
 70
     1
  0
STYLE
  5
1C
100
AcDbSymbolTableRecord
100
AcDbTextStyleTableRecord
  2
STANDARD
 70
    64
 40
0.0
 41
1.0
 50
0.0
 71
     0
 42
1.0
  3
txt
  4
BIGFONT
  0
ENDTAB
  0
TABLE
  2
VIEW
  5
4
100
AcDbSymbolTable
 70
     0
  0
ENDTAB
  0
TABLE
  2
UCS
  5
5
100
AcDbSymbolTable
 70
     0
  0
ENDTAB
  0
TABLE
  2
APPID
  5
7
100
AcDbSymbolTable
 70
     1
  0
APPID
  5
1B
100
AcDbSymbolTableRecord
100
AcDbRegAppTableRecord
  2
ACAD
 70
     0
  0
ENDTAB
  0
TABLE
  2
DIMSTYLE
  5
8
100
AcDbSymbolTable
 70
     1
100
AcDbDimStyleTable
 71
     0
  0
DIMSTYLE
105
2B
100
AcDbSymbolTableRecord
100
AcDbDimStyleTableRecord
  2
Standard
 70
     0
  3

  4

 40
2.0
 41
2.0
 42
1.0
 43
0.38
 44
2.0
 45
0.0
 46
0.0
 47
0.0
 48
0.0
 71
     0
 72
     0
 73
     0
 74
     0
 75
     0
 76
     0
 77
     1
 78
     0
 79
     0
140
3.5
141
0.09
142
0.0
143
25.4
144
1.0
145
0.0
146
1.0
147
0.5
148
0.0
170
     0
171
     2
172
     0
173
     0
174
     0
175
     0
176
     0
177
     0
178
     0
179
     0
271
     3
272
     4
273
     2
274
     2
275
     0
276
     0
277
     2
278
    46
279
     0
280
     0
281
     0
282
     0
283
     1
284
     0
285
     0
286
     0
288
     0
289
     3
340
1C
341
0
342
0
343
0
344
0
371
    -2
372
    -2
  0
ENDTAB
  0
TABLE
  2
BLOCK_RECORD
  5
26
100
AcDbSymbolTable
 70
     7
  0
BLOCK_RECORD
  5
24
100
AcDbSymbolTableRecord
100
AcDbBlockTableRecord
  2
*Model_Space
340
0
  0
BLOCK_RECORD
  5
25
100
AcDbSymbolTableRecord
100
AcDbBlockTableRecord
  2
*Paper_Space
340
0
  0
BLOCK_RECORD
  5
1D
100
AcDbSymbolTableRecord
100
AcDbBlockTableRecord
  2
*D0
340
0
  0
BLOCK_RECORD
  5
1E
100
AcDbSymbolTableRecord
100
AcDbBlockTableRecord
  2
*D1
340
0
  0
BLOCK_RECORD
  5
1F
100
AcDbSymbolTableRecord
100
AcDbBlockTableRecord
  2
*D2
340
0
  0
BLOCK_RECORD
  5
20
100
AcDbSymbolTableRecord
100
AcDbBlockTableRecord
  2
*D3
340
0
  0
BLOCK_RECORD
  5
21
100
AcDbSymbolTableRecord
100
AcDbBlockTableRecord
  2
*D4
340
0
  0
BLOCK_RECORD
  5
22
100
AcDbSymbolTableRecord
100
AcDbBlockTableRecord
  2
*D5
340
0
  0
BLOCK_RECORD
  5
23
100
AcDbSymbolTableRecord
100
AcDbBlockTableRecord
  2
*D6
340
0
  0
ENDTAB
  0
ENDSEC
  0
SECTION
  2
BLOCKS
  0
BLOCK
  5
27
100
AcDbEntity
  8
0
390
0
100
AcDbBlockBegin
  2
*Model_Space
 70
     0
 10
0.0
 20
0.0
 30
0.0
  3
*Model_Space
  1

  0
ENDBLK
  5
28
100
AcDbEntity
  8
0
390
0
100
AcDbBlockEnd
  0
BLOCK
  5
29
100
AcDbEntity
 67
     1
  8
0
390
0
100
AcDbBlockBegin
  2
*Paper_Space
 70
     0
 10
0.0
 20
0.0
 30
0.0
  3
*Paper_Space
  1

  0
ENDBLK
  5
2A
100
AcDbEntity
 67
     1
  8
0
390
0
100
AcDbBlockEnd
  0
BLOCK
  5
CEF
100
AcDbEntity
  8
3
100
AcDbBlockBegin
  2
*D0
 70
     1
 10
0.0
 20
0.0
 30
0.0
  3
*D0
  1

  0
TEXT
  5
CF0
100
AcDbEntity
  8
3
370
    25
100
AcDbText
 10
-166.261856
 20
-196.81926
 30
0.0
 40
7.0
  1
200
 41
2.0
 72
     5
 11
-148.061856
 21
-196.81926
 31
0.0
100
AcDbText
  0
LINE
  5
CF1
100
AcDbEntity
  8
3
370
    25
100
AcDbLine
 10
-255.761856
 20
-174.971881
 30
0.0
 11
-255.761856
 21
-199.81926
 31
0.0
  0
LINE
  5
CF2
100
AcDbEntity
  8
3
370
    25
100
AcDbLine
 10
-255.761856
 20
-197.81926
 30
0.0
 11
-251.898153
 21
-198.854536
 31
0.0
  0
LINE
  5
CF3
100
AcDbEntity
  8
3
370
    25
100
AcDbLine
 10
-255.761856
 20
-197.81926
 30
0.0
 11
-251.898153
 21
-196.783983
 31
0.0
  0
LINE
  5
CF4
100
AcDbEntity
  8
3
370
    25
100
AcDbLine
 10
-251.898153
 20
-198.854536
 30
0.0
 11
-251.898153
 21
-196.783983
 31
0.0
  0
LINE
  5
CF5
100
AcDbEntity
  8
3
370
    25
100
AcDbLine
 10
-255.761856
 20
-197.81926
 30
0.0
 11
-55.761856
 21
-197.81926
 31
0.0
  0
LINE
  5
CF6
100
AcDbEntity
  8
3
370
    25
100
AcDbLine
 10
-55.761856
 20
-197.81926
 30
0.0
 11
-59.625559
 21
-196.783983
 31
0.0
  0
LINE
  5
CF7
100
AcDbEntity
  8
3
370
    25
100
AcDbLine
 10
-55.761856
 20
-197.81926
 30
0.0
 11
-59.625559
 21
-198.854536
 31
0.0
  0
LINE
  5
CF8
100
AcDbEntity
  8
3
370
    25
100
AcDbLine
 10
-59.625559
 20
-196.783983
 30
0.0
 11
-59.625559
 21
-198.854536
 31
0.0
  0
LINE
  5
CF9
100
AcDbEntity
  8
3
370
    25
100
AcDbLine
 10
-55.761856
 20
-180.939144
 30
0.0
 11
-55.761856
 21
-199.81926
 31
0.0
  0
ENDBLK
  5
CFA
100
AcDbEntity
  8
3
100
AcDbBlockEnd
  0
BLOCK
  5
CFB
100
AcDbEntity
  8
3
100
AcDbBlockBegin
  2
*D1
 70
     1
 10
0.0
 20
0.0
 30
0.0
  3
*D1
  1

  0
LINE
  5
CFC
100
AcDbEntity
  8
3
370
    25
100
AcDbLine
 10
-41.020179
 20
-161.0108
 30
0.0
 11
4.476931
 21
-161.0108
 31
0.0
  0
LINE
  5
CFD
100
AcDbEntity
  8
3
370
    25
100
AcDbLine
 10
2.476931
 20
-161.0108
 30
0.0
 11
3.512207
 21
-157.147097
 31
0.0
  0
LINE
  5
CFE
100
AcDbEntity
  8
3
370
    25
100
AcDbLine
 10
2.476931
 20
-161.0108
 30
0.0
 11
1.441654
 21
-157.147097
 31
0.0
  0
LINE
  5
CFF
100
AcDbEntity
  8
3
370
    25
100
AcDbLine
 10
3.512207
 20
-157.147097
 30
0.0
 11
1.441654
 21
-157.147097
 31
0.0
  0
LINE
  5
D00
100
AcDbEntity
  8
3
370
    25
100
AcDbLine
 10
2.476931
 20
-161.0108
 30
0.0
 11
2.476931
 21
-98.7108
 31
0.0
  0
LINE
  5
D01
100
AcDbEntity
  8
3
370
    25
100
AcDbLine
 10
2.476931
 20
-98.7108
 30
0.0
 11
1.441654
 21
-102.574503
 31
0.0
  0
LINE
  5
D02
100
AcDbEntity
  8
3
370
    25
100
AcDbLine
 10
2.476931
 20
-98.7108
 30
0.0
 11
3.512207
 21
-102.574503
 31
0.0
  0
LINE
  5
D03
100
AcDbEntity
  8
3
370
    25
100
AcDbLine
 10
1.441654
 20
-102.574503
 30
0.0
 11
3.512207
 21
-102.574503
 31
0.0
  0
LINE
  5
D04
100
AcDbEntity
  8
3
370
    25
100
AcDbLine
 10
-28.761856
 20
-98.7108
 30
0.0
 11
4.476931
 21
-98.7108
 31
0.0
  0
ENDBLK
  5
D05
100
AcDbEntity
  8
3
100
AcDbBlockEnd
  0
BLOCK
  5
D06
100
AcDbEntity
  8
3
100
AcDbBlockBegin
  2
*D2
 70
     1
 10
0.0
 20
0.0
 30
0.0
  3
*D2
  1

  0
LINE
  5
D07
100
AcDbEntity
  8
3
370
    25
100
AcDbLine
 10
-28.761856
 20
-98.7108
 30
0.0
 11
4.476931
 21
-98.7108
 31
0.0
  0
LINE
  5
D08
100
AcDbEntity
  8
3
370
    25
100
AcDbLine
 10
2.476931
 20
-98.7108
 30
0.0
 11
3.512207
 21
-94.847097
 31
0.0
  0
LINE
  5
D09
100
AcDbEntity
  8
3
370
    25
100
AcDbLine
 10
2.476931
 20
-98.7108
 30
0.0
 11
1.441654
 21
-94.847097
 31
0.0
  0
LINE
  5
D0A
100
AcDbEntity
  8
3
370
    25
100
AcDbLine
 10
3.512207
 20
-94.847097
 30
0.0
 11
1.441654
 21
-94.847097
 31
0.0
  0
LINE
  5
D0B
100
AcDbEntity
  8
3
370
    25
100
AcDbLine
 10
2.476931
 20
-98.7108
 30
0.0
 11
2.476931
 21
-20.010847
 31
0.0
  0
LINE
  5
D0C
100
AcDbEntity
  8
3
370
    25
100
AcDbLine
 10
2.476931
 20
-20.010847
 30
0.0
 11
1.441654
 21
-23.874551
 31
0.0
  0
LINE
  5
D0D
100
AcDbEntity
  8
3
370
    25
100
AcDbLine
 10
2.476931
 20
-20.010847
 30
0.0
 11
3.512207
 21
-23.874551
 31
0.0
  0
LINE
  5
D0E
100
AcDbEntity
  8
3
370
    25
100
AcDbLine
 10
1.441654
 20
-23.874551
 30
0.0
 11
3.512207
 21
-23.874551
 31
0.0
  0
LINE
  5
D0F
100
AcDbEntity
  8
3
370
    25
100
AcDbLine
 10
-53.761856
 20
-20.010847
 30
0.0
 11
4.476931
 21
-20.010847
 31
0.0
  0
ENDBLK
  5
D10
100
AcDbEntity
  8
3
100
AcDbBlockEnd
  0
BLOCK
  5
D11
100
AcDbEntity
  8
3
100
AcDbBlockBegin
  2
*D3
 70
     1
 10
0.0
 20
0.0
 30
0.0
  3
*D3
  1

  0
LINE
  5
D12
100
AcDbEntity
  8
3
370
    25
100
AcDbLine
 10
-262.261367
 20
-169.510845
 30
0.0
 11
-262.261367
 21
-186.41069
 31
0.0
  0
LINE
  5
D13
100
AcDbEntity
  8
3
370
    25
100
AcDbLine
 10
-262.261367
 20
-184.41069
 30
0.0
 11
-266.125071
 21
-183.375414
 31
0.0
  0
LINE
  5
D14
100
AcDbEntity
  8
3
370
    25
100
AcDbLine
 10
-262.261367
 20
-184.41069
 30
0.0
 11
-266.125071
 21
-185.445966
 31
0.0
  0
LINE
  5
D15
100
AcDbEntity
  8
3
370
    25
100
AcDbLine
 10
-266.125071
 20
-183.375414
 30
0.0
 11
-266.125071
 21
-185.445966
 31
0.0
  0
LINE
  5
D16
100
AcDbEntity
  8
3
370
    25
100
AcDbLine
 10
-272.261367
 20
-184.41069
 30
0.0
 11
-220.261367
 21
-184.41069
 31
0.0
  0
LINE
  5
D17
100
AcDbEntity
  8
3
370
    25
100
AcDbLine
 10
-249.261367
 20
-184.41069
 30
0.0
 11
-245.397664
 21
-185.445966
 31
0.0
  0
LINE
  5
D18
100
AcDbEntity
  8
3
370
    25
100
AcDbLine
 10
-249.261367
 20
-184.41069
 30
0.0
 11
-245.397664
 21
-183.375414
 31
0.0
  0
LINE
  5
D19
100
AcDbEntity
  8
3
370
    25
100
AcDbLine
 10
-245.397664
 20
-185.445966
 30
0.0
 11
-245.397664
 21
-183.375414
 31
0.0
  0
LINE
  5
D1A
100
AcDbEntity
  8
3
370
    25
100
AcDbLine
 10
-249.261367
 20
-169.510845
 30
0.0
 11
-249.261367
 21
-186.41069
 31
0.0
  0
ENDBLK
  5
D1B
100
AcDbEntity
  8
3
100
AcDbBlockEnd
  0
BLOCK
  5
D1C
100
AcDbEntity
  8
3
100
AcDbBlockBegin
  2
*D4
 70
     1
 10
0.0
 20
0.0
 30
0.0
  3
*D4
  1

  0
TEXT
  5
D1D
100
AcDbEntity
  8
3
370
    25
100
AcDbText
 10
75.791954
 20
-50.004168
 30
0.0
 40
7.0
  1
１１８
 50
90.0
 72
     5
 11
75.791954
 21
-30.404168
 31
0.0
100
AcDbText
  0
LINE
  5
D1E
100
AcDbEntity
  8
3
370
    25
100
AcDbLine
 10
317.238144
 20
-98.7108
 30
0.0
 11
74.791954
 21
-98.7108
 31
0.0
  0
LINE
  5
D1F
100
AcDbEntity
  8
3
370
    25
100
AcDbLine
 10
76.791954
 20
-98.7108
 30
0.0
 11
77.82723
 21
-94.847097
 31
0.0
  0
LINE
  5
D20
100
AcDbEntity
  8
3
370
    25
100
AcDbLine
 10
76.791954
 20
-98.7108
 30
0.0
 11
75.756678
 21
-94.847097
 31
0.0
  0
LINE
  5
D21
100
AcDbEntity
  8
3
370
    25
100
AcDbLine
 10
77.82723
 20
-94.847097
 30
0.0
 11
75.756678
 21
-94.847097
 31
0.0
  0
LINE
  5
D22
100
AcDbEntity
  8
3
370
    25
100
AcDbLine
 10
76.791954
 20
-98.7108
 30
0.0
 11
76.791954
 21
19.702464
 31
0.0
  0
LINE
  5
D23
100
AcDbEntity
  8
3
370
    25
100
AcDbLine
 10
76.791954
 20
19.702464
 30
0.0
 11
75.756678
 21
15.838761
 31
0.0
  0
LINE
  5
D24
100
AcDbEntity
  8
3
370
    25
100
AcDbLine
 10
76.791954
 20
19.702464
 30
0.0
 11
77.82723
 21
15.838761
 31
0.0
  0
LINE
  5
D25
100
AcDbEntity
  8
3
370
    25
100
AcDbLine
 10
75.756678
 20
15.838761
 30
0.0
 11
77.82723
 21
15.838761
 31
0.0
  0
LINE
  5
D26
100
AcDbEntity
  8
3
370
    25
100
AcDbLine
 10
102.951455
 20
19.702464
 30
0.0
 11
74.791954
 21
19.702464
 31
0.0
  0
ENDBLK
  5
D27
100
AcDbEntity
  8
3
100
AcDbBlockEnd
  0
BLOCK
  5
D28
100
AcDbEntity
  8
4
100
AcDbBlockBegin
  2
*D5
 70
     1
 10
0.0
 20
0.0
 30
0.0
  3
*D5
  1

  0
TEXT
  5
D29
100
AcDbEntity
  8
4
370
    25
100
AcDbText
 10
213.737703
 20
-115.302032
 30
0.0
 40
7.0
  1
２４０
 72
     5
 11
233.337703
 21
-115.302032
 31
0.0
100
AcDbText
  0
LINE
  5
D2A
100
AcDbEntity
  8
4
370
    25
100
AcDbLine
 10
104.237815
 20
17.790088
 30
0.0
 11
104.237815
 21
-118.302032
 31
0.0
  0
LINE
  5
D2B
100
AcDbEntity
  8
4
370
    25
100
AcDbLine
 10
104.237815
 20
-116.302032
 30
0.0
 11
108.101519
 21
-117.337309
 31
0.0
  0
LINE
  5
D2C
100
AcDbEntity
  8
4
370
    25
100
AcDbLine
 10
104.237815
 20
-116.302032
 30
0.0
 11
108.101519
 21
-115.266756
 31
0.0
  0
LINE
  5
D2D
100
AcDbEntity
  8
4
370
    25
100
AcDbLine
 10
108.101519
 20
-117.337309
 30
0.0
 11
108.101519
 21
-115.266756
 31
0.0
  0
LINE
  5
D2E
100
AcDbEntity
  8
4
370
    25
100
AcDbLine
 10
104.237815
 20
-116.302032
 30
0.0
 11
344.23759
 21
-116.302032
 31
0.0
  0
LINE
  5
D2F
100
AcDbEntity
  8
4
370
    25
100
AcDbLine
 10
344.23759
 20
-116.302032
 30
0.0
 11
340.373886
 21
-115.266756
 31
0.0
  0
LINE
  5
D30
100
AcDbEntity
  8
4
370
    25
100
AcDbLine
 10
344.23759
 20
-116.302032
 30
0.0
 11
340.373886
 21
-117.337309
 31
0.0
  0
LINE
  5
D31
100
AcDbEntity
  8
4
370
    25
100
AcDbLine
 10
340.373886
 20
-115.266756
 30
0.0
 11
340.373886
 21
-117.337309
 31
0.0
  0
LINE
  5
D32
100
AcDbEntity
  8
4
370
    25
100
AcDbLine
 10
344.23759
 20
-78.8288
 30
0.0
 11
344.23759
 21
-118.302032
 31
0.0
  0
ENDBLK
  5
D33
100
AcDbEntity
  8
4
100
AcDbBlockEnd
  0
BLOCK
  5
D34
100
AcDbEntity
  8
4
100
AcDbBlockBegin
  2
*D6
 70
     1
 10
0.0
 20
0.0
 30
0.0
  3
*D6
  1

  0
TEXT
  5
D35
100
AcDbEntity
  8
4
370
    25
100
AcDbText
 10
95.18134
 20
-13.61911
 30
0.0
 40
7.0
  1
７゜
 50
356.5
 72
     5
 11
107.757839
 21
-14.388322
 31
0.0
100
AcDbText
  0
LINE
  5
D36
100
AcDbEntity
  8
4
370
    25
100
AcDbLine
 10
103.544859
 20
14.146413
 30
0.0
 11
99.740865
 21
-16.834635
 31
0.0
  0
LINE
  5
D37
100
AcDbEntity
  8
4
370
    25
100
AcDbLine
 10
104.237815
 20
14.131505
 30
0.0
 11
104.237815
 21
-17.10968
 31
0.0
  0
LINE
  5
D38
100
AcDbEntity
  8
4
370
    25
100
AcDbLine
 10
99.984604
 20
-14.849542
 30
0.0
 11
96.364499
 21
-13.148119
 31
0.0
  0
LINE
  5
D39
100
AcDbEntity
  8
4
370
    25
100
AcDbLine
 10
99.984604
 20
-14.849542
 30
0.0
 11
95.998789
 21
-15.186119
 31
0.0
  0
LINE
  5
D3A
100
AcDbEntity
  8
4
370
    25
100
AcDbLine
 10
96.364499
 20
-13.148119
 30
0.0
 11
95.998789
 21
-15.186119
 31
0.0
  0
LINE
  5
D3B
100
AcDbEntity
  8
4
370
    25
100
AcDbLine
 10
104.237815
 20
-15.10968
 30
0.0
 11
108.152902
 21
-15.929496
 31
0.0
  0
LINE
  5
D3C
100
AcDbEntity
  8
4
370
    25
100
AcDbLine
 10
104.237815
 20
-15.10968
 30
0.0
 11
108.038288
 21
-13.862119
 31
0.0
  0
LINE
  5
D3D
100
AcDbEntity
  8
4
370
    25
100
AcDbLine
 10
108.152902
 20
-15.929496
 30
0.0
 11
108.038288
 21
-13.862119
 31
0.0
  0
ARC
  5
D3E
100
AcDbEntity
  8
4
370
    25
100
AcDbCircle
 10
104.237815
 20
19.790088
 30
0.0
 40
34.899768
100
AcDbArc
 50
247.011147
 51
285.988853
  0
ENDBLK
  5
D3F
100
AcDbEntity
  8
4
100
AcDbBlockEnd
  0
ENDSEC
  0
SECTION
  2
ENTITIES
  0
LINE
  5
2C
100
AcDbEntity
  8
1
370
   100
100
AcDbLine
 10
-373.02157
 20
275.028767
 30
0.0
 11
394.982385
 21
275.028767
 31
0.0
  0
LINE
  5
2D
100
AcDbEntity
  8
1
370
   100
100
AcDbLine
 10
-373.02157
 20
275.028767
 30
0.0
 11
-373.02157
 21
-277.971881
 31
0.0
  0
LINE
  5
2E
100
AcDbEntity
  8
1
370
   100
100
AcDbLine
 10
-373.02157
 20
-277.971881
 30
0.0
 11
394.982385
 21
-277.971881
 31
0.0
  0
LINE
  5
2F
100
AcDbEntity
  8
1
370
   100
100
AcDbLine
 10
394.982385
 20
-277.971881
 30
0.0
 11
394.982385
 21
275.028767
 31
0.0
  0
TEXT
  5
30
100
AcDbEntity
  8
1
370
    50
100
AcDbText
 10
359.628442
 20
-226.252857
 30
0.0
 40
6.0
  1
設計
 72
     5
 11
370.428442
 21
-226.252857
 31
0.0
100
AcDbText
  0
TEXT
  5
31
100
AcDbEntity
  8
1
370
    50
100
AcDbText
 10
379.127478
 20
-226.099658
 30
0.0
 40
6.0
  1
製図
 72
     5
 11
389.927478
 21
-226.099658
 31
0.0
100
AcDbText
  0
TEXT
  5
32
100
AcDbEntity
  8
1
370
    50
100
AcDbText
 10
319.005745
 20
-226.252857
 30
0.0
 40
6.0
  1
承認
 72
     5
 11
329.805745
 21
-226.252857
 31
0.0
100
AcDbText
  0
TEXT
  5
33
100
AcDbEntity
  8
1
370
    50
100
AcDbText
 10
338.989679
 20
-226.19802
 30
0.0
 40
6.0
  1
検図
 72
     5
 11
349.789679
 21
-226.19802
 31
0.0
100
AcDbText
  0
LINE
  5
34
100
AcDbEntity
  8
1
370
    25
100
AcDbLine
 10
284.982385
 20
-227.971881
 30
0.0
 11
394.982385
 21
-227.971881
 31
0.0
  0
LINE
  5
35
100
AcDbEntity
  8
1
370
    25
100
AcDbLine
 10
342.482385
 20
-245.971881
 30
0.0
 11
342.482385
 21
-259.971881
 31
0.0
  0
TEXT
  5
36
100
AcDbEntity
  8
1
370
    50
100
AcDbText
 10
319.55159
 20
-256.012528
 30
0.0
 40
6.0
  1
日　付
 72
     5
 11
336.35159
 21
-256.012528
 31
0.0
100
AcDbText
  0
LINE
  5
37
100
AcDbEntity
  8
1
370
    50
100
AcDbLine
 10
40.982385
 20
-259.971881
 30
0.0
 11
394.982385
 21
-259.971881
 31
0.0
  0
TEXT
  5
38
100
AcDbEntity
  8
1
370
    50
100
AcDbText
 10
287.775011
 20
-256.322406
 30
0.0
 40
6.0
  1
第三角法
 72
     5
 11
310.575011
 21
-256.322406
 31
0.0
100
AcDbText
  0
TEXT
  5
39
100
AcDbEntity
  8
1
370
    50
100
AcDbText
 10
291.087419
 20
-225.99802
 30
0.0
 40
6.0
  1
尺　度
 72
     5
 11
307.887419
 21
-225.99802
 31
0.0
100
AcDbText
  0
LINE
  5
3A
100
AcDbEntity
  8
1
370
   100
100
AcDbLine
 10
40.982385
 20
-217.971881
 30
0.0
 11
394.982385
 21
-217.971881
 31
0.0
  0
LINE
  5
3B
100
AcDbEntity
  8
1
370
    50
100
AcDbLine
 10
211.982385
 20
-217.971881
 30
0.0
 11
211.982385
 21
-277.971881
 31
0.0
  0
LINE
  5
3C
100
AcDbEntity
  8
1
370
    25
100
AcDbLine
 10
374.982385
 20
-245.971881
 30
0.0
 11
374.982385
 21
-217.971881
 31
0.0
  0
LINE
  5
3D
100
AcDbEntity
  8
1
370
    25
100
AcDbLine
 10
354.982385
 20
-245.971881
 30
0.0
 11
354.982385
 21
-217.971881
 31
0.0
  0
LINE
  5
3E
100
AcDbEntity
  8
1
370
    25
100
AcDbLine
 10
334.982385
 20
-245.971881
 30
0.0
 11
334.982385
 21
-217.971881
 31
0.0
  0
LINE
  5
3F
100
AcDbEntity
  8
1
370
    50
100
AcDbLine
 10
284.982385
 20
-277.971881
 30
0.0
 11
284.982385
 21
-217.971881
 31
0.0
  0
LINE
  5
40
100
AcDbEntity
  8
1
370
    50
100
AcDbLine
 10
189.982385
 20
-217.971881
 30
0.0
 11
189.982385
 21
-277.971881
 31
0.0
  0
LINE
  5
41
100
AcDbEntity
  8
1
370
    50
100
AcDbLine
 10
62.982385
 20
-217.971881
 30
0.0
 11
62.982385
 21
-259.971881
 31
0.0
  0
LINE
  5
42
100
AcDbEntity
  8
1
370
    50
100
AcDbLine
 10
284.982385
 20
-245.971881
 30
0.0
 11
394.982385
 21
-245.971881
 31
0.0
  0
TEXT
  5
43
100
AcDbEntity
  8
1
370
    50
100
AcDbText
 10
287.101129
 20
-271.880939
 30
0.0
 40
6.0
  1
コードＮｏ
 41
0.9
 72
     5
 11
313.021129
 21
-271.880939
 31
0.0
100
AcDbText
  0
TEXT
  5
44
100
AcDbEntity
  8
1
370
   100
100
AcDbText
 10
52.886774
 20
-272.875659
 30
0.0
 40
8.0
  1
ミズタニバルブ工業株式会社
 41
1.2
 72
     5
 11
175.766774
 21
-272.875659
 31
0.0
100
AcDbText
  0
LINE
  5
45
100
AcDbEntity
  8
1
370
    50
100
AcDbLine
 10
40.982385
 20
-238.971881
 30
0.0
 11
284.982385
 21
-238.971881
 31
0.0
  0
LINE
  5
46
100
AcDbEntity
  8
1
370
    50
100
AcDbLine
 10
115.482385
 20
-238.971881
 30
0.0
 11
115.482385
 21
-259.971881
 31
0.0
  0
LINE
  5
47
100
AcDbEntity
  8
1
370
    50
100
AcDbLine
 10
137.482385
 20
-238.971881
 30
0.0
 11
137.482385
 21
-259.971881
 31
0.0
  0
LINE
  5
48
100
AcDbEntity
  8
1
370
    50
100
AcDbLine
 10
314.982385
 20
-277.971881
 30
0.0
 11
314.982385
 21
-217.971881
 31
0.0
  0
TEXT
  5
49
100
AcDbEntity
  8
1
370
    50
100
AcDbText
 10
345.098131
 20
-256.100293
 30
0.0
 40
6.0
  1
　　・　　・
 72
     5
 11
379.898131
 21
-256.100293
 31
0.0
100
AcDbText
  0
LINE
  5
4A
100
AcDbEntity
  8
1
370
   100
100
AcDbLine
 10
40.982385
 20
-217.971881
 30
0.0
 11
40.982385
 21
-277.971881
 31
0.0
  0
TEXT
  5
4B
100
AcDbEntity
  8
1
370
    50
100
AcDbText
 10
290.832582
 20
-240.013492
 30
0.0
 40
6.0
  1
　／ 
 72
     5
 11
301.632582
 21
-240.013492
 31
0.0
100
AcDbText
  0
TEXT
  5
4C
100
AcDbEntity
  8
1
370
    50
100
AcDbText
 10
193.904123
 20
-272.024909
 30
0.0
 40
6.0
  1
備 考 
 72
     5
 11
207.704123
 21
-272.024909
 31
0.0
100
AcDbText
  0
TEXT
  5
4D
100
AcDbEntity
  8
1
370
    50
100
AcDbText
 10
193.512534
 20
-230.89184
 30
0.0
 40
6.0
  1
仕 上
 72
     5
 11
207.312534
 21
-230.89184
 31
0.0
100
AcDbText
  0
TEXT
  5
4E
100
AcDbEntity
  8
1
370
    50
100
AcDbText
 10
193.447176
 20
-248.891666
 30
0.0
 40
6.0
  1
表 面
 72
     5
 11
207.247176
 21
-248.891666
 31
0.0
100
AcDbText
  0
TEXT
  5
4F
100
AcDbEntity
  8
1
370
    50
100
AcDbText
 10
193.447176
 20
-255.891666
 30
0.0
 40
6.0
  1
処 理
 72
     5
 11
207.247176
 21
-255.891666
 31
0.0
100
AcDbText
  0
TEXT
  5
50
100
AcDbEntity
  8
1
370
    50
100
AcDbText
 10
44.79335
 20
-231.693399
 30
0.0
 40
6.0
  1
品 名
 72
     5
 11
58.59335
 21
-231.693399
 31
0.0
100
AcDbText
  0
TEXT
  5
51
100
AcDbEntity
  8
1
370
    50
100
AcDbText
 10
44.397766
 20
-252.462534
 30
0.0
 40
6.0
  1
材 質
 72
     5
 11
58.197766
 21
-252.462534
 31
0.0
100
AcDbText
  0
TEXT
  5
52
100
AcDbEntity
  8
1
370
    50
100
AcDbText
 10
118.897766
 20
-252.462534
 30
0.0
 40
6.0
  1
規 格
 72
     5
 11
132.697766
 21
-252.462534
 31
0.0
100
AcDbText
  0
LINE
  5
53
100
AcDbEntity
  8
3
370
    50
100
AcDbLine
 10
-30.761856
 20
-98.7108
 30
0.0
 11
-34.702287
 21
-76.363504
 31
0.0
  0
LINE
  5
54
100
AcDbEntity
  8
3
370
    50
100
AcDbLine
 10
-280.761856
 20
-98.7108
 30
0.0
 11
-276.821425
 21
-76.363504
 31
0.0
  0
ARC
  5
55
100
AcDbEntity
  8
3
370
    50
100
AcDbCircle
 10
-270.761856
 20
-71.7108
 30
0.0
 40
3.0
100
AcDbArc
 50
270.0
 51
360.0
  0
ARC
  5
56
100
AcDbEntity
  8
3
370
    50
100
AcDbCircle
 10
-240.761856
 20
-71.7108
 30
0.0
 40
3.0
100
AcDbArc
 50
180.0
 51
270.0
  0
LINE
  5
57
100
AcDbEntity
  8
3
370
    50
100
AcDbLine
 10
-274.851809
 20
-74.7108
 30
0.0
 11
-168.982356
 21
-74.7108
 31
0.0
  0
LINE
  5
58
100
AcDbEntity
  8
3
370
    50
100
AcDbLine
 10
-168.982356
 20
-72.210302
 30
0.0
 11
-168.982356
 21
-74.7108
 31
0.0
  0
LINE
  5
59
100
AcDbEntity
  8
3
370
    50
100
AcDbLine
 10
-43.761856
 20
-71.7108
 30
0.0
 11
-43.761856
 21
-71.010847
 31
0.0
  0
LINE
  5
5A
100
AcDbEntity
  8
3
370
    50
100
AcDbLine
 10
-67.761856
 20
-71.7108
 30
0.0
 11
-67.761856
 21
-71.010847
 31
0.0
  0
ARC
  5
5B
100
AcDbEntity
  8
3
370
    50
100
AcDbCircle
 10
-40.761856
 20
-71.7108
 30
0.0
 40
3.0
100
AcDbArc
 50
180.0
 51
270.0
  0
ARC
  5
5C
100
AcDbEntity
  8
3
370
    50
100
AcDbCircle
 10
-70.761856
 20
-71.7108
 30
0.0
 40
3.0
100
AcDbArc
 50
270.0
 51
360.0
  0
LINE
  5
5D
100
AcDbEntity
  8
3
370
    50
100
AcDbLine
 10
-155.761856
 20
-74.7108
 30
0.0
 11
-36.671903
 21
-74.7108
 31
0.0
  0
ARC
  5
5E
100
AcDbEntity
  8
3
370
    50
100
AcDbCircle
 10
-274.851809
 20
-76.7108
 30
0.0
 40
2.0
100
AcDbArc
 50
90.0
 51
170.0
  0
ARC
  5
5F
100
AcDbEntity
  8
3
370
    50
100
AcDbCircle
 10
-36.671903
 20
-76.7108
 30
0.0
 40
2.0
100
AcDbArc
 50
10.0
 51
90.0
  0
LINE
  5
60
100
AcDbEntity
  8
3
370
    50
100
AcDbLine
 10
319.238144
 20
-98.7108
 30
0.0
 11
369.238144
 21
-98.7108
 31
0.0
  0
LINE
  5
61
100
AcDbEntity
  8
3
370
    50
100
AcDbLine
 10
369.238144
 20
-98.7108
 30
0.0
 11
365.297713
 21
-76.363504
 31
0.0
  0
LINE
  5
62
100
AcDbEntity
  8
3
370
    50
100
AcDbLine
 10
363.328097
 20
-74.7108
 30
0.0
 11
325.148191
 21
-74.7108
 31
0.0
  0
ARC
  5
63
100
AcDbEntity
  8
3
370
    50
100
AcDbCircle
 10
363.328097
 20
-76.7108
 30
0.0
 40
2.0
100
AcDbArc
 50
10.0
 51
90.0
  0
LINE
  5
64
100
AcDbEntity
  8
3
370
    25
  6
CENTER
100
AcDbLine
 10
344.238144
 20
-57.842447
 30
0.0
 11
344.238144
 21
-172.361832
 31
0.0
  0
LINE
  5
65
100
AcDbEntity
  8
3
370
    50
100
AcDbLine
 10
319.238144
 20
-98.7108
 30
0.0
 11
323.178575
 21
-76.363504
 31
0.0
  0
ARC
  5
66
100
AcDbEntity
  8
3
370
    50
100
AcDbCircle
 10
325.148191
 20
-76.7108
 30
0.0
 40
2.0
100
AcDbArc
 50
90.0
 51
170.0
  0
LINE
  5
67
100
AcDbEntity
  8
3
370
    50
100
AcDbLine
 10
-243.761856
 20
-71.7108
 30
0.0
 11
-243.761856
 21
-71.010847
 31
0.0
  0
LINE
  5
68
100
AcDbEntity
  8
3
370
    50
100
AcDbLine
 10
-267.761856
 20
-71.7108
 30
0.0
 11
-267.761856
 21
-71.010847
 31
0.0
  0
LINE
  5
69
100
AcDbEntity
  8
3
370
    50
100
AcDbLine
 10
-280.761856
 20
-98.7108
 30
0.0
 11
-30.761856
 21
-98.7108
 31
0.0
  0
LINE
  5
6A
100
AcDbEntity
  8
3
370
    25
  6
CENTER
100
AcDbLine
 10
-55.761856
 20
-17.722401
 30
0.0
 11
-55.761856
 21
-178.939144
 31
0.0
  0
LINE
  5
6B
100
AcDbEntity
  8
3
370
    50
100
AcDbLine
 10
-45.984356
 20
-101.7108
 30
0.0
 11
-46.484356
 21
-102.2108
 31
0.0
  0
LINE
  5
6C
100
AcDbEntity
  8
3
370
    50
100
AcDbLine
 10
-65.539356
 20
-101.7108
 30
0.0
 11
-65.039356
 21
-102.2108
 31
0.0
  0
LINE
  5
6D
100
AcDbEntity
  8
3
370
    50
100
AcDbLine
 10
-46.484356
 20
-102.2108
 30
0.0
 11
-65.039356
 21
-102.2108
 31
0.0
  0
LINE
  5
6E
100
AcDbEntity
  8
3
370
    50
100
AcDbLine
 10
-33.761856
 20
-98.7108
 30
0.0
 11
-33.761856
 21
-101.7108
 31
0.0
  0
LINE
  5
6F
100
AcDbEntity
  8
3
370
    50
100
AcDbLine
 10
-277.761856
 20
-98.7108
 30
0.0
 11
-277.761856
 21
-101.7108
 31
0.0
  0
LINE
  5
70
100
AcDbEntity
  8
3
370
    50
100
AcDbLine
 10
-73.262303
 20
-127.5108
 30
0.0
 11
-73.262303
 21
-126.0108
 31
0.0
  0
LINE
  5
71
100
AcDbEntity
  8
3
370
    50
100
AcDbLine
 10
-55.762303
 20
-126.0108
 30
0.0
 11
-73.262303
 21
-126.0108
 31
0.0
  0
LINE
  5
72
100
AcDbEntity
  8
3
370
    50
100
AcDbLine
 10
-55.762303
 20
-127.5108
 30
0.0
 11
-73.262303
 21
-127.5108
 31
0.0
  0
LINE
  5
73
100
AcDbEntity
  8
3
370
    50
100
AcDbLine
 10
-67.762303
 20
-136.2108
 30
0.0
 11
-55.762303
 21
-136.2108
 31
0.0
  0
LINE
  5
74
100
AcDbEntity
  8
3
370
    50
100
AcDbLine
 10
-69.512303
 20
-135.200437
 30
0.0
 11
-69.512303
 21
-129.7108
 31
0.0
  0
LINE
  5
75
100
AcDbEntity
  8
3
370
    50
100
AcDbLine
 10
-67.762303
 20
-136.2108
 30
0.0
 11
-69.512303
 21
-135.200437
 31
0.0
  0
LINE
  5
76
100
AcDbEntity
  8
3
370
    50
100
AcDbLine
 10
-75.762303
 20
-129.2108
 30
0.0
 11
-75.762303
 21
-128.0108
 31
0.0
  0
LINE
  5
77
100
AcDbEntity
  8
3
370
    50
100
AcDbLine
 10
-55.762303
 20
-129.7108
 30
0.0
 11
-70.082854
 21
-129.7108
 31
0.0
  0
LINE
  5
78
100
AcDbEntity
  8
3
370
    50
100
AcDbLine
 10
-75.762303
 20
-128.0108
 30
0.0
 11
-55.762303
 21
-128.0108
 31
0.0
  0
LINE
  5
79
100
AcDbEntity
  8
3
370
    50
100
AcDbLine
 10
-75.762303
 20
-129.2108
 30
0.0
 11
-55.762303
 21
-129.2108
 31
0.0
  0
ARC
  5
7A
100
AcDbEntity
  8
3
370
    50
100
AcDbCircle
 10
-70.082854
 20
-124.7108
 30
0.0
 40
5.0
100
AcDbArc
 50
246.443536
 51
270.0
  0
ARC
  5
7B
100
AcDbEntity
  8
3
370
    50
100
AcDbCircle
 10
-70.082854
 20
-132.5108
 30
0.0
 40
5.0
100
AcDbArc
 50
90.0
 51
113.556464
  0
ARC
  5
7C
100
AcDbEntity
  8
3
370
    50
100
AcDbCircle
 10
-72.480769
 20
-130.2108
 30
0.0
 40
1.0
100
AcDbArc
 50
66.443536
 51
90.0
  0
ARC
  5
7D
100
AcDbEntity
  8
3
370
    50
100
AcDbCircle
 10
-72.480769
 20
-127.0108
 30
0.0
 40
1.0
100
AcDbArc
 50
270.0
 51
293.556464
  0
LINE
  5
7E
100
AcDbEntity
  8
3
370
    50
100
AcDbLine
 10
-62.762303
 20
-135.200437
 30
0.0
 11
-62.762303
 21
-129.7108
 31
0.0
  0
ARC
  5
7F
100
AcDbEntity
  8
3
370
    50
100
AcDbCircle
 10
-55.762303
 20
-111.456907
 30
0.0
 40
24.753893
100
AcDbArc
 50
253.573579
 51
270.0
  0
ARC
  5
80
100
AcDbEntity
  8
3
370
    50
100
AcDbCircle
 10
-66.137303
 20
-130.068721
 30
0.0
 40
6.142079
100
AcDbArc
 50
236.668091
 51
303.331909
  0
ARC
  5
81
100
AcDbEntity
  8
3
370
    50
100
AcDbCircle
 10
-55.762303
 20
-113.4608
 30
0.0
 40
16.25
100
AcDbArc
 50
255.749967
 51
270.0
  0
ARC
  5
82
100
AcDbEntity
  8
3
370
    50
100
AcDbCircle
 10
-64.012303
 20
-113.4608
 30
0.0
 40
16.25
100
AcDbArc
 50
255.749967
 51
277.069714
  0
ARC
  5
83
100
AcDbEntity
  8
3
370
    50
100
AcDbCircle
 10
-60.012303
 20
-113.4608
 30
0.0
 40
16.25
100
AcDbArc
 50
255.749967
 51
277.514045
  0
ARC
  5
84
100
AcDbEntity
  8
3
370
    50
100
AcDbCircle
 10
-68.012303
 20
-113.4608
 30
0.0
 40
16.25
100
AcDbArc
 50
270.0
 51
277.069714
  0
ARC
  5
85
100
AcDbEntity
  8
3
370
    50
100
AcDbCircle
 10
-55.762303
 20
-143.7608
 30
0.0
 40
16.25
100
AcDbArc
 50
90.0
 51
104.250033
  0
ARC
  5
86
100
AcDbEntity
  8
3
370
    50
100
AcDbCircle
 10
-60.012303
 20
-143.7608
 30
0.0
 40
16.25
100
AcDbArc
 50
82.485955
 51
104.250033
  0
ARC
  5
87
100
AcDbEntity
  8
3
370
    50
100
AcDbCircle
 10
-64.012303
 20
-143.7608
 30
0.0
 40
16.25
100
AcDbArc
 50
82.930286
 51
104.250033
  0
ARC
  5
88
100
AcDbEntity
  8
3
370
    50
100
AcDbCircle
 10
-68.012303
 20
-143.7608
 30
0.0
 40
16.25
100
AcDbArc
 50
82.930286
 51
90.0
  0
LINE
  5
89
100
AcDbEntity
  8
3
370
    50
100
AcDbLine
 10
-67.261856
 20
-167.510845
 30
0.0
 11
-55.761856
 21
-167.510845
 31
0.0
  0
ARC
  5
8A
100
AcDbEntity
  8
3
370
    50
100
AcDbCircle
 10
-53.486856
 20
-161.510845
 30
0.0
 40
15.025
100
AcDbArc
 50
156.463422
 51
203.536578
  0
LINE
  5
8B
100
AcDbEntity
  8
3
370
    50
100
AcDbLine
 10
-67.261856
 20
-155.510845
 30
0.0
 11
-55.761856
 21
-155.510845
 31
0.0
  0
ELLIPSE
  5
8C
100
AcDbEntity
  8
3
370
    50
100
AcDbEllipse
 10
-65.721148
 20
-161.510845
 30
0.0
 11
0.0
 21
6.0
 31
0.0
210
0.0
220
0.0
230
1.0
 40
0.458833
 41
0.0
 42
6.2831849999999996
  0
ELLIPSE
  5
8D
100
AcDbEntity
  8
3
370
    50
100
AcDbEllipse
 10
-55.761856
 20
-161.510845
 30
0.0
 11
0.0
 21
6.0
 31
0.0
210
0.0
220
0.0
230
1.0
 40
0.926667
 41
0.0
 42
3.1415929999999999
  0
LINE
  5
8E
100
AcDbEntity
  8
3
370
    50
100
AcDbLine
 10
-38.261409
 20
-127.5108
 30
0.0
 11
-38.261409
 21
-126.0108
 31
0.0
  0
LINE
  5
8F
100
AcDbEntity
  8
3
370
    50
100
AcDbLine
 10
-55.761409
 20
-126.0108
 30
0.0
 11
-38.261409
 21
-126.0108
 31
0.0
  0
LINE
  5
90
100
AcDbEntity
  8
3
370
    50
100
AcDbLine
 10
-55.761409
 20
-127.5108
 30
0.0
 11
-38.261409
 21
-127.5108
 31
0.0
  0
LINE
  5
91
100
AcDbEntity
  8
3
370
    50
100
AcDbLine
 10
-43.761409
 20
-136.2108
 30
0.0
 11
-55.761409
 21
-136.2108
 31
0.0
  0
LINE
  5
92
100
AcDbEntity
  8
3
370
    50
100
AcDbLine
 10
-42.011409
 20
-135.200437
 30
0.0
 11
-42.011409
 21
-129.7108
 31
0.0
  0
LINE
  5
93
100
AcDbEntity
  8
3
370
    50
100
AcDbLine
 10
-43.761409
 20
-136.2108
 30
0.0
 11
-42.011409
 21
-135.200437
 31
0.0
  0
LINE
  5
94
100
AcDbEntity
  8
3
370
    50
100
AcDbLine
 10
-35.761409
 20
-129.2108
 30
0.0
 11
-35.761409
 21
-128.0108
 31
0.0
  0
LINE
  5
95
100
AcDbEntity
  8
3
370
    50
100
AcDbLine
 10
-55.761409
 20
-129.7108
 30
0.0
 11
-41.440858
 21
-129.7108
 31
0.0
  0
LINE
  5
96
100
AcDbEntity
  8
3
370
    50
100
AcDbLine
 10
-35.761409
 20
-128.0108
 30
0.0
 11
-55.761409
 21
-128.0108
 31
0.0
  0
LINE
  5
97
100
AcDbEntity
  8
3
370
    50
100
AcDbLine
 10
-35.761409
 20
-129.2108
 30
0.0
 11
-55.761409
 21
-129.2108
 31
0.0
  0
ARC
  5
98
100
AcDbEntity
  8
3
370
    50
100
AcDbCircle
 10
-41.440858
 20
-124.7108
 30
0.0
 40
5.0
100
AcDbArc
 50
270.0
 51
293.556464
  0
ARC
  5
99
100
AcDbEntity
  8
3
370
    50
100
AcDbCircle
 10
-41.440858
 20
-132.5108
 30
0.0
 40
5.0
100
AcDbArc
 50
66.443536
 51
90.0
  0
ARC
  5
9A
100
AcDbEntity
  8
3
370
    50
100
AcDbCircle
 10
-39.042943
 20
-130.2108
 30
0.0
 40
1.0
100
AcDbArc
 50
90.0
 51
113.556464
  0
ARC
  5
9B
100
AcDbEntity
  8
3
370
    50
100
AcDbCircle
 10
-39.042943
 20
-127.0108
 30
0.0
 40
1.0
100
AcDbArc
 50
246.443536
 51
270.0
  0
LINE
  5
9C
100
AcDbEntity
  8
3
370
    50
100
AcDbLine
 10
-48.761409
 20
-135.200437
 30
0.0
 11
-48.761409
 21
-129.7108
 31
0.0
  0
ARC
  5
9D
100
AcDbEntity
  8
3
370
    50
100
AcDbCircle
 10
-55.761409
 20
-111.456907
 30
0.0
 40
24.753893
100
AcDbArc
 50
270.0
 51
286.426421
  0
ARC
  5
9E
100
AcDbEntity
  8
3
370
    50
100
AcDbCircle
 10
-45.386409
 20
-130.068721
 30
0.0
 40
6.142079
100
AcDbArc
 50
236.668091
 51
303.331909
  0
ARC
  5
9F
100
AcDbEntity
  8
3
370
    50
100
AcDbCircle
 10
-47.511409
 20
-113.4608
 30
0.0
 40
16.25
100
AcDbArc
 50
262.930286
 51
284.250033
  0
ARC
  5
A0
100
AcDbEntity
  8
3
370
    50
100
AcDbCircle
 10
-51.511409
 20
-113.4608
 30
0.0
 40
16.25
100
AcDbArc
 50
262.485955
 51
284.250033
  0
ARC
  5
A1
100
AcDbEntity
  8
3
370
    50
100
AcDbCircle
 10
-43.511409
 20
-113.4608
 30
0.0
 40
16.25
100
AcDbArc
 50
262.930286
 51
270.0
  0
ARC
  5
A2
100
AcDbEntity
  8
3
370
    50
100
AcDbCircle
 10
-51.511409
 20
-143.7608
 30
0.0
 40
16.25
100
AcDbArc
 50
75.749967
 51
97.514045
  0
ARC
  5
A3
100
AcDbEntity
  8
3
370
    50
100
AcDbCircle
 10
-47.511409
 20
-143.7608
 30
0.0
 40
16.25
100
AcDbArc
 50
75.749967
 51
97.069714
  0
ARC
  5
A4
100
AcDbEntity
  8
3
370
    50
100
AcDbCircle
 10
-43.511409
 20
-143.7608
 30
0.0
 40
16.25
100
AcDbArc
 50
90.0
 51
97.069714
  0
LINE
  5
A5
100
AcDbEntity
  8
3
370
    50
100
AcDbLine
 10
-44.261856
 20
-167.510845
 30
0.0
 11
-55.761856
 21
-167.510845
 31
0.0
  0
ARC
  5
A6
100
AcDbEntity
  8
3
370
    50
100
AcDbCircle
 10
-58.036856
 20
-161.510845
 30
0.0
 40
15.025
100
AcDbArc
 50
336.463422
 51
23.536578
  0
LINE
  5
A7
100
AcDbEntity
  8
3
370
    50
100
AcDbLine
 10
-44.261856
 20
-155.510845
 30
0.0
 11
-55.761856
 21
-155.510845
 31
0.0
  0
ELLIPSE
  5
A8
100
AcDbEntity
  8
3
370
    50
100
AcDbEllipse
 10
-45.802564
 20
-161.510845
 30
0.0
 11
0.0
 21
6.0
 31
0.0
210
0.0
220
0.0
230
1.0
 40
0.458833
 41
0.0
 42
6.2831849999999996
  0
ELLIPSE
  5
A9
100
AcDbEntity
  8
3
370
    50
100
AcDbEllipse
 10
-55.761856
 20
-161.510845
 30
0.0
 11
0.0
 21
6.0
 31
0.0
210
0.0
220
0.0
230
1.0
 40
0.926667
 41
3.1415929999999999
 42
0.0
  0
LINE
  5
AA
100
AcDbEntity
  8
3
370
    50
100
AcDbLine
 10
-45.284356
 20
-155.510845
 30
0.0
 11
-45.284356
 21
-136.2108
 31
0.0
  0
LINE
  5
AB
100
AcDbEntity
  8
3
370
    50
100
AcDbLine
 10
-45.284356
 20
-126.0108
 30
0.0
 11
-45.284356
 21
-101.7108
 31
0.0
  0
LINE
  5
AC
100
AcDbEntity
  8
3
370
    25
100
AcDbLine
 10
-46.484356
 20
-155.510845
 30
0.0
 11
-46.484356
 21
-136.2108
 31
0.0
  0
LINE
  5
AD
100
AcDbEntity
  8
3
370
    25
100
AcDbLine
 10
-46.484356
 20
-126.0108
 30
0.0
 11
-46.484356
 21
-102.2108
 31
0.0
  0
LINE
  5
AE
100
AcDbEntity
  8
3
370
    50
100
AcDbLine
 10
-66.239356
 20
-155.510845
 30
0.0
 11
-66.239356
 21
-136.2108
 31
0.0
  0
LINE
  5
AF
100
AcDbEntity
  8
3
370
    50
100
AcDbLine
 10
-66.239356
 20
-126.0108
 30
0.0
 11
-66.239356
 21
-101.7108
 31
0.0
  0
LINE
  5
B0
100
AcDbEntity
  8
3
370
    25
100
AcDbLine
 10
-65.039356
 20
-155.510845
 30
0.0
 11
-65.039356
 21
-136.2108
 31
0.0
  0
LINE
  5
B1
100
AcDbEntity
  8
3
370
    25
100
AcDbLine
 10
-65.039356
 20
-126.0108
 30
0.0
 11
-65.039356
 21
-102.2108
 31
0.0
  0
LINE
  5
B2
100
AcDbEntity
  8
3
370
    50
100
AcDbLine
 10
354.015644
 20
-101.7108
 30
0.0
 11
353.515644
 21
-102.2108
 31
0.0
  0
LINE
  5
B3
100
AcDbEntity
  8
3
370
    50
100
AcDbLine
 10
334.460644
 20
-101.7108
 30
0.0
 11
334.960644
 21
-102.2108
 31
0.0
  0
LINE
  5
B4
100
AcDbEntity
  8
3
370
    50
100
AcDbLine
 10
353.515644
 20
-102.2108
 30
0.0
 11
334.960644
 21
-102.2108
 31
0.0
  0
LINE
  5
B5
100
AcDbEntity
  8
3
370
    50
100
AcDbLine
 10
326.737697
 20
-127.5108
 30
0.0
 11
326.737697
 21
-126.0108
 31
0.0
  0
LINE
  5
B6
100
AcDbEntity
  8
3
370
    50
100
AcDbLine
 10
344.237697
 20
-126.0108
 30
0.0
 11
326.737697
 21
-126.0108
 31
0.0
  0
LINE
  5
B7
100
AcDbEntity
  8
3
370
    50
100
AcDbLine
 10
344.237697
 20
-127.5108
 30
0.0
 11
326.737697
 21
-127.5108
 31
0.0
  0
LINE
  5
B8
100
AcDbEntity
  8
3
370
    50
100
AcDbLine
 10
332.237697
 20
-136.2108
 30
0.0
 11
344.237697
 21
-136.2108
 31
0.0
  0
LINE
  5
B9
100
AcDbEntity
  8
3
370
    50
100
AcDbLine
 10
330.487697
 20
-135.200437
 30
0.0
 11
330.487697
 21
-129.7108
 31
0.0
  0
LINE
  5
BA
100
AcDbEntity
  8
3
370
    50
100
AcDbLine
 10
332.237697
 20
-136.2108
 30
0.0
 11
330.487697
 21
-135.200437
 31
0.0
  0
LINE
  5
BB
100
AcDbEntity
  8
3
370
    50
100
AcDbLine
 10
324.237697
 20
-129.2108
 30
0.0
 11
324.237697
 21
-128.0108
 31
0.0
  0
LINE
  5
BC
100
AcDbEntity
  8
3
370
    50
100
AcDbLine
 10
344.237697
 20
-129.7108
 30
0.0
 11
329.917146
 21
-129.7108
 31
0.0
  0
LINE
  5
BD
100
AcDbEntity
  8
3
370
    50
100
AcDbLine
 10
324.237697
 20
-128.0108
 30
0.0
 11
344.237697
 21
-128.0108
 31
0.0
  0
LINE
  5
BE
100
AcDbEntity
  8
3
370
    50
100
AcDbLine
 10
324.237697
 20
-129.2108
 30
0.0
 11
344.237697
 21
-129.2108
 31
0.0
  0
ARC
  5
BF
100
AcDbEntity
  8
3
370
    50
100
AcDbCircle
 10
329.917146
 20
-124.7108
 30
0.0
 40
5.0
100
AcDbArc
 50
246.443536
 51
270.0
  0
ARC
  5
C0
100
AcDbEntity
  8
3
370
    50
100
AcDbCircle
 10
329.917146
 20
-132.5108
 30
0.0
 40
5.0
100
AcDbArc
 50
90.0
 51
113.556464
  0
ARC
  5
C1
100
AcDbEntity
  8
3
370
    50
100
AcDbCircle
 10
327.519231
 20
-130.2108
 30
0.0
 40
1.0
100
AcDbArc
 50
66.443536
 51
90.0
  0
ARC
  5
C2
100
AcDbEntity
  8
3
370
    50
100
AcDbCircle
 10
327.519231
 20
-127.0108
 30
0.0
 40
1.0
100
AcDbArc
 50
270.0
 51
293.556464
  0
LINE
  5
C3
100
AcDbEntity
  8
3
370
    50
100
AcDbLine
 10
337.237697
 20
-135.200437
 30
0.0
 11
337.237697
 21
-129.7108
 31
0.0
  0
ARC
  5
C4
100
AcDbEntity
  8
3
370
    50
100
AcDbCircle
 10
344.237697
 20
-111.456907
 30
0.0
 40
24.753893
100
AcDbArc
 50
253.573579
 51
270.0
  0
ARC
  5
C5
100
AcDbEntity
  8
3
370
    50
100
AcDbCircle
 10
333.862697
 20
-130.068721
 30
0.0
 40
6.142079
100
AcDbArc
 50
236.668091
 51
303.331909
  0
ARC
  5
C6
100
AcDbEntity
  8
3
370
    50
100
AcDbCircle
 10
344.237697
 20
-113.4608
 30
0.0
 40
16.25
100
AcDbArc
 50
255.749967
 51
270.0
  0
ARC
  5
C7
100
AcDbEntity
  8
3
370
    50
100
AcDbCircle
 10
335.987697
 20
-113.4608
 30
0.0
 40
16.25
100
AcDbArc
 50
255.749967
 51
277.069714
  0
ARC
  5
C8
100
AcDbEntity
  8
3
370
    50
100
AcDbCircle
 10
339.987697
 20
-113.4608
 30
0.0
 40
16.25
100
AcDbArc
 50
255.749967
 51
277.514045
  0
ARC
  5
C9
100
AcDbEntity
  8
3
370
    50
100
AcDbCircle
 10
331.987697
 20
-113.4608
 30
0.0
 40
16.25
100
AcDbArc
 50
270.0
 51
277.069714
  0
ARC
  5
CA
100
AcDbEntity
  8
3
370
    50
100
AcDbCircle
 10
344.237697
 20
-143.7608
 30
0.0
 40
16.25
100
AcDbArc
 50
90.0
 51
104.250033
  0
ARC
  5
CB
100
AcDbEntity
  8
3
370
    50
100
AcDbCircle
 10
339.987697
 20
-143.7608
 30
0.0
 40
16.25
100
AcDbArc
 50
82.485955
 51
104.250033
  0
ARC
  5
CC
100
AcDbEntity
  8
3
370
    50
100
AcDbCircle
 10
335.987697
 20
-143.7608
 30
0.0
 40
16.25
100
AcDbArc
 50
82.930286
 51
104.250033
  0
ARC
  5
CD
100
AcDbEntity
  8
3
370
    50
100
AcDbCircle
 10
331.987697
 20
-143.7608
 30
0.0
 40
16.25
100
AcDbArc
 50
82.930286
 51
90.0
  0
LINE
  5
CE
100
AcDbEntity
  8
3
370
    50
100
AcDbLine
 10
332.738144
 20
-167.510845
 30
0.0
 11
344.238144
 21
-167.510845
 31
0.0
  0
ARC
  5
CF
100
AcDbEntity
  8
3
370
    50
100
AcDbCircle
 10
346.513144
 20
-161.510845
 30
0.0
 40
15.025
100
AcDbArc
 50
156.463422
 51
203.536578
  0
LINE
  5
D0
100
AcDbEntity
  8
3
370
    50
100
AcDbLine
 10
332.738144
 20
-155.510845
 30
0.0
 11
344.238144
 21
-155.510845
 31
0.0
  0
ELLIPSE
  5
D1
100
AcDbEntity
  8
3
370
    50
100
AcDbEllipse
 10
334.278852
 20
-161.510845
 30
0.0
 11
0.0
 21
6.0
 31
0.0
210
0.0
220
0.0
230
1.0
 40
0.458833
 41
0.0
 42
6.2831849999999996
  0
ELLIPSE
  5
D2
100
AcDbEntity
  8
3
370
    50
100
AcDbEllipse
 10
344.238144
 20
-161.510845
 30
0.0
 11
0.0
 21
6.0
 31
0.0
210
0.0
220
0.0
230
1.0
 40
0.926667
 41
0.0
 42
3.1415929999999999
  0
LINE
  5
D3
100
AcDbEntity
  8
3
370
    50
100
AcDbLine
 10
361.738591
 20
-127.5108
 30
0.0
 11
361.738591
 21
-126.0108
 31
0.0
  0
LINE
  5
D4
100
AcDbEntity
  8
3
370
    50
100
AcDbLine
 10
344.238591
 20
-126.0108
 30
0.0
 11
361.738591
 21
-126.0108
 31
0.0
  0
LINE
  5
D5
100
AcDbEntity
  8
3
370
    50
100
AcDbLine
 10
344.238591
 20
-127.5108
 30
0.0
 11
361.738591
 21
-127.5108
 31
0.0
  0
LINE
  5
D6
100
AcDbEntity
  8
3
370
    50
100
AcDbLine
 10
356.238591
 20
-136.2108
 30
0.0
 11
344.238591
 21
-136.2108
 31
0.0
  0
LINE
  5
D7
100
AcDbEntity
  8
3
370
    50
100
AcDbLine
 10
357.988591
 20
-135.200437
 30
0.0
 11
357.988591
 21
-129.7108
 31
0.0
  0
LINE
  5
D8
100
AcDbEntity
  8
3
370
    50
100
AcDbLine
 10
356.238591
 20
-136.2108
 30
0.0
 11
357.988591
 21
-135.200437
 31
0.0
  0
LINE
  5
D9
100
AcDbEntity
  8
3
370
    50
100
AcDbLine
 10
364.238591
 20
-129.2108
 30
0.0
 11
364.238591
 21
-128.0108
 31
0.0
  0
LINE
  5
DA
100
AcDbEntity
  8
3
370
    50
100
AcDbLine
 10
344.238591
 20
-129.7108
 30
0.0
 11
358.559142
 21
-129.7108
 31
0.0
  0
LINE
  5
DB
100
AcDbEntity
  8
3
370
    50
100
AcDbLine
 10
364.238591
 20
-128.0108
 30
0.0
 11
344.238591
 21
-128.0108
 31
0.0
  0
LINE
  5
DC
100
AcDbEntity
  8
3
370
    50
100
AcDbLine
 10
364.238591
 20
-129.2108
 30
0.0
 11
344.238591
 21
-129.2108
 31
0.0
  0
ARC
  5
DD
100
AcDbEntity
  8
3
370
    50
100
AcDbCircle
 10
358.559142
 20
-124.7108
 30
0.0
 40
5.0
100
AcDbArc
 50
270.0
 51
293.556464
  0
ARC
  5
DE
100
AcDbEntity
  8
3
370
    50
100
AcDbCircle
 10
358.559142
 20
-132.5108
 30
0.0
 40
5.0
100
AcDbArc
 50
66.443536
 51
90.0
  0
ARC
  5
DF
100
AcDbEntity
  8
3
370
    50
100
AcDbCircle
 10
360.957057
 20
-130.2108
 30
0.0
 40
1.0
100
AcDbArc
 50
90.0
 51
113.556464
  0
ARC
  5
E0
100
AcDbEntity
  8
3
370
    50
100
AcDbCircle
 10
360.957057
 20
-127.0108
 30
0.0
 40
1.0
100
AcDbArc
 50
246.443536
 51
270.0
  0
LINE
  5
E1
100
AcDbEntity
  8
3
370
    50
100
AcDbLine
 10
351.238591
 20
-135.200437
 30
0.0
 11
351.238591
 21
-129.7108
 31
0.0
  0
ARC
  5
E2
100
AcDbEntity
  8
3
370
    50
100
AcDbCircle
 10
344.238591
 20
-111.456907
 30
0.0
 40
24.753893
100
AcDbArc
 50
270.0
 51
286.426421
  0
ARC
  5
E3
100
AcDbEntity
  8
3
370
    50
100
AcDbCircle
 10
354.613591
 20
-130.068721
 30
0.0
 40
6.142079
100
AcDbArc
 50
236.668091
 51
303.331909
  0
ARC
  5
E4
100
AcDbEntity
  8
3
370
    50
100
AcDbCircle
 10
352.488591
 20
-113.4608
 30
0.0
 40
16.25
100
AcDbArc
 50
262.930286
 51
284.250033
  0
ARC
  5
E5
100
AcDbEntity
  8
3
370
    50
100
AcDbCircle
 10
348.488591
 20
-113.4608
 30
0.0
 40
16.25
100
AcDbArc
 50
262.485955
 51
284.250033
  0
ARC
  5
E6
100
AcDbEntity
  8
3
370
    50
100
AcDbCircle
 10
356.488591
 20
-113.4608
 30
0.0
 40
16.25
100
AcDbArc
 50
262.930286
 51
270.0
  0
ARC
  5
E7
100
AcDbEntity
  8
3
370
    50
100
AcDbCircle
 10
348.488591
 20
-143.7608
 30
0.0
 40
16.25
100
AcDbArc
 50
75.749967
 51
97.514045
  0
ARC
  5
E8
100
AcDbEntity
  8
3
370
    50
100
AcDbCircle
 10
352.488591
 20
-143.7608
 30
0.0
 40
16.25
100
AcDbArc
 50
75.749967
 51
97.069714
  0
ARC
  5
E9
100
AcDbEntity
  8
3
370
    50
100
AcDbCircle
 10
356.488591
 20
-143.7608
 30
0.0
 40
16.25
100
AcDbArc
 50
90.0
 51
97.069714
  0
LINE
  5
EA
100
AcDbEntity
  8
3
370
    50
100
AcDbLine
 10
355.738144
 20
-167.510845
 30
0.0
 11
344.238144
 21
-167.510845
 31
0.0
  0
ARC
  5
EB
100
AcDbEntity
  8
3
370
    50
100
AcDbCircle
 10
341.963144
 20
-161.510845
 30
0.0
 40
15.025
100
AcDbArc
 50
336.463422
 51
23.536578
  0
LINE
  5
EC
100
AcDbEntity
  8
3
370
    50
100
AcDbLine
 10
355.738144
 20
-155.510845
 30
0.0
 11
344.238144
 21
-155.510845
 31
0.0
  0
ELLIPSE
  5
ED
100
AcDbEntity
  8
3
370
    50
100
AcDbEllipse
 10
354.197436
 20
-161.510845
 30
0.0
 11
0.0
 21
6.0
 31
0.0
210
0.0
220
0.0
230
1.0
 40
0.458833
 41
0.0
 42
6.2831849999999996
  0
ELLIPSE
  5
EE
100
AcDbEntity
  8
3
370
    50
100
AcDbEllipse
 10
344.238144
 20
-161.510845
 30
0.0
 11
0.0
 21
6.0
 31
0.0
210
0.0
220
0.0
230
1.0
 40
0.926667
 41
3.1415929999999999
 42
0.0
  0
LINE
  5
EF
100
AcDbEntity
  8
3
370
    50
100
AcDbLine
 10
354.715644
 20
-155.510845
 30
0.0
 11
354.715644
 21
-136.2108
 31
0.0
  0
LINE
  5
F0
100
AcDbEntity
  8
3
370
    50
100
AcDbLine
 10
354.715644
 20
-126.0108
 30
0.0
 11
354.715644
 21
-101.7108
 31
0.0
  0
LINE
  5
F1
100
AcDbEntity
  8
3
370
    25
100
AcDbLine
 10
353.515644
 20
-155.510845
 30
0.0
 11
353.515644
 21
-136.2108
 31
0.0
  0
LINE
  5
F2
100
AcDbEntity
  8
3
370
    25
100
AcDbLine
 10
353.515644
 20
-126.0108
 30
0.0
 11
353.515644
 21
-102.2108
 31
0.0
  0
LINE
  5
F3
100
AcDbEntity
  8
3
370
    50
100
AcDbLine
 10
333.760644
 20
-155.510845
 30
0.0
 11
333.760644
 21
-136.2108
 31
0.0
  0
LINE
  5
F4
100
AcDbEntity
  8
3
370
    50
100
AcDbLine
 10
333.760644
 20
-126.0108
 30
0.0
 11
333.760644
 21
-101.7108
 31
0.0
  0
LINE
  5
F5
100
AcDbEntity
  8
3
370
    25
100
AcDbLine
 10
334.960644
 20
-155.510845
 30
0.0
 11
334.960644
 21
-136.2108
 31
0.0
  0
LINE
  5
F6
100
AcDbEntity
  8
3
370
    25
100
AcDbLine
 10
334.960644
 20
-126.0108
 30
0.0
 11
334.960644
 21
-102.2108
 31
0.0
  0
LINE
  5
F7
100
AcDbEntity
  8
3
370
    50
100
AcDbLine
 10
-277.761856
 20
-101.7108
 30
0.0
 11
-33.761856
 21
-101.7108
 31
0.0
  0
LINE
  5
F8
100
AcDbEntity
  8
3
370
    50
100
AcDbLine
 10
319.238144
 20
-101.7108
 30
0.0
 11
369.238144
 21
-101.7108
 31
0.0
  0
LINE
  5
F9
100
AcDbEntity
  8
3
370
    50
100
AcDbLine
 10
-255.761783
 20
245.834202
 30
0.0
 11
-55.761783
 21
245.834202
 31
0.0
  0
LINE
  5
FA
100
AcDbEntity
  8
3
370
    25
  6
CENTER
100
AcDbLine
 10
-289.799591
 20
220.834202
 30
0.0
 11
-21.721565
 21
220.834202
 31
0.0
  0
POINT
  5
FB
100
AcDbEntity
  8
3
370
    50
100
AcDbPoint
 10
-55.761314
 20
220.834034
 30
0.0
  0
POINT
  5
FC
100
AcDbEntity
  8
3
370
    50
100
AcDbPoint
 10
-55.761783
 20
220.834202
 30
0.0
  0
POINT
  5
FD
100
AcDbEntity
  8
3
370
    50
100
AcDbPoint
 10
-155.762195
 20
220.834138
 30
0.0
  0
POINT
  5
FE
100
AcDbEntity
  8
3
370
    50
100
AcDbPoint
 10
-155.761783
 20
220.834202
 30
0.0
  0
LINE
  5
FF
100
AcDbEntity
  8
3
370
    50
100
AcDbLine
 10
-241.338836
 20
200.066202
 30
0.0
 11
-153.875377
 21
200.066202
 31
0.0
  0
LINE
  5
100
100
AcDbEntity
  8
3
370
    50
100
AcDbLine
 10
-255.761783
 20
195.834202
 30
0.0
 11
-151.432031
 21
195.834202
 31
0.0
  0
LINE
  5
101
100
AcDbEntity
  8
3
370
    50
100
AcDbLine
 10
-131.224771
 20
195.834202
 30
0.0
 11
-55.761783
 21
195.834202
 31
0.0
  0
LINE
  5
102
100
AcDbEntity
  8
3
370
    50
100
AcDbLine
 10
369.238144
 20
-98.7108
 30
0.0
 11
369.238144
 21
-101.7108
 31
0.0
  0
LINE
  5
103
100
AcDbEntity
  8
3
370
    50
100
AcDbLine
 10
319.238144
 20
-98.7108
 30
0.0
 11
319.238144
 21
-101.7108
 31
0.0
  0
LINE
  5
104
100
AcDbEntity
  8
3
370
    50
100
AcDbLine
 10
356.238144
 20
-71.7108
 30
0.0
 11
356.238144
 21
-71.011017
 31
0.0
  0
LINE
  5
105
100
AcDbEntity
  8
3
370
    50
100
AcDbLine
 10
332.238144
 20
-71.7108
 30
0.0
 11
332.238144
 21
-71.011017
 31
0.0
  0
ARC
  5
106
100
AcDbEntity
  8
3
370
    50
100
AcDbCircle
 10
359.238144
 20
-71.7108
 30
0.0
 40
3.0
100
AcDbArc
 50
180.0
 51
270.0
  0
ARC
  5
107
100
AcDbEntity
  8
3
370
    50
100
AcDbCircle
 10
329.238144
 20
-71.7108
 30
0.0
 40
3.0
100
AcDbArc
 50
270.0
 51
360.0
  0
LINE
  5
108
100
AcDbEntity
  8
3
370
    25
  6
CENTER
100
AcDbLine
 10
-155.762064
 20
220.83404
 30
0.0
 11
-63.946968
 21
61.805629
 31
0.0
  0
DIMENSION
  5
109
100
AcDbEntity
  8
3
370
    25
100
AcDbDimension
  2
*D0
 10
-55.761856
 20
-197.81926
 30
0.0
 11
-155.761856
 21
-193.31926
 31
0.0
 71
     0
 72
     0
 41
0.0
 42
0.0
  3
Standard
100
AcDbAlignedDimension
 13
-255.761856
 23
-172.971881
 33
0.0
 14
-55.761856
 24
-178.939144
 34
0.0
100
AcDbRotatedDimension
  0
TEXT
  5
10A
100
AcDbEntity
  8
3
370
    50
100
AcDbText
 10
-127.177734
 20
-164.038437
 30
0.0
 40
7.0
  1
ＰＪ１／２
 72
     5
 11
-93.577734
 21
-164.038437
 31
0.0
100
AcDbText
  0
TEXT
  5
10B
100
AcDbEntity
  8
3
370
    50
100
AcDbText
 10
-126.108398
 20
-173.881683
 30
0.0
 40
7.0
  1
給水栓ネジ
 72
     5
 11
-92.508398
 21
-173.881683
 31
0.0
100
AcDbText
  0
LWPOLYLINE
  5
10C
100
AcDbEntity
  8
3
370
    25
100
AcDbPolyline
 90
        3
 70
     0
 10
-66.239356
 20
-145.320831
 10
-93.764236
 20
-165.556747
 10
-128.070541
 20
-165.556747
  0
LINE
  5
111
100
AcDbEntity
  8
3
370
    25
100
AcDbLine
 10
-69.352313
 20
-147.609434
 30
0.0
 11
-68.739083
 21
-148.443549
 31
0.0
  0
LINE
  5
112
100
AcDbEntity
  8
3
370
    25
100
AcDbLine
 10
-68.739083
 20
-148.443549
 30
0.0
 11
-66.239356
 21
-145.320831
 31
0.0
  0
LINE
  5
113
100
AcDbEntity
  8
3
370
    25
100
AcDbLine
 10
-66.239356
 20
-145.320831
 30
0.0
 11
-69.965542
 21
-146.77532
 31
0.0
  0
LINE
  5
114
100
AcDbEntity
  8
3
370
    25
100
AcDbLine
 10
-69.965542
 20
-146.77532
 30
0.0
 11
-69.352313
 21
-147.609434
 31
0.0
  0
POINT
  5
115
100
AcDbEntity
  8
3
370
    50
100
AcDbPoint
 10
344.511003
 20
-55.604241
 30
0.0
  0
POINT
  5
116
100
AcDbEntity
  8
3
370
    50
100
AcDbPoint
 10
344.237815
 20
-17.040495
 30
0.0
  0
POINT
  5
117
100
AcDbEntity
  8
3
370
    50
100
AcDbPoint
 10
344.237815
 20
-15.040378
 30
0.0
  0
LINE
  5
118
100
AcDbEntity
  8
3
370
    25
  6
CENTER
100
AcDbLine
 10
-255.761367
 20
-15.837897
 30
0.0
 11
-255.761367
 21
-172.77475
 31
0.0
  0
TEXT
  5
119
100
AcDbEntity
  8
3
370
    50
100
AcDbText
 10
1.476931
 20
-136.8608
 30
0.0
 40
7.0
  1
62
 50
90.0
 41
2.0
 72
     5
 11
1.476931
 21
-125.6608
 31
0.0
100
AcDbText
  0
DIMENSION
  5
11A
100
AcDbEntity
  8
3
370
    25
100
AcDbDimension
  2
*D1
 10
2.476931
 20
-98.7108
 30
0.0
 11
-0.023069
 21
-129.8608
 31
0.0
 71
     0
 72
     0
 41
0.0
 42
0.0
  3
Standard
100
AcDbAlignedDimension
 13
-43.020179
 23
-161.0108
 33
0.0
 14
-30.761856
 24
-98.7108
 34
0.0
 50
90.0
100
AcDbRotatedDimension
  0
TEXT
  5
11B
100
AcDbEntity
  8
3
370
    50
100
AcDbText
 10
290.256927
 20
-239.7686
 30
0.0
 40
6.0
  1
１　２
 72
     5
 11
307.056927
 21
-239.7686
 31
0.0
100
AcDbText
  0
TEXT
  5
11C
100
AcDbEntity
  8
3
370
    50
100
AcDbText
 10
229.362595
 20
-273.007324
 30
0.0
 40
7.0
  1
外観寸法図
 72
     5
 11
262.962595
 21
-273.007324
 31
0.0
100
AcDbText
  0
ARC
  5
11D
100
AcDbEntity
  8
3
370
    50
100
AcDbCircle
 10
-246.047529
 20
-162.010077
 30
0.0
 40
140.0
100
AcDbArc
 50
87.95826
 51
90.190029
  0
ARC
  5
11E
100
AcDbEntity
  8
3
370
    50
100
AcDbCircle
 10
-265.476183
 20
-162.010077
 30
0.0
 40
140.0
100
AcDbArc
 50
89.809971
 51
92.04174
  0
ARC
  5
11F
100
AcDbEntity
  8
3
370
    50
100
AcDbCircle
 10
-181.043057
 20
-49.59001
 30
0.0
 40
100.0
100
AcDbArc
 50
168.272272
 51
188.388164
  0
ARC
  5
120
100
AcDbEntity
  8
3
370
    50
100
AcDbCircle
 10
-241.38032
 20
-31.093244
 30
0.0
 40
9.0
100
AcDbArc
 50
11.727728
 51
87.95826
  0
ARC
  5
121
100
AcDbEntity
  8
3
370
    50
100
AcDbCircle
 10
-270.143392
 20
-31.093244
 30
0.0
 40
9.0
100
AcDbArc
 50
92.04174
 51
168.272272
  0
ARC
  5
122
100
AcDbEntity
  8
3
370
    50
100
AcDbCircle
 10
-239.464826
 20
-63.010847
 30
0.0
 40
8.0
100
AcDbArc
 50
270.0
 51
351.611836
  0
ARC
  5
123
100
AcDbEntity
  8
3
370
    50
100
AcDbCircle
 10
-272.058886
 20
-63.010847
 30
0.0
 40
8.0
100
AcDbArc
 50
188.388164
 51
266.397161
  0
ARC
  5
124
100
AcDbEntity
  8
3
370
    50
100
AcDbCircle
 10
-255.761783
 20
261.368702
 30
0.0
 40
20.2
100
AcDbArc
 50
239.552149
 51
300.447851
  0
ARC
  5
125
100
AcDbEntity
  8
3
370
    50
100
AcDbCircle
 10
-255.761783
 20
257.779202
 30
0.0
 40
17.9
100
AcDbArc
 50
233.238123
 51
306.761877
  0
ARC
  5
126
100
AcDbEntity
  8
3
370
    50
100
AcDbCircle
 10
-290.86569
 20
241.101452
 30
0.0
 40
20.2
100
AcDbArc
 50
299.552149
 51
0.447851
  0
ARC
  5
127
100
AcDbEntity
  8
3
370
    50
100
AcDbCircle
 10
-287.757092
 20
239.306702
 30
0.0
 40
17.9
100
AcDbArc
 50
293.238123
 51
6.761877
  0
ARC
  5
128
100
AcDbEntity
  8
3
370
    50
100
AcDbCircle
 10
-290.86569
 20
200.566952
 30
0.0
 40
20.2
100
AcDbArc
 50
359.552149
 51
60.447851
  0
ARC
  5
129
100
AcDbEntity
  8
3
370
    50
100
AcDbCircle
 10
-287.757092
 20
202.361702
 30
0.0
 40
17.9
100
AcDbArc
 50
353.238123
 51
66.761877
  0
ARC
  5
12A
100
AcDbEntity
  8
3
370
    50
100
AcDbCircle
 10
-255.761783
 20
183.889202
 30
0.0
 40
17.9
100
AcDbArc
 50
53.238123
 51
126.761877
  0
ARC
  5
12B
100
AcDbEntity
  8
3
370
    50
100
AcDbCircle
 10
-255.761783
 20
180.299702
 30
0.0
 40
20.2
100
AcDbArc
 50
59.552149
 51
120.447851
  0
ARC
  5
12C
100
AcDbEntity
  8
3
370
    50
100
AcDbCircle
 10
-223.766474
 20
202.361702
 30
0.0
 40
17.9
100
AcDbArc
 50
113.238123
 51
186.761877
  0
ARC
  5
12D
100
AcDbEntity
  8
3
370
    50
100
AcDbCircle
 10
-220.657876
 20
200.566952
 30
0.0
 40
20.2
100
AcDbArc
 50
119.552149
 51
180.447851
  0
ARC
  5
12E
100
AcDbEntity
  8
3
370
    50
100
AcDbCircle
 10
-223.766474
 20
239.306702
 30
0.0
 40
17.9
100
AcDbArc
 50
173.238123
 51
246.761877
  0
ARC
  5
12F
100
AcDbEntity
  8
3
370
    50
100
AcDbCircle
 10
-220.657876
 20
241.101452
 30
0.0
 40
20.2
100
AcDbArc
 50
179.552149
 51
240.447851
  0
ARC
  5
130
100
AcDbEntity
  8
3
370
    50
100
AcDbCircle
 10
-255.761783
 20
220.834202
 30
0.0
 40
25.285
100
AcDbArc
 50
113.881225
 51
126.118775
  0
ARC
  5
131
100
AcDbEntity
  8
3
370
    50
100
AcDbCircle
 10
-255.761783
 20
220.834202
 30
0.0
 40
25.285
100
AcDbArc
 50
173.881225
 51
186.118775
  0
ARC
  5
132
100
AcDbEntity
  8
3
370
    50
100
AcDbCircle
 10
-255.761783
 20
220.834202
 30
0.0
 40
25.285
100
AcDbArc
 50
233.881225
 51
246.118775
  0
ARC
  5
133
100
AcDbEntity
  8
3
370
    50
100
AcDbCircle
 10
-255.761783
 20
220.834202
 30
0.0
 40
25.285
100
AcDbArc
 50
293.881225
 51
306.118775
  0
ARC
  5
134
100
AcDbEntity
  8
3
370
    50
100
AcDbCircle
 10
-255.761783
 20
220.834202
 30
0.0
 40
25.285
100
AcDbArc
 50
353.881225
 51
6.118775
  0
ARC
  5
135
100
AcDbEntity
  8
3
370
    50
100
AcDbCircle
 10
-255.761783
 20
220.834202
 30
0.0
 40
25.285
100
AcDbArc
 50
53.881225
 51
66.118775
  0
ARC
  5
136
100
AcDbEntity
  8
3
370
    50
100
AcDbCircle
 10
-242.038485
 20
241.473178
 30
0.0
 40
0.5
100
AcDbArc
 50
353.238123
 51
56.379215
  0
ARC
  5
137
100
AcDbEntity
  8
3
370
    50
100
AcDbCircle
 10
-244.749554
 20
243.038414
 30
0.0
 40
0.5
100
AcDbArc
 50
63.620785
 51
126.761877
  0
ARC
  5
138
100
AcDbEntity
  8
3
370
    50
100
AcDbCircle
 10
-231.026257
 20
222.399438
 30
0.0
 40
0.5
100
AcDbArc
 50
0.0
 51
66.761877
  0
ARC
  5
139
100
AcDbEntity
  8
3
370
    50
100
AcDbCircle
 10
-231.026257
 20
219.268965
 30
0.0
 40
0.5
100
AcDbArc
 50
293.238123
 51
356.379215
  0
ARC
  5
13A
100
AcDbEntity
  8
3
370
    50
100
AcDbCircle
 10
-242.038485
 20
200.195226
 30
0.0
 40
0.5
100
AcDbArc
 50
303.620785
 51
6.761877
  0
ARC
  5
13B
100
AcDbEntity
  8
3
370
    50
100
AcDbCircle
 10
-244.749554
 20
198.629989
 30
0.0
 40
0.5
100
AcDbArc
 50
233.238123
 51
296.379215
  0
ARC
  5
13C
100
AcDbEntity
  8
3
370
    50
100
AcDbCircle
 10
-266.774012
 20
198.629989
 30
0.0
 40
0.5
100
AcDbArc
 50
243.620785
 51
306.761877
  0
ARC
  5
13D
100
AcDbEntity
  8
3
370
    50
100
AcDbCircle
 10
-269.485081
 20
200.195226
 30
0.0
 40
0.5
100
AcDbArc
 50
173.238123
 51
236.379215
  0
ARC
  5
13E
100
AcDbEntity
  8
3
370
    50
100
AcDbCircle
 10
-280.497309
 20
219.268965
 30
0.0
 40
0.5
100
AcDbArc
 50
183.620785
 51
246.761877
  0
ARC
  5
13F
100
AcDbEntity
  8
3
370
    50
100
AcDbCircle
 10
-280.497309
 20
222.399438
 30
0.0
 40
0.5
100
AcDbArc
 50
113.238123
 51
176.379215
  0
ARC
  5
140
100
AcDbEntity
  8
3
370
    50
100
AcDbCircle
 10
-266.774012
 20
243.038414
 30
0.0
 40
0.5
100
AcDbArc
 50
53.238123
 51
116.379215
  0
ARC
  5
141
100
AcDbEntity
  8
3
370
    50
100
AcDbCircle
 10
-269.485081
 20
241.473178
 30
0.0
 40
0.5
100
AcDbArc
 50
123.620785
 51
186.761877
  0
LINE
  5
142
100
AcDbEntity
  8
3
370
    50
100
AcDbLine
 10
-272.577925
 20
-71.010847
 30
0.0
 11
-239.464826
 21
-71.010847
 31
0.0
  0
LINE
  5
143
100
AcDbEntity
  8
3
370
    50
100
AcDbLine
 10
-241.261856
 20
-24.948156
 30
0.0
 11
-241.261856
 21
-67.347074
 31
0.0
  0
LINE
  5
144
100
AcDbEntity
  8
3
370
    50
100
AcDbLine
 10
-265.94051
 20
-22.010847
 30
0.0
 11
-245.583203
 21
-22.010847
 31
0.0
  0
ARC
  5
145
100
AcDbEntity
  8
3
370
    50
100
AcDbCircle
 10
-330.480655
 20
-49.59001
 30
0.0
 40
99.5
100
AcDbArc
 50
351.611836
 51
11.727728
  0
ARC
  5
146
100
AcDbEntity
  8
3
370
    50
100
AcDbCircle
 10
-241.38032
 20
-31.093244
 30
0.0
 40
8.5
100
AcDbArc
 50
11.727728
 51
70.978827
  0
ARC
  5
147
100
AcDbEntity
  8
3
370
    50
100
AcDbCircle
 10
-239.261856
 20
-24.948156
 30
0.0
 40
2.0
100
AcDbArc
 50
70.978827
 51
180.0
  0
ARC
  5
148
100
AcDbEntity
  8
3
370
    50
100
AcDbCircle
 10
-239.464826
 20
-63.010847
 30
0.0
 40
7.5
100
AcDbArc
 50
285.505247
 51
351.611836
  0
ARC
  5
149
100
AcDbEntity
  8
3
370
    50
100
AcDbCircle
 10
-238.261856
 20
-67.347074
 30
0.0
 40
3.0
100
AcDbArc
 50
180.0
 51
285.505247
  0
ARC
  5
14A
100
AcDbEntity
  8
3
370
    50
100
AcDbCircle
 10
-365.426797
 20
-50.105182
 30
0.0
 40
120.0
100
AcDbArc
 50
355.059572
 51
9.155483
  0
ARC
  5
14B
100
AcDbEntity
  8
3
370
    50
100
AcDbCircle
 10
-255.761856
 20
-32.430768
 30
0.0
 40
8.91992
100
AcDbArc
 50
9.155483
 51
90.0
  0
ARC
  5
14C
100
AcDbEntity
  8
3
370
    50
100
AcDbCircle
 10
-255.761856
 20
-59.584737
 30
0.0
 40
9.926111
100
AcDbArc
 50
270.0
 51
355.059572
  0
LINE
  5
14D
100
AcDbEntity
  8
3
370
    25
100
AcDbLine
 10
-238.151663
 20
-24.986265
 30
0.0
 11
-238.151663
 21
-68.548548
 31
0.0
  0
POINT
  5
14E
100
AcDbEntity
  8
3
370
    50
100
AcDbPoint
 10
-241.059672
 20
-22.098958
 30
0.0
  0
LINE
  5
14F
100
AcDbEntity
  8
3
370
    25
  6
CENTER
100
AcDbLine
 10
-255.761783
 20
190.072254
 30
0.0
 11
-255.761783
 21
252.520222
 31
0.0
  0
ARC
  5
150
100
AcDbEntity
  8
3
370
    50
100
AcDbCircle
 10
-330.480655
 20
-49.59001
 30
0.0
 40
100.0
100
AcDbArc
 50
351.611836
 51
11.727728
  0
ARC
  5
151
100
AcDbEntity
  8
3
370
    50
100
AcDbCircle
 10
-55.761783
 20
261.368702
 30
0.0
 40
20.2
100
AcDbArc
 50
239.552149
 51
300.447851
  0
ARC
  5
152
100
AcDbEntity
  8
3
370
    50
100
AcDbCircle
 10
-55.761783
 20
257.779202
 30
0.0
 40
17.9
100
AcDbArc
 50
233.238123
 51
306.761877
  0
ARC
  5
153
100
AcDbEntity
  8
3
370
    50
100
AcDbCircle
 10
-90.86569
 20
241.101452
 30
0.0
 40
20.2
100
AcDbArc
 50
299.552149
 51
0.447851
  0
ARC
  5
154
100
AcDbEntity
  8
3
370
    50
100
AcDbCircle
 10
-87.757092
 20
239.306702
 30
0.0
 40
17.9
100
AcDbArc
 50
293.238123
 51
6.761877
  0
ARC
  5
155
100
AcDbEntity
  8
3
370
    50
100
AcDbCircle
 10
-90.86569
 20
200.566952
 30
0.0
 40
20.2
100
AcDbArc
 50
359.552149
 51
60.447851
  0
ARC
  5
156
100
AcDbEntity
  8
3
370
    50
100
AcDbCircle
 10
-87.757092
 20
202.361702
 30
0.0
 40
17.9
100
AcDbArc
 50
353.238123
 51
66.761877
  0
ARC
  5
157
100
AcDbEntity
  8
3
370
    50
100
AcDbCircle
 10
-55.761783
 20
183.889202
 30
0.0
 40
17.9
100
AcDbArc
 50
53.238123
 51
126.761877
  0
ARC
  5
158
100
AcDbEntity
  8
3
370
    50
100
AcDbCircle
 10
-55.761783
 20
180.299702
 30
0.0
 40
20.2
100
AcDbArc
 50
59.552149
 51
120.447851
  0
ARC
  5
159
100
AcDbEntity
  8
3
370
    50
100
AcDbCircle
 10
-23.766474
 20
202.361702
 30
0.0
 40
17.9
100
AcDbArc
 50
113.238123
 51
186.761877
  0
ARC
  5
15A
100
AcDbEntity
  8
3
370
    50
100
AcDbCircle
 10
-20.657876
 20
200.566952
 30
0.0
 40
20.2
100
AcDbArc
 50
119.552149
 51
180.447851
  0
ARC
  5
15B
100
AcDbEntity
  8
3
370
    50
100
AcDbCircle
 10
-23.766474
 20
239.306702
 30
0.0
 40
17.9
100
AcDbArc
 50
173.238123
 51
246.761877
  0
ARC
  5
15C
100
AcDbEntity
  8
3
370
    50
100
AcDbCircle
 10
-20.657876
 20
241.101452
 30
0.0
 40
20.2
100
AcDbArc
 50
179.552149
 51
240.447851
  0
ARC
  5
15D
100
AcDbEntity
  8
3
370
    50
100
AcDbCircle
 10
-55.761783
 20
220.834202
 30
0.0
 40
25.285
100
AcDbArc
 50
113.881225
 51
126.118775
  0
ARC
  5
15E
100
AcDbEntity
  8
3
370
    50
100
AcDbCircle
 10
-55.761783
 20
220.834202
 30
0.0
 40
25.285
100
AcDbArc
 50
173.881225
 51
186.118775
  0
ARC
  5
15F
100
AcDbEntity
  8
3
370
    50
100
AcDbCircle
 10
-55.761783
 20
220.834202
 30
0.0
 40
25.285
100
AcDbArc
 50
233.881225
 51
246.118775
  0
ARC
  5
160
100
AcDbEntity
  8
3
370
    50
100
AcDbCircle
 10
-55.761783
 20
220.834202
 30
0.0
 40
25.285
100
AcDbArc
 50
293.881225
 51
306.118775
  0
ARC
  5
161
100
AcDbEntity
  8
3
370
    50
100
AcDbCircle
 10
-55.761783
 20
220.834202
 30
0.0
 40
25.285
100
AcDbArc
 50
353.881225
 51
6.118775
  0
ARC
  5
162
100
AcDbEntity
  8
3
370
    50
100
AcDbCircle
 10
-55.761783
 20
220.834202
 30
0.0
 40
25.285
100
AcDbArc
 50
53.881225
 51
66.118775
  0
ARC
  5
163
100
AcDbEntity
  8
3
370
    50
100
AcDbCircle
 10
-42.038485
 20
241.473178
 30
0.0
 40
0.5
100
AcDbArc
 50
353.238123
 51
56.379215
  0
ARC
  5
164
100
AcDbEntity
  8
3
370
    50
100
AcDbCircle
 10
-44.749554
 20
243.038414
 30
0.0
 40
0.5
100
AcDbArc
 50
63.620785
 51
126.761877
  0
ARC
  5
165
100
AcDbEntity
  8
3
370
    50
100
AcDbCircle
 10
-31.026257
 20
222.399438
 30
0.0
 40
0.5
100
AcDbArc
 50
0.0
 51
66.761877
  0
ARC
  5
166
100
AcDbEntity
  8
3
370
    50
100
AcDbCircle
 10
-31.026257
 20
219.268965
 30
0.0
 40
0.5
100
AcDbArc
 50
293.238123
 51
356.379215
  0
ARC
  5
167
100
AcDbEntity
  8
3
370
    50
100
AcDbCircle
 10
-42.038485
 20
200.195226
 30
0.0
 40
0.5
100
AcDbArc
 50
303.620785
 51
6.761877
  0
ARC
  5
168
100
AcDbEntity
  8
3
370
    50
100
AcDbCircle
 10
-44.749554
 20
198.629989
 30
0.0
 40
0.5
100
AcDbArc
 50
233.238123
 51
296.379215
  0
ARC
  5
169
100
AcDbEntity
  8
3
370
    50
100
AcDbCircle
 10
-66.774012
 20
198.629989
 30
0.0
 40
0.5
100
AcDbArc
 50
243.620785
 51
306.761877
  0
ARC
  5
16A
100
AcDbEntity
  8
3
370
    50
100
AcDbCircle
 10
-69.485081
 20
200.195226
 30
0.0
 40
0.5
100
AcDbArc
 50
173.238123
 51
236.379215
  0
ARC
  5
16B
100
AcDbEntity
  8
3
370
    50
100
AcDbCircle
 10
-80.497309
 20
219.268965
 30
0.0
 40
0.5
100
AcDbArc
 50
183.620785
 51
246.761877
  0
ARC
  5
16C
100
AcDbEntity
  8
3
370
    50
100
AcDbCircle
 10
-80.497309
 20
222.399438
 30
0.0
 40
0.5
100
AcDbArc
 50
113.238123
 51
176.379215
  0
ARC
  5
16D
100
AcDbEntity
  8
3
370
    50
100
AcDbCircle
 10
-66.774012
 20
243.038414
 30
0.0
 40
0.5
100
AcDbArc
 50
53.238123
 51
116.379215
  0
ARC
  5
16E
100
AcDbEntity
  8
3
370
    50
100
AcDbCircle
 10
-69.485081
 20
241.473178
 30
0.0
 40
0.5
100
AcDbArc
 50
123.620785
 51
186.761877
  0
LINE
  5
16F
100
AcDbEntity
  8
3
370
    25
  6
CENTER
100
AcDbLine
 10
-55.761783
 20
190.072254
 30
0.0
 11
-55.761783
 21
252.520222
 31
0.0
  0
POINT
  5
170
100
AcDbEntity
  8
3
370
    50
100
AcDbPoint
 10
-255.761856
 20
-40.010847
 30
0.0
  0
POINT
  5
171
100
AcDbEntity
  8
3
370
    50
100
AcDbPoint
 10
-255.761856
 20
-40.010847
 30
0.0
  0
POINT
  5
172
100
AcDbEntity
  8
3
370
    50
100
AcDbPoint
 10
-55.761856
 20
-40.010847
 30
0.0
  0
ARC
  5
173
100
AcDbEntity
  8
3
370
    50
100
AcDbCircle
 10
-255.761856
 20
-32.430768
 30
0.0
 40
8.91992
100
AcDbArc
 50
90.0
 51
170.844517
  0
ARC
  5
174
100
AcDbEntity
  8
3
370
    50
100
AcDbCircle
 10
-146.096916
 20
-50.105182
 30
0.0
 40
120.0
100
AcDbArc
 50
170.844517
 51
184.940428
  0
ARC
  5
175
100
AcDbEntity
  8
3
370
    50
100
AcDbCircle
 10
-255.761856
 20
-59.584737
 30
0.0
 40
9.926111
100
AcDbArc
 50
184.940428
 51
270.0
  0
LINE
  5
176
100
AcDbEntity
  8
3
370
    50
100
AcDbLine
 10
-270.261856
 20
-24.948156
 30
0.0
 11
-270.261856
 21
-67.347074
 31
0.0
  0
ARC
  5
177
100
AcDbEntity
  8
3
370
    50
100
AcDbCircle
 10
-273.261856
 20
-67.347074
 30
0.0
 40
3.0
100
AcDbArc
 50
254.494753
 51
360.0
  0
ARC
  5
178
100
AcDbEntity
  8
3
370
    50
100
AcDbCircle
 10
-272.261856
 20
-24.948156
 30
0.0
 40
2.0
100
AcDbArc
 50
0.0
 51
109.021173
  0
LINE
  5
179
100
AcDbEntity
  8
3
370
    25
100
AcDbLine
 10
-273.37205
 20
-24.986265
 30
0.0
 11
-273.37205
 21
-68.548548
 31
0.0
  0
ARC
  5
17A
100
AcDbEntity
  8
3
370
    50
100
AcDbCircle
 10
-270.143392
 20
-31.093244
 30
0.0
 40
8.5
100
AcDbArc
 50
109.021173
 51
168.272272
  0
ARC
  5
17B
100
AcDbEntity
  8
3
370
    50
100
AcDbCircle
 10
-181.043057
 20
-49.59001
 30
0.0
 40
99.5
100
AcDbArc
 50
168.272272
 51
188.388164
  0
ARC
  5
17C
100
AcDbEntity
  8
3
370
    50
100
AcDbCircle
 10
-272.058886
 20
-63.010847
 30
0.0
 40
7.5
100
AcDbArc
 50
188.388164
 51
254.494753
  0
LINE
  5
17D
100
AcDbEntity
  8
3
370
    50
100
AcDbLine
 10
334.98759
 20
-22.011017
 30
0.0
 11
344.23759
 21
-22.011017
 31
0.0
  0
LINE
  5
17E
100
AcDbEntity
  8
3
370
    50
100
AcDbLine
 10
327.93759
 20
-71.011017
 30
0.0
 11
344.23759
 21
-71.011017
 31
0.0
  0
ARC
  5
17F
100
AcDbEntity
  8
3
370
    50
100
AcDbCircle
 10
478.513376
 20
-46.511017
 30
0.0
 40
157.395787
100
AcDbArc
 50
173.628289
 51
187.137781
  0
ARC
  5
180
100
AcDbEntity
  8
3
370
    50
100
AcDbCircle
 10
329.839249
 20
-29.908867
 30
0.0
 40
7.797567
100
AcDbArc
 50
92.231826
 51
173.628289
  0
ARC
  5
181
100
AcDbEntity
  8
3
370
    50
100
AcDbCircle
 10
334.98759
 20
-162.011017
 30
0.0
 40
140.0
100
AcDbArc
 50
90.0
 51
92.231826
  0
ARC
  5
182
100
AcDbEntity
  8
3
370
    50
100
AcDbCircle
 10
439.066391
 20
-50.105352
 30
0.0
 40
115.317802
100
AcDbArc
 50
180.0
 51
185.87051
  0
ARC
  5
183
100
AcDbEntity
  8
3
370
    50
100
AcDbCircle
 10
432.771918
 20
-50.105352
 30
0.0
 40
109.023329
100
AcDbArc
 50
168.814652
 51
180.0
  0
ARC
  5
184
100
AcDbEntity
  8
3
370
    50
100
AcDbCircle
 10
206.69158
 20
-50.105352
 30
0.0
 40
135.04601
100
AcDbArc
 50
355.047029
 51
360.0
  0
ARC
  5
185
100
AcDbEntity
  8
3
370
    50
100
AcDbCircle
 10
167.772797
 20
-50.105352
 30
0.0
 40
173.964792
100
AcDbArc
 50
0.0
 51
6.301257
  0
ARC
  5
186
100
AcDbEntity
  8
3
370
    50
100
AcDbCircle
 10
333.117642
 20
-31.080276
 30
0.0
 40
7.569259
100
AcDbArc
 50
0.51946
 51
169.191675
  0
ARC
  5
187
100
AcDbEntity
  8
3
370
    50
100
AcDbCircle
 10
332.786937
 20
-61.032981
 30
0.0
 40
8.478036
100
AcDbArc
 50
185.87051
 51
355.047029
  0
ARC
  5
188
100
AcDbEntity
  8
3
370
    50
100
AcDbCircle
 10
327.93759
 20
-65.36706
 30
0.0
 40
5.643957
100
AcDbArc
 50
187.137781
 51
270.0
  0
LINE
  5
189
100
AcDbEntity
  8
3
370
    25
  6
CENTER
100
AcDbLine
 10
344.23759
 20
1.450698
 30
0.0
 11
344.23759
 21
-76.8288
 31
0.0
  0
LINE
  5
18A
100
AcDbEntity
  8
3
370
    50
100
AcDbLine
 10
353.48759
 20
-22.011017
 30
0.0
 11
344.23759
 21
-22.011017
 31
0.0
  0
LINE
  5
18B
100
AcDbEntity
  8
3
370
    50
100
AcDbLine
 10
360.53759
 20
-71.011017
 30
0.0
 11
344.23759
 21
-71.011017
 31
0.0
  0
ARC
  5
18C
100
AcDbEntity
  8
3
370
    50
100
AcDbCircle
 10
209.961803
 20
-46.511017
 30
0.0
 40
157.395787
100
AcDbArc
 50
352.862219
 51
6.371711
  0
ARC
  5
18D
100
AcDbEntity
  8
3
370
    50
100
AcDbCircle
 10
358.63593
 20
-29.908867
 30
0.0
 40
7.797567
100
AcDbArc
 50
6.371711
 51
87.768174
  0
ARC
  5
18E
100
AcDbEntity
  8
3
370
    50
100
AcDbCircle
 10
353.48759
 20
-162.011017
 30
0.0
 40
140.0
100
AcDbArc
 50
87.768174
 51
90.0
  0
ARC
  5
18F
100
AcDbEntity
  8
3
370
    50
100
AcDbCircle
 10
249.408788
 20
-50.105352
 30
0.0
 40
115.317802
100
AcDbArc
 50
354.12949
 51
360.0
  0
ARC
  5
190
100
AcDbEntity
  8
3
370
    50
100
AcDbCircle
 10
255.703261
 20
-50.105352
 30
0.0
 40
109.023329
100
AcDbArc
 50
0.0
 51
11.185348
  0
ARC
  5
191
100
AcDbEntity
  8
3
370
    50
100
AcDbCircle
 10
481.7836
 20
-50.105352
 30
0.0
 40
135.04601
100
AcDbArc
 50
180.0
 51
184.952971
  0
ARC
  5
192
100
AcDbEntity
  8
3
370
    50
100
AcDbCircle
 10
520.702382
 20
-50.105352
 30
0.0
 40
173.964792
100
AcDbArc
 50
173.698743
 51
180.0
  0
ARC
  5
193
100
AcDbEntity
  8
3
370
    50
100
AcDbCircle
 10
355.357537
 20
-31.080276
 30
0.0
 40
7.569259
100
AcDbArc
 50
10.808325
 51
179.48054
  0
ARC
  5
194
100
AcDbEntity
  8
3
370
    50
100
AcDbCircle
 10
355.688243
 20
-61.032981
 30
0.0
 40
8.478036
100
AcDbArc
 50
184.952971
 51
354.12949
  0
ARC
  5
195
100
AcDbEntity
  8
3
370
    50
100
AcDbCircle
 10
360.53759
 20
-65.36706
 30
0.0
 40
5.643957
100
AcDbArc
 50
270.0
 51
352.862219
  0
LINE
  5
196
100
AcDbEntity
  8
3
370
    50
100
AcDbLine
 10
-264.511367
 20
-22.010847
 30
0.0
 11
-247.011367
 21
-22.010847
 31
0.0
  0
LINE
  5
197
100
AcDbEntity
  8
3
370
    50
100
AcDbLine
 10
-247.011367
 20
-22.010847
 30
0.0
 11
-247.011367
 21
-21.391909
 31
0.0
  0
LINE
  5
198
100
AcDbEntity
  8
3
370
    50
100
AcDbLine
 10
-264.511367
 20
-22.010847
 30
0.0
 11
-264.511367
 21
-21.391909
 31
0.0
  0
ARC
  5
199
100
AcDbEntity
  8
3
370
    50
100
AcDbCircle
 10
-255.761367
 20
-100.010847
 30
0.0
 40
80.0
100
AcDbArc
 50
84.370157
 51
95.629843
  0
ARC
  5
19A
100
AcDbEntity
  8
3
370
    50
100
AcDbCircle
 10
-263.511367
 20
-21.391909
 30
0.0
 40
1.0
100
AcDbArc
 50
95.629843
 51
180.0
  0
ARC
  5
19B
100
AcDbEntity
  8
3
370
    50
100
AcDbCircle
 10
-248.011367
 20
-21.391909
 30
0.0
 40
1.0
100
AcDbArc
 50
0.0
 51
84.370157
  0
POINT
  5
19C
100
AcDbEntity
  8
3
370
    50
100
AcDbPoint
 10
-255.761367
 20
-22.010847
 30
0.0
  0
LINE
  5
19D
100
AcDbEntity
  8
3
370
    50
100
AcDbLine
 10
335.487815
 20
-22.011017
 30
0.0
 11
352.987815
 21
-22.011017
 31
0.0
  0
LINE
  5
19E
100
AcDbEntity
  8
3
370
    50
100
AcDbLine
 10
352.987815
 20
-22.011017
 30
0.0
 11
352.987815
 21
-21.392078
 31
0.0
  0
LINE
  5
19F
100
AcDbEntity
  8
3
370
    50
100
AcDbLine
 10
335.487815
 20
-22.011017
 30
0.0
 11
335.487815
 21
-21.392078
 31
0.0
  0
ARC
  5
1A0
100
AcDbEntity
  8
3
370
    50
100
AcDbCircle
 10
344.237815
 20
-100.011017
 30
0.0
 40
80.0
100
AcDbArc
 50
84.370157
 51
95.629843
  0
ARC
  5
1A1
100
AcDbEntity
  8
3
370
    50
100
AcDbCircle
 10
336.487815
 20
-21.392078
 30
0.0
 40
1.0
100
AcDbArc
 50
95.629843
 51
180.0
  0
ARC
  5
1A2
100
AcDbEntity
  8
3
370
    50
100
AcDbCircle
 10
351.987815
 20
-21.392078
 30
0.0
 40
1.0
100
AcDbArc
 50
0.0
 51
84.370157
  0
POINT
  5
1A3
100
AcDbEntity
  8
3
370
    50
100
AcDbPoint
 10
344.237815
 20
-22.011017
 30
0.0
  0
ARC
  5
1A4
100
AcDbEntity
  8
3
370
    50
100
AcDbCircle
 10
-46.047529
 20
-162.010077
 30
0.0
 40
140.0
100
AcDbArc
 50
87.95826
 51
90.190029
  0
ARC
  5
1A5
100
AcDbEntity
  8
3
370
    50
100
AcDbCircle
 10
-65.476183
 20
-162.010077
 30
0.0
 40
140.0
100
AcDbArc
 50
89.809971
 51
92.04174
  0
ARC
  5
1A6
100
AcDbEntity
  8
3
370
    50
100
AcDbCircle
 10
18.956943
 20
-49.59001
 30
0.0
 40
100.0
100
AcDbArc
 50
168.272272
 51
188.388164
  0
ARC
  5
1A7
100
AcDbEntity
  8
3
370
    50
100
AcDbCircle
 10
-41.38032
 20
-31.093244
 30
0.0
 40
9.0
100
AcDbArc
 50
11.727728
 51
87.95826
  0
ARC
  5
1A8
100
AcDbEntity
  8
3
370
    50
100
AcDbCircle
 10
-70.143392
 20
-31.093244
 30
0.0
 40
9.0
100
AcDbArc
 50
92.04174
 51
168.272272
  0
ARC
  5
1A9
100
AcDbEntity
  8
3
370
    50
100
AcDbCircle
 10
-39.464826
 20
-63.010847
 30
0.0
 40
8.0
100
AcDbArc
 50
270.0
 51
351.611836
  0
ARC
  5
1AA
100
AcDbEntity
  8
3
370
    50
100
AcDbCircle
 10
-72.058886
 20
-63.010847
 30
0.0
 40
8.0
100
AcDbArc
 50
188.388164
 51
266.397161
  0
LINE
  5
1AB
100
AcDbEntity
  8
3
370
    50
100
AcDbLine
 10
-72.577925
 20
-71.010847
 30
0.0
 11
-39.464826
 21
-71.010847
 31
0.0
  0
LINE
  5
1AC
100
AcDbEntity
  8
3
370
    50
100
AcDbLine
 10
-41.261856
 20
-24.948156
 30
0.0
 11
-41.261856
 21
-67.347074
 31
0.0
  0
LINE
  5
1AD
100
AcDbEntity
  8
3
370
    50
100
AcDbLine
 10
-65.94051
 20
-22.010847
 30
0.0
 11
-45.583203
 21
-22.010847
 31
0.0
  0
ARC
  5
1AE
100
AcDbEntity
  8
3
370
    50
100
AcDbCircle
 10
-130.480655
 20
-49.59001
 30
0.0
 40
99.5
100
AcDbArc
 50
351.611836
 51
11.727728
  0
ARC
  5
1AF
100
AcDbEntity
  8
3
370
    50
100
AcDbCircle
 10
-41.38032
 20
-31.093244
 30
0.0
 40
8.5
100
AcDbArc
 50
11.727728
 51
70.978827
  0
ARC
  5
1B0
100
AcDbEntity
  8
3
370
    50
100
AcDbCircle
 10
-39.261856
 20
-24.948156
 30
0.0
 40
2.0
100
AcDbArc
 50
70.978827
 51
180.0
  0
ARC
  5
1B1
100
AcDbEntity
  8
3
370
    50
100
AcDbCircle
 10
-39.464826
 20
-63.010847
 30
0.0
 40
7.5
100
AcDbArc
 50
285.505247
 51
351.611836
  0
ARC
  5
1B2
100
AcDbEntity
  8
3
370
    50
100
AcDbCircle
 10
-38.261856
 20
-67.347074
 30
0.0
 40
3.0
100
AcDbArc
 50
180.0
 51
285.505247
  0
ARC
  5
1B3
100
AcDbEntity
  8
3
370
    50
100
AcDbCircle
 10
-165.426797
 20
-50.105182
 30
0.0
 40
120.0
100
AcDbArc
 50
355.059572
 51
9.155483
  0
ARC
  5
1B4
100
AcDbEntity
  8
3
370
    50
100
AcDbCircle
 10
-55.761856
 20
-32.430768
 30
0.0
 40
8.91992
100
AcDbArc
 50
9.155483
 51
90.0
  0
ARC
  5
1B5
100
AcDbEntity
  8
3
370
    50
100
AcDbCircle
 10
-55.761856
 20
-59.584737
 30
0.0
 40
9.926111
100
AcDbArc
 50
270.0
 51
355.059572
  0
LINE
  5
1B6
100
AcDbEntity
  8
3
370
    25
100
AcDbLine
 10
-38.151663
 20
-24.986265
 30
0.0
 11
-38.151663
 21
-68.548548
 31
0.0
  0
POINT
  5
1B7
100
AcDbEntity
  8
3
370
    50
100
AcDbPoint
 10
-41.059672
 20
-22.098958
 30
0.0
  0
ARC
  5
1B8
100
AcDbEntity
  8
3
370
    50
100
AcDbCircle
 10
-130.480655
 20
-49.59001
 30
0.0
 40
100.0
100
AcDbArc
 50
351.611836
 51
11.727728
  0
POINT
  5
1B9
100
AcDbEntity
  8
3
370
    50
100
AcDbPoint
 10
-55.761856
 20
-40.010847
 30
0.0
  0
POINT
  5
1BA
100
AcDbEntity
  8
3
370
    50
100
AcDbPoint
 10
-55.761856
 20
-40.010847
 30
0.0
  0
ARC
  5
1BB
100
AcDbEntity
  8
3
370
    50
100
AcDbCircle
 10
-55.761856
 20
-32.430768
 30
0.0
 40
8.91992
100
AcDbArc
 50
90.0
 51
170.844517
  0
ARC
  5
1BC
100
AcDbEntity
  8
3
370
    50
100
AcDbCircle
 10
53.903084
 20
-50.105182
 30
0.0
 40
120.0
100
AcDbArc
 50
170.844517
 51
184.940428
  0
ARC
  5
1BD
100
AcDbEntity
  8
3
370
    50
100
AcDbCircle
 10
-55.761856
 20
-59.584737
 30
0.0
 40
9.926111
100
AcDbArc
 50
184.940428
 51
270.0
  0
LINE
  5
1BE
100
AcDbEntity
  8
3
370
    50
100
AcDbLine
 10
-70.261856
 20
-24.948156
 30
0.0
 11
-70.261856
 21
-67.347074
 31
0.0
  0
ARC
  5
1BF
100
AcDbEntity
  8
3
370
    50
100
AcDbCircle
 10
-73.261856
 20
-67.347074
 30
0.0
 40
3.0
100
AcDbArc
 50
254.494753
 51
360.0
  0
ARC
  5
1C0
100
AcDbEntity
  8
3
370
    50
100
AcDbCircle
 10
-72.261856
 20
-24.948156
 30
0.0
 40
2.0
100
AcDbArc
 50
0.0
 51
109.021173
  0
LINE
  5
1C1
100
AcDbEntity
  8
3
370
    25
100
AcDbLine
 10
-73.37205
 20
-24.986265
 30
0.0
 11
-73.37205
 21
-68.548548
 31
0.0
  0
ARC
  5
1C2
100
AcDbEntity
  8
3
370
    50
100
AcDbCircle
 10
-70.143392
 20
-31.093244
 30
0.0
 40
8.5
100
AcDbArc
 50
109.021173
 51
168.272272
  0
ARC
  5
1C3
100
AcDbEntity
  8
3
370
    50
100
AcDbCircle
 10
18.956943
 20
-49.59001
 30
0.0
 40
99.5
100
AcDbArc
 50
168.272272
 51
188.388164
  0
ARC
  5
1C4
100
AcDbEntity
  8
3
370
    50
100
AcDbCircle
 10
-72.058886
 20
-63.010847
 30
0.0
 40
7.5
100
AcDbArc
 50
188.388164
 51
254.494753
  0
LINE
  5
1C5
100
AcDbEntity
  8
3
370
    50
100
AcDbLine
 10
-64.511367
 20
-22.010847
 30
0.0
 11
-47.011367
 21
-22.010847
 31
0.0
  0
LINE
  5
1C6
100
AcDbEntity
  8
3
370
    50
100
AcDbLine
 10
-47.011367
 20
-22.010847
 30
0.0
 11
-47.011367
 21
-21.391909
 31
0.0
  0
LINE
  5
1C7
100
AcDbEntity
  8
3
370
    50
100
AcDbLine
 10
-64.511367
 20
-22.010847
 30
0.0
 11
-64.511367
 21
-21.391909
 31
0.0
  0
ARC
  5
1C8
100
AcDbEntity
  8
3
370
    50
100
AcDbCircle
 10
-55.761367
 20
-100.010847
 30
0.0
 40
80.0
100
AcDbArc
 50
84.370157
 51
95.629843
  0
ARC
  5
1C9
100
AcDbEntity
  8
3
370
    50
100
AcDbCircle
 10
-63.511367
 20
-21.391909
 30
0.0
 40
1.0
100
AcDbArc
 50
95.629843
 51
180.0
  0
ARC
  5
1CA
100
AcDbEntity
  8
3
370
    50
100
AcDbCircle
 10
-48.011367
 20
-21.391909
 30
0.0
 40
1.0
100
AcDbArc
 50
0.0
 51
84.370157
  0
POINT
  5
1CB
100
AcDbEntity
  8
3
370
    50
100
AcDbPoint
 10
-55.761367
 20
-22.010847
 30
0.0
  0
LINE
  5
1CC
100
AcDbEntity
  8
3
370
    50
100
AcDbLine
 10
-238.261409
 20
-127.5108
 30
0.0
 11
-238.261409
 21
-126.0108
 31
0.0
  0
LINE
  5
1CD
100
AcDbEntity
  8
3
370
    50
100
AcDbLine
 10
-255.761409
 20
-126.0108
 30
0.0
 11
-238.261409
 21
-126.0108
 31
0.0
  0
LINE
  5
1CE
100
AcDbEntity
  8
3
370
    50
100
AcDbLine
 10
-255.761409
 20
-127.5108
 30
0.0
 11
-238.261409
 21
-127.5108
 31
0.0
  0
LINE
  5
1CF
100
AcDbEntity
  8
3
370
    50
100
AcDbLine
 10
-243.761409
 20
-136.2108
 30
0.0
 11
-255.761409
 21
-136.2108
 31
0.0
  0
LINE
  5
1D0
100
AcDbEntity
  8
3
370
    50
100
AcDbLine
 10
-242.011409
 20
-135.200437
 30
0.0
 11
-242.011409
 21
-129.7108
 31
0.0
  0
LINE
  5
1D1
100
AcDbEntity
  8
3
370
    50
100
AcDbLine
 10
-243.761409
 20
-136.2108
 30
0.0
 11
-242.011409
 21
-135.200437
 31
0.0
  0
LINE
  5
1D2
100
AcDbEntity
  8
3
370
    50
100
AcDbLine
 10
-235.761409
 20
-129.2108
 30
0.0
 11
-235.761409
 21
-128.0108
 31
0.0
  0
LINE
  5
1D3
100
AcDbEntity
  8
3
370
    50
100
AcDbLine
 10
-255.761409
 20
-129.7108
 30
0.0
 11
-241.440858
 21
-129.7108
 31
0.0
  0
LINE
  5
1D4
100
AcDbEntity
  8
3
370
    50
100
AcDbLine
 10
-235.761409
 20
-128.0108
 30
0.0
 11
-255.761409
 21
-128.0108
 31
0.0
  0
LINE
  5
1D5
100
AcDbEntity
  8
3
370
    50
100
AcDbLine
 10
-235.761409
 20
-129.2108
 30
0.0
 11
-255.761409
 21
-129.2108
 31
0.0
  0
ARC
  5
1D6
100
AcDbEntity
  8
3
370
    50
100
AcDbCircle
 10
-241.440858
 20
-124.7108
 30
0.0
 40
5.0
100
AcDbArc
 50
270.0
 51
293.556464
  0
ARC
  5
1D7
100
AcDbEntity
  8
3
370
    50
100
AcDbCircle
 10
-241.440858
 20
-132.5108
 30
0.0
 40
5.0
100
AcDbArc
 50
66.443536
 51
90.0
  0
ARC
  5
1D8
100
AcDbEntity
  8
3
370
    50
100
AcDbCircle
 10
-239.042943
 20
-130.2108
 30
0.0
 40
1.0
100
AcDbArc
 50
90.0
 51
113.556464
  0
ARC
  5
1D9
100
AcDbEntity
  8
3
370
    50
100
AcDbCircle
 10
-239.042943
 20
-127.0108
 30
0.0
 40
1.0
100
AcDbArc
 50
246.443536
 51
270.0
  0
LINE
  5
1DA
100
AcDbEntity
  8
3
370
    50
100
AcDbLine
 10
-248.761409
 20
-135.200437
 30
0.0
 11
-248.761409
 21
-129.7108
 31
0.0
  0
ARC
  5
1DB
100
AcDbEntity
  8
3
370
    50
100
AcDbCircle
 10
-255.761409
 20
-111.456907
 30
0.0
 40
24.753893
100
AcDbArc
 50
270.0
 51
286.426421
  0
ARC
  5
1DC
100
AcDbEntity
  8
3
370
    50
100
AcDbCircle
 10
-245.386409
 20
-130.068721
 30
0.0
 40
6.142079
100
AcDbArc
 50
236.668091
 51
303.331909
  0
ARC
  5
1DD
100
AcDbEntity
  8
3
370
    50
100
AcDbCircle
 10
-255.761409
 20
-113.4608
 30
0.0
 40
16.25
100
AcDbArc
 50
270.0
 51
284.250033
  0
ARC
  5
1DE
100
AcDbEntity
  8
3
370
    50
100
AcDbCircle
 10
-247.511409
 20
-113.4608
 30
0.0
 40
16.25
100
AcDbArc
 50
262.930286
 51
284.250033
  0
ARC
  5
1DF
100
AcDbEntity
  8
3
370
    50
100
AcDbCircle
 10
-251.511409
 20
-113.4608
 30
0.0
 40
16.25
100
AcDbArc
 50
262.485955
 51
284.250033
  0
ARC
  5
1E0
100
AcDbEntity
  8
3
370
    50
100
AcDbCircle
 10
-243.511409
 20
-113.4608
 30
0.0
 40
16.25
100
AcDbArc
 50
262.930286
 51
270.0
  0
ARC
  5
1E1
100
AcDbEntity
  8
3
370
    50
100
AcDbCircle
 10
-255.761409
 20
-143.7608
 30
0.0
 40
16.25
100
AcDbArc
 50
75.749967
 51
90.0
  0
ARC
  5
1E2
100
AcDbEntity
  8
3
370
    50
100
AcDbCircle
 10
-251.511409
 20
-143.7608
 30
0.0
 40
16.25
100
AcDbArc
 50
75.749967
 51
97.514045
  0
ARC
  5
1E3
100
AcDbEntity
  8
3
370
    50
100
AcDbCircle
 10
-247.511409
 20
-143.7608
 30
0.0
 40
16.25
100
AcDbArc
 50
75.749967
 51
97.069714
  0
ARC
  5
1E4
100
AcDbEntity
  8
3
370
    50
100
AcDbCircle
 10
-243.511409
 20
-143.7608
 30
0.0
 40
16.25
100
AcDbArc
 50
90.0
 51
97.069714
  0
LINE
  5
1E5
100
AcDbEntity
  8
3
370
    50
100
AcDbLine
 10
-244.261856
 20
-167.510845
 30
0.0
 11
-255.761856
 21
-167.510845
 31
0.0
  0
ARC
  5
1E6
100
AcDbEntity
  8
3
370
    50
100
AcDbCircle
 10
-258.036856
 20
-161.510845
 30
0.0
 40
15.025
100
AcDbArc
 50
336.463422
 51
23.536578
  0
LINE
  5
1E7
100
AcDbEntity
  8
3
370
    50
100
AcDbLine
 10
-244.261856
 20
-155.510845
 30
0.0
 11
-255.761856
 21
-155.510845
 31
0.0
  0
ELLIPSE
  5
1E8
100
AcDbEntity
  8
3
370
    50
100
AcDbEllipse
 10
-245.802564
 20
-161.510845
 30
0.0
 11
0.0
 21
6.0
 31
0.0
210
0.0
220
0.0
230
1.0
 40
0.458833
 41
0.0
 42
6.2831849999999996
  0
ELLIPSE
  5
1E9
100
AcDbEntity
  8
3
370
    50
100
AcDbEllipse
 10
-255.761856
 20
-161.510845
 30
0.0
 11
0.0
 21
6.0
 31
0.0
210
0.0
220
0.0
230
1.0
 40
0.926667
 41
3.1415929999999999
 42
0.0
  0
LINE
  5
1EA
100
AcDbEntity
  8
3
370
    50
100
AcDbLine
 10
-273.262303
 20
-127.5108
 30
0.0
 11
-273.262303
 21
-126.0108
 31
0.0
  0
LINE
  5
1EB
100
AcDbEntity
  8
3
370
    50
100
AcDbLine
 10
-255.762303
 20
-126.0108
 30
0.0
 11
-273.262303
 21
-126.0108
 31
0.0
  0
LINE
  5
1EC
100
AcDbEntity
  8
3
370
    50
100
AcDbLine
 10
-255.762303
 20
-127.5108
 30
0.0
 11
-273.262303
 21
-127.5108
 31
0.0
  0
LINE
  5
1ED
100
AcDbEntity
  8
3
370
    50
100
AcDbLine
 10
-267.762303
 20
-136.2108
 30
0.0
 11
-255.762303
 21
-136.2108
 31
0.0
  0
LINE
  5
1EE
100
AcDbEntity
  8
3
370
    50
100
AcDbLine
 10
-269.512303
 20
-135.200437
 30
0.0
 11
-269.512303
 21
-129.7108
 31
0.0
  0
LINE
  5
1EF
100
AcDbEntity
  8
3
370
    50
100
AcDbLine
 10
-267.762303
 20
-136.2108
 30
0.0
 11
-269.512303
 21
-135.200437
 31
0.0
  0
LINE
  5
1F0
100
AcDbEntity
  8
3
370
    50
100
AcDbLine
 10
-275.762303
 20
-129.2108
 30
0.0
 11
-275.762303
 21
-128.0108
 31
0.0
  0
LINE
  5
1F1
100
AcDbEntity
  8
3
370
    50
100
AcDbLine
 10
-255.762303
 20
-129.7108
 30
0.0
 11
-270.082854
 21
-129.7108
 31
0.0
  0
LINE
  5
1F2
100
AcDbEntity
  8
3
370
    50
100
AcDbLine
 10
-275.762303
 20
-128.0108
 30
0.0
 11
-255.762303
 21
-128.0108
 31
0.0
  0
LINE
  5
1F3
100
AcDbEntity
  8
3
370
    50
100
AcDbLine
 10
-275.762303
 20
-129.2108
 30
0.0
 11
-255.762303
 21
-129.2108
 31
0.0
  0
ARC
  5
1F4
100
AcDbEntity
  8
3
370
    50
100
AcDbCircle
 10
-270.082854
 20
-124.7108
 30
0.0
 40
5.0
100
AcDbArc
 50
246.443536
 51
270.0
  0
ARC
  5
1F5
100
AcDbEntity
  8
3
370
    50
100
AcDbCircle
 10
-270.082854
 20
-132.5108
 30
0.0
 40
5.0
100
AcDbArc
 50
90.0
 51
113.556464
  0
ARC
  5
1F6
100
AcDbEntity
  8
3
370
    50
100
AcDbCircle
 10
-272.480769
 20
-130.2108
 30
0.0
 40
1.0
100
AcDbArc
 50
66.443536
 51
90.0
  0
ARC
  5
1F7
100
AcDbEntity
  8
3
370
    50
100
AcDbCircle
 10
-272.480769
 20
-127.0108
 30
0.0
 40
1.0
100
AcDbArc
 50
270.0
 51
293.556464
  0
LINE
  5
1F8
100
AcDbEntity
  8
3
370
    50
100
AcDbLine
 10
-262.762303
 20
-135.200437
 30
0.0
 11
-262.762303
 21
-129.7108
 31
0.0
  0
ARC
  5
1F9
100
AcDbEntity
  8
3
370
    50
100
AcDbCircle
 10
-255.762303
 20
-111.456907
 30
0.0
 40
24.753893
100
AcDbArc
 50
253.573579
 51
270.0
  0
ARC
  5
1FA
100
AcDbEntity
  8
3
370
    50
100
AcDbCircle
 10
-266.137303
 20
-130.068721
 30
0.0
 40
6.142079
100
AcDbArc
 50
236.668091
 51
303.331909
  0
ARC
  5
1FB
100
AcDbEntity
  8
3
370
    50
100
AcDbCircle
 10
-264.012303
 20
-113.4608
 30
0.0
 40
16.25
100
AcDbArc
 50
255.749967
 51
277.069714
  0
ARC
  5
1FC
100
AcDbEntity
  8
3
370
    50
100
AcDbCircle
 10
-260.012303
 20
-113.4608
 30
0.0
 40
16.25
100
AcDbArc
 50
255.749967
 51
277.514045
  0
ARC
  5
1FD
100
AcDbEntity
  8
3
370
    50
100
AcDbCircle
 10
-268.012303
 20
-113.4608
 30
0.0
 40
16.25
100
AcDbArc
 50
270.0
 51
277.069714
  0
ARC
  5
1FE
100
AcDbEntity
  8
3
370
    50
100
AcDbCircle
 10
-260.012303
 20
-143.7608
 30
0.0
 40
16.25
100
AcDbArc
 50
82.485955
 51
104.250033
  0
ARC
  5
1FF
100
AcDbEntity
  8
3
370
    50
100
AcDbCircle
 10
-264.012303
 20
-143.7608
 30
0.0
 40
16.25
100
AcDbArc
 50
82.930286
 51
104.250033
  0
ARC
  5
200
100
AcDbEntity
  8
3
370
    50
100
AcDbCircle
 10
-268.012303
 20
-143.7608
 30
0.0
 40
16.25
100
AcDbArc
 50
82.930286
 51
90.0
  0
LINE
  5
201
100
AcDbEntity
  8
3
370
    50
100
AcDbLine
 10
-267.261856
 20
-167.510845
 30
0.0
 11
-255.761856
 21
-167.510845
 31
0.0
  0
ARC
  5
202
100
AcDbEntity
  8
3
370
    50
100
AcDbCircle
 10
-253.486856
 20
-161.510845
 30
0.0
 40
15.025
100
AcDbArc
 50
156.463422
 51
203.536578
  0
LINE
  5
203
100
AcDbEntity
  8
3
370
    50
100
AcDbLine
 10
-267.261856
 20
-155.510845
 30
0.0
 11
-255.761856
 21
-155.510845
 31
0.0
  0
ELLIPSE
  5
204
100
AcDbEntity
  8
3
370
    50
100
AcDbEllipse
 10
-265.721148
 20
-161.510845
 30
0.0
 11
0.0
 21
6.0
 31
0.0
210
0.0
220
0.0
230
1.0
 40
0.458833
 41
0.0
 42
6.2831849999999996
  0
ELLIPSE
  5
205
100
AcDbEntity
  8
3
370
    50
100
AcDbEllipse
 10
-255.761856
 20
-161.510845
 30
0.0
 11
0.0
 21
6.0
 31
0.0
210
0.0
220
0.0
230
1.0
 40
0.926667
 41
0.0
 42
3.1415929999999999
  0
LINE
  5
206
100
AcDbEntity
  8
3
370
    50
100
AcDbLine
 10
-266.239356
 20
-155.510845
 30
0.0
 11
-266.239356
 21
-136.2108
 31
0.0
  0
LINE
  5
207
100
AcDbEntity
  8
3
370
    50
100
AcDbLine
 10
-266.239356
 20
-126.0108
 30
0.0
 11
-266.239356
 21
-101.7108
 31
0.0
  0
LINE
  5
208
100
AcDbEntity
  8
3
370
    25
100
AcDbLine
 10
-265.039356
 20
-155.510845
 30
0.0
 11
-265.039356
 21
-136.2108
 31
0.0
  0
LINE
  5
209
100
AcDbEntity
  8
3
370
    25
100
AcDbLine
 10
-265.039356
 20
-126.0108
 30
0.0
 11
-265.039356
 21
-102.2108
 31
0.0
  0
LINE
  5
20A
100
AcDbEntity
  8
3
370
    50
100
AcDbLine
 10
-245.284356
 20
-155.510845
 30
0.0
 11
-245.284356
 21
-136.2108
 31
0.0
  0
LINE
  5
20B
100
AcDbEntity
  8
3
370
    50
100
AcDbLine
 10
-245.284356
 20
-126.0108
 30
0.0
 11
-245.284356
 21
-101.7108
 31
0.0
  0
LINE
  5
20C
100
AcDbEntity
  8
3
370
    25
100
AcDbLine
 10
-246.484356
 20
-155.510845
 30
0.0
 11
-246.484356
 21
-136.2108
 31
0.0
  0
LINE
  5
20D
100
AcDbEntity
  8
3
370
    25
100
AcDbLine
 10
-246.484356
 20
-126.0108
 30
0.0
 11
-246.484356
 21
-102.2108
 31
0.0
  0
CIRCLE
  5
20E
100
AcDbEntity
  8
3
370
    50
100
AcDbCircle
 10
-255.761783
 20
220.834202
 30
0.0
 40
9.0
  0
CIRCLE
  5
20F
100
AcDbEntity
  8
3
370
    50
100
AcDbCircle
 10
-55.761783
 20
220.834202
 30
0.0
 40
9.0
  0
LINE
  5
210
100
AcDbEntity
  8
3
370
    50
100
AcDbLine
 10
-161.808888
 20
234.834138
 30
0.0
 11
-149.715501
 21
234.834138
 31
0.0
  0
LINE
  5
211
100
AcDbEntity
  8
3
370
    50
100
AcDbLine
 10
-146.661186
 20
233.070728
 30
0.0
 11
-140.614492
 21
222.597548
 31
0.0
  0
LINE
  5
212
100
AcDbEntity
  8
3
370
    50
100
AcDbLine
 10
-142.627439
 20
215.584202
 30
0.0
 11
-140.614492
 21
219.070728
 31
0.0
  0
LINE
  5
213
100
AcDbEntity
  8
3
370
    50
100
AcDbLine
 10
-161.808888
 20
206.834138
 30
0.0
 11
-157.782846
 21
206.834138
 31
0.0
  0
LINE
  5
214
100
AcDbEntity
  8
3
370
    50
100
AcDbLine
 10
-170.909897
 20
219.070728
 30
0.0
 11
-164.863204
 21
208.597548
 31
0.0
  0
LINE
  5
215
100
AcDbEntity
  8
3
370
    50
100
AcDbLine
 10
-170.909897
 20
222.597548
 30
0.0
 11
-164.863204
 21
233.070728
 31
0.0
  0
ARC
  5
216
100
AcDbEntity
  8
3
370
    50
100
AcDbCircle
 10
-155.762195
 20
220.834138
 30
0.0
 40
15.25
100
AcDbArc
 50
53.359838
 51
66.640162
  0
ARC
  5
217
100
AcDbEntity
  8
3
370
    50
100
AcDbCircle
 10
-155.762195
 20
220.834138
 30
0.0
 40
15.25
100
AcDbArc
 50
353.359838
 51
6.640162
  0
ARC
  5
218
100
AcDbEntity
  8
3
370
    50
100
AcDbCircle
 10
-155.762195
 20
220.834138
 30
0.0
 40
15.25
100
AcDbArc
 50
233.359838
 51
246.640162
  0
ARC
  5
219
100
AcDbEntity
  8
3
370
    50
100
AcDbCircle
 10
-155.762195
 20
220.834138
 30
0.0
 40
15.25
100
AcDbArc
 50
113.359838
 51
126.640162
  0
ARC
  5
21A
100
AcDbEntity
  8
3
370
    50
100
AcDbCircle
 10
-155.762195
 20
220.834138
 30
0.0
 40
15.25
100
AcDbArc
 50
173.359838
 51
186.640162
  0
LINE
  5
21B
100
AcDbEntity
  8
3
370
    50
100
AcDbLine
 10
-169.530362
 20
-59.210302
 30
0.0
 11
-141.99335
 21
-59.210302
 31
0.0
  0
LINE
  5
21C
100
AcDbEntity
  8
3
370
    50
100
AcDbLine
 10
-169.530362
 20
-74.711302
 30
0.0
 11
-141.99335
 21
-74.711302
 31
0.0
  0
ARC
  5
21D
100
AcDbEntity
  8
3
370
    50
100
AcDbCircle
 10
-155.511856
 20
-65.710302
 30
0.0
 40
15.0
100
AcDbArc
 50
334.320711
 51
25.679289
  0
ARC
  5
21E
100
AcDbEntity
  8
3
370
    50
100
AcDbCircle
 10
-156.011856
 20
-65.710302
 30
0.0
 40
15.0
100
AcDbArc
 50
154.320711
 51
205.679289
  0
ELLIPSE
  5
21F
100
AcDbEntity
  8
3
370
    50
100
AcDbEllipse
 10
-143.6375
 20
-65.710302
 30
0.0
 11
0.0
 21
6.5
 31
0.0
210
0.0
220
0.0
230
1.0
 40
0.465077
 41
0.0
 42
6.2831849999999996
  0
ELLIPSE
  5
220
100
AcDbEntity
  8
3
370
    50
100
AcDbEllipse
 10
-155.761856
 20
-65.710302
 30
0.0
 11
0.0
 21
6.5
 31
0.0
210
0.0
220
0.0
230
1.0
 40
0.930154
 41
3.1415929999999999
 42
0.0
  0
LINE
  5
221
100
AcDbEntity
  8
3
370
    25
  6
CENTER
100
AcDbLine
 10
-155.762195
 20
184.804459
 30
0.0
 11
-155.762195
 21
247.546585
 31
0.0
  0
LINE
  5
222
100
AcDbEntity
  8
3
370
    25
  6
CENTER
100
AcDbLine
 10
-155.761856
 20
69.986977
 30
0.0
 11
-155.761856
 21
-109.054657
 31
0.0
  0
LINE
  5
223
100
AcDbEntity
  8
3
370
    50
100
AcDbLine
 10
-141.99335
 20
-72.210302
 30
0.0
 11
-169.530362
 21
-72.210302
 31
0.0
  0
POINT
  5
224
100
AcDbEntity
  8
3
370
    50
100
AcDbPoint
 10
-155.761856
 20
-59.210302
 30
0.0
  0
LINE
  5
225
100
AcDbEntity
  8
3
370
    50
100
AcDbLine
 10
-142.541356
 20
-72.210302
 30
0.0
 11
-142.541356
 21
-74.7108
 31
0.0
  0
ELLIPSE
  5
226
100
AcDbEntity
  8
3
370
    50
100
AcDbEllipse
 10
-155.761856
 20
-65.710302
 30
0.0
 11
0.0
 21
6.5
 31
0.0
210
0.0
220
0.0
230
1.0
 40
0.930154
 41
0.0
 42
3.1415929999999999
  0
ELLIPSE
  5
227
100
AcDbEntity
  8
3
370
    50
100
AcDbEllipse
 10
-167.886212
 20
-65.710302
 30
0.0
 11
0.0
 21
6.5
 31
0.0
210
0.0
220
0.0
230
1.0
 40
0.465077
 41
0.0
 42
6.2831849999999996
  0
ARC
  5
228
100
AcDbEntity
  8
3
370
    50
100
AcDbCircle
 10
-155.761856
 20
57.525895
 30
0.0
 40
8.75
100
AcDbArc
 50
0.0
 51
180.0
  0
POINT
  5
229
100
AcDbEntity
  8
3
370
    50
100
AcDbPoint
 10
-155.761856
 20
19.7861
 30
0.0
  0
LINE
  5
22A
100
AcDbEntity
  8
3
370
    50
100
AcDbLine
 10
-147.011856
 20
-59.210302
 30
0.0
 11
-147.011856
 21
19.994589
 31
0.0
  0
LINE
  5
22B
100
AcDbEntity
  8
3
370
    50
100
AcDbLine
 10
-147.011856
 20
24.351608
 30
0.0
 11
-147.011856
 21
57.525895
 31
0.0
  0
LINE
  5
22C
100
AcDbEntity
  8
3
370
    50
100
AcDbLine
 10
-164.511856
 20
-59.210302
 30
0.0
 11
-164.511856
 21
19.669897
 31
0.0
  0
LINE
  5
22D
100
AcDbEntity
  8
3
370
    50
100
AcDbLine
 10
-164.511856
 20
24.369543
 30
0.0
 11
-164.511856
 21
57.525895
 31
0.0
  0
ARC
  5
22E
100
AcDbEntity
  8
3
370
    25
100
AcDbCircle
 10
-155.762195
 20
220.834138
 30
0.0
 40
9.65
100
AcDbArc
 50
5.058988
 51
234.94282
  0
ARC
  5
22F
100
AcDbEntity
  8
3
370
    50
100
AcDbCircle
 10
-155.762195
 20
220.834138
 30
0.0
 40
9.15
100
AcDbArc
 50
12.997338
 51
227.005412
  0
ARC
  5
230
100
AcDbEntity
  8
3
370
    50
100
AcDbCircle
 10
-155.761783
 20
220.834202
 30
0.0
 40
8.75
100
AcDbArc
 50
29.506579
 51
211.846981
  0
ARC
  5
231
100
AcDbEntity
  8
3
370
    50
100
AcDbCircle
 10
-155.762195
 20
220.834138
 30
0.0
 40
14.0
100
AcDbArc
 50
338.682524
 51
261.318149
  0
POINT
  5
232
100
AcDbEntity
  8
3
370
    50
100
AcDbPoint
 10
-66.336965
 20
65.945641
 30
0.0
  0
ARC
  5
233
100
AcDbEntity
  8
3
370
    50
100
AcDbCircle
 10
-70.711965
 20
73.523363
 30
0.0
 40
8.75
100
AcDbArc
 50
210.0
 51
30.0
  0
POINT
  5
234
100
AcDbEntity
  8
3
370
    50
100
AcDbPoint
 10
-66.336965
 20
65.945641
 30
0.0
  0
ARC
  5
235
100
AcDbEntity
  8
3
370
    50
100
AcDbCircle
 10
-55.761783
 20
220.834202
 30
0.0
 40
25.0
100
AcDbArc
 50
66.597825
 51
90.0
  0
ARC
  5
236
100
AcDbEntity
  8
3
370
    50
100
AcDbCircle
 10
-55.761783
 20
220.834202
 30
0.0
 40
25.0
100
AcDbArc
 50
6.597825
 51
53.402175
  0
ARC
  5
237
100
AcDbEntity
  8
3
370
    50
100
AcDbCircle
 10
-55.761783
 20
220.834202
 30
0.0
 40
25.0
100
AcDbArc
 50
270.0
 51
293.402175
  0
ARC
  5
238
100
AcDbEntity
  8
3
370
    50
100
AcDbCircle
 10
-55.761783
 20
220.834202
 30
0.0
 40
25.0
100
AcDbArc
 50
306.597825
 51
353.402175
  0
ARC
  5
239
100
AcDbEntity
  8
3
370
    50
100
AcDbCircle
 10
-55.761783
 20
220.773791
 30
0.0
 40
20.768
100
AcDbArc
 50
22.139695
 51
38.008098
  0
ARC
  5
23A
100
AcDbEntity
  8
3
370
    50
100
AcDbCircle
 10
-55.761783
 20
220.773791
 30
0.0
 40
20.768
100
AcDbArc
 50
321.565308
 51
338.582705
  0
ARC
  5
23B
100
AcDbEntity
  8
3
370
    50
100
AcDbCircle
 10
-55.761783
 20
220.834202
 30
0.0
 40
20.768
100
AcDbArc
 50
270.0
 51
278.226756
  0
ARC
  5
23C
100
AcDbEntity
  8
3
370
    50
100
AcDbCircle
 10
-55.761783
 20
220.773791
 30
0.0
 40
20.768
100
AcDbArc
 50
201.417295
 51
218.434692
  0
ARC
  5
23D
100
AcDbEntity
  8
3
370
    50
100
AcDbCircle
 10
-55.761783
 20
220.834202
 30
0.0
 40
20.768
100
AcDbArc
 50
81.773244
 51
90.0
  0
ARC
  5
23E
100
AcDbEntity
  8
3
370
    50
100
AcDbCircle
 10
-55.761783
 20
220.773791
 30
0.0
 40
20.768
100
AcDbArc
 50
141.991902
 51
157.860305
  0
LINE
  5
23F
100
AcDbEntity
  8
3
370
    50
100
AcDbLine
 10
-241.338836
 20
241.602202
 30
0.0
 11
-70.18473
 21
241.602202
 31
0.0
  0
LINE
  5
240
100
AcDbEntity
  8
3
370
    50
100
AcDbLine
 10
-59.924171
 20
241.602202
 30
0.0
 11
-55.761783
 21
241.602202
 31
0.0
  0
LINE
  5
241
100
AcDbEntity
  8
3
370
    50
100
AcDbLine
 10
-133.668118
 20
200.066202
 30
0.0
 11
-70.18473
 21
200.066202
 31
0.0
  0
LINE
  5
242
100
AcDbEntity
  8
3
370
    50
100
AcDbLine
 10
-59.924171
 20
200.066202
 30
0.0
 11
-55.761783
 21
200.066202
 31
0.0
  0
ARC
  5
243
100
AcDbEntity
  8
3
370
    50
100
AcDbCircle
 10
-255.762606
 20
220.834202
 30
0.0
 40
25.0
100
AcDbArc
 50
126.597825
 51
173.402175
  0
ARC
  5
244
100
AcDbEntity
  8
3
370
    50
100
AcDbCircle
 10
-255.762606
 20
220.834202
 30
0.0
 40
25.0
100
AcDbArc
 50
186.597825
 51
233.402175
  0
ARC
  5
245
100
AcDbEntity
  8
3
370
    50
100
AcDbCircle
 10
-255.762606
 20
220.834202
 30
0.0
 40
25.0
100
AcDbArc
 50
246.597825
 51
270.0
  0
ARC
  5
246
100
AcDbEntity
  8
3
370
    50
100
AcDbCircle
 10
-255.762606
 20
220.834202
 30
0.0
 40
25.0
100
AcDbArc
 50
90.0
 51
113.402175
  0
ARC
  5
247
100
AcDbEntity
  8
3
370
    50
100
AcDbCircle
 10
-255.762606
 20
220.773791
 30
0.0
 40
20.768
100
AcDbArc
 50
22.139695
 51
38.008098
  0
ARC
  5
248
100
AcDbEntity
  8
3
370
    50
100
AcDbCircle
 10
-255.762606
 20
220.773791
 30
0.0
 40
20.768
100
AcDbArc
 50
321.565308
 51
338.582705
  0
ARC
  5
249
100
AcDbEntity
  8
3
370
    50
100
AcDbCircle
 10
-255.762606
 20
220.834202
 30
0.0
 40
20.768
100
AcDbArc
 50
261.773244
 51
270.0
  0
LINE
  5
24A
100
AcDbEntity
  8
3
370
    50
100
AcDbLine
 10
-251.600218
 20
200.066202
 30
0.0
 11
-255.762606
 21
200.066202
 31
0.0
  0
ARC
  5
24B
100
AcDbEntity
  8
3
370
    50
100
AcDbCircle
 10
-255.762606
 20
220.773791
 30
0.0
 40
20.768
100
AcDbArc
 50
201.417295
 51
218.434692
  0
ARC
  5
24C
100
AcDbEntity
  8
3
370
    50
100
AcDbCircle
 10
-255.762606
 20
220.773791
 30
0.0
 40
20.768
100
AcDbArc
 50
141.991902
 51
157.860305
  0
ARC
  5
24D
100
AcDbEntity
  8
3
370
    50
100
AcDbCircle
 10
-255.762606
 20
220.834202
 30
0.0
 40
20.768
100
AcDbArc
 50
90.0
 51
98.226756
  0
LINE
  5
24E
100
AcDbEntity
  8
3
370
    50
100
AcDbLine
 10
-251.600218
 20
241.602202
 30
0.0
 11
-255.762606
 21
241.602202
 31
0.0
  0
LWPOLYLINE
  5
24F
100
AcDbEntity
  8
3
370
    50
100
AcDbPolyline
 90
      900
 70
     0
 10
-161.84349
 20
25.567744
 10
-161.859719
 20
25.564218
 10
-161.875903
 20
25.560586
 10
-161.892057
 20
25.556881
 10
-161.908195
 20
25.553136
 10
-161.924331
 20
25.549381
 10
-161.94039
 20
25.545663
 10
-161.956458
 20
25.541957
 10
-161.97253
 20
25.538252
 10
-161.988601
 20
25.534535
 10
-162.004666
 20
25.530795
 10
-162.020576
 20
25.527057
 10
-162.036478
 20
25.523288
 10
-162.052371
 20
25.519491
 10
-162.068258
 20
25.515667
 10
-162.084139
 20
25.511821
 10
-162.099872
 20
25.507989
 10
-162.115599
 20
25.504136
 10
-162.131322
 20
25.500262
 10
-162.147039
 20
25.496366
 10
-162.162751
 20
25.492447
 10
-162.178323
 20
25.488538
 10
-162.19389
 20
25.484607
 10
-162.209451
 20
25.480654
 10
-162.225007
 20
25.476678
 10
-162.240556
 20
25.472681
 10
-162.255978
 20
25.468694
 10
-162.271395
 20
25.464686
 10
-162.286806
 20
25.460656
 10
-162.302212
 20
25.456605
 10
-162.317611
 20
25.452533
 10
-162.332892
 20
25.44847
 10
-162.348166
 20
25.444386
 10
-162.363435
 20
25.44028
 10
-162.378698
 20
25.436152
 10
-162.393955
 20
25.432002
 10
-162.409096
 20
25.42786
 10
-162.42423
 20
25.423696
 10
-162.439358
 20
25.41951
 10
-162.45448
 20
25.415301
 10
-162.469596
 20
25.411069
 10
-162.484598
 20
25.406844
 10
-162.499593
 20
25.402596
 10
-162.514582
 20
25.398325
 10
-162.529564
 20
25.394031
 10
-162.54454
 20
25.389713
 10
-162.559404
 20
25.385401
 10
-162.574262
 20
25.381065
 10
-162.589112
 20
25.376705
 10
-162.603955
 20
25.372321
 10
-162.618791
 20
25.367913
 10
-162.633521
 20
25.363509
 10
-162.648243
 20
25.359081
 10
-162.662958
 20
25.354628
 10
-162.677665
 20
25.350151
 10
-162.692364
 20
25.345648
 10
-162.706964
 20
25.341148
 10
-162.721555
 20
25.336623
 10
-162.736139
 20
25.332072
 10
-162.750715
 20
25.327496
 10
-162.765283
 20
25.322895
 10
-162.779758
 20
25.318294
 10
-162.794225
 20
25.313667
 10
-162.808683
 20
25.309015
 10
-162.823133
 20
25.304336
 10
-162.837575
 20
25.299631
 10
-162.85193
 20
25.294925
 10
-162.866278
 20
25.290192
 10
-162.880616
 20
25.285433
 10
-162.894946
 20
25.280647
 10
-162.909266
 20
25.275835
 10
-162.923508
 20
25.271018
 10
-162.937742
 20
25.266175
 10
-162.951966
 20
25.261304
 10
-162.96618
 20
25.256406
 10
-162.980385
 20
25.25148
 10
-162.99452
 20
25.246547
 10
-163.008645
 20
25.241586
 10
-163.022761
 20
25.236596
 10
-163.036866
 20
25.231579
 10
-163.050961
 20
25.226532
 10
-163.064995
 20
25.221475
 10
-163.079018
 20
25.216389
 10
-163.093031
 20
25.211273
 10
-163.107033
 20
25.206129
 10
-163.121024
 20
25.200954
 10
-163.134962
 20
25.195766
 10
-163.14889
 20
25.190547
 10
-163.162806
 20
25.185299
 10
-163.176711
 20
25.18002
 10
-163.190604
 20
25.174711
 10
-163.204453
 20
25.169383
 10
-163.218291
 20
25.164025
 10
-163.232117
 20
25.158636
 10
-163.24593
 20
25.153216
 10
-163.259731
 20
25.147764
 10
-163.273499
 20
25.142289
 10
-163.287254
 20
25.136782
 10
-163.300996
 20
25.131243
 10
-163.314724
 20
25.125671
 10
-163.32844
 20
25.120067
 10
-163.342132
 20
25.114434
 10
-163.355811
 20
25.108768
 10
-163.369476
 20
25.103068
 10
-163.383127
 20
25.097335
 10
-163.396763
 20
25.091568
 10
-163.410388
 20
25.085766
 10
-163.423998
 20
25.07993
 10
-163.437593
 20
25.074059
 10
-163.451172
 20
25.068154
 10
-163.464737
 20
25.062214
 10
-163.478301
 20
25.056233
 10
-163.491849
 20
25.050216
 10
-163.505381
 20
25.044164
 10
-163.518896
 20
25.038076
 10
-163.532396
 20
25.031951
 10
-163.545905
 20
25.025779
 10
-163.559398
 20
25.019569
 10
-163.572873
 20
25.013323
 10
-163.586332
 20
25.007039
 10
-163.599772
 20
25.000717
 10
-163.613234
 20
24.994339
 10
-163.626677
 20
24.987923
 10
-163.640102
 20
24.981468
 10
-163.653509
 20
24.974974
 10
-163.666896
 20
24.968442
 10
-163.680316
 20
24.961844
 10
-163.693717
 20
24.955206
 10
-163.707098
 20
24.948529
 10
-163.720458
 20
24.941811
 10
-163.733799
 20
24.935053
 10
-163.747183
 20
24.928222
 10
-163.760547
 20
24.921349
 10
-163.773889
 20
24.914434
 10
-163.78721
 20
24.907478
 10
-163.800508
 20
24.90048
 10
-163.813862
 20
24.893398
 10
-163.827192
 20
24.886273
 10
-163.8405
 20
24.879104
 10
-163.853784
 20
24.871892
 10
-163.867044
 20
24.864637
 10
-163.88037
 20
24.857287
 10
-163.893671
 20
24.849892
 10
-163.906947
 20
24.842453
 10
-163.920197
 20
24.834968
 10
-163.933422
 20
24.827438
 10
-163.946724
 20
24.819804
 10
-163.959999
 20
24.812123
 10
-163.973246
 20
24.804395
 10
-163.986467
 20
24.79662
 10
-163.999659
 20
24.788798
 10
-164.012937
 20
24.780861
 10
-164.026185
 20
24.772874
 10
-164.039405
 20
24.76484
 10
-164.052594
 20
24.756756
 10
-164.065753
 20
24.748623
 10
-164.079006
 20
24.740363
 10
-164.092227
 20
24.732052
 10
-164.105416
 20
24.723691
 10
-164.118573
 20
24.71528
 10
-164.131698
 20
24.706817
 10
-164.144924
 20
24.698215
 10
-164.158116
 20
24.689562
 10
-164.171273
 20
24.680855
 10
-164.184395
 20
24.672096
 10
-164.197482
 20
24.663285
 10
-164.210675
 20
24.654323
 10
-164.223831
 20
24.645306
 10
-164.23695
 20
24.636235
 10
-164.250031
 20
24.62711
 10
-164.263073
 20
24.61793
 10
-164.276226
 20
24.608588
 10
-164.289339
 20
24.599189
 10
-164.302411
 20
24.589735
 10
-164.315443
 20
24.580223
 10
-164.328432
 20
24.570656
 10
-164.341535
 20
24.560915
 10
-164.354595
 20
24.551116
 10
-164.367611
 20
24.541259
 10
-164.380582
 20
24.531344
 10
-164.393508
 20
24.52137
 10
-164.406548
 20
24.511213
 10
-164.41954
 20
24.500996
 10
-164.432484
 20
24.490719
 10
-164.445381
 20
24.480382
 10
-164.458229
 20
24.469984
 10
-164.471189
 20
24.459394
 10
-164.484098
 20
24.448742
 10
-164.496956
 20
24.438027
 10
-164.509762
 20
24.427251
 10
-164.522516
 20
24.416413
 10
-164.535377
 20
24.405375
 10
-164.548184
 20
24.394273
 10
-164.560935
 20
24.383107
 10
-164.573631
 20
24.371877
 10
-164.586269
 20
24.360585
 10
-164.59901
 20
24.349084
 10
-164.611692
 20
24.337518
 10
-164.624315
 20
24.325887
 10
-164.636877
 20
24.314191
 10
-164.649379
 20
24.30243
 10
-164.661975
 20
24.290456
 10
-164.674508
 20
24.278415
 10
-164.686977
 20
24.266308
 10
-164.699381
 20
24.254134
 10
-164.71172
 20
24.241895
 10
-164.724145
 20
24.229438
 10
-164.736501
 20
24.216914
 10
-164.748788
 20
24.204322
 10
-164.761007
 20
24.191663
 10
-164.773156
 20
24.178938
 10
-164.785379
 20
24.165991
 10
-164.79753
 20
24.152976
 10
-164.809607
 20
24.139894
 10
-164.82161
 20
24.126743
 10
-164.83354
 20
24.113525
 10
-164.84553
 20
24.100086
 10
-164.857444
 20
24.086578
 10
-164.869279
 20
24.073002
 10
-164.881036
 20
24.059358
 10
-164.892714
 20
24.045646
 10
-164.90444
 20
24.031713
 10
-164.916083
 20
24.017711
 10
-164.927644
 20
24.00364
 10
-164.939122
 20
23.989502
 10
-164.950515
 20
23.975296
 10
-164.961943
 20
23.960871
 10
-164.973284
 20
23.946378
 10
-164.984537
 20
23.931817
 10
-164.995701
 20
23.917188
 10
-165.006777
 20
23.902492
 10
-165.017872
 20
23.887581
 10
-165.028875
 20
23.872602
 10
-165.039786
 20
23.857556
 10
-165.050603
 20
23.842442
 10
-165.061327
 20
23.827262
 10
-165.072055
 20
23.811873
 10
-165.082686
 20
23.796417
 10
-165.093221
 20
23.780894
 10
-165.103657
 20
23.765306
 10
-165.113994
 20
23.749651
 10
-165.124322
 20
23.733795
 10
-165.134547
 20
23.717873
 10
-165.144671
 20
23.701886
 10
-165.154692
 20
23.685834
 10
-165.164609
 20
23.669719
 10
-165.174502
 20
23.653409
 10
-165.184288
 20
23.637035
 10
-165.193968
 20
23.620598
 10
-165.203541
 20
23.604098
 10
-165.213005
 20
23.587536
 10
-165.222431
 20
23.570789
 10
-165.231745
 20
23.553981
 10
-165.240949
 20
23.537111
 10
-165.250041
 20
23.520181
 10
-165.25902
 20
23.50319
 10
-165.267947
 20
23.486025
 10
-165.276759
 20
23.4688
 10
-165.285455
 20
23.451517
 10
-165.294035
 20
23.434176
 10
-165.302499
 20
23.416777
 10
-165.310897
 20
23.399214
 10
-165.319177
 20
23.381594
 10
-165.327336
 20
23.363919
 10
-165.335376
 20
23.346189
 10
-165.343295
 20
23.328404
 10
-165.351136
 20
23.310466
 10
-165.358854
 20
23.292475
 10
-165.366449
 20
23.274431
 10
-165.373921
 20
23.256335
 10
-165.381268
 20
23.238189
 10
-165.388526
 20
23.219901
 10
-165.395658
 20
23.201564
 10
-165.402663
 20
23.183177
 10
-165.40954
 20
23.164743
 10
-165.41629
 20
23.146262
 10
-165.42294
 20
23.127651
 10
-165.42946
 20
23.108994
 10
-165.43585
 20
23.090293
 10
-165.442109
 20
23.071547
 10
-165.448237
 20
23.052758
 10
-165.454257
 20
23.033852
 10
-165.460144
 20
23.014905
 10
-165.465898
 20
22.995917
 10
-165.471519
 20
22.97689
 10
-165.477005
 20
22.957822
 10
-165.482375
 20
22.938652
 10
-165.487608
 20
22.919444
 10
-165.492706
 20
22.900199
 10
-165.497668
 20
22.880919
 10
-165.502493
 20
22.861604
 10
-165.507194
 20
22.842199
 10
-165.511757
 20
22.822761
 10
-165.516182
 20
22.803291
 10
-165.520469
 20
22.78379
 10
-165.524616
 20
22.764258
 10
-165.528634
 20
22.74465
 10
-165.532511
 20
22.725014
 10
-165.536248
 20
22.70535
 10
-165.539845
 20
22.685661
 10
-165.5433
 20
22.665945
 10
-165.546621
 20
22.646167
 10
-165.549799
 20
22.626365
 10
-165.552835
 20
22.606541
 10
-165.555729
 20
22.586695
 10
-165.558481
 20
22.566829
 10
-165.561094
 20
22.546913
 10
-165.563563
 20
22.526979
 10
-165.565889
 20
22.507028
 10
-165.568072
 20
22.48706
 10
-165.57011
 20
22.467077
 10
-165.572006
 20
22.447058
 10
-165.573758
 20
22.427025
 10
-165.575365
 20
22.40698
 10
-165.576828
 20
22.386925
 10
-165.578146
 20
22.366859
 10
-165.57932
 20
22.34677
 10
-165.580349
 20
22.326673
 10
-165.581233
 20
22.30657
 10
-165.581972
 20
22.28646
 10
-165.582565
 20
22.266346
 10
-165.583013
 20
22.246222
 10
-165.583315
 20
22.226096
 10
-165.583472
 20
22.205968
 10
-165.583484
 20
22.18584
 10
-165.58335
 20
22.165711
 10
-165.58307
 20
22.145588
 10
-165.582646
 20
22.125466
 10
-165.582076
 20
22.105349
 10
-165.581361
 20
22.085235
 10
-165.5805
 20
22.065128
 10
-165.579495
 20
22.045039
 10
-165.578345
 20
22.024957
 10
-165.57705
 20
22.004884
 10
-165.57561
 20
21.984821
 10
-165.574025
 20
21.964769
 10
-165.572297
 20
21.944749
 10
-165.570426
 20
21.924741
 10
-165.56841
 20
21.904748
 10
-165.56625
 20
21.88477
 10
-165.563947
 20
21.864807
 10
-165.561503
 20
21.84489
 10
-165.558916
 20
21.824991
 10
-165.556187
 20
21.805111
 10
-165.553314
 20
21.785251
 10
-165.550299
 20
21.765412
 10
-165.547148
 20
21.745632
 10
-165.543855
 20
21.725875
 10
-165.54042
 20
21.706142
 10
-165.536845
 20
21.686434
 10
-165.533129
 20
21.666753
 10
-165.529281
 20
21.647143
 10
-165.525293
 20
21.627561
 10
-165.521165
 20
21.608009
 10
-165.516899
 20
21.588486
 10
-165.512493
 20
21.568994
 10
-165.507962
 20
21.549588
 10
-165.503292
 20
21.530214
 10
-165.498486
 20
21.510874
 10
-165.493543
 20
21.491568
 10
-165.488463
 20
21.472298
 10
-165.483263
 20
21.453127
 10
-165.477929
 20
21.433992
 10
-165.47246
 20
21.414896
 10
-165.466857
 20
21.395839
 10
-165.46112
 20
21.376822
 10
-165.455271
 20
21.357916
 10
-165.449289
 20
21.339052
 10
-165.443176
 20
21.320231
 10
-165.436932
 20
21.301452
 10
-165.430556
 20
21.282718
 10
-165.424078
 20
21.264108
 10
-165.417471
 20
21.245543
 10
-165.410735
 20
21.227025
 10
-165.40387
 20
21.208554
 10
-165.396878
 20
21.190131
 10
-165.389793
 20
21.171845
 10
-165.382582
 20
21.153608
 10
-165.375246
 20
21.135422
 10
-165.367785
 20
21.117286
 10
-165.3602
 20
21.099202
 10
-165.352533
 20
21.081266
 10
-165.344744
 20
21.063384
 10
-165.336833
 20
21.045555
 10
-165.328801
 20
21.02778
 10
-165.320649
 20
21.01006
 10
-165.312426
 20
20.9925
 10
-165.304085
 20
20.974997
 10
-165.295626
 20
20.95755
 10
-165.287051
 20
20.94016
 10
-165.278359
 20
20.922829
 10
-165.269609
 20
20.905668
 10
-165.260745
 20
20.888566
 10
-165.251768
 20
20.871524
 10
-165.242678
 20
20.854541
 10
-165.233476
 20
20.837619
 10
-165.224229
 20
20.820879
 10
-165.214872
 20
20.8042
 10
-165.205407
 20
20.787583
 10
-165.195833
 20
20.771028
 10
-165.186151
 20
20.754536
 10
-165.176438
 20
20.738234
 10
-165.166621
 20
20.721996
 10
-165.156699
 20
20.705821
 10
-165.146674
 20
20.689711
 10
-165.136545
 20
20.673665
 10
-165.1264
 20
20.657819
 10
-165.116154
 20
20.642038
 10
-165.105809
 20
20.626322
 10
-165.095365
 20
20.610672
 10
-165.084822
 20
20.595088
 10
-165.074278
 20
20.579711
 10
-165.063638
 20
20.564399
 10
-165.052903
 20
20.549154
 10
-165.042074
 20
20.533976
 10
-165.031151
 20
20.518866
 10
-165.020242
 20
20.503968
 10
-165.009242
 20
20.489137
 10
-164.998152
 20
20.474374
 10
-164.986972
 20
20.459678
 10
-164.975703
 20
20.44505
 10
-164.964463
 20
20.430639
 10
-164.953137
 20
20.416296
 10
-164.941725
 20
20.402021
 10
-164.930229
 20
20.387814
 10
-164.918649
 20
20.373675
 10
-164.907112
 20
20.359756
 10
-164.895494
 20
20.345905
 10
-164.883795
 20
20.332122
 10
-164.872016
 20
20.318407
 10
-164.860158
 20
20.304761
 10
-164.848357
 20
20.291336
 10
-164.83648
 20
20.277979
 10
-164.824527
 20
20.264689
 10
-164.812498
 20
20.251467
 10
-164.800396
 20
20.238314
 10
-164.788362
 20
20.225381
 10
-164.776258
 20
20.212515
 10
-164.764082
 20
20.199717
 10
-164.751836
 20
20.186985
 10
-164.73952
 20
20.174321
 10
-164.727285
 20
20.161877
 10
-164.714984
 20
20.149499
 10
-164.702616
 20
20.137187
 10
-164.690182
 20
20.124941
 10
-164.677683
 20
20.112762
 10
-164.665275
 20
20.100799
 10
-164.652804
 20
20.0889
 10
-164.640272
 20
20.077066
 10
-164.627678
 20
20.065298
 10
-164.615024
 20
20.053595
 10
-164.602469
 20
20.042103
 10
-164.589856
 20
20.030674
 10
-164.577185
 20
20.01931
 10
-164.564458
 20
20.008009
 10
-164.551674
 20
19.996772
 10
-164.538995
 20
19.985738
 10
-164.526262
 20
19.974767
 10
-164.513476
 20
19.963859
 10
-164.500637
 20
19.953012
 10
-164.487745
 20
19.942228
 10
-164.474964
 20
19.93164
 10
-164.462133
 20
19.921112
 10
-164.449252
 20
19.910645
 10
-164.436322
 20
19.900239
 10
-164.423344
 20
19.889893
 10
-164.410478
 20
19.879733
 10
-164.397566
 20
19.869633
 10
-164.384608
 20
19.859592
 10
-164.371604
 20
19.849609
 10
-164.358556
 20
19.839686
 10
-164.34562
 20
19.829938
 10
-164.332642
 20
19.820248
 10
-164.319621
 20
19.810615
 10
-164.306558
 20
19.801038
 10
-164.293453
 20
19.791519
 10
-164.280461
 20
19.782165
 10
-164.267428
 20
19.772867
 10
-164.254357
 20
19.763623
 10
-164.241247
 20
19.754435
 10
-164.228098
 20
19.745302
 10
-164.215057
 20
19.736323
 10
-164.20198
 20
19.727397
 10
-164.188866
 20
19.718525
 10
-164.175716
 20
19.709706
 10
-164.162531
 20
19.700939
 10
-164.149449
 20
19.692316
 10
-164.136333
 20
19.683744
 10
-164.123184
 20
19.675223
 10
-164.110002
 20
19.666753
 10
-164.096787
 20
19.658334
 10
-164.083669
 20
19.650047
 10
-164.070519
 20
19.641809
 10
-164.057339
 20
19.633621
 10
-164.044128
 20
19.625482
 10
-164.030887
 20
19.617392
 10
-164.017734
 20
19.609421
 10
-164.004552
 20
19.601499
 10
-163.991341
 20
19.593624
 10
-163.978102
 20
19.585796
 10
-163.964836
 20
19.578015
 10
-163.951649
 20
19.570343
 10
-163.938436
 20
19.562717
 10
-163.925196
 20
19.555137
 10
-163.911931
 20
19.547601
 10
-163.898639
 20
19.540111
 10
-163.885417
 20
19.532719
 10
-163.872171
 20
19.525371
 10
-163.8589
 20
19.518067
 10
-163.845605
 20
19.510807
 10
-163.832287
 20
19.503591
 10
-163.819027
 20
19.496461
 10
-163.805744
 20
19.489375
 10
-163.792438
 20
19.48233
 10
-163.779111
 20
19.475328
 10
-163.765761
 20
19.468367
 10
-163.75246
 20
19.461484
 10
-163.739137
 20
19.454641
 10
-163.725794
 20
19.447839
 10
-163.71243
 20
19.441077
 10
-163.699046
 20
19.434356
 10
-163.682359
 20
19.426045
 10
-163.665641
 20
19.417796
 10
-163.648893
 20
19.409608
 10
-163.632115
 20
19.40148
 10
-163.615363
 20
19.393439
 10
-163.598583
 20
19.385457
 10
-163.581774
 20
19.377534
 10
-163.564939
 20
19.369669
 10
-163.548115
 20
19.361879
 10
-163.531264
 20
19.354146
 10
-163.514388
 20
19.34647
 10
-163.497487
 20
19.33885
 10
-163.480583
 20
19.331295
 10
-163.463655
 20
19.323796
 10
-163.446703
 20
19.316351
 10
-163.429727
 20
19.30896
 10
-163.412736
 20
19.301626
 10
-163.395722
 20
19.294345
 10
-163.378685
 20
19.287117
 10
-163.361627
 20
19.279942
 10
-163.344539
 20
19.272815
 10
-163.32743
 20
19.26574
 10
-163.3103
 20
19.258715
 10
-163.29315
 20
19.251741
 10
-163.275958
 20
19.244808
 10
-163.258746
 20
19.237924
 10
-163.241514
 20
19.23109
 10
-163.224263
 20
19.224304
 10
-163.206958
 20
19.217552
 10
-163.189635
 20
19.210849
 10
-163.172293
 20
19.204193
 10
-163.154934
 20
19.197584
 10
-163.137508
 20
19.191005
 10
-163.120066
 20
19.184472
 10
-163.102606
 20
19.177985
 10
-163.085129
 20
19.171544
 10
-163.067576
 20
19.165126
 10
-163.050006
 20
19.158754
 10
-163.03242
 20
19.152426
 10
-163.014818
 20
19.146143
 10
-162.997129
 20
19.139877
 10
-162.979424
 20
19.133656
 10
-162.961704
 20
19.127478
 10
-162.943969
 20
19.121342
 10
-162.926136
 20
19.115221
 10
-162.908289
 20
19.109142
 10
-162.890428
 20
19.103105
 10
-162.872553
 20
19.09711
 10
-162.854571
 20
19.091125
 10
-162.836575
 20
19.085182
 10
-162.818566
 20
19.07928
 10
-162.800544
 20
19.073419
 10
-162.782407
 20
19.067565
 10
-162.764257
 20
19.061752
 10
-162.746094
 20
19.055978
 10
-162.727918
 20
19.050244
 10
-162.709619
 20
19.044514
 10
-162.691308
 20
19.038824
 10
-162.672984
 20
19.033172
 10
-162.654649
 20
19.027559
 10
-162.636183
 20
19.021947
 10
-162.617704
 20
19.016374
 10
-162.599215
 20
19.010838
 10
-162.580714
 20
19.005339
 10
-162.562075
 20
18.999841
 10
-162.543425
 20
18.99438
 10
-162.524765
 20
18.988955
 10
-162.506093
 20
18.983567
 10
-162.487278
 20
18.978178
 10
-162.468452
 20
18.972825
 10
-162.449616
 20
18.967508
 10
-162.43077
 20
18.962226
 10
-162.411773
 20
18.956942
 10
-162.392767
 20
18.951692
 10
-162.373751
 20
18.946478
 10
-162.354725
 20
18.941299
 10
-162.335544
 20
18.936115
 10
-162.316353
 20
18.930966
 10
-162.297152
 20
18.925851
 10
-162.277943
 20
18.92077
 10
-162.258573
 20
18.915684
 10
-162.239194
 20
18.910631
 10
-162.219806
 20
18.905612
 10
-162.20041
 20
18.900627
 10
-162.180848
 20
18.895635
 10
-162.161279
 20
18.890676
 10
-162.1417
 20
18.88575
 10
-162.122114
 20
18.880857
 10
-162.102359
 20
18.875957
 10
-162.082596
 20
18.87109
 10
-162.062824
 20
18.866255
 10
-162.043045
 20
18.861452
 10
-162.023093
 20
18.856641
 10
-162.003134
 20
18.851862
 10
-161.983167
 20
18.847115
 10
-161.963192
 20
18.8424
 10
-161.943042
 20
18.837676
 10
-161.922885
 20
18.832983
 10
-161.90272
 20
18.828322
 10
-161.882548
 20
18.823692
 10
-161.862198
 20
18.819053
 10
-161.841841
 20
18.814446
 10
-161.821477
 20
18.809869
 10
-161.801106
 20
18.805322
 10
-161.780554
 20
18.800768
 10
-161.759997
 20
18.796243
 10
-161.739432
 20
18.791749
 10
-161.718861
 20
18.787284
 10
-161.698107
 20
18.782811
 10
-161.677347
 20
18.778368
 10
-161.656581
 20
18.773954
 10
-161.635808
 20
18.76957
 10
-161.614852
 20
18.765178
 10
-161.593889
 20
18.760815
 10
-161.57292
 20
18.756481
 10
-161.551945
 20
18.752175
 10
-161.530785
 20
18.747862
 10
-161.509619
 20
18.743578
 10
-161.488447
 20
18.739323
 10
-161.46727
 20
18.735096
 10
-161.445907
 20
18.730861
 10
-161.424537
 20
18.726655
 10
-161.403163
 20
18.722477
 10
-161.381783
 20
18.718327
 10
-161.360216
 20
18.71417
 10
-161.338643
 20
18.710041
 10
-161.317066
 20
18.705939
 10
-161.295483
 20
18.701866
 10
-161.273712
 20
18.697785
 10
-161.251937
 20
18.693732
 10
-161.230157
 20
18.689706
 10
-161.208371
 20
18.685708
 10
-161.186399
 20
18.681703
 10
-161.164421
 20
18.677726
 10
-161.142439
 20
18.673775
 10
-161.120452
 20
18.669852
 10
-161.098278
 20
18.665923
 10
-161.076099
 20
18.66202
 10
-161.053915
 20
18.658144
 10
-161.031727
 20
18.654295
 10
-161.009352
 20
18.65044
 10
-160.986973
 20
18.646612
 10
-160.964589
 20
18.642811
 10
-160.942201
 20
18.639035
 10
-160.919627
 20
18.635255
 10
-160.897048
 20
18.631501
 10
-160.874466
 20
18.627773
 10
-160.851879
 20
18.624071
 10
-160.829107
 20
18.620365
 10
-160.806331
 20
18.616685
 10
-160.78355
 20
18.61303
 10
-160.760766
 20
18.609401
 10
-160.737798
 20
18.605769
 10
-160.714826
 20
18.602162
 10
-160.69185
 20
18.598581
 10
-160.66887
 20
18.595025
 10
-160.645707
 20
18.591466
 10
-160.622541
 20
18.587932
 10
-160.599371
 20
18.584424
 10
-160.576197
 20
18.58094
 10
-160.552842
 20
18.577455
 10
-160.529484
 20
18.573995
 10
-160.506121
 20
18.570559
 10
-160.482756
 20
18.567148
 10
-160.459211
 20
18.563736
 10
-160.435662
 20
18.560349
 10
-160.41211
 20
18.556986
 10
-160.388555
 20
18.553648
 10
-160.364822
 20
18.550309
 10
-160.341086
 20
18.546995
 10
-160.317347
 20
18.543705
 10
-160.293604
 20
18.540438
 10
-160.269686
 20
18.537173
 10
-160.245764
 20
18.533931
 10
-160.22184
 20
18.530714
 10
-160.197912
 20
18.52752
 10
-160.173811
 20
18.524328
 10
-160.149708
 20
18.52116
 10
-160.125601
 20
18.518015
 10
-160.101491
 20
18.514894
 10
-160.07721
 20
18.511775
 10
-160.052927
 20
18.508679
 10
-160.02864
 20
18.505607
 10
-160.004351
 20
18.502559
 10
-159.979894
 20
18.499513
 10
-159.955433
 20
18.49649
 10
-159.93097
 20
18.493491
 10
-159.906504
 20
18.490515
 10
-159.881873
 20
18.487543
 10
-159.857239
 20
18.484594
 10
-159.832602
 20
18.481668
 10
-159.807963
 20
18.478764
 10
-159.783161
 20
18.475866
 10
-159.758357
 20
18.47299
 10
-159.73355
 20
18.470137
 10
-159.70874
 20
18.467306
 10
-159.683771
 20
18.464481
 10
-159.658799
 20
18.461679
 10
-159.633825
 20
18.458899
 10
-159.608848
 20
18.456142
 10
-159.583715
 20
18.45339
 10
-159.558579
 20
18.450662
 10
-159.533441
 20
18.447955
 10
-159.508301
 20
18.445271
 10
-159.483007
 20
18.442594
 10
-159.457712
 20
18.439939
 10
-159.432414
 20
18.437306
 10
-159.407113
 20
18.434696
 10
-159.381663
 20
18.432092
 10
-159.356211
 20
18.429511
 10
-159.330756
 20
18.426952
 10
-159.305299
 20
18.424415
 10
-159.279696
 20
18.421886
 10
-159.254091
 20
18.419379
 10
-159.228483
 20
18.416895
 10
-159.202874
 20
18.414432
 10
-159.177121
 20
18.411977
 10
-159.151367
 20
18.409545
 10
-159.12561
 20
18.407134
 10
-159.099852
 20
18.404745
 10
-159.073955
 20
18.402365
 10
-159.048055
 20
18.400007
 10
-159.022154
 20
18.397671
 10
-158.99625
 20
18.395357
 10
-158.970212
 20
18.393052
 10
-158.944171
 20
18.390769
 10
-158.918129
 20
18.388507
 10
-158.892084
 20
18.386267
 10
-158.865908
 20
18.384037
 10
-158.839731
 20
18.381829
 10
-158.813551
 20
18.379643
 10
-158.78737
 20
18.377477
 10
-158.761062
 20
18.375323
 10
-158.734751
 20
18.37319
 10
-158.708439
 20
18.371079
 10
-158.682125
 20
18.368988
 10
-158.655688
 20
18.36691
 10
-158.629249
 20
18.364852
 10
-158.602808
 20
18.362816
 10
-158.576366
 20
18.360801
 10
-158.549804
 20
18.358798
 10
-158.523241
 20
18.356816
 10
-158.496676
 20
18.354856
 10
-158.47011
 20
18.352916
 10
-158.443428
 20
18.350989
 10
-158.416745
 20
18.349084
 10
-158.390061
 20
18.347199
 10
-158.363375
 20
18.345335
 10
-158.336578
 20
18.343484
 10
-158.30978
 20
18.341655
 10
-158.28298
 20
18.339846
 10
-158.256179
 20
18.338058
 10
-158.229271
 20
18.336284
 10
-158.202361
 20
18.334531
 10
-158.175451
 20
18.332798
 10
-158.148539
 20
18.331086
 10
-158.121525
 20
18.329389
 10
-158.094509
 20
18.327712
 10
-158.067493
 20
18.326056
 10
-158.040475
 20
18.324421
 10
-158.013359
 20
18.3228
 10
-157.986242
 20
18.3212
 10
-157.959123
 20
18.319621
 10
-157.932004
 20
18.318062
 10
-157.904791
 20
18.316519
 10
-157.877577
 20
18.314996
 10
-157.850362
 20
18.313493
 10
-157.823146
 20
18.312011
 10
-157.795841
 20
18.310545
 10
-157.768535
 20
18.309099
 10
-157.741228
 20
18.307674
 10
-157.71392
 20
18.306269
 10
-157.686527
 20
18.30488
 10
-157.659134
 20
18.303512
 10
-157.63174
 20
18.302164
 10
-157.604344
 20
18.300836
 10
-157.576869
 20
18.299525
 10
-157.549393
 20
18.298234
 10
-157.521917
 20
18.296963
 10
-157.494439
 20
18.295713
 10
-157.466886
 20
18.294479
 10
-157.439333
 20
18.293266
 10
-157.411779
 20
18.292073
 10
-157.384223
 20
18.290901
 10
-157.356598
 20
18.289745
 10
-157.328972
 20
18.28861
 10
-157.301345
 20
18.287495
 10
-157.273717
 20
18.2864
 10
-157.246024
 20
18.285323
 10
-157.218331
 20
18.284265
 10
-157.190636
 20
18.283228
 10
-157.162941
 20
18.282211
 10
-157.135185
 20
18.281212
 10
-157.107428
 20
18.280233
 10
-157.079671
 20
18.279274
 10
-157.051913
 20
18.278335
 10
-157.0241
 20
18.277415
 10
-156.996286
 20
18.276514
 10
-156.968471
 20
18.275633
 10
-156.940655
 20
18.274773
 10
-156.912789
 20
18.27393
 10
-156.884922
 20
18.273108
 10
-156.857055
 20
18.272306
 10
-156.829187
 20
18.271524
 10
-156.801273
 20
18.27076
 10
-156.773359
 20
18.270016
 10
-156.745444
 20
18.269293
 10
-156.717529
 20
18.268589
 10
-156.689573
 20
18.267904
 10
-156.661616
 20
18.267239
 10
-156.633659
 20
18.266594
 10
-156.605701
 20
18.265969
 10
-156.577708
 20
18.265363
 10
-156.549714
 20
18.264776
 10
-156.521719
 20
18.26421
 10
-156.493724
 20
18.263664
 10
-156.465699
 20
18.263136
 10
-156.437672
 20
18.262629
 10
-156.409646
 20
18.262142
 10
-156.381619
 20
18.261674
 10
-156.353566
 20
18.261226
 10
-156.325513
 20
18.260797
 10
-156.29746
 20
18.260389
 10
-156.269406
 20
18.26
 10
-156.241331
 20
18.259631
 10
-156.213256
 20
18.259281
 10
-156.185181
 20
18.258952
 10
-156.157106
 20
18.258642
 10
-156.129014
 20
18.258352
 10
-156.100923
 20
18.258081
 10
-156.072831
 20
18.257831
 10
-156.044739
 20
18.2576
 10
-156.016636
 20
18.257389
 10
-155.988533
 20
18.257198
 10
-155.96043
 20
18.257026
 10
-155.932327
 20
18.256875
 10
-155.904218
 20
18.256743
 10
-155.876108
 20
18.25663
 10
-155.847999
 20
18.256538
 10
-155.81989
 20
18.256466
 10
-155.791779
 20
18.256413
 10
-155.763669
 20
18.25638
 10
-155.735559
 20
18.256366
 10
-155.707449
 20
18.256373
 10
-155.679342
 20
18.256399
 10
-155.651236
 20
18.256445
 10
-155.62313
 20
18.256511
 10
-155.595024
 20
18.256597
 10
-155.566927
 20
18.256702
 10
-155.53883
 20
18.256827
 10
-155.510734
 20
18.256972
 10
-155.482637
 20
18.257137
 10
-155.454555
 20
18.257322
 10
-155.426473
 20
18.257527
 10
-155.398391
 20
18.257751
 10
-155.370309
 20
18.257994
 10
-155.342245
 20
18.258257
 10
-155.314182
 20
18.25854
 10
-155.28612
 20
18.258843
 10
-155.258059
 20
18.259168
 10
-155.230025
 20
18.259513
 10
-155.201991
 20
18.259877
 10
-155.173953
 20
18.260259
 10
-155.14591
 20
18.260657
 10
-155.117889
 20
18.261069
 10
-155.08987
 20
18.261502
 10
-155.061863
 20
18.261964
 10
-155.033881
 20
18.262462
 10
-155.005958
 20
18.262998
 10
-154.978028
 20
18.263548
 10
-154.950054
 20
18.264086
 10
-154.921993
 20
18.264583
 10
-154.893876
 20
18.265032
 10
-154.865784
 20
18.265517
 10
-154.837864
 20
18.266144
 10
-154.810266
 20
18.267019
 10
-154.780246
 20
18.26838
 10
-154.750802
 20
18.27017
 10
-154.721929
 20
18.272388
  0
LWPOLYLINE
  5
5D5
100
AcDbEntity
  8
3
370
    50
100
AcDbPolyline
 90
      900
 70
     0
 10
-154.810266
 20
18.267019
 10
-154.787885
 20
18.267629
 10
-154.765558
 20
18.268187
 10
-154.743268
 20
18.268715
 10
-154.720995
 20
18.269236
 10
-154.698722
 20
18.269771
 10
-154.676472
 20
18.270336
 10
-154.654208
 20
18.270931
 10
-154.631934
 20
18.27155
 10
-154.609657
 20
18.272187
 10
-154.58738
 20
18.272837
 10
-154.56515
 20
18.273493
 10
-154.542924
 20
18.274158
 10
-154.520702
 20
18.274832
 10
-154.498481
 20
18.275518
 10
-154.47626
 20
18.276217
 10
-154.454086
 20
18.276928
 10
-154.43191
 20
18.277654
 10
-154.409735
 20
18.278393
 10
-154.387559
 20
18.279146
 10
-154.365384
 20
18.279911
 10
-154.34326
 20
18.280687
 10
-154.321137
 20
18.281476
 10
-154.299014
 20
18.282277
 10
-154.276892
 20
18.283091
 10
-154.25477
 20
18.283918
 10
-154.232703
 20
18.284756
 10
-154.210637
 20
18.285607
 10
-154.18857
 20
18.286471
 10
-154.166505
 20
18.287348
 10
-154.144439
 20
18.288238
 10
-154.122433
 20
18.289138
 10
-154.100426
 20
18.290052
 10
-154.078421
 20
18.290978
 10
-154.056416
 20
18.291917
 10
-154.034411
 20
18.29287
 10
-154.012469
 20
18.293832
 10
-153.990527
 20
18.294808
 10
-153.968586
 20
18.295796
 10
-153.946645
 20
18.296798
 10
-153.924705
 20
18.297813
 10
-153.902831
 20
18.298838
 10
-153.880957
 20
18.299875
 10
-153.859085
 20
18.300926
 10
-153.837212
 20
18.30199
 10
-153.815341
 20
18.303067
 10
-153.793539
 20
18.304154
 10
-153.771737
 20
18.305253
 10
-153.749936
 20
18.306366
 10
-153.728136
 20
18.307492
 10
-153.706337
 20
18.308631
 10
-153.684611
 20
18.309779
 10
-153.662885
 20
18.310941
 10
-153.641161
 20
18.312116
 10
-153.619437
 20
18.313303
 10
-153.597713
 20
18.314505
 10
-153.576067
 20
18.315715
 10
-153.554421
 20
18.316938
 10
-153.532776
 20
18.318174
 10
-153.511132
 20
18.319424
 10
-153.489489
 20
18.320687
 10
-153.467926
 20
18.321958
 10
-153.446363
 20
18.323243
 10
-153.424802
 20
18.324541
 10
-153.403241
 20
18.325852
 10
-153.381681
 20
18.327177
 10
-153.360205
 20
18.328509
 10
-153.33873
 20
18.329855
 10
-153.317256
 20
18.331215
 10
-153.295783
 20
18.332588
 10
-153.27431
 20
18.333974
 10
-153.252925
 20
18.335368
 10
-153.231541
 20
18.336775
 10
-153.210157
 20
18.338195
 10
-153.188775
 20
18.339629
 10
-153.167393
 20
18.341077
 10
-153.146102
 20
18.342532
 10
-153.124812
 20
18.344
 10
-153.103523
 20
18.345482
 10
-153.082235
 20
18.346977
 10
-153.060948
 20
18.348486
 10
-153.039755
 20
18.350001
 10
-153.018563
 20
18.35153
 10
-152.997372
 20
18.353073
 10
-152.976182
 20
18.354629
 10
-152.954993
 20
18.356199
 10
-152.933901
 20
18.357775
 10
-152.912811
 20
18.359365
 10
-152.891721
 20
18.360968
 10
-152.870632
 20
18.362585
 10
-152.849545
 20
18.364216
 10
-152.828558
 20
18.365853
 10
-152.807572
 20
18.367503
 10
-152.786588
 20
18.369167
 10
-152.765604
 20
18.370845
 10
-152.744621
 20
18.372536
 10
-152.723743
 20
18.374233
 10
-152.702865
 20
18.375943
 10
-152.681989
 20
18.377668
 10
-152.661113
 20
18.379406
 10
-152.640239
 20
18.381158
 10
-152.619472
 20
18.382915
 10
-152.598706
 20
18.384686
 10
-152.577941
 20
18.38647
 10
-152.557177
 20
18.388269
 10
-152.536415
 20
18.390081
 10
-152.515762
 20
18.391898
 10
-152.495111
 20
18.393729
 10
-152.474461
 20
18.395573
 10
-152.453812
 20
18.397432
 10
-152.433164
 20
18.399305
 10
-152.41263
 20
18.401181
 10
-152.392096
 20
18.403072
 10
-152.371564
 20
18.404977
 10
-152.351033
 20
18.406895
 10
-152.330504
 20
18.408828
 10
-152.31009
 20
18.410764
 10
-152.289677
 20
18.412714
 10
-152.269266
 20
18.414679
 10
-152.248856
 20
18.416657
 10
-152.228448
 20
18.41865
 10
-152.208158
 20
18.420645
 10
-152.18787
 20
18.422655
 10
-152.167583
 20
18.424679
 10
-152.147297
 20
18.426717
 10
-152.127013
 20
18.42877
 10
-152.10685
 20
18.430825
 10
-152.086688
 20
18.432894
 10
-152.066528
 20
18.434977
 10
-152.04637
 20
18.437075
 10
-152.026213
 20
18.439187
 10
-152.006179
 20
18.441301
 10
-151.986148
 20
18.443429
 10
-151.966117
 20
18.445572
 10
-151.946089
 20
18.447729
 10
-151.926062
 20
18.449901
 10
-151.906161
 20
18.452074
 10
-151.886262
 20
18.454261
 10
-151.866364
 20
18.456463
 10
-151.846468
 20
18.45868
 10
-151.826574
 20
18.460911
 10
-151.806809
 20
18.463142
 10
-151.787045
 20
18.465389
 10
-151.767282
 20
18.46765
 10
-151.747522
 20
18.469925
 10
-151.727763
 20
18.472216
 10
-151.708135
 20
18.474506
 10
-151.688509
 20
18.476812
 10
-151.668884
 20
18.479132
 10
-151.649262
 20
18.481466
 10
-151.629641
 20
18.483816
 10
-151.610153
 20
18.486165
 10
-151.590667
 20
18.488529
 10
-151.571183
 20
18.490908
 10
-151.551701
 20
18.493302
 10
-151.532221
 20
18.495711
 10
-151.512876
 20
18.498118
 10
-151.493533
 20
18.500541
 10
-151.474191
 20
18.502979
 10
-151.454852
 20
18.505432
 10
-151.435514
 20
18.5079
 10
-151.416314
 20
18.510366
 10
-151.397116
 20
18.512847
 10
-151.37792
 20
18.515343
 10
-151.358725
 20
18.517855
 10
-151.339533
 20
18.520383
 10
-151.32048
 20
18.522907
 10
-151.301429
 20
18.525447
 10
-151.282379
 20
18.528002
 10
-151.263332
 20
18.530573
 10
-151.244287
 20
18.533159
 10
-151.225383
 20
18.535742
 10
-151.206481
 20
18.538341
 10
-151.187581
 20
18.540955
 10
-151.168684
 20
18.543584
 10
-151.149788
 20
18.54623
 10
-151.131035
 20
18.548871
 10
-151.112284
 20
18.551528
 10
-151.093535
 20
18.554201
 10
-151.074788
 20
18.55689
 10
-151.056044
 20
18.559594
 10
-151.037443
 20
18.562294
 10
-151.018845
 20
18.56501
 10
-151.000249
 20
18.567742
 10
-150.981656
 20
18.57049
 10
-150.963065
 20
18.573254
 10
-150.944618
 20
18.576012
 10
-150.926175
 20
18.578787
 10
-150.907733
 20
18.581578
 10
-150.889295
 20
18.584384
 10
-150.870858
 20
18.587208
 10
-150.852568
 20
18.590025
 10
-150.83428
 20
18.592859
 10
-150.815995
 20
18.595708
 10
-150.797712
 20
18.598575
 10
-150.779432
 20
18.601457
 10
-150.761299
 20
18.604334
 10
-150.743168
 20
18.607227
 10
-150.72504
 20
18.610136
 10
-150.706915
 20
18.613062
 10
-150.688793
 20
18.616004
 10
-150.670818
 20
18.61894
 10
-150.652846
 20
18.621892
 10
-150.634877
 20
18.624861
 10
-150.616911
 20
18.627846
 10
-150.598947
 20
18.630849
 10
-150.581132
 20
18.633844
 10
-150.56332
 20
18.636855
 10
-150.54551
 20
18.639884
 10
-150.527704
 20
18.64293
 10
-150.5099
 20
18.645992
 10
-150.492245
 20
18.649047
 10
-150.474593
 20
18.652119
 10
-150.456945
 20
18.655208
 10
-150.439299
 20
18.658314
 10
-150.421656
 20
18.661438
 10
-150.404162
 20
18.664553
 10
-150.386671
 20
18.667685
 10
-150.369184
 20
18.670835
 10
-150.351699
 20
18.674002
 10
-150.334218
 20
18.677187
 10
-150.316886
 20
18.680362
 10
-150.299557
 20
18.683555
 10
-150.282231
 20
18.686766
 10
-150.264909
 20
18.689995
 10
-150.24759
 20
18.693241
 10
-150.23042
 20
18.696478
 10
-150.213253
 20
18.699733
 10
-150.196089
 20
18.703005
 10
-150.178929
 20
18.706296
 10
-150.161773
 20
18.709605
 10
-150.144764
 20
18.712903
 10
-150.127759
 20
18.71622
 10
-150.110758
 20
18.719556
 10
-150.09376
 20
18.722909
 10
-150.076766
 20
18.726281
 10
-150.05992
 20
18.729642
 10
-150.043077
 20
18.733022
 10
-150.026238
 20
18.73642
 10
-150.009403
 20
18.739837
 10
-149.992572
 20
18.743273
 10
-149.975887
 20
18.746698
 10
-149.959206
 20
18.750142
 10
-149.942529
 20
18.753604
 10
-149.925856
 20
18.757085
 10
-149.909187
 20
18.760586
 10
-149.892664
 20
18.764075
 10
-149.876144
 20
18.767584
 10
-149.859629
 20
18.771111
 10
-149.843117
 20
18.774658
 10
-149.82661
 20
18.778225
 10
-149.810247
 20
18.78178
 10
-149.793888
 20
18.785354
 10
-149.777533
 20
18.788948
 10
-149.761182
 20
18.792562
 10
-149.744836
 20
18.796195
 10
-149.728632
 20
18.799817
 10
-149.712433
 20
18.803459
 10
-149.696238
 20
18.80712
 10
-149.680047
 20
18.810802
 10
-149.663861
 20
18.814503
 10
-149.647815
 20
18.818194
 10
-149.631774
 20
18.821904
 10
-149.615738
 20
18.825635
 10
-149.599706
 20
18.829385
 10
-149.583679
 20
18.833157
 10
-149.56779
 20
18.836917
 10
-149.551905
 20
18.840698
 10
-149.536025
 20
18.844499
 10
-149.520151
 20
18.848321
 10
-149.504281
 20
18.852164
 10
-149.488546
 20
18.855996
 10
-149.472817
 20
18.859849
 10
-149.457092
 20
18.863723
 10
-149.441373
 20
18.867618
 10
-149.425659
 20
18.871534
 10
-149.410077
 20
18.87544
 10
-149.3945
 20
18.879367
 10
-149.378929
 20
18.883315
 10
-149.363363
 20
18.887285
 10
-149.347803
 20
18.891277
 10
-149.332371
 20
18.895258
 10
-149.316945
 20
18.899262
 10
-149.301524
 20
18.903287
 10
-149.28611
 20
18.907334
 10
-149.270701
 20
18.911403
 10
-149.255416
 20
18.915463
 10
-149.240138
 20
18.919546
 10
-149.224865
 20
18.92365
 10
-149.209598
 20
18.927778
 10
-149.194338
 20
18.931927
 10
-149.179198
 20
18.936069
 10
-149.164064
 20
18.940233
 10
-149.148936
 20
18.94442
 10
-149.133815
 20
18.94863
 10
-149.1187
 20
18.952863
 10
-149.103701
 20
18.957088
 10
-149.088709
 20
18.961337
 10
-149.073723
 20
18.965609
 10
-149.058744
 20
18.969905
 10
-149.043772
 20
18.974224
 10
-149.02891
 20
18.978537
 10
-149.014055
 20
18.982874
 10
-148.999208
 20
18.987234
 10
-148.984367
 20
18.991619
 10
-148.969534
 20
18.996029
 10
-148.954805
 20
19.000433
 10
-148.940084
 20
19.004862
 10
-148.92537
 20
19.009316
 10
-148.910664
 20
19.013794
 10
-148.895965
 20
19.018298
 10
-148.881365
 20
19.022798
 10
-148.866773
 20
19.027324
 10
-148.852189
 20
19.031874
 10
-148.837613
 20
19.03645
 10
-148.823045
 20
19.041052
 10
-148.808569
 20
19.045652
 10
-148.794102
 20
19.050278
 10
-148.779643
 20
19.05493
 10
-148.765192
 20
19.059608
 10
-148.75075
 20
19.064312
 10
-148.736394
 20
19.069017
 10
-148.722046
 20
19.073749
 10
-148.707708
 20
19.078507
 10
-148.693378
 20
19.083292
 10
-148.679057
 20
19.088105
 10
-148.664814
 20
19.092921
 10
-148.65058
 20
19.097765
 10
-148.636356
 20
19.102636
 10
-148.622141
 20
19.107535
 10
-148.607935
 20
19.112461
 10
-148.5938
 20
19.117395
 10
-148.579674
 20
19.122357
 10
-148.565559
 20
19.127347
 10
-148.551453
 20
19.132365
 10
-148.537358
 20
19.137412
 10
-148.523324
 20
19.142469
 10
-148.509301
 20
19.147555
 10
-148.495288
 20
19.15267
 10
-148.481286
 20
19.157815
 10
-148.467295
 20
19.162988
 10
-148.453357
 20
19.168176
 10
-148.43943
 20
19.173393
 10
-148.425514
 20
19.178641
 10
-148.41161
 20
19.183919
 10
-148.397718
 20
19.189227
 10
-148.383868
 20
19.194554
 10
-148.370031
 20
19.199912
 10
-148.356205
 20
19.205301
 10
-148.342392
 20
19.210721
 10
-148.328591
 20
19.216173
 10
-148.314823
 20
19.221649
 10
-148.301068
 20
19.227157
 10
-148.287327
 20
19.232697
 10
-148.273598
 20
19.23827
 10
-148.259882
 20
19.243875
 10
-148.246189
 20
19.249509
 10
-148.23251
 20
19.255176
 10
-148.218845
 20
19.260876
 10
-148.205194
 20
19.26661
 10
-148.191557
 20
19.272377
 10
-148.177932
 20
19.278179
 10
-148.164322
 20
19.284015
 10
-148.150727
 20
19.289885
 10
-148.137147
 20
19.295789
 10
-148.123582
 20
19.301729
 10
-148.110018
 20
19.30771
 10
-148.09647
 20
19.313726
 10
-148.082938
 20
19.319778
 10
-148.069422
 20
19.325866
 10
-148.055923
 20
19.33199
 10
-148.042414
 20
19.338163
 10
-148.028921
 20
19.344373
 10
-148.015446
 20
19.35062
 10
-148.001988
 20
19.356904
 10
-147.988548
 20
19.363226
 10
-147.975087
 20
19.369605
 10
-147.961643
 20
19.376021
 10
-147.948218
 20
19.382477
 10
-147.934812
 20
19.38897
 10
-147.921424
 20
19.395503
 10
-147.908004
 20
19.4021
 10
-147.894603
 20
19.408737
 10
-147.881222
 20
19.415414
 10
-147.867861
 20
19.422131
 10
-147.85452
 20
19.428889
 10
-147.841135
 20
19.43572
 10
-147.827772
 20
19.442593
 10
-147.81443
 20
19.449508
 10
-147.80111
 20
19.456464
 10
-147.787812
 20
19.463463
 10
-147.774459
 20
19.470545
 10
-147.761128
 20
19.477671
 10
-147.747821
 20
19.48484
 10
-147.734537
 20
19.492052
 10
-147.721278
 20
19.499308
 10
-147.707951
 20
19.506657
 10
-147.69465
 20
19.514052
 10
-147.681373
 20
19.521491
 10
-147.668122
 20
19.528975
 10
-147.654896
 20
19.536505
 10
-147.641595
 20
19.544139
 10
-147.62832
 20
19.55182
 10
-147.615072
 20
19.559548
 10
-147.601853
 20
19.567323
 10
-147.58866
 20
19.575145
 10
-147.575383
 20
19.583083
 10
-147.562135
 20
19.591069
 10
-147.548916
 20
19.599104
 10
-147.535727
 20
19.607188
 10
-147.522568
 20
19.615321
 10
-147.509315
 20
19.623581
 10
-147.496093
 20
19.631892
 10
-147.482903
 20
19.640253
 10
-147.469746
 20
19.648664
 10
-147.456621
 20
19.657127
 10
-147.443395
 20
19.665728
 10
-147.430203
 20
19.674382
 10
-147.417046
 20
19.683088
 10
-147.403924
 20
19.691847
 10
-147.390838
 20
19.700659
 10
-147.377645
 20
19.709621
 10
-147.364489
 20
19.718638
 10
-147.351371
 20
19.727709
 10
-147.33829
 20
19.736834
 10
-147.325248
 20
19.746014
 10
-147.312094
 20
19.755357
 10
-147.298981
 20
19.764755
 10
-147.285908
 20
19.77421
 10
-147.272877
 20
19.783721
 10
-147.259886
 20
19.793289
 10
-147.246784
 20
19.803029
 10
-147.233724
 20
19.812828
 10
-147.220709
 20
19.822685
 10
-147.207738
 20
19.8326
 10
-147.194812
 20
19.842574
 10
-147.181773
 20
19.852731
 10
-147.168781
 20
19.862948
 10
-147.155836
 20
19.873226
 10
-147.142939
 20
19.883563
 10
-147.130091
 20
19.893961
 10
-147.117131
 20
19.904551
 10
-147.104221
 20
19.915203
 10
-147.091363
 20
19.925917
 10
-147.078557
 20
19.936693
 10
-147.065804
 20
19.947531
 10
-147.052943
 20
19.95857
 10
-147.040136
 20
19.969672
 10
-147.027385
 20
19.980838
 10
-147.01469
 20
19.992067
 10
-147.002051
 20
20.00336
 10
-146.98931
 20
20.014861
 10
-146.976628
 20
20.026427
 10
-146.964005
 20
20.038058
 10
-146.951443
 20
20.049754
 10
-146.938941
 20
20.061515
 10
-146.926345
 20
20.073489
 10
-146.913812
 20
20.08553
 10
-146.901343
 20
20.097637
 10
-146.888939
 20
20.10981
 10
-146.8766
 20
20.122049
 10
-146.864176
 20
20.134507
 10
-146.85182
 20
20.147031
 10
-146.839532
 20
20.159623
 10
-146.827313
 20
20.172282
 10
-146.815164
 20
20.185008
 10
-146.802941
 20
20.197955
 10
-146.790791
 20
20.210969
 10
-146.778713
 20
20.224052
 10
-146.76671
 20
20.237202
 10
-146.754781
 20
20.25042
 10
-146.74279
 20
20.263859
 10
-146.730877
 20
20.277367
 10
-146.719041
 20
20.290943
 10
-146.707285
 20
20.304588
 10
-146.695607
 20
20.3183
 10
-146.683881
 20
20.332233
 10
-146.672237
 20
20.346235
 10
-146.660676
 20
20.360305
 10
-146.649199
 20
20.374444
 10
-146.637805
 20
20.38865
 10
-146.626377
 20
20.403075
 10
-146.615037
 20
20.417568
 10
-146.603784
 20
20.432129
 10
-146.59262
 20
20.446758
 10
-146.581544
 20
20.461454
 10
-146.570449
 20
20.476365
 10
-146.559446
 20
20.491344
 10
-146.548535
 20
20.506391
 10
-146.537718
 20
20.521504
 10
-146.526994
 20
20.536685
 10
-146.516266
 20
20.552074
 10
-146.505634
 20
20.56753
 10
-146.4951
 20
20.583052
 10
-146.484664
 20
20.598641
 10
-146.474327
 20
20.614295
 10
-146.463999
 20
20.630151
 10
-146.453774
 20
20.646073
 10
-146.44365
 20
20.662061
 10
-146.433629
 20
20.678112
 10
-146.423712
 20
20.694228
 10
-146.413819
 20
20.710538
 10
-146.404033
 20
20.726912
 10
-146.394353
 20
20.743348
 10
-146.38478
 20
20.759848
 10
-146.375316
 20
20.77641
 10
-146.365891
 20
20.793157
 10
-146.356576
 20
20.809966
 10
-146.347373
 20
20.826836
 10
-146.338281
 20
20.843766
 10
-146.329301
 20
20.860756
 10
-146.320375
 20
20.877922
 10
-146.311563
 20
20.895147
 10
-146.302866
 20
20.91243
 10
-146.294286
 20
20.929771
 10
-146.285822
 20
20.94717
 10
-146.277424
 20
20.964734
 10
-146.269145
 20
20.982354
 10
-146.260985
 20
21.00003
 10
-146.252946
 20
21.017761
 10
-146.245027
 20
21.035546
 10
-146.237185
 20
21.053484
 10
-146.229467
 20
21.071475
 10
-146.221871
 20
21.089519
 10
-146.2144
 20
21.107615
 10
-146.207053
 20
21.125761
 10
-146.199794
 20
21.144049
 10
-146.192663
 20
21.162386
 10
-146.185658
 20
21.180773
 10
-146.178781
 20
21.199207
 10
-146.172032
 20
21.217689
 10
-146.16374
 20
21.240959
 10
-146.155651
 20
21.264301
 10
-146.147765
 20
21.287713
 10
-146.140084
 20
21.311192
 10
-146.13258
 20
21.33483
 10
-146.125283
 20
21.358534
 10
-146.118196
 20
21.3823
 10
-146.111317
 20
21.406128
 10
-146.104626
 20
21.430097
 10
-146.098148
 20
21.454124
 10
-146.091882
 20
21.478208
 10
-146.08583
 20
21.502346
 10
-146.079974
 20
21.526608
 10
-146.074335
 20
21.550921
 10
-146.068912
 20
21.575283
 10
-146.063706
 20
21.599692
 10
-146.058706
 20
21.624207
 10
-146.053925
 20
21.648765
 10
-146.049364
 20
21.673365
 10
-146.045023
 20
21.698005
 10
-146.040895
 20
21.722732
 10
-146.036988
 20
21.747495
 10
-146.033303
 20
21.772292
 10
-146.029842
 20
21.797121
 10
-146.026598
 20
21.822019
 10
-146.023579
 20
21.846945
 10
-146.020784
 20
21.871897
 10
-146.018214
 20
21.896874
 10
-146.015866
 20
21.9219
 10
-146.013744
 20
21.946947
 10
-146.011848
 20
21.972011
 10
-146.010178
 20
21.997092
 10
-146.008733
 20
22.022204
 10
-146.007515
 20
22.047329
 10
-146.006524
 20
22.072463
 10
-146.00576
 20
22.097605
 10
-146.005223
 20
22.12276
 10
-146.004913
 20
22.147919
 10
-146.00483
 20
22.173079
 10
-146.004975
 20
22.19824
 10
-146.005347
 20
22.223394
 10
-146.005946
 20
22.248544
 10
-146.006772
 20
22.273688
 10
-146.007825
 20
22.298823
 10
-146.009104
 20
22.323933
 10
-146.01061
 20
22.349031
 10
-146.012342
 20
22.374115
 10
-146.014301
 20
22.399181
 10
-146.016482
 20
22.424205
 10
-146.01889
 20
22.449208
 10
-146.021522
 20
22.474188
 10
-146.024379
 20
22.499144
 10
-146.027456
 20
22.524037
 10
-146.030757
 20
22.548902
 10
-146.034281
 20
22.573737
 10
-146.038027
 20
22.598538
 10
-146.041989
 20
22.62326
 10
-146.046171
 20
22.647945
 10
-146.050574
 20
22.672592
 10
-146.055198
 20
22.697198
 10
-146.06003
 20
22.721706
 10
-146.06508
 20
22.746169
 10
-146.070349
 20
22.770587
 10
-146.075834
 20
22.794956
 10
-146.08152
 20
22.819209
 10
-146.087421
 20
22.843411
 10
-146.093536
 20
22.867559
 10
-146.099864
 20
22.891653
 10
-146.106385
 20
22.915611
 10
-146.113116
 20
22.939511
 10
-146.120058
 20
22.963351
 10
-146.127209
 20
22.987128
 10
-146.13454
 20
23.010754
 10
-146.142079
 20
23.034314
 10
-146.149823
 20
23.057808
 10
-146.157772
 20
23.081233
 10
-146.16589
 20
23.104488
 10
-146.174209
 20
23.127672
 10
-146.18273
 20
23.150783
 10
-146.19145
 20
23.173819
 10
-146.200326
 20
23.196669
 10
-146.209399
 20
23.219441
 10
-146.218666
 20
23.242135
 10
-146.228128
 20
23.264748
 10
-146.237731
 20
23.287159
 10
-146.247525
 20
23.309487
 10
-146.257509
 20
23.331731
 10
-146.26768
 20
23.35389
 10
-146.277977
 20
23.37583
 10
-146.288459
 20
23.397683
 10
-146.299123
 20
23.419447
 10
-146.30997
 20
23.441121
 10
-146.320926
 20
23.462562
 10
-146.332059
 20
23.483912
 10
-146.343368
 20
23.505168
 10
-146.354854
 20
23.52633
 10
-146.36643
 20
23.547245
 10
-146.378177
 20
23.568065
 10
-146.390093
 20
23.588788
 10
-146.402179
 20
23.609414
 10
-146.414336
 20
23.62978
 10
-146.426656
 20
23.650048
 10
-146.43914
 20
23.670216
 10
-146.451785
 20
23.690283
 10
-146.464482
 20
23.710081
 10
-146.477336
 20
23.729777
 10
-146.490345
 20
23.74937
 10
-146.503508
 20
23.768861
 10
-146.516703
 20
23.788072
 10
-146.530048
 20
23.80718
 10
-146.54354
 20
23.826184
 10
-146.557179
 20
23.845083
 10
-146.57083
 20
23.863694
 10
-146.584622
 20
23.882201
 10
-146.598555
 20
23.900603
 10
-146.612627
 20
23.918898
 10
-146.626691
 20
23.936901
 10
-146.640889
 20
23.954798
 10
-146.655219
 20
23.972589
 10
-146.669682
 20
23.990273
 10
-146.684116
 20
24.007661
 10
-146.698676
 20
24.024942
 10
-146.713362
 20
24.042118
 10
-146.728172
 20
24.059186
 10
-146.742936
 20
24.075957
 10
-146.757818
 20
24.092622
 10
-146.772819
 20
24.109181
 10
-146.787935
 20
24.125634
 10
-146.802988
 20
24.141789
 10
-146.818152
 20
24.15784
 10
-146.833427
 20
24.173785
 10
-146.84881
 20
24.189625
 10
-146.864115
 20
24.20517
 10
-146.879523
 20
24.220612
 10
-146.895035
 20
24.23595
 10
-146.910648
 20
24.251185
 10
-146.926168
 20
24.266129
 10
-146.941785
 20
24.280972
 10
-146.957498
 20
24.295712
 10
-146.973307
 20
24.310351
 10
-146.98901
 20
24.324707
 10
-147.004803
 20
24.338962
 10
-147.020686
 20
24.353118
 10
-147.036658
 20
24.367174
 10
-147.052515
 20
24.380956
 10
-147.068456
 20
24.394641
 10
-147.08448
 20
24.408228
 10
-147.100586
 20
24.421718
 10
-147.11657
 20
24.434944
 10
-147.132632
 20
24.448075
 10
-147.148772
 20
24.461111
 10
-147.164987
 20
24.474053
 10
-147.181077
 20
24.486743
 10
-147.197239
 20
24.49934
 10
-147.213472
 20
24.511846
 10
-147.229776
 20
24.52426
 10
-147.245952
 20
24.536436
 10
-147.262195
 20
24.548522
 10
-147.278503
 20
24.560518
 10
-147.294877
 20
24.572427
 10
-147.311124
 20
24.58411
 10
-147.327434
 20
24.595707
 10
-147.343804
 20
24.607218
 10
-147.360234
 20
24.618643
 10
-147.376541
 20
24.629859
 10
-147.392905
 20
24.640991
 10
-147.409325
 20
24.65204
 10
-147.425801
 20
24.663006
 10
-147.442158
 20
24.673777
 10
-147.458568
 20
24.684468
 10
-147.47503
 20
24.695079
 10
-147.491543
 20
24.70561
 10
-147.507947
 20
24.715962
 10
-147.524399
 20
24.726236
 10
-147.540899
 20
24.736433
 10
-147.557446
 20
24.746553
 10
-147.573891
 20
24.756508
 10
-147.590382
 20
24.766389
 10
-147.606917
 20
24.776196
 10
-147.623495
 20
24.785929
 10
-147.639983
 20
24.795513
 10
-147.656512
 20
24.805024
 10
-147.673081
 20
24.814464
 10
-147.689691
 20
24.823833
 10
-147.706223
 20
24.833066
 10
-147.722793
 20
24.84223
 10
-147.739401
 20
24.851325
 10
-147.756046
 20
24.860353
 10
-147.772624
 20
24.869258
 10
-147.789238
 20
24.878097
 10
-147.805887
 20
24.88687
 10
-147.82257
 20
24.895578
 10
-147.8392
 20
24.904176
 10
-147.855863
 20
24.91271
 10
-147.872558
 20
24.921181
 10
-147.889285
 20
24.929589
 10
-147.905972
 20
24.937899
 10
-147.922691
 20
24.946148
 10
-147.939439
 20
24.954336
 10
-147.956217
 20
24.962463
 10
-147.972969
 20
24.970504
 10
-147.989749
 20
24.978486
 10
-148.006558
 20
24.98641
 10
-148.023393
 20
24.994275
 10
-148.040217
 20
25.002065
 10
-148.057067
 20
25.009798
 10
-148.073943
 20
25.017475
 10
-148.090844
 20
25.025095
 10
-148.107748
 20
25.03265
 10
-148.124676
 20
25.040149
 10
-148.141628
 20
25.047593
 10
-148.158604
 20
25.054984
 10
-148.175595
 20
25.062317
 10
-148.19261
 20
25.069597
 10
-148.209646
 20
25.076825
 10
-148.226705
 20
25.084
 10
-148.243793
 20
25.091127
 10
-148.260902
 20
25.098203
 10
-148.278032
 20
25.105228
 10
-148.295182
 20
25.112203
 10
-148.312374
 20
25.119137
 10
-148.329586
 20
25.126021
 10
-148.346818
 20
25.132855
 10
-148.364069
 20
25.139641
 10
-148.381373
 20
25.146392
 10
-148.398696
 20
25.153095
 10
-148.416038
 20
25.15975
 10
-148.433398
 20
25.166358
 10
-148.450823
 20
25.172937
 10
-148.468265
 20
25.17947
 10
-148.485725
 20
25.185956
 10
-148.503202
 20
25.192397
 10
-148.520756
 20
25.198815
 10
-148.538326
 20
25.205188
 10
-148.555912
 20
25.211516
 10
-148.573514
 20
25.2178
 10
-148.591204
 20
25.224066
 10
-148.608909
 20
25.230288
 10
-148.626629
 20
25.236467
 10
-148.644364
 20
25.242603
 10
-148.662196
 20
25.248724
 10
-148.680043
 20
25.254803
 10
-148.697904
 20
25.260839
 10
-148.715779
 20
25.266834
 10
-148.733761
 20
25.272818
 10
-148.751756
 20
25.27876
 10
-148.769765
 20
25.284662
 10
-148.787787
 20
25.290522
 10
-148.805924
 20
25.296376
 10
-148.824074
 20
25.302189
 10
-148.842238
 20
25.307963
 10
-148.860413
 20
25.313697
 10
-148.878713
 20
25.319428
 10
-148.897025
 20
25.325119
 10
-148.915348
 20
25.330771
 10
-148.933684
 20
25.336385
 10
-148.952151
 20
25.341997
 10
-148.970629
 20
25.347571
 10
-148.989118
 20
25.353106
 10
-149.007619
 20
25.358605
 10
-149.026258
 20
25.364103
 10
-149.044907
 20
25.369564
 10
-149.063568
 20
25.374988
 10
-149.082238
 20
25.380375
 10
-149.101054
 20
25.385764
 10
-149.11988
 20
25.391117
 10
-149.138716
 20
25.396434
 10
-149.157562
 20
25.401715
 10
-149.176558
 20
25.407
 10
-149.195565
 20
25.41225
 10
-149.214581
 20
25.417464
 10
-149.233607
 20
25.422643
 10
-149.252789
 20
25.427828
 10
-149.27198
 20
25.432977
 10
-149.291181
 20
25.438092
 10
-149.31039
 20
25.443173
 10
-149.32976
 20
25.44826
 10
-149.349139
 20
25.453312
 10
-149.368527
 20
25.458331
 10
-149.387923
 20
25.463316
 10
-149.407484
 20
25.468308
 10
-149.427054
 20
25.473266
 10
-149.446632
 20
25.478192
 10
-149.466218
 20
25.483085
 10
-149.485973
 20
25.487985
 10
-149.505737
 20
25.492852
 10
-149.525508
 20
25.497688
 10
-149.545288
 20
25.502491
 10
-149.565239
 20
25.507302
 10
-149.585199
 20
25.512081
 10
-149.605166
 20
25.516828
 10
-149.625141
 20
25.521543
 10
-149.645291
 20
25.526267
 10
-149.665449
 20
25.530959
 10
-149.685613
 20
25.53562
 10
-149.705785
 20
25.540251
 10
-149.726135
 20
25.544889
 10
-149.746492
 20
25.549496
 10
-149.766856
 20
25.554073
 10
-149.787227
 20
25.55862
 10
-149.807778
 20
25.563175
 10
-149.828336
 20
25.567699
 10
-149.848901
 20
25.572194
 10
-149.869472
 20
25.576658
 10
-149.890226
 20
25.581131
 10
-149.910986
 20
25.585575
 10
-149.931753
 20
25.589988
 10
-149.952525
 20
25.594373
 10
-149.973482
 20
25.598765
 10
-149.994445
 20
25.603128
 10
-150.015413
 20
25.607462
 10
-150.036388
 20
25.611767
 10
-150.057548
 20
25.61608
 10
-150.078714
 20
25.620364
 10
-150.099886
 20
25.624619
 10
-150.121063
 20
25.628846
 10
-150.142426
 20
25.633081
 10
-150.163796
 20
25.637287
 10
-150.185171
 20
25.641465
 10
-150.206551
 20
25.645615
 10
-150.228118
 20
25.649772
 10
-150.24969
 20
25.653901
 10
-150.271268
 20
25.658003
 10
-150.292851
 20
25.662077
 10
-150.314621
 20
25.666157
 10
-150.336396
 20
25.67021
 10
-150.358177
 20
25.674236
 10
-150.379962
 20
25.678234
 10
-150.401935
 20
25.682239
 10
-150.423912
 20
25.686216
 10
-150.445894
 20
25.690167
 10
-150.467881
 20
25.69409
 10
-150.490056
 20
25.698019
 10
-150.512235
 20
25.701922
 10
-150.534418
 20
25.705798
 10
-150.556607
 20
25.709647
 10
-150.578982
 20
25.713502
 10
-150.601361
 20
25.71733
 10
-150.623745
 20
25.721132
 10
-150.646133
 20
25.724907
 10
-150.668707
 20
25.728687
 10
-150.691285
 20
25.732441
 10
-150.713868
 20
25.736169
 10
-150.736455
 20
25.739871
 10
-150.759227
 20
25.743578
 10
-150.782003
 20
25.747259
 10
-150.804783
 20
25.750913
 10
-150.827568
 20
25.754541
 10
-150.850536
 20
25.75817
 10
-150.873509
 20
25.761775
 10
-150.896485
 20
25.765356
 10
-150.919464
 20
25.768917
 10
-150.942626
 20
25.772486
 10
-150.965791
 20
25.776029
 10
-150.988961
 20
25.779536
 10
-151.012137
 20
25.783002
 10
-151.035496
 20
25.786448
 10
-151.058858
 20
25.789875
 10
-151.08222
 20
25.793313
 10
-151.105578
 20
25.796794
 10
-151.129108
 20
25.80035
 10
-151.152642
 20
25.803864
 10
-151.176195
 20
25.807218
 10
-151.199779
 20
25.810294
 10
-151.26741
 20
25.816975
 10
-151.335374
 20
25.820483
 10
-151.403649
 20
25.82087
 10
-151.472212
 20
25.818185
 10
-151.541038
 20
25.812481
  0
LWPOLYLINE
  5
95B
100
AcDbEntity
  8
3
370
    50
100
AcDbPolyline
 90
      716
 70
     0
 10
-151.199779
 20
25.810294
 10
-151.210397
 20
25.811784
 10
-151.220987
 20
25.813268
 10
-151.231554
 20
25.814746
 10
-151.263163
 20
25.819147
 10
-151.273684
 20
25.820604
 10
-151.284205
 20
25.822056
 10
-151.294731
 20
25.823504
 10
-151.305342
 20
25.824957
 10
-151.315961
 20
25.826406
 10
-151.326587
 20
25.827851
 10
-151.358495
 20
25.832157
 10
-151.369137
 20
25.833583
 10
-151.37978
 20
25.835005
 10
-151.390422
 20
25.836421
 10
-151.401138
 20
25.837843
 10
-151.411853
 20
25.839261
 10
-151.422567
 20
25.840673
 10
-151.454704
 20
25.844882
 10
-151.465417
 20
25.846275
 10
-151.47613
 20
25.847664
 10
-151.486844
 20
25.849048
 10
-151.497633
 20
25.850437
 10
-151.508424
 20
25.851822
 10
-151.519216
 20
25.853202
 10
-151.551597
 20
25.857313
 10
-151.562392
 20
25.858675
 10
-151.573187
 20
25.860031
 10
-151.583984
 20
25.861383
 10
-151.594854
 20
25.86274
 10
-151.605724
 20
25.864092
 10
-151.616595
 20
25.865439
 10
-151.64921
 20
25.869453
 10
-151.660083
 20
25.870782
 10
-151.670956
 20
25.872107
 10
-151.68183
 20
25.873426
 10
-151.692777
 20
25.87475
 10
-151.703724
 20
25.87607
 10
-151.714672
 20
25.877384
 10
-151.74752
 20
25.881301
 10
-151.75847
 20
25.882598
 10
-151.76942
 20
25.88389
 10
-151.780372
 20
25.885177
 10
-151.791394
 20
25.886469
 10
-151.802418
 20
25.887755
 10
-151.813441
 20
25.889037
 10
-151.846516
 20
25.892857
 10
-151.857542
 20
25.894121
 10
-151.868568
 20
25.89538
 10
-151.879595
 20
25.896635
 10
-151.890692
 20
25.897894
 10
-151.90179
 20
25.899148
 10
-151.912888
 20
25.900397
 10
-151.946185
 20
25.904119
 10
-151.957285
 20
25.90535
 10
-151.968386
 20
25.906577
 10
-151.979487
 20
25.9078
 10
-151.990657
 20
25.909026
 10
-152.001827
 20
25.910247
 10
-152.012998
 20
25.911463
 10
-152.046514
 20
25.915087
 10
-152.057687
 20
25.916286
 10
-152.06886
 20
25.91748
 10
-152.080034
 20
25.91867
 10
-152.091275
 20
25.919863
 10
-152.102517
 20
25.921051
 10
-152.113759
 20
25.922235
 10
-152.147488
 20
25.925761
 10
-152.158732
 20
25.926927
 10
-152.169977
 20
25.928089
 10
-152.181222
 20
25.929246
 10
-152.192533
 20
25.930406
 10
-152.203844
 20
25.931561
 10
-152.215156
 20
25.932712
 10
-152.249094
 20
25.936139
 10
-152.260408
 20
25.937272
 10
-152.271722
 20
25.938401
 10
-152.283036
 20
25.939526
 10
-152.294415
 20
25.940653
 10
-152.305794
 20
25.941775
 10
-152.317174
 20
25.942893
 10
-152.351316
 20
25.946221
 10
-152.362697
 20
25.947322
 10
-152.374079
 20
25.948418
 10
-152.385462
 20
25.94951
 10
-152.396907
 20
25.950604
 10
-152.408352
 20
25.951693
 10
-152.419798
 20
25.952778
 10
-152.454139
 20
25.956006
 10
-152.465586
 20
25.957074
 10
-152.477035
 20
25.958137
 10
-152.488483
 20
25.959196
 10
-152.499993
 20
25.960257
 10
-152.511503
 20
25.961313
 10
-152.523013
 20
25.962365
 10
-152.557547
 20
25.965494
 10
-152.56906
 20
25.966529
 10
-152.580572
 20
25.967559
 10
-152.592085
 20
25.968585
 10
-152.603657
 20
25.969612
 10
-152.61523
 20
25.970635
 10
-152.626804
 20
25.971653
 10
-152.661526
 20
25.974683
 10
-152.6731
 20
25.975684
 10
-152.684676
 20
25.976682
 10
-152.696251
 20
25.977675
 10
-152.707885
 20
25.978668
 10
-152.719518
 20
25.979657
 10
-152.731153
 20
25.980643
 10
-152.766057
 20
25.983572
 10
-152.777693
 20
25.984541
 10
-152.789329
 20
25.985504
 10
-152.800965
 20
25.986464
 10
-152.812658
 20
25.987424
 10
-152.82435
 20
25.98838
 10
-152.836044
 20
25.989332
 10
-152.871125
 20
25.992161
 10
-152.88282
 20
25.993096
 10
-152.894515
 20
25.994027
 10
-152.90621
 20
25.994953
 10
-152.91796
 20
25.99588
 10
-152.92971
 20
25.996802
 10
-152.94146
 20
25.99772
 10
-152.976713
 20
26.000449
 10
-152.988465
 20
26.00135
 10
-153.000217
 20
26.002247
 10
-153.011969
 20
26.00314
 10
-153.023774
 20
26.004033
 10
-153.03558
 20
26.004922
 10
-153.047385
 20
26.005806
 10
-153.082804
 20
26.008434
 10
-153.094611
 20
26.009302
 10
-153.106418
 20
26.010166
 10
-153.118225
 20
26.011025
 10
-153.130084
 20
26.011884
 10
-153.141942
 20
26.012739
 10
-153.153801
 20
26.01359
 10
-153.18938
 20
26.016117
 10
-153.20124
 20
26.016951
 10
-153.2131
 20
26.017781
 10
-153.224961
 20
26.018606
 10
-153.23687
 20
26.019431
 10
-153.24878
 20
26.020252
 10
-153.26069
 20
26.021069
 10
-153.296422
 20
26.023495
 10
-153.308334
 20
26.024295
 10
-153.320245
 20
26.025091
 10
-153.332157
 20
26.025883
 10
-153.344116
 20
26.026674
 10
-153.356075
 20
26.027461
 10
-153.368035
 20
26.028244
 10
-153.403914
 20
26.030568
 10
-153.415875
 20
26.031334
 10
-153.427836
 20
26.032097
 10
-153.439797
 20
26.032855
 10
-153.451803
 20
26.033612
 10
-153.463809
 20
26.034365
 10
-153.475816
 20
26.035114
 10
-153.511837
 20
26.037335
 10
-153.523845
 20
26.038068
 10
-153.535853
 20
26.038796
 10
-153.547861
 20
26.039521
 10
-153.559912
 20
26.040243
 10
-153.571964
 20
26.040962
 10
-153.584016
 20
26.041677
 10
-153.620173
 20
26.043796
 10
-153.632225
 20
26.044495
 10
-153.644278
 20
26.045189
 10
-153.656332
 20
26.045879
 10
-153.665402
 20
26.046396
 10
-153.674473
 20
26.04691
 10
-153.683544
 20
26.047423
 10
-153.710758
 20
26.048946
 10
-153.737973
 20
26.050448
 10
-153.747045
 20
26.050944
 10
-153.756118
 20
26.051438
 10
-153.76519
 20
26.05193
 10
-153.774291
 20
26.052421
 10
-153.783393
 20
26.05291
 10
-153.792495
 20
26.053396
 10
-153.819801
 20
26.054842
 10
-153.847108
 20
26.056267
 10
-153.85621
 20
26.056738
 10
-153.865313
 20
26.057206
 10
-153.874416
 20
26.057672
 10
-153.883547
 20
26.058138
 10
-153.892677
 20
26.0586
 10
-153.901808
 20
26.059061
 10
-153.929202
 20
26.06043
 10
-153.956596
 20
26.061778
 10
-153.965728
 20
26.062222
 10
-153.97486
 20
26.062665
 10
-153.983992
 20
26.063105
 10
-153.99315
 20
26.063545
 10
-154.002308
 20
26.063982
 10
-154.011466
 20
26.064417
 10
-154.038942
 20
26.065707
 10
-154.066419
 20
26.066978
 10
-154.075578
 20
26.067397
 10
-154.084738
 20
26.067814
 10
-154.093897
 20
26.068228
 10
-154.103081
 20
26.068642
 10
-154.112265
 20
26.069053
 10
-154.121449
 20
26.069462
 10
-154.149003
 20
26.070675
 10
-154.176557
 20
26.071868
 10
-154.185742
 20
26.072261
 10
-154.194927
 20
26.072652
 10
-154.204112
 20
26.07304
 10
-154.213321
 20
26.073428
 10
-154.222529
 20
26.073813
 10
-154.231738
 20
26.074196
 10
-154.259364
 20
26.075331
 10
-154.286991
 20
26.076446
 10
-154.2962
 20
26.076813
 10
-154.305409
 20
26.077178
 10
-154.314618
 20
26.077541
 10
-154.323849
 20
26.077902
 10
-154.33308
 20
26.078262
 10
-154.342311
 20
26.078618
 10
-154.370005
 20
26.079676
 10
-154.3977
 20
26.080713
 10
-154.406932
 20
26.081054
 10
-154.416163
 20
26.081393
 10
-154.425395
 20
26.08173
 10
-154.434647
 20
26.082065
 10
-154.443899
 20
26.082398
 10
-154.453151
 20
26.082729
 10
-154.480907
 20
26.083708
 10
-154.508665
 20
26.084667
 10
-154.517917
 20
26.084982
 10
-154.52717
 20
26.085295
 10
-154.536423
 20
26.085606
 10
-154.545694
 20
26.085915
 10
-154.554965
 20
26.086222
 10
-154.564236
 20
26.086526
 10
-154.59205
 20
26.087427
 10
-154.619865
 20
26.088308
 10
-154.629137
 20
26.088597
 10
-154.638409
 20
26.088884
 10
-154.64768
 20
26.089168
 10
-154.656969
 20
26.089451
 10
-154.666258
 20
26.089732
 10
-154.675547
 20
26.090011
 10
-154.703413
 20
26.090833
 10
-154.731281
 20
26.091635
 10
-154.74057
 20
26.091898
 10
-154.749859
 20
26.092159
 10
-154.759149
 20
26.092417
 10
-154.768453
 20
26.092674
 10
-154.777758
 20
26.092929
 10
-154.787062
 20
26.093181
 10
-154.814977
 20
26.093925
 10
-154.842892
 20
26.094648
 10
-154.852197
 20
26.094885
 10
-154.861502
 20
26.09512
 10
-154.870807
 20
26.095352
 10
-154.880126
 20
26.095583
 10
-154.889444
 20
26.095811
 10
-154.898763
 20
26.096037
 10
-154.92672
 20
26.096702
 10
-154.954677
 20
26.097347
 10
-154.963996
 20
26.097558
 10
-154.973315
 20
26.097766
 10
-154.982635
 20
26.097972
 10
-154.991966
 20
26.098176
 10
-155.001297
 20
26.098378
 10
-155.010628
 20
26.098578
 10
-155.038622
 20
26.099164
 10
-155.066617
 20
26.099731
 10
-155.075948
 20
26.099915
 10
-155.08528
 20
26.100097
 10
-155.094612
 20
26.100277
 10
-155.103953
 20
26.100455
 10
-155.113295
 20
26.100631
 10
-155.122637
 20
26.100804
 10
-155.150664
 20
26.101312
 10
-155.17869
 20
26.101799
 10
-155.188032
 20
26.101957
 10
-155.197375
 20
26.102113
 10
-155.206717
 20
26.102267
 10
-155.216068
 20
26.102418
 10
-155.225419
 20
26.102568
 10
-155.23477
 20
26.102715
 10
-155.262823
 20
26.103143
 10
-155.290876
 20
26.103552
 10
-155.300228
 20
26.103684
 10
-155.309579
 20
26.103813
 10
-155.31893
 20
26.103941
 10
-155.328288
 20
26.104066
 10
-155.337646
 20
26.104189
 10
-155.347005
 20
26.10431
 10
-155.37508
 20
26.104659
 10
-155.403155
 20
26.104989
 10
-155.412513
 20
26.105094
 10
-155.421872
 20
26.105198
 10
-155.43123
 20
26.105299
 10
-155.440594
 20
26.105398
 10
-155.449958
 20
26.105494
 10
-155.459322
 20
26.105589
 10
-155.487413
 20
26.105859
 10
-155.515505
 20
26.10611
 10
-155.524869
 20
26.106189
 10
-155.534233
 20
26.106266
 10
-155.543597
 20
26.106341
 10
-155.552965
 20
26.106413
 10
-155.562332
 20
26.106483
 10
-155.5717
 20
26.106552
 10
-155.599803
 20
26.106743
 10
-155.627906
 20
26.106914
 10
-155.637274
 20
26.106967
 10
-155.646641
 20
26.107018
 10
-155.656009
 20
26.107066
 10
-155.665379
 20
26.107112
 10
-155.674749
 20
26.107156
 10
-155.684118
 20
26.107198
 10
-155.712228
 20
26.10731
 10
-155.740337
 20
26.107403
 10
-155.749707
 20
26.107429
 10
-155.759077
 20
26.107453
 10
-155.768446
 20
26.107475
 10
-155.777816
 20
26.107495
 10
-155.787186
 20
26.107513
 10
-155.796557
 20
26.107528
 10
-155.824667
 20
26.107561
 10
-155.852777
 20
26.107574
 10
-155.862147
 20
26.107574
 10
-155.871517
 20
26.107572
 10
-155.880887
 20
26.107568
 10
-155.890256
 20
26.107561
 10
-155.899625
 20
26.107552
 10
-155.908994
 20
26.107541
 10
-155.9371
 20
26.107495
 10
-155.965206
 20
26.107429
 10
-155.974575
 20
26.107403
 10
-155.983943
 20
26.107374
 10
-155.993312
 20
26.107344
 10
-156.002677
 20
26.107311
 10
-156.012043
 20
26.107276
 10
-156.021409
 20
26.107238
 10
-156.049505
 20
26.107113
 10
-156.077602
 20
26.106968
 10
-156.086968
 20
26.106915
 10
-156.096333
 20
26.10686
 10
-156.105699
 20
26.106803
 10
-156.115059
 20
26.106744
 10
-156.12442
 20
26.106682
 10
-156.133781
 20
26.106619
 10
-156.161863
 20
26.106414
 10
-156.189945
 20
26.10619
 10
-156.199306
 20
26.106111
 10
-156.208667
 20
26.10603
 10
-156.218027
 20
26.105946
 10
-156.227381
 20
26.105861
 10
-156.236736
 20
26.105773
 10
-156.24609
 20
26.105683
 10
-156.274152
 20
26.105399
 10
-156.302215
 20
26.105096
 10
-156.311569
 20
26.104991
 10
-156.320923
 20
26.104883
 10
-156.330277
 20
26.104773
 10
-156.339623
 20
26.104661
 10
-156.348968
 20
26.104547
 10
-156.358314
 20
26.10443
 10
-156.386352
 20
26.104068
 10
-156.414389
 20
26.103686
 10
-156.423735
 20
26.103554
 10
-156.433081
 20
26.10342
 10
-156.442426
 20
26.103284
 10
-156.451762
 20
26.103145
 10
-156.461098
 20
26.103005
 10
-156.470434
 20
26.102862
 10
-156.498441
 20
26.102421
 10
-156.526449
 20
26.101959
 10
-156.535784
 20
26.101801
 10
-156.54512
 20
26.101641
 10
-156.554455
 20
26.101478
 10
-156.56378
 20
26.101314
 10
-156.573104
 20
26.101147
 10
-156.582428
 20
26.100978
 10
-156.6104
 20
26.100458
 10
-156.638372
 20
26.099917
 10
-156.647696
 20
26.099733
 10
-156.65702
 20
26.099546
 10
-156.666343
 20
26.099357
 10
-156.678758
 20
26.099102
 10
-156.691172
 20
26.098843
 10
-156.703586
 20
26.098581
 10
-156.740828
 20
26.097768
 10
-156.753242
 20
26.09749
 10
-156.765656
 20
26.097207
 10
-156.77807
 20
26.096921
 10
-156.790464
 20
26.096631
 10
-156.802858
 20
26.096337
 10
-156.815252
 20
26.096039
 10
-156.852434
 20
26.095122
 10
-156.864827
 20
26.094809
 10
-156.877221
 20
26.094491
 10
-156.889614
 20
26.094169
 10
-156.901986
 20
26.093845
 10
-156.914358
 20
26.093516
 10
-156.926729
 20
26.093183
 10
-156.963843
 20
26.092161
 10
-156.976214
 20
26.091812
 10
-156.988585
 20
26.09146
 10
-157.000956
 20
26.091103
 10
-157.013303
 20
26.090744
 10
-157.02565
 20
26.09038
 10
-157.037997
 20
26.090012
 10
-157.075037
 20
26.088886
 10
-157.087383
 20
26.088502
 10
-157.099729
 20
26.088115
 10
-157.112076
 20
26.087723
 10
-157.124396
 20
26.087329
 10
-157.136716
 20
26.08693
 10
-157.149036
 20
26.086528
 10
-157.185994
 20
26.085296
 10
-157.198314
 20
26.084878
 10
-157.210633
 20
26.084456
 10
-157.222952
 20
26.084029
 10
-157.235243
 20
26.0836
 10
-157.247534
 20
26.083167
 10
-157.259824
 20
26.082729
 10
-157.296696
 20
26.081394
 10
-157.308986
 20
26.080941
 10
-157.321276
 20
26.080483
 10
-157.333566
 20
26.080022
 10
-157.345825
 20
26.079558
 10
-157.358085
 20
26.07909
 10
-157.370344
 20
26.078618
 10
-157.407121
 20
26.077178
 10
-157.41938
 20
26.07669
 10
-157.431638
 20
26.076198
 10
-157.443896
 20
26.075702
 10
-157.456122
 20
26.075204
 10
-157.468348
 20
26.074701
 10
-157.480574
 20
26.074194
 10
-157.51725
 20
26.072651
 10
-157.529475
 20
26.072128
 10
-157.5417
 20
26.071601
 10
-157.553925
 20
26.071071
 10
-157.566115
 20
26.070537
 10
-157.578305
 20
26.07
 10
-157.590495
 20
26.069459
 10
-157.627064
 20
26.067811
 10
-157.639253
 20
26.067254
 10
-157.651442
 20
26.066693
 10
-157.663631
 20
26.066127
 10
-157.675783
 20
26.06556
 10
-157.687935
 20
26.064988
 10
-157.700087
 20
26.064412
 10
-157.736542
 20
26.062661
 10
-157.748693
 20
26.062069
 10
-157.760844
 20
26.061473
 10
-157.772995
 20
26.060873
 10
-157.785107
 20
26.060271
 10
-157.79722
 20
26.059665
 10
-157.809331
 20
26.059055
 10
-157.845666
 20
26.0572
 10
-157.857777
 20
26.056574
 10
-157.869888
 20
26.055943
 10
-157.881999
 20
26.055309
 10
-157.900104
 20
26.054353
 10
-157.918208
 20
26.053388
 10
-157.936313
 20
26.052413
 10
-157.954416
 20
26.05143
 10
-157.97252
 20
26.050437
 10
-157.990622
 20
26.049435
 10
-158.008661
 20
26.048428
 10
-158.026699
 20
26.047411
 10
-158.044737
 20
26.046386
 10
-158.062774
 20
26.045351
 10
-158.080811
 20
26.044307
 10
-158.098847
 20
26.043253
 10
-158.116816
 20
26.042195
 10
-158.134785
 20
26.041127
 10
-158.152753
 20
26.04005
 10
-158.170721
 20
26.038964
 10
-158.188688
 20
26.037868
 10
-158.206654
 20
26.036763
 10
-158.224551
 20
26.035654
 10
-158.242447
 20
26.034535
 10
-158.260342
 20
26.033406
 10
-158.278237
 20
26.032269
 10
-158.296132
 20
26.031122
 10
-158.314025
 20
26.029966
 10
-158.331846
 20
26.028806
 10
-158.349667
 20
26.027636
 10
-158.367487
 20
26.026456
 10
-158.385306
 20
26.025268
 10
-158.403125
 20
26.02407
 10
-158.420943
 20
26.022863
 10
-158.438685
 20
26.021651
 10
-158.456427
 20
26.020431
 10
-158.474168
 20
26.019201
 10
-158.491908
 20
26.017961
 10
-158.509648
 20
26.016712
 10
-158.527387
 20
26.015454
 10
-158.545048
 20
26.014192
 10
-158.562709
 20
26.012921
 10
-158.580368
 20
26.01164
 10
-158.598027
 20
26.01035
 10
-158.615685
 20
26.00905
 10
-158.633342
 20
26.007741
 10
-158.650919
 20
26.006428
 10
-158.668495
 20
26.005106
 10
-158.68607
 20
26.003775
 10
-158.703644
 20
26.002434
 10
-158.721218
 20
26.001084
 10
-158.73879
 20
25.999724
 10
-158.756279
 20
25.998361
 10
-158.773768
 20
25.996988
 10
-158.791255
 20
25.995607
 10
-158.808742
 20
25.994215
 10
-158.826228
 20
25.992814
 10
-158.843714
 20
25.991404
 10
-158.861113
 20
25.989991
 10
-158.878511
 20
25.988568
 10
-158.895908
 20
25.987136
 10
-158.913305
 20
25.985694
 10
-158.930701
 20
25.984243
 10
-158.948096
 20
25.982782
 10
-158.965402
 20
25.981319
 10
-158.982707
 20
25.979846
 10
-159.000012
 20
25.978363
 10
-159.017315
 20
25.976871
 10
-159.034618
 20
25.97537
 10
-159.05192
 20
25.973858
 10
-159.069131
 20
25.972345
 10
-159.086341
 20
25.970823
 10
-159.103549
 20
25.96929
 10
-159.120757
 20
25.967748
 10
-159.137965
 20
25.966196
 10
-159.155171
 20
25.964635
 10
-159.172283
 20
25.963072
 10
-159.189395
 20
25.961499
 10
-159.206505
 20
25.959917
 10
-159.223615
 20
25.958325
 10
-159.240724
 20
25.956723
 10
-159.257831
 20
25.955112
 10
-159.274843
 20
25.953499
 10
-159.291854
 20
25.951877
 10
-159.308863
 20
25.950245
 10
-159.325872
 20
25.948603
 10
-159.34288
 20
25.946951
 10
-159.359887
 20
25.94529
 10
-159.376795
 20
25.943628
 10
-159.393702
 20
25.941956
 10
-159.410609
 20
25.940274
 10
-159.427514
 20
25.938583
 10
-159.444419
 20
25.936881
 10
-159.461322
 20
25.93517
 10
-159.478125
 20
25.933458
 10
-159.494926
 20
25.931737
 10
-159.511727
 20
25.930006
 10
-159.528526
 20
25.928265
 10
-159.545325
 20
25.926514
 10
-159.562122
 20
25.924752
 10
-159.578817
 20
25.922992
 10
-159.59551
 20
25.921221
 10
-159.612202
 20
25.919441
 10
-159.628894
 20
25.91765
 10
-159.645584
 20
25.915849
 10
-159.662273
 20
25.914039
 10
-159.678857
 20
25.912229
 10
-159.69544
 20
25.910409
 10
-159.712022
 20
25.908579
 10
-159.728603
 20
25.906739
 10
-159.745182
 20
25.904889
 10
-159.761761
 20
25.903029
 10
-159.778232
 20
25.90117
 10
-159.794702
 20
25.899301
 10
-159.811172
 20
25.897422
 10
-159.82764
 20
25.895533
 10
-159.844106
 20
25.893633
 10
-159.860572
 20
25.891723
 10
-159.876929
 20
25.889816
 10
-159.893284
 20
25.887898
 10
-159.909638
 20
25.88597
 10
-159.925991
 20
25.884031
 10
-159.942343
 20
25.882082
 10
-159.958694
 20
25.880123
 10
-159.974933
 20
25.878167
 10
-159.991172
 20
25.8762
 10
-160.007409
 20
25.874223
 10
-160.023645
 20
25.872235
 10
-160.03988
 20
25.870237
 10
-160.056114
 20
25.868228
 10
-160.072235
 20
25.866223
 10
-160.088354
 20
25.864208
 10
-160.104473
 20
25.862181
 10
-160.12059
 20
25.860145
 10
-160.136706
 20
25.858097
 10
-160.15282
 20
25.85604
 10
-160.16882
 20
25.853986
 10
-160.184819
 20
25.851921
 10
-160.200817
 20
25.849846
 10
-160.216813
 20
25.84776
 10
-160.232808
 20
25.845664
 10
-160.248801
 20
25.843557
 10
-160.264679
 20
25.841454
 10
-160.280556
 20
25.839341
 10
-160.296431
 20
25.837217
 10
-160.312304
 20
25.835082
 10
-160.328176
 20
25.832937
 10
-160.344047
 20
25.83078
 10
-160.359801
 20
25.828629
 10
-160.375553
 20
25.826467
 10
-160.391303
 20
25.824294
 10
-160.407053
 20
25.82211
 10
-160.4228
 20
25.819915
 10
-160.438546
 20
25.81771
 10
-160.454174
 20
25.815509
 10
-160.469801
 20
25.813298
 10
-160.485425
 20
25.811077
 10
-160.501049
 20
25.808844
 10
-160.51667
 20
25.8066
 10
-160.53229
 20
25.804345
 10
-160.547791
 20
25.802096
 10
-160.56329
 20
25.799836
 10
-160.578787
 20
25.797565
 10
-160.594282
 20
25.795283
 10
-160.609776
 20
25.79299
 10
-160.625269
 20
25.790685
 10
-160.640641
 20
25.788388
 10
-160.656011
 20
25.786079
 10
-160.671379
 20
25.783759
 10
-160.686746
 20
25.781427
 10
-160.702111
 20
25.779085
 10
-160.717475
 20
25.776731
 10
-160.732717
 20
25.774384
 10
-160.747957
 20
25.772026
 10
-160.763196
 20
25.769657
 10
-160.778433
 20
25.767277
 10
-160.793668
 20
25.764885
 10
-160.808902
 20
25.762481
 10
-160.824013
 20
25.760086
 10
-160.839122
 20
25.757679
 10
-160.85423
 20
25.75526
 10
-160.869336
 20
25.75283
 10
-160.88444
 20
25.750389
 10
-160.899542
 20
25.747935
 10
-160.914521
 20
25.74549
 10
-160.929499
 20
25.743034
 10
-160.944474
 20
25.740566
 10
-160.959448
 20
25.738086
 10
-160.97442
 20
25.735595
 10
-160.989389
 20
25.733092
 10
-161.004236
 20
25.730597
 10
-161.01908
 20
25.728091
 10
-161.033922
 20
25.725573
 10
-161.048763
 20
25.723043
 10
-161.063601
 20
25.720502
 10
-161.078437
 20
25.717948
 10
-161.093149
 20
25.715403
 10
-161.107859
 20
25.712847
 10
-161.122567
 20
25.710279
 10
-161.137273
 20
25.707698
 10
-161.151977
 20
25.705106
 10
-161.166678
 20
25.702501
 10
-161.181255
 20
25.699906
 10
-161.19583
 20
25.697299
 10
-161.210403
 20
25.69468
 10
-161.224974
 20
25.692049
 10
-161.239542
 20
25.689405
 10
-161.254108
 20
25.68675
 10
-161.268551
 20
25.684104
 10
-161.282991
 20
25.681446
 10
-161.297429
 20
25.678776
 10
-161.311865
 20
25.676094
 10
-161.326298
 20
25.673399
 10
-161.34073
 20
25.670693
 10
-161.35504
 20
25.667996
 10
-161.369348
 20
25.665287
 10
-161.383653
 20
25.662566
 10
-161.397955
 20
25.659833
 10
-161.412254
 20
25.657088
 10
-161.42655
 20
25.65433
 10
-161.440725
 20
25.651583
 10
-161.454897
 20
25.648824
 10
-161.469067
 20
25.646052
 10
-161.483236
 20
25.643268
 10
-161.497405
 20
25.640471
 10
-161.511575
 20
25.637661
 10
-161.525627
 20
25.634862
 10
-161.539678
 20
25.63205
 10
-161.553724
 20
25.629226
 10
-161.567762
 20
25.626389
 10
-161.581787
 20
25.623541
 10
-161.595798
 20
25.620681
 10
-161.609671
 20
25.617834
 10
-161.623539
 20
25.614974
 10
-161.637413
 20
25.6121
 10
-161.651306
 20
25.60921
 10
-161.665229
 20
25.606301
 10
-161.679195
 20
25.603373
 10
-161.693081
 20
25.600451
 10
-161.706977
 20
25.597514
 10
-161.720836
 20
25.594567
 10
-161.734613
 20
25.591615
 10
-161.748263
 20
25.588665
 10
-161.761741
 20
25.585722
 10
-161.77501
 20
25.58279
 10
-161.788061
 20
25.57987
 10
-161.800897
 20
25.576963
 10
-161.838109
 20
25.568315
 10
-161.873393
 20
25.559778
 10
-161.906764
 20
25.551352
 10
-161.938238
 20
25.543036
 10
-161.96783
 20
25.53483
 10
-161.995557
 20
25.526733
 10
-162.021432
 20
25.518744
 10
-162.045473
 20
25.510865
 10
-162.053082
 20
25.508262
 10
-162.060489
 20
25.505672
 10
-162.067694
 20
25.503093
  0
LINE
  5
C29
100
AcDbEntity
  8
3
370
    50
100
AcDbLine
 10
-161.491126
 20
20.700296
 30
0.0
 11
-161.234153
 21
20.754697
 31
0.0
  0
LINE
  5
C2A
100
AcDbEntity
  8
3
370
    50
100
AcDbLine
 10
-161.234153
 20
20.754697
 30
0.0
 11
-160.963226
 21
20.806473
 31
0.0
  0
LINE
  5
C2B
100
AcDbEntity
  8
3
370
    50
100
AcDbLine
 10
-160.963226
 20
20.806473
 30
0.0
 11
-160.679041
 21
20.855491
 31
0.0
  0
LINE
  5
C2C
100
AcDbEntity
  8
3
370
    50
100
AcDbLine
 10
-160.679041
 20
20.855491
 30
0.0
 11
-160.382328
 21
20.901625
 31
0.0
  0
LINE
  5
C2D
100
AcDbEntity
  8
3
370
    50
100
AcDbLine
 10
-160.382328
 20
20.901625
 30
0.0
 11
-160.073848
 21
20.944757
 31
0.0
  0
LINE
  5
C2E
100
AcDbEntity
  8
3
370
    50
100
AcDbLine
 10
-160.073848
 20
20.944757
 30
0.0
 11
-159.754393
 21
20.984777
 31
0.0
  0
LINE
  5
C2F
100
AcDbEntity
  8
3
370
    50
100
AcDbLine
 10
-159.754393
 20
20.984777
 30
0.0
 11
-159.424784
 21
21.021581
 31
0.0
  0
LINE
  5
C30
100
AcDbEntity
  8
3
370
    50
100
AcDbLine
 10
-159.424784
 20
21.021581
 30
0.0
 11
-159.085866
 21
21.055075
 31
0.0
  0
LINE
  5
C31
100
AcDbEntity
  8
3
370
    50
100
AcDbLine
 10
-159.085866
 20
21.055075
 30
0.0
 11
-158.738509
 21
21.085173
 31
0.0
  0
LINE
  5
C32
100
AcDbEntity
  8
3
370
    50
100
AcDbLine
 10
-158.738509
 20
21.085173
 30
0.0
 11
-158.383605
 21
21.111797
 31
0.0
  0
LINE
  5
C33
100
AcDbEntity
  8
3
370
    50
100
AcDbLine
 10
-158.383605
 20
21.111797
 30
0.0
 11
-158.022065
 21
21.134881
 31
0.0
  0
LINE
  5
C34
100
AcDbEntity
  8
3
370
    50
100
AcDbLine
 10
-158.022065
 20
21.134881
 30
0.0
 11
-157.654817
 21
21.154363
 31
0.0
  0
LINE
  5
C35
100
AcDbEntity
  8
3
370
    50
100
AcDbLine
 10
-157.654817
 20
21.154363
 30
0.0
 11
-157.282804
 21
21.170195
 31
0.0
  0
LINE
  5
C36
100
AcDbEntity
  8
3
370
    50
100
AcDbLine
 10
-157.282804
 20
21.170195
 30
0.0
 11
-156.906981
 21
21.182335
 31
0.0
  0
LINE
  5
C37
100
AcDbEntity
  8
3
370
    50
100
AcDbLine
 10
-156.906981
 20
21.182335
 30
0.0
 11
-156.528312
 21
21.190752
 31
0.0
  0
LINE
  5
C38
100
AcDbEntity
  8
3
370
    50
100
AcDbLine
 10
-156.528312
 20
21.190752
 30
0.0
 11
-156.14777
 21
21.195426
 31
0.0
  0
LINE
  5
C39
100
AcDbEntity
  8
3
370
    50
100
AcDbLine
 10
-156.14777
 20
21.195426
 30
0.0
 11
-155.766331
 21
21.196343
 31
0.0
  0
LINE
  5
C3A
100
AcDbEntity
  8
3
370
    50
100
AcDbLine
 10
-155.766331
 20
21.196343
 30
0.0
 11
-155.384975
 21
21.193501
 31
0.0
  0
LINE
  5
C3B
100
AcDbEntity
  8
3
370
    50
100
AcDbLine
 10
-155.384975
 20
21.193501
 30
0.0
 11
-155.00468
 21
21.186908
 31
0.0
  0
LINE
  5
C3C
100
AcDbEntity
  8
3
370
    50
100
AcDbLine
 10
-155.00468
 20
21.186908
 30
0.0
 11
-154.626423
 21
21.176581
 31
0.0
  0
LINE
  5
C3D
100
AcDbEntity
  8
3
370
    50
100
AcDbLine
 10
-154.626423
 20
21.176581
 30
0.0
 11
-154.251174
 21
21.162546
 31
0.0
  0
LINE
  5
C3E
100
AcDbEntity
  8
3
370
    50
100
AcDbLine
 10
-154.251174
 20
21.162546
 30
0.0
 11
-153.879897
 21
21.144839
 31
0.0
  0
LINE
  5
C3F
100
AcDbEntity
  8
3
370
    50
100
AcDbLine
 10
-153.879897
 20
21.144839
 30
0.0
 11
-153.513545
 21
21.123506
 31
0.0
  0
LINE
  5
C40
100
AcDbEntity
  8
3
370
    50
100
AcDbLine
 10
-153.513545
 20
21.123506
 30
0.0
 11
-153.153059
 21
21.098601
 31
0.0
  0
LINE
  5
C41
100
AcDbEntity
  8
3
370
    50
100
AcDbLine
 10
-153.153059
 20
21.098601
 30
0.0
 11
-152.799363
 21
21.070188
 31
0.0
  0
LINE
  5
C42
100
AcDbEntity
  8
3
370
    50
100
AcDbLine
 10
-152.799363
 20
21.070188
 30
0.0
 11
-152.453366
 21
21.038341
 31
0.0
  0
LINE
  5
C43
100
AcDbEntity
  8
3
370
    50
100
AcDbLine
 10
-152.453366
 20
21.038341
 30
0.0
 11
-152.115956
 21
21.00314
 31
0.0
  0
LINE
  5
C44
100
AcDbEntity
  8
3
370
    50
100
AcDbLine
 10
-152.115956
 20
21.00314
 30
0.0
 11
-151.787999
 21
20.964677
 31
0.0
  0
LINE
  5
C45
100
AcDbEntity
  8
3
370
    50
100
AcDbLine
 10
-151.787999
 20
20.964677
 30
0.0
 11
-151.470336
 21
20.923051
 31
0.0
  0
LINE
  5
C46
100
AcDbEntity
  8
3
370
    50
100
AcDbLine
 10
-151.470336
 20
20.923051
 30
0.0
 11
-151.163784
 21
20.878367
 31
0.0
  0
LINE
  5
C47
100
AcDbEntity
  8
3
370
    50
100
AcDbLine
 10
-151.163784
 20
20.878367
 30
0.0
 11
-150.869129
 21
20.83074
 31
0.0
  0
LINE
  5
C48
100
AcDbEntity
  8
3
370
    50
100
AcDbLine
 10
-150.869129
 20
20.83074
 30
0.0
 11
-150.587128
 21
20.780294
 31
0.0
  0
LINE
  5
C49
100
AcDbEntity
  8
3
370
    50
100
AcDbLine
 10
-150.587128
 20
20.780294
 30
0.0
 11
-150.318504
 21
20.727157
 31
0.0
  0
LINE
  5
C4A
100
AcDbEntity
  8
3
370
    50
100
AcDbLine
 10
-150.318504
 20
20.727157
 30
0.0
 11
-150.063947
 21
20.671466
 31
0.0
  0
LINE
  5
C4B
100
AcDbEntity
  8
3
370
    50
100
AcDbLine
 10
-150.063947
 20
20.671466
 30
0.0
 11
-149.82411
 21
20.613363
 31
0.0
  0
LINE
  5
C4C
100
AcDbEntity
  8
3
370
    50
100
AcDbLine
 10
-149.82411
 20
20.613363
 30
0.0
 11
-149.59961
 21
20.552999
 31
0.0
  0
LINE
  5
C4D
100
AcDbEntity
  8
3
370
    50
100
AcDbLine
 10
-149.59961
 20
20.552999
 30
0.0
 11
-149.391022
 21
20.490527
 31
0.0
  0
LINE
  5
C4E
100
AcDbEntity
  8
3
370
    50
100
AcDbLine
 10
-149.391022
 20
20.490527
 30
0.0
 11
-149.198882
 21
20.426109
 31
0.0
  0
LINE
  5
C4F
100
AcDbEntity
  8
3
370
    50
100
AcDbLine
 10
-149.198882
 20
20.426109
 30
0.0
 11
-149.023683
 21
20.359909
 31
0.0
  0
LINE
  5
C50
100
AcDbEntity
  8
3
370
    50
100
AcDbLine
 10
-149.023683
 20
20.359909
 30
0.0
 11
-148.865874
 21
20.292098
 31
0.0
  0
LINE
  5
C51
100
AcDbEntity
  8
3
370
    50
100
AcDbLine
 10
-148.865874
 20
20.292098
 30
0.0
 11
-148.725862
 21
20.222849
 31
0.0
  0
LINE
  5
C52
100
AcDbEntity
  8
3
370
    50
100
AcDbLine
 10
-148.725862
 20
20.222849
 30
0.0
 11
-148.604005
 21
20.152341
 31
0.0
  0
LINE
  5
C53
100
AcDbEntity
  8
3
370
    50
100
AcDbLine
 10
-148.604005
 20
20.152341
 30
0.0
 11
-148.500616
 21
20.080754
 31
0.0
  0
LINE
  5
C54
100
AcDbEntity
  8
3
370
    50
100
AcDbLine
 10
-148.500616
 20
20.080754
 30
0.0
 11
-148.41596
 21
20.008272
 31
0.0
  0
LINE
  5
C55
100
AcDbEntity
  8
3
370
    50
100
AcDbLine
 10
-148.41596
 20
20.008272
 30
0.0
 11
-148.350255
 21
19.935081
 31
0.0
  0
LINE
  5
C56
100
AcDbEntity
  8
3
370
    50
100
AcDbLine
 10
-148.350255
 20
19.935081
 30
0.0
 11
-148.30367
 21
19.861369
 31
0.0
  0
LINE
  5
C57
100
AcDbEntity
  8
3
370
    50
100
AcDbLine
 10
-148.30367
 20
19.861369
 30
0.0
 11
-148.276324
 21
19.787326
 31
0.0
  0
LINE
  5
C58
100
AcDbEntity
  8
3
370
    50
100
AcDbLine
 10
-148.276324
 20
19.787326
 30
0.0
 11
-148.268287
 21
19.713141
 31
0.0
  0
LINE
  5
C59
100
AcDbEntity
  8
3
370
    50
100
AcDbLine
 10
-148.268287
 20
19.713141
 30
0.0
 11
-148.27958
 21
19.639005
 31
0.0
  0
LINE
  5
C5A
100
AcDbEntity
  8
3
370
    50
100
AcDbLine
 10
-148.27958
 20
19.639005
 30
0.0
 11
-148.310174
 21
19.565107
 31
0.0
  0
LINE
  5
C5B
100
AcDbEntity
  8
3
370
    50
100
AcDbLine
 10
-148.310174
 20
19.565107
 30
0.0
 11
-148.35999
 21
19.491639
 31
0.0
  0
LINE
  5
C5C
100
AcDbEntity
  8
3
370
    50
100
AcDbLine
 10
-148.35999
 20
19.491639
 30
0.0
 11
-148.4289
 21
19.418788
 31
0.0
  0
LINE
  5
C5D
100
AcDbEntity
  8
3
370
    50
100
AcDbLine
 10
-148.4289
 20
19.418788
 30
0.0
 11
-148.516729
 21
19.346741
 31
0.0
  0
LINE
  5
C5E
100
AcDbEntity
  8
3
370
    50
100
AcDbLine
 10
-148.516729
 20
19.346741
 30
0.0
 11
-148.623249
 21
19.275684
 31
0.0
  0
LINE
  5
C5F
100
AcDbEntity
  8
3
370
    50
100
AcDbLine
 10
-148.623249
 20
19.275684
 30
0.0
 11
-148.748188
 21
19.205798
 31
0.0
  0
LINE
  5
C60
100
AcDbEntity
  8
3
370
    50
100
AcDbLine
 10
-148.748188
 20
19.205798
 30
0.0
 11
-148.891225
 21
19.137263
 31
0.0
  0
LINE
  5
C61
100
AcDbEntity
  8
3
370
    50
100
AcDbLine
 10
-148.891225
 20
19.137263
 30
0.0
 11
-149.051993
 21
19.070256
 31
0.0
  0
LINE
  5
C62
100
AcDbEntity
  8
3
370
    50
100
AcDbLine
 10
-149.051993
 20
19.070256
 30
0.0
 11
-149.230079
 21
19.004947
 31
0.0
  0
LINE
  5
C63
100
AcDbEntity
  8
3
370
    50
100
AcDbLine
 10
-149.230079
 20
19.004947
 30
0.0
 11
-149.425026
 21
18.941506
 31
0.0
  0
LINE
  5
C64
100
AcDbEntity
  8
3
370
    50
100
AcDbLine
 10
-149.425026
 20
18.941506
 30
0.0
 11
-149.636333
 21
18.880093
 31
0.0
  0
LINE
  5
C65
100
AcDbEntity
  8
3
370
    50
100
AcDbLine
 10
-149.636333
 20
18.880093
 30
0.0
 11
-149.863459
 21
18.820868
 31
0.0
  0
LINE
  5
C66
100
AcDbEntity
  8
3
370
    50
100
AcDbLine
 10
-149.863459
 20
18.820868
 30
0.0
 11
-150.105819
 21
18.763982
 31
0.0
  0
LINE
  5
C67
100
AcDbEntity
  8
3
370
    50
100
AcDbLine
 10
-150.105819
 20
18.763982
 30
0.0
 11
-150.362793
 21
18.709582
 31
0.0
  0
LINE
  5
C68
100
AcDbEntity
  8
3
370
    50
100
AcDbLine
 10
-150.362793
 20
18.709582
 30
0.0
 11
-150.63372
 21
18.657806
 31
0.0
  0
LINE
  5
C69
100
AcDbEntity
  8
3
370
    50
100
AcDbLine
 10
-150.63372
 20
18.657806
 30
0.0
 11
-150.917905
 21
18.608788
 31
0.0
  0
LINE
  5
C6A
100
AcDbEntity
  8
3
370
    50
100
AcDbLine
 10
-150.917905
 20
18.608788
 30
0.0
 11
-151.214618
 21
18.562654
 31
0.0
  0
LINE
  5
C6B
100
AcDbEntity
  8
3
370
    50
100
AcDbLine
 10
-151.214618
 20
18.562654
 30
0.0
 11
-151.523098
 21
18.519522
 31
0.0
  0
LINE
  5
C6C
100
AcDbEntity
  8
3
370
    50
100
AcDbLine
 10
-151.523098
 20
18.519522
 30
0.0
 11
-151.842552
 21
18.479502
 31
0.0
  0
LINE
  5
C6D
100
AcDbEntity
  8
3
370
    50
100
AcDbLine
 10
-151.842552
 20
18.479502
 30
0.0
 11
-152.172162
 21
18.442698
 31
0.0
  0
LINE
  5
C6E
100
AcDbEntity
  8
3
370
    50
100
AcDbLine
 10
-152.172162
 20
18.442698
 30
0.0
 11
-152.51108
 21
18.409204
 31
0.0
  0
LINE
  5
C6F
100
AcDbEntity
  8
3
370
    50
100
AcDbLine
 10
-152.51108
 20
18.409204
 30
0.0
 11
-152.858437
 21
18.379106
 31
0.0
  0
LINE
  5
C70
100
AcDbEntity
  8
3
370
    50
100
AcDbLine
 10
-152.858437
 20
18.379106
 30
0.0
 11
-153.213341
 21
18.352481
 31
0.0
  0
LINE
  5
C71
100
AcDbEntity
  8
3
370
    50
100
AcDbLine
 10
-153.213341
 20
18.352481
 30
0.0
 11
-153.574881
 21
18.329398
 31
0.0
  0
LINE
  5
C72
100
AcDbEntity
  8
3
370
    50
100
AcDbLine
 10
-153.574881
 20
18.329398
 30
0.0
 11
-153.942128
 21
18.309916
 31
0.0
  0
LINE
  5
C73
100
AcDbEntity
  8
3
370
    50
100
AcDbLine
 10
-153.942128
 20
18.309916
 30
0.0
 11
-154.314141
 21
18.294084
 31
0.0
  0
LINE
  5
C74
100
AcDbEntity
  8
3
370
    50
100
AcDbLine
 10
-154.314141
 20
18.294084
 30
0.0
 11
-154.689965
 21
18.281944
 31
0.0
  0
LINE
  5
C75
100
AcDbEntity
  8
3
370
    50
100
AcDbLine
 10
-154.689965
 20
18.281944
 30
0.0
 11
-155.068633
 21
18.273526
 31
0.0
  0
LINE
  5
C76
100
AcDbEntity
  8
3
370
    50
100
AcDbLine
 10
-155.068633
 20
18.273526
 30
0.0
 11
-155.449176
 21
18.268853
 31
0.0
  0
LINE
  5
C77
100
AcDbEntity
  8
3
370
    50
100
AcDbLine
 10
-155.449176
 20
18.268853
 30
0.0
 11
-155.830615
 21
18.267936
 31
0.0
  0
LINE
  5
C78
100
AcDbEntity
  8
3
370
    50
100
AcDbLine
 10
-155.830615
 20
18.267936
 30
0.0
 11
-156.211971
 21
18.270778
 31
0.0
  0
LINE
  5
C79
100
AcDbEntity
  8
3
370
    50
100
AcDbLine
 10
-156.211971
 20
18.270778
 30
0.0
 11
-156.592266
 21
18.277371
 31
0.0
  0
LINE
  5
C7A
100
AcDbEntity
  8
3
370
    50
100
AcDbLine
 10
-156.592266
 20
18.277371
 30
0.0
 11
-156.970523
 21
18.287698
 31
0.0
  0
LINE
  5
C7B
100
AcDbEntity
  8
3
370
    50
100
AcDbLine
 10
-156.970523
 20
18.287698
 30
0.0
 11
-157.345772
 21
18.301733
 31
0.0
  0
LINE
  5
C7C
100
AcDbEntity
  8
3
370
    50
100
AcDbLine
 10
-157.345772
 20
18.301733
 30
0.0
 11
-157.717049
 21
18.31944
 31
0.0
  0
LINE
  5
C7D
100
AcDbEntity
  8
3
370
    50
100
AcDbLine
 10
-157.717049
 20
18.31944
 30
0.0
 11
-158.083401
 21
18.340773
 31
0.0
  0
LINE
  5
C7E
100
AcDbEntity
  8
3
370
    50
100
AcDbLine
 10
-158.083401
 20
18.340773
 30
0.0
 11
-158.443887
 21
18.365678
 31
0.0
  0
LINE
  5
C7F
100
AcDbEntity
  8
3
370
    50
100
AcDbLine
 10
-158.443887
 20
18.365678
 30
0.0
 11
-158.797583
 21
18.394091
 31
0.0
  0
LINE
  5
C80
100
AcDbEntity
  8
3
370
    50
100
AcDbLine
 10
-158.797583
 20
18.394091
 30
0.0
 11
-159.14358
 21
18.425938
 31
0.0
  0
LINE
  5
C81
100
AcDbEntity
  8
3
370
    50
100
AcDbLine
 10
-159.14358
 20
18.425938
 30
0.0
 11
-159.48099
 21
18.461138
 31
0.0
  0
LINE
  5
C82
100
AcDbEntity
  8
3
370
    50
100
AcDbLine
 10
-159.48099
 20
18.461138
 30
0.0
 11
-159.808947
 21
18.499601
 31
0.0
  0
LINE
  5
C83
100
AcDbEntity
  8
3
370
    50
100
AcDbLine
 10
-159.808947
 20
18.499601
 30
0.0
 11
-160.12661
 21
18.541228
 31
0.0
  0
LINE
  5
C84
100
AcDbEntity
  8
3
370
    50
100
AcDbLine
 10
-160.12661
 20
18.541228
 30
0.0
 11
-160.433162
 21
18.585912
 31
0.0
  0
LINE
  5
C85
100
AcDbEntity
  8
3
370
    50
100
AcDbLine
 10
-160.433162
 20
18.585912
 30
0.0
 11
-160.727817
 21
18.633538
 31
0.0
  0
LINE
  5
C86
100
AcDbEntity
  8
3
370
    50
100
AcDbLine
 10
-160.727817
 20
18.633538
 30
0.0
 11
-161.009818
 21
18.683985
 31
0.0
  0
LINE
  5
C87
100
AcDbEntity
  8
3
370
    50
100
AcDbLine
 10
-161.009818
 20
18.683985
 30
0.0
 11
-161.278442
 21
18.737122
 31
0.0
  0
LINE
  5
C88
100
AcDbEntity
  8
3
370
    50
100
AcDbLine
 10
-161.278442
 20
18.737122
 30
0.0
 11
-161.532999
 21
18.792813
 31
0.0
  0
LINE
  5
C89
100
AcDbEntity
  8
3
370
    50
100
AcDbLine
 10
-161.532999
 20
18.792813
 30
0.0
 11
-161.772835
 21
18.850915
 31
0.0
  0
LINE
  5
C8A
100
AcDbEntity
  8
3
370
    50
100
AcDbLine
 10
-161.772835
 20
18.850915
 30
0.0
 11
-161.997336
 21
18.91128
 31
0.0
  0
LINE
  5
C8B
100
AcDbEntity
  8
3
370
    50
100
AcDbLine
 10
-161.997336
 20
18.91128
 30
0.0
 11
-162.205924
 21
18.973752
 31
0.0
  0
LINE
  5
C8C
100
AcDbEntity
  8
3
370
    50
100
AcDbLine
 10
-162.205924
 20
18.973752
 30
0.0
 11
-162.398064
 21
19.03817
 31
0.0
  0
LINE
  5
C8D
100
AcDbEntity
  8
3
370
    50
100
AcDbLine
 10
-162.398064
 20
19.03817
 30
0.0
 11
-162.573263
 21
19.10437
 31
0.0
  0
LINE
  5
C8E
100
AcDbEntity
  8
3
370
    50
100
AcDbLine
 10
-162.573263
 20
19.10437
 30
0.0
 11
-162.731071
 21
19.172181
 31
0.0
  0
LINE
  5
C8F
100
AcDbEntity
  8
3
370
    50
100
AcDbLine
 10
-162.731071
 20
19.172181
 30
0.0
 11
-162.871084
 21
19.24143
 31
0.0
  0
LINE
  5
C90
100
AcDbEntity
  8
3
370
    50
100
AcDbLine
 10
-162.871084
 20
19.24143
 30
0.0
 11
-162.992941
 21
19.311938
 31
0.0
  0
LINE
  5
C91
100
AcDbEntity
  8
3
370
    50
100
AcDbLine
 10
-162.992941
 20
19.311938
 30
0.0
 11
-163.09633
 21
19.383525
 31
0.0
  0
LINE
  5
C92
100
AcDbEntity
  8
3
370
    50
100
AcDbLine
 10
-163.09633
 20
19.383525
 30
0.0
 11
-163.180986
 21
19.456007
 31
0.0
  0
LINE
  5
C93
100
AcDbEntity
  8
3
370
    50
100
AcDbLine
 10
-163.180986
 20
19.456007
 30
0.0
 11
-163.24669
 21
19.529198
 31
0.0
  0
LINE
  5
C94
100
AcDbEntity
  8
3
370
    50
100
AcDbLine
 10
-163.24669
 20
19.529198
 30
0.0
 11
-163.293276
 21
19.60291
 31
0.0
  0
LINE
  5
C95
100
AcDbEntity
  8
3
370
    50
100
AcDbLine
 10
-163.293276
 20
19.60291
 30
0.0
 11
-163.320622
 21
19.676953
 31
0.0
  0
LINE
  5
C96
100
AcDbEntity
  8
3
370
    50
100
AcDbLine
 10
-163.320622
 20
19.676953
 30
0.0
 11
-163.328659
 21
19.751138
 31
0.0
  0
LINE
  5
C97
100
AcDbEntity
  8
3
370
    50
100
AcDbLine
 10
-163.328659
 20
19.751138
 30
0.0
 11
-163.317366
 21
19.825274
 31
0.0
  0
LINE
  5
C98
100
AcDbEntity
  8
3
370
    50
100
AcDbLine
 10
-163.317366
 20
19.825274
 30
0.0
 11
-163.286772
 21
19.899171
 31
0.0
  0
LINE
  5
C99
100
AcDbEntity
  8
3
370
    50
100
AcDbLine
 10
-163.286772
 20
19.899171
 30
0.0
 11
-163.236956
 21
19.97264
 31
0.0
  0
LINE
  5
C9A
100
AcDbEntity
  8
3
370
    50
100
AcDbLine
 10
-163.236956
 20
19.97264
 30
0.0
 11
-163.168045
 21
20.045491
 31
0.0
  0
LINE
  5
C9B
100
AcDbEntity
  8
3
370
    50
100
AcDbLine
 10
-163.168045
 20
20.045491
 30
0.0
 11
-163.080217
 21
20.117538
 31
0.0
  0
LINE
  5
C9C
100
AcDbEntity
  8
3
370
    50
100
AcDbLine
 10
-163.080217
 20
20.117538
 30
0.0
 11
-162.973697
 21
20.188595
 31
0.0
  0
LINE
  5
C9D
100
AcDbEntity
  8
3
370
    50
100
AcDbLine
 10
-162.973697
 20
20.188595
 30
0.0
 11
-162.848758
 21
20.258481
 31
0.0
  0
LINE
  5
C9E
100
AcDbEntity
  8
3
370
    50
100
AcDbLine
 10
-162.848758
 20
20.258481
 30
0.0
 11
-162.705721
 21
20.327015
 31
0.0
  0
LINE
  5
C9F
100
AcDbEntity
  8
3
370
    50
100
AcDbLine
 10
-162.705721
 20
20.327015
 30
0.0
 11
-162.544953
 21
20.394023
 31
0.0
  0
LINE
  5
CA0
100
AcDbEntity
  8
3
370
    50
100
AcDbLine
 10
-162.544953
 20
20.394023
 30
0.0
 11
-162.366867
 21
20.459331
 31
0.0
  0
LINE
  5
CA1
100
AcDbEntity
  8
3
370
    50
100
AcDbLine
 10
-162.366867
 20
20.459331
 30
0.0
 11
-162.17192
 21
20.522773
 31
0.0
  0
LINE
  5
CA2
100
AcDbEntity
  8
3
370
    50
100
AcDbLine
 10
-162.17192
 20
20.522773
 30
0.0
 11
-161.960613
 21
20.584185
 31
0.0
  0
LINE
  5
CA3
100
AcDbEntity
  8
3
370
    50
100
AcDbLine
 10
-161.960613
 20
20.584185
 30
0.0
 11
-161.733487
 21
20.643411
 31
0.0
  0
LINE
  5
CA4
100
AcDbEntity
  8
3
370
    50
100
AcDbLine
 10
-161.733487
 20
20.643411
 30
0.0
 11
-161.491126
 21
20.700296
 31
0.0
  0
TEXT
  5
CA5
100
AcDbEntity
  8
3
370
    50
100
AcDbText
 10
1.476931
 20
-73.360824
 30
0.0
 40
7.0
  1
（７９）
 50
90.0
 72
     5
 11
1.476931
 21
-46.760824
 31
0.0
100
AcDbText
  0
DIMENSION
  5
CA6
100
AcDbEntity
  8
3
370
    25
100
AcDbDimension
  2
*D2
 10
2.476931
 20
-20.010847
 30
0.0
 11
-0.023069
 21
-59.360824
 31
0.0
 71
     0
 72
     0
 41
0.0
 42
0.0
  3
Standard
100
AcDbAlignedDimension
 13
-30.761856
 23
-98.7108
 33
0.0
 14
-55.761856
 24
-20.010847
 34
0.0
 50
90.0
100
AcDbRotatedDimension
  0
POINT
  5
CA7
100
AcDbEntity
  8
3
370
    50
100
AcDbPoint
 10
-249.261367
 20
-167.510845
 30
0.0
  0
POINT
  5
CA8
100
AcDbEntity
  8
3
370
    50
100
AcDbPoint
 10
-262.261367
 20
-167.510845
 30
0.0
  0
TEXT
  5
CA9
100
AcDbEntity
  8
3
370
    50
100
AcDbText
 10
-241.261367
 20
-183.41069
 30
0.0
 40
7.0
  1
φ１３
 72
     5
 11
-221.661367
 21
-183.41069
 31
0.0
100
AcDbText
  0
DIMENSION
  5
CAA
100
AcDbEntity
  8
3
370
    25
100
AcDbDimension
  2
*D3
 10
-249.261367
 20
-184.41069
 30
0.0
 11
-255.761367
 21
-182.41069
 31
0.0
 71
     0
 72
     0
 41
0.0
 42
0.0
  3
Standard
100
AcDbAlignedDimension
 13
-262.261367
 23
-167.510845
 33
0.0
 14
-249.261367
 24
-167.510845
 34
0.0
100
AcDbRotatedDimension
  0
TEXT
  5
CAB
100
AcDbEntity
  8
3
370
    50
100
AcDbText
 10
-275.634811
 20
1.995852
 30
0.0
 40
7.0
  1
（湯表示）
 72
     5
 11
-242.034811
 21
1.995852
 31
0.0
100
AcDbText
  0
TEXT
  5
CAC
100
AcDbEntity
  8
3
370
    50
100
AcDbText
 10
-59.636877
 20
10.346447
 30
0.0
 40
7.0
  1
サックス
 72
     5
 11
-33.036877
 21
10.346447
 31
0.0
100
AcDbText
  0
TEXT
  5
CAD
100
AcDbEntity
  8
3
370
    50
100
AcDbText
 10
-275.634811
 20
9.995852
 30
0.0
 40
7.0
  1
ピンク
 72
     5
 11
-256.034811
 21
9.995852
 31
0.0
100
AcDbText
  0
TEXT
  5
CAE
100
AcDbEntity
  8
3
370
    50
100
AcDbText
 10
-59.636877
 20
2.346447
 30
0.0
 40
7.0
  1
（水表示）
 72
     5
 11
-26.036877
 21
2.346447
 31
0.0
100
AcDbText
  0
LWPOLYLINE
  5
CAF
100
AcDbEntity
  8
3
370
    25
100
AcDbPolyline
 90
        2
 70
     0
 10
-261.339676
 20
-21.181119
 10
-263.288956
 20
-0.396535
  0
LWPOLYLINE
  5
CB3
100
AcDbEntity
  8
3
370
    25
100
AcDbPolyline
 90
        2
 70
     0
 10
-50.932013
 20
-20.830524
 10
-48.982733
 20
-0.04594
  0
TEXT
  5
CB7
100
AcDbEntity
  8
3
370
    50
100
AcDbText
 10
293.773056
 20
-137.168137
 30
0.0
 40
7.0
  1
２４六角
 72
     5
 11
320.373056
 21
-137.168137
 31
0.0
100
AcDbText
  0
TEXT
  5
CB8
100
AcDbEntity
  8
3
370
    50
100
AcDbText
 10
295.470001
 20
-170.613846
 30
0.0
 40
7.0
  1
２３六角
 72
     5
 11
322.070001
 21
-170.613846
 31
0.0
100
AcDbText
  0
LWPOLYLINE
  5
CB9
100
AcDbEntity
  8
3
370
    25
100
AcDbPolyline
 90
        3
 70
     0
 10
331.931232
 20
-166.255455
 10
324.309464
 20
-170.730415
 10
295.14537
 20
-170.730415
  0
LINE
  5
CBE
100
AcDbEntity
  8
3
370
    25
100
AcDbLine
 10
328.599364
 20
-168.211691
 30
0.0
 11
329.123536
 21
-169.104462
 31
0.0
  0
LINE
  5
CBF
100
AcDbEntity
  8
3
370
    25
100
AcDbLine
 10
329.123536
 20
-169.104462
 30
0.0
 11
331.931232
 21
-166.255455
 31
0.0
  0
LINE
  5
CC0
100
AcDbEntity
  8
3
370
    25
100
AcDbLine
 10
331.931232
 20
-166.255455
 30
0.0
 11
328.075193
 21
-167.318919
 31
0.0
  0
LINE
  5
CC1
100
AcDbEntity
  8
3
370
    25
100
AcDbLine
 10
328.075193
 20
-167.318919
 30
0.0
 11
328.599364
 21
-168.211691
 31
0.0
  0
LWPOLYLINE
  5
CC2
100
AcDbEntity
  8
3
370
    25
100
AcDbPolyline
 90
        3
 70
     0
 10
330.269764
 20
-133.097725
 10
322.647995
 20
-137.572685
 10
293.483902
 20
-137.572685
  0
LINE
  5
CC7
100
AcDbEntity
  8
3
370
    25
100
AcDbLine
 10
326.937896
 20
-135.053961
 30
0.0
 11
327.462068
 21
-135.946732
 31
0.0
  0
LINE
  5
CC8
100
AcDbEntity
  8
3
370
    25
100
AcDbLine
 10
327.462068
 20
-135.946732
 30
0.0
 11
330.269764
 21
-133.097725
 31
0.0
  0
LINE
  5
CC9
100
AcDbEntity
  8
3
370
    25
100
AcDbLine
 10
330.269764
 20
-133.097725
 30
0.0
 11
326.413724
 21
-134.161189
 31
0.0
  0
LINE
  5
CCA
100
AcDbEntity
  8
3
370
    25
100
AcDbLine
 10
326.413724
 20
-134.161189
 30
0.0
 11
326.937896
 21
-135.053961
 31
0.0
  0
DIMENSION
  5
CCB
100
AcDbEntity
  8
3
370
    25
100
AcDbDimension
  2
*D4
 10
76.791954
 20
19.702464
 30
0.0
 11
65.291954
 21
-43.004168
 31
0.0
 71
     0
 72
     0
 41
0.0
 42
0.0
  3
Standard
100
AcDbAlignedDimension
 13
319.238144
 23
-98.7108
 33
0.0
 14
104.951455
 24
19.702464
 34
0.0
 50
90.0
100
AcDbRotatedDimension
  0
ARC
  5
CCC
100
AcDbEntity
  8
3
370
    50
100
AcDbCircle
 10
-112.52092
 20
137.188182
 30
0.0
 40
7.291667
100
AcDbArc
 50
263.130102
 51
336.869898
  0
ARC
  5
CCD
100
AcDbEntity
  8
3
370
    50
100
AcDbCircle
 10
-99.109865
 20
131.459552
 30
0.0
 40
7.291667
100
AcDbArc
 50
83.130102
 51
156.869898
  0
ARC
  5
CCE
100
AcDbEntity
  8
3
370
    50
100
AcDbCircle
 10
-106.687587
 20
127.084552
 30
0.0
 40
7.291667
100
AcDbArc
 50
83.130102
 51
156.869898
  0
ARC
  5
CCF
100
AcDbEntity
  8
3
370
    50
100
AcDbCircle
 10
-115.602849
 20
142.526239
 30
0.0
 40
7.291667
100
AcDbArc
 50
263.130102
 51
336.869898
  0
ARC
  5
CD0
100
AcDbEntity
  8
3
370
    50
100
AcDbCircle
 10
-102.191793
 20
136.797609
 30
0.0
 40
7.291667
100
AcDbArc
 50
83.130102
 51
156.869898
  0
ARC
  5
CD1
100
AcDbEntity
  8
3
370
    50
100
AcDbCircle
 10
-108.025127
 20
146.901239
 30
0.0
 40
7.291667
100
AcDbArc
 50
263.130102
 51
336.869898
  0
LINE
  5
CD2
100
AcDbEntity
  8
3
370
    50
100
AcDbLine
 10
-148.146665
 20
225.143782
 30
0.0
 11
-101.287288
 21
143.98096
 31
0.0
  0
LINE
  5
CD3
100
AcDbEntity
  8
3
370
    50
100
AcDbLine
 10
-98.235037
 20
138.694307
 30
0.0
 11
-63.134423
 21
77.898259
 31
0.0
  0
LINE
  5
CD4
100
AcDbEntity
  8
3
370
    50
100
AcDbLine
 10
-163.240848
 20
216.287674
 30
0.0
 11
-116.656206
 21
135.600707
 31
0.0
  0
LINE
  5
CD5
100
AcDbEntity
  8
3
370
    50
100
AcDbLine
 10
-113.328575
 20
129.83708
 30
0.0
 11
-78.289867
 21
69.148259
 31
0.0
  0
TEXT
  5
CD6
100
AcDbEntity
  8
3
370
    50
100
AcDbText
 10
65.159081
 20
-236.582397
 30
0.0
 40
7.0
  1
Ｋ１３－３９ＧＥ
 72
     5
 11
119.759081
 21
-236.582397
 31
0.0
100
AcDbText
  0
TEXT
  5
CD7
100
AcDbEntity
  8
3
370
    50
100
AcDbText
 10
65.331642
 20
-227.648422
 30
0.0
 40
7.0
  1
台付２ハンドル湯水混合水栓
 72
     5
 11
154.931642
 21
-227.648422
 31
0.0
100
AcDbText
  0
TEXT
  5
CD8
100
AcDbEntity
  8
3
370
    50
100
AcDbText
 10
346.032715
 20
-255.481979
 30
0.0
 40
6.0
  1
１９　　４　１１
 72
     5
 11
392.832715
 21
-255.481979
 31
0.0
100
AcDbText
  0
TEXT
  5
CD9
100
AcDbEntity
  8
3
370
    50
100
AcDbText
 10
333.798279
 20
-271.939301
 30
0.0
 40
7.0
  1
３０１１０８
 72
     5
 11
374.398279
 21
-271.939301
 31
0.0
100
AcDbText
  0
LINE
  5
CDA
100
AcDbEntity
  8
4
370
    50
100
AcDbLine
 10
352.987815
 20
-22.011909
 30
0.0
 11
352.987815
 21
1.325006
 31
0.0
  0
LINE
  5
CDB
100
AcDbEntity
  8
4
370
    50
100
AcDbLine
 10
335.487815
 20
-22.01191
 30
0.0
 11
335.487815
 21
1.325006
 31
0.0
  0
POINT
  5
CDC
100
AcDbEntity
  8
4
370
    50
100
AcDbPoint
 10
297.352642
 20
35.835088
 30
0.0
  0
LINE
  5
CDD
100
AcDbEntity
  8
4
370
    50
100
AcDbLine
 10
113.021849
 20
18.711545
 30
0.0
 11
95.453782
 21
20.868632
 31
0.0
  0
ARC
  5
CDE
100
AcDbEntity
  8
4
370
    25
  6
CENTER
100
AcDbCircle
 10
139.837064
 20
22.529884
 30
0.0
 40
35.0
100
AcDbArc
 50
91.692934
 51
173.0
  0
ARC
  5
CDF
100
AcDbEntity
  8
4
370
    50
100
AcDbCircle
 10
139.837064
 20
22.529884
 30
0.0
 40
26.25
100
AcDbArc
 50
93.040955
 51
177.496232
  0
ARC
  5
CE0
100
AcDbEntity
  8
4
370
    50
100
AcDbCircle
 10
139.837064
 20
22.529884
 30
0.0
 40
43.75
100
AcDbArc
 50
90.773702
 51
175.695966
  0
LINE
  5
CE1
100
AcDbEntity
  8
4
370
    50
100
AcDbLine
 10
104.907258
 20
24.74544
 30
0.0
 11
96.210445
 21
25.813275
 31
0.0
  0
ARC
  5
CE2
100
AcDbEntity
  8
4
370
    50
100
AcDbCircle
 10
98.52873
 20
22.928298
 30
0.0
 40
3.701017
100
AcDbArc
 50
128.784365
 51
213.81503
  0
ARC
  5
CE3
100
AcDbEntity
  8
4
370
    50
100
AcDbCircle
 10
110.536519
 20
21.453927
 30
0.0
 40
3.701017
100
AcDbArc
 50
312.18497
 51
37.215635
  0
LINE
  5
CE4
100
AcDbEntity
  8
4
370
    50
100
AcDbLine
 10
314.569599
 20
44.7489
 30
0.0
 11
139.246297
 21
66.275895
 31
0.0
  0
LINE
  5
CE5
100
AcDbEntity
  8
4
370
    25
  6
CENTER
100
AcDbLine
 10
313.503242
 20
36.064121
 30
0.0
 11
138.80306
 21
57.514606
 31
0.0
  0
LINE
  5
CE6
100
AcDbEntity
  8
4
370
    50
100
AcDbLine
 10
312.436886
 20
27.379342
 30
0.0
 11
138.444508
 21
48.74292
 31
0.0
  0
ARC
  5
CE7
100
AcDbEntity
  8
4
370
    25
  6
CENTER
100
AcDbCircle
 10
309.237815
 20
1.325006
 30
0.0
 40
35.0
100
AcDbArc
 50
0.0
 51
83.0
  0
ARC
  5
CE8
100
AcDbEntity
  8
4
370
    50
100
AcDbCircle
 10
309.237815
 20
1.325006
 30
0.0
 40
26.25
100
AcDbArc
 50
0.0
 51
83.0
  0
ARC
  5
CE9
100
AcDbEntity
  8
4
370
    50
100
AcDbCircle
 10
309.237815
 20
1.325006
 30
0.0
 40
43.75
100
AcDbArc
 50
0.0
 51
83.0
  0
LINE
  5
CEA
100
AcDbEntity
  8
4
370
    50
100
AcDbLine
 10
104.787066
 20
24.760198
 30
0.0
 11
113.483879
 21
23.692364
 31
0.0
  0
POINT
  5
CEB
100
AcDbEntity
  8
4
370
    50
100
AcDbPoint
 10
104.237815
 20
19.790088
 30
0.0
  0
LINE
  5
CEC
100
AcDbEntity
  8
4
370
    25
  6
CENTER
100
AcDbLine
 10
103.788598
 20
16.131505
 30
0.0
 11
105.097949
 21
26.795311
 31
0.0
  0
DIMENSION
  5
CED
100
AcDbEntity
  8
4
370
    25
100
AcDbDimension
  2
*D5
 10
344.23759
 20
-116.302032
 30
0.0
 11
224.237703
 21
-111.802032
 31
0.0
 71
     0
 72
     0
 41
0.0
 42
0.0
  3
Standard
100
AcDbAlignedDimension
 13
104.237815
 23
19.790088
 33
0.0
 14
344.23759
 24
-76.8288
 34
0.0
100
AcDbRotatedDimension
  0
DIMENSION
  5
CEE
100
AcDbEntity
  8
4
370
    25
100
AcDbDimension
  2
*D6
 10
104.237815
 20
19.786598
 30
0.0
 11
109.155228
 21
-14.47379
 31
0.0
 70
     2
 71
     0
 72
     0
 41
0.0
 42
0.0
  3
Standard
100
AcDb2LineAngularDimension
 13
104.23739
 23
19.786624
 33
0.0
 14
104.237815
 24
19.790088
 34
0.0
 15
104.237815
 25
19.790088
 35
0.0
 16
102.107236
 26
-15.044585
 36
0.0
1001
ACAD
1000
DSTYLE
1002
{
1070
   275
1070
     0
1070
   179
1070
     2
1002
}
  0
ENDSEC
  0
SECTION
  2
OBJECTS
  0
DICTIONARY
  5
D40
100
AcDbDictionary
280
     0
281
     1
  3
ACAD_GROUP
350
D41
  3
ACAD_MLINESTYLE
350
D42
  0
DICTIONARY
  5
D41
102
{ACAD_REACTORS
330
D40
102
}
100
AcDbDictionary
280
     0
281
     1
  0
DICTIONARY
  5
D42
102
{ACAD_REACTORS
330
D40
102
}
100
AcDbDictionary
280
     0
281
     1
  3
Standard
350
D43
  0
MLINESTYLE
  5
D43
102
{ACAD_REACTORS
330
D42
102
}
100
AcDbMlineStyle
  2
Standard
 70
     0
  3

 62
     0
 51
90.0
 52
90.0
 71
     2
 49
0.5
 62
   256
  6
ByLayer
 49
-0.5
 62
   256
  6
ByLayer
  0
ENDSEC
  0
EOF
