  0
SECTION
  2
HEADER
  9
$ACADVER
  1
AC1015
  9
$ACADMAINTVER
 70
     6
  9
$DWGCODEPAGE
  3
ANSI_932
  9
$INSBASE
 10
0.0
 20
0.0
 30
0.0
  9
$EXTMIN
 10
-841.0
 20
-594.0
 30
1.000000E+20
  9
$EXTMAX
 10
841.0
 20
594.0
 30
-1.000000E+20
  9
$LIMMIN
 10
-841.0
 20
-594.0
  9
$LIMMAX
 10
841.0
 20
594.0
  9
$ORTHOMODE
 70
     0
  9
$REGENMODE
 70
     1
  9
$FILLMODE
 70
     1
  9
$QTEXTMODE
 70
     0
  9
$MIRRTEXT
 70
     1
  9
$LTSCALE
 40
1.0
  9
$ATTMODE
 70
     1
  9
$TEXTSIZE
 40
0.2
  9
$TRACEWID
 40
0.05
  9
$TEXTSTYLE
  7
STANDARD
  9
$CLAYER
  8
0
  9
$CELTYPE
  6
CONTINUOUS
  9
$CECOLOR
 62
   256
  9
$CELTSCALE
 40
1.0
  9
$DISPSILH
 70
     0
  9
$DIMSCALE
 40
2.0
  9
$DIMASZ
 40
2.0
  9
$DIMEXO
 40
1.0
  9
$DIMDLI
 40
0.38
  9
$DIMRND
 40
0.0
  9
$DIMDLE
 40
0.0
  9
$DIMEXE
 40
2.0
  9
$DIMTP
 40
0.0
  9
$DIMTM
 40
0.0
  9
$DIMTXT
 40
3.5
  9
$DIMCEN
 40
0.09
  9
$DIMTSZ
 40
0.0
  9
$DIMTOL
 70
     0
  9
$DIMLIM
 70
     0
  9
$DIMTIH
 70
     0
  9
$DIMTOH
 70
     0
  9
$DIMSE1
 70
     0
  9
$DIMSE2
 70
     0
  9
$DIMTAD
 70
     1
  9
$DIMZIN
 70
     0
  9
$DIMBLK
  1

  9
$DIMASO
 70
     1
  9
$DIMSHO
 70
     1
  9
$DIMPOST
  1

  9
$DIMAPOST
  1

  9
$DIMALT
 70
     0
  9
$DIMALTD
 70
     2
  9
$DIMALTF
 40
25.4
  9
$DIMLFAC
 40
1.0
  9
$DIMTOFL
 70
     0
  9
$DIMTVP
 40
0.0
  9
$DIMTIX
 70
     0
  9
$DIMSOXD
 70
     0
  9
$DIMSAH
 70
     0
  9
$DIMBLK1
  1

  9
$DIMBLK2
  1

  9
$DIMSTYLE
  2
Standard
  9
$DIMCLRD
 70
     0
  9
$DIMCLRE
 70
     0
  9
$DIMCLRT
 70
     0
  9
$DIMTFAC
 40
1.0
  9
$DIMGAP
 40
0.5
  9
$DIMJUST
 70
     0
  9
$DIMSD1
 70
     0
  9
$DIMSD2
 70
     0
  9
$DIMTOLJ
 70
     1
  9
$DIMTZIN
 70
     0
  9
$DIMALTZ
 70
     0
  9
$DIMALTTZ
 70
     0
  9
$DIMUPT
 70
     0
  9
$DIMDEC
 70
     3
  9
$DIMTDEC
 70
     4
  9
$DIMALTU
 70
     2
  9
$DIMALTTD
 70
     2
  9
$DIMTXSTY
  7
STANDARD
  9
$DIMAUNIT
 70
     0
  9
$DIMADEC
 70
     2
  9
$DIMALTRND
 40
0.0
  9
$DIMAZIN
 70
     0
  9
$DIMDSEP
 70
     0
  9
$DIMATFIT
 70
     3
  9
$DIMFRAC
 70
     0
  9
$DIMLDRBLK
  1

  9
$DIMLUNIT
 70
     2
  9
$DIMLWD
 70
     0
  9
$DIMLWE
 70
     0
  9
$DIMTMOVE
 70
     0
  9
$LUNITS
 70
     2
  9
$LUPREC
 70
     4
  9
$SKETCHINC
 40
0.1
  9
$FILLETRAD
 40
0.0
  9
$AUNITS
 70
     0
  9
$AUPREC
 70
     0
  9
$MENU
  1
acad
  9
$ELEVATION
 40
0.0
  9
$PELEVATION
 40
0.0
  9
$THICKNESS
 40
0.0
  9
$LIMCHECK
 70
     0
  9
$CHAMFERA
 40
0.0
  9
$CHAMFERB
 40
0.0
  9
$CHAMFERC
 40
0.0
  9
$CHAMFERD
 40
0.0
  9
$SKPOLY
 70
     0
  9
$TDCREATE
 40
2457507.000000000
  9
$TDUCREATE
 40
0.000000000
  9
$TDUPDATE
 40
0.000000000
  9
$TDUUPDATE
 40
2447892.625000000
  9
$TDINDWG
 40
0.0000000000
  9
$TDUSRTIMER
 40
0.0000000000
  9
$USRTIMER
 70
     1
  9
$ANGBASE
 50
0.0
  9
$ANGDIR
 70
     0
  9
$PDMODE
 70
     0
  9
$PDSIZE
 40
0.0
  9
$PLINEWID
 40
0.0
  9
$SPLFRAME
 70
     0
  9
$SPLINETYPE
 70
     6
  9
$SPLINESEGS
 70
     8
  9
$HANDSEED
  5
D3E
  9
$SURFTAB1
 70
     6
  9
$SURFTAB2
 70
     6
  9
$SURFTYPE
 70
     6
  9
$SURFU
 70
     6
  9
$SURFV
 70
     6
  9
$UCSBASE
  2

  9
$UCSNAME
  2

  9
$UCSORG
 10
0.0
 20
0.0
 30
0.0
  9
$UCSXDIR
 10
1.0
 20
0.0
 30
0.0
  9
$UCSYDIR
 10
0.0
 20
1.0
 30
0.0
  9
$UCSORTHOREF
  2

  9
$UCSORTHOVIEW
 70
     0
  9
$UCSORGTOP
 10
0.0
 20
0.0
 30
0.0
  9
$UCSORGBOTTOM
 10
0.0
 20
0.0
 30
0.0
  9
$UCSORGLEFT
 10
0.0
 20
0.0
 30
0.0
  9
$UCSORGRIGHT
 10
0.0
 20
0.0
 30
0.0
  9
$UCSORGFRONT
 10
0.0
 20
0.0
 30
0.0
  9
$UCSORGBACK
 10
0.0
 20
0.0
 30
0.0
  9
$PUCSBASE
  2

  9
$PUCSNAME
  2

  9
$PUCSORG
 10
0.0
 20
0.0
 30
0.0
  9
$PUCSXDIR
 10
1.0
 20
0.0
 30
0.0
  9
$PUCSYDIR
 10
0.0
 20
1.0
 30
0.0
  9
$PUCSORTHOREF
  2

  9
$PUCSORTHOVIEW
 70
     0
  9
$PUCSORGTOP
 10
0.0
 20
0.0
 30
0.0
  9
$PUCSORGBOTTOM
 10
0.0
 20
0.0
 30
0.0
  9
$PUCSORGLEFT
 10
0.0
 20
0.0
 30
0.0
  9
$PUCSORGRIGHT
 10
0.0
 20
0.0
 30
0.0
  9
$PUCSORGFRONT
 10
0.0
 20
0.0
 30
0.0
  9
$PUCSORGBACK
 10
0.0
 20
0.0
 30
0.0
  9
$USERI1
 70
     0
  9
$USERI2
 70
     0
  9
$USERI3
 70
     0
  9
$USERI4
 70
     0
  9
$USERI5
 70
     0
  9
$USERR1
 40
0.0
  9
$USERR2
 40
0.0
  9
$USERR3
 40
0.0
  9
$USERR4
 40
0.0
  9
$USERR5
 40
0.0
  9
$WORLDVIEW
 70
     1
  9
$SHADEDGE
 70
     3
  9
$SHADEDIF
 70
    70
  9
$TILEMODE
 70
     1
  9
$MAXACTVP
 70
    16
  9
$PINSBASE
 10
0.0
 20
0.0
 30
0.0
  9
$PLIMCHECK
 70
     0
  9
$PEXTMIN
 10
1.000000E+20
 20
1.000000E+20
 30
1.000000E+20
  9
$PEXTMAX
 10
-1.000000E+20
 20
-1.000000E+20
 30
-1.000000E+20
  9
$PLIMMIN
 10
0.0
 20
0.0
  9
$PLIMMAX
 10
12.0
 20
9.0
  9
$UNITMODE
 70
     0
  9
$VISRETAIN
 70
     0
  9
$PLINEGEN
 70
     1
  9
$PSLTSCALE
 70
     0
  9
$TREEDEPTH
 70
  3020
  9
$CMLSTYLE
  2
Standard
  9
$CMLJUST
 70
     0
  9
$CMLSCALE
 40
1.0
  9
$PROXYGRAPHICS
 70
     0
  9
$MEASUREMENT
 70
     0
  9
$CELWEIGHT
370
     0
  9
$ENDCAPS
280
     0
  9
$JOINSTYLE
280
     0
  9
$LWDISPLAY
290
     0
  9
$INSUNITS
 70
     0
  9
$HYPERLINKBASE
  1

  9
$STYLESHEET
  1

  9
$XEDIT
290
     1
  9
$CEPSNTYPE
380
     0
  9
$PSTYLEMODE
290
     1
  9
$FINGERPRINTGUID
  2

  9
$VERSIONGUID
  2

  9
$EXTNAMES
290
     1
  9
$PSVPSCALE
 40
0.0
  0
ENDSEC
  0
SECTION
  2
CLASSES
  0
CLASS
  1
LWPOLYLINE
  2
AcDbPolyline
  3
AutoCAD 2000
 90
        0
280
     0
281
     1
  0
CLASS
  1
IMAGE
  2
AcDbRasterImage
  3
ISM
 90
      127
280
     0
281
     1
  0
CLASS
  1
OLE2FRAME
  2
AcDbOle2Frame
  3
AutoCAD 2000
 90
        0
280
     0
281
     1
  0
CLASS
  1
HATCH
  2
AcDbHatch
  3
AutoCAD 2000
 90
        0
280
     0
281
     1
  0
CLASS
  1
DICTIONARYVAR
  2
AcDbDictionaryVar
  3
AutoCAD 2000
 90
        0
280
     0
281
     0
  0
CLASS
  1
RASTERVARIABLES
  2
AcDbRasterVariables
  3
ISM
 90
        0
280
     0
281
     0
  0
CLASS
  1
IMAGEDEF
  2
AcDbRasterImageDef
  3
ISM
 90
        0
280
     0
281
     0
  0
CLASS
  1
IMAGEDEF_REACTOR
  2
AcDbRasterImageDefReactor
  3
ISM
 90
        1
280
     0
281
     0
  0
CLASS
  1
IDBUFFER
  2
AcDbIdBuffer
  3
AutoCAD 2000
 90
        0
280
     0
281
     0
  0
CLASS
  1
SPATIAL_FILTER
  2
AcDbSpatialFilter
  3
AutoCAD 2000
 90
        0
280
     0
281
     0
  0
CLASS
  1
XRECORD
  2
AcDbXrecord
  3
AutoCAD 2000
 90
        0
280
     0
281
     0
  0
CLASS
  1
SORTENTSTABLE
  2
AcDbSortentsTable
  3
AutoCAD 2000
 90
        0
280
     0
281
     0
  0
CLASS
  1
LAYER_INDEX
  2
AcDbLayerIndex
  3
AutoCAD 2000
 90
        0
280
     0
281
     0
  0
CLASS
  1
SPATIAL_INDEX
  2
AcDbSpatialIndex
  3
AutoCAD 2000
 90
        0
280
     0
281
     0
  0
CLASS
  1
OBJECT_PTR
  2
CAseDLPNTableRecord
  3
"ASE-LPNTableRecord"
 90
        1
280
     0
281
     0
  0
CLASS
  1
LAYOUT
  2
AcDbLayout
  3
AutoCAD 2000
 90
        0
280
     0
281
     0
  0
CLASS
  1
PLOTSETTINGS
  2
AcDbPlotSettings
  3
AutoCAD 2000
 90
        0
280
     0
281
     0
  0
CLASS
  1
ACDBDICTIONARYWDFLT
  2
AcDbDictionaryWithDefault
  3
AutoCAD 2000
 90
        0
280
     0
281
     0
  0
CLASS
  1
ACDBPLACEHOLDER
  2
AcDbPlaceHolder
  3
AutoCAD 2000
 90
        0
280
     0
281
     0
  0
CLASS
  1
VBA_PROJECT
  2
AcDbVbaProject
  3
acadvba
 90
        0
280
     0
281
     0
  0
CLASS
  1
WIPEOUT
  2
AcDbWipeout
  3
WipeOut|AutoCAD Express Tool|expresstools@autodesk.com
 90
      127
280
     0
281
     1
  0
CLASS
  1
WIPEOUTVARIABLES
  2
AcDbWipeoutVariables
  3
WipeOut|AutoCAD Express Tool|expresstools@autodesk.com
 90
        0
280
     0
281
     0
  0
CLASS
  1
RTEXT
  2
RText
  3
RText|AutoCAD Express Tool|expresstools@autodesk.com
 90
        0
280
     0
281
     1
  0
CLASS
  1
ARCALIGNEDTEXT
  2
AcDbArcAlignedText
  3
ATEXT|AutoCAD Express Tool|expresstools@autodesk.com
 90
        0
280
     0
281
     1
  0
ENDSEC
  0
SECTION
  2
TABLES
  0
TABLE
  2
VPORT
  5
6
100
AcDbSymbolTable
 70
     1
  0
VPORT
  5
19
100
AcDbSymbolTableRecord
100
AcDbViewportTableRecord
  2
*ACTIVE
 70
     0
 10
0.0
 20
0.0
 11
1.0
 21
1.0
 12
0.0
 22
0.0
 13
0.0
 23
0.0
 14
1.0
 24
1.0
 15
0.0
 25
0.0
 16
0.0
 26
0.0
 36
1.0
 17
0.0
 27
0.0
 37
0.0
 40
1188.0
 41
1.415825
 42
50.0
 43
0.0
 44
0.0
 50
0.0
 51
0.0
 71
     0
 72
   500
 73
     1
 74
     1
 75
     0
 76
     0
 77
     0
 78
     0
281
     0
 65
     0
110
0.0
120
0.0
130
0.0
111
1.0
121
0.0
131
0.0
112
0.0
122
1.0
132
0.0
345
0
346
0
 79
     0
146
0.0
  0
ENDTAB
  0
TABLE
  2
LTYPE
  5
3
100
AcDbSymbolTable
 70
     9
  0
LTYPE
  5
C
100
AcDbSymbolTableRecord
100
AcDbLinetypeTableRecord
  2
ByBlock
 70
    64
  3

 72
    65
 73
     0
 40
0.0
  0
LTYPE
  5
D
100
AcDbSymbolTableRecord
100
AcDbLinetypeTableRecord
  2
ByLayer
 70
    64
  3

 72
    65
 73
     0
 40
0.0
  0
LTYPE
  5
E
100
AcDbSymbolTableRecord
100
AcDbLinetypeTableRecord
  2
CONTINUOUS
 70
     0
  3
Solid line
 72
    65
 73
     0
 40
0.0
  0
LTYPE
  5
F
100
AcDbSymbolTableRecord
100
AcDbLinetypeTableRecord
  2
DASHED
 70
     0
  3
__ __ __ __ __ __ __ __ __ __ __ __ __ __ __
 72
    65
 73
     2
 40
2.0
 49
1.2
 74
     0
 49
-0.8
 74
     0
  0
LTYPE
  5
10
100
AcDbSymbolTableRecord
100
AcDbLinetypeTableRecord
  2
CENTER
 70
     0
  3
____ _ ____ _ ____ _ ____ _ ____ _ ____ _ ____
 72
    65
 73
     4
 40
12.0
 49
9.0
 74
     0
 49
-1.0
 74
     0
 49
1.0
 74
     0
 49
-1.0
 74
     0
  0
LTYPE
  5
11
100
AcDbSymbolTableRecord
100
AcDbLinetypeTableRecord
  2
HIDDEN
 70
     0
  3
_ _ _ _ _ _ _ _ _ _ _ _ _ _ _ _ _ _ _ _ _ _ _
 72
    65
 73
     2
 40
3.2
 49
2.4
 74
     0
 49
-0.8
 74
     0
  0
LTYPE
  5
12
100
AcDbSymbolTableRecord
100
AcDbLinetypeTableRecord
  2
PHANTOM
 70
     0
  3
_____ _ _ _____ _ _ _____ _ _ _____ _ _ _____
 72
    65
 73
     6
 40
13.5
 49
9.0
 74
     0
 49
-1.0
 74
     0
 49
1.0
 74
     0
 49
-0.5
 74
     0
 49
1.0
 74
     0
 49
-1.0
 74
     0
  0
LTYPE
  5
13
100
AcDbSymbolTableRecord
100
AcDbLinetypeTableRecord
  2
DOT
 70
     0
  3
...............................................
 72
    65
 73
     2
 40
1.0
 49
0.5
 74
     0
 49
-0.5
 74
     0
  0
LTYPE
  5
14
100
AcDbSymbolTableRecord
100
AcDbLinetypeTableRecord
  2
DASHDOT
 70
     0
  3
__ . __ . __ . __ . __ . __ . __ . __ . __ . __
 72
    65
 73
     4
 40
8.0
 49
5.0
 74
     0
 49
-1.0
 74
     0
 49
1.0
 74
     0
 49
-1.0
 74
     0
  0
ENDTAB
  0
TABLE
  2
LAYER
  5
1
100
AcDbSymbolTable
 70
     4
  0
LAYER
  5
15
100
AcDbSymbolTableRecord
100
AcDbLayerTableRecord
  2
0
 70
     0
 62
   225
  6
CONTINUOUS
290
     1
370
    -3
390
0
  0
LAYER
  5
16
100
AcDbSymbolTableRecord
100
AcDbLayerTableRecord
  2
1
 70
     0
 62
     2
  6
CONTINUOUS
290
     1
370
    -3
390
0
  0
LAYER
  5
17
100
AcDbSymbolTableRecord
100
AcDbLayerTableRecord
  2
2
 70
     0
 62
     3
  6
CONTINUOUS
290
     1
370
    -3
390
0
  0
LAYER
  5
18
100
AcDbSymbolTableRecord
100
AcDbLayerTableRecord
  2
3
 70
     0
 62
     4
  6
CONTINUOUS
290
     1
370
    -3
390
0
  0
ENDTAB
  0
TABLE
  2
STYLE
  5
2
100
AcDbSymbolTable
 70
     1
  0
STYLE
  5
1B
100
AcDbSymbolTableRecord
100
AcDbTextStyleTableRecord
  2
STANDARD
 70
    64
 40
0.0
 41
1.0
 50
0.0
 71
     0
 42
1.0
  3
txt
  4
BIGFONT
  0
ENDTAB
  0
TABLE
  2
VIEW
  5
4
100
AcDbSymbolTable
 70
     0
  0
ENDTAB
  0
TABLE
  2
UCS
  5
5
100
AcDbSymbolTable
 70
     0
  0
ENDTAB
  0
TABLE
  2
APPID
  5
7
100
AcDbSymbolTable
 70
     1
  0
APPID
  5
1A
100
AcDbSymbolTableRecord
100
AcDbRegAppTableRecord
  2
ACAD
 70
     0
  0
ENDTAB
  0
TABLE
  2
DIMSTYLE
  5
8
100
AcDbSymbolTable
 70
     1
100
AcDbDimStyleTable
 71
     0
  0
DIMSTYLE
105
2A
100
AcDbSymbolTableRecord
100
AcDbDimStyleTableRecord
  2
Standard
 70
     0
  3

  4

 40
2.0
 41
2.0
 42
1.0
 43
0.38
 44
2.0
 45
0.0
 46
0.0
 47
0.0
 48
0.0
 71
     0
 72
     0
 73
     0
 74
     0
 75
     0
 76
     0
 77
     1
 78
     0
 79
     0
140
3.5
141
0.09
142
0.0
143
25.4
144
1.0
145
0.0
146
1.0
147
0.5
148
0.0
170
     0
171
     2
172
     0
173
     0
174
     0
175
     0
176
     0
177
     0
178
     0
179
     0
271
     3
272
     4
273
     2
274
     2
275
     0
276
     0
277
     2
278
    46
279
     0
280
     0
281
     0
282
     0
283
     1
284
     0
285
     0
286
     0
288
     0
289
     3
340
1B
341
0
342
0
343
0
344
0
371
    -2
372
    -2
  0
ENDTAB
  0
TABLE
  2
BLOCK_RECORD
  5
25
100
AcDbSymbolTable
 70
     7
  0
BLOCK_RECORD
  5
23
100
AcDbSymbolTableRecord
100
AcDbBlockTableRecord
  2
*Model_Space
340
0
  0
BLOCK_RECORD
  5
24
100
AcDbSymbolTableRecord
100
AcDbBlockTableRecord
  2
*Paper_Space
340
0
  0
BLOCK_RECORD
  5
1C
100
AcDbSymbolTableRecord
100
AcDbBlockTableRecord
  2
*D0
340
0
  0
BLOCK_RECORD
  5
1D
100
AcDbSymbolTableRecord
100
AcDbBlockTableRecord
  2
*D1
340
0
  0
BLOCK_RECORD
  5
1E
100
AcDbSymbolTableRecord
100
AcDbBlockTableRecord
  2
*D2
340
0
  0
BLOCK_RECORD
  5
1F
100
AcDbSymbolTableRecord
100
AcDbBlockTableRecord
  2
*D3
340
0
  0
BLOCK_RECORD
  5
20
100
AcDbSymbolTableRecord
100
AcDbBlockTableRecord
  2
*D4
340
0
  0
BLOCK_RECORD
  5
21
100
AcDbSymbolTableRecord
100
AcDbBlockTableRecord
  2
*D5
340
0
  0
BLOCK_RECORD
  5
22
100
AcDbSymbolTableRecord
100
AcDbBlockTableRecord
  2
*D6
340
0
  0
ENDTAB
  0
ENDSEC
  0
SECTION
  2
BLOCKS
  0
BLOCK
  5
26
100
AcDbEntity
  8
0
390
0
100
AcDbBlockBegin
  2
*Model_Space
 70
     0
 10
0.0
 20
0.0
 30
0.0
  3
*Model_Space
  1

  0
ENDBLK
  5
27
100
AcDbEntity
  8
0
390
0
100
AcDbBlockEnd
  0
BLOCK
  5
28
100
AcDbEntity
 67
     1
  8
0
390
0
100
AcDbBlockBegin
  2
*Paper_Space
 70
     0
 10
0.0
 20
0.0
 30
0.0
  3
*Paper_Space
  1

  0
ENDBLK
  5
29
100
AcDbEntity
 67
     1
  8
0
390
0
100
AcDbBlockEnd
  0
BLOCK
  5
CEA
100
AcDbEntity
  8
3
100
AcDbBlockBegin
  2
*D0
 70
     1
 10
0.0
 20
0.0
 30
0.0
  3
*D0
  1

  0
TEXT
  5
CEB
100
AcDbEntity
  8
3
370
    25
100
AcDbText
 10
-166.261856
 20
-196.81926
 30
0.0
 40
7.0
  1
200
 41
2.0
 72
     5
 11
-148.061856
 21
-196.81926
 31
0.0
100
AcDbText
  0
LINE
  5
CEC
100
AcDbEntity
  8
3
370
    25
100
AcDbLine
 10
-255.761856
 20
-174.971881
 30
0.0
 11
-255.761856
 21
-199.81926
 31
0.0
  0
LINE
  5
CED
100
AcDbEntity
  8
3
370
    25
100
AcDbLine
 10
-255.761856
 20
-197.81926
 30
0.0
 11
-251.898153
 21
-198.854536
 31
0.0
  0
LINE
  5
CEE
100
AcDbEntity
  8
3
370
    25
100
AcDbLine
 10
-255.761856
 20
-197.81926
 30
0.0
 11
-251.898153
 21
-196.783983
 31
0.0
  0
LINE
  5
CEF
100
AcDbEntity
  8
3
370
    25
100
AcDbLine
 10
-251.898153
 20
-198.854536
 30
0.0
 11
-251.898153
 21
-196.783983
 31
0.0
  0
LINE
  5
CF0
100
AcDbEntity
  8
3
370
    25
100
AcDbLine
 10
-255.761856
 20
-197.81926
 30
0.0
 11
-55.761856
 21
-197.81926
 31
0.0
  0
LINE
  5
CF1
100
AcDbEntity
  8
3
370
    25
100
AcDbLine
 10
-55.761856
 20
-197.81926
 30
0.0
 11
-59.625559
 21
-196.783983
 31
0.0
  0
LINE
  5
CF2
100
AcDbEntity
  8
3
370
    25
100
AcDbLine
 10
-55.761856
 20
-197.81926
 30
0.0
 11
-59.625559
 21
-198.854536
 31
0.0
  0
LINE
  5
CF3
100
AcDbEntity
  8
3
370
    25
100
AcDbLine
 10
-59.625559
 20
-196.783983
 30
0.0
 11
-59.625559
 21
-198.854536
 31
0.0
  0
LINE
  5
CF4
100
AcDbEntity
  8
3
370
    25
100
AcDbLine
 10
-55.761856
 20
-180.939144
 30
0.0
 11
-55.761856
 21
-199.81926
 31
0.0
  0
ENDBLK
  5
CF5
100
AcDbEntity
  8
3
100
AcDbBlockEnd
  0
BLOCK
  5
CF6
100
AcDbEntity
  8
3
100
AcDbBlockBegin
  2
*D1
 70
     1
 10
0.0
 20
0.0
 30
0.0
  3
*D1
  1

  0
LINE
  5
CF7
100
AcDbEntity
  8
3
370
    25
100
AcDbLine
 10
-41.020179
 20
-161.0108
 30
0.0
 11
4.476931
 21
-161.0108
 31
0.0
  0
LINE
  5
CF8
100
AcDbEntity
  8
3
370
    25
100
AcDbLine
 10
2.476931
 20
-161.0108
 30
0.0
 11
3.512207
 21
-157.147097
 31
0.0
  0
LINE
  5
CF9
100
AcDbEntity
  8
3
370
    25
100
AcDbLine
 10
2.476931
 20
-161.0108
 30
0.0
 11
1.441654
 21
-157.147097
 31
0.0
  0
LINE
  5
CFA
100
AcDbEntity
  8
3
370
    25
100
AcDbLine
 10
3.512207
 20
-157.147097
 30
0.0
 11
1.441654
 21
-157.147097
 31
0.0
  0
LINE
  5
CFB
100
AcDbEntity
  8
3
370
    25
100
AcDbLine
 10
2.476931
 20
-161.0108
 30
0.0
 11
2.476931
 21
-98.7108
 31
0.0
  0
LINE
  5
CFC
100
AcDbEntity
  8
3
370
    25
100
AcDbLine
 10
2.476931
 20
-98.7108
 30
0.0
 11
1.441654
 21
-102.574503
 31
0.0
  0
LINE
  5
CFD
100
AcDbEntity
  8
3
370
    25
100
AcDbLine
 10
2.476931
 20
-98.7108
 30
0.0
 11
3.512207
 21
-102.574503
 31
0.0
  0
LINE
  5
CFE
100
AcDbEntity
  8
3
370
    25
100
AcDbLine
 10
1.441654
 20
-102.574503
 30
0.0
 11
3.512207
 21
-102.574503
 31
0.0
  0
LINE
  5
CFF
100
AcDbEntity
  8
3
370
    25
100
AcDbLine
 10
-28.761856
 20
-98.7108
 30
0.0
 11
4.476931
 21
-98.7108
 31
0.0
  0
ENDBLK
  5
D00
100
AcDbEntity
  8
3
100
AcDbBlockEnd
  0
BLOCK
  5
D01
100
AcDbEntity
  8
3
100
AcDbBlockBegin
  2
*D2
 70
     1
 10
0.0
 20
0.0
 30
0.0
  3
*D2
  1

  0
LINE
  5
D02
100
AcDbEntity
  8
3
370
    25
100
AcDbLine
 10
-28.761856
 20
-98.7108
 30
0.0
 11
4.476931
 21
-98.7108
 31
0.0
  0
LINE
  5
D03
100
AcDbEntity
  8
3
370
    25
100
AcDbLine
 10
2.476931
 20
-98.7108
 30
0.0
 11
3.512207
 21
-94.847097
 31
0.0
  0
LINE
  5
D04
100
AcDbEntity
  8
3
370
    25
100
AcDbLine
 10
2.476931
 20
-98.7108
 30
0.0
 11
1.441654
 21
-94.847097
 31
0.0
  0
LINE
  5
D05
100
AcDbEntity
  8
3
370
    25
100
AcDbLine
 10
3.512207
 20
-94.847097
 30
0.0
 11
1.441654
 21
-94.847097
 31
0.0
  0
LINE
  5
D06
100
AcDbEntity
  8
3
370
    25
100
AcDbLine
 10
2.476931
 20
-98.7108
 30
0.0
 11
2.476931
 21
-20.010847
 31
0.0
  0
LINE
  5
D07
100
AcDbEntity
  8
3
370
    25
100
AcDbLine
 10
2.476931
 20
-20.010847
 30
0.0
 11
1.441654
 21
-23.874551
 31
0.0
  0
LINE
  5
D08
100
AcDbEntity
  8
3
370
    25
100
AcDbLine
 10
2.476931
 20
-20.010847
 30
0.0
 11
3.512207
 21
-23.874551
 31
0.0
  0
LINE
  5
D09
100
AcDbEntity
  8
3
370
    25
100
AcDbLine
 10
1.441654
 20
-23.874551
 30
0.0
 11
3.512207
 21
-23.874551
 31
0.0
  0
LINE
  5
D0A
100
AcDbEntity
  8
3
370
    25
100
AcDbLine
 10
-53.761856
 20
-20.010847
 30
0.0
 11
4.476931
 21
-20.010847
 31
0.0
  0
ENDBLK
  5
D0B
100
AcDbEntity
  8
3
100
AcDbBlockEnd
  0
BLOCK
  5
D0C
100
AcDbEntity
  8
3
100
AcDbBlockBegin
  2
*D3
 70
     1
 10
0.0
 20
0.0
 30
0.0
  3
*D3
  1

  0
LINE
  5
D0D
100
AcDbEntity
  8
3
370
    25
100
AcDbLine
 10
-262.261367
 20
-169.510845
 30
0.0
 11
-262.261367
 21
-186.41069
 31
0.0
  0
LINE
  5
D0E
100
AcDbEntity
  8
3
370
    25
100
AcDbLine
 10
-262.261367
 20
-184.41069
 30
0.0
 11
-266.125071
 21
-183.375414
 31
0.0
  0
LINE
  5
D0F
100
AcDbEntity
  8
3
370
    25
100
AcDbLine
 10
-262.261367
 20
-184.41069
 30
0.0
 11
-266.125071
 21
-185.445966
 31
0.0
  0
LINE
  5
D10
100
AcDbEntity
  8
3
370
    25
100
AcDbLine
 10
-266.125071
 20
-183.375414
 30
0.0
 11
-266.125071
 21
-185.445966
 31
0.0
  0
LINE
  5
D11
100
AcDbEntity
  8
3
370
    25
100
AcDbLine
 10
-272.261367
 20
-184.41069
 30
0.0
 11
-220.261367
 21
-184.41069
 31
0.0
  0
LINE
  5
D12
100
AcDbEntity
  8
3
370
    25
100
AcDbLine
 10
-249.261367
 20
-184.41069
 30
0.0
 11
-245.397664
 21
-185.445966
 31
0.0
  0
LINE
  5
D13
100
AcDbEntity
  8
3
370
    25
100
AcDbLine
 10
-249.261367
 20
-184.41069
 30
0.0
 11
-245.397664
 21
-183.375414
 31
0.0
  0
LINE
  5
D14
100
AcDbEntity
  8
3
370
    25
100
AcDbLine
 10
-245.397664
 20
-185.445966
 30
0.0
 11
-245.397664
 21
-183.375414
 31
0.0
  0
LINE
  5
D15
100
AcDbEntity
  8
3
370
    25
100
AcDbLine
 10
-249.261367
 20
-169.510845
 30
0.0
 11
-249.261367
 21
-186.41069
 31
0.0
  0
ENDBLK
  5
D16
100
AcDbEntity
  8
3
100
AcDbBlockEnd
  0
BLOCK
  5
D17
100
AcDbEntity
  8
3
100
AcDbBlockBegin
  2
*D4
 70
     1
 10
0.0
 20
0.0
 30
0.0
  3
*D4
  1

  0
LINE
  5
D18
100
AcDbEntity
  8
3
370
    25
100
AcDbLine
 10
317.238144
 20
-98.7108
 30
0.0
 11
149.266937
 21
-98.7108
 31
0.0
  0
LINE
  5
D19
100
AcDbEntity
  8
3
370
    25
100
AcDbLine
 10
151.266937
 20
-98.7108
 30
0.0
 11
152.302213
 21
-94.847097
 31
0.0
  0
LINE
  5
D1A
100
AcDbEntity
  8
3
370
    25
100
AcDbLine
 10
151.266937
 20
-98.7108
 30
0.0
 11
150.231661
 21
-94.847097
 31
0.0
  0
LINE
  5
D1B
100
AcDbEntity
  8
3
370
    25
100
AcDbLine
 10
152.302213
 20
-94.847097
 30
0.0
 11
150.231661
 21
-94.847097
 31
0.0
  0
LINE
  5
D1C
100
AcDbEntity
  8
3
370
    25
100
AcDbLine
 10
151.266937
 20
-98.7108
 30
0.0
 11
151.266937
 21
5.48417
 31
0.0
  0
LINE
  5
D1D
100
AcDbEntity
  8
3
370
    25
100
AcDbLine
 10
151.266937
 20
5.48417
 30
0.0
 11
150.231661
 21
1.620467
 31
0.0
  0
LINE
  5
D1E
100
AcDbEntity
  8
3
370
    25
100
AcDbLine
 10
151.266937
 20
5.48417
 30
0.0
 11
152.302213
 21
1.620467
 31
0.0
  0
LINE
  5
D1F
100
AcDbEntity
  8
3
370
    25
100
AcDbLine
 10
150.231661
 20
1.620467
 30
0.0
 11
152.302213
 21
1.620467
 31
0.0
  0
LINE
  5
D20
100
AcDbEntity
  8
3
370
    25
100
AcDbLine
 10
171.959401
 20
5.48417
 30
0.0
 11
149.266937
 21
5.48417
 31
0.0
  0
ENDBLK
  5
D21
100
AcDbEntity
  8
3
100
AcDbBlockEnd
  0
BLOCK
  5
D22
100
AcDbEntity
  8
3
100
AcDbBlockBegin
  2
*D5
 70
     1
 10
0.0
 20
0.0
 30
0.0
  3
*D5
  1

  0
LINE
  5
D23
100
AcDbEntity
  8
3
370
    25
100
AcDbLine
 10
173.959401
 20
3.48417
 30
0.0
 11
173.959401
 21
-117.651909
 31
0.0
  0
LINE
  5
D24
100
AcDbEntity
  8
3
370
    25
100
AcDbLine
 10
173.959401
 20
-115.651909
 30
0.0
 11
177.823104
 21
-116.687185
 31
0.0
  0
LINE
  5
D25
100
AcDbEntity
  8
3
370
    25
100
AcDbLine
 10
173.959401
 20
-115.651909
 30
0.0
 11
177.823104
 21
-114.616633
 31
0.0
  0
LINE
  5
D26
100
AcDbEntity
  8
3
370
    25
100
AcDbLine
 10
177.823104
 20
-116.687185
 30
0.0
 11
177.823104
 21
-114.616633
 31
0.0
  0
LINE
  5
D27
100
AcDbEntity
  8
3
370
    25
100
AcDbLine
 10
173.959401
 20
-115.651909
 30
0.0
 11
344.238144
 21
-115.651909
 31
0.0
  0
LINE
  5
D28
100
AcDbEntity
  8
3
370
    25
100
AcDbLine
 10
344.238144
 20
-115.651909
 30
0.0
 11
340.374441
 21
-114.616633
 31
0.0
  0
LINE
  5
D29
100
AcDbEntity
  8
3
370
    25
100
AcDbLine
 10
344.238144
 20
-115.651909
 30
0.0
 11
340.374441
 21
-116.687185
 31
0.0
  0
LINE
  5
D2A
100
AcDbEntity
  8
3
370
    25
100
AcDbLine
 10
340.374441
 20
-114.616633
 30
0.0
 11
340.374441
 21
-116.687185
 31
0.0
  0
LINE
  5
D2B
100
AcDbEntity
  8
3
370
    25
100
AcDbLine
 10
344.238144
 20
-59.842447
 30
0.0
 11
344.238144
 21
-117.651909
 31
0.0
  0
ENDBLK
  5
D2C
100
AcDbEntity
  8
3
100
AcDbBlockEnd
  0
BLOCK
  5
D2D
100
AcDbEntity
  8
3
100
AcDbBlockBegin
  2
*D6
 70
     1
 10
0.0
 20
0.0
 30
0.0
  3
*D6
  1

  0
TEXT
  5
D2E
100
AcDbEntity
  8
3
370
    25
100
AcDbText
 10
164.195019
 20
-34.159098
 30
0.0
 40
7.0
  1
７゜
 50
356.5
 72
     5
 11
176.771518
 21
-34.92831
 31
0.0
100
AcDbText
  0
LINE
  5
D2F
100
AcDbEntity
  8
3
370
    25
100
AcDbLine
 10
173.279318
 20
5.285444
 30
0.0
 11
168.049278
 21
-37.309818
 31
0.0
  0
LINE
  5
D30
100
AcDbEntity
  8
3
370
    25
100
AcDbLine
 10
173.959401
 20
5.343841
 30
0.0
 11
173.959401
 21
-37.671297
 31
0.0
  0
LINE
  5
D31
100
AcDbEntity
  8
3
370
    25
100
AcDbLine
 10
168.293016
 20
-35.324726
 30
0.0
 11
164.649742
 21
-33.673498
 31
0.0
  0
LINE
  5
D32
100
AcDbEntity
  8
3
370
    25
100
AcDbLine
 10
168.293016
 20
-35.324726
 30
0.0
 11
164.312235
 21
-35.716358
 31
0.0
  0
LINE
  5
D33
100
AcDbEntity
  8
3
370
    25
100
AcDbLine
 10
164.649742
 20
-33.673498
 30
0.0
 11
164.312235
 21
-35.716358
 31
0.0
  0
LINE
  5
D34
100
AcDbEntity
  8
3
370
    25
100
AcDbLine
 10
173.959401
 20
-35.671297
 30
0.0
 11
177.862783
 21
-36.545145
 31
0.0
  0
LINE
  5
D35
100
AcDbEntity
  8
3
370
    25
100
AcDbLine
 10
173.959401
 20
-35.671297
 30
0.0
 11
177.776753
 21
-34.476381
 31
0.0
  0
LINE
  5
D36
100
AcDbEntity
  8
3
370
    25
100
AcDbLine
 10
177.862783
 20
-36.545145
 30
0.0
 11
177.776753
 21
-34.476381
 31
0.0
  0
ARC
  5
D37
100
AcDbEntity
  8
3
370
    25
100
AcDbCircle
 10
173.959401
 20
10.824273
 30
0.0
 40
46.49557
100
AcDbArc
 50
250.862053
 51
282.137947
  0
ENDBLK
  5
D38
100
AcDbEntity
  8
3
100
AcDbBlockEnd
  0
ENDSEC
  0
SECTION
  2
ENTITIES
  0
LINE
  5
2B
100
AcDbEntity
  8
1
370
   100
100
AcDbLine
 10
-373.02157
 20
275.028767
 30
0.0
 11
394.982385
 21
275.028767
 31
0.0
  0
LINE
  5
2C
100
AcDbEntity
  8
1
370
   100
100
AcDbLine
 10
-373.02157
 20
275.028767
 30
0.0
 11
-373.02157
 21
-277.971881
 31
0.0
  0
LINE
  5
2D
100
AcDbEntity
  8
1
370
   100
100
AcDbLine
 10
-373.02157
 20
-277.971881
 30
0.0
 11
394.982385
 21
-277.971881
 31
0.0
  0
LINE
  5
2E
100
AcDbEntity
  8
1
370
   100
100
AcDbLine
 10
394.982385
 20
-277.971881
 30
0.0
 11
394.982385
 21
275.028767
 31
0.0
  0
TEXT
  5
2F
100
AcDbEntity
  8
1
370
    50
100
AcDbText
 10
359.628442
 20
-226.252857
 30
0.0
 40
6.0
  1
設計
 72
     5
 11
370.428442
 21
-226.252857
 31
0.0
100
AcDbText
  0
TEXT
  5
30
100
AcDbEntity
  8
1
370
    50
100
AcDbText
 10
379.127478
 20
-226.099658
 30
0.0
 40
6.0
  1
製図
 72
     5
 11
389.927478
 21
-226.099658
 31
0.0
100
AcDbText
  0
TEXT
  5
31
100
AcDbEntity
  8
1
370
    50
100
AcDbText
 10
319.005745
 20
-226.252857
 30
0.0
 40
6.0
  1
承認
 72
     5
 11
329.805745
 21
-226.252857
 31
0.0
100
AcDbText
  0
TEXT
  5
32
100
AcDbEntity
  8
1
370
    50
100
AcDbText
 10
338.989679
 20
-226.19802
 30
0.0
 40
6.0
  1
検図
 72
     5
 11
349.789679
 21
-226.19802
 31
0.0
100
AcDbText
  0
LINE
  5
33
100
AcDbEntity
  8
1
370
    25
100
AcDbLine
 10
284.982385
 20
-227.971881
 30
0.0
 11
394.982385
 21
-227.971881
 31
0.0
  0
LINE
  5
34
100
AcDbEntity
  8
1
370
    25
100
AcDbLine
 10
342.482385
 20
-245.971881
 30
0.0
 11
342.482385
 21
-259.971881
 31
0.0
  0
TEXT
  5
35
100
AcDbEntity
  8
1
370
    50
100
AcDbText
 10
319.55159
 20
-256.012528
 30
0.0
 40
6.0
  1
日　付
 72
     5
 11
336.35159
 21
-256.012528
 31
0.0
100
AcDbText
  0
LINE
  5
36
100
AcDbEntity
  8
1
370
    50
100
AcDbLine
 10
40.982385
 20
-259.971881
 30
0.0
 11
394.982385
 21
-259.971881
 31
0.0
  0
TEXT
  5
37
100
AcDbEntity
  8
1
370
    50
100
AcDbText
 10
287.775011
 20
-256.322406
 30
0.0
 40
6.0
  1
第三角法
 72
     5
 11
310.575011
 21
-256.322406
 31
0.0
100
AcDbText
  0
TEXT
  5
38
100
AcDbEntity
  8
1
370
    50
100
AcDbText
 10
291.087419
 20
-225.99802
 30
0.0
 40
6.0
  1
尺　度
 72
     5
 11
307.887419
 21
-225.99802
 31
0.0
100
AcDbText
  0
LINE
  5
39
100
AcDbEntity
  8
1
370
   100
100
AcDbLine
 10
40.982385
 20
-217.971881
 30
0.0
 11
394.982385
 21
-217.971881
 31
0.0
  0
LINE
  5
3A
100
AcDbEntity
  8
1
370
    50
100
AcDbLine
 10
211.982385
 20
-217.971881
 30
0.0
 11
211.982385
 21
-277.971881
 31
0.0
  0
LINE
  5
3B
100
AcDbEntity
  8
1
370
    25
100
AcDbLine
 10
374.982385
 20
-245.971881
 30
0.0
 11
374.982385
 21
-217.971881
 31
0.0
  0
LINE
  5
3C
100
AcDbEntity
  8
1
370
    25
100
AcDbLine
 10
354.982385
 20
-245.971881
 30
0.0
 11
354.982385
 21
-217.971881
 31
0.0
  0
LINE
  5
3D
100
AcDbEntity
  8
1
370
    25
100
AcDbLine
 10
334.982385
 20
-245.971881
 30
0.0
 11
334.982385
 21
-217.971881
 31
0.0
  0
LINE
  5
3E
100
AcDbEntity
  8
1
370
    50
100
AcDbLine
 10
284.982385
 20
-277.971881
 30
0.0
 11
284.982385
 21
-217.971881
 31
0.0
  0
LINE
  5
3F
100
AcDbEntity
  8
1
370
    50
100
AcDbLine
 10
189.982385
 20
-217.971881
 30
0.0
 11
189.982385
 21
-277.971881
 31
0.0
  0
LINE
  5
40
100
AcDbEntity
  8
1
370
    50
100
AcDbLine
 10
62.982385
 20
-217.971881
 30
0.0
 11
62.982385
 21
-259.971881
 31
0.0
  0
LINE
  5
41
100
AcDbEntity
  8
1
370
    50
100
AcDbLine
 10
284.982385
 20
-245.971881
 30
0.0
 11
394.982385
 21
-245.971881
 31
0.0
  0
TEXT
  5
42
100
AcDbEntity
  8
1
370
    50
100
AcDbText
 10
287.101129
 20
-271.880939
 30
0.0
 40
6.0
  1
コードＮｏ
 41
0.9
 72
     5
 11
313.021129
 21
-271.880939
 31
0.0
100
AcDbText
  0
TEXT
  5
43
100
AcDbEntity
  8
1
370
   100
100
AcDbText
 10
52.886774
 20
-272.875659
 30
0.0
 40
8.0
  1
ミズタニバルブ工業株式会社
 41
1.2
 72
     5
 11
175.766774
 21
-272.875659
 31
0.0
100
AcDbText
  0
LINE
  5
44
100
AcDbEntity
  8
1
370
    50
100
AcDbLine
 10
40.982385
 20
-238.971881
 30
0.0
 11
284.982385
 21
-238.971881
 31
0.0
  0
LINE
  5
45
100
AcDbEntity
  8
1
370
    50
100
AcDbLine
 10
115.482385
 20
-238.971881
 30
0.0
 11
115.482385
 21
-259.971881
 31
0.0
  0
LINE
  5
46
100
AcDbEntity
  8
1
370
    50
100
AcDbLine
 10
137.482385
 20
-238.971881
 30
0.0
 11
137.482385
 21
-259.971881
 31
0.0
  0
LINE
  5
47
100
AcDbEntity
  8
1
370
    50
100
AcDbLine
 10
314.982385
 20
-277.971881
 30
0.0
 11
314.982385
 21
-217.971881
 31
0.0
  0
TEXT
  5
48
100
AcDbEntity
  8
1
370
    50
100
AcDbText
 10
345.098131
 20
-256.100293
 30
0.0
 40
6.0
  1
　　・　　・
 72
     5
 11
379.898131
 21
-256.100293
 31
0.0
100
AcDbText
  0
LINE
  5
49
100
AcDbEntity
  8
1
370
   100
100
AcDbLine
 10
40.982385
 20
-217.971881
 30
0.0
 11
40.982385
 21
-277.971881
 31
0.0
  0
TEXT
  5
4A
100
AcDbEntity
  8
1
370
    50
100
AcDbText
 10
290.832582
 20
-240.013492
 30
0.0
 40
6.0
  1
　／ 
 72
     5
 11
301.632582
 21
-240.013492
 31
0.0
100
AcDbText
  0
TEXT
  5
4B
100
AcDbEntity
  8
1
370
    50
100
AcDbText
 10
193.904123
 20
-272.024909
 30
0.0
 40
6.0
  1
備 考 
 72
     5
 11
207.704123
 21
-272.024909
 31
0.0
100
AcDbText
  0
TEXT
  5
4C
100
AcDbEntity
  8
1
370
    50
100
AcDbText
 10
193.512534
 20
-230.89184
 30
0.0
 40
6.0
  1
仕 上
 72
     5
 11
207.312534
 21
-230.89184
 31
0.0
100
AcDbText
  0
TEXT
  5
4D
100
AcDbEntity
  8
1
370
    50
100
AcDbText
 10
193.447176
 20
-248.891666
 30
0.0
 40
6.0
  1
表 面
 72
     5
 11
207.247176
 21
-248.891666
 31
0.0
100
AcDbText
  0
TEXT
  5
4E
100
AcDbEntity
  8
1
370
    50
100
AcDbText
 10
193.447176
 20
-255.891666
 30
0.0
 40
6.0
  1
処 理
 72
     5
 11
207.247176
 21
-255.891666
 31
0.0
100
AcDbText
  0
TEXT
  5
4F
100
AcDbEntity
  8
1
370
    50
100
AcDbText
 10
44.79335
 20
-231.693399
 30
0.0
 40
6.0
  1
品 名
 72
     5
 11
58.59335
 21
-231.693399
 31
0.0
100
AcDbText
  0
TEXT
  5
50
100
AcDbEntity
  8
1
370
    50
100
AcDbText
 10
44.397766
 20
-252.462534
 30
0.0
 40
6.0
  1
材 質
 72
     5
 11
58.197766
 21
-252.462534
 31
0.0
100
AcDbText
  0
TEXT
  5
51
100
AcDbEntity
  8
1
370
    50
100
AcDbText
 10
118.897766
 20
-252.462534
 30
0.0
 40
6.0
  1
規 格
 72
     5
 11
132.697766
 21
-252.462534
 31
0.0
100
AcDbText
  0
LINE
  5
52
100
AcDbEntity
  8
3
370
    50
100
AcDbLine
 10
-30.761856
 20
-98.7108
 30
0.0
 11
-34.702287
 21
-76.363504
 31
0.0
  0
LINE
  5
53
100
AcDbEntity
  8
3
370
    50
100
AcDbLine
 10
-280.761856
 20
-98.7108
 30
0.0
 11
-276.821425
 21
-76.363504
 31
0.0
  0
ARC
  5
54
100
AcDbEntity
  8
3
370
    50
100
AcDbCircle
 10
-270.761856
 20
-71.7108
 30
0.0
 40
3.0
100
AcDbArc
 50
270.0
 51
360.0
  0
ARC
  5
55
100
AcDbEntity
  8
3
370
    50
100
AcDbCircle
 10
-240.761856
 20
-71.7108
 30
0.0
 40
3.0
100
AcDbArc
 50
180.0
 51
270.0
  0
LINE
  5
56
100
AcDbEntity
  8
3
370
    50
100
AcDbLine
 10
-274.851809
 20
-74.7108
 30
0.0
 11
-168.982356
 21
-74.7108
 31
0.0
  0
LINE
  5
57
100
AcDbEntity
  8
3
370
    50
100
AcDbLine
 10
-168.982356
 20
-72.210302
 30
0.0
 11
-168.982356
 21
-74.7108
 31
0.0
  0
LINE
  5
58
100
AcDbEntity
  8
3
370
    50
100
AcDbLine
 10
-43.761856
 20
-71.7108
 30
0.0
 11
-43.761856
 21
-71.010847
 31
0.0
  0
LINE
  5
59
100
AcDbEntity
  8
3
370
    50
100
AcDbLine
 10
-67.761856
 20
-71.7108
 30
0.0
 11
-67.761856
 21
-71.010847
 31
0.0
  0
ARC
  5
5A
100
AcDbEntity
  8
3
370
    50
100
AcDbCircle
 10
-40.761856
 20
-71.7108
 30
0.0
 40
3.0
100
AcDbArc
 50
180.0
 51
270.0
  0
ARC
  5
5B
100
AcDbEntity
  8
3
370
    50
100
AcDbCircle
 10
-70.761856
 20
-71.7108
 30
0.0
 40
3.0
100
AcDbArc
 50
270.0
 51
360.0
  0
LINE
  5
5C
100
AcDbEntity
  8
3
370
    50
100
AcDbLine
 10
-155.761856
 20
-74.7108
 30
0.0
 11
-36.671903
 21
-74.7108
 31
0.0
  0
ARC
  5
5D
100
AcDbEntity
  8
3
370
    50
100
AcDbCircle
 10
-274.851809
 20
-76.7108
 30
0.0
 40
2.0
100
AcDbArc
 50
90.0
 51
170.0
  0
ARC
  5
5E
100
AcDbEntity
  8
3
370
    50
100
AcDbCircle
 10
-36.671903
 20
-76.7108
 30
0.0
 40
2.0
100
AcDbArc
 50
10.0
 51
90.0
  0
LINE
  5
5F
100
AcDbEntity
  8
3
370
    50
100
AcDbLine
 10
319.238144
 20
-98.7108
 30
0.0
 11
369.238144
 21
-98.7108
 31
0.0
  0
LINE
  5
60
100
AcDbEntity
  8
3
370
    50
100
AcDbLine
 10
369.238144
 20
-98.7108
 30
0.0
 11
365.297713
 21
-76.363504
 31
0.0
  0
LINE
  5
61
100
AcDbEntity
  8
3
370
    50
100
AcDbLine
 10
363.328097
 20
-74.7108
 30
0.0
 11
325.148191
 21
-74.7108
 31
0.0
  0
ARC
  5
62
100
AcDbEntity
  8
3
370
    50
100
AcDbCircle
 10
363.328097
 20
-76.7108
 30
0.0
 40
2.0
100
AcDbArc
 50
10.0
 51
90.0
  0
LINE
  5
63
100
AcDbEntity
  8
3
370
    25
  6
CENTER
100
AcDbLine
 10
344.238144
 20
-57.842447
 30
0.0
 11
344.238144
 21
-172.361832
 31
0.0
  0
LINE
  5
64
100
AcDbEntity
  8
3
370
    50
100
AcDbLine
 10
319.238144
 20
-98.7108
 30
0.0
 11
323.178575
 21
-76.363504
 31
0.0
  0
ARC
  5
65
100
AcDbEntity
  8
3
370
    50
100
AcDbCircle
 10
325.148191
 20
-76.7108
 30
0.0
 40
2.0
100
AcDbArc
 50
90.0
 51
170.0
  0
LINE
  5
66
100
AcDbEntity
  8
3
370
    50
100
AcDbLine
 10
-243.761856
 20
-71.7108
 30
0.0
 11
-243.761856
 21
-71.010847
 31
0.0
  0
LINE
  5
67
100
AcDbEntity
  8
3
370
    50
100
AcDbLine
 10
-267.761856
 20
-71.7108
 30
0.0
 11
-267.761856
 21
-71.010847
 31
0.0
  0
LINE
  5
68
100
AcDbEntity
  8
3
370
    50
100
AcDbLine
 10
-280.761856
 20
-98.7108
 30
0.0
 11
-30.761856
 21
-98.7108
 31
0.0
  0
LINE
  5
69
100
AcDbEntity
  8
3
370
    25
  6
CENTER
100
AcDbLine
 10
-55.761856
 20
-17.722401
 30
0.0
 11
-55.761856
 21
-178.939144
 31
0.0
  0
LINE
  5
6A
100
AcDbEntity
  8
3
370
    50
100
AcDbLine
 10
-45.984356
 20
-101.7108
 30
0.0
 11
-46.484356
 21
-102.2108
 31
0.0
  0
LINE
  5
6B
100
AcDbEntity
  8
3
370
    50
100
AcDbLine
 10
-65.539356
 20
-101.7108
 30
0.0
 11
-65.039356
 21
-102.2108
 31
0.0
  0
LINE
  5
6C
100
AcDbEntity
  8
3
370
    50
100
AcDbLine
 10
-46.484356
 20
-102.2108
 30
0.0
 11
-65.039356
 21
-102.2108
 31
0.0
  0
LINE
  5
6D
100
AcDbEntity
  8
3
370
    50
100
AcDbLine
 10
-33.761856
 20
-98.7108
 30
0.0
 11
-33.761856
 21
-101.7108
 31
0.0
  0
LINE
  5
6E
100
AcDbEntity
  8
3
370
    50
100
AcDbLine
 10
-277.761856
 20
-98.7108
 30
0.0
 11
-277.761856
 21
-101.7108
 31
0.0
  0
LINE
  5
6F
100
AcDbEntity
  8
3
370
    50
100
AcDbLine
 10
-73.262303
 20
-127.5108
 30
0.0
 11
-73.262303
 21
-126.0108
 31
0.0
  0
LINE
  5
70
100
AcDbEntity
  8
3
370
    50
100
AcDbLine
 10
-55.762303
 20
-126.0108
 30
0.0
 11
-73.262303
 21
-126.0108
 31
0.0
  0
LINE
  5
71
100
AcDbEntity
  8
3
370
    50
100
AcDbLine
 10
-55.762303
 20
-127.5108
 30
0.0
 11
-73.262303
 21
-127.5108
 31
0.0
  0
LINE
  5
72
100
AcDbEntity
  8
3
370
    50
100
AcDbLine
 10
-67.762303
 20
-136.2108
 30
0.0
 11
-55.762303
 21
-136.2108
 31
0.0
  0
LINE
  5
73
100
AcDbEntity
  8
3
370
    50
100
AcDbLine
 10
-69.512303
 20
-135.200437
 30
0.0
 11
-69.512303
 21
-129.7108
 31
0.0
  0
LINE
  5
74
100
AcDbEntity
  8
3
370
    50
100
AcDbLine
 10
-67.762303
 20
-136.2108
 30
0.0
 11
-69.512303
 21
-135.200437
 31
0.0
  0
LINE
  5
75
100
AcDbEntity
  8
3
370
    50
100
AcDbLine
 10
-75.762303
 20
-129.2108
 30
0.0
 11
-75.762303
 21
-128.0108
 31
0.0
  0
LINE
  5
76
100
AcDbEntity
  8
3
370
    50
100
AcDbLine
 10
-55.762303
 20
-129.7108
 30
0.0
 11
-70.082854
 21
-129.7108
 31
0.0
  0
LINE
  5
77
100
AcDbEntity
  8
3
370
    50
100
AcDbLine
 10
-75.762303
 20
-128.0108
 30
0.0
 11
-55.762303
 21
-128.0108
 31
0.0
  0
LINE
  5
78
100
AcDbEntity
  8
3
370
    50
100
AcDbLine
 10
-75.762303
 20
-129.2108
 30
0.0
 11
-55.762303
 21
-129.2108
 31
0.0
  0
ARC
  5
79
100
AcDbEntity
  8
3
370
    50
100
AcDbCircle
 10
-70.082854
 20
-124.7108
 30
0.0
 40
5.0
100
AcDbArc
 50
246.443536
 51
270.0
  0
ARC
  5
7A
100
AcDbEntity
  8
3
370
    50
100
AcDbCircle
 10
-70.082854
 20
-132.5108
 30
0.0
 40
5.0
100
AcDbArc
 50
90.0
 51
113.556464
  0
ARC
  5
7B
100
AcDbEntity
  8
3
370
    50
100
AcDbCircle
 10
-72.480769
 20
-130.2108
 30
0.0
 40
1.0
100
AcDbArc
 50
66.443536
 51
90.0
  0
ARC
  5
7C
100
AcDbEntity
  8
3
370
    50
100
AcDbCircle
 10
-72.480769
 20
-127.0108
 30
0.0
 40
1.0
100
AcDbArc
 50
270.0
 51
293.556464
  0
LINE
  5
7D
100
AcDbEntity
  8
3
370
    50
100
AcDbLine
 10
-62.762303
 20
-135.200437
 30
0.0
 11
-62.762303
 21
-129.7108
 31
0.0
  0
ARC
  5
7E
100
AcDbEntity
  8
3
370
    50
100
AcDbCircle
 10
-55.762303
 20
-111.456907
 30
0.0
 40
24.753893
100
AcDbArc
 50
253.573579
 51
270.0
  0
ARC
  5
7F
100
AcDbEntity
  8
3
370
    50
100
AcDbCircle
 10
-66.137303
 20
-130.068721
 30
0.0
 40
6.142079
100
AcDbArc
 50
236.668091
 51
303.331909
  0
ARC
  5
80
100
AcDbEntity
  8
3
370
    50
100
AcDbCircle
 10
-55.762303
 20
-113.4608
 30
0.0
 40
16.25
100
AcDbArc
 50
255.749967
 51
270.0
  0
ARC
  5
81
100
AcDbEntity
  8
3
370
    50
100
AcDbCircle
 10
-64.012303
 20
-113.4608
 30
0.0
 40
16.25
100
AcDbArc
 50
255.749967
 51
277.069714
  0
ARC
  5
82
100
AcDbEntity
  8
3
370
    50
100
AcDbCircle
 10
-60.012303
 20
-113.4608
 30
0.0
 40
16.25
100
AcDbArc
 50
255.749967
 51
277.514045
  0
ARC
  5
83
100
AcDbEntity
  8
3
370
    50
100
AcDbCircle
 10
-68.012303
 20
-113.4608
 30
0.0
 40
16.25
100
AcDbArc
 50
270.0
 51
277.069714
  0
ARC
  5
84
100
AcDbEntity
  8
3
370
    50
100
AcDbCircle
 10
-55.762303
 20
-143.7608
 30
0.0
 40
16.25
100
AcDbArc
 50
90.0
 51
104.250033
  0
ARC
  5
85
100
AcDbEntity
  8
3
370
    50
100
AcDbCircle
 10
-60.012303
 20
-143.7608
 30
0.0
 40
16.25
100
AcDbArc
 50
82.485955
 51
104.250033
  0
ARC
  5
86
100
AcDbEntity
  8
3
370
    50
100
AcDbCircle
 10
-64.012303
 20
-143.7608
 30
0.0
 40
16.25
100
AcDbArc
 50
82.930286
 51
104.250033
  0
ARC
  5
87
100
AcDbEntity
  8
3
370
    50
100
AcDbCircle
 10
-68.012303
 20
-143.7608
 30
0.0
 40
16.25
100
AcDbArc
 50
82.930286
 51
90.0
  0
LINE
  5
88
100
AcDbEntity
  8
3
370
    50
100
AcDbLine
 10
-67.261856
 20
-167.510845
 30
0.0
 11
-55.761856
 21
-167.510845
 31
0.0
  0
ARC
  5
89
100
AcDbEntity
  8
3
370
    50
100
AcDbCircle
 10
-53.486856
 20
-161.510845
 30
0.0
 40
15.025
100
AcDbArc
 50
156.463422
 51
203.536578
  0
LINE
  5
8A
100
AcDbEntity
  8
3
370
    50
100
AcDbLine
 10
-67.261856
 20
-155.510845
 30
0.0
 11
-55.761856
 21
-155.510845
 31
0.0
  0
ELLIPSE
  5
8B
100
AcDbEntity
  8
3
370
    50
100
AcDbEllipse
 10
-65.721148
 20
-161.510845
 30
0.0
 11
0.0
 21
6.0
 31
0.0
210
0.0
220
0.0
230
1.0
 40
0.458833
 41
0.0
 42
6.2831849999999996
  0
ELLIPSE
  5
8C
100
AcDbEntity
  8
3
370
    50
100
AcDbEllipse
 10
-55.761856
 20
-161.510845
 30
0.0
 11
0.0
 21
6.0
 31
0.0
210
0.0
220
0.0
230
1.0
 40
0.926667
 41
0.0
 42
3.1415929999999999
  0
LINE
  5
8D
100
AcDbEntity
  8
3
370
    50
100
AcDbLine
 10
-38.261409
 20
-127.5108
 30
0.0
 11
-38.261409
 21
-126.0108
 31
0.0
  0
LINE
  5
8E
100
AcDbEntity
  8
3
370
    50
100
AcDbLine
 10
-55.761409
 20
-126.0108
 30
0.0
 11
-38.261409
 21
-126.0108
 31
0.0
  0
LINE
  5
8F
100
AcDbEntity
  8
3
370
    50
100
AcDbLine
 10
-55.761409
 20
-127.5108
 30
0.0
 11
-38.261409
 21
-127.5108
 31
0.0
  0
LINE
  5
90
100
AcDbEntity
  8
3
370
    50
100
AcDbLine
 10
-43.761409
 20
-136.2108
 30
0.0
 11
-55.761409
 21
-136.2108
 31
0.0
  0
LINE
  5
91
100
AcDbEntity
  8
3
370
    50
100
AcDbLine
 10
-42.011409
 20
-135.200437
 30
0.0
 11
-42.011409
 21
-129.7108
 31
0.0
  0
LINE
  5
92
100
AcDbEntity
  8
3
370
    50
100
AcDbLine
 10
-43.761409
 20
-136.2108
 30
0.0
 11
-42.011409
 21
-135.200437
 31
0.0
  0
LINE
  5
93
100
AcDbEntity
  8
3
370
    50
100
AcDbLine
 10
-35.761409
 20
-129.2108
 30
0.0
 11
-35.761409
 21
-128.0108
 31
0.0
  0
LINE
  5
94
100
AcDbEntity
  8
3
370
    50
100
AcDbLine
 10
-55.761409
 20
-129.7108
 30
0.0
 11
-41.440858
 21
-129.7108
 31
0.0
  0
LINE
  5
95
100
AcDbEntity
  8
3
370
    50
100
AcDbLine
 10
-35.761409
 20
-128.0108
 30
0.0
 11
-55.761409
 21
-128.0108
 31
0.0
  0
LINE
  5
96
100
AcDbEntity
  8
3
370
    50
100
AcDbLine
 10
-35.761409
 20
-129.2108
 30
0.0
 11
-55.761409
 21
-129.2108
 31
0.0
  0
ARC
  5
97
100
AcDbEntity
  8
3
370
    50
100
AcDbCircle
 10
-41.440858
 20
-124.7108
 30
0.0
 40
5.0
100
AcDbArc
 50
270.0
 51
293.556464
  0
ARC
  5
98
100
AcDbEntity
  8
3
370
    50
100
AcDbCircle
 10
-41.440858
 20
-132.5108
 30
0.0
 40
5.0
100
AcDbArc
 50
66.443536
 51
90.0
  0
ARC
  5
99
100
AcDbEntity
  8
3
370
    50
100
AcDbCircle
 10
-39.042943
 20
-130.2108
 30
0.0
 40
1.0
100
AcDbArc
 50
90.0
 51
113.556464
  0
ARC
  5
9A
100
AcDbEntity
  8
3
370
    50
100
AcDbCircle
 10
-39.042943
 20
-127.0108
 30
0.0
 40
1.0
100
AcDbArc
 50
246.443536
 51
270.0
  0
LINE
  5
9B
100
AcDbEntity
  8
3
370
    50
100
AcDbLine
 10
-48.761409
 20
-135.200437
 30
0.0
 11
-48.761409
 21
-129.7108
 31
0.0
  0
ARC
  5
9C
100
AcDbEntity
  8
3
370
    50
100
AcDbCircle
 10
-55.761409
 20
-111.456907
 30
0.0
 40
24.753893
100
AcDbArc
 50
270.0
 51
286.426421
  0
ARC
  5
9D
100
AcDbEntity
  8
3
370
    50
100
AcDbCircle
 10
-45.386409
 20
-130.068721
 30
0.0
 40
6.142079
100
AcDbArc
 50
236.668091
 51
303.331909
  0
ARC
  5
9E
100
AcDbEntity
  8
3
370
    50
100
AcDbCircle
 10
-47.511409
 20
-113.4608
 30
0.0
 40
16.25
100
AcDbArc
 50
262.930286
 51
284.250033
  0
ARC
  5
9F
100
AcDbEntity
  8
3
370
    50
100
AcDbCircle
 10
-51.511409
 20
-113.4608
 30
0.0
 40
16.25
100
AcDbArc
 50
262.485955
 51
284.250033
  0
ARC
  5
A0
100
AcDbEntity
  8
3
370
    50
100
AcDbCircle
 10
-43.511409
 20
-113.4608
 30
0.0
 40
16.25
100
AcDbArc
 50
262.930286
 51
270.0
  0
ARC
  5
A1
100
AcDbEntity
  8
3
370
    50
100
AcDbCircle
 10
-51.511409
 20
-143.7608
 30
0.0
 40
16.25
100
AcDbArc
 50
75.749967
 51
97.514045
  0
ARC
  5
A2
100
AcDbEntity
  8
3
370
    50
100
AcDbCircle
 10
-47.511409
 20
-143.7608
 30
0.0
 40
16.25
100
AcDbArc
 50
75.749967
 51
97.069714
  0
ARC
  5
A3
100
AcDbEntity
  8
3
370
    50
100
AcDbCircle
 10
-43.511409
 20
-143.7608
 30
0.0
 40
16.25
100
AcDbArc
 50
90.0
 51
97.069714
  0
LINE
  5
A4
100
AcDbEntity
  8
3
370
    50
100
AcDbLine
 10
-44.261856
 20
-167.510845
 30
0.0
 11
-55.761856
 21
-167.510845
 31
0.0
  0
ARC
  5
A5
100
AcDbEntity
  8
3
370
    50
100
AcDbCircle
 10
-58.036856
 20
-161.510845
 30
0.0
 40
15.025
100
AcDbArc
 50
336.463422
 51
23.536578
  0
LINE
  5
A6
100
AcDbEntity
  8
3
370
    50
100
AcDbLine
 10
-44.261856
 20
-155.510845
 30
0.0
 11
-55.761856
 21
-155.510845
 31
0.0
  0
ELLIPSE
  5
A7
100
AcDbEntity
  8
3
370
    50
100
AcDbEllipse
 10
-45.802564
 20
-161.510845
 30
0.0
 11
0.0
 21
6.0
 31
0.0
210
0.0
220
0.0
230
1.0
 40
0.458833
 41
0.0
 42
6.2831849999999996
  0
ELLIPSE
  5
A8
100
AcDbEntity
  8
3
370
    50
100
AcDbEllipse
 10
-55.761856
 20
-161.510845
 30
0.0
 11
0.0
 21
6.0
 31
0.0
210
0.0
220
0.0
230
1.0
 40
0.926667
 41
3.1415929999999999
 42
0.0
  0
LINE
  5
A9
100
AcDbEntity
  8
3
370
    50
100
AcDbLine
 10
-45.284356
 20
-155.510845
 30
0.0
 11
-45.284356
 21
-136.2108
 31
0.0
  0
LINE
  5
AA
100
AcDbEntity
  8
3
370
    50
100
AcDbLine
 10
-45.284356
 20
-126.0108
 30
0.0
 11
-45.284356
 21
-101.7108
 31
0.0
  0
LINE
  5
AB
100
AcDbEntity
  8
3
370
    25
100
AcDbLine
 10
-46.484356
 20
-155.510845
 30
0.0
 11
-46.484356
 21
-136.2108
 31
0.0
  0
LINE
  5
AC
100
AcDbEntity
  8
3
370
    25
100
AcDbLine
 10
-46.484356
 20
-126.0108
 30
0.0
 11
-46.484356
 21
-102.2108
 31
0.0
  0
LINE
  5
AD
100
AcDbEntity
  8
3
370
    50
100
AcDbLine
 10
-66.239356
 20
-155.510845
 30
0.0
 11
-66.239356
 21
-136.2108
 31
0.0
  0
LINE
  5
AE
100
AcDbEntity
  8
3
370
    50
100
AcDbLine
 10
-66.239356
 20
-126.0108
 30
0.0
 11
-66.239356
 21
-101.7108
 31
0.0
  0
LINE
  5
AF
100
AcDbEntity
  8
3
370
    25
100
AcDbLine
 10
-65.039356
 20
-155.510845
 30
0.0
 11
-65.039356
 21
-136.2108
 31
0.0
  0
LINE
  5
B0
100
AcDbEntity
  8
3
370
    25
100
AcDbLine
 10
-65.039356
 20
-126.0108
 30
0.0
 11
-65.039356
 21
-102.2108
 31
0.0
  0
LINE
  5
B1
100
AcDbEntity
  8
3
370
    50
100
AcDbLine
 10
354.015644
 20
-101.7108
 30
0.0
 11
353.515644
 21
-102.2108
 31
0.0
  0
LINE
  5
B2
100
AcDbEntity
  8
3
370
    50
100
AcDbLine
 10
334.460644
 20
-101.7108
 30
0.0
 11
334.960644
 21
-102.2108
 31
0.0
  0
LINE
  5
B3
100
AcDbEntity
  8
3
370
    50
100
AcDbLine
 10
353.515644
 20
-102.2108
 30
0.0
 11
334.960644
 21
-102.2108
 31
0.0
  0
LINE
  5
B4
100
AcDbEntity
  8
3
370
    50
100
AcDbLine
 10
326.737697
 20
-127.5108
 30
0.0
 11
326.737697
 21
-126.0108
 31
0.0
  0
LINE
  5
B5
100
AcDbEntity
  8
3
370
    50
100
AcDbLine
 10
344.237697
 20
-126.0108
 30
0.0
 11
326.737697
 21
-126.0108
 31
0.0
  0
LINE
  5
B6
100
AcDbEntity
  8
3
370
    50
100
AcDbLine
 10
344.237697
 20
-127.5108
 30
0.0
 11
326.737697
 21
-127.5108
 31
0.0
  0
LINE
  5
B7
100
AcDbEntity
  8
3
370
    50
100
AcDbLine
 10
332.237697
 20
-136.2108
 30
0.0
 11
344.237697
 21
-136.2108
 31
0.0
  0
LINE
  5
B8
100
AcDbEntity
  8
3
370
    50
100
AcDbLine
 10
330.487697
 20
-135.200437
 30
0.0
 11
330.487697
 21
-129.7108
 31
0.0
  0
LINE
  5
B9
100
AcDbEntity
  8
3
370
    50
100
AcDbLine
 10
332.237697
 20
-136.2108
 30
0.0
 11
330.487697
 21
-135.200437
 31
0.0
  0
LINE
  5
BA
100
AcDbEntity
  8
3
370
    50
100
AcDbLine
 10
324.237697
 20
-129.2108
 30
0.0
 11
324.237697
 21
-128.0108
 31
0.0
  0
LINE
  5
BB
100
AcDbEntity
  8
3
370
    50
100
AcDbLine
 10
344.237697
 20
-129.7108
 30
0.0
 11
329.917146
 21
-129.7108
 31
0.0
  0
LINE
  5
BC
100
AcDbEntity
  8
3
370
    50
100
AcDbLine
 10
324.237697
 20
-128.0108
 30
0.0
 11
344.237697
 21
-128.0108
 31
0.0
  0
LINE
  5
BD
100
AcDbEntity
  8
3
370
    50
100
AcDbLine
 10
324.237697
 20
-129.2108
 30
0.0
 11
344.237697
 21
-129.2108
 31
0.0
  0
ARC
  5
BE
100
AcDbEntity
  8
3
370
    50
100
AcDbCircle
 10
329.917146
 20
-124.7108
 30
0.0
 40
5.0
100
AcDbArc
 50
246.443536
 51
270.0
  0
ARC
  5
BF
100
AcDbEntity
  8
3
370
    50
100
AcDbCircle
 10
329.917146
 20
-132.5108
 30
0.0
 40
5.0
100
AcDbArc
 50
90.0
 51
113.556464
  0
ARC
  5
C0
100
AcDbEntity
  8
3
370
    50
100
AcDbCircle
 10
327.519231
 20
-130.2108
 30
0.0
 40
1.0
100
AcDbArc
 50
66.443536
 51
90.0
  0
ARC
  5
C1
100
AcDbEntity
  8
3
370
    50
100
AcDbCircle
 10
327.519231
 20
-127.0108
 30
0.0
 40
1.0
100
AcDbArc
 50
270.0
 51
293.556464
  0
LINE
  5
C2
100
AcDbEntity
  8
3
370
    50
100
AcDbLine
 10
337.237697
 20
-135.200437
 30
0.0
 11
337.237697
 21
-129.7108
 31
0.0
  0
ARC
  5
C3
100
AcDbEntity
  8
3
370
    50
100
AcDbCircle
 10
344.237697
 20
-111.456907
 30
0.0
 40
24.753893
100
AcDbArc
 50
253.573579
 51
270.0
  0
ARC
  5
C4
100
AcDbEntity
  8
3
370
    50
100
AcDbCircle
 10
333.862697
 20
-130.068721
 30
0.0
 40
6.142079
100
AcDbArc
 50
236.668091
 51
303.331909
  0
ARC
  5
C5
100
AcDbEntity
  8
3
370
    50
100
AcDbCircle
 10
344.237697
 20
-113.4608
 30
0.0
 40
16.25
100
AcDbArc
 50
255.749967
 51
270.0
  0
ARC
  5
C6
100
AcDbEntity
  8
3
370
    50
100
AcDbCircle
 10
335.987697
 20
-113.4608
 30
0.0
 40
16.25
100
AcDbArc
 50
255.749967
 51
277.069714
  0
ARC
  5
C7
100
AcDbEntity
  8
3
370
    50
100
AcDbCircle
 10
339.987697
 20
-113.4608
 30
0.0
 40
16.25
100
AcDbArc
 50
255.749967
 51
277.514045
  0
ARC
  5
C8
100
AcDbEntity
  8
3
370
    50
100
AcDbCircle
 10
331.987697
 20
-113.4608
 30
0.0
 40
16.25
100
AcDbArc
 50
270.0
 51
277.069714
  0
ARC
  5
C9
100
AcDbEntity
  8
3
370
    50
100
AcDbCircle
 10
344.237697
 20
-143.7608
 30
0.0
 40
16.25
100
AcDbArc
 50
90.0
 51
104.250033
  0
ARC
  5
CA
100
AcDbEntity
  8
3
370
    50
100
AcDbCircle
 10
339.987697
 20
-143.7608
 30
0.0
 40
16.25
100
AcDbArc
 50
82.485955
 51
104.250033
  0
ARC
  5
CB
100
AcDbEntity
  8
3
370
    50
100
AcDbCircle
 10
335.987697
 20
-143.7608
 30
0.0
 40
16.25
100
AcDbArc
 50
82.930286
 51
104.250033
  0
ARC
  5
CC
100
AcDbEntity
  8
3
370
    50
100
AcDbCircle
 10
331.987697
 20
-143.7608
 30
0.0
 40
16.25
100
AcDbArc
 50
82.930286
 51
90.0
  0
LINE
  5
CD
100
AcDbEntity
  8
3
370
    50
100
AcDbLine
 10
332.738144
 20
-167.510845
 30
0.0
 11
344.238144
 21
-167.510845
 31
0.0
  0
ARC
  5
CE
100
AcDbEntity
  8
3
370
    50
100
AcDbCircle
 10
346.513144
 20
-161.510845
 30
0.0
 40
15.025
100
AcDbArc
 50
156.463422
 51
203.536578
  0
LINE
  5
CF
100
AcDbEntity
  8
3
370
    50
100
AcDbLine
 10
332.738144
 20
-155.510845
 30
0.0
 11
344.238144
 21
-155.510845
 31
0.0
  0
ELLIPSE
  5
D0
100
AcDbEntity
  8
3
370
    50
100
AcDbEllipse
 10
334.278852
 20
-161.510845
 30
0.0
 11
0.0
 21
6.0
 31
0.0
210
0.0
220
0.0
230
1.0
 40
0.458833
 41
0.0
 42
6.2831849999999996
  0
ELLIPSE
  5
D1
100
AcDbEntity
  8
3
370
    50
100
AcDbEllipse
 10
344.238144
 20
-161.510845
 30
0.0
 11
0.0
 21
6.0
 31
0.0
210
0.0
220
0.0
230
1.0
 40
0.926667
 41
0.0
 42
3.1415929999999999
  0
LINE
  5
D2
100
AcDbEntity
  8
3
370
    50
100
AcDbLine
 10
361.738591
 20
-127.5108
 30
0.0
 11
361.738591
 21
-126.0108
 31
0.0
  0
LINE
  5
D3
100
AcDbEntity
  8
3
370
    50
100
AcDbLine
 10
344.238591
 20
-126.0108
 30
0.0
 11
361.738591
 21
-126.0108
 31
0.0
  0
LINE
  5
D4
100
AcDbEntity
  8
3
370
    50
100
AcDbLine
 10
344.238591
 20
-127.5108
 30
0.0
 11
361.738591
 21
-127.5108
 31
0.0
  0
LINE
  5
D5
100
AcDbEntity
  8
3
370
    50
100
AcDbLine
 10
356.238591
 20
-136.2108
 30
0.0
 11
344.238591
 21
-136.2108
 31
0.0
  0
LINE
  5
D6
100
AcDbEntity
  8
3
370
    50
100
AcDbLine
 10
357.988591
 20
-135.200437
 30
0.0
 11
357.988591
 21
-129.7108
 31
0.0
  0
LINE
  5
D7
100
AcDbEntity
  8
3
370
    50
100
AcDbLine
 10
356.238591
 20
-136.2108
 30
0.0
 11
357.988591
 21
-135.200437
 31
0.0
  0
LINE
  5
D8
100
AcDbEntity
  8
3
370
    50
100
AcDbLine
 10
364.238591
 20
-129.2108
 30
0.0
 11
364.238591
 21
-128.0108
 31
0.0
  0
LINE
  5
D9
100
AcDbEntity
  8
3
370
    50
100
AcDbLine
 10
344.238591
 20
-129.7108
 30
0.0
 11
358.559142
 21
-129.7108
 31
0.0
  0
LINE
  5
DA
100
AcDbEntity
  8
3
370
    50
100
AcDbLine
 10
364.238591
 20
-128.0108
 30
0.0
 11
344.238591
 21
-128.0108
 31
0.0
  0
LINE
  5
DB
100
AcDbEntity
  8
3
370
    50
100
AcDbLine
 10
364.238591
 20
-129.2108
 30
0.0
 11
344.238591
 21
-129.2108
 31
0.0
  0
ARC
  5
DC
100
AcDbEntity
  8
3
370
    50
100
AcDbCircle
 10
358.559142
 20
-124.7108
 30
0.0
 40
5.0
100
AcDbArc
 50
270.0
 51
293.556464
  0
ARC
  5
DD
100
AcDbEntity
  8
3
370
    50
100
AcDbCircle
 10
358.559142
 20
-132.5108
 30
0.0
 40
5.0
100
AcDbArc
 50
66.443536
 51
90.0
  0
ARC
  5
DE
100
AcDbEntity
  8
3
370
    50
100
AcDbCircle
 10
360.957057
 20
-130.2108
 30
0.0
 40
1.0
100
AcDbArc
 50
90.0
 51
113.556464
  0
ARC
  5
DF
100
AcDbEntity
  8
3
370
    50
100
AcDbCircle
 10
360.957057
 20
-127.0108
 30
0.0
 40
1.0
100
AcDbArc
 50
246.443536
 51
270.0
  0
LINE
  5
E0
100
AcDbEntity
  8
3
370
    50
100
AcDbLine
 10
351.238591
 20
-135.200437
 30
0.0
 11
351.238591
 21
-129.7108
 31
0.0
  0
ARC
  5
E1
100
AcDbEntity
  8
3
370
    50
100
AcDbCircle
 10
344.238591
 20
-111.456907
 30
0.0
 40
24.753893
100
AcDbArc
 50
270.0
 51
286.426421
  0
ARC
  5
E2
100
AcDbEntity
  8
3
370
    50
100
AcDbCircle
 10
354.613591
 20
-130.068721
 30
0.0
 40
6.142079
100
AcDbArc
 50
236.668091
 51
303.331909
  0
ARC
  5
E3
100
AcDbEntity
  8
3
370
    50
100
AcDbCircle
 10
352.488591
 20
-113.4608
 30
0.0
 40
16.25
100
AcDbArc
 50
262.930286
 51
284.250033
  0
ARC
  5
E4
100
AcDbEntity
  8
3
370
    50
100
AcDbCircle
 10
348.488591
 20
-113.4608
 30
0.0
 40
16.25
100
AcDbArc
 50
262.485955
 51
284.250033
  0
ARC
  5
E5
100
AcDbEntity
  8
3
370
    50
100
AcDbCircle
 10
356.488591
 20
-113.4608
 30
0.0
 40
16.25
100
AcDbArc
 50
262.930286
 51
270.0
  0
ARC
  5
E6
100
AcDbEntity
  8
3
370
    50
100
AcDbCircle
 10
348.488591
 20
-143.7608
 30
0.0
 40
16.25
100
AcDbArc
 50
75.749967
 51
97.514045
  0
ARC
  5
E7
100
AcDbEntity
  8
3
370
    50
100
AcDbCircle
 10
352.488591
 20
-143.7608
 30
0.0
 40
16.25
100
AcDbArc
 50
75.749967
 51
97.069714
  0
ARC
  5
E8
100
AcDbEntity
  8
3
370
    50
100
AcDbCircle
 10
356.488591
 20
-143.7608
 30
0.0
 40
16.25
100
AcDbArc
 50
90.0
 51
97.069714
  0
LINE
  5
E9
100
AcDbEntity
  8
3
370
    50
100
AcDbLine
 10
355.738144
 20
-167.510845
 30
0.0
 11
344.238144
 21
-167.510845
 31
0.0
  0
ARC
  5
EA
100
AcDbEntity
  8
3
370
    50
100
AcDbCircle
 10
341.963144
 20
-161.510845
 30
0.0
 40
15.025
100
AcDbArc
 50
336.463422
 51
23.536578
  0
LINE
  5
EB
100
AcDbEntity
  8
3
370
    50
100
AcDbLine
 10
355.738144
 20
-155.510845
 30
0.0
 11
344.238144
 21
-155.510845
 31
0.0
  0
ELLIPSE
  5
EC
100
AcDbEntity
  8
3
370
    50
100
AcDbEllipse
 10
354.197436
 20
-161.510845
 30
0.0
 11
0.0
 21
6.0
 31
0.0
210
0.0
220
0.0
230
1.0
 40
0.458833
 41
0.0
 42
6.2831849999999996
  0
ELLIPSE
  5
ED
100
AcDbEntity
  8
3
370
    50
100
AcDbEllipse
 10
344.238144
 20
-161.510845
 30
0.0
 11
0.0
 21
6.0
 31
0.0
210
0.0
220
0.0
230
1.0
 40
0.926667
 41
3.1415929999999999
 42
0.0
  0
LINE
  5
EE
100
AcDbEntity
  8
3
370
    50
100
AcDbLine
 10
354.715644
 20
-155.510845
 30
0.0
 11
354.715644
 21
-136.2108
 31
0.0
  0
LINE
  5
EF
100
AcDbEntity
  8
3
370
    50
100
AcDbLine
 10
354.715644
 20
-126.0108
 30
0.0
 11
354.715644
 21
-101.7108
 31
0.0
  0
LINE
  5
F0
100
AcDbEntity
  8
3
370
    25
100
AcDbLine
 10
353.515644
 20
-155.510845
 30
0.0
 11
353.515644
 21
-136.2108
 31
0.0
  0
LINE
  5
F1
100
AcDbEntity
  8
3
370
    25
100
AcDbLine
 10
353.515644
 20
-126.0108
 30
0.0
 11
353.515644
 21
-102.2108
 31
0.0
  0
LINE
  5
F2
100
AcDbEntity
  8
3
370
    50
100
AcDbLine
 10
333.760644
 20
-155.510845
 30
0.0
 11
333.760644
 21
-136.2108
 31
0.0
  0
LINE
  5
F3
100
AcDbEntity
  8
3
370
    50
100
AcDbLine
 10
333.760644
 20
-126.0108
 30
0.0
 11
333.760644
 21
-101.7108
 31
0.0
  0
LINE
  5
F4
100
AcDbEntity
  8
3
370
    25
100
AcDbLine
 10
334.960644
 20
-155.510845
 30
0.0
 11
334.960644
 21
-136.2108
 31
0.0
  0
LINE
  5
F5
100
AcDbEntity
  8
3
370
    25
100
AcDbLine
 10
334.960644
 20
-126.0108
 30
0.0
 11
334.960644
 21
-102.2108
 31
0.0
  0
LINE
  5
F6
100
AcDbEntity
  8
3
370
    50
100
AcDbLine
 10
-277.761856
 20
-101.7108
 30
0.0
 11
-33.761856
 21
-101.7108
 31
0.0
  0
LINE
  5
F7
100
AcDbEntity
  8
3
370
    50
100
AcDbLine
 10
319.238144
 20
-101.7108
 30
0.0
 11
369.238144
 21
-101.7108
 31
0.0
  0
LINE
  5
F8
100
AcDbEntity
  8
3
370
    50
100
AcDbLine
 10
-255.761783
 20
245.834202
 30
0.0
 11
-55.761783
 21
245.834202
 31
0.0
  0
LINE
  5
F9
100
AcDbEntity
  8
3
370
    25
  6
CENTER
100
AcDbLine
 10
-289.799591
 20
220.834202
 30
0.0
 11
-21.721565
 21
220.834202
 31
0.0
  0
POINT
  5
FA
100
AcDbEntity
  8
3
370
    50
100
AcDbPoint
 10
-55.761314
 20
220.834034
 30
0.0
  0
POINT
  5
FB
100
AcDbEntity
  8
3
370
    50
100
AcDbPoint
 10
-55.761783
 20
220.834202
 30
0.0
  0
POINT
  5
FC
100
AcDbEntity
  8
3
370
    50
100
AcDbPoint
 10
-155.762195
 20
220.834138
 30
0.0
  0
POINT
  5
FD
100
AcDbEntity
  8
3
370
    50
100
AcDbPoint
 10
-155.761783
 20
220.834202
 30
0.0
  0
LINE
  5
FE
100
AcDbEntity
  8
3
370
    50
100
AcDbLine
 10
-241.338836
 20
200.066202
 30
0.0
 11
-153.875377
 21
200.066202
 31
0.0
  0
LINE
  5
FF
100
AcDbEntity
  8
3
370
    50
100
AcDbLine
 10
-255.761783
 20
195.834202
 30
0.0
 11
-151.432031
 21
195.834202
 31
0.0
  0
LINE
  5
100
100
AcDbEntity
  8
3
370
    50
100
AcDbLine
 10
-131.224771
 20
195.834202
 30
0.0
 11
-55.761783
 21
195.834202
 31
0.0
  0
LINE
  5
101
100
AcDbEntity
  8
3
370
    25
  6
CENTER
100
AcDbLine
 10
344.237815
 20
17.508197
 30
0.0
 11
344.237815
 21
-111.390263
 31
0.0
  0
LINE
  5
102
100
AcDbEntity
  8
3
370
    50
100
AcDbLine
 10
369.238144
 20
-98.7108
 30
0.0
 11
369.238144
 21
-101.7108
 31
0.0
  0
LINE
  5
103
100
AcDbEntity
  8
3
370
    50
100
AcDbLine
 10
319.238144
 20
-98.7108
 30
0.0
 11
319.238144
 21
-101.7108
 31
0.0
  0
LINE
  5
104
100
AcDbEntity
  8
3
370
    25
  6
CENTER
100
AcDbLine
 10
344.23759
 20
-7.807665
 30
0.0
 11
344.23759
 21
-82.424502
 31
0.0
  0
LINE
  5
105
100
AcDbEntity
  8
3
370
    50
100
AcDbLine
 10
356.238144
 20
-71.7108
 30
0.0
 11
356.238144
 21
-71.011017
 31
0.0
  0
LINE
  5
106
100
AcDbEntity
  8
3
370
    50
100
AcDbLine
 10
332.238144
 20
-71.7108
 30
0.0
 11
332.238144
 21
-71.011017
 31
0.0
  0
ARC
  5
107
100
AcDbEntity
  8
3
370
    50
100
AcDbCircle
 10
359.238144
 20
-71.7108
 30
0.0
 40
3.0
100
AcDbArc
 50
180.0
 51
270.0
  0
ARC
  5
108
100
AcDbEntity
  8
3
370
    50
100
AcDbCircle
 10
329.238144
 20
-71.7108
 30
0.0
 40
3.0
100
AcDbArc
 50
270.0
 51
360.0
  0
LINE
  5
109
100
AcDbEntity
  8
3
370
    25
  6
CENTER
100
AcDbLine
 10
-155.762064
 20
220.83404
 30
0.0
 11
-63.946968
 21
61.805629
 31
0.0
  0
DIMENSION
  5
10A
100
AcDbEntity
  8
3
370
    25
100
AcDbDimension
  2
*D0
 10
-55.761856
 20
-197.81926
 30
0.0
 11
-155.761856
 21
-193.31926
 31
0.0
 71
     0
 72
     0
 41
0.0
 42
0.0
  3
Standard
100
AcDbAlignedDimension
 13
-255.761856
 23
-172.971881
 33
0.0
 14
-55.761856
 24
-178.939144
 34
0.0
100
AcDbRotatedDimension
  0
TEXT
  5
10B
100
AcDbEntity
  8
3
370
    50
100
AcDbText
 10
-127.177734
 20
-164.038437
 30
0.0
 40
7.0
  1
ＰＪ１／２
 72
     5
 11
-93.577734
 21
-164.038437
 31
0.0
100
AcDbText
  0
TEXT
  5
10C
100
AcDbEntity
  8
3
370
    50
100
AcDbText
 10
-126.108398
 20
-173.881683
 30
0.0
 40
7.0
  1
給水栓ネジ
 72
     5
 11
-92.508398
 21
-173.881683
 31
0.0
100
AcDbText
  0
LWPOLYLINE
  5
10D
100
AcDbEntity
  8
3
370
    25
100
AcDbPolyline
 90
        3
 70
     0
 10
-66.239356
 20
-145.320831
 10
-93.764236
 20
-165.556747
 10
-128.070541
 20
-165.556747
  0
LINE
  5
112
100
AcDbEntity
  8
3
370
    25
100
AcDbLine
 10
-69.352313
 20
-147.609434
 30
0.0
 11
-68.739083
 21
-148.443549
 31
0.0
  0
LINE
  5
113
100
AcDbEntity
  8
3
370
    25
100
AcDbLine
 10
-68.739083
 20
-148.443549
 30
0.0
 11
-66.239356
 21
-145.320831
 31
0.0
  0
LINE
  5
114
100
AcDbEntity
  8
3
370
    25
100
AcDbLine
 10
-66.239356
 20
-145.320831
 30
0.0
 11
-69.965542
 21
-146.77532
 31
0.0
  0
LINE
  5
115
100
AcDbEntity
  8
3
370
    25
100
AcDbLine
 10
-69.965542
 20
-146.77532
 30
0.0
 11
-69.352313
 21
-147.609434
 31
0.0
  0
POINT
  5
116
100
AcDbEntity
  8
3
370
    50
100
AcDbPoint
 10
344.511003
 20
-55.604241
 30
0.0
  0
POINT
  5
117
100
AcDbEntity
  8
3
370
    50
100
AcDbPoint
 10
344.237815
 20
-17.040495
 30
0.0
  0
POINT
  5
118
100
AcDbEntity
  8
3
370
    50
100
AcDbPoint
 10
344.237815
 20
-15.040378
 30
0.0
  0
LINE
  5
119
100
AcDbEntity
  8
3
370
    25
  6
CENTER
100
AcDbLine
 10
-255.761367
 20
-15.837897
 30
0.0
 11
-255.761367
 21
-172.77475
 31
0.0
  0
TEXT
  5
11A
100
AcDbEntity
  8
3
370
    50
100
AcDbText
 10
1.476931
 20
-136.8608
 30
0.0
 40
7.0
  1
62
 50
90.0
 41
2.0
 72
     5
 11
1.476931
 21
-125.6608
 31
0.0
100
AcDbText
  0
DIMENSION
  5
11B
100
AcDbEntity
  8
3
370
    25
100
AcDbDimension
  2
*D1
 10
2.476931
 20
-98.7108
 30
0.0
 11
-0.023069
 21
-129.8608
 31
0.0
 71
     0
 72
     0
 41
0.0
 42
0.0
  3
Standard
100
AcDbAlignedDimension
 13
-43.020179
 23
-161.0108
 33
0.0
 14
-30.761856
 24
-98.7108
 34
0.0
 50
90.0
100
AcDbRotatedDimension
  0
TEXT
  5
11C
100
AcDbEntity
  8
3
370
    50
100
AcDbText
 10
290.256927
 20
-239.7686
 30
0.0
 40
6.0
  1
１　２
 72
     5
 11
307.056927
 21
-239.7686
 31
0.0
100
AcDbText
  0
TEXT
  5
11D
100
AcDbEntity
  8
3
370
    50
100
AcDbText
 10
346.032715
 20
-255.481979
 30
0.0
 40
6.0
  1
８５　　４　１１
 72
     5
 11
392.832715
 21
-255.481979
 31
0.0
100
AcDbText
  0
TEXT
  5
11E
100
AcDbEntity
  8
3
370
    50
100
AcDbText
 10
229.362595
 20
-273.007324
 30
0.0
 40
7.0
  1
外観寸法図
 72
     5
 11
262.962595
 21
-273.007324
 31
0.0
100
AcDbText
  0
ARC
  5
11F
100
AcDbEntity
  8
3
370
    50
100
AcDbCircle
 10
-246.047529
 20
-162.010077
 30
0.0
 40
140.0
100
AcDbArc
 50
87.95826
 51
90.190029
  0
ARC
  5
120
100
AcDbEntity
  8
3
370
    50
100
AcDbCircle
 10
-265.476183
 20
-162.010077
 30
0.0
 40
140.0
100
AcDbArc
 50
89.809971
 51
92.04174
  0
ARC
  5
121
100
AcDbEntity
  8
3
370
    50
100
AcDbCircle
 10
-181.043057
 20
-49.59001
 30
0.0
 40
100.0
100
AcDbArc
 50
168.272272
 51
188.388164
  0
ARC
  5
122
100
AcDbEntity
  8
3
370
    50
100
AcDbCircle
 10
-241.38032
 20
-31.093244
 30
0.0
 40
9.0
100
AcDbArc
 50
11.727728
 51
87.95826
  0
ARC
  5
123
100
AcDbEntity
  8
3
370
    50
100
AcDbCircle
 10
-270.143392
 20
-31.093244
 30
0.0
 40
9.0
100
AcDbArc
 50
92.04174
 51
168.272272
  0
ARC
  5
124
100
AcDbEntity
  8
3
370
    50
100
AcDbCircle
 10
-239.464826
 20
-63.010847
 30
0.0
 40
8.0
100
AcDbArc
 50
270.0
 51
351.611836
  0
ARC
  5
125
100
AcDbEntity
  8
3
370
    50
100
AcDbCircle
 10
-272.058886
 20
-63.010847
 30
0.0
 40
8.0
100
AcDbArc
 50
188.388164
 51
266.397161
  0
ARC
  5
126
100
AcDbEntity
  8
3
370
    50
100
AcDbCircle
 10
-255.761783
 20
261.368702
 30
0.0
 40
20.2
100
AcDbArc
 50
239.552149
 51
300.447851
  0
ARC
  5
127
100
AcDbEntity
  8
3
370
    50
100
AcDbCircle
 10
-255.761783
 20
257.779202
 30
0.0
 40
17.9
100
AcDbArc
 50
233.238123
 51
306.761877
  0
ARC
  5
128
100
AcDbEntity
  8
3
370
    50
100
AcDbCircle
 10
-290.86569
 20
241.101452
 30
0.0
 40
20.2
100
AcDbArc
 50
299.552149
 51
0.447851
  0
ARC
  5
129
100
AcDbEntity
  8
3
370
    50
100
AcDbCircle
 10
-287.757092
 20
239.306702
 30
0.0
 40
17.9
100
AcDbArc
 50
293.238123
 51
6.761877
  0
ARC
  5
12A
100
AcDbEntity
  8
3
370
    50
100
AcDbCircle
 10
-290.86569
 20
200.566952
 30
0.0
 40
20.2
100
AcDbArc
 50
359.552149
 51
60.447851
  0
ARC
  5
12B
100
AcDbEntity
  8
3
370
    50
100
AcDbCircle
 10
-287.757092
 20
202.361702
 30
0.0
 40
17.9
100
AcDbArc
 50
353.238123
 51
66.761877
  0
ARC
  5
12C
100
AcDbEntity
  8
3
370
    50
100
AcDbCircle
 10
-255.761783
 20
183.889202
 30
0.0
 40
17.9
100
AcDbArc
 50
53.238123
 51
126.761877
  0
ARC
  5
12D
100
AcDbEntity
  8
3
370
    50
100
AcDbCircle
 10
-255.761783
 20
180.299702
 30
0.0
 40
20.2
100
AcDbArc
 50
59.552149
 51
120.447851
  0
ARC
  5
12E
100
AcDbEntity
  8
3
370
    50
100
AcDbCircle
 10
-223.766474
 20
202.361702
 30
0.0
 40
17.9
100
AcDbArc
 50
113.238123
 51
186.761877
  0
ARC
  5
12F
100
AcDbEntity
  8
3
370
    50
100
AcDbCircle
 10
-220.657876
 20
200.566952
 30
0.0
 40
20.2
100
AcDbArc
 50
119.552149
 51
180.447851
  0
ARC
  5
130
100
AcDbEntity
  8
3
370
    50
100
AcDbCircle
 10
-223.766474
 20
239.306702
 30
0.0
 40
17.9
100
AcDbArc
 50
173.238123
 51
246.761877
  0
ARC
  5
131
100
AcDbEntity
  8
3
370
    50
100
AcDbCircle
 10
-220.657876
 20
241.101452
 30
0.0
 40
20.2
100
AcDbArc
 50
179.552149
 51
240.447851
  0
ARC
  5
132
100
AcDbEntity
  8
3
370
    50
100
AcDbCircle
 10
-255.761783
 20
220.834202
 30
0.0
 40
25.285
100
AcDbArc
 50
113.881225
 51
126.118775
  0
ARC
  5
133
100
AcDbEntity
  8
3
370
    50
100
AcDbCircle
 10
-255.761783
 20
220.834202
 30
0.0
 40
25.285
100
AcDbArc
 50
173.881225
 51
186.118775
  0
ARC
  5
134
100
AcDbEntity
  8
3
370
    50
100
AcDbCircle
 10
-255.761783
 20
220.834202
 30
0.0
 40
25.285
100
AcDbArc
 50
233.881225
 51
246.118775
  0
ARC
  5
135
100
AcDbEntity
  8
3
370
    50
100
AcDbCircle
 10
-255.761783
 20
220.834202
 30
0.0
 40
25.285
100
AcDbArc
 50
293.881225
 51
306.118775
  0
ARC
  5
136
100
AcDbEntity
  8
3
370
    50
100
AcDbCircle
 10
-255.761783
 20
220.834202
 30
0.0
 40
25.285
100
AcDbArc
 50
353.881225
 51
6.118775
  0
ARC
  5
137
100
AcDbEntity
  8
3
370
    50
100
AcDbCircle
 10
-255.761783
 20
220.834202
 30
0.0
 40
25.285
100
AcDbArc
 50
53.881225
 51
66.118775
  0
ARC
  5
138
100
AcDbEntity
  8
3
370
    50
100
AcDbCircle
 10
-242.038485
 20
241.473178
 30
0.0
 40
0.5
100
AcDbArc
 50
353.238123
 51
56.379215
  0
ARC
  5
139
100
AcDbEntity
  8
3
370
    50
100
AcDbCircle
 10
-244.749554
 20
243.038414
 30
0.0
 40
0.5
100
AcDbArc
 50
63.620785
 51
126.761877
  0
ARC
  5
13A
100
AcDbEntity
  8
3
370
    50
100
AcDbCircle
 10
-231.026257
 20
222.399438
 30
0.0
 40
0.5
100
AcDbArc
 50
0.0
 51
66.761877
  0
ARC
  5
13B
100
AcDbEntity
  8
3
370
    50
100
AcDbCircle
 10
-231.026257
 20
219.268965
 30
0.0
 40
0.5
100
AcDbArc
 50
293.238123
 51
356.379215
  0
ARC
  5
13C
100
AcDbEntity
  8
3
370
    50
100
AcDbCircle
 10
-242.038485
 20
200.195226
 30
0.0
 40
0.5
100
AcDbArc
 50
303.620785
 51
6.761877
  0
ARC
  5
13D
100
AcDbEntity
  8
3
370
    50
100
AcDbCircle
 10
-244.749554
 20
198.629989
 30
0.0
 40
0.5
100
AcDbArc
 50
233.238123
 51
296.379215
  0
ARC
  5
13E
100
AcDbEntity
  8
3
370
    50
100
AcDbCircle
 10
-266.774012
 20
198.629989
 30
0.0
 40
0.5
100
AcDbArc
 50
243.620785
 51
306.761877
  0
ARC
  5
13F
100
AcDbEntity
  8
3
370
    50
100
AcDbCircle
 10
-269.485081
 20
200.195226
 30
0.0
 40
0.5
100
AcDbArc
 50
173.238123
 51
236.379215
  0
ARC
  5
140
100
AcDbEntity
  8
3
370
    50
100
AcDbCircle
 10
-280.497309
 20
219.268965
 30
0.0
 40
0.5
100
AcDbArc
 50
183.620785
 51
246.761877
  0
ARC
  5
141
100
AcDbEntity
  8
3
370
    50
100
AcDbCircle
 10
-280.497309
 20
222.399438
 30
0.0
 40
0.5
100
AcDbArc
 50
113.238123
 51
176.379215
  0
ARC
  5
142
100
AcDbEntity
  8
3
370
    50
100
AcDbCircle
 10
-266.774012
 20
243.038414
 30
0.0
 40
0.5
100
AcDbArc
 50
53.238123
 51
116.379215
  0
ARC
  5
143
100
AcDbEntity
  8
3
370
    50
100
AcDbCircle
 10
-269.485081
 20
241.473178
 30
0.0
 40
0.5
100
AcDbArc
 50
123.620785
 51
186.761877
  0
LINE
  5
144
100
AcDbEntity
  8
3
370
    50
100
AcDbLine
 10
-272.577925
 20
-71.010847
 30
0.0
 11
-239.464826
 21
-71.010847
 31
0.0
  0
LINE
  5
145
100
AcDbEntity
  8
3
370
    50
100
AcDbLine
 10
-241.261856
 20
-24.948156
 30
0.0
 11
-241.261856
 21
-67.347074
 31
0.0
  0
LINE
  5
146
100
AcDbEntity
  8
3
370
    50
100
AcDbLine
 10
-265.94051
 20
-22.010847
 30
0.0
 11
-245.583203
 21
-22.010847
 31
0.0
  0
ARC
  5
147
100
AcDbEntity
  8
3
370
    50
100
AcDbCircle
 10
-330.480655
 20
-49.59001
 30
0.0
 40
99.5
100
AcDbArc
 50
351.611836
 51
11.727728
  0
ARC
  5
148
100
AcDbEntity
  8
3
370
    50
100
AcDbCircle
 10
-241.38032
 20
-31.093244
 30
0.0
 40
8.5
100
AcDbArc
 50
11.727728
 51
70.978827
  0
ARC
  5
149
100
AcDbEntity
  8
3
370
    50
100
AcDbCircle
 10
-239.261856
 20
-24.948156
 30
0.0
 40
2.0
100
AcDbArc
 50
70.978827
 51
180.0
  0
ARC
  5
14A
100
AcDbEntity
  8
3
370
    50
100
AcDbCircle
 10
-239.464826
 20
-63.010847
 30
0.0
 40
7.5
100
AcDbArc
 50
285.505247
 51
351.611836
  0
ARC
  5
14B
100
AcDbEntity
  8
3
370
    50
100
AcDbCircle
 10
-238.261856
 20
-67.347074
 30
0.0
 40
3.0
100
AcDbArc
 50
180.0
 51
285.505247
  0
ARC
  5
14C
100
AcDbEntity
  8
3
370
    50
100
AcDbCircle
 10
-365.426797
 20
-50.105182
 30
0.0
 40
120.0
100
AcDbArc
 50
355.059572
 51
9.155483
  0
ARC
  5
14D
100
AcDbEntity
  8
3
370
    50
100
AcDbCircle
 10
-255.761856
 20
-32.430768
 30
0.0
 40
8.91992
100
AcDbArc
 50
9.155483
 51
90.0
  0
ARC
  5
14E
100
AcDbEntity
  8
3
370
    50
100
AcDbCircle
 10
-255.761856
 20
-59.584737
 30
0.0
 40
9.926111
100
AcDbArc
 50
270.0
 51
355.059572
  0
LINE
  5
14F
100
AcDbEntity
  8
3
370
    25
100
AcDbLine
 10
-238.151663
 20
-24.986265
 30
0.0
 11
-238.151663
 21
-68.548548
 31
0.0
  0
POINT
  5
150
100
AcDbEntity
  8
3
370
    50
100
AcDbPoint
 10
-241.059672
 20
-22.098958
 30
0.0
  0
LINE
  5
151
100
AcDbEntity
  8
3
370
    25
  6
CENTER
100
AcDbLine
 10
-255.761783
 20
190.072254
 30
0.0
 11
-255.761783
 21
252.520222
 31
0.0
  0
ARC
  5
152
100
AcDbEntity
  8
3
370
    50
100
AcDbCircle
 10
-330.480655
 20
-49.59001
 30
0.0
 40
100.0
100
AcDbArc
 50
351.611836
 51
11.727728
  0
ARC
  5
153
100
AcDbEntity
  8
3
370
    50
100
AcDbCircle
 10
-55.761783
 20
261.368702
 30
0.0
 40
20.2
100
AcDbArc
 50
239.552149
 51
300.447851
  0
ARC
  5
154
100
AcDbEntity
  8
3
370
    50
100
AcDbCircle
 10
-55.761783
 20
257.779202
 30
0.0
 40
17.9
100
AcDbArc
 50
233.238123
 51
306.761877
  0
ARC
  5
155
100
AcDbEntity
  8
3
370
    50
100
AcDbCircle
 10
-90.86569
 20
241.101452
 30
0.0
 40
20.2
100
AcDbArc
 50
299.552149
 51
0.447851
  0
ARC
  5
156
100
AcDbEntity
  8
3
370
    50
100
AcDbCircle
 10
-87.757092
 20
239.306702
 30
0.0
 40
17.9
100
AcDbArc
 50
293.238123
 51
6.761877
  0
ARC
  5
157
100
AcDbEntity
  8
3
370
    50
100
AcDbCircle
 10
-90.86569
 20
200.566952
 30
0.0
 40
20.2
100
AcDbArc
 50
359.552149
 51
60.447851
  0
ARC
  5
158
100
AcDbEntity
  8
3
370
    50
100
AcDbCircle
 10
-87.757092
 20
202.361702
 30
0.0
 40
17.9
100
AcDbArc
 50
353.238123
 51
66.761877
  0
ARC
  5
159
100
AcDbEntity
  8
3
370
    50
100
AcDbCircle
 10
-55.761783
 20
183.889202
 30
0.0
 40
17.9
100
AcDbArc
 50
53.238123
 51
126.761877
  0
ARC
  5
15A
100
AcDbEntity
  8
3
370
    50
100
AcDbCircle
 10
-55.761783
 20
180.299702
 30
0.0
 40
20.2
100
AcDbArc
 50
59.552149
 51
120.447851
  0
ARC
  5
15B
100
AcDbEntity
  8
3
370
    50
100
AcDbCircle
 10
-23.766474
 20
202.361702
 30
0.0
 40
17.9
100
AcDbArc
 50
113.238123
 51
186.761877
  0
ARC
  5
15C
100
AcDbEntity
  8
3
370
    50
100
AcDbCircle
 10
-20.657876
 20
200.566952
 30
0.0
 40
20.2
100
AcDbArc
 50
119.552149
 51
180.447851
  0
ARC
  5
15D
100
AcDbEntity
  8
3
370
    50
100
AcDbCircle
 10
-23.766474
 20
239.306702
 30
0.0
 40
17.9
100
AcDbArc
 50
173.238123
 51
246.761877
  0
ARC
  5
15E
100
AcDbEntity
  8
3
370
    50
100
AcDbCircle
 10
-20.657876
 20
241.101452
 30
0.0
 40
20.2
100
AcDbArc
 50
179.552149
 51
240.447851
  0
ARC
  5
15F
100
AcDbEntity
  8
3
370
    50
100
AcDbCircle
 10
-55.761783
 20
220.834202
 30
0.0
 40
25.285
100
AcDbArc
 50
113.881225
 51
126.118775
  0
ARC
  5
160
100
AcDbEntity
  8
3
370
    50
100
AcDbCircle
 10
-55.761783
 20
220.834202
 30
0.0
 40
25.285
100
AcDbArc
 50
173.881225
 51
186.118775
  0
ARC
  5
161
100
AcDbEntity
  8
3
370
    50
100
AcDbCircle
 10
-55.761783
 20
220.834202
 30
0.0
 40
25.285
100
AcDbArc
 50
233.881225
 51
246.118775
  0
ARC
  5
162
100
AcDbEntity
  8
3
370
    50
100
AcDbCircle
 10
-55.761783
 20
220.834202
 30
0.0
 40
25.285
100
AcDbArc
 50
293.881225
 51
306.118775
  0
ARC
  5
163
100
AcDbEntity
  8
3
370
    50
100
AcDbCircle
 10
-55.761783
 20
220.834202
 30
0.0
 40
25.285
100
AcDbArc
 50
353.881225
 51
6.118775
  0
ARC
  5
164
100
AcDbEntity
  8
3
370
    50
100
AcDbCircle
 10
-55.761783
 20
220.834202
 30
0.0
 40
25.285
100
AcDbArc
 50
53.881225
 51
66.118775
  0
ARC
  5
165
100
AcDbEntity
  8
3
370
    50
100
AcDbCircle
 10
-42.038485
 20
241.473178
 30
0.0
 40
0.5
100
AcDbArc
 50
353.238123
 51
56.379215
  0
ARC
  5
166
100
AcDbEntity
  8
3
370
    50
100
AcDbCircle
 10
-44.749554
 20
243.038414
 30
0.0
 40
0.5
100
AcDbArc
 50
63.620785
 51
126.761877
  0
ARC
  5
167
100
AcDbEntity
  8
3
370
    50
100
AcDbCircle
 10
-31.026257
 20
222.399438
 30
0.0
 40
0.5
100
AcDbArc
 50
0.0
 51
66.761877
  0
ARC
  5
168
100
AcDbEntity
  8
3
370
    50
100
AcDbCircle
 10
-31.026257
 20
219.268965
 30
0.0
 40
0.5
100
AcDbArc
 50
293.238123
 51
356.379215
  0
ARC
  5
169
100
AcDbEntity
  8
3
370
    50
100
AcDbCircle
 10
-42.038485
 20
200.195226
 30
0.0
 40
0.5
100
AcDbArc
 50
303.620785
 51
6.761877
  0
ARC
  5
16A
100
AcDbEntity
  8
3
370
    50
100
AcDbCircle
 10
-44.749554
 20
198.629989
 30
0.0
 40
0.5
100
AcDbArc
 50
233.238123
 51
296.379215
  0
ARC
  5
16B
100
AcDbEntity
  8
3
370
    50
100
AcDbCircle
 10
-66.774012
 20
198.629989
 30
0.0
 40
0.5
100
AcDbArc
 50
243.620785
 51
306.761877
  0
ARC
  5
16C
100
AcDbEntity
  8
3
370
    50
100
AcDbCircle
 10
-69.485081
 20
200.195226
 30
0.0
 40
0.5
100
AcDbArc
 50
173.238123
 51
236.379215
  0
ARC
  5
16D
100
AcDbEntity
  8
3
370
    50
100
AcDbCircle
 10
-80.497309
 20
219.268965
 30
0.0
 40
0.5
100
AcDbArc
 50
183.620785
 51
246.761877
  0
ARC
  5
16E
100
AcDbEntity
  8
3
370
    50
100
AcDbCircle
 10
-80.497309
 20
222.399438
 30
0.0
 40
0.5
100
AcDbArc
 50
113.238123
 51
176.379215
  0
ARC
  5
16F
100
AcDbEntity
  8
3
370
    50
100
AcDbCircle
 10
-66.774012
 20
243.038414
 30
0.0
 40
0.5
100
AcDbArc
 50
53.238123
 51
116.379215
  0
ARC
  5
170
100
AcDbEntity
  8
3
370
    50
100
AcDbCircle
 10
-69.485081
 20
241.473178
 30
0.0
 40
0.5
100
AcDbArc
 50
123.620785
 51
186.761877
  0
LINE
  5
171
100
AcDbEntity
  8
3
370
    25
  6
CENTER
100
AcDbLine
 10
-55.761783
 20
190.072254
 30
0.0
 11
-55.761783
 21
252.520222
 31
0.0
  0
POINT
  5
172
100
AcDbEntity
  8
3
370
    50
100
AcDbPoint
 10
-255.761856
 20
-40.010847
 30
0.0
  0
POINT
  5
173
100
AcDbEntity
  8
3
370
    50
100
AcDbPoint
 10
-255.761856
 20
-40.010847
 30
0.0
  0
POINT
  5
174
100
AcDbEntity
  8
3
370
    50
100
AcDbPoint
 10
-55.761856
 20
-40.010847
 30
0.0
  0
ARC
  5
175
100
AcDbEntity
  8
3
370
    50
100
AcDbCircle
 10
-255.761856
 20
-32.430768
 30
0.0
 40
8.91992
100
AcDbArc
 50
90.0
 51
170.844517
  0
ARC
  5
176
100
AcDbEntity
  8
3
370
    50
100
AcDbCircle
 10
-146.096916
 20
-50.105182
 30
0.0
 40
120.0
100
AcDbArc
 50
170.844517
 51
184.940428
  0
ARC
  5
177
100
AcDbEntity
  8
3
370
    50
100
AcDbCircle
 10
-255.761856
 20
-59.584737
 30
0.0
 40
9.926111
100
AcDbArc
 50
184.940428
 51
270.0
  0
LINE
  5
178
100
AcDbEntity
  8
3
370
    50
100
AcDbLine
 10
-270.261856
 20
-24.948156
 30
0.0
 11
-270.261856
 21
-67.347074
 31
0.0
  0
ARC
  5
179
100
AcDbEntity
  8
3
370
    50
100
AcDbCircle
 10
-273.261856
 20
-67.347074
 30
0.0
 40
3.0
100
AcDbArc
 50
254.494753
 51
360.0
  0
ARC
  5
17A
100
AcDbEntity
  8
3
370
    50
100
AcDbCircle
 10
-272.261856
 20
-24.948156
 30
0.0
 40
2.0
100
AcDbArc
 50
0.0
 51
109.021173
  0
LINE
  5
17B
100
AcDbEntity
  8
3
370
    25
100
AcDbLine
 10
-273.37205
 20
-24.986265
 30
0.0
 11
-273.37205
 21
-68.548548
 31
0.0
  0
ARC
  5
17C
100
AcDbEntity
  8
3
370
    50
100
AcDbCircle
 10
-270.143392
 20
-31.093244
 30
0.0
 40
8.5
100
AcDbArc
 50
109.021173
 51
168.272272
  0
ARC
  5
17D
100
AcDbEntity
  8
3
370
    50
100
AcDbCircle
 10
-181.043057
 20
-49.59001
 30
0.0
 40
99.5
100
AcDbArc
 50
168.272272
 51
188.388164
  0
ARC
  5
17E
100
AcDbEntity
  8
3
370
    50
100
AcDbCircle
 10
-272.058886
 20
-63.010847
 30
0.0
 40
7.5
100
AcDbArc
 50
188.388164
 51
254.494753
  0
LINE
  5
17F
100
AcDbEntity
  8
3
370
    50
100
AcDbLine
 10
334.98759
 20
-22.011017
 30
0.0
 11
344.23759
 21
-22.011017
 31
0.0
  0
LINE
  5
180
100
AcDbEntity
  8
3
370
    50
100
AcDbLine
 10
327.93759
 20
-71.011017
 30
0.0
 11
344.23759
 21
-71.011017
 31
0.0
  0
ARC
  5
181
100
AcDbEntity
  8
3
370
    50
100
AcDbCircle
 10
478.513376
 20
-46.511017
 30
0.0
 40
157.395787
100
AcDbArc
 50
173.628289
 51
187.137781
  0
ARC
  5
182
100
AcDbEntity
  8
3
370
    50
100
AcDbCircle
 10
329.839249
 20
-29.908867
 30
0.0
 40
7.797567
100
AcDbArc
 50
92.231826
 51
173.628289
  0
ARC
  5
183
100
AcDbEntity
  8
3
370
    50
100
AcDbCircle
 10
334.98759
 20
-162.011017
 30
0.0
 40
140.0
100
AcDbArc
 50
90.0
 51
92.231826
  0
ARC
  5
184
100
AcDbEntity
  8
3
370
    50
100
AcDbCircle
 10
439.066391
 20
-50.105352
 30
0.0
 40
115.317802
100
AcDbArc
 50
180.0
 51
185.87051
  0
ARC
  5
185
100
AcDbEntity
  8
3
370
    50
100
AcDbCircle
 10
432.771918
 20
-50.105352
 30
0.0
 40
109.023329
100
AcDbArc
 50
168.814652
 51
180.0
  0
ARC
  5
186
100
AcDbEntity
  8
3
370
    50
100
AcDbCircle
 10
206.69158
 20
-50.105352
 30
0.0
 40
135.04601
100
AcDbArc
 50
355.047029
 51
360.0
  0
ARC
  5
187
100
AcDbEntity
  8
3
370
    50
100
AcDbCircle
 10
167.772797
 20
-50.105352
 30
0.0
 40
173.964792
100
AcDbArc
 50
0.0
 51
6.301257
  0
ARC
  5
188
100
AcDbEntity
  8
3
370
    50
100
AcDbCircle
 10
333.117642
 20
-31.080276
 30
0.0
 40
7.569259
100
AcDbArc
 50
0.51946
 51
169.191675
  0
ARC
  5
189
100
AcDbEntity
  8
3
370
    50
100
AcDbCircle
 10
332.786937
 20
-61.032981
 30
0.0
 40
8.478036
100
AcDbArc
 50
185.87051
 51
355.047029
  0
ARC
  5
18A
100
AcDbEntity
  8
3
370
    50
100
AcDbCircle
 10
327.93759
 20
-65.36706
 30
0.0
 40
5.643957
100
AcDbArc
 50
187.137781
 51
270.0
  0
LINE
  5
18B
100
AcDbEntity
  8
3
370
    25
  6
CENTER
100
AcDbLine
 10
344.23759
 20
-16.89426
 30
0.0
 11
344.23759
 21
-76.8288
 31
0.0
  0
LINE
  5
18C
100
AcDbEntity
  8
3
370
    50
100
AcDbLine
 10
353.48759
 20
-22.011017
 30
0.0
 11
344.23759
 21
-22.011017
 31
0.0
  0
LINE
  5
18D
100
AcDbEntity
  8
3
370
    50
100
AcDbLine
 10
360.53759
 20
-71.011017
 30
0.0
 11
344.23759
 21
-71.011017
 31
0.0
  0
ARC
  5
18E
100
AcDbEntity
  8
3
370
    50
100
AcDbCircle
 10
209.961803
 20
-46.511017
 30
0.0
 40
157.395787
100
AcDbArc
 50
352.862219
 51
6.371711
  0
ARC
  5
18F
100
AcDbEntity
  8
3
370
    50
100
AcDbCircle
 10
358.63593
 20
-29.908867
 30
0.0
 40
7.797567
100
AcDbArc
 50
6.371711
 51
87.768174
  0
ARC
  5
190
100
AcDbEntity
  8
3
370
    50
100
AcDbCircle
 10
353.48759
 20
-162.011017
 30
0.0
 40
140.0
100
AcDbArc
 50
87.768174
 51
90.0
  0
ARC
  5
191
100
AcDbEntity
  8
3
370
    50
100
AcDbCircle
 10
249.408788
 20
-50.105352
 30
0.0
 40
115.317802
100
AcDbArc
 50
354.12949
 51
360.0
  0
ARC
  5
192
100
AcDbEntity
  8
3
370
    50
100
AcDbCircle
 10
255.703261
 20
-50.105352
 30
0.0
 40
109.023329
100
AcDbArc
 50
0.0
 51
11.185348
  0
ARC
  5
193
100
AcDbEntity
  8
3
370
    50
100
AcDbCircle
 10
481.7836
 20
-50.105352
 30
0.0
 40
135.04601
100
AcDbArc
 50
180.0
 51
184.952971
  0
ARC
  5
194
100
AcDbEntity
  8
3
370
    50
100
AcDbCircle
 10
520.702382
 20
-50.105352
 30
0.0
 40
173.964792
100
AcDbArc
 50
173.698743
 51
180.0
  0
ARC
  5
195
100
AcDbEntity
  8
3
370
    50
100
AcDbCircle
 10
355.357537
 20
-31.080276
 30
0.0
 40
7.569259
100
AcDbArc
 50
10.808325
 51
179.48054
  0
ARC
  5
196
100
AcDbEntity
  8
3
370
    50
100
AcDbCircle
 10
355.688243
 20
-61.032981
 30
0.0
 40
8.478036
100
AcDbArc
 50
184.952971
 51
354.12949
  0
ARC
  5
197
100
AcDbEntity
  8
3
370
    50
100
AcDbCircle
 10
360.53759
 20
-65.36706
 30
0.0
 40
5.643957
100
AcDbArc
 50
270.0
 51
352.862219
  0
LINE
  5
198
100
AcDbEntity
  8
3
370
    50
100
AcDbLine
 10
-264.511367
 20
-22.010847
 30
0.0
 11
-247.011367
 21
-22.010847
 31
0.0
  0
LINE
  5
199
100
AcDbEntity
  8
3
370
    50
100
AcDbLine
 10
-247.011367
 20
-22.010847
 30
0.0
 11
-247.011367
 21
-21.391909
 31
0.0
  0
LINE
  5
19A
100
AcDbEntity
  8
3
370
    50
100
AcDbLine
 10
-264.511367
 20
-22.010847
 30
0.0
 11
-264.511367
 21
-21.391909
 31
0.0
  0
ARC
  5
19B
100
AcDbEntity
  8
3
370
    50
100
AcDbCircle
 10
-255.761367
 20
-100.010847
 30
0.0
 40
80.0
100
AcDbArc
 50
84.370157
 51
95.629843
  0
ARC
  5
19C
100
AcDbEntity
  8
3
370
    50
100
AcDbCircle
 10
-263.511367
 20
-21.391909
 30
0.0
 40
1.0
100
AcDbArc
 50
95.629843
 51
180.0
  0
ARC
  5
19D
100
AcDbEntity
  8
3
370
    50
100
AcDbCircle
 10
-248.011367
 20
-21.391909
 30
0.0
 40
1.0
100
AcDbArc
 50
0.0
 51
84.370157
  0
POINT
  5
19E
100
AcDbEntity
  8
3
370
    50
100
AcDbPoint
 10
-255.761367
 20
-22.010847
 30
0.0
  0
LINE
  5
19F
100
AcDbEntity
  8
3
370
    50
100
AcDbLine
 10
335.487815
 20
-22.011017
 30
0.0
 11
352.987815
 21
-22.011017
 31
0.0
  0
LINE
  5
1A0
100
AcDbEntity
  8
3
370
    50
100
AcDbLine
 10
352.987815
 20
-22.011017
 30
0.0
 11
352.987815
 21
-21.392078
 31
0.0
  0
LINE
  5
1A1
100
AcDbEntity
  8
3
370
    50
100
AcDbLine
 10
335.487815
 20
-22.011017
 30
0.0
 11
335.487815
 21
-21.392078
 31
0.0
  0
ARC
  5
1A2
100
AcDbEntity
  8
3
370
    50
100
AcDbCircle
 10
344.237815
 20
-100.011017
 30
0.0
 40
80.0
100
AcDbArc
 50
84.370157
 51
95.629843
  0
ARC
  5
1A3
100
AcDbEntity
  8
3
370
    50
100
AcDbCircle
 10
336.487815
 20
-21.392078
 30
0.0
 40
1.0
100
AcDbArc
 50
95.629843
 51
180.0
  0
ARC
  5
1A4
100
AcDbEntity
  8
3
370
    50
100
AcDbCircle
 10
351.987815
 20
-21.392078
 30
0.0
 40
1.0
100
AcDbArc
 50
0.0
 51
84.370157
  0
POINT
  5
1A5
100
AcDbEntity
  8
3
370
    50
100
AcDbPoint
 10
344.237815
 20
-22.011017
 30
0.0
  0
ARC
  5
1A6
100
AcDbEntity
  8
3
370
    50
100
AcDbCircle
 10
-46.047529
 20
-162.010077
 30
0.0
 40
140.0
100
AcDbArc
 50
87.95826
 51
90.190029
  0
ARC
  5
1A7
100
AcDbEntity
  8
3
370
    50
100
AcDbCircle
 10
-65.476183
 20
-162.010077
 30
0.0
 40
140.0
100
AcDbArc
 50
89.809971
 51
92.04174
  0
ARC
  5
1A8
100
AcDbEntity
  8
3
370
    50
100
AcDbCircle
 10
18.956943
 20
-49.59001
 30
0.0
 40
100.0
100
AcDbArc
 50
168.272272
 51
188.388164
  0
ARC
  5
1A9
100
AcDbEntity
  8
3
370
    50
100
AcDbCircle
 10
-41.38032
 20
-31.093244
 30
0.0
 40
9.0
100
AcDbArc
 50
11.727728
 51
87.95826
  0
ARC
  5
1AA
100
AcDbEntity
  8
3
370
    50
100
AcDbCircle
 10
-70.143392
 20
-31.093244
 30
0.0
 40
9.0
100
AcDbArc
 50
92.04174
 51
168.272272
  0
ARC
  5
1AB
100
AcDbEntity
  8
3
370
    50
100
AcDbCircle
 10
-39.464826
 20
-63.010847
 30
0.0
 40
8.0
100
AcDbArc
 50
270.0
 51
351.611836
  0
ARC
  5
1AC
100
AcDbEntity
  8
3
370
    50
100
AcDbCircle
 10
-72.058886
 20
-63.010847
 30
0.0
 40
8.0
100
AcDbArc
 50
188.388164
 51
266.397161
  0
LINE
  5
1AD
100
AcDbEntity
  8
3
370
    50
100
AcDbLine
 10
-72.577925
 20
-71.010847
 30
0.0
 11
-39.464826
 21
-71.010847
 31
0.0
  0
LINE
  5
1AE
100
AcDbEntity
  8
3
370
    50
100
AcDbLine
 10
-41.261856
 20
-24.948156
 30
0.0
 11
-41.261856
 21
-67.347074
 31
0.0
  0
LINE
  5
1AF
100
AcDbEntity
  8
3
370
    50
100
AcDbLine
 10
-65.94051
 20
-22.010847
 30
0.0
 11
-45.583203
 21
-22.010847
 31
0.0
  0
ARC
  5
1B0
100
AcDbEntity
  8
3
370
    50
100
AcDbCircle
 10
-130.480655
 20
-49.59001
 30
0.0
 40
99.5
100
AcDbArc
 50
351.611836
 51
11.727728
  0
ARC
  5
1B1
100
AcDbEntity
  8
3
370
    50
100
AcDbCircle
 10
-41.38032
 20
-31.093244
 30
0.0
 40
8.5
100
AcDbArc
 50
11.727728
 51
70.978827
  0
ARC
  5
1B2
100
AcDbEntity
  8
3
370
    50
100
AcDbCircle
 10
-39.261856
 20
-24.948156
 30
0.0
 40
2.0
100
AcDbArc
 50
70.978827
 51
180.0
  0
ARC
  5
1B3
100
AcDbEntity
  8
3
370
    50
100
AcDbCircle
 10
-39.464826
 20
-63.010847
 30
0.0
 40
7.5
100
AcDbArc
 50
285.505247
 51
351.611836
  0
ARC
  5
1B4
100
AcDbEntity
  8
3
370
    50
100
AcDbCircle
 10
-38.261856
 20
-67.347074
 30
0.0
 40
3.0
100
AcDbArc
 50
180.0
 51
285.505247
  0
ARC
  5
1B5
100
AcDbEntity
  8
3
370
    50
100
AcDbCircle
 10
-165.426797
 20
-50.105182
 30
0.0
 40
120.0
100
AcDbArc
 50
355.059572
 51
9.155483
  0
ARC
  5
1B6
100
AcDbEntity
  8
3
370
    50
100
AcDbCircle
 10
-55.761856
 20
-32.430768
 30
0.0
 40
8.91992
100
AcDbArc
 50
9.155483
 51
90.0
  0
ARC
  5
1B7
100
AcDbEntity
  8
3
370
    50
100
AcDbCircle
 10
-55.761856
 20
-59.584737
 30
0.0
 40
9.926111
100
AcDbArc
 50
270.0
 51
355.059572
  0
LINE
  5
1B8
100
AcDbEntity
  8
3
370
    25
100
AcDbLine
 10
-38.151663
 20
-24.986265
 30
0.0
 11
-38.151663
 21
-68.548548
 31
0.0
  0
POINT
  5
1B9
100
AcDbEntity
  8
3
370
    50
100
AcDbPoint
 10
-41.059672
 20
-22.098958
 30
0.0
  0
ARC
  5
1BA
100
AcDbEntity
  8
3
370
    50
100
AcDbCircle
 10
-130.480655
 20
-49.59001
 30
0.0
 40
100.0
100
AcDbArc
 50
351.611836
 51
11.727728
  0
POINT
  5
1BB
100
AcDbEntity
  8
3
370
    50
100
AcDbPoint
 10
-55.761856
 20
-40.010847
 30
0.0
  0
POINT
  5
1BC
100
AcDbEntity
  8
3
370
    50
100
AcDbPoint
 10
-55.761856
 20
-40.010847
 30
0.0
  0
ARC
  5
1BD
100
AcDbEntity
  8
3
370
    50
100
AcDbCircle
 10
-55.761856
 20
-32.430768
 30
0.0
 40
8.91992
100
AcDbArc
 50
90.0
 51
170.844517
  0
ARC
  5
1BE
100
AcDbEntity
  8
3
370
    50
100
AcDbCircle
 10
53.903084
 20
-50.105182
 30
0.0
 40
120.0
100
AcDbArc
 50
170.844517
 51
184.940428
  0
ARC
  5
1BF
100
AcDbEntity
  8
3
370
    50
100
AcDbCircle
 10
-55.761856
 20
-59.584737
 30
0.0
 40
9.926111
100
AcDbArc
 50
184.940428
 51
270.0
  0
LINE
  5
1C0
100
AcDbEntity
  8
3
370
    50
100
AcDbLine
 10
-70.261856
 20
-24.948156
 30
0.0
 11
-70.261856
 21
-67.347074
 31
0.0
  0
ARC
  5
1C1
100
AcDbEntity
  8
3
370
    50
100
AcDbCircle
 10
-73.261856
 20
-67.347074
 30
0.0
 40
3.0
100
AcDbArc
 50
254.494753
 51
360.0
  0
ARC
  5
1C2
100
AcDbEntity
  8
3
370
    50
100
AcDbCircle
 10
-72.261856
 20
-24.948156
 30
0.0
 40
2.0
100
AcDbArc
 50
0.0
 51
109.021173
  0
LINE
  5
1C3
100
AcDbEntity
  8
3
370
    25
100
AcDbLine
 10
-73.37205
 20
-24.986265
 30
0.0
 11
-73.37205
 21
-68.548548
 31
0.0
  0
ARC
  5
1C4
100
AcDbEntity
  8
3
370
    50
100
AcDbCircle
 10
-70.143392
 20
-31.093244
 30
0.0
 40
8.5
100
AcDbArc
 50
109.021173
 51
168.272272
  0
ARC
  5
1C5
100
AcDbEntity
  8
3
370
    50
100
AcDbCircle
 10
18.956943
 20
-49.59001
 30
0.0
 40
99.5
100
AcDbArc
 50
168.272272
 51
188.388164
  0
ARC
  5
1C6
100
AcDbEntity
  8
3
370
    50
100
AcDbCircle
 10
-72.058886
 20
-63.010847
 30
0.0
 40
7.5
100
AcDbArc
 50
188.388164
 51
254.494753
  0
LINE
  5
1C7
100
AcDbEntity
  8
3
370
    50
100
AcDbLine
 10
-64.511367
 20
-22.010847
 30
0.0
 11
-47.011367
 21
-22.010847
 31
0.0
  0
LINE
  5
1C8
100
AcDbEntity
  8
3
370
    50
100
AcDbLine
 10
-47.011367
 20
-22.010847
 30
0.0
 11
-47.011367
 21
-21.391909
 31
0.0
  0
LINE
  5
1C9
100
AcDbEntity
  8
3
370
    50
100
AcDbLine
 10
-64.511367
 20
-22.010847
 30
0.0
 11
-64.511367
 21
-21.391909
 31
0.0
  0
ARC
  5
1CA
100
AcDbEntity
  8
3
370
    50
100
AcDbCircle
 10
-55.761367
 20
-100.010847
 30
0.0
 40
80.0
100
AcDbArc
 50
84.370157
 51
95.629843
  0
ARC
  5
1CB
100
AcDbEntity
  8
3
370
    50
100
AcDbCircle
 10
-63.511367
 20
-21.391909
 30
0.0
 40
1.0
100
AcDbArc
 50
95.629843
 51
180.0
  0
ARC
  5
1CC
100
AcDbEntity
  8
3
370
    50
100
AcDbCircle
 10
-48.011367
 20
-21.391909
 30
0.0
 40
1.0
100
AcDbArc
 50
0.0
 51
84.370157
  0
POINT
  5
1CD
100
AcDbEntity
  8
3
370
    50
100
AcDbPoint
 10
-55.761367
 20
-22.010847
 30
0.0
  0
LINE
  5
1CE
100
AcDbEntity
  8
3
370
    50
100
AcDbLine
 10
-238.261409
 20
-127.5108
 30
0.0
 11
-238.261409
 21
-126.0108
 31
0.0
  0
LINE
  5
1CF
100
AcDbEntity
  8
3
370
    50
100
AcDbLine
 10
-255.761409
 20
-126.0108
 30
0.0
 11
-238.261409
 21
-126.0108
 31
0.0
  0
LINE
  5
1D0
100
AcDbEntity
  8
3
370
    50
100
AcDbLine
 10
-255.761409
 20
-127.5108
 30
0.0
 11
-238.261409
 21
-127.5108
 31
0.0
  0
LINE
  5
1D1
100
AcDbEntity
  8
3
370
    50
100
AcDbLine
 10
-243.761409
 20
-136.2108
 30
0.0
 11
-255.761409
 21
-136.2108
 31
0.0
  0
LINE
  5
1D2
100
AcDbEntity
  8
3
370
    50
100
AcDbLine
 10
-242.011409
 20
-135.200437
 30
0.0
 11
-242.011409
 21
-129.7108
 31
0.0
  0
LINE
  5
1D3
100
AcDbEntity
  8
3
370
    50
100
AcDbLine
 10
-243.761409
 20
-136.2108
 30
0.0
 11
-242.011409
 21
-135.200437
 31
0.0
  0
LINE
  5
1D4
100
AcDbEntity
  8
3
370
    50
100
AcDbLine
 10
-235.761409
 20
-129.2108
 30
0.0
 11
-235.761409
 21
-128.0108
 31
0.0
  0
LINE
  5
1D5
100
AcDbEntity
  8
3
370
    50
100
AcDbLine
 10
-255.761409
 20
-129.7108
 30
0.0
 11
-241.440858
 21
-129.7108
 31
0.0
  0
LINE
  5
1D6
100
AcDbEntity
  8
3
370
    50
100
AcDbLine
 10
-235.761409
 20
-128.0108
 30
0.0
 11
-255.761409
 21
-128.0108
 31
0.0
  0
LINE
  5
1D7
100
AcDbEntity
  8
3
370
    50
100
AcDbLine
 10
-235.761409
 20
-129.2108
 30
0.0
 11
-255.761409
 21
-129.2108
 31
0.0
  0
ARC
  5
1D8
100
AcDbEntity
  8
3
370
    50
100
AcDbCircle
 10
-241.440858
 20
-124.7108
 30
0.0
 40
5.0
100
AcDbArc
 50
270.0
 51
293.556464
  0
ARC
  5
1D9
100
AcDbEntity
  8
3
370
    50
100
AcDbCircle
 10
-241.440858
 20
-132.5108
 30
0.0
 40
5.0
100
AcDbArc
 50
66.443536
 51
90.0
  0
ARC
  5
1DA
100
AcDbEntity
  8
3
370
    50
100
AcDbCircle
 10
-239.042943
 20
-130.2108
 30
0.0
 40
1.0
100
AcDbArc
 50
90.0
 51
113.556464
  0
ARC
  5
1DB
100
AcDbEntity
  8
3
370
    50
100
AcDbCircle
 10
-239.042943
 20
-127.0108
 30
0.0
 40
1.0
100
AcDbArc
 50
246.443536
 51
270.0
  0
LINE
  5
1DC
100
AcDbEntity
  8
3
370
    50
100
AcDbLine
 10
-248.761409
 20
-135.200437
 30
0.0
 11
-248.761409
 21
-129.7108
 31
0.0
  0
ARC
  5
1DD
100
AcDbEntity
  8
3
370
    50
100
AcDbCircle
 10
-255.761409
 20
-111.456907
 30
0.0
 40
24.753893
100
AcDbArc
 50
270.0
 51
286.426421
  0
ARC
  5
1DE
100
AcDbEntity
  8
3
370
    50
100
AcDbCircle
 10
-245.386409
 20
-130.068721
 30
0.0
 40
6.142079
100
AcDbArc
 50
236.668091
 51
303.331909
  0
ARC
  5
1DF
100
AcDbEntity
  8
3
370
    50
100
AcDbCircle
 10
-255.761409
 20
-113.4608
 30
0.0
 40
16.25
100
AcDbArc
 50
270.0
 51
284.250033
  0
ARC
  5
1E0
100
AcDbEntity
  8
3
370
    50
100
AcDbCircle
 10
-247.511409
 20
-113.4608
 30
0.0
 40
16.25
100
AcDbArc
 50
262.930286
 51
284.250033
  0
ARC
  5
1E1
100
AcDbEntity
  8
3
370
    50
100
AcDbCircle
 10
-251.511409
 20
-113.4608
 30
0.0
 40
16.25
100
AcDbArc
 50
262.485955
 51
284.250033
  0
ARC
  5
1E2
100
AcDbEntity
  8
3
370
    50
100
AcDbCircle
 10
-243.511409
 20
-113.4608
 30
0.0
 40
16.25
100
AcDbArc
 50
262.930286
 51
270.0
  0
ARC
  5
1E3
100
AcDbEntity
  8
3
370
    50
100
AcDbCircle
 10
-255.761409
 20
-143.7608
 30
0.0
 40
16.25
100
AcDbArc
 50
75.749967
 51
90.0
  0
ARC
  5
1E4
100
AcDbEntity
  8
3
370
    50
100
AcDbCircle
 10
-251.511409
 20
-143.7608
 30
0.0
 40
16.25
100
AcDbArc
 50
75.749967
 51
97.514045
  0
ARC
  5
1E5
100
AcDbEntity
  8
3
370
    50
100
AcDbCircle
 10
-247.511409
 20
-143.7608
 30
0.0
 40
16.25
100
AcDbArc
 50
75.749967
 51
97.069714
  0
ARC
  5
1E6
100
AcDbEntity
  8
3
370
    50
100
AcDbCircle
 10
-243.511409
 20
-143.7608
 30
0.0
 40
16.25
100
AcDbArc
 50
90.0
 51
97.069714
  0
LINE
  5
1E7
100
AcDbEntity
  8
3
370
    50
100
AcDbLine
 10
-244.261856
 20
-167.510845
 30
0.0
 11
-255.761856
 21
-167.510845
 31
0.0
  0
ARC
  5
1E8
100
AcDbEntity
  8
3
370
    50
100
AcDbCircle
 10
-258.036856
 20
-161.510845
 30
0.0
 40
15.025
100
AcDbArc
 50
336.463422
 51
23.536578
  0
LINE
  5
1E9
100
AcDbEntity
  8
3
370
    50
100
AcDbLine
 10
-244.261856
 20
-155.510845
 30
0.0
 11
-255.761856
 21
-155.510845
 31
0.0
  0
ELLIPSE
  5
1EA
100
AcDbEntity
  8
3
370
    50
100
AcDbEllipse
 10
-245.802564
 20
-161.510845
 30
0.0
 11
0.0
 21
6.0
 31
0.0
210
0.0
220
0.0
230
1.0
 40
0.458833
 41
0.0
 42
6.2831849999999996
  0
ELLIPSE
  5
1EB
100
AcDbEntity
  8
3
370
    50
100
AcDbEllipse
 10
-255.761856
 20
-161.510845
 30
0.0
 11
0.0
 21
6.0
 31
0.0
210
0.0
220
0.0
230
1.0
 40
0.926667
 41
3.1415929999999999
 42
0.0
  0
LINE
  5
1EC
100
AcDbEntity
  8
3
370
    50
100
AcDbLine
 10
-273.262303
 20
-127.5108
 30
0.0
 11
-273.262303
 21
-126.0108
 31
0.0
  0
LINE
  5
1ED
100
AcDbEntity
  8
3
370
    50
100
AcDbLine
 10
-255.762303
 20
-126.0108
 30
0.0
 11
-273.262303
 21
-126.0108
 31
0.0
  0
LINE
  5
1EE
100
AcDbEntity
  8
3
370
    50
100
AcDbLine
 10
-255.762303
 20
-127.5108
 30
0.0
 11
-273.262303
 21
-127.5108
 31
0.0
  0
LINE
  5
1EF
100
AcDbEntity
  8
3
370
    50
100
AcDbLine
 10
-267.762303
 20
-136.2108
 30
0.0
 11
-255.762303
 21
-136.2108
 31
0.0
  0
LINE
  5
1F0
100
AcDbEntity
  8
3
370
    50
100
AcDbLine
 10
-269.512303
 20
-135.200437
 30
0.0
 11
-269.512303
 21
-129.7108
 31
0.0
  0
LINE
  5
1F1
100
AcDbEntity
  8
3
370
    50
100
AcDbLine
 10
-267.762303
 20
-136.2108
 30
0.0
 11
-269.512303
 21
-135.200437
 31
0.0
  0
LINE
  5
1F2
100
AcDbEntity
  8
3
370
    50
100
AcDbLine
 10
-275.762303
 20
-129.2108
 30
0.0
 11
-275.762303
 21
-128.0108
 31
0.0
  0
LINE
  5
1F3
100
AcDbEntity
  8
3
370
    50
100
AcDbLine
 10
-255.762303
 20
-129.7108
 30
0.0
 11
-270.082854
 21
-129.7108
 31
0.0
  0
LINE
  5
1F4
100
AcDbEntity
  8
3
370
    50
100
AcDbLine
 10
-275.762303
 20
-128.0108
 30
0.0
 11
-255.762303
 21
-128.0108
 31
0.0
  0
LINE
  5
1F5
100
AcDbEntity
  8
3
370
    50
100
AcDbLine
 10
-275.762303
 20
-129.2108
 30
0.0
 11
-255.762303
 21
-129.2108
 31
0.0
  0
ARC
  5
1F6
100
AcDbEntity
  8
3
370
    50
100
AcDbCircle
 10
-270.082854
 20
-124.7108
 30
0.0
 40
5.0
100
AcDbArc
 50
246.443536
 51
270.0
  0
ARC
  5
1F7
100
AcDbEntity
  8
3
370
    50
100
AcDbCircle
 10
-270.082854
 20
-132.5108
 30
0.0
 40
5.0
100
AcDbArc
 50
90.0
 51
113.556464
  0
ARC
  5
1F8
100
AcDbEntity
  8
3
370
    50
100
AcDbCircle
 10
-272.480769
 20
-130.2108
 30
0.0
 40
1.0
100
AcDbArc
 50
66.443536
 51
90.0
  0
ARC
  5
1F9
100
AcDbEntity
  8
3
370
    50
100
AcDbCircle
 10
-272.480769
 20
-127.0108
 30
0.0
 40
1.0
100
AcDbArc
 50
270.0
 51
293.556464
  0
LINE
  5
1FA
100
AcDbEntity
  8
3
370
    50
100
AcDbLine
 10
-262.762303
 20
-135.200437
 30
0.0
 11
-262.762303
 21
-129.7108
 31
0.0
  0
ARC
  5
1FB
100
AcDbEntity
  8
3
370
    50
100
AcDbCircle
 10
-255.762303
 20
-111.456907
 30
0.0
 40
24.753893
100
AcDbArc
 50
253.573579
 51
270.0
  0
ARC
  5
1FC
100
AcDbEntity
  8
3
370
    50
100
AcDbCircle
 10
-266.137303
 20
-130.068721
 30
0.0
 40
6.142079
100
AcDbArc
 50
236.668091
 51
303.331909
  0
ARC
  5
1FD
100
AcDbEntity
  8
3
370
    50
100
AcDbCircle
 10
-264.012303
 20
-113.4608
 30
0.0
 40
16.25
100
AcDbArc
 50
255.749967
 51
277.069714
  0
ARC
  5
1FE
100
AcDbEntity
  8
3
370
    50
100
AcDbCircle
 10
-260.012303
 20
-113.4608
 30
0.0
 40
16.25
100
AcDbArc
 50
255.749967
 51
277.514045
  0
ARC
  5
1FF
100
AcDbEntity
  8
3
370
    50
100
AcDbCircle
 10
-268.012303
 20
-113.4608
 30
0.0
 40
16.25
100
AcDbArc
 50
270.0
 51
277.069714
  0
ARC
  5
200
100
AcDbEntity
  8
3
370
    50
100
AcDbCircle
 10
-260.012303
 20
-143.7608
 30
0.0
 40
16.25
100
AcDbArc
 50
82.485955
 51
104.250033
  0
ARC
  5
201
100
AcDbEntity
  8
3
370
    50
100
AcDbCircle
 10
-264.012303
 20
-143.7608
 30
0.0
 40
16.25
100
AcDbArc
 50
82.930286
 51
104.250033
  0
ARC
  5
202
100
AcDbEntity
  8
3
370
    50
100
AcDbCircle
 10
-268.012303
 20
-143.7608
 30
0.0
 40
16.25
100
AcDbArc
 50
82.930286
 51
90.0
  0
LINE
  5
203
100
AcDbEntity
  8
3
370
    50
100
AcDbLine
 10
-267.261856
 20
-167.510845
 30
0.0
 11
-255.761856
 21
-167.510845
 31
0.0
  0
ARC
  5
204
100
AcDbEntity
  8
3
370
    50
100
AcDbCircle
 10
-253.486856
 20
-161.510845
 30
0.0
 40
15.025
100
AcDbArc
 50
156.463422
 51
203.536578
  0
LINE
  5
205
100
AcDbEntity
  8
3
370
    50
100
AcDbLine
 10
-267.261856
 20
-155.510845
 30
0.0
 11
-255.761856
 21
-155.510845
 31
0.0
  0
ELLIPSE
  5
206
100
AcDbEntity
  8
3
370
    50
100
AcDbEllipse
 10
-265.721148
 20
-161.510845
 30
0.0
 11
0.0
 21
6.0
 31
0.0
210
0.0
220
0.0
230
1.0
 40
0.458833
 41
0.0
 42
6.2831849999999996
  0
ELLIPSE
  5
207
100
AcDbEntity
  8
3
370
    50
100
AcDbEllipse
 10
-255.761856
 20
-161.510845
 30
0.0
 11
0.0
 21
6.0
 31
0.0
210
0.0
220
0.0
230
1.0
 40
0.926667
 41
0.0
 42
3.1415929999999999
  0
LINE
  5
208
100
AcDbEntity
  8
3
370
    50
100
AcDbLine
 10
-266.239356
 20
-155.510845
 30
0.0
 11
-266.239356
 21
-136.2108
 31
0.0
  0
LINE
  5
209
100
AcDbEntity
  8
3
370
    50
100
AcDbLine
 10
-266.239356
 20
-126.0108
 30
0.0
 11
-266.239356
 21
-101.7108
 31
0.0
  0
LINE
  5
20A
100
AcDbEntity
  8
3
370
    25
100
AcDbLine
 10
-265.039356
 20
-155.510845
 30
0.0
 11
-265.039356
 21
-136.2108
 31
0.0
  0
LINE
  5
20B
100
AcDbEntity
  8
3
370
    25
100
AcDbLine
 10
-265.039356
 20
-126.0108
 30
0.0
 11
-265.039356
 21
-102.2108
 31
0.0
  0
LINE
  5
20C
100
AcDbEntity
  8
3
370
    50
100
AcDbLine
 10
-245.284356
 20
-155.510845
 30
0.0
 11
-245.284356
 21
-136.2108
 31
0.0
  0
LINE
  5
20D
100
AcDbEntity
  8
3
370
    50
100
AcDbLine
 10
-245.284356
 20
-126.0108
 30
0.0
 11
-245.284356
 21
-101.7108
 31
0.0
  0
LINE
  5
20E
100
AcDbEntity
  8
3
370
    25
100
AcDbLine
 10
-246.484356
 20
-155.510845
 30
0.0
 11
-246.484356
 21
-136.2108
 31
0.0
  0
LINE
  5
20F
100
AcDbEntity
  8
3
370
    25
100
AcDbLine
 10
-246.484356
 20
-126.0108
 30
0.0
 11
-246.484356
 21
-102.2108
 31
0.0
  0
CIRCLE
  5
210
100
AcDbEntity
  8
3
370
    50
100
AcDbCircle
 10
-255.761783
 20
220.834202
 30
0.0
 40
9.0
  0
CIRCLE
  5
211
100
AcDbEntity
  8
3
370
    50
100
AcDbCircle
 10
-55.761783
 20
220.834202
 30
0.0
 40
9.0
  0
LINE
  5
212
100
AcDbEntity
  8
3
370
    25
  6
CENTER
100
AcDbLine
 10
344.237815
 20
-80.612334
 30
0.0
 11
344.237815
 21
32.29039
 31
0.0
  0
LINE
  5
213
100
AcDbEntity
  8
3
370
    50
100
AcDbLine
 10
352.987815
 20
-22.011909
 30
0.0
 11
352.987815
 21
1.325006
 31
0.0
  0
LINE
  5
214
100
AcDbEntity
  8
3
370
    50
100
AcDbLine
 10
335.487815
 20
-22.011017
 30
0.0
 11
335.487815
 21
1.325006
 31
0.0
  0
LINE
  5
215
100
AcDbEntity
  8
3
370
    25
  6
CENTER
100
AcDbLine
 10
173.959401
 20
53.197951
 30
0.0
 11
173.959401
 21
7.343841
 31
0.0
  0
LINE
  5
216
100
AcDbEntity
  8
3
370
    50
100
AcDbLine
 10
182.743434
 20
9.74573
 30
0.0
 11
165.175368
 21
11.902817
 31
0.0
  0
ARC
  5
217
100
AcDbEntity
  8
3
370
    25
  6
CENTER
100
AcDbCircle
 10
209.558649
 20
13.564069
 30
0.0
 40
35.0
100
AcDbArc
 50
83.0
 51
173.0
  0
ARC
  5
218
100
AcDbEntity
  8
3
370
    50
100
AcDbCircle
 10
209.558649
 20
13.564069
 30
0.0
 40
26.25
100
AcDbArc
 50
83.0
 51
177.833995
  0
ARC
  5
219
100
AcDbEntity
  8
3
370
    50
100
AcDbCircle
 10
209.558649
 20
13.564069
 30
0.0
 40
43.75
100
AcDbArc
 50
83.0
 51
175.695966
  0
LINE
  5
21A
100
AcDbEntity
  8
3
370
    50
100
AcDbLine
 10
183.333709
 20
14.710802
 30
0.0
 11
165.932031
 21
16.84746
 31
0.0
  0
ARC
  5
21B
100
AcDbEntity
  8
3
370
    50
100
AcDbCircle
 10
168.250315
 20
13.962483
 30
0.0
 40
3.701017
100
AcDbArc
 50
128.784365
 51
213.81503
  0
ARC
  5
21C
100
AcDbEntity
  8
3
370
    50
100
AcDbCircle
 10
180.258104
 20
12.488112
 30
0.0
 40
3.701017
100
AcDbArc
 50
312.18497
 51
33.971807
  0
LINE
  5
21D
100
AcDbEntity
  8
3
370
    50
100
AcDbLine
 10
314.569599
 20
44.7489
 30
0.0
 11
214.890433
 21
56.987963
 31
0.0
  0
LINE
  5
21E
100
AcDbEntity
  8
3
370
    25
  6
CENTER
100
AcDbLine
 10
344.237815
 20
32.29039
 30
0.0
 11
173.959401
 21
53.197951
 31
0.0
  0
LINE
  5
21F
100
AcDbEntity
  8
3
370
    50
100
AcDbLine
 10
312.436886
 20
27.379342
 30
0.0
 11
212.75772
 21
39.618405
 31
0.0
  0
ARC
  5
220
100
AcDbEntity
  8
3
370
    25
  6
CENTER
100
AcDbCircle
 10
309.237815
 20
1.325006
 30
0.0
 40
35.0
100
AcDbArc
 50
0.0
 51
83.0
  0
ARC
  5
221
100
AcDbEntity
  8
3
370
    50
100
AcDbCircle
 10
309.237815
 20
1.325006
 30
0.0
 40
26.25
100
AcDbArc
 50
0.0
 51
83.0
  0
ARC
  5
222
100
AcDbEntity
  8
3
370
    50
100
AcDbCircle
 10
309.237815
 20
1.325006
 30
0.0
 40
43.75
100
AcDbArc
 50
0.0
 51
83.0
  0
LINE
  5
223
100
AcDbEntity
  8
3
370
    50
100
AcDbLine
 10
-161.808888
 20
234.834138
 30
0.0
 11
-149.715501
 21
234.834138
 31
0.0
  0
LINE
  5
224
100
AcDbEntity
  8
3
370
    50
100
AcDbLine
 10
-146.661186
 20
233.070728
 30
0.0
 11
-140.614492
 21
222.597548
 31
0.0
  0
LINE
  5
225
100
AcDbEntity
  8
3
370
    50
100
AcDbLine
 10
-142.627439
 20
215.584202
 30
0.0
 11
-140.614492
 21
219.070728
 31
0.0
  0
LINE
  5
226
100
AcDbEntity
  8
3
370
    50
100
AcDbLine
 10
-161.808888
 20
206.834138
 30
0.0
 11
-157.782846
 21
206.834138
 31
0.0
  0
LINE
  5
227
100
AcDbEntity
  8
3
370
    50
100
AcDbLine
 10
-170.909897
 20
219.070728
 30
0.0
 11
-164.863204
 21
208.597548
 31
0.0
  0
LINE
  5
228
100
AcDbEntity
  8
3
370
    50
100
AcDbLine
 10
-170.909897
 20
222.597548
 30
0.0
 11
-164.863204
 21
233.070728
 31
0.0
  0
ARC
  5
229
100
AcDbEntity
  8
3
370
    50
100
AcDbCircle
 10
-155.762195
 20
220.834138
 30
0.0
 40
15.25
100
AcDbArc
 50
53.359838
 51
66.640162
  0
ARC
  5
22A
100
AcDbEntity
  8
3
370
    50
100
AcDbCircle
 10
-155.762195
 20
220.834138
 30
0.0
 40
15.25
100
AcDbArc
 50
353.359838
 51
6.640162
  0
ARC
  5
22B
100
AcDbEntity
  8
3
370
    50
100
AcDbCircle
 10
-155.762195
 20
220.834138
 30
0.0
 40
15.25
100
AcDbArc
 50
233.359838
 51
246.640162
  0
ARC
  5
22C
100
AcDbEntity
  8
3
370
    50
100
AcDbCircle
 10
-155.762195
 20
220.834138
 30
0.0
 40
15.25
100
AcDbArc
 50
113.359838
 51
126.640162
  0
ARC
  5
22D
100
AcDbEntity
  8
3
370
    50
100
AcDbCircle
 10
-155.762195
 20
220.834138
 30
0.0
 40
15.25
100
AcDbArc
 50
173.359838
 51
186.640162
  0
LINE
  5
22E
100
AcDbEntity
  8
3
370
    50
100
AcDbLine
 10
-169.530362
 20
-59.210302
 30
0.0
 11
-141.99335
 21
-59.210302
 31
0.0
  0
LINE
  5
22F
100
AcDbEntity
  8
3
370
    50
100
AcDbLine
 10
-169.530362
 20
-74.711302
 30
0.0
 11
-141.99335
 21
-74.711302
 31
0.0
  0
ARC
  5
230
100
AcDbEntity
  8
3
370
    50
100
AcDbCircle
 10
-155.511856
 20
-65.710302
 30
0.0
 40
15.0
100
AcDbArc
 50
334.320711
 51
25.679289
  0
ARC
  5
231
100
AcDbEntity
  8
3
370
    50
100
AcDbCircle
 10
-156.011856
 20
-65.710302
 30
0.0
 40
15.0
100
AcDbArc
 50
154.320711
 51
205.679289
  0
ELLIPSE
  5
232
100
AcDbEntity
  8
3
370
    50
100
AcDbEllipse
 10
-143.6375
 20
-65.710302
 30
0.0
 11
0.0
 21
6.5
 31
0.0
210
0.0
220
0.0
230
1.0
 40
0.465077
 41
0.0
 42
6.2831849999999996
  0
ELLIPSE
  5
233
100
AcDbEntity
  8
3
370
    50
100
AcDbEllipse
 10
-155.761856
 20
-65.710302
 30
0.0
 11
0.0
 21
6.5
 31
0.0
210
0.0
220
0.0
230
1.0
 40
0.930154
 41
3.1415929999999999
 42
0.0
  0
LINE
  5
234
100
AcDbEntity
  8
3
370
    25
  6
CENTER
100
AcDbLine
 10
-155.762195
 20
184.804459
 30
0.0
 11
-155.762195
 21
247.546585
 31
0.0
  0
POINT
  5
235
100
AcDbEntity
  8
3
370
    50
100
AcDbPoint
 10
173.959401
 20
10.824273
 30
0.0
  0
LINE
  5
236
100
AcDbEntity
  8
3
370
    25
  6
CENTER
100
AcDbLine
 10
174.819534
 20
17.829496
 30
0.0
 11
173.523057
 21
7.270536
 31
0.0
  0
LINE
  5
237
100
AcDbEntity
  8
3
370
    25
  6
CENTER
100
AcDbLine
 10
-155.761856
 20
61.151791
 30
0.0
 11
-155.761856
 21
-109.054657
 31
0.0
  0
LINE
  5
238
100
AcDbEntity
  8
3
370
    50
100
AcDbLine
 10
-141.99335
 20
-72.210302
 30
0.0
 11
-169.530362
 21
-72.210302
 31
0.0
  0
POINT
  5
239
100
AcDbEntity
  8
3
370
    50
100
AcDbPoint
 10
-155.761856
 20
-59.210302
 30
0.0
  0
LINE
  5
23A
100
AcDbEntity
  8
3
370
    50
100
AcDbLine
 10
-142.541356
 20
-72.210302
 30
0.0
 11
-142.541356
 21
-74.7108
 31
0.0
  0
ELLIPSE
  5
23B
100
AcDbEntity
  8
3
370
    50
100
AcDbEllipse
 10
-155.761856
 20
-65.710302
 30
0.0
 11
0.0
 21
6.5
 31
0.0
210
0.0
220
0.0
230
1.0
 40
0.930154
 41
0.0
 42
3.1415929999999999
  0
ELLIPSE
  5
23C
100
AcDbEntity
  8
3
370
    50
100
AcDbEllipse
 10
-167.886212
 20
-65.710302
 30
0.0
 11
0.0
 21
6.5
 31
0.0
210
0.0
220
0.0
230
1.0
 40
0.465077
 41
0.0
 42
6.2831849999999996
  0
ARC
  5
23D
100
AcDbEntity
  8
3
370
    50
100
AcDbCircle
 10
-155.761856
 20
48.564069
 30
0.0
 40
8.75
100
AcDbArc
 50
0.0
 51
180.0
  0
POINT
  5
23E
100
AcDbEntity
  8
3
370
    50
100
AcDbPoint
 10
-155.761856
 20
10.824273
 30
0.0
  0
LINE
  5
23F
100
AcDbEntity
  8
3
370
    50
100
AcDbLine
 10
-147.011856
 20
-59.210302
 30
0.0
 11
-147.011856
 21
11.081827
 31
0.0
  0
LINE
  5
240
100
AcDbEntity
  8
3
370
    50
100
AcDbLine
 10
-147.011856
 20
15.389782
 30
0.0
 11
-147.011856
 21
48.564069
 31
0.0
  0
LINE
  5
241
100
AcDbEntity
  8
3
370
    50
100
AcDbLine
 10
-164.511856
 20
-59.210302
 30
0.0
 11
-164.511856
 21
10.869646
 31
0.0
  0
LINE
  5
242
100
AcDbEntity
  8
3
370
    50
100
AcDbLine
 10
-164.511856
 20
15.407717
 30
0.0
 11
-164.511856
 21
48.564069
 31
0.0
  0
LINE
  5
243
100
AcDbEntity
  8
3
370
    50
100
AcDbLine
 10
-148.146665
 20
225.143782
 30
0.0
 11
-63.134423
 21
77.898259
 31
0.0
  0
LINE
  5
244
100
AcDbEntity
  8
3
370
    50
100
AcDbLine
 10
-163.240848
 20
216.287674
 30
0.0
 11
-78.289867
 21
69.148259
 31
0.0
  0
ARC
  5
245
100
AcDbEntity
  8
3
370
    25
100
AcDbCircle
 10
-155.762195
 20
220.834138
 30
0.0
 40
9.65
100
AcDbArc
 50
5.058988
 51
234.94282
  0
ARC
  5
246
100
AcDbEntity
  8
3
370
    50
100
AcDbCircle
 10
-155.762195
 20
220.834138
 30
0.0
 40
9.15
100
AcDbArc
 50
12.997338
 51
227.005412
  0
ARC
  5
247
100
AcDbEntity
  8
3
370
    50
100
AcDbCircle
 10
-155.761783
 20
220.834202
 30
0.0
 40
8.75
100
AcDbArc
 50
29.506579
 51
211.846981
  0
ARC
  5
248
100
AcDbEntity
  8
3
370
    50
100
AcDbCircle
 10
-155.762195
 20
220.834138
 30
0.0
 40
14.0
100
AcDbArc
 50
338.682524
 51
261.318149
  0
POINT
  5
249
100
AcDbEntity
  8
3
370
    50
100
AcDbPoint
 10
-66.336965
 20
65.945641
 30
0.0
  0
ARC
  5
24A
100
AcDbEntity
  8
3
370
    50
100
AcDbCircle
 10
-70.711965
 20
73.523363
 30
0.0
 40
8.75
100
AcDbArc
 50
210.0
 51
30.0
  0
POINT
  5
24B
100
AcDbEntity
  8
3
370
    50
100
AcDbPoint
 10
-66.336965
 20
65.945641
 30
0.0
  0
ARC
  5
24C
100
AcDbEntity
  8
3
370
    50
100
AcDbCircle
 10
-55.761783
 20
220.834202
 30
0.0
 40
25.0
100
AcDbArc
 50
66.597825
 51
90.0
  0
ARC
  5
24D
100
AcDbEntity
  8
3
370
    50
100
AcDbCircle
 10
-55.761783
 20
220.834202
 30
0.0
 40
25.0
100
AcDbArc
 50
6.597825
 51
53.402175
  0
ARC
  5
24E
100
AcDbEntity
  8
3
370
    50
100
AcDbCircle
 10
-55.761783
 20
220.834202
 30
0.0
 40
25.0
100
AcDbArc
 50
270.0
 51
293.402175
  0
ARC
  5
24F
100
AcDbEntity
  8
3
370
    50
100
AcDbCircle
 10
-55.761783
 20
220.834202
 30
0.0
 40
25.0
100
AcDbArc
 50
306.597825
 51
353.402175
  0
ARC
  5
250
100
AcDbEntity
  8
3
370
    50
100
AcDbCircle
 10
-55.761783
 20
220.773791
 30
0.0
 40
20.768
100
AcDbArc
 50
22.139695
 51
38.008098
  0
ARC
  5
251
100
AcDbEntity
  8
3
370
    50
100
AcDbCircle
 10
-55.761783
 20
220.773791
 30
0.0
 40
20.768
100
AcDbArc
 50
321.565308
 51
338.582705
  0
ARC
  5
252
100
AcDbEntity
  8
3
370
    50
100
AcDbCircle
 10
-55.761783
 20
220.834202
 30
0.0
 40
20.768
100
AcDbArc
 50
270.0
 51
278.226756
  0
ARC
  5
253
100
AcDbEntity
  8
3
370
    50
100
AcDbCircle
 10
-55.761783
 20
220.773791
 30
0.0
 40
20.768
100
AcDbArc
 50
201.417295
 51
218.434692
  0
ARC
  5
254
100
AcDbEntity
  8
3
370
    50
100
AcDbCircle
 10
-55.761783
 20
220.834202
 30
0.0
 40
20.768
100
AcDbArc
 50
81.773244
 51
90.0
  0
ARC
  5
255
100
AcDbEntity
  8
3
370
    50
100
AcDbCircle
 10
-55.761783
 20
220.773791
 30
0.0
 40
20.768
100
AcDbArc
 50
141.991902
 51
157.860305
  0
LINE
  5
256
100
AcDbEntity
  8
3
370
    50
100
AcDbLine
 10
-241.338836
 20
241.602202
 30
0.0
 11
-70.18473
 21
241.602202
 31
0.0
  0
LINE
  5
257
100
AcDbEntity
  8
3
370
    50
100
AcDbLine
 10
-59.924171
 20
241.602202
 30
0.0
 11
-55.761783
 21
241.602202
 31
0.0
  0
LINE
  5
258
100
AcDbEntity
  8
3
370
    50
100
AcDbLine
 10
-133.668118
 20
200.066202
 30
0.0
 11
-70.18473
 21
200.066202
 31
0.0
  0
LINE
  5
259
100
AcDbEntity
  8
3
370
    50
100
AcDbLine
 10
-59.924171
 20
200.066202
 30
0.0
 11
-55.761783
 21
200.066202
 31
0.0
  0
ARC
  5
25A
100
AcDbEntity
  8
3
370
    50
100
AcDbCircle
 10
-255.762606
 20
220.834202
 30
0.0
 40
25.0
100
AcDbArc
 50
126.597825
 51
173.402175
  0
ARC
  5
25B
100
AcDbEntity
  8
3
370
    50
100
AcDbCircle
 10
-255.762606
 20
220.834202
 30
0.0
 40
25.0
100
AcDbArc
 50
186.597825
 51
233.402175
  0
ARC
  5
25C
100
AcDbEntity
  8
3
370
    50
100
AcDbCircle
 10
-255.762606
 20
220.834202
 30
0.0
 40
25.0
100
AcDbArc
 50
246.597825
 51
270.0
  0
ARC
  5
25D
100
AcDbEntity
  8
3
370
    50
100
AcDbCircle
 10
-255.762606
 20
220.834202
 30
0.0
 40
25.0
100
AcDbArc
 50
90.0
 51
113.402175
  0
ARC
  5
25E
100
AcDbEntity
  8
3
370
    50
100
AcDbCircle
 10
-255.762606
 20
220.773791
 30
0.0
 40
20.768
100
AcDbArc
 50
22.139695
 51
38.008098
  0
ARC
  5
25F
100
AcDbEntity
  8
3
370
    50
100
AcDbCircle
 10
-255.762606
 20
220.773791
 30
0.0
 40
20.768
100
AcDbArc
 50
321.565308
 51
338.582705
  0
ARC
  5
260
100
AcDbEntity
  8
3
370
    50
100
AcDbCircle
 10
-255.762606
 20
220.834202
 30
0.0
 40
20.768
100
AcDbArc
 50
261.773244
 51
270.0
  0
LINE
  5
261
100
AcDbEntity
  8
3
370
    50
100
AcDbLine
 10
-251.600218
 20
200.066202
 30
0.0
 11
-255.762606
 21
200.066202
 31
0.0
  0
ARC
  5
262
100
AcDbEntity
  8
3
370
    50
100
AcDbCircle
 10
-255.762606
 20
220.773791
 30
0.0
 40
20.768
100
AcDbArc
 50
201.417295
 51
218.434692
  0
ARC
  5
263
100
AcDbEntity
  8
3
370
    50
100
AcDbCircle
 10
-255.762606
 20
220.773791
 30
0.0
 40
20.768
100
AcDbArc
 50
141.991902
 51
157.860305
  0
ARC
  5
264
100
AcDbEntity
  8
3
370
    50
100
AcDbCircle
 10
-255.762606
 20
220.834202
 30
0.0
 40
20.768
100
AcDbArc
 50
90.0
 51
98.226756
  0
LINE
  5
265
100
AcDbEntity
  8
3
370
    50
100
AcDbLine
 10
-251.600218
 20
241.602202
 30
0.0
 11
-255.762606
 21
241.602202
 31
0.0
  0
LWPOLYLINE
  5
266
100
AcDbEntity
  8
3
370
    50
100
AcDbPolyline
 90
      900
 70
     0
 10
-161.84349
 20
16.605918
 10
-161.859719
 20
16.602392
 10
-161.875903
 20
16.59876
 10
-161.892057
 20
16.595055
 10
-161.908195
 20
16.591309
 10
-161.924331
 20
16.587555
 10
-161.94039
 20
16.583837
 10
-161.956458
 20
16.580131
 10
-161.97253
 20
16.576426
 10
-161.988601
 20
16.572709
 10
-162.004666
 20
16.568968
 10
-162.020576
 20
16.565231
 10
-162.036478
 20
16.561462
 10
-162.052371
 20
16.557664
 10
-162.068258
 20
16.553841
 10
-162.084139
 20
16.549995
 10
-162.099872
 20
16.546163
 10
-162.115599
 20
16.54231
 10
-162.131322
 20
16.538436
 10
-162.147039
 20
16.534539
 10
-162.162751
 20
16.530621
 10
-162.178323
 20
16.526712
 10
-162.19389
 20
16.522781
 10
-162.209451
 20
16.518828
 10
-162.225007
 20
16.514852
 10
-162.240556
 20
16.510855
 10
-162.255978
 20
16.506868
 10
-162.271395
 20
16.502859
 10
-162.286806
 20
16.49883
 10
-162.302212
 20
16.494779
 10
-162.317611
 20
16.490707
 10
-162.332892
 20
16.486644
 10
-162.348166
 20
16.482559
 10
-162.363435
 20
16.478453
 10
-162.378698
 20
16.474326
 10
-162.393955
 20
16.470176
 10
-162.409096
 20
16.466034
 10
-162.42423
 20
16.46187
 10
-162.439358
 20
16.457684
 10
-162.45448
 20
16.453475
 10
-162.469596
 20
16.449243
 10
-162.484598
 20
16.445018
 10
-162.499593
 20
16.44077
 10
-162.514582
 20
16.436499
 10
-162.529564
 20
16.432205
 10
-162.54454
 20
16.427887
 10
-162.559404
 20
16.423575
 10
-162.574262
 20
16.419239
 10
-162.589112
 20
16.414879
 10
-162.603955
 20
16.410495
 10
-162.618791
 20
16.406087
 10
-162.633521
 20
16.401683
 10
-162.648243
 20
16.397255
 10
-162.662958
 20
16.392802
 10
-162.677665
 20
16.388324
 10
-162.692364
 20
16.383821
 10
-162.706964
 20
16.379322
 10
-162.721555
 20
16.374796
 10
-162.736139
 20
16.370246
 10
-162.750715
 20
16.36567
 10
-162.765283
 20
16.361068
 10
-162.779758
 20
16.356468
 10
-162.794225
 20
16.351841
 10
-162.808683
 20
16.347189
 10
-162.823133
 20
16.34251
 10
-162.837575
 20
16.337805
 10
-162.85193
 20
16.333099
 10
-162.866278
 20
16.328366
 10
-162.880616
 20
16.323607
 10
-162.894946
 20
16.318821
 10
-162.909266
 20
16.314009
 10
-162.923508
 20
16.309192
 10
-162.937742
 20
16.304349
 10
-162.951966
 20
16.299478
 10
-162.96618
 20
16.29458
 10
-162.980385
 20
16.289654
 10
-162.99452
 20
16.284721
 10
-163.008645
 20
16.27976
 10
-163.022761
 20
16.27477
 10
-163.036866
 20
16.269752
 10
-163.050961
 20
16.264706
 10
-163.064995
 20
16.259649
 10
-163.079018
 20
16.254563
 10
-163.093031
 20
16.249447
 10
-163.107033
 20
16.244303
 10
-163.121024
 20
16.239128
 10
-163.134962
 20
16.23394
 10
-163.14889
 20
16.228721
 10
-163.162806
 20
16.223473
 10
-163.176711
 20
16.218194
 10
-163.190604
 20
16.212885
 10
-163.204453
 20
16.207557
 10
-163.218291
 20
16.202199
 10
-163.232117
 20
16.19681
 10
-163.24593
 20
16.19139
 10
-163.259731
 20
16.185938
 10
-163.273499
 20
16.180463
 10
-163.287254
 20
16.174956
 10
-163.300996
 20
16.169417
 10
-163.314724
 20
16.163845
 10
-163.32844
 20
16.158241
 10
-163.342132
 20
16.152608
 10
-163.355811
 20
16.146942
 10
-163.369476
 20
16.141242
 10
-163.383127
 20
16.135509
 10
-163.396763
 20
16.129742
 10
-163.410388
 20
16.12394
 10
-163.423998
 20
16.118104
 10
-163.437593
 20
16.112233
 10
-163.451172
 20
16.106328
 10
-163.464737
 20
16.100388
 10
-163.478301
 20
16.094406
 10
-163.491849
 20
16.08839
 10
-163.505381
 20
16.082337
 10
-163.518896
 20
16.076249
 10
-163.532396
 20
16.070125
 10
-163.545905
 20
16.063953
 10
-163.559398
 20
16.057743
 10
-163.572873
 20
16.051497
 10
-163.586332
 20
16.045213
 10
-163.599772
 20
16.038891
 10
-163.613234
 20
16.032513
 10
-163.626677
 20
16.026097
 10
-163.640102
 20
16.019642
 10
-163.653509
 20
16.013148
 10
-163.666896
 20
16.006615
 10
-163.680316
 20
16.000018
 10
-163.693717
 20
15.99338
 10
-163.707098
 20
15.986703
 10
-163.720458
 20
15.979985
 10
-163.733799
 20
15.973227
 10
-163.747183
 20
15.966395
 10
-163.760547
 20
15.959522
 10
-163.773889
 20
15.952608
 10
-163.78721
 20
15.945652
 10
-163.800508
 20
15.938653
 10
-163.813862
 20
15.931571
 10
-163.827192
 20
15.924446
 10
-163.8405
 20
15.917278
 10
-163.853784
 20
15.910066
 10
-163.867044
 20
15.90281
 10
-163.88037
 20
15.895461
 10
-163.893671
 20
15.888066
 10
-163.906947
 20
15.880627
 10
-163.920197
 20
15.873142
 10
-163.933422
 20
15.865612
 10
-163.946724
 20
15.857978
 10
-163.959999
 20
15.850297
 10
-163.973246
 20
15.842569
 10
-163.986467
 20
15.834794
 10
-163.999659
 20
15.826972
 10
-164.012937
 20
15.819034
 10
-164.026185
 20
15.811048
 10
-164.039405
 20
15.803013
 10
-164.052594
 20
15.79493
 10
-164.065753
 20
15.786797
 10
-164.079006
 20
15.778537
 10
-164.092227
 20
15.770226
 10
-164.105416
 20
15.761865
 10
-164.118573
 20
15.753453
 10
-164.131698
 20
15.744991
 10
-164.144924
 20
15.736389
 10
-164.158116
 20
15.727735
 10
-164.171273
 20
15.719029
 10
-164.184395
 20
15.71027
 10
-164.197482
 20
15.701458
 10
-164.210675
 20
15.692496
 10
-164.223831
 20
15.68348
 10
-164.23695
 20
15.674409
 10
-164.250031
 20
15.665284
 10
-164.263073
 20
15.656103
 10
-164.276226
 20
15.646761
 10
-164.289339
 20
15.637363
 10
-164.302411
 20
15.627908
 10
-164.315443
 20
15.618397
 10
-164.328432
 20
15.608829
 10
-164.341535
 20
15.599089
 10
-164.354595
 20
15.58929
 10
-164.367611
 20
15.579433
 10
-164.380582
 20
15.569518
 10
-164.393508
 20
15.559543
 10
-164.406548
 20
15.549387
 10
-164.41954
 20
15.53917
 10
-164.432484
 20
15.528893
 10
-164.445381
 20
15.518555
 10
-164.458229
 20
15.508158
 10
-164.471189
 20
15.497568
 10
-164.484098
 20
15.486915
 10
-164.496956
 20
15.476201
 10
-164.509762
 20
15.465425
 10
-164.522516
 20
15.454587
 10
-164.535377
 20
15.443549
 10
-164.548184
 20
15.432446
 10
-164.560935
 20
15.421281
 10
-164.573631
 20
15.410051
 10
-164.586269
 20
15.398758
 10
-164.59901
 20
15.387258
 10
-164.611692
 20
15.375692
 10
-164.624315
 20
15.364061
 10
-164.636877
 20
15.352365
 10
-164.649379
 20
15.340604
 10
-164.661975
 20
15.32863
 10
-164.674508
 20
15.316589
 10
-164.686977
 20
15.304482
 10
-164.699381
 20
15.292308
 10
-164.71172
 20
15.280069
 10
-164.724145
 20
15.267612
 10
-164.736501
 20
15.255088
 10
-164.748788
 20
15.242496
 10
-164.761007
 20
15.229837
 10
-164.773156
 20
15.217111
 10
-164.785379
 20
15.204165
 10
-164.79753
 20
15.19115
 10
-164.809607
 20
15.178067
 10
-164.82161
 20
15.164917
 10
-164.83354
 20
15.151699
 10
-164.84553
 20
15.13826
 10
-164.857444
 20
15.124752
 10
-164.869279
 20
15.111176
 10
-164.881036
 20
15.097532
 10
-164.892714
 20
15.08382
 10
-164.90444
 20
15.069887
 10
-164.916083
 20
15.055885
 10
-164.927644
 20
15.041814
 10
-164.939122
 20
15.027676
 10
-164.950515
 20
15.013469
 10
-164.961943
 20
14.999045
 10
-164.973284
 20
14.984552
 10
-164.984537
 20
14.969991
 10
-164.995701
 20
14.955362
 10
-165.006777
 20
14.940666
 10
-165.017872
 20
14.925755
 10
-165.028875
 20
14.910776
 10
-165.039786
 20
14.895729
 10
-165.050603
 20
14.880616
 10
-165.061327
 20
14.865436
 10
-165.072055
 20
14.850047
 10
-165.082686
 20
14.83459
 10
-165.093221
 20
14.819068
 10
-165.103657
 20
14.803479
 10
-165.113994
 20
14.787825
 10
-165.124322
 20
14.771969
 10
-165.134547
 20
14.756047
 10
-165.144671
 20
14.74006
 10
-165.154692
 20
14.724008
 10
-165.164609
 20
14.707893
 10
-165.174502
 20
14.691583
 10
-165.184288
 20
14.675209
 10
-165.193968
 20
14.658772
 10
-165.203541
 20
14.642272
 10
-165.213005
 20
14.62571
 10
-165.222431
 20
14.608963
 10
-165.231745
 20
14.592154
 10
-165.240949
 20
14.575285
 10
-165.250041
 20
14.558354
 10
-165.25902
 20
14.541364
 10
-165.267947
 20
14.524199
 10
-165.276759
 20
14.506974
 10
-165.285455
 20
14.489691
 10
-165.294035
 20
14.472349
 10
-165.302499
 20
14.454951
 10
-165.310897
 20
14.437388
 10
-165.319177
 20
14.419768
 10
-165.327336
 20
14.402093
 10
-165.335376
 20
14.384363
 10
-165.343295
 20
14.366578
 10
-165.351136
 20
14.34864
 10
-165.358854
 20
14.330648
 10
-165.366449
 20
14.312604
 10
-165.373921
 20
14.294509
 10
-165.381268
 20
14.276362
 10
-165.388526
 20
14.258075
 10
-165.395658
 20
14.239737
 10
-165.402663
 20
14.221351
 10
-165.40954
 20
14.202917
 10
-165.41629
 20
14.184435
 10
-165.42294
 20
14.165825
 10
-165.42946
 20
14.147168
 10
-165.43585
 20
14.128466
 10
-165.442109
 20
14.109721
 10
-165.448237
 20
14.090932
 10
-165.454257
 20
14.072026
 10
-165.460144
 20
14.053079
 10
-165.465898
 20
14.034091
 10
-165.471519
 20
14.015063
 10
-165.477005
 20
13.995996
 10
-165.482375
 20
13.976826
 10
-165.487608
 20
13.957618
 10
-165.492706
 20
13.938373
 10
-165.497668
 20
13.919093
 10
-165.502493
 20
13.899778
 10
-165.507194
 20
13.880373
 10
-165.511757
 20
13.860935
 10
-165.516182
 20
13.841464
 10
-165.520469
 20
13.821963
 10
-165.524616
 20
13.802432
 10
-165.528634
 20
13.782824
 10
-165.532511
 20
13.763188
 10
-165.536248
 20
13.743524
 10
-165.539845
 20
13.723834
 10
-165.5433
 20
13.704119
 10
-165.546621
 20
13.684341
 10
-165.549799
 20
13.664539
 10
-165.552835
 20
13.644714
 10
-165.555729
 20
13.624869
 10
-165.558481
 20
13.605003
 10
-165.561094
 20
13.585087
 10
-165.563563
 20
13.565153
 10
-165.565889
 20
13.545201
 10
-165.568072
 20
13.525234
 10
-165.57011
 20
13.505251
 10
-165.572006
 20
13.485231
 10
-165.573758
 20
13.465199
 10
-165.575365
 20
13.445154
 10
-165.576828
 20
13.425098
 10
-165.578146
 20
13.405033
 10
-165.57932
 20
13.384944
 10
-165.580349
 20
13.364847
 10
-165.581233
 20
13.344744
 10
-165.581972
 20
13.324634
 10
-165.582565
 20
13.30452
 10
-165.583013
 20
13.284396
 10
-165.583315
 20
13.26427
 10
-165.583472
 20
13.244142
 10
-165.583484
 20
13.224013
 10
-165.58335
 20
13.203885
 10
-165.58307
 20
13.183761
 10
-165.582646
 20
13.16364
 10
-165.582076
 20
13.143522
 10
-165.581361
 20
13.123409
 10
-165.5805
 20
13.103302
 10
-165.579495
 20
13.083213
 10
-165.578345
 20
13.063131
 10
-165.57705
 20
13.043058
 10
-165.57561
 20
13.022995
 10
-165.574025
 20
13.002943
 10
-165.572297
 20
12.982923
 10
-165.570426
 20
12.962915
 10
-165.56841
 20
12.942922
 10
-165.56625
 20
12.922943
 10
-165.563947
 20
12.902981
 10
-165.561503
 20
12.883064
 10
-165.558916
 20
12.863165
 10
-165.556187
 20
12.843285
 10
-165.553314
 20
12.823425
 10
-165.550299
 20
12.803586
 10
-165.547148
 20
12.783806
 10
-165.543855
 20
12.764049
 10
-165.54042
 20
12.744316
 10
-165.536845
 20
12.724608
 10
-165.533129
 20
12.704926
 10
-165.529281
 20
12.685317
 10
-165.525293
 20
12.665735
 10
-165.521165
 20
12.646182
 10
-165.516899
 20
12.62666
 10
-165.512493
 20
12.607168
 10
-165.507962
 20
12.587761
 10
-165.503292
 20
12.568388
 10
-165.498486
 20
12.549047
 10
-165.493543
 20
12.529742
 10
-165.488463
 20
12.510472
 10
-165.483263
 20
12.4913
 10
-165.477929
 20
12.472166
 10
-165.47246
 20
12.45307
 10
-165.466857
 20
12.434013
 10
-165.46112
 20
12.414995
 10
-165.455271
 20
12.39609
 10
-165.449289
 20
12.377226
 10
-165.443176
 20
12.358404
 10
-165.436932
 20
12.339626
 10
-165.430556
 20
12.320891
 10
-165.424078
 20
12.302281
 10
-165.417471
 20
12.283717
 10
-165.410735
 20
12.265199
 10
-165.40387
 20
12.246728
 10
-165.396878
 20
12.228305
 10
-165.389793
 20
12.210019
 10
-165.382582
 20
12.191782
 10
-165.375246
 20
12.173596
 10
-165.367785
 20
12.15546
 10
-165.3602
 20
12.137376
 10
-165.352533
 20
12.11944
 10
-165.344744
 20
12.101558
 10
-165.336833
 20
12.083728
 10
-165.328801
 20
12.065953
 10
-165.320649
 20
12.048233
 10
-165.312426
 20
12.030674
 10
-165.304085
 20
12.013171
 10
-165.295626
 20
11.995724
 10
-165.287051
 20
11.978334
 10
-165.278359
 20
11.961002
 10
-165.269609
 20
11.943842
 10
-165.260745
 20
11.92674
 10
-165.251768
 20
11.909698
 10
-165.242678
 20
11.892715
 10
-165.233476
 20
11.875793
 10
-165.224229
 20
11.859053
 10
-165.214872
 20
11.842374
 10
-165.205407
 20
11.825757
 10
-165.195833
 20
11.809202
 10
-165.186151
 20
11.792709
 10
-165.176438
 20
11.776408
 10
-165.166621
 20
11.76017
 10
-165.156699
 20
11.743995
 10
-165.146674
 20
11.727885
 10
-165.136545
 20
11.711839
 10
-165.1264
 20
11.695993
 10
-165.116154
 20
11.680212
 10
-165.105809
 20
11.664496
 10
-165.095365
 20
11.648846
 10
-165.084822
 20
11.633262
 10
-165.074278
 20
11.617884
 10
-165.063638
 20
11.602573
 10
-165.052903
 20
11.587328
 10
-165.042074
 20
11.57215
 10
-165.031151
 20
11.557039
 10
-165.020242
 20
11.542142
 10
-165.009242
 20
11.527311
 10
-164.998152
 20
11.512547
 10
-164.986972
 20
11.497852
 10
-164.975703
 20
11.483224
 10
-164.964463
 20
11.468813
 10
-164.953137
 20
11.45447
 10
-164.941725
 20
11.440195
 10
-164.930229
 20
11.425988
 10
-164.918649
 20
11.411849
 10
-164.907112
 20
11.39793
 10
-164.895494
 20
11.384079
 10
-164.883795
 20
11.370296
 10
-164.872016
 20
11.356581
 10
-164.860158
 20
11.342935
 10
-164.848357
 20
11.32951
 10
-164.83648
 20
11.316153
 10
-164.824527
 20
11.302863
 10
-164.812498
 20
11.289641
 10
-164.800396
 20
11.276487
 10
-164.788362
 20
11.263555
 10
-164.776258
 20
11.250689
 10
-164.764082
 20
11.23789
 10
-164.751836
 20
11.225159
 10
-164.73952
 20
11.212495
 10
-164.727285
 20
11.200051
 10
-164.714984
 20
11.187673
 10
-164.702616
 20
11.175361
 10
-164.690182
 20
11.163115
 10
-164.677683
 20
11.150936
 10
-164.665275
 20
11.138972
 10
-164.652804
 20
11.127074
 10
-164.640272
 20
11.11524
 10
-164.627678
 20
11.103472
 10
-164.615024
 20
11.091769
 10
-164.602469
 20
11.080277
 10
-164.589856
 20
11.068848
 10
-164.577185
 20
11.057483
 10
-164.564458
 20
11.046183
 10
-164.551674
 20
11.034946
 10
-164.538995
 20
11.023912
 10
-164.526262
 20
11.012941
 10
-164.513476
 20
11.002032
 10
-164.500637
 20
10.991186
 10
-164.487745
 20
10.980402
 10
-164.474964
 20
10.969813
 10
-164.462133
 20
10.959286
 10
-164.449252
 20
10.948819
 10
-164.436322
 20
10.938412
 10
-164.423344
 20
10.928067
 10
-164.410478
 20
10.917907
 10
-164.397566
 20
10.907807
 10
-164.384608
 20
10.897766
 10
-164.371604
 20
10.887783
 10
-164.358556
 20
10.877859
 10
-164.34562
 20
10.868112
 10
-164.332642
 20
10.858422
 10
-164.319621
 20
10.848788
 10
-164.306558
 20
10.839212
 10
-164.293453
 20
10.829692
 10
-164.280461
 20
10.820339
 10
-164.267428
 20
10.81104
 10
-164.254357
 20
10.801797
 10
-164.241247
 20
10.792609
 10
-164.228098
 20
10.783476
 10
-164.215057
 20
10.774497
 10
-164.20198
 20
10.765571
 10
-164.188866
 20
10.756699
 10
-164.175716
 20
10.747879
 10
-164.162531
 20
10.739113
 10
-164.149449
 20
10.73049
 10
-164.136333
 20
10.721918
 10
-164.123184
 20
10.713397
 10
-164.110002
 20
10.704927
 10
-164.096787
 20
10.696508
 10
-164.083669
 20
10.688221
 10
-164.070519
 20
10.679983
 10
-164.057339
 20
10.671795
 10
-164.044128
 20
10.663655
 10
-164.030887
 20
10.655565
 10
-164.017734
 20
10.647595
 10
-164.004552
 20
10.639673
 10
-163.991341
 20
10.631798
 10
-163.978102
 20
10.62397
 10
-163.964836
 20
10.616189
 10
-163.951649
 20
10.608517
 10
-163.938436
 20
10.600891
 10
-163.925196
 20
10.59331
 10
-163.911931
 20
10.585775
 10
-163.898639
 20
10.578285
 10
-163.885417
 20
10.570893
 10
-163.872171
 20
10.563545
 10
-163.8589
 20
10.556241
 10
-163.845605
 20
10.548981
 10
-163.832287
 20
10.541765
 10
-163.819027
 20
10.534635
 10
-163.805744
 20
10.527549
 10
-163.792438
 20
10.520504
 10
-163.779111
 20
10.513502
 10
-163.765761
 20
10.506541
 10
-163.75246
 20
10.499657
 10
-163.739137
 20
10.492815
 10
-163.725794
 20
10.486013
 10
-163.71243
 20
10.479251
 10
-163.699046
 20
10.472529
 10
-163.682359
 20
10.464219
 10
-163.665641
 20
10.455969
 10
-163.648893
 20
10.447781
 10
-163.632115
 20
10.439654
 10
-163.615363
 20
10.431613
 10
-163.598583
 20
10.423631
 10
-163.581774
 20
10.415707
 10
-163.564939
 20
10.407842
 10
-163.548115
 20
10.400053
 10
-163.531264
 20
10.39232
 10
-163.514388
 20
10.384644
 10
-163.497487
 20
10.377024
 10
-163.480583
 20
10.369469
 10
-163.463655
 20
10.36197
 10
-163.446703
 20
10.354524
 10
-163.429727
 20
10.347133
 10
-163.412736
 20
10.339799
 10
-163.395722
 20
10.332519
 10
-163.378685
 20
10.325291
 10
-163.361627
 20
10.318115
 10
-163.344539
 20
10.310989
 10
-163.32743
 20
10.303914
 10
-163.3103
 20
10.296889
 10
-163.29315
 20
10.289915
 10
-163.275958
 20
10.282982
 10
-163.258746
 20
10.276098
 10
-163.241514
 20
10.269264
 10
-163.224263
 20
10.262478
 10
-163.206958
 20
10.255726
 10
-163.189635
 20
10.249023
 10
-163.172293
 20
10.242367
 10
-163.154934
 20
10.235758
 10
-163.137508
 20
10.229179
 10
-163.120066
 20
10.222645
 10
-163.102606
 20
10.216159
 10
-163.085129
 20
10.209718
 10
-163.067576
 20
10.2033
 10
-163.050006
 20
10.196928
 10
-163.03242
 20
10.1906
 10
-163.014818
 20
10.184316
 10
-162.997129
 20
10.178051
 10
-162.979424
 20
10.17183
 10
-162.961704
 20
10.165652
 10
-162.943969
 20
10.159516
 10
-162.926136
 20
10.153395
 10
-162.908289
 20
10.147316
 10
-162.890428
 20
10.141279
 10
-162.872553
 20
10.135284
 10
-162.854571
 20
10.129299
 10
-162.836575
 20
10.123356
 10
-162.818566
 20
10.117454
 10
-162.800544
 20
10.111593
 10
-162.782407
 20
10.105739
 10
-162.764257
 20
10.099926
 10
-162.746094
 20
10.094152
 10
-162.727918
 20
10.088418
 10
-162.709619
 20
10.082688
 10
-162.691308
 20
10.076998
 10
-162.672984
 20
10.071346
 10
-162.654649
 20
10.065733
 10
-162.636183
 20
10.060121
 10
-162.617704
 20
10.054547
 10
-162.599215
 20
10.049012
 10
-162.580714
 20
10.043513
 10
-162.562075
 20
10.038015
 10
-162.543425
 20
10.032553
 10
-162.524765
 20
10.027129
 10
-162.506093
 20
10.021741
 10
-162.487278
 20
10.016352
 10
-162.468452
 20
10.010998
 10
-162.449616
 20
10.005681
 10
-162.43077
 20
10.0004
 10
-162.411773
 20
9.995115
 10
-162.392767
 20
9.989866
 10
-162.373751
 20
9.984652
 10
-162.354725
 20
9.979473
 10
-162.335544
 20
9.974289
 10
-162.316353
 20
9.96914
 10
-162.297152
 20
9.964025
 10
-162.277943
 20
9.958944
 10
-162.258573
 20
9.953858
 10
-162.239194
 20
9.948805
 10
-162.219806
 20
9.943786
 10
-162.20041
 20
9.9388
 10
-162.180848
 20
9.933808
 10
-162.161279
 20
9.92885
 10
-162.1417
 20
9.923924
 10
-162.122114
 20
9.919031
 10
-162.102359
 20
9.914131
 10
-162.082596
 20
9.909264
 10
-162.062824
 20
9.904429
 10
-162.043045
 20
9.899626
 10
-162.023093
 20
9.894815
 10
-162.003134
 20
9.890036
 10
-161.983167
 20
9.885289
 10
-161.963192
 20
9.880573
 10
-161.943042
 20
9.87585
 10
-161.922885
 20
9.871157
 10
-161.90272
 20
9.866496
 10
-161.882548
 20
9.861866
 10
-161.862198
 20
9.857227
 10
-161.841841
 20
9.85262
 10
-161.821477
 20
9.848043
 10
-161.801106
 20
9.843496
 10
-161.780554
 20
9.838941
 10
-161.759997
 20
9.834417
 10
-161.739432
 20
9.829922
 10
-161.718861
 20
9.825458
 10
-161.698107
 20
9.820985
 10
-161.677347
 20
9.816542
 10
-161.656581
 20
9.812128
 10
-161.635808
 20
9.807744
 10
-161.614852
 20
9.803351
 10
-161.593889
 20
9.798988
 10
-161.57292
 20
9.794654
 10
-161.551945
 20
9.790349
 10
-161.530785
 20
9.786036
 10
-161.509619
 20
9.781752
 10
-161.488447
 20
9.777497
 10
-161.46727
 20
9.77327
 10
-161.445907
 20
9.769035
 10
-161.424537
 20
9.764829
 10
-161.403163
 20
9.760651
 10
-161.381783
 20
9.756501
 10
-161.360216
 20
9.752344
 10
-161.338643
 20
9.748215
 10
-161.317066
 20
9.744113
 10
-161.295483
 20
9.740039
 10
-161.273712
 20
9.735959
 10
-161.251937
 20
9.731906
 10
-161.230157
 20
9.72788
 10
-161.208371
 20
9.723882
 10
-161.186399
 20
9.719877
 10
-161.164421
 20
9.7159
 10
-161.142439
 20
9.711949
 10
-161.120452
 20
9.708026
 10
-161.098278
 20
9.704096
 10
-161.076099
 20
9.700194
 10
-161.053915
 20
9.696318
 10
-161.031727
 20
9.692469
 10
-161.009352
 20
9.688614
 10
-160.986973
 20
9.684786
 10
-160.964589
 20
9.680985
 10
-160.942201
 20
9.677209
 10
-160.919627
 20
9.673429
 10
-160.897048
 20
9.669675
 10
-160.874466
 20
9.665947
 10
-160.851879
 20
9.662245
 10
-160.829107
 20
9.658539
 10
-160.806331
 20
9.654859
 10
-160.78355
 20
9.651204
 10
-160.760766
 20
9.647575
 10
-160.737798
 20
9.643943
 10
-160.714826
 20
9.640336
 10
-160.69185
 20
9.636755
 10
-160.66887
 20
9.633198
 10
-160.645707
 20
9.62964
 10
-160.622541
 20
9.626106
 10
-160.599371
 20
9.622598
 10
-160.576197
 20
9.619114
 10
-160.552842
 20
9.615629
 10
-160.529484
 20
9.612169
 10
-160.506121
 20
9.608733
 10
-160.482756
 20
9.605322
 10
-160.459211
 20
9.60191
 10
-160.435662
 20
9.598523
 10
-160.41211
 20
9.59516
 10
-160.388555
 20
9.591822
 10
-160.364822
 20
9.588483
 10
-160.341086
 20
9.585168
 10
-160.317347
 20
9.581878
 10
-160.293604
 20
9.578612
 10
-160.269686
 20
9.575347
 10
-160.245764
 20
9.572105
 10
-160.22184
 20
9.568888
 10
-160.197912
 20
9.565694
 10
-160.173811
 20
9.562502
 10
-160.149708
 20
9.559333
 10
-160.125601
 20
9.556189
 10
-160.101491
 20
9.553068
 10
-160.07721
 20
9.549948
 10
-160.052927
 20
9.546853
 10
-160.02864
 20
9.543781
 10
-160.004351
 20
9.540732
 10
-159.979894
 20
9.537687
 10
-159.955433
 20
9.534664
 10
-159.93097
 20
9.531665
 10
-159.906504
 20
9.528689
 10
-159.881873
 20
9.525717
 10
-159.857239
 20
9.522768
 10
-159.832602
 20
9.519841
 10
-159.807963
 20
9.516938
 10
-159.783161
 20
9.514039
 10
-159.758357
 20
9.511163
 10
-159.73355
 20
9.50831
 10
-159.70874
 20
9.50548
 10
-159.683771
 20
9.502655
 10
-159.658799
 20
9.499853
 10
-159.633825
 20
9.497073
 10
-159.608848
 20
9.494316
 10
-159.583715
 20
9.491564
 10
-159.558579
 20
9.488835
 10
-159.533441
 20
9.486129
 10
-159.508301
 20
9.483445
 10
-159.483007
 20
9.480768
 10
-159.457712
 20
9.478113
 10
-159.432414
 20
9.47548
 10
-159.407113
 20
9.472869
 10
-159.381663
 20
9.470266
 10
-159.356211
 20
9.467685
 10
-159.330756
 20
9.465126
 10
-159.305299
 20
9.462589
 10
-159.279696
 20
9.46006
 10
-159.254091
 20
9.457553
 10
-159.228483
 20
9.455068
 10
-159.202874
 20
9.452605
 10
-159.177121
 20
9.450151
 10
-159.151367
 20
9.447718
 10
-159.12561
 20
9.445308
 10
-159.099852
 20
9.442919
 10
-159.073955
 20
9.440539
 10
-159.048055
 20
9.438181
 10
-159.022154
 20
9.435845
 10
-158.99625
 20
9.43353
 10
-158.970212
 20
9.431226
 10
-158.944171
 20
9.428942
 10
-158.918129
 20
9.426681
 10
-158.892084
 20
9.424441
 10
-158.865908
 20
9.422211
 10
-158.839731
 20
9.420003
 10
-158.813551
 20
9.417816
 10
-158.78737
 20
9.415651
 10
-158.761062
 20
9.413497
 10
-158.734751
 20
9.411364
 10
-158.708439
 20
9.409252
 10
-158.682125
 20
9.407162
 10
-158.655688
 20
9.405083
 10
-158.629249
 20
9.403026
 10
-158.602808
 20
9.40099
 10
-158.576366
 20
9.398975
 10
-158.549804
 20
9.396972
 10
-158.523241
 20
9.39499
 10
-158.496676
 20
9.39303
 10
-158.47011
 20
9.39109
 10
-158.443428
 20
9.389163
 10
-158.416745
 20
9.387257
 10
-158.390061
 20
9.385373
 10
-158.363375
 20
9.383509
 10
-158.336578
 20
9.381658
 10
-158.30978
 20
9.379829
 10
-158.28298
 20
9.37802
 10
-158.256179
 20
9.376232
 10
-158.229271
 20
9.374458
 10
-158.202361
 20
9.372704
 10
-158.175451
 20
9.370972
 10
-158.148539
 20
9.36926
 10
-158.121525
 20
9.367563
 10
-158.094509
 20
9.365886
 10
-158.067493
 20
9.36423
 10
-158.040475
 20
9.362595
 10
-158.013359
 20
9.360974
 10
-157.986242
 20
9.359374
 10
-157.959123
 20
9.357795
 10
-157.932004
 20
9.356236
 10
-157.904791
 20
9.354692
 10
-157.877577
 20
9.353169
 10
-157.850362
 20
9.351667
 10
-157.823146
 20
9.350185
 10
-157.795841
 20
9.348719
 10
-157.768535
 20
9.347273
 10
-157.741228
 20
9.345848
 10
-157.71392
 20
9.344443
 10
-157.686527
 20
9.343054
 10
-157.659134
 20
9.341685
 10
-157.63174
 20
9.340337
 10
-157.604344
 20
9.33901
 10
-157.576869
 20
9.337698
 10
-157.549393
 20
9.336408
 10
-157.521917
 20
9.335137
 10
-157.494439
 20
9.333887
 10
-157.466886
 20
9.332653
 10
-157.439333
 20
9.33144
 10
-157.411779
 20
9.330247
 10
-157.384223
 20
9.329074
 10
-157.356598
 20
9.327919
 10
-157.328972
 20
9.326784
 10
-157.301345
 20
9.325669
 10
-157.273717
 20
9.324574
 10
-157.246024
 20
9.323496
 10
-157.218331
 20
9.322439
 10
-157.190636
 20
9.321402
 10
-157.162941
 20
9.320385
 10
-157.135185
 20
9.319386
 10
-157.107428
 20
9.318407
 10
-157.079671
 20
9.317448
 10
-157.051913
 20
9.316509
 10
-157.0241
 20
9.315588
 10
-156.996286
 20
9.314688
 10
-156.968471
 20
9.313807
 10
-156.940655
 20
9.312946
 10
-156.912789
 20
9.312104
 10
-156.884922
 20
9.311282
 10
-156.857055
 20
9.31048
 10
-156.829187
 20
9.309697
 10
-156.801273
 20
9.308934
 10
-156.773359
 20
9.30819
 10
-156.745444
 20
9.307466
 10
-156.717529
 20
9.306763
 10
-156.689573
 20
9.306078
 10
-156.661616
 20
9.305413
 10
-156.633659
 20
9.304768
 10
-156.605701
 20
9.304142
 10
-156.577708
 20
9.303536
 10
-156.549714
 20
9.30295
 10
-156.521719
 20
9.302384
 10
-156.493724
 20
9.301837
 10
-156.465699
 20
9.30131
 10
-156.437672
 20
9.300803
 10
-156.409646
 20
9.300315
 10
-156.381619
 20
9.299848
 10
-156.353566
 20
9.299399
 10
-156.325513
 20
9.298971
 10
-156.29746
 20
9.298563
 10
-156.269406
 20
9.298174
 10
-156.241331
 20
9.297805
 10
-156.213256
 20
9.297455
 10
-156.185181
 20
9.297126
 10
-156.157106
 20
9.296816
 10
-156.129014
 20
9.296526
 10
-156.100923
 20
9.296255
 10
-156.072831
 20
9.296005
 10
-156.044739
 20
9.295774
 10
-156.016636
 20
9.295563
 10
-155.988533
 20
9.295372
 10
-155.96043
 20
9.2952
 10
-155.932327
 20
9.295048
 10
-155.904218
 20
9.294916
 10
-155.876108
 20
9.294804
 10
-155.847999
 20
9.294712
 10
-155.81989
 20
9.294639
 10
-155.791779
 20
9.294587
 10
-155.763669
 20
9.294553
 10
-155.735559
 20
9.29454
 10
-155.707449
 20
9.294547
 10
-155.679342
 20
9.294573
 10
-155.651236
 20
9.294619
 10
-155.62313
 20
9.294685
 10
-155.595024
 20
9.294771
 10
-155.566927
 20
9.294876
 10
-155.53883
 20
9.295001
 10
-155.510734
 20
9.295146
 10
-155.482637
 20
9.295311
 10
-155.454555
 20
9.295496
 10
-155.426473
 20
9.2957
 10
-155.398391
 20
9.295924
 10
-155.370309
 20
9.296168
 10
-155.342245
 20
9.296431
 10
-155.314182
 20
9.296714
 10
-155.28612
 20
9.297017
 10
-155.258059
 20
9.297341
 10
-155.230025
 20
9.297686
 10
-155.201991
 20
9.298051
 10
-155.173953
 20
9.298433
 10
-155.14591
 20
9.298831
 10
-155.117889
 20
9.299243
 10
-155.08987
 20
9.299676
 10
-155.061863
 20
9.300138
 10
-155.033881
 20
9.300636
 10
-155.005958
 20
9.301171
 10
-154.978028
 20
9.301722
 10
-154.950054
 20
9.30226
 10
-154.921993
 20
9.302757
 10
-154.893876
 20
9.303206
 10
-154.865784
 20
9.303691
 10
-154.837864
 20
9.304318
 10
-154.810266
 20
9.305193
 10
-154.780246
 20
9.306554
 10
-154.750802
 20
9.308344
 10
-154.721929
 20
9.310562
  0
LWPOLYLINE
  5
5EC
100
AcDbEntity
  8
3
370
    50
100
AcDbPolyline
 90
      900
 70
     0
 10
-154.810266
 20
9.305193
 10
-154.787885
 20
9.305803
 10
-154.765558
 20
9.306361
 10
-154.743268
 20
9.306889
 10
-154.720995
 20
9.30741
 10
-154.698722
 20
9.307945
 10
-154.676472
 20
9.30851
 10
-154.654208
 20
9.309105
 10
-154.631934
 20
9.309724
 10
-154.609657
 20
9.310361
 10
-154.58738
 20
9.311011
 10
-154.56515
 20
9.311667
 10
-154.542924
 20
9.312332
 10
-154.520702
 20
9.313006
 10
-154.498481
 20
9.313692
 10
-154.47626
 20
9.314391
 10
-154.454086
 20
9.315102
 10
-154.43191
 20
9.315828
 10
-154.409735
 20
9.316567
 10
-154.387559
 20
9.317319
 10
-154.365384
 20
9.318085
 10
-154.34326
 20
9.318861
 10
-154.321137
 20
9.319649
 10
-154.299014
 20
9.320451
 10
-154.276892
 20
9.321265
 10
-154.25477
 20
9.322092
 10
-154.232703
 20
9.32293
 10
-154.210637
 20
9.323781
 10
-154.18857
 20
9.324645
 10
-154.166505
 20
9.325522
 10
-154.144439
 20
9.326412
 10
-154.122433
 20
9.327312
 10
-154.100426
 20
9.328225
 10
-154.078421
 20
9.329152
 10
-154.056416
 20
9.330091
 10
-154.034411
 20
9.331043
 10
-154.012469
 20
9.332006
 10
-153.990527
 20
9.332982
 10
-153.968586
 20
9.33397
 10
-153.946645
 20
9.334972
 10
-153.924705
 20
9.335987
 10
-153.902831
 20
9.337011
 10
-153.880957
 20
9.338049
 10
-153.859085
 20
9.3391
 10
-153.837212
 20
9.340164
 10
-153.815341
 20
9.341241
 10
-153.793539
 20
9.342327
 10
-153.771737
 20
9.343427
 10
-153.749936
 20
9.34454
 10
-153.728136
 20
9.345666
 10
-153.706337
 20
9.346805
 10
-153.684611
 20
9.347953
 10
-153.662885
 20
9.349115
 10
-153.641161
 20
9.350289
 10
-153.619437
 20
9.351477
 10
-153.597713
 20
9.352678
 10
-153.576067
 20
9.353888
 10
-153.554421
 20
9.355112
 10
-153.532776
 20
9.356348
 10
-153.511132
 20
9.357598
 10
-153.489489
 20
9.35886
 10
-153.467926
 20
9.360132
 10
-153.446363
 20
9.361417
 10
-153.424802
 20
9.362715
 10
-153.403241
 20
9.364026
 10
-153.381681
 20
9.36535
 10
-153.360205
 20
9.366683
 10
-153.33873
 20
9.368029
 10
-153.317256
 20
9.369389
 10
-153.295783
 20
9.370761
 10
-153.27431
 20
9.372147
 10
-153.252925
 20
9.373541
 10
-153.231541
 20
9.374949
 10
-153.210157
 20
9.376369
 10
-153.188775
 20
9.377803
 10
-153.167393
 20
9.379251
 10
-153.146102
 20
9.380706
 10
-153.124812
 20
9.382174
 10
-153.103523
 20
9.383656
 10
-153.082235
 20
9.385151
 10
-153.060948
 20
9.38666
 10
-153.039755
 20
9.388175
 10
-153.018563
 20
9.389704
 10
-152.997372
 20
9.391247
 10
-152.976182
 20
9.392803
 10
-152.954993
 20
9.394373
 10
-152.933901
 20
9.395949
 10
-152.912811
 20
9.397539
 10
-152.891721
 20
9.399142
 10
-152.870632
 20
9.400759
 10
-152.849545
 20
9.40239
 10
-152.828558
 20
9.404027
 10
-152.807572
 20
9.405677
 10
-152.786588
 20
9.407341
 10
-152.765604
 20
9.409018
 10
-152.744621
 20
9.41071
 10
-152.723743
 20
9.412407
 10
-152.702865
 20
9.414117
 10
-152.681989
 20
9.415842
 10
-152.661113
 20
9.41758
 10
-152.640239
 20
9.419332
 10
-152.619472
 20
9.421089
 10
-152.598706
 20
9.42286
 10
-152.577941
 20
9.424644
 10
-152.557177
 20
9.426443
 10
-152.536415
 20
9.428255
 10
-152.515762
 20
9.430072
 10
-152.495111
 20
9.431903
 10
-152.474461
 20
9.433747
 10
-152.453812
 20
9.435606
 10
-152.433164
 20
9.437479
 10
-152.41263
 20
9.439355
 10
-152.392096
 20
9.441246
 10
-152.371564
 20
9.44315
 10
-152.351033
 20
9.445069
 10
-152.330504
 20
9.447002
 10
-152.31009
 20
9.448938
 10
-152.289677
 20
9.450888
 10
-152.269266
 20
9.452852
 10
-152.248856
 20
9.454831
 10
-152.228448
 20
9.456824
 10
-152.208158
 20
9.458819
 10
-152.18787
 20
9.460829
 10
-152.167583
 20
9.462853
 10
-152.147297
 20
9.464891
 10
-152.127013
 20
9.466944
 10
-152.10685
 20
9.468998
 10
-152.086688
 20
9.471067
 10
-152.066528
 20
9.473151
 10
-152.04637
 20
9.475249
 10
-152.026213
 20
9.477361
 10
-152.006179
 20
9.479475
 10
-151.986148
 20
9.481603
 10
-151.966117
 20
9.483746
 10
-151.946089
 20
9.485903
 10
-151.926062
 20
9.488075
 10
-151.906161
 20
9.490248
 10
-151.886262
 20
9.492435
 10
-151.866364
 20
9.494637
 10
-151.846468
 20
9.496853
 10
-151.826574
 20
9.499085
 10
-151.806809
 20
9.501316
 10
-151.787045
 20
9.503563
 10
-151.767282
 20
9.505824
 10
-151.747522
 20
9.508099
 10
-151.727763
 20
9.51039
 10
-151.708135
 20
9.51268
 10
-151.688509
 20
9.514985
 10
-151.668884
 20
9.517305
 10
-151.649262
 20
9.51964
 10
-151.629641
 20
9.52199
 10
-151.610153
 20
9.524339
 10
-151.590667
 20
9.526703
 10
-151.571183
 20
9.529082
 10
-151.551701
 20
9.531476
 10
-151.532221
 20
9.533885
 10
-151.512876
 20
9.536292
 10
-151.493533
 20
9.538715
 10
-151.474191
 20
9.541152
 10
-151.454852
 20
9.543605
 10
-151.435514
 20
9.546074
 10
-151.416314
 20
9.54854
 10
-151.397116
 20
9.551021
 10
-151.37792
 20
9.553517
 10
-151.358725
 20
9.556029
 10
-151.339533
 20
9.558556
 10
-151.32048
 20
9.561081
 10
-151.301429
 20
9.563621
 10
-151.282379
 20
9.566176
 10
-151.263332
 20
9.568747
 10
-151.244287
 20
9.571333
 10
-151.225383
 20
9.573916
 10
-151.206481
 20
9.576514
 10
-151.187581
 20
9.579128
 10
-151.168684
 20
9.581758
 10
-151.149788
 20
9.584404
 10
-151.131035
 20
9.587045
 10
-151.112284
 20
9.589702
 10
-151.093535
 20
9.592375
 10
-151.074788
 20
9.595064
 10
-151.056044
 20
9.597768
 10
-151.037443
 20
9.600468
 10
-151.018845
 20
9.603184
 10
-151.000249
 20
9.605916
 10
-150.981656
 20
9.608664
 10
-150.963065
 20
9.611427
 10
-150.944618
 20
9.614186
 10
-150.926175
 20
9.616961
 10
-150.907733
 20
9.619751
 10
-150.889295
 20
9.622558
 10
-150.870858
 20
9.625381
 10
-150.852568
 20
9.628199
 10
-150.83428
 20
9.631032
 10
-150.815995
 20
9.633882
 10
-150.797712
 20
9.636749
 10
-150.779432
 20
9.639631
 10
-150.761299
 20
9.642508
 10
-150.743168
 20
9.6454
 10
-150.72504
 20
9.64831
 10
-150.706915
 20
9.651235
 10
-150.688793
 20
9.654178
 10
-150.670818
 20
9.657113
 10
-150.652846
 20
9.660066
 10
-150.634877
 20
9.663034
 10
-150.616911
 20
9.66602
 10
-150.598947
 20
9.669022
 10
-150.581132
 20
9.672017
 10
-150.56332
 20
9.675029
 10
-150.54551
 20
9.678058
 10
-150.527704
 20
9.681103
 10
-150.5099
 20
9.684166
 10
-150.492245
 20
9.687221
 10
-150.474593
 20
9.690293
 10
-150.456945
 20
9.693382
 10
-150.439299
 20
9.696488
 10
-150.421656
 20
9.699612
 10
-150.404162
 20
9.702727
 10
-150.386671
 20
9.705859
 10
-150.369184
 20
9.709008
 10
-150.351699
 20
9.712176
 10
-150.334218
 20
9.71536
 10
-150.316886
 20
9.718536
 10
-150.299557
 20
9.721729
 10
-150.282231
 20
9.72494
 10
-150.264909
 20
9.728169
 10
-150.24759
 20
9.731415
 10
-150.23042
 20
9.734652
 10
-150.213253
 20
9.737906
 10
-150.196089
 20
9.741179
 10
-150.178929
 20
9.74447
 10
-150.161773
 20
9.747778
 10
-150.144764
 20
9.751077
 10
-150.127759
 20
9.754394
 10
-150.110758
 20
9.757729
 10
-150.09376
 20
9.761083
 10
-150.076766
 20
9.764455
 10
-150.05992
 20
9.767816
 10
-150.043077
 20
9.771196
 10
-150.026238
 20
9.774594
 10
-150.009403
 20
9.778011
 10
-149.992572
 20
9.781447
 10
-149.975887
 20
9.784872
 10
-149.959206
 20
9.788315
 10
-149.942529
 20
9.791778
 10
-149.925856
 20
9.795259
 10
-149.909187
 20
9.79876
 10
-149.892664
 20
9.802249
 10
-149.876144
 20
9.805758
 10
-149.859629
 20
9.809285
 10
-149.843117
 20
9.812832
 10
-149.82661
 20
9.816398
 10
-149.810247
 20
9.819954
 10
-149.793888
 20
9.823528
 10
-149.777533
 20
9.827122
 10
-149.761182
 20
9.830736
 10
-149.744836
 20
9.834369
 10
-149.728632
 20
9.837991
 10
-149.712433
 20
9.841633
 10
-149.696238
 20
9.845294
 10
-149.680047
 20
9.848976
 10
-149.663861
 20
9.852677
 10
-149.647815
 20
9.856368
 10
-149.631774
 20
9.860078
 10
-149.615738
 20
9.863808
 10
-149.599706
 20
9.867559
 10
-149.583679
 20
9.871331
 10
-149.56779
 20
9.875091
 10
-149.551905
 20
9.878872
 10
-149.536025
 20
9.882673
 10
-149.520151
 20
9.886495
 10
-149.504281
 20
9.890338
 10
-149.488546
 20
9.89417
 10
-149.472817
 20
9.898023
 10
-149.457092
 20
9.901897
 10
-149.441373
 20
9.905792
 10
-149.425659
 20
9.909708
 10
-149.410077
 20
9.913614
 10
-149.3945
 20
9.917541
 10
-149.378929
 20
9.921489
 10
-149.363363
 20
9.925459
 10
-149.347803
 20
9.92945
 10
-149.332371
 20
9.933432
 10
-149.316945
 20
9.937435
 10
-149.301524
 20
9.941461
 10
-149.28611
 20
9.945508
 10
-149.270701
 20
9.949577
 10
-149.255416
 20
9.953637
 10
-149.240138
 20
9.95772
 10
-149.224865
 20
9.961824
 10
-149.209598
 20
9.965951
 10
-149.194338
 20
9.970101
 10
-149.179198
 20
9.974243
 10
-149.164064
 20
9.978407
 10
-149.148936
 20
9.982594
 10
-149.133815
 20
9.986804
 10
-149.1187
 20
9.991037
 10
-149.103701
 20
9.995262
 10
-149.088709
 20
9.999511
 10
-149.073723
 20
10.003783
 10
-149.058744
 20
10.008078
 10
-149.043772
 20
10.012398
 10
-149.02891
 20
10.016711
 10
-149.014055
 20
10.021047
 10
-148.999208
 20
10.025408
 10
-148.984367
 20
10.029793
 10
-148.969534
 20
10.034202
 10
-148.954805
 20
10.038607
 10
-148.940084
 20
10.043036
 10
-148.92537
 20
10.04749
 10
-148.910664
 20
10.051968
 10
-148.895965
 20
10.056472
 10
-148.881365
 20
10.060972
 10
-148.866773
 20
10.065497
 10
-148.852189
 20
10.070048
 10
-148.837613
 20
10.074624
 10
-148.823045
 20
10.079226
 10
-148.808569
 20
10.083826
 10
-148.794102
 20
10.088452
 10
-148.779643
 20
10.093104
 10
-148.765192
 20
10.097781
 10
-148.75075
 20
10.102486
 10
-148.736394
 20
10.107191
 10
-148.722046
 20
10.111923
 10
-148.707708
 20
10.116681
 10
-148.693378
 20
10.121466
 10
-148.679057
 20
10.126279
 10
-148.664814
 20
10.131095
 10
-148.65058
 20
10.135939
 10
-148.636356
 20
10.14081
 10
-148.622141
 20
10.145708
 10
-148.607935
 20
10.150635
 10
-148.5938
 20
10.155569
 10
-148.579674
 20
10.160531
 10
-148.565559
 20
10.165521
 10
-148.551453
 20
10.170539
 10
-148.537358
 20
10.175586
 10
-148.523324
 20
10.180643
 10
-148.509301
 20
10.185729
 10
-148.495288
 20
10.190844
 10
-148.481286
 20
10.195989
 10
-148.467295
 20
10.201162
 10
-148.453357
 20
10.20635
 10
-148.43943
 20
10.211567
 10
-148.425514
 20
10.216815
 10
-148.41161
 20
10.222092
 10
-148.397718
 20
10.227401
 10
-148.383868
 20
10.232728
 10
-148.370031
 20
10.238086
 10
-148.356205
 20
10.243475
 10
-148.342392
 20
10.248895
 10
-148.328591
 20
10.254347
 10
-148.314823
 20
10.259823
 10
-148.301068
 20
10.265331
 10
-148.287327
 20
10.270871
 10
-148.273598
 20
10.276443
 10
-148.259882
 20
10.282049
 10
-148.246189
 20
10.287683
 10
-148.23251
 20
10.29335
 10
-148.218845
 20
10.29905
 10
-148.205194
 20
10.304784
 10
-148.191557
 20
10.310551
 10
-148.177932
 20
10.316353
 10
-148.164322
 20
10.322188
 10
-148.150727
 20
10.328058
 10
-148.137147
 20
10.333963
 10
-148.123582
 20
10.339903
 10
-148.110018
 20
10.345883
 10
-148.09647
 20
10.3519
 10
-148.082938
 20
10.357952
 10
-148.069422
 20
10.36404
 10
-148.055923
 20
10.370164
 10
-148.042414
 20
10.376337
 10
-148.028921
 20
10.382547
 10
-148.015446
 20
10.388794
 10
-148.001988
 20
10.395078
 10
-147.988548
 20
10.4014
 10
-147.975087
 20
10.407779
 10
-147.961643
 20
10.414195
 10
-147.948218
 20
10.42065
 10
-147.934812
 20
10.427144
 10
-147.921424
 20
10.433677
 10
-147.908004
 20
10.440274
 10
-147.894603
 20
10.446911
 10
-147.881222
 20
10.453588
 10
-147.867861
 20
10.460305
 10
-147.85452
 20
10.467062
 10
-147.841135
 20
10.473894
 10
-147.827772
 20
10.480767
 10
-147.81443
 20
10.487682
 10
-147.80111
 20
10.494638
 10
-147.787812
 20
10.501637
 10
-147.774459
 20
10.508719
 10
-147.761128
 20
10.515845
 10
-147.747821
 20
10.523013
 10
-147.734537
 20
10.530226
 10
-147.721278
 20
10.537481
 10
-147.707951
 20
10.544831
 10
-147.69465
 20
10.552225
 10
-147.681373
 20
10.559665
 10
-147.668122
 20
10.567149
 10
-147.654896
 20
10.574679
 10
-147.641595
 20
10.582313
 10
-147.62832
 20
10.589994
 10
-147.615072
 20
10.597722
 10
-147.601853
 20
10.605497
 10
-147.58866
 20
10.613319
 10
-147.575383
 20
10.621257
 10
-147.562135
 20
10.629243
 10
-147.548916
 20
10.637278
 10
-147.535727
 20
10.645362
 10
-147.522568
 20
10.653495
 10
-147.509315
 20
10.661755
 10
-147.496093
 20
10.670065
 10
-147.482903
 20
10.678426
 10
-147.469746
 20
10.686838
 10
-147.456621
 20
10.695301
 10
-147.443395
 20
10.703902
 10
-147.430203
 20
10.712556
 10
-147.417046
 20
10.721262
 10
-147.403924
 20
10.730021
 10
-147.390838
 20
10.738833
 10
-147.377645
 20
10.747795
 10
-147.364489
 20
10.756811
 10
-147.351371
 20
10.765882
 10
-147.33829
 20
10.775008
 10
-147.325248
 20
10.784188
 10
-147.312094
 20
10.79353
 10
-147.298981
 20
10.802929
 10
-147.285908
 20
10.812383
 10
-147.272877
 20
10.821895
 10
-147.259886
 20
10.831463
 10
-147.246784
 20
10.841203
 10
-147.233724
 20
10.851002
 10
-147.220709
 20
10.860859
 10
-147.207738
 20
10.870774
 10
-147.194812
 20
10.880748
 10
-147.181773
 20
10.890905
 10
-147.168781
 20
10.901122
 10
-147.155836
 20
10.911399
 10
-147.142939
 20
10.921737
 10
-147.130091
 20
10.932135
 10
-147.117131
 20
10.942725
 10
-147.104221
 20
10.953377
 10
-147.091363
 20
10.964091
 10
-147.078557
 20
10.974867
 10
-147.065804
 20
10.985705
 10
-147.052943
 20
10.996744
 10
-147.040136
 20
11.007846
 10
-147.027385
 20
11.019011
 10
-147.01469
 20
11.030241
 10
-147.002051
 20
11.041534
 10
-146.98931
 20
11.053035
 10
-146.976628
 20
11.064601
 10
-146.964005
 20
11.076232
 10
-146.951443
 20
11.087928
 10
-146.938941
 20
11.099689
 10
-146.926345
 20
11.111663
 10
-146.913812
 20
11.123704
 10
-146.901343
 20
11.135811
 10
-146.888939
 20
11.147984
 10
-146.8766
 20
11.160223
 10
-146.864176
 20
11.17268
 10
-146.85182
 20
11.185205
 10
-146.839532
 20
11.197797
 10
-146.827313
 20
11.210456
 10
-146.815164
 20
11.223182
 10
-146.802941
 20
11.236129
 10
-146.790791
 20
11.249143
 10
-146.778713
 20
11.262226
 10
-146.76671
 20
11.275376
 10
-146.754781
 20
11.288594
 10
-146.74279
 20
11.302033
 10
-146.730877
 20
11.315541
 10
-146.719041
 20
11.329117
 10
-146.707285
 20
11.342762
 10
-146.695607
 20
11.356474
 10
-146.683881
 20
11.370407
 10
-146.672237
 20
11.384409
 10
-146.660676
 20
11.398479
 10
-146.649199
 20
11.412618
 10
-146.637805
 20
11.426824
 10
-146.626377
 20
11.441248
 10
-146.615037
 20
11.455741
 10
-146.603784
 20
11.470303
 10
-146.59262
 20
11.484932
 10
-146.581544
 20
11.499628
 10
-146.570449
 20
11.514539
 10
-146.559446
 20
11.529518
 10
-146.548535
 20
11.544565
 10
-146.537718
 20
11.559678
 10
-146.526994
 20
11.574858
 10
-146.516266
 20
11.590247
 10
-146.505634
 20
11.605703
 10
-146.4951
 20
11.621226
 10
-146.484664
 20
11.636814
 10
-146.474327
 20
11.652468
 10
-146.463999
 20
11.668325
 10
-146.453774
 20
11.684247
 10
-146.44365
 20
11.700234
 10
-146.433629
 20
11.716286
 10
-146.423712
 20
11.732402
 10
-146.413819
 20
11.748712
 10
-146.404033
 20
11.765085
 10
-146.394353
 20
11.781522
 10
-146.38478
 20
11.798022
 10
-146.375316
 20
11.814584
 10
-146.365891
 20
11.831331
 10
-146.356576
 20
11.848139
 10
-146.347373
 20
11.865009
 10
-146.338281
 20
11.88194
 10
-146.329301
 20
11.89893
 10
-146.320375
 20
11.916096
 10
-146.311563
 20
11.933321
 10
-146.302866
 20
11.950604
 10
-146.294286
 20
11.967945
 10
-146.285822
 20
11.985344
 10
-146.277424
 20
12.002908
 10
-146.269145
 20
12.020528
 10
-146.260985
 20
12.038204
 10
-146.252946
 20
12.055934
 10
-146.245027
 20
12.073719
 10
-146.237185
 20
12.091658
 10
-146.229467
 20
12.109649
 10
-146.221871
 20
12.127693
 10
-146.2144
 20
12.145789
 10
-146.207053
 20
12.163935
 10
-146.199794
 20
12.182223
 10
-146.192663
 20
12.20056
 10
-146.185658
 20
12.218947
 10
-146.178781
 20
12.237381
 10
-146.172032
 20
12.255863
 10
-146.16374
 20
12.279133
 10
-146.155651
 20
12.302475
 10
-146.147765
 20
12.325887
 10
-146.140084
 20
12.349366
 10
-146.13258
 20
12.373004
 10
-146.125283
 20
12.396707
 10
-146.118196
 20
12.420474
 10
-146.111317
 20
12.444302
 10
-146.104626
 20
12.468271
 10
-146.098148
 20
12.492298
 10
-146.091882
 20
12.516382
 10
-146.08583
 20
12.54052
 10
-146.079974
 20
12.564782
 10
-146.074335
 20
12.589095
 10
-146.068912
 20
12.613457
 10
-146.063706
 20
12.637866
 10
-146.058706
 20
12.662381
 10
-146.053925
 20
12.686939
 10
-146.049364
 20
12.711539
 10
-146.045023
 20
12.736179
 10
-146.040895
 20
12.760906
 10
-146.036988
 20
12.785669
 10
-146.033303
 20
12.810466
 10
-146.029842
 20
12.835295
 10
-146.026598
 20
12.860193
 10
-146.023579
 20
12.885119
 10
-146.020784
 20
12.910071
 10
-146.018214
 20
12.935048
 10
-146.015866
 20
12.960074
 10
-146.013744
 20
12.98512
 10
-146.011848
 20
13.010185
 10
-146.010178
 20
13.035266
 10
-146.008733
 20
13.060378
 10
-146.007515
 20
13.085502
 10
-146.006524
 20
13.110637
 10
-146.00576
 20
13.135779
 10
-146.005223
 20
13.160934
 10
-146.004913
 20
13.186092
 10
-146.00483
 20
13.211253
 10
-146.004975
 20
13.236413
 10
-146.005347
 20
13.261568
 10
-146.005946
 20
13.286718
 10
-146.006772
 20
13.311861
 10
-146.007825
 20
13.336996
 10
-146.009104
 20
13.362107
 10
-146.01061
 20
13.387205
 10
-146.012342
 20
13.412288
 10
-146.014301
 20
13.437355
 10
-146.016482
 20
13.462379
 10
-146.01889
 20
13.487382
 10
-146.021522
 20
13.512362
 10
-146.024379
 20
13.537317
 10
-146.027456
 20
13.562211
 10
-146.030757
 20
13.587076
 10
-146.034281
 20
13.61191
 10
-146.038027
 20
13.636712
 10
-146.041989
 20
13.661434
 10
-146.046171
 20
13.686119
 10
-146.050574
 20
13.710766
 10
-146.055198
 20
13.735372
 10
-146.06003
 20
13.759879
 10
-146.06508
 20
13.784343
 10
-146.070349
 20
13.808761
 10
-146.075834
 20
13.83313
 10
-146.08152
 20
13.857383
 10
-146.087421
 20
13.881585
 10
-146.093536
 20
13.905733
 10
-146.099864
 20
13.929826
 10
-146.106385
 20
13.953785
 10
-146.113116
 20
13.977685
 10
-146.120058
 20
14.001524
 10
-146.127209
 20
14.025302
 10
-146.13454
 20
14.048928
 10
-146.142079
 20
14.072488
 10
-146.149823
 20
14.095982
 10
-146.157772
 20
14.119407
 10
-146.16589
 20
14.142662
 10
-146.174209
 20
14.165846
 10
-146.18273
 20
14.188956
 10
-146.19145
 20
14.211993
 10
-146.200326
 20
14.234842
 10
-146.209399
 20
14.257615
 10
-146.218666
 20
14.280309
 10
-146.228128
 20
14.302922
 10
-146.237731
 20
14.325333
 10
-146.247525
 20
14.347661
 10
-146.257509
 20
14.369905
 10
-146.26768
 20
14.392063
 10
-146.277977
 20
14.414004
 10
-146.288459
 20
14.435857
 10
-146.299123
 20
14.457621
 10
-146.30997
 20
14.479295
 10
-146.320926
 20
14.500736
 10
-146.332059
 20
14.522085
 10
-146.343368
 20
14.543342
 10
-146.354854
 20
14.564503
 10
-146.36643
 20
14.585419
 10
-146.378177
 20
14.606239
 10
-146.390093
 20
14.626962
 10
-146.402179
 20
14.647587
 10
-146.414336
 20
14.667954
 10
-146.426656
 20
14.688222
 10
-146.43914
 20
14.70839
 10
-146.451785
 20
14.728457
 10
-146.464482
 20
14.748254
 10
-146.477336
 20
14.76795
 10
-146.490345
 20
14.787544
 10
-146.503508
 20
14.807034
 10
-146.516703
 20
14.826246
 10
-146.530048
 20
14.845354
 10
-146.54354
 20
14.864358
 10
-146.557179
 20
14.883257
 10
-146.57083
 20
14.901868
 10
-146.584622
 20
14.920375
 10
-146.598555
 20
14.938776
 10
-146.612627
 20
14.957072
 10
-146.626691
 20
14.975074
 10
-146.640889
 20
14.992972
 10
-146.655219
 20
15.010763
 10
-146.669682
 20
15.028447
 10
-146.684116
 20
15.045834
 10
-146.698676
 20
15.063116
 10
-146.713362
 20
15.080291
 10
-146.728172
 20
15.09736
 10
-146.742936
 20
15.11413
 10
-146.757818
 20
15.130796
 10
-146.772819
 20
15.147355
 10
-146.787935
 20
15.163808
 10
-146.802988
 20
15.179963
 10
-146.818152
 20
15.196013
 10
-146.833427
 20
15.211959
 10
-146.84881
 20
15.227799
 10
-146.864115
 20
15.243344
 10
-146.879523
 20
15.258786
 10
-146.895035
 20
15.274124
 10
-146.910648
 20
15.289359
 10
-146.926168
 20
15.304303
 10
-146.941785
 20
15.319146
 10
-146.957498
 20
15.333886
 10
-146.973307
 20
15.348525
 10
-146.98901
 20
15.36288
 10
-147.004803
 20
15.377136
 10
-147.020686
 20
15.391292
 10
-147.036658
 20
15.405348
 10
-147.052515
 20
15.41913
 10
-147.068456
 20
15.432815
 10
-147.08448
 20
15.446402
 10
-147.100586
 20
15.459892
 10
-147.11657
 20
15.473118
 10
-147.132632
 20
15.486249
 10
-147.148772
 20
15.499285
 10
-147.164987
 20
15.512227
 10
-147.181077
 20
15.524916
 10
-147.197239
 20
15.537514
 10
-147.213472
 20
15.55002
 10
-147.229776
 20
15.562434
 10
-147.245952
 20
15.574609
 10
-147.262195
 20
15.586695
 10
-147.278503
 20
15.598692
 10
-147.294877
 20
15.6106
 10
-147.311124
 20
15.622284
 10
-147.327434
 20
15.633881
 10
-147.343804
 20
15.645392
 10
-147.360234
 20
15.656817
 10
-147.376541
 20
15.668032
 10
-147.392905
 20
15.679164
 10
-147.409325
 20
15.690213
 10
-147.425801
 20
15.70118
 10
-147.442158
 20
15.711951
 10
-147.458568
 20
15.722642
 10
-147.47503
 20
15.733253
 10
-147.491543
 20
15.743784
 10
-147.507947
 20
15.754136
 10
-147.524399
 20
15.764409
 10
-147.540899
 20
15.774606
 10
-147.557446
 20
15.784727
 10
-147.573891
 20
15.794682
 10
-147.590382
 20
15.804563
 10
-147.606917
 20
15.81437
 10
-147.623495
 20
15.824103
 10
-147.639983
 20
15.833686
 10
-147.656512
 20
15.843198
 10
-147.673081
 20
15.852638
 10
-147.689691
 20
15.862007
 10
-147.706223
 20
15.87124
 10
-147.722793
 20
15.880404
 10
-147.739401
 20
15.889499
 10
-147.756046
 20
15.898527
 10
-147.772624
 20
15.907432
 10
-147.789238
 20
15.916271
 10
-147.805887
 20
15.925044
 10
-147.82257
 20
15.933751
 10
-147.8392
 20
15.94235
 10
-147.855863
 20
15.950884
 10
-147.872558
 20
15.959355
 10
-147.889285
 20
15.967763
 10
-147.905972
 20
15.976073
 10
-147.922691
 20
15.984322
 10
-147.939439
 20
15.992509
 10
-147.956217
 20
16.000637
 10
-147.972969
 20
16.008678
 10
-147.989749
 20
16.01666
 10
-148.006558
 20
16.024583
 10
-148.023393
 20
16.032449
 10
-148.040217
 20
16.040239
 10
-148.057067
 20
16.047972
 10
-148.073943
 20
16.055649
 10
-148.090844
 20
16.063269
 10
-148.107748
 20
16.070823
 10
-148.124676
 20
16.078323
 10
-148.141628
 20
16.085767
 10
-148.158604
 20
16.093157
 10
-148.175595
 20
16.100491
 10
-148.19261
 20
16.107771
 10
-148.209646
 20
16.114998
 10
-148.226705
 20
16.122174
 10
-148.243793
 20
16.129301
 10
-148.260902
 20
16.136377
 10
-148.278032
 20
16.143402
 10
-148.295182
 20
16.150377
 10
-148.312374
 20
16.15731
 10
-148.329586
 20
16.164194
 10
-148.346818
 20
16.171029
 10
-148.364069
 20
16.177815
 10
-148.381373
 20
16.184566
 10
-148.398696
 20
16.191269
 10
-148.416038
 20
16.197924
 10
-148.433398
 20
16.204532
 10
-148.450823
 20
16.211111
 10
-148.468265
 20
16.217644
 10
-148.485725
 20
16.22413
 10
-148.503202
 20
16.230571
 10
-148.520756
 20
16.236989
 10
-148.538326
 20
16.243362
 10
-148.555912
 20
16.24969
 10
-148.573514
 20
16.255974
 10
-148.591204
 20
16.26224
 10
-148.608909
 20
16.268462
 10
-148.626629
 20
16.274641
 10
-148.644364
 20
16.280777
 10
-148.662196
 20
16.286898
 10
-148.680043
 20
16.292977
 10
-148.697904
 20
16.299013
 10
-148.715779
 20
16.305008
 10
-148.733761
 20
16.310992
 10
-148.751756
 20
16.316934
 10
-148.769765
 20
16.322835
 10
-148.787787
 20
16.328696
 10
-148.805924
 20
16.33455
 10
-148.824074
 20
16.340363
 10
-148.842238
 20
16.346137
 10
-148.860413
 20
16.351871
 10
-148.878713
 20
16.357601
 10
-148.897025
 20
16.363292
 10
-148.915348
 20
16.368945
 10
-148.933684
 20
16.374559
 10
-148.952151
 20
16.380171
 10
-148.970629
 20
16.385744
 10
-148.989118
 20
16.39128
 10
-149.007619
 20
16.396778
 10
-149.026258
 20
16.402277
 10
-149.044907
 20
16.407738
 10
-149.063568
 20
16.413162
 10
-149.082238
 20
16.418549
 10
-149.101054
 20
16.423938
 10
-149.11988
 20
16.429291
 10
-149.138716
 20
16.434608
 10
-149.157562
 20
16.439889
 10
-149.176558
 20
16.445174
 10
-149.195565
 20
16.450424
 10
-149.214581
 20
16.455638
 10
-149.233607
 20
16.460817
 10
-149.252789
 20
16.466001
 10
-149.27198
 20
16.471151
 10
-149.291181
 20
16.476266
 10
-149.31039
 20
16.481347
 10
-149.32976
 20
16.486433
 10
-149.349139
 20
16.491486
 10
-149.368527
 20
16.496505
 10
-149.387923
 20
16.50149
 10
-149.407484
 20
16.506482
 10
-149.427054
 20
16.51144
 10
-149.446632
 20
16.516366
 10
-149.466218
 20
16.521258
 10
-149.485973
 20
16.526159
 10
-149.505737
 20
16.531026
 10
-149.525508
 20
16.535861
 10
-149.545288
 20
16.540665
 10
-149.565239
 20
16.545475
 10
-149.585199
 20
16.550254
 10
-149.605166
 20
16.555002
 10
-149.625141
 20
16.559717
 10
-149.645291
 20
16.564441
 10
-149.665449
 20
16.569133
 10
-149.685613
 20
16.573794
 10
-149.705785
 20
16.578424
 10
-149.726135
 20
16.583063
 10
-149.746492
 20
16.58767
 10
-149.766856
 20
16.592247
 10
-149.787227
 20
16.596794
 10
-149.807778
 20
16.601348
 10
-149.828336
 20
16.605873
 10
-149.848901
 20
16.610368
 10
-149.869472
 20
16.614832
 10
-149.890226
 20
16.619305
 10
-149.910986
 20
16.623749
 10
-149.931753
 20
16.628162
 10
-149.952525
 20
16.632546
 10
-149.973482
 20
16.636939
 10
-149.994445
 20
16.641302
 10
-150.015413
 20
16.645636
 10
-150.036388
 20
16.649941
 10
-150.057548
 20
16.654254
 10
-150.078714
 20
16.658538
 10
-150.099886
 20
16.662793
 10
-150.121063
 20
16.66702
 10
-150.142426
 20
16.671255
 10
-150.163796
 20
16.675461
 10
-150.185171
 20
16.679639
 10
-150.206551
 20
16.683789
 10
-150.228118
 20
16.687946
 10
-150.24969
 20
16.692075
 10
-150.271268
 20
16.696177
 10
-150.292851
 20
16.700251
 10
-150.314621
 20
16.704331
 10
-150.336396
 20
16.708384
 10
-150.358177
 20
16.71241
 10
-150.379962
 20
16.716408
 10
-150.401935
 20
16.720413
 10
-150.423912
 20
16.72439
 10
-150.445894
 20
16.72834
 10
-150.467881
 20
16.732264
 10
-150.490056
 20
16.736193
 10
-150.512235
 20
16.740096
 10
-150.534418
 20
16.743972
 10
-150.556607
 20
16.747821
 10
-150.578982
 20
16.751676
 10
-150.601361
 20
16.755504
 10
-150.623745
 20
16.759305
 10
-150.646133
 20
16.763081
 10
-150.668707
 20
16.766861
 10
-150.691285
 20
16.770614
 10
-150.713868
 20
16.774342
 10
-150.736455
 20
16.778045
 10
-150.759227
 20
16.781752
 10
-150.782003
 20
16.785432
 10
-150.804783
 20
16.789087
 10
-150.827568
 20
16.792715
 10
-150.850536
 20
16.796344
 10
-150.873509
 20
16.799949
 10
-150.896485
 20
16.80353
 10
-150.919464
 20
16.807091
 10
-150.942626
 20
16.81066
 10
-150.965791
 20
16.814202
 10
-150.988961
 20
16.81771
 10
-151.012137
 20
16.821175
 10
-151.035496
 20
16.824622
 10
-151.058858
 20
16.828049
 10
-151.08222
 20
16.831487
 10
-151.105578
 20
16.834967
 10
-151.129108
 20
16.838524
 10
-151.152642
 20
16.842038
 10
-151.176195
 20
16.845391
 10
-151.199779
 20
16.848468
 10
-151.26741
 20
16.855149
 10
-151.335374
 20
16.858657
 10
-151.403649
 20
16.859043
 10
-151.472212
 20
16.856359
 10
-151.541038
 20
16.850655
  0
LWPOLYLINE
  5
972
100
AcDbEntity
  8
3
370
    50
100
AcDbPolyline
 90
      716
 70
     0
 10
-151.199779
 20
16.848468
 10
-151.210397
 20
16.849958
 10
-151.220987
 20
16.851442
 10
-151.231554
 20
16.85292
 10
-151.263163
 20
16.857321
 10
-151.273684
 20
16.858778
 10
-151.284205
 20
16.86023
 10
-151.294731
 20
16.861677
 10
-151.305342
 20
16.863131
 10
-151.315961
 20
16.86458
 10
-151.326587
 20
16.866024
 10
-151.358495
 20
16.870331
 10
-151.369137
 20
16.871757
 10
-151.37978
 20
16.873179
 10
-151.390422
 20
16.874595
 10
-151.401138
 20
16.876017
 10
-151.411853
 20
16.877434
 10
-151.422567
 20
16.878847
 10
-151.454704
 20
16.883055
 10
-151.465417
 20
16.884449
 10
-151.47613
 20
16.885838
 10
-151.486844
 20
16.887222
 10
-151.497633
 20
16.888611
 10
-151.508424
 20
16.889996
 10
-151.519216
 20
16.891375
 10
-151.551597
 20
16.895487
 10
-151.562392
 20
16.896848
 10
-151.573187
 20
16.898205
 10
-151.583984
 20
16.899557
 10
-151.594854
 20
16.900914
 10
-151.605724
 20
16.902266
 10
-151.616595
 20
16.903613
 10
-151.64921
 20
16.907627
 10
-151.660083
 20
16.908956
 10
-151.670956
 20
16.91028
 10
-151.68183
 20
16.9116
 10
-151.692777
 20
16.912924
 10
-151.703724
 20
16.914244
 10
-151.714672
 20
16.915558
 10
-151.74752
 20
16.919475
 10
-151.75847
 20
16.920772
 10
-151.76942
 20
16.922064
 10
-151.780372
 20
16.923351
 10
-151.791394
 20
16.924642
 10
-151.802418
 20
16.925929
 10
-151.813441
 20
16.927211
 10
-151.846516
 20
16.93103
 10
-151.857542
 20
16.932294
 10
-151.868568
 20
16.933554
 10
-151.879595
 20
16.934809
 10
-151.890692
 20
16.936068
 10
-151.90179
 20
16.937322
 10
-151.912888
 20
16.938571
 10
-151.946185
 20
16.942292
 10
-151.957285
 20
16.943524
 10
-151.968386
 20
16.944751
 10
-151.979487
 20
16.945974
 10
-151.990657
 20
16.947199
 10
-152.001827
 20
16.948421
 10
-152.012998
 20
16.949637
 10
-152.046514
 20
16.953261
 10
-152.057687
 20
16.95446
 10
-152.06886
 20
16.955654
 10
-152.080034
 20
16.956844
 10
-152.091275
 20
16.958037
 10
-152.102517
 20
16.959225
 10
-152.113759
 20
16.960409
 10
-152.147488
 20
16.963934
 10
-152.158732
 20
16.965101
 10
-152.169977
 20
16.966262
 10
-152.181222
 20
16.96742
 10
-152.192533
 20
16.96858
 10
-152.203844
 20
16.969735
 10
-152.215156
 20
16.970886
 10
-152.249094
 20
16.974313
 10
-152.260408
 20
16.975446
 10
-152.271722
 20
16.976575
 10
-152.283036
 20
16.9777
 10
-152.294415
 20
16.978827
 10
-152.305794
 20
16.979949
 10
-152.317174
 20
16.981067
 10
-152.351316
 20
16.984395
 10
-152.362697
 20
16.985496
 10
-152.374079
 20
16.986592
 10
-152.385462
 20
16.987684
 10
-152.396907
 20
16.988777
 10
-152.408352
 20
16.989867
 10
-152.419798
 20
16.990952
 10
-152.454139
 20
16.99418
 10
-152.465586
 20
16.995248
 10
-152.477035
 20
16.996311
 10
-152.488483
 20
16.99737
 10
-152.499993
 20
16.998431
 10
-152.511503
 20
16.999487
 10
-152.523013
 20
17.000538
 10
-152.557547
 20
17.003668
 10
-152.56906
 20
17.004702
 10
-152.580572
 20
17.005733
 10
-152.592085
 20
17.006759
 10
-152.603657
 20
17.007786
 10
-152.61523
 20
17.008809
 10
-152.626804
 20
17.009827
 10
-152.661526
 20
17.012857
 10
-152.6731
 20
17.013858
 10
-152.684676
 20
17.014855
 10
-152.696251
 20
17.015848
 10
-152.707885
 20
17.016842
 10
-152.719518
 20
17.017831
 10
-152.731153
 20
17.018816
 10
-152.766057
 20
17.021746
 10
-152.777693
 20
17.022714
 10
-152.789329
 20
17.023678
 10
-152.800965
 20
17.024638
 10
-152.812658
 20
17.025598
 10
-152.82435
 20
17.026554
 10
-152.836044
 20
17.027506
 10
-152.871125
 20
17.030335
 10
-152.88282
 20
17.03127
 10
-152.894515
 20
17.032201
 10
-152.90621
 20
17.033127
 10
-152.91796
 20
17.034053
 10
-152.92971
 20
17.034976
 10
-152.94146
 20
17.035894
 10
-152.976713
 20
17.038623
 10
-152.988465
 20
17.039524
 10
-153.000217
 20
17.040421
 10
-153.011969
 20
17.041314
 10
-153.023774
 20
17.042207
 10
-153.03558
 20
17.043096
 10
-153.047385
 20
17.04398
 10
-153.082804
 20
17.046608
 10
-153.094611
 20
17.047476
 10
-153.106418
 20
17.04834
 10
-153.118225
 20
17.049199
 10
-153.130084
 20
17.050058
 10
-153.141942
 20
17.050913
 10
-153.153801
 20
17.051763
 10
-153.18938
 20
17.05429
 10
-153.20124
 20
17.055124
 10
-153.2131
 20
17.055954
 10
-153.224961
 20
17.05678
 10
-153.23687
 20
17.057605
 10
-153.24878
 20
17.058426
 10
-153.26069
 20
17.059243
 10
-153.296422
 20
17.061669
 10
-153.308334
 20
17.062469
 10
-153.320245
 20
17.063265
 10
-153.332157
 20
17.064057
 10
-153.344116
 20
17.064848
 10
-153.356075
 20
17.065635
 10
-153.368035
 20
17.066418
 10
-153.403914
 20
17.068742
 10
-153.415875
 20
17.069508
 10
-153.427836
 20
17.070271
 10
-153.439797
 20
17.071029
 10
-153.451803
 20
17.071786
 10
-153.463809
 20
17.072539
 10
-153.475816
 20
17.073287
 10
-153.511837
 20
17.075509
 10
-153.523845
 20
17.076242
 10
-153.535853
 20
17.07697
 10
-153.547861
 20
17.077694
 10
-153.559912
 20
17.078417
 10
-153.571964
 20
17.079136
 10
-153.584016
 20
17.079851
 10
-153.620173
 20
17.08197
 10
-153.632225
 20
17.082668
 10
-153.644278
 20
17.083363
 10
-153.656332
 20
17.084053
 10
-153.665402
 20
17.08457
 10
-153.674473
 20
17.085084
 10
-153.683544
 20
17.085596
 10
-153.710758
 20
17.087119
 10
-153.737973
 20
17.088622
 10
-153.747045
 20
17.089118
 10
-153.756118
 20
17.089612
 10
-153.76519
 20
17.090104
 10
-153.774291
 20
17.090595
 10
-153.783393
 20
17.091084
 10
-153.792495
 20
17.09157
 10
-153.819801
 20
17.093016
 10
-153.847108
 20
17.094441
 10
-153.85621
 20
17.094912
 10
-153.865313
 20
17.09538
 10
-153.874416
 20
17.095846
 10
-153.883547
 20
17.096311
 10
-153.892677
 20
17.096774
 10
-153.901808
 20
17.097235
 10
-153.929202
 20
17.098603
 10
-153.956596
 20
17.099951
 10
-153.965728
 20
17.100396
 10
-153.97486
 20
17.100839
 10
-153.983992
 20
17.101279
 10
-153.99315
 20
17.101718
 10
-154.002308
 20
17.102156
 10
-154.011466
 20
17.10259
 10
-154.038942
 20
17.103881
 10
-154.066419
 20
17.105152
 10
-154.075578
 20
17.105571
 10
-154.084738
 20
17.105988
 10
-154.093897
 20
17.106402
 10
-154.103081
 20
17.106815
 10
-154.112265
 20
17.107227
 10
-154.121449
 20
17.107635
 10
-154.149003
 20
17.108849
 10
-154.176557
 20
17.110041
 10
-154.185742
 20
17.110435
 10
-154.194927
 20
17.110826
 10
-154.204112
 20
17.111214
 10
-154.213321
 20
17.111602
 10
-154.222529
 20
17.111987
 10
-154.231738
 20
17.11237
 10
-154.259364
 20
17.113505
 10
-154.286991
 20
17.11462
 10
-154.2962
 20
17.114987
 10
-154.305409
 20
17.115352
 10
-154.314618
 20
17.115715
 10
-154.323849
 20
17.116076
 10
-154.33308
 20
17.116435
 10
-154.342311
 20
17.116792
 10
-154.370005
 20
17.117849
 10
-154.3977
 20
17.118887
 10
-154.406932
 20
17.119228
 10
-154.416163
 20
17.119567
 10
-154.425395
 20
17.119904
 10
-154.434647
 20
17.120239
 10
-154.443899
 20
17.120572
 10
-154.453151
 20
17.120903
 10
-154.480907
 20
17.121882
 10
-154.508665
 20
17.122841
 10
-154.517917
 20
17.123156
 10
-154.52717
 20
17.123469
 10
-154.536423
 20
17.123779
 10
-154.545694
 20
17.124089
 10
-154.554965
 20
17.124396
 10
-154.564236
 20
17.1247
 10
-154.59205
 20
17.125601
 10
-154.619865
 20
17.126482
 10
-154.629137
 20
17.126771
 10
-154.638409
 20
17.127058
 10
-154.64768
 20
17.127342
 10
-154.656969
 20
17.127625
 10
-154.666258
 20
17.127906
 10
-154.675547
 20
17.128184
 10
-154.703413
 20
17.129007
 10
-154.731281
 20
17.129809
 10
-154.74057
 20
17.130072
 10
-154.749859
 20
17.130333
 10
-154.759149
 20
17.130591
 10
-154.768453
 20
17.130848
 10
-154.777758
 20
17.131102
 10
-154.787062
 20
17.131355
 10
-154.814977
 20
17.132098
 10
-154.842892
 20
17.132822
 10
-154.852197
 20
17.133059
 10
-154.861502
 20
17.133294
 10
-154.870807
 20
17.133526
 10
-154.880126
 20
17.133756
 10
-154.889444
 20
17.133985
 10
-154.898763
 20
17.134211
 10
-154.92672
 20
17.134876
 10
-154.954677
 20
17.135521
 10
-154.963996
 20
17.135731
 10
-154.973315
 20
17.13594
 10
-154.982635
 20
17.136146
 10
-154.991966
 20
17.13635
 10
-155.001297
 20
17.136552
 10
-155.010628
 20
17.136752
 10
-155.038622
 20
17.137338
 10
-155.066617
 20
17.137905
 10
-155.075948
 20
17.138089
 10
-155.08528
 20
17.138271
 10
-155.094612
 20
17.138451
 10
-155.103953
 20
17.138629
 10
-155.113295
 20
17.138805
 10
-155.122637
 20
17.138978
 10
-155.150664
 20
17.139486
 10
-155.17869
 20
17.139973
 10
-155.188032
 20
17.140131
 10
-155.197375
 20
17.140287
 10
-155.206717
 20
17.140441
 10
-155.216068
 20
17.140592
 10
-155.225419
 20
17.140742
 10
-155.23477
 20
17.140889
 10
-155.262823
 20
17.141317
 10
-155.290876
 20
17.141726
 10
-155.300228
 20
17.141858
 10
-155.309579
 20
17.141987
 10
-155.31893
 20
17.142115
 10
-155.328288
 20
17.14224
 10
-155.337646
 20
17.142363
 10
-155.347005
 20
17.142484
 10
-155.37508
 20
17.142833
 10
-155.403155
 20
17.143163
 10
-155.412513
 20
17.143268
 10
-155.421872
 20
17.143372
 10
-155.43123
 20
17.143473
 10
-155.440594
 20
17.143572
 10
-155.449958
 20
17.143668
 10
-155.459322
 20
17.143763
 10
-155.487413
 20
17.144033
 10
-155.515505
 20
17.144284
 10
-155.524869
 20
17.144363
 10
-155.534233
 20
17.14444
 10
-155.543597
 20
17.144514
 10
-155.552965
 20
17.144587
 10
-155.562332
 20
17.144657
 10
-155.5717
 20
17.144725
 10
-155.599803
 20
17.144917
 10
-155.627906
 20
17.145088
 10
-155.637274
 20
17.145141
 10
-155.646641
 20
17.145192
 10
-155.656009
 20
17.14524
 10
-155.665379
 20
17.145286
 10
-155.674749
 20
17.14533
 10
-155.684118
 20
17.145372
 10
-155.712228
 20
17.145484
 10
-155.740337
 20
17.145576
 10
-155.749707
 20
17.145603
 10
-155.759077
 20
17.145627
 10
-155.768446
 20
17.145649
 10
-155.777816
 20
17.145669
 10
-155.787186
 20
17.145686
 10
-155.796557
 20
17.145702
 10
-155.824667
 20
17.145735
 10
-155.852777
 20
17.145748
 10
-155.862147
 20
17.145748
 10
-155.871517
 20
17.145746
 10
-155.880887
 20
17.145741
 10
-155.890256
 20
17.145735
 10
-155.899625
 20
17.145726
 10
-155.908994
 20
17.145715
 10
-155.9371
 20
17.145669
 10
-155.965206
 20
17.145603
 10
-155.974575
 20
17.145577
 10
-155.983943
 20
17.145548
 10
-155.993312
 20
17.145517
 10
-156.002677
 20
17.145485
 10
-156.012043
 20
17.145449
 10
-156.021409
 20
17.145412
 10
-156.049505
 20
17.145287
 10
-156.077602
 20
17.145142
 10
-156.086968
 20
17.145089
 10
-156.096333
 20
17.145034
 10
-156.105699
 20
17.144977
 10
-156.115059
 20
17.144918
 10
-156.12442
 20
17.144856
 10
-156.133781
 20
17.144792
 10
-156.161863
 20
17.144588
 10
-156.189945
 20
17.144364
 10
-156.199306
 20
17.144285
 10
-156.208667
 20
17.144204
 10
-156.218027
 20
17.14412
 10
-156.227381
 20
17.144034
 10
-156.236736
 20
17.143946
 10
-156.24609
 20
17.143856
 10
-156.274152
 20
17.143573
 10
-156.302215
 20
17.14327
 10
-156.311569
 20
17.143164
 10
-156.320923
 20
17.143057
 10
-156.330277
 20
17.142947
 10
-156.339623
 20
17.142835
 10
-156.348968
 20
17.142721
 10
-156.358314
 20
17.142604
 10
-156.386352
 20
17.142242
 10
-156.414389
 20
17.141859
 10
-156.423735
 20
17.141728
 10
-156.433081
 20
17.141594
 10
-156.442426
 20
17.141457
 10
-156.451762
 20
17.141319
 10
-156.461098
 20
17.141179
 10
-156.470434
 20
17.141036
 10
-156.498441
 20
17.140594
 10
-156.526449
 20
17.140133
 10
-156.535784
 20
17.139975
 10
-156.54512
 20
17.139815
 10
-156.554455
 20
17.139652
 10
-156.56378
 20
17.139487
 10
-156.573104
 20
17.139321
 10
-156.582428
 20
17.139152
 10
-156.6104
 20
17.138631
 10
-156.638372
 20
17.138091
 10
-156.647696
 20
17.137907
 10
-156.65702
 20
17.13772
 10
-156.666343
 20
17.137531
 10
-156.678758
 20
17.137276
 10
-156.691172
 20
17.137017
 10
-156.703586
 20
17.136754
 10
-156.740828
 20
17.135942
 10
-156.753242
 20
17.135664
 10
-156.765656
 20
17.135381
 10
-156.77807
 20
17.135095
 10
-156.790464
 20
17.134805
 10
-156.802858
 20
17.134511
 10
-156.815252
 20
17.134213
 10
-156.852434
 20
17.133296
 10
-156.864827
 20
17.132982
 10
-156.877221
 20
17.132665
 10
-156.889614
 20
17.132343
 10
-156.901986
 20
17.132018
 10
-156.914358
 20
17.13169
 10
-156.926729
 20
17.131357
 10
-156.963843
 20
17.130335
 10
-156.976214
 20
17.129986
 10
-156.988585
 20
17.129634
 10
-157.000956
 20
17.129277
 10
-157.013303
 20
17.128918
 10
-157.02565
 20
17.128554
 10
-157.037997
 20
17.128186
 10
-157.075037
 20
17.127059
 10
-157.087383
 20
17.126676
 10
-157.099729
 20
17.126288
 10
-157.112076
 20
17.125897
 10
-157.124396
 20
17.125502
 10
-157.136716
 20
17.125104
 10
-157.149036
 20
17.124701
 10
-157.185994
 20
17.12347
 10
-157.198314
 20
17.123052
 10
-157.210633
 20
17.122629
 10
-157.222952
 20
17.122203
 10
-157.235243
 20
17.121774
 10
-157.247534
 20
17.12134
 10
-157.259824
 20
17.120903
 10
-157.296696
 20
17.119568
 10
-157.308986
 20
17.119114
 10
-157.321276
 20
17.118657
 10
-157.333566
 20
17.118196
 10
-157.345825
 20
17.117732
 10
-157.358085
 20
17.117264
 10
-157.370344
 20
17.116792
 10
-157.407121
 20
17.115352
 10
-157.41938
 20
17.114864
 10
-157.431638
 20
17.114372
 10
-157.443896
 20
17.113876
 10
-157.456122
 20
17.113378
 10
-157.468348
 20
17.112875
 10
-157.480574
 20
17.112368
 10
-157.51725
 20
17.110824
 10
-157.529475
 20
17.110302
 10
-157.5417
 20
17.109775
 10
-157.553925
 20
17.109244
 10
-157.566115
 20
17.108711
 10
-157.578305
 20
17.108174
 10
-157.590495
 20
17.107633
 10
-157.627064
 20
17.105985
 10
-157.639253
 20
17.105428
 10
-157.651442
 20
17.104866
 10
-157.663631
 20
17.104301
 10
-157.675783
 20
17.103733
 10
-157.687935
 20
17.103162
 10
-157.700087
 20
17.102586
 10
-157.736542
 20
17.100835
 10
-157.748693
 20
17.100243
 10
-157.760844
 20
17.099647
 10
-157.772995
 20
17.099047
 10
-157.785107
 20
17.098445
 10
-157.79722
 20
17.097839
 10
-157.809331
 20
17.097229
 10
-157.845666
 20
17.095374
 10
-157.857777
 20
17.094748
 10
-157.869888
 20
17.094117
 10
-157.881999
 20
17.093483
 10
-157.900104
 20
17.092527
 10
-157.918208
 20
17.091561
 10
-157.936313
 20
17.090587
 10
-157.954416
 20
17.089604
 10
-157.97252
 20
17.088611
 10
-157.990622
 20
17.087609
 10
-158.008661
 20
17.086602
 10
-158.026699
 20
17.085585
 10
-158.044737
 20
17.08456
 10
-158.062774
 20
17.083525
 10
-158.080811
 20
17.08248
 10
-158.098847
 20
17.081427
 10
-158.116816
 20
17.080368
 10
-158.134785
 20
17.079301
 10
-158.152753
 20
17.078224
 10
-158.170721
 20
17.077137
 10
-158.188688
 20
17.076042
 10
-158.206654
 20
17.074937
 10
-158.224551
 20
17.073827
 10
-158.242447
 20
17.072708
 10
-158.260342
 20
17.07158
 10
-158.278237
 20
17.070443
 10
-158.296132
 20
17.069296
 10
-158.314025
 20
17.06814
 10
-158.331846
 20
17.066979
 10
-158.349667
 20
17.065809
 10
-158.367487
 20
17.06463
 10
-158.385306
 20
17.063442
 10
-158.403125
 20
17.062244
 10
-158.420943
 20
17.061037
 10
-158.438685
 20
17.059825
 10
-158.456427
 20
17.058605
 10
-158.474168
 20
17.057374
 10
-158.491908
 20
17.056135
 10
-158.509648
 20
17.054886
 10
-158.527387
 20
17.053628
 10
-158.545048
 20
17.052366
 10
-158.562709
 20
17.051094
 10
-158.580368
 20
17.049814
 10
-158.598027
 20
17.048523
 10
-158.615685
 20
17.047224
 10
-158.633342
 20
17.045915
 10
-158.650919
 20
17.044602
 10
-158.668495
 20
17.04328
 10
-158.68607
 20
17.041949
 10
-158.703644
 20
17.040608
 10
-158.721218
 20
17.039257
 10
-158.73879
 20
17.037898
 10
-158.756279
 20
17.036535
 10
-158.773768
 20
17.035162
 10
-158.791255
 20
17.03378
 10
-158.808742
 20
17.032389
 10
-158.826228
 20
17.030988
 10
-158.843714
 20
17.029578
 10
-158.861113
 20
17.028164
 10
-158.878511
 20
17.026742
 10
-158.895908
 20
17.02531
 10
-158.913305
 20
17.023868
 10
-158.930701
 20
17.022416
 10
-158.948096
 20
17.020956
 10
-158.965402
 20
17.019492
 10
-158.982707
 20
17.01802
 10
-159.000012
 20
17.016537
 10
-159.017315
 20
17.015045
 10
-159.034618
 20
17.013544
 10
-159.05192
 20
17.012032
 10
-159.069131
 20
17.010519
 10
-159.086341
 20
17.008996
 10
-159.103549
 20
17.007464
 10
-159.120757
 20
17.005922
 10
-159.137965
 20
17.00437
 10
-159.155171
 20
17.002809
 10
-159.172283
 20
17.001246
 10
-159.189395
 20
16.999673
 10
-159.206505
 20
16.998091
 10
-159.223615
 20
16.996499
 10
-159.240724
 20
16.994897
 10
-159.257831
 20
16.993285
 10
-159.274843
 20
16.991673
 10
-159.291854
 20
16.990051
 10
-159.308863
 20
16.988419
 10
-159.325872
 20
16.986777
 10
-159.34288
 20
16.985125
 10
-159.359887
 20
16.983463
 10
-159.376795
 20
16.981802
 10
-159.393702
 20
16.98013
 10
-159.410609
 20
16.978448
 10
-159.427514
 20
16.976756
 10
-159.444419
 20
16.975055
 10
-159.461322
 20
16.973343
 10
-159.478125
 20
16.971632
 10
-159.494926
 20
16.969911
 10
-159.511727
 20
16.96818
 10
-159.528526
 20
16.966439
 10
-159.545325
 20
16.964687
 10
-159.562122
 20
16.962926
 10
-159.578817
 20
16.961166
 10
-159.59551
 20
16.959395
 10
-159.612202
 20
16.957615
 10
-159.628894
 20
16.955824
 10
-159.645584
 20
16.954023
 10
-159.662273
 20
16.952212
 10
-159.678857
 20
16.950403
 10
-159.69544
 20
16.948583
 10
-159.712022
 20
16.946753
 10
-159.728603
 20
16.944913
 10
-159.745182
 20
16.943063
 10
-159.761761
 20
16.941202
 10
-159.778232
 20
16.939344
 10
-159.794702
 20
16.937475
 10
-159.811172
 20
16.935596
 10
-159.82764
 20
16.933707
 10
-159.844106
 20
16.931807
 10
-159.860572
 20
16.929897
 10
-159.876929
 20
16.92799
 10
-159.893284
 20
16.926072
 10
-159.909638
 20
16.924144
 10
-159.925991
 20
16.922205
 10
-159.942343
 20
16.920256
 10
-159.958694
 20
16.918297
 10
-159.974933
 20
16.916341
 10
-159.991172
 20
16.914374
 10
-160.007409
 20
16.912397
 10
-160.023645
 20
16.910409
 10
-160.03988
 20
16.908411
 10
-160.056114
 20
16.906402
 10
-160.072235
 20
16.904397
 10
-160.088354
 20
16.902381
 10
-160.104473
 20
16.900355
 10
-160.12059
 20
16.898319
 10
-160.136706
 20
16.896271
 10
-160.15282
 20
16.894213
 10
-160.16882
 20
16.892159
 10
-160.184819
 20
16.890095
 10
-160.200817
 20
16.88802
 10
-160.216813
 20
16.885934
 10
-160.232808
 20
16.883838
 10
-160.248801
 20
16.881731
 10
-160.264679
 20
16.879628
 10
-160.280556
 20
16.877515
 10
-160.296431
 20
16.875391
 10
-160.312304
 20
16.873256
 10
-160.328176
 20
16.87111
 10
-160.344047
 20
16.868954
 10
-160.359801
 20
16.866803
 10
-160.375553
 20
16.86464
 10
-160.391303
 20
16.862468
 10
-160.407053
 20
16.860284
 10
-160.4228
 20
16.858089
 10
-160.438546
 20
16.855883
 10
-160.454174
 20
16.853683
 10
-160.469801
 20
16.851472
 10
-160.485425
 20
16.84925
 10
-160.501049
 20
16.847017
 10
-160.51667
 20
16.844774
 10
-160.53229
 20
16.842519
 10
-160.547791
 20
16.84027
 10
-160.56329
 20
16.83801
 10
-160.578787
 20
16.835739
 10
-160.594282
 20
16.833457
 10
-160.609776
 20
16.831164
 10
-160.625269
 20
16.828859
 10
-160.640641
 20
16.826561
 10
-160.656011
 20
16.824253
 10
-160.671379
 20
16.821933
 10
-160.686746
 20
16.819601
 10
-160.702111
 20
16.817259
 10
-160.717475
 20
16.814905
 10
-160.732717
 20
16.812558
 10
-160.747957
 20
16.8102
 10
-160.763196
 20
16.807831
 10
-160.778433
 20
16.80545
 10
-160.793668
 20
16.803059
 10
-160.808902
 20
16.800655
 10
-160.824013
 20
16.798259
 10
-160.839122
 20
16.795852
 10
-160.85423
 20
16.793434
 10
-160.869336
 20
16.791004
 10
-160.88444
 20
16.788562
 10
-160.899542
 20
16.786109
 10
-160.914521
 20
16.783664
 10
-160.929499
 20
16.781208
 10
-160.944474
 20
16.77874
 10
-160.959448
 20
16.77626
 10
-160.97442
 20
16.773769
 10
-160.989389
 20
16.771266
 10
-161.004236
 20
16.768771
 10
-161.01908
 20
16.766265
 10
-161.033922
 20
16.763747
 10
-161.048763
 20
16.761217
 10
-161.063601
 20
16.758675
 10
-161.078437
 20
16.756122
 10
-161.093149
 20
16.753577
 10
-161.107859
 20
16.751021
 10
-161.122567
 20
16.748452
 10
-161.137273
 20
16.745872
 10
-161.151977
 20
16.74328
 10
-161.166678
 20
16.740675
 10
-161.181255
 20
16.73808
 10
-161.19583
 20
16.735473
 10
-161.210403
 20
16.732854
 10
-161.224974
 20
16.730223
 10
-161.239542
 20
16.727579
 10
-161.254108
 20
16.724924
 10
-161.268551
 20
16.722278
 10
-161.282991
 20
16.71962
 10
-161.297429
 20
16.71695
 10
-161.311865
 20
16.714268
 10
-161.326298
 20
16.711573
 10
-161.34073
 20
16.708866
 10
-161.35504
 20
16.70617
 10
-161.369348
 20
16.703461
 10
-161.383653
 20
16.70074
 10
-161.397955
 20
16.698007
 10
-161.412254
 20
16.695261
 10
-161.42655
 20
16.692504
 10
-161.440725
 20
16.689757
 10
-161.454897
 20
16.686998
 10
-161.469067
 20
16.684226
 10
-161.483236
 20
16.681442
 10
-161.497405
 20
16.678645
 10
-161.511575
 20
16.675835
 10
-161.525627
 20
16.673036
 10
-161.539678
 20
16.670224
 10
-161.553724
 20
16.6674
 10
-161.567762
 20
16.664563
 10
-161.581787
 20
16.661715
 10
-161.595798
 20
16.658855
 10
-161.609671
 20
16.656008
 10
-161.623539
 20
16.653148
 10
-161.637413
 20
16.650274
 10
-161.651306
 20
16.647384
 10
-161.665229
 20
16.644475
 10
-161.679195
 20
16.641547
 10
-161.693081
 20
16.638625
 10
-161.706977
 20
16.635688
 10
-161.720836
 20
16.632741
 10
-161.734613
 20
16.629789
 10
-161.748263
 20
16.626839
 10
-161.761741
 20
16.623896
 10
-161.77501
 20
16.620963
 10
-161.788061
 20
16.618044
 10
-161.800897
 20
16.615136
 10
-161.838109
 20
16.606489
 10
-161.873393
 20
16.597952
 10
-161.906764
 20
16.589526
 10
-161.938238
 20
16.58121
 10
-161.96783
 20
16.573003
 10
-161.995557
 20
16.564906
 10
-162.021432
 20
16.556918
 10
-162.045473
 20
16.549039
 10
-162.053082
 20
16.546436
 10
-162.060489
 20
16.543845
 10
-162.067694
 20
16.541267
  0
LINE
  5
C40
100
AcDbEntity
  8
3
370
    50
100
AcDbLine
 10
-161.491126
 20
11.73847
 30
0.0
 11
-161.234153
 21
11.792871
 31
0.0
  0
LINE
  5
C41
100
AcDbEntity
  8
3
370
    50
100
AcDbLine
 10
-161.234153
 20
11.792871
 30
0.0
 11
-160.963226
 21
11.844647
 31
0.0
  0
LINE
  5
C42
100
AcDbEntity
  8
3
370
    50
100
AcDbLine
 10
-160.963226
 20
11.844647
 30
0.0
 11
-160.679041
 21
11.893664
 31
0.0
  0
LINE
  5
C43
100
AcDbEntity
  8
3
370
    50
100
AcDbLine
 10
-160.679041
 20
11.893664
 30
0.0
 11
-160.382328
 21
11.939799
 31
0.0
  0
LINE
  5
C44
100
AcDbEntity
  8
3
370
    50
100
AcDbLine
 10
-160.382328
 20
11.939799
 30
0.0
 11
-160.073848
 21
11.982931
 31
0.0
  0
LINE
  5
C45
100
AcDbEntity
  8
3
370
    50
100
AcDbLine
 10
-160.073848
 20
11.982931
 30
0.0
 11
-159.754393
 21
12.02295
 31
0.0
  0
LINE
  5
C46
100
AcDbEntity
  8
3
370
    50
100
AcDbLine
 10
-159.754393
 20
12.02295
 30
0.0
 11
-159.424784
 21
12.059754
 31
0.0
  0
LINE
  5
C47
100
AcDbEntity
  8
3
370
    50
100
AcDbLine
 10
-159.424784
 20
12.059754
 30
0.0
 11
-159.085866
 21
12.093248
 31
0.0
  0
LINE
  5
C48
100
AcDbEntity
  8
3
370
    50
100
AcDbLine
 10
-159.085866
 20
12.093248
 30
0.0
 11
-158.738509
 21
12.123346
 31
0.0
  0
LINE
  5
C49
100
AcDbEntity
  8
3
370
    50
100
AcDbLine
 10
-158.738509
 20
12.123346
 30
0.0
 11
-158.383605
 21
12.149971
 31
0.0
  0
LINE
  5
C4A
100
AcDbEntity
  8
3
370
    50
100
AcDbLine
 10
-158.383605
 20
12.149971
 30
0.0
 11
-158.022065
 21
12.173054
 31
0.0
  0
LINE
  5
C4B
100
AcDbEntity
  8
3
370
    50
100
AcDbLine
 10
-158.022065
 20
12.173054
 30
0.0
 11
-157.654817
 21
12.192537
 31
0.0
  0
LINE
  5
C4C
100
AcDbEntity
  8
3
370
    50
100
AcDbLine
 10
-157.654817
 20
12.192537
 30
0.0
 11
-157.282804
 21
12.208368
 31
0.0
  0
LINE
  5
C4D
100
AcDbEntity
  8
3
370
    50
100
AcDbLine
 10
-157.282804
 20
12.208368
 30
0.0
 11
-156.906981
 21
12.220509
 31
0.0
  0
LINE
  5
C4E
100
AcDbEntity
  8
3
370
    50
100
AcDbLine
 10
-156.906981
 20
12.220509
 30
0.0
 11
-156.528312
 21
12.228926
 31
0.0
  0
LINE
  5
C4F
100
AcDbEntity
  8
3
370
    50
100
AcDbLine
 10
-156.528312
 20
12.228926
 30
0.0
 11
-156.14777
 21
12.233599
 31
0.0
  0
LINE
  5
C50
100
AcDbEntity
  8
3
370
    50
100
AcDbLine
 10
-156.14777
 20
12.233599
 30
0.0
 11
-155.766331
 21
12.234516
 31
0.0
  0
LINE
  5
C51
100
AcDbEntity
  8
3
370
    50
100
AcDbLine
 10
-155.766331
 20
12.234516
 30
0.0
 11
-155.384975
 21
12.231675
 31
0.0
  0
LINE
  5
C52
100
AcDbEntity
  8
3
370
    50
100
AcDbLine
 10
-155.384975
 20
12.231675
 30
0.0
 11
-155.00468
 21
12.225082
 31
0.0
  0
LINE
  5
C53
100
AcDbEntity
  8
3
370
    50
100
AcDbLine
 10
-155.00468
 20
12.225082
 30
0.0
 11
-154.626423
 21
12.214755
 31
0.0
  0
LINE
  5
C54
100
AcDbEntity
  8
3
370
    50
100
AcDbLine
 10
-154.626423
 20
12.214755
 30
0.0
 11
-154.251174
 21
12.20072
 31
0.0
  0
LINE
  5
C55
100
AcDbEntity
  8
3
370
    50
100
AcDbLine
 10
-154.251174
 20
12.20072
 30
0.0
 11
-153.879897
 21
12.183013
 31
0.0
  0
LINE
  5
C56
100
AcDbEntity
  8
3
370
    50
100
AcDbLine
 10
-153.879897
 20
12.183013
 30
0.0
 11
-153.513545
 21
12.16168
 31
0.0
  0
LINE
  5
C57
100
AcDbEntity
  8
3
370
    50
100
AcDbLine
 10
-153.513545
 20
12.16168
 30
0.0
 11
-153.153059
 21
12.136775
 31
0.0
  0
LINE
  5
C58
100
AcDbEntity
  8
3
370
    50
100
AcDbLine
 10
-153.153059
 20
12.136775
 30
0.0
 11
-152.799363
 21
12.108362
 31
0.0
  0
LINE
  5
C59
100
AcDbEntity
  8
3
370
    50
100
AcDbLine
 10
-152.799363
 20
12.108362
 30
0.0
 11
-152.453366
 21
12.076515
 31
0.0
  0
LINE
  5
C5A
100
AcDbEntity
  8
3
370
    50
100
AcDbLine
 10
-152.453366
 20
12.076515
 30
0.0
 11
-152.115956
 21
12.041314
 31
0.0
  0
LINE
  5
C5B
100
AcDbEntity
  8
3
370
    50
100
AcDbLine
 10
-152.115956
 20
12.041314
 30
0.0
 11
-151.787999
 21
12.002851
 31
0.0
  0
LINE
  5
C5C
100
AcDbEntity
  8
3
370
    50
100
AcDbLine
 10
-151.787999
 20
12.002851
 30
0.0
 11
-151.470336
 21
11.961224
 31
0.0
  0
LINE
  5
C5D
100
AcDbEntity
  8
3
370
    50
100
AcDbLine
 10
-151.470336
 20
11.961224
 30
0.0
 11
-151.163784
 21
11.91654
 31
0.0
  0
LINE
  5
C5E
100
AcDbEntity
  8
3
370
    50
100
AcDbLine
 10
-151.163784
 20
11.91654
 30
0.0
 11
-150.869129
 21
11.868914
 31
0.0
  0
LINE
  5
C5F
100
AcDbEntity
  8
3
370
    50
100
AcDbLine
 10
-150.869129
 20
11.868914
 30
0.0
 11
-150.587128
 21
11.818468
 31
0.0
  0
LINE
  5
C60
100
AcDbEntity
  8
3
370
    50
100
AcDbLine
 10
-150.587128
 20
11.818468
 30
0.0
 11
-150.318504
 21
11.765331
 31
0.0
  0
LINE
  5
C61
100
AcDbEntity
  8
3
370
    50
100
AcDbLine
 10
-150.318504
 20
11.765331
 30
0.0
 11
-150.063947
 21
11.70964
 31
0.0
  0
LINE
  5
C62
100
AcDbEntity
  8
3
370
    50
100
AcDbLine
 10
-150.063947
 20
11.70964
 30
0.0
 11
-149.82411
 21
11.651537
 31
0.0
  0
LINE
  5
C63
100
AcDbEntity
  8
3
370
    50
100
AcDbLine
 10
-149.82411
 20
11.651537
 30
0.0
 11
-149.59961
 21
11.591173
 31
0.0
  0
LINE
  5
C64
100
AcDbEntity
  8
3
370
    50
100
AcDbLine
 10
-149.59961
 20
11.591173
 30
0.0
 11
-149.391022
 21
11.528701
 31
0.0
  0
LINE
  5
C65
100
AcDbEntity
  8
3
370
    50
100
AcDbLine
 10
-149.391022
 20
11.528701
 30
0.0
 11
-149.198882
 21
11.464283
 31
0.0
  0
LINE
  5
C66
100
AcDbEntity
  8
3
370
    50
100
AcDbLine
 10
-149.198882
 20
11.464283
 30
0.0
 11
-149.023683
 21
11.398083
 31
0.0
  0
LINE
  5
C67
100
AcDbEntity
  8
3
370
    50
100
AcDbLine
 10
-149.023683
 20
11.398083
 30
0.0
 11
-148.865874
 21
11.330271
 31
0.0
  0
LINE
  5
C68
100
AcDbEntity
  8
3
370
    50
100
AcDbLine
 10
-148.865874
 20
11.330271
 30
0.0
 11
-148.725862
 21
11.261023
 31
0.0
  0
LINE
  5
C69
100
AcDbEntity
  8
3
370
    50
100
AcDbLine
 10
-148.725862
 20
11.261023
 30
0.0
 11
-148.604005
 21
11.190514
 31
0.0
  0
LINE
  5
C6A
100
AcDbEntity
  8
3
370
    50
100
AcDbLine
 10
-148.604005
 20
11.190514
 30
0.0
 11
-148.500616
 21
11.118927
 31
0.0
  0
LINE
  5
C6B
100
AcDbEntity
  8
3
370
    50
100
AcDbLine
 10
-148.500616
 20
11.118927
 30
0.0
 11
-148.41596
 21
11.046445
 31
0.0
  0
LINE
  5
C6C
100
AcDbEntity
  8
3
370
    50
100
AcDbLine
 10
-148.41596
 20
11.046445
 30
0.0
 11
-148.350255
 21
10.973255
 31
0.0
  0
LINE
  5
C6D
100
AcDbEntity
  8
3
370
    50
100
AcDbLine
 10
-148.350255
 20
10.973255
 30
0.0
 11
-148.30367
 21
10.899543
 31
0.0
  0
LINE
  5
C6E
100
AcDbEntity
  8
3
370
    50
100
AcDbLine
 10
-148.30367
 20
10.899543
 30
0.0
 11
-148.276324
 21
10.8255
 31
0.0
  0
LINE
  5
C6F
100
AcDbEntity
  8
3
370
    50
100
AcDbLine
 10
-148.276324
 20
10.8255
 30
0.0
 11
-148.268287
 21
10.751315
 31
0.0
  0
LINE
  5
C70
100
AcDbEntity
  8
3
370
    50
100
AcDbLine
 10
-148.268287
 20
10.751315
 30
0.0
 11
-148.27958
 21
10.677178
 31
0.0
  0
LINE
  5
C71
100
AcDbEntity
  8
3
370
    50
100
AcDbLine
 10
-148.27958
 20
10.677178
 30
0.0
 11
-148.310174
 21
10.603281
 31
0.0
  0
LINE
  5
C72
100
AcDbEntity
  8
3
370
    50
100
AcDbLine
 10
-148.310174
 20
10.603281
 30
0.0
 11
-148.35999
 21
10.529813
 31
0.0
  0
LINE
  5
C73
100
AcDbEntity
  8
3
370
    50
100
AcDbLine
 10
-148.35999
 20
10.529813
 30
0.0
 11
-148.4289
 21
10.456962
 31
0.0
  0
LINE
  5
C74
100
AcDbEntity
  8
3
370
    50
100
AcDbLine
 10
-148.4289
 20
10.456962
 30
0.0
 11
-148.516729
 21
10.384915
 31
0.0
  0
LINE
  5
C75
100
AcDbEntity
  8
3
370
    50
100
AcDbLine
 10
-148.516729
 20
10.384915
 30
0.0
 11
-148.623249
 21
10.313857
 31
0.0
  0
LINE
  5
C76
100
AcDbEntity
  8
3
370
    50
100
AcDbLine
 10
-148.623249
 20
10.313857
 30
0.0
 11
-148.748188
 21
10.243972
 31
0.0
  0
LINE
  5
C77
100
AcDbEntity
  8
3
370
    50
100
AcDbLine
 10
-148.748188
 20
10.243972
 30
0.0
 11
-148.891225
 21
10.175437
 31
0.0
  0
LINE
  5
C78
100
AcDbEntity
  8
3
370
    50
100
AcDbLine
 10
-148.891225
 20
10.175437
 30
0.0
 11
-149.051993
 21
10.10843
 31
0.0
  0
LINE
  5
C79
100
AcDbEntity
  8
3
370
    50
100
AcDbLine
 10
-149.051993
 20
10.10843
 30
0.0
 11
-149.230079
 21
10.043121
 31
0.0
  0
LINE
  5
C7A
100
AcDbEntity
  8
3
370
    50
100
AcDbLine
 10
-149.230079
 20
10.043121
 30
0.0
 11
-149.425026
 21
9.979679
 31
0.0
  0
LINE
  5
C7B
100
AcDbEntity
  8
3
370
    50
100
AcDbLine
 10
-149.425026
 20
9.979679
 30
0.0
 11
-149.636333
 21
9.918267
 31
0.0
  0
LINE
  5
C7C
100
AcDbEntity
  8
3
370
    50
100
AcDbLine
 10
-149.636333
 20
9.918267
 30
0.0
 11
-149.863459
 21
9.859042
 31
0.0
  0
LINE
  5
C7D
100
AcDbEntity
  8
3
370
    50
100
AcDbLine
 10
-149.863459
 20
9.859042
 30
0.0
 11
-150.105819
 21
9.802156
 31
0.0
  0
LINE
  5
C7E
100
AcDbEntity
  8
3
370
    50
100
AcDbLine
 10
-150.105819
 20
9.802156
 30
0.0
 11
-150.362793
 21
9.747756
 31
0.0
  0
LINE
  5
C7F
100
AcDbEntity
  8
3
370
    50
100
AcDbLine
 10
-150.362793
 20
9.747756
 30
0.0
 11
-150.63372
 21
9.69598
 31
0.0
  0
LINE
  5
C80
100
AcDbEntity
  8
3
370
    50
100
AcDbLine
 10
-150.63372
 20
9.69598
 30
0.0
 11
-150.917905
 21
9.646962
 31
0.0
  0
LINE
  5
C81
100
AcDbEntity
  8
3
370
    50
100
AcDbLine
 10
-150.917905
 20
9.646962
 30
0.0
 11
-151.214618
 21
9.600828
 31
0.0
  0
LINE
  5
C82
100
AcDbEntity
  8
3
370
    50
100
AcDbLine
 10
-151.214618
 20
9.600828
 30
0.0
 11
-151.523098
 21
9.557695
 31
0.0
  0
LINE
  5
C83
100
AcDbEntity
  8
3
370
    50
100
AcDbLine
 10
-151.523098
 20
9.557695
 30
0.0
 11
-151.842552
 21
9.517676
 31
0.0
  0
LINE
  5
C84
100
AcDbEntity
  8
3
370
    50
100
AcDbLine
 10
-151.842552
 20
9.517676
 30
0.0
 11
-152.172162
 21
9.480872
 31
0.0
  0
LINE
  5
C85
100
AcDbEntity
  8
3
370
    50
100
AcDbLine
 10
-152.172162
 20
9.480872
 30
0.0
 11
-152.51108
 21
9.447378
 31
0.0
  0
LINE
  5
C86
100
AcDbEntity
  8
3
370
    50
100
AcDbLine
 10
-152.51108
 20
9.447378
 30
0.0
 11
-152.858437
 21
9.41728
 31
0.0
  0
LINE
  5
C87
100
AcDbEntity
  8
3
370
    50
100
AcDbLine
 10
-152.858437
 20
9.41728
 30
0.0
 11
-153.213341
 21
9.390655
 31
0.0
  0
LINE
  5
C88
100
AcDbEntity
  8
3
370
    50
100
AcDbLine
 10
-153.213341
 20
9.390655
 30
0.0
 11
-153.574881
 21
9.367572
 31
0.0
  0
LINE
  5
C89
100
AcDbEntity
  8
3
370
    50
100
AcDbLine
 10
-153.574881
 20
9.367572
 30
0.0
 11
-153.942128
 21
9.34809
 31
0.0
  0
LINE
  5
C8A
100
AcDbEntity
  8
3
370
    50
100
AcDbLine
 10
-153.942128
 20
9.34809
 30
0.0
 11
-154.314141
 21
9.332258
 31
0.0
  0
LINE
  5
C8B
100
AcDbEntity
  8
3
370
    50
100
AcDbLine
 10
-154.314141
 20
9.332258
 30
0.0
 11
-154.689965
 21
9.320118
 31
0.0
  0
LINE
  5
C8C
100
AcDbEntity
  8
3
370
    50
100
AcDbLine
 10
-154.689965
 20
9.320118
 30
0.0
 11
-155.068633
 21
9.3117
 31
0.0
  0
LINE
  5
C8D
100
AcDbEntity
  8
3
370
    50
100
AcDbLine
 10
-155.068633
 20
9.3117
 30
0.0
 11
-155.449176
 21
9.307027
 31
0.0
  0
LINE
  5
C8E
100
AcDbEntity
  8
3
370
    50
100
AcDbLine
 10
-155.449176
 20
9.307027
 30
0.0
 11
-155.830615
 21
9.30611
 31
0.0
  0
LINE
  5
C8F
100
AcDbEntity
  8
3
370
    50
100
AcDbLine
 10
-155.830615
 20
9.30611
 30
0.0
 11
-156.211971
 21
9.308952
 31
0.0
  0
LINE
  5
C90
100
AcDbEntity
  8
3
370
    50
100
AcDbLine
 10
-156.211971
 20
9.308952
 30
0.0
 11
-156.592266
 21
9.315544
 31
0.0
  0
LINE
  5
C91
100
AcDbEntity
  8
3
370
    50
100
AcDbLine
 10
-156.592266
 20
9.315544
 30
0.0
 11
-156.970523
 21
9.325872
 31
0.0
  0
LINE
  5
C92
100
AcDbEntity
  8
3
370
    50
100
AcDbLine
 10
-156.970523
 20
9.325872
 30
0.0
 11
-157.345772
 21
9.339907
 31
0.0
  0
LINE
  5
C93
100
AcDbEntity
  8
3
370
    50
100
AcDbLine
 10
-157.345772
 20
9.339907
 30
0.0
 11
-157.717049
 21
9.357614
 31
0.0
  0
LINE
  5
C94
100
AcDbEntity
  8
3
370
    50
100
AcDbLine
 10
-157.717049
 20
9.357614
 30
0.0
 11
-158.083401
 21
9.378947
 31
0.0
  0
LINE
  5
C95
100
AcDbEntity
  8
3
370
    50
100
AcDbLine
 10
-158.083401
 20
9.378947
 30
0.0
 11
-158.443887
 21
9.403852
 31
0.0
  0
LINE
  5
C96
100
AcDbEntity
  8
3
370
    50
100
AcDbLine
 10
-158.443887
 20
9.403852
 30
0.0
 11
-158.797583
 21
9.432264
 31
0.0
  0
LINE
  5
C97
100
AcDbEntity
  8
3
370
    50
100
AcDbLine
 10
-158.797583
 20
9.432264
 30
0.0
 11
-159.14358
 21
9.464112
 31
0.0
  0
LINE
  5
C98
100
AcDbEntity
  8
3
370
    50
100
AcDbLine
 10
-159.14358
 20
9.464112
 30
0.0
 11
-159.48099
 21
9.499312
 31
0.0
  0
LINE
  5
C99
100
AcDbEntity
  8
3
370
    50
100
AcDbLine
 10
-159.48099
 20
9.499312
 30
0.0
 11
-159.808947
 21
9.537775
 31
0.0
  0
LINE
  5
C9A
100
AcDbEntity
  8
3
370
    50
100
AcDbLine
 10
-159.808947
 20
9.537775
 30
0.0
 11
-160.12661
 21
9.579402
 31
0.0
  0
LINE
  5
C9B
100
AcDbEntity
  8
3
370
    50
100
AcDbLine
 10
-160.12661
 20
9.579402
 30
0.0
 11
-160.433162
 21
9.624086
 31
0.0
  0
LINE
  5
C9C
100
AcDbEntity
  8
3
370
    50
100
AcDbLine
 10
-160.433162
 20
9.624086
 30
0.0
 11
-160.727817
 21
9.671712
 31
0.0
  0
LINE
  5
C9D
100
AcDbEntity
  8
3
370
    50
100
AcDbLine
 10
-160.727817
 20
9.671712
 30
0.0
 11
-161.009818
 21
9.722159
 31
0.0
  0
LINE
  5
C9E
100
AcDbEntity
  8
3
370
    50
100
AcDbLine
 10
-161.009818
 20
9.722159
 30
0.0
 11
-161.278442
 21
9.775296
 31
0.0
  0
LINE
  5
C9F
100
AcDbEntity
  8
3
370
    50
100
AcDbLine
 10
-161.278442
 20
9.775296
 30
0.0
 11
-161.532999
 21
9.830987
 31
0.0
  0
LINE
  5
CA0
100
AcDbEntity
  8
3
370
    50
100
AcDbLine
 10
-161.532999
 20
9.830987
 30
0.0
 11
-161.772835
 21
9.889089
 31
0.0
  0
LINE
  5
CA1
100
AcDbEntity
  8
3
370
    50
100
AcDbLine
 10
-161.772835
 20
9.889089
 30
0.0
 11
-161.997336
 21
9.949454
 31
0.0
  0
LINE
  5
CA2
100
AcDbEntity
  8
3
370
    50
100
AcDbLine
 10
-161.997336
 20
9.949454
 30
0.0
 11
-162.205924
 21
10.011925
 31
0.0
  0
LINE
  5
CA3
100
AcDbEntity
  8
3
370
    50
100
AcDbLine
 10
-162.205924
 20
10.011925
 30
0.0
 11
-162.398064
 21
10.076344
 31
0.0
  0
LINE
  5
CA4
100
AcDbEntity
  8
3
370
    50
100
AcDbLine
 10
-162.398064
 20
10.076344
 30
0.0
 11
-162.573263
 21
10.142544
 31
0.0
  0
LINE
  5
CA5
100
AcDbEntity
  8
3
370
    50
100
AcDbLine
 10
-162.573263
 20
10.142544
 30
0.0
 11
-162.731071
 21
10.210355
 31
0.0
  0
LINE
  5
CA6
100
AcDbEntity
  8
3
370
    50
100
AcDbLine
 10
-162.731071
 20
10.210355
 30
0.0
 11
-162.871084
 21
10.279604
 31
0.0
  0
LINE
  5
CA7
100
AcDbEntity
  8
3
370
    50
100
AcDbLine
 10
-162.871084
 20
10.279604
 30
0.0
 11
-162.992941
 21
10.350112
 31
0.0
  0
LINE
  5
CA8
100
AcDbEntity
  8
3
370
    50
100
AcDbLine
 10
-162.992941
 20
10.350112
 30
0.0
 11
-163.09633
 21
10.421699
 31
0.0
  0
LINE
  5
CA9
100
AcDbEntity
  8
3
370
    50
100
AcDbLine
 10
-163.09633
 20
10.421699
 30
0.0
 11
-163.180986
 21
10.494181
 31
0.0
  0
LINE
  5
CAA
100
AcDbEntity
  8
3
370
    50
100
AcDbLine
 10
-163.180986
 20
10.494181
 30
0.0
 11
-163.24669
 21
10.567372
 31
0.0
  0
LINE
  5
CAB
100
AcDbEntity
  8
3
370
    50
100
AcDbLine
 10
-163.24669
 20
10.567372
 30
0.0
 11
-163.293276
 21
10.641083
 31
0.0
  0
LINE
  5
CAC
100
AcDbEntity
  8
3
370
    50
100
AcDbLine
 10
-163.293276
 20
10.641083
 30
0.0
 11
-163.320622
 21
10.715127
 31
0.0
  0
LINE
  5
CAD
100
AcDbEntity
  8
3
370
    50
100
AcDbLine
 10
-163.320622
 20
10.715127
 30
0.0
 11
-163.328659
 21
10.789312
 31
0.0
  0
LINE
  5
CAE
100
AcDbEntity
  8
3
370
    50
100
AcDbLine
 10
-163.328659
 20
10.789312
 30
0.0
 11
-163.317366
 21
10.863448
 31
0.0
  0
LINE
  5
CAF
100
AcDbEntity
  8
3
370
    50
100
AcDbLine
 10
-163.317366
 20
10.863448
 30
0.0
 11
-163.286772
 21
10.937345
 31
0.0
  0
LINE
  5
CB0
100
AcDbEntity
  8
3
370
    50
100
AcDbLine
 10
-163.286772
 20
10.937345
 30
0.0
 11
-163.236956
 21
11.010814
 31
0.0
  0
LINE
  5
CB1
100
AcDbEntity
  8
3
370
    50
100
AcDbLine
 10
-163.236956
 20
11.010814
 30
0.0
 11
-163.168045
 21
11.083665
 31
0.0
  0
LINE
  5
CB2
100
AcDbEntity
  8
3
370
    50
100
AcDbLine
 10
-163.168045
 20
11.083665
 30
0.0
 11
-163.080217
 21
11.155712
 31
0.0
  0
LINE
  5
CB3
100
AcDbEntity
  8
3
370
    50
100
AcDbLine
 10
-163.080217
 20
11.155712
 30
0.0
 11
-162.973697
 21
11.226769
 31
0.0
  0
LINE
  5
CB4
100
AcDbEntity
  8
3
370
    50
100
AcDbLine
 10
-162.973697
 20
11.226769
 30
0.0
 11
-162.848758
 21
11.296655
 31
0.0
  0
LINE
  5
CB5
100
AcDbEntity
  8
3
370
    50
100
AcDbLine
 10
-162.848758
 20
11.296655
 30
0.0
 11
-162.705721
 21
11.365189
 31
0.0
  0
LINE
  5
CB6
100
AcDbEntity
  8
3
370
    50
100
AcDbLine
 10
-162.705721
 20
11.365189
 30
0.0
 11
-162.544953
 21
11.432197
 31
0.0
  0
LINE
  5
CB7
100
AcDbEntity
  8
3
370
    50
100
AcDbLine
 10
-162.544953
 20
11.432197
 30
0.0
 11
-162.366867
 21
11.497505
 31
0.0
  0
LINE
  5
CB8
100
AcDbEntity
  8
3
370
    50
100
AcDbLine
 10
-162.366867
 20
11.497505
 30
0.0
 11
-162.17192
 21
11.560947
 31
0.0
  0
LINE
  5
CB9
100
AcDbEntity
  8
3
370
    50
100
AcDbLine
 10
-162.17192
 20
11.560947
 30
0.0
 11
-161.960613
 21
11.622359
 31
0.0
  0
LINE
  5
CBA
100
AcDbEntity
  8
3
370
    50
100
AcDbLine
 10
-161.960613
 20
11.622359
 30
0.0
 11
-161.733487
 21
11.681584
 31
0.0
  0
LINE
  5
CBB
100
AcDbEntity
  8
3
370
    50
100
AcDbLine
 10
-161.733487
 20
11.681584
 30
0.0
 11
-161.491126
 21
11.73847
 31
0.0
  0
TEXT
  5
CBC
100
AcDbEntity
  8
3
370
    50
100
AcDbText
 10
1.476931
 20
-73.360824
 30
0.0
 40
7.0
  1
（７９）
 50
90.0
 72
     5
 11
1.476931
 21
-46.760824
 31
0.0
100
AcDbText
  0
DIMENSION
  5
CBD
100
AcDbEntity
  8
3
370
    25
100
AcDbDimension
  2
*D2
 10
2.476931
 20
-20.010847
 30
0.0
 11
-0.023069
 21
-59.360824
 31
0.0
 71
     0
 72
     0
 41
0.0
 42
0.0
  3
Standard
100
AcDbAlignedDimension
 13
-30.761856
 23
-98.7108
 33
0.0
 14
-55.761856
 24
-20.010847
 34
0.0
 50
90.0
100
AcDbRotatedDimension
  0
POINT
  5
CBE
100
AcDbEntity
  8
3
370
    50
100
AcDbPoint
 10
-249.261367
 20
-167.510845
 30
0.0
  0
POINT
  5
CBF
100
AcDbEntity
  8
3
370
    50
100
AcDbPoint
 10
-262.261367
 20
-167.510845
 30
0.0
  0
TEXT
  5
CC0
100
AcDbEntity
  8
3
370
    50
100
AcDbText
 10
-241.261367
 20
-183.41069
 30
0.0
 40
7.0
  1
φ１３
 72
     5
 11
-221.661367
 21
-183.41069
 31
0.0
100
AcDbText
  0
DIMENSION
  5
CC1
100
AcDbEntity
  8
3
370
    25
100
AcDbDimension
  2
*D3
 10
-249.261367
 20
-184.41069
 30
0.0
 11
-255.761367
 21
-182.41069
 31
0.0
 71
     0
 72
     0
 41
0.0
 42
0.0
  3
Standard
100
AcDbAlignedDimension
 13
-262.261367
 23
-167.510845
 33
0.0
 14
-249.261367
 24
-167.510845
 34
0.0
100
AcDbRotatedDimension
  0
TEXT
  5
CC2
100
AcDbEntity
  8
3
370
    50
100
AcDbText
 10
-275.634811
 20
1.995852
 30
0.0
 40
7.0
  1
（湯表示）
 72
     5
 11
-242.034811
 21
1.995852
 31
0.0
100
AcDbText
  0
TEXT
  5
CC3
100
AcDbEntity
  8
3
370
    50
100
AcDbText
 10
-59.636877
 20
10.346447
 30
0.0
 40
7.0
  1
サックス
 72
     5
 11
-33.036877
 21
10.346447
 31
0.0
100
AcDbText
  0
TEXT
  5
CC4
100
AcDbEntity
  8
3
370
    50
100
AcDbText
 10
-275.634811
 20
9.995852
 30
0.0
 40
7.0
  1
ピンク
 72
     5
 11
-256.034811
 21
9.995852
 31
0.0
100
AcDbText
  0
TEXT
  5
CC5
100
AcDbEntity
  8
3
370
    50
100
AcDbText
 10
-59.636877
 20
2.346447
 30
0.0
 40
7.0
  1
（水表示）
 72
     5
 11
-26.036877
 21
2.346447
 31
0.0
100
AcDbText
  0
LWPOLYLINE
  5
CC6
100
AcDbEntity
  8
3
370
    25
100
AcDbPolyline
 90
        2
 70
     0
 10
-261.339676
 20
-21.181119
 10
-263.288956
 20
-0.396535
  0
LWPOLYLINE
  5
CCA
100
AcDbEntity
  8
3
370
    25
100
AcDbPolyline
 90
        2
 70
     0
 10
-50.932013
 20
-20.830524
 10
-48.982733
 20
-0.04594
  0
TEXT
  5
CCE
100
AcDbEntity
  8
3
370
    50
100
AcDbText
 10
293.773056
 20
-137.168137
 30
0.0
 40
7.0
  1
２４六角
 72
     5
 11
320.373056
 21
-137.168137
 31
0.0
100
AcDbText
  0
TEXT
  5
CCF
100
AcDbEntity
  8
3
370
    50
100
AcDbText
 10
295.470001
 20
-170.613846
 30
0.0
 40
7.0
  1
２３六角
 72
     5
 11
322.070001
 21
-170.613846
 31
0.0
100
AcDbText
  0
LWPOLYLINE
  5
CD0
100
AcDbEntity
  8
3
370
    25
100
AcDbPolyline
 90
        3
 70
     0
 10
331.931232
 20
-166.255455
 10
324.309464
 20
-170.730415
 10
295.14537
 20
-170.730415
  0
LINE
  5
CD5
100
AcDbEntity
  8
3
370
    25
100
AcDbLine
 10
328.599364
 20
-168.211691
 30
0.0
 11
329.123536
 21
-169.104462
 31
0.0
  0
LINE
  5
CD6
100
AcDbEntity
  8
3
370
    25
100
AcDbLine
 10
329.123536
 20
-169.104462
 30
0.0
 11
331.931232
 21
-166.255455
 31
0.0
  0
LINE
  5
CD7
100
AcDbEntity
  8
3
370
    25
100
AcDbLine
 10
331.931232
 20
-166.255455
 30
0.0
 11
328.075193
 21
-167.318919
 31
0.0
  0
LINE
  5
CD8
100
AcDbEntity
  8
3
370
    25
100
AcDbLine
 10
328.075193
 20
-167.318919
 30
0.0
 11
328.599364
 21
-168.211691
 31
0.0
  0
LWPOLYLINE
  5
CD9
100
AcDbEntity
  8
3
370
    25
100
AcDbPolyline
 90
        3
 70
     0
 10
330.269764
 20
-133.097725
 10
322.647995
 20
-137.572685
 10
293.483902
 20
-137.572685
  0
LINE
  5
CDE
100
AcDbEntity
  8
3
370
    25
100
AcDbLine
 10
326.937896
 20
-135.053961
 30
0.0
 11
327.462068
 21
-135.946732
 31
0.0
  0
LINE
  5
CDF
100
AcDbEntity
  8
3
370
    25
100
AcDbLine
 10
327.462068
 20
-135.946732
 30
0.0
 11
330.269764
 21
-133.097725
 31
0.0
  0
LINE
  5
CE0
100
AcDbEntity
  8
3
370
    25
100
AcDbLine
 10
330.269764
 20
-133.097725
 30
0.0
 11
326.413724
 21
-134.161189
 31
0.0
  0
LINE
  5
CE1
100
AcDbEntity
  8
3
370
    25
100
AcDbLine
 10
326.413724
 20
-134.161189
 30
0.0
 11
326.937896
 21
-135.053961
 31
0.0
  0
TEXT
  5
CE2
100
AcDbEntity
  8
3
370
    50
100
AcDbText
 10
150.266937
 20
-57.113315
 30
0.0
 40
7.0
  1
１０４
 50
90.0
 72
     5
 11
150.266937
 21
-37.513315
 31
0.0
100
AcDbText
  0
DIMENSION
  5
CE3
100
AcDbEntity
  8
3
370
    25
100
AcDbDimension
  2
*D4
 10
151.266937
 20
5.48417
 30
0.0
 11
148.766937
 21
-46.613315
 31
0.0
 71
     0
 72
     0
 41
0.0
 42
0.0
  3
Standard
100
AcDbAlignedDimension
 13
319.238144
 23
-98.7108
 33
0.0
 14
173.959401
 24
5.48417
 34
0.0
 50
90.0
100
AcDbRotatedDimension
  0
TEXT
  5
CE4
100
AcDbEntity
  8
3
370
    50
100
AcDbText
 10
248.598772
 20
-114.651909
 30
0.0
 40
7.0
  1
１７０
 72
     5
 11
268.198772
 21
-114.651909
 31
0.0
100
AcDbText
  0
DIMENSION
  5
CE5
100
AcDbEntity
  8
3
370
    25
100
AcDbDimension
  2
*D5
 10
344.238144
 20
-115.651909
 30
0.0
 11
259.098772
 21
-113.651909
 31
0.0
 71
     0
 72
     0
 41
0.0
 42
0.0
  3
Standard
100
AcDbAlignedDimension
 13
173.959401
 23
5.48417
 33
0.0
 14
344.238144
 24
-57.842447
 34
0.0
100
AcDbRotatedDimension
  0
DIMENSION
  5
CE6
100
AcDbEntity
  8
3
370
    25
100
AcDbDimension
  2
*D6
 10
173.959401
 20
10.819624
 30
0.0
 11
178.168906
 21
-35.013778
 31
0.0
 70
     2
 71
     0
 72
     0
 41
0.0
 42
0.0
  3
Standard
100
AcDb2LineAngularDimension
 13
173.958834
 23
10.819658
 33
0.0
 14
173.959401
 24
10.824273
 34
0.0
 15
173.959401
 25
10.824273
 35
0.0
 16
171.120914
 26
-35.584573
 36
0.0
1001
ACAD
1000
DSTYLE
1002
{
1070
   275
1070
     0
1070
   179
1070
     2
1002
}
  0
TEXT
  5
CE7
100
AcDbEntity
  8
3
370
    50
100
AcDbText
 10
65.331642
 20
-227.648422
 30
0.0
 40
7.0
  1
台付２ハンドル湯水混合水栓
 72
     5
 11
154.931642
 21
-227.648422
 31
0.0
100
AcDbText
  0
TEXT
  5
CE8
100
AcDbEntity
  8
3
370
    50
100
AcDbText
 10
65.159081
 20
-236.582397
 30
0.0
 40
7.0
  1
Ｋ１３－３９ＧＡ　コテイ
 72
     5
 11
147.759081
 21
-236.582397
 31
0.0
100
AcDbText
  0
TEXT
  5
CE9
100
AcDbEntity
  8
3
370
    50
100
AcDbText
 10
333.798279
 20
-271.939301
 30
0.0
 40
7.0
  1
３０１１０２
 72
     5
 11
374.398279
 21
-271.939301
 31
0.0
100
AcDbText
  0
ENDSEC
  0
SECTION
  2
OBJECTS
  0
DICTIONARY
  5
D39
100
AcDbDictionary
280
     0
281
     1
  3
ACAD_GROUP
350
D3A
  3
ACAD_MLINESTYLE
350
D3B
  0
DICTIONARY
  5
D3A
102
{ACAD_REACTORS
330
D39
102
}
100
AcDbDictionary
280
     0
281
     1
  0
DICTIONARY
  5
D3B
102
{ACAD_REACTORS
330
D39
102
}
100
AcDbDictionary
280
     0
281
     1
  3
Standard
350
D3C
  0
MLINESTYLE
  5
D3C
102
{ACAD_REACTORS
330
D3B
102
}
100
AcDbMlineStyle
  2
Standard
 70
     0
  3

 62
     0
 51
90.0
 52
90.0
 71
     2
 49
0.5
 62
   256
  6
ByLayer
 49
-0.5
 62
   256
  6
ByLayer
  0
ENDSEC
  0
EOF
