  0
SECTION
  2
HEADER
  9
$ACADVER
  1
AC1015
  9
$ACADMAINTVER
 70
     6
  9
$DWGCODEPAGE
  3
ANSI_932
  9
$INSBASE
 10
0.0
 20
0.0
 30
0.0
  9
$EXTMIN
 10
-841.0
 20
-594.0
 30
1.000000E+20
  9
$EXTMAX
 10
841.0
 20
594.0
 30
-1.000000E+20
  9
$LIMMIN
 10
-841.0
 20
-594.0
  9
$LIMMAX
 10
841.0
 20
594.0
  9
$ORTHOMODE
 70
     0
  9
$REGENMODE
 70
     1
  9
$FILLMODE
 70
     1
  9
$QTEXTMODE
 70
     0
  9
$MIRRTEXT
 70
     1
  9
$LTSCALE
 40
1.0
  9
$ATTMODE
 70
     1
  9
$TEXTSIZE
 40
0.2
  9
$TRACEWID
 40
0.05
  9
$TEXTSTYLE
  7
STANDARD
  9
$CLAYER
  8
0
  9
$CELTYPE
  6
CONTINUOUS
  9
$CECOLOR
 62
   256
  9
$CELTSCALE
 40
1.0
  9
$DISPSILH
 70
     0
  9
$DIMSCALE
 40
2.0
  9
$DIMASZ
 40
2.0
  9
$DIMEXO
 40
1.0
  9
$DIMDLI
 40
0.38
  9
$DIMRND
 40
0.0
  9
$DIMDLE
 40
0.0
  9
$DIMEXE
 40
2.0
  9
$DIMTP
 40
0.0
  9
$DIMTM
 40
0.0
  9
$DIMTXT
 40
3.5
  9
$DIMCEN
 40
0.09
  9
$DIMTSZ
 40
0.0
  9
$DIMTOL
 70
     0
  9
$DIMLIM
 70
     0
  9
$DIMTIH
 70
     0
  9
$DIMTOH
 70
     0
  9
$DIMSE1
 70
     0
  9
$DIMSE2
 70
     0
  9
$DIMTAD
 70
     1
  9
$DIMZIN
 70
     0
  9
$DIMBLK
  1

  9
$DIMASO
 70
     1
  9
$DIMSHO
 70
     1
  9
$DIMPOST
  1

  9
$DIMAPOST
  1

  9
$DIMALT
 70
     0
  9
$DIMALTD
 70
     2
  9
$DIMALTF
 40
25.4
  9
$DIMLFAC
 40
1.0
  9
$DIMTOFL
 70
     0
  9
$DIMTVP
 40
0.0
  9
$DIMTIX
 70
     0
  9
$DIMSOXD
 70
     0
  9
$DIMSAH
 70
     0
  9
$DIMBLK1
  1

  9
$DIMBLK2
  1

  9
$DIMSTYLE
  2
Standard
  9
$DIMCLRD
 70
     0
  9
$DIMCLRE
 70
     0
  9
$DIMCLRT
 70
     0
  9
$DIMTFAC
 40
1.0
  9
$DIMGAP
 40
0.5
  9
$DIMJUST
 70
     0
  9
$DIMSD1
 70
     0
  9
$DIMSD2
 70
     0
  9
$DIMTOLJ
 70
     1
  9
$DIMTZIN
 70
     0
  9
$DIMALTZ
 70
     0
  9
$DIMALTTZ
 70
     0
  9
$DIMUPT
 70
     0
  9
$DIMDEC
 70
     3
  9
$DIMTDEC
 70
     4
  9
$DIMALTU
 70
     2
  9
$DIMALTTD
 70
     2
  9
$DIMTXSTY
  7
STANDARD
  9
$DIMAUNIT
 70
     0
  9
$DIMADEC
 70
     0
  9
$DIMALTRND
 40
0.0
  9
$DIMAZIN
 70
     0
  9
$DIMDSEP
 70
     0
  9
$DIMATFIT
 70
     3
  9
$DIMFRAC
 70
     0
  9
$DIMLDRBLK
  1

  9
$DIMLUNIT
 70
     2
  9
$DIMLWD
 70
     0
  9
$DIMLWE
 70
     0
  9
$DIMTMOVE
 70
     0
  9
$LUNITS
 70
     2
  9
$LUPREC
 70
     4
  9
$SKETCHINC
 40
0.1
  9
$FILLETRAD
 40
0.0
  9
$AUNITS
 70
     0
  9
$AUPREC
 70
     0
  9
$MENU
  1
acad
  9
$ELEVATION
 40
0.0
  9
$PELEVATION
 40
0.0
  9
$THICKNESS
 40
0.0
  9
$LIMCHECK
 70
     0
  9
$CHAMFERA
 40
0.0
  9
$CHAMFERB
 40
0.0
  9
$CHAMFERC
 40
0.0
  9
$CHAMFERD
 40
0.0
  9
$SKPOLY
 70
     0
  9
$TDCREATE
 40
2453383.000000000
  9
$TDUCREATE
 40
0.000000000
  9
$TDUPDATE
 40
0.000000000
  9
$TDUUPDATE
 40
2447892.625000000
  9
$TDINDWG
 40
0.0000000000
  9
$TDUSRTIMER
 40
0.0000000000
  9
$USRTIMER
 70
     1
  9
$ANGBASE
 50
0.0
  9
$ANGDIR
 70
     0
  9
$PDMODE
 70
     0
  9
$PDSIZE
 40
0.0
  9
$PLINEWID
 40
0.0
  9
$SPLFRAME
 70
     0
  9
$SPLINETYPE
 70
     6
  9
$SPLINESEGS
 70
     8
  9
$HANDSEED
  5
499
  9
$SURFTAB1
 70
     6
  9
$SURFTAB2
 70
     6
  9
$SURFTYPE
 70
     6
  9
$SURFU
 70
     6
  9
$SURFV
 70
     6
  9
$UCSBASE
  2

  9
$UCSNAME
  2

  9
$UCSORG
 10
0.0
 20
0.0
 30
0.0
  9
$UCSXDIR
 10
1.0
 20
0.0
 30
0.0
  9
$UCSYDIR
 10
0.0
 20
1.0
 30
0.0
  9
$UCSORTHOREF
  2

  9
$UCSORTHOVIEW
 70
     0
  9
$UCSORGTOP
 10
0.0
 20
0.0
 30
0.0
  9
$UCSORGBOTTOM
 10
0.0
 20
0.0
 30
0.0
  9
$UCSORGLEFT
 10
0.0
 20
0.0
 30
0.0
  9
$UCSORGRIGHT
 10
0.0
 20
0.0
 30
0.0
  9
$UCSORGFRONT
 10
0.0
 20
0.0
 30
0.0
  9
$UCSORGBACK
 10
0.0
 20
0.0
 30
0.0
  9
$PUCSBASE
  2

  9
$PUCSNAME
  2

  9
$PUCSORG
 10
0.0
 20
0.0
 30
0.0
  9
$PUCSXDIR
 10
1.0
 20
0.0
 30
0.0
  9
$PUCSYDIR
 10
0.0
 20
1.0
 30
0.0
  9
$PUCSORTHOREF
  2

  9
$PUCSORTHOVIEW
 70
     0
  9
$PUCSORGTOP
 10
0.0
 20
0.0
 30
0.0
  9
$PUCSORGBOTTOM
 10
0.0
 20
0.0
 30
0.0
  9
$PUCSORGLEFT
 10
0.0
 20
0.0
 30
0.0
  9
$PUCSORGRIGHT
 10
0.0
 20
0.0
 30
0.0
  9
$PUCSORGFRONT
 10
0.0
 20
0.0
 30
0.0
  9
$PUCSORGBACK
 10
0.0
 20
0.0
 30
0.0
  9
$USERI1
 70
     0
  9
$USERI2
 70
     0
  9
$USERI3
 70
     0
  9
$USERI4
 70
     0
  9
$USERI5
 70
     0
  9
$USERR1
 40
0.0
  9
$USERR2
 40
0.0
  9
$USERR3
 40
0.0
  9
$USERR4
 40
0.0
  9
$USERR5
 40
0.0
  9
$WORLDVIEW
 70
     1
  9
$SHADEDGE
 70
     3
  9
$SHADEDIF
 70
    70
  9
$TILEMODE
 70
     1
  9
$MAXACTVP
 70
    16
  9
$PINSBASE
 10
0.0
 20
0.0
 30
0.0
  9
$PLIMCHECK
 70
     0
  9
$PEXTMIN
 10
1.000000E+20
 20
1.000000E+20
 30
1.000000E+20
  9
$PEXTMAX
 10
-1.000000E+20
 20
-1.000000E+20
 30
-1.000000E+20
  9
$PLIMMIN
 10
0.0
 20
0.0
  9
$PLIMMAX
 10
12.0
 20
9.0
  9
$UNITMODE
 70
     0
  9
$VISRETAIN
 70
     0
  9
$PLINEGEN
 70
     1
  9
$PSLTSCALE
 70
     0
  9
$TREEDEPTH
 70
  3020
  9
$CMLSTYLE
  2
Standard
  9
$CMLJUST
 70
     0
  9
$CMLSCALE
 40
1.0
  9
$PROXYGRAPHICS
 70
     0
  9
$MEASUREMENT
 70
     0
  9
$CELWEIGHT
370
     0
  9
$ENDCAPS
280
     0
  9
$JOINSTYLE
280
     0
  9
$LWDISPLAY
290
     0
  9
$INSUNITS
 70
     0
  9
$HYPERLINKBASE
  1

  9
$STYLESHEET
  1

  9
$XEDIT
290
     1
  9
$CEPSNTYPE
380
     0
  9
$PSTYLEMODE
290
     1
  9
$FINGERPRINTGUID
  2

  9
$VERSIONGUID
  2

  9
$EXTNAMES
290
     1
  9
$PSVPSCALE
 40
0.0
  0
ENDSEC
  0
SECTION
  2
CLASSES
  0
CLASS
  1
LWPOLYLINE
  2
AcDbPolyline
  3
AutoCAD 2000
 90
        0
280
     0
281
     1
  0
CLASS
  1
IMAGE
  2
AcDbRasterImage
  3
ISM
 90
      127
280
     0
281
     1
  0
CLASS
  1
OLE2FRAME
  2
AcDbOle2Frame
  3
AutoCAD 2000
 90
        0
280
     0
281
     1
  0
CLASS
  1
HATCH
  2
AcDbHatch
  3
AutoCAD 2000
 90
        0
280
     0
281
     1
  0
CLASS
  1
DICTIONARYVAR
  2
AcDbDictionaryVar
  3
AutoCAD 2000
 90
        0
280
     0
281
     0
  0
CLASS
  1
RASTERVARIABLES
  2
AcDbRasterVariables
  3
ISM
 90
        0
280
     0
281
     0
  0
CLASS
  1
IMAGEDEF
  2
AcDbRasterImageDef
  3
ISM
 90
        0
280
     0
281
     0
  0
CLASS
  1
IMAGEDEF_REACTOR
  2
AcDbRasterImageDefReactor
  3
ISM
 90
        1
280
     0
281
     0
  0
CLASS
  1
IDBUFFER
  2
AcDbIdBuffer
  3
AutoCAD 2000
 90
        0
280
     0
281
     0
  0
CLASS
  1
SPATIAL_FILTER
  2
AcDbSpatialFilter
  3
AutoCAD 2000
 90
        0
280
     0
281
     0
  0
CLASS
  1
XRECORD
  2
AcDbXrecord
  3
AutoCAD 2000
 90
        0
280
     0
281
     0
  0
CLASS
  1
SORTENTSTABLE
  2
AcDbSortentsTable
  3
AutoCAD 2000
 90
        0
280
     0
281
     0
  0
CLASS
  1
LAYER_INDEX
  2
AcDbLayerIndex
  3
AutoCAD 2000
 90
        0
280
     0
281
     0
  0
CLASS
  1
SPATIAL_INDEX
  2
AcDbSpatialIndex
  3
AutoCAD 2000
 90
        0
280
     0
281
     0
  0
CLASS
  1
OBJECT_PTR
  2
CAseDLPNTableRecord
  3
"ASE-LPNTableRecord"
 90
        1
280
     0
281
     0
  0
CLASS
  1
LAYOUT
  2
AcDbLayout
  3
AutoCAD 2000
 90
        0
280
     0
281
     0
  0
CLASS
  1
PLOTSETTINGS
  2
AcDbPlotSettings
  3
AutoCAD 2000
 90
        0
280
     0
281
     0
  0
CLASS
  1
ACDBDICTIONARYWDFLT
  2
AcDbDictionaryWithDefault
  3
AutoCAD 2000
 90
        0
280
     0
281
     0
  0
CLASS
  1
ACDBPLACEHOLDER
  2
AcDbPlaceHolder
  3
AutoCAD 2000
 90
        0
280
     0
281
     0
  0
CLASS
  1
VBA_PROJECT
  2
AcDbVbaProject
  3
acadvba
 90
        0
280
     0
281
     0
  0
CLASS
  1
WIPEOUT
  2
AcDbWipeout
  3
WipeOut|AutoCAD Express Tool|expresstools@autodesk.com
 90
      127
280
     0
281
     1
  0
CLASS
  1
WIPEOUTVARIABLES
  2
AcDbWipeoutVariables
  3
WipeOut|AutoCAD Express Tool|expresstools@autodesk.com
 90
        0
280
     0
281
     0
  0
CLASS
  1
RTEXT
  2
RText
  3
RText|AutoCAD Express Tool|expresstools@autodesk.com
 90
        0
280
     0
281
     1
  0
CLASS
  1
ARCALIGNEDTEXT
  2
AcDbArcAlignedText
  3
ATEXT|AutoCAD Express Tool|expresstools@autodesk.com
 90
        0
280
     0
281
     1
  0
ENDSEC
  0
SECTION
  2
TABLES
  0
TABLE
  2
VPORT
  5
6
100
AcDbSymbolTable
 70
     1
  0
VPORT
  5
1B
100
AcDbSymbolTableRecord
100
AcDbViewportTableRecord
  2
*ACTIVE
 70
     0
 10
0.0
 20
0.0
 11
1.0
 21
1.0
 12
0.0
 22
0.0
 13
0.0
 23
0.0
 14
1.0
 24
1.0
 15
0.0
 25
0.0
 16
0.0
 26
0.0
 36
1.0
 17
0.0
 27
0.0
 37
0.0
 40
1188.0
 41
1.415825
 42
50.0
 43
0.0
 44
0.0
 50
0.0
 51
0.0
 71
     0
 72
   500
 73
     1
 74
     1
 75
     0
 76
     0
 77
     0
 78
     0
281
     0
 65
     0
110
0.0
120
0.0
130
0.0
111
1.0
121
0.0
131
0.0
112
0.0
122
1.0
132
0.0
345
0
346
0
 79
     0
146
0.0
  0
ENDTAB
  0
TABLE
  2
LTYPE
  5
3
100
AcDbSymbolTable
 70
     9
  0
LTYPE
  5
C
100
AcDbSymbolTableRecord
100
AcDbLinetypeTableRecord
  2
ByBlock
 70
    64
  3

 72
    65
 73
     0
 40
0.0
  0
LTYPE
  5
D
100
AcDbSymbolTableRecord
100
AcDbLinetypeTableRecord
  2
ByLayer
 70
    64
  3

 72
    65
 73
     0
 40
0.0
  0
LTYPE
  5
E
100
AcDbSymbolTableRecord
100
AcDbLinetypeTableRecord
  2
CONTINUOUS
 70
     0
  3
Solid line
 72
    65
 73
     0
 40
0.0
  0
LTYPE
  5
F
100
AcDbSymbolTableRecord
100
AcDbLinetypeTableRecord
  2
DASHED
 70
     0
  3
__ __ __ __ __ __ __ __ __ __ __ __ __ __ __
 72
    65
 73
     2
 40
2.0
 49
1.2
 74
     0
 49
-0.8
 74
     0
  0
LTYPE
  5
10
100
AcDbSymbolTableRecord
100
AcDbLinetypeTableRecord
  2
CENTER
 70
     0
  3
____ _ ____ _ ____ _ ____ _ ____ _ ____ _ ____
 72
    65
 73
     4
 40
12.0
 49
9.0
 74
     0
 49
-1.0
 74
     0
 49
1.0
 74
     0
 49
-1.0
 74
     0
  0
LTYPE
  5
11
100
AcDbSymbolTableRecord
100
AcDbLinetypeTableRecord
  2
HIDDEN
 70
     0
  3
_ _ _ _ _ _ _ _ _ _ _ _ _ _ _ _ _ _ _ _ _ _ _
 72
    65
 73
     2
 40
3.2
 49
2.4
 74
     0
 49
-0.8
 74
     0
  0
LTYPE
  5
12
100
AcDbSymbolTableRecord
100
AcDbLinetypeTableRecord
  2
PHANTOM
 70
     0
  3
_____ _ _ _____ _ _ _____ _ _ _____ _ _ _____
 72
    65
 73
     6
 40
13.5
 49
9.0
 74
     0
 49
-1.0
 74
     0
 49
1.0
 74
     0
 49
-0.5
 74
     0
 49
1.0
 74
     0
 49
-1.0
 74
     0
  0
LTYPE
  5
13
100
AcDbSymbolTableRecord
100
AcDbLinetypeTableRecord
  2
DOT
 70
     0
  3
...............................................
 72
    65
 73
     2
 40
1.0
 49
0.5
 74
     0
 49
-0.5
 74
     0
  0
LTYPE
  5
14
100
AcDbSymbolTableRecord
100
AcDbLinetypeTableRecord
  2
DASHDOT
 70
     0
  3
__ . __ . __ . __ . __ . __ . __ . __ . __ . __
 72
    65
 73
     4
 40
8.0
 49
5.0
 74
     0
 49
-1.0
 74
     0
 49
1.0
 74
     0
 49
-1.0
 74
     0
  0
ENDTAB
  0
TABLE
  2
LAYER
  5
1
100
AcDbSymbolTable
 70
     6
  0
LAYER
  5
15
100
AcDbSymbolTableRecord
100
AcDbLayerTableRecord
  2
0
 70
     0
 62
     7
  6
CONTINUOUS
290
     1
370
    -3
390
0
  0
LAYER
  5
16
100
AcDbSymbolTableRecord
100
AcDbLayerTableRecord
  2
1
 70
     0
 62
     7
  6
CONTINUOUS
290
     1
370
    -3
390
0
  0
LAYER
  5
17
100
AcDbSymbolTableRecord
100
AcDbLayerTableRecord
  2
2
 70
     0
 62
     7
  6
CONTINUOUS
290
     1
370
    -3
390
0
  0
LAYER
  5
18
100
AcDbSymbolTableRecord
100
AcDbLayerTableRecord
  2
3
 70
     0
 62
     7
  6
CONTINUOUS
290
     1
370
    -3
390
0
  0
LAYER
  5
19
100
AcDbSymbolTableRecord
100
AcDbLayerTableRecord
  2
4
 70
     0
 62
     7
  6
CONTINUOUS
290
     1
370
    -3
390
0
  0
LAYER
  5
1A
100
AcDbSymbolTableRecord
100
AcDbLayerTableRecord
  2
5
 70
     0
 62
     7
  6
CONTINUOUS
290
     1
370
    -3
390
0
  0
ENDTAB
  0
TABLE
  2
STYLE
  5
2
100
AcDbSymbolTable
 70
     1
  0
STYLE
  5
1D
100
AcDbSymbolTableRecord
100
AcDbTextStyleTableRecord
  2
STANDARD
 70
    64
 40
0.0
 41
1.0
 50
0.0
 71
     0
 42
1.0
  3
txt
  4
BIGFONT
  0
ENDTAB
  0
TABLE
  2
VIEW
  5
4
100
AcDbSymbolTable
 70
     0
  0
ENDTAB
  0
TABLE
  2
UCS
  5
5
100
AcDbSymbolTable
 70
     0
  0
ENDTAB
  0
TABLE
  2
APPID
  5
7
100
AcDbSymbolTable
 70
     1
  0
APPID
  5
1C
100
AcDbSymbolTableRecord
100
AcDbRegAppTableRecord
  2
ACAD
 70
     0
  0
ENDTAB
  0
TABLE
  2
DIMSTYLE
  5
8
100
AcDbSymbolTable
 70
     1
100
AcDbDimStyleTable
 71
     0
  0
DIMSTYLE
105
2F
100
AcDbSymbolTableRecord
100
AcDbDimStyleTableRecord
  2
Standard
 70
     0
  3

  4

 40
2.0
 41
2.0
 42
1.0
 43
0.38
 44
2.0
 45
0.0
 46
0.0
 47
0.0
 48
0.0
 71
     0
 72
     0
 73
     0
 74
     0
 75
     0
 76
     0
 77
     1
 78
     0
 79
     0
140
3.5
141
0.09
142
0.0
143
25.4
144
1.0
145
0.0
146
1.0
147
0.5
148
0.0
170
     0
171
     2
172
     0
173
     0
174
     0
175
     0
176
     0
177
     0
178
     0
179
     0
271
     3
272
     4
273
     2
274
     2
275
     0
276
     0
277
     2
278
    46
279
     0
280
     0
281
     0
282
     0
283
     1
284
     0
285
     0
286
     0
288
     0
289
     3
340
1D
341
0
342
0
343
0
344
0
371
    -2
372
    -2
  0
ENDTAB
  0
TABLE
  2
BLOCK_RECORD
  5
2A
100
AcDbSymbolTable
 70
    10
  0
BLOCK_RECORD
  5
28
100
AcDbSymbolTableRecord
100
AcDbBlockTableRecord
  2
*Model_Space
340
0
  0
BLOCK_RECORD
  5
29
100
AcDbSymbolTableRecord
100
AcDbBlockTableRecord
  2
*Paper_Space
340
0
  0
BLOCK_RECORD
  5
1E
100
AcDbSymbolTableRecord
100
AcDbBlockTableRecord
  2
*D0
340
0
  0
BLOCK_RECORD
  5
1F
100
AcDbSymbolTableRecord
100
AcDbBlockTableRecord
  2
*D1
340
0
  0
BLOCK_RECORD
  5
20
100
AcDbSymbolTableRecord
100
AcDbBlockTableRecord
  2
*D2
340
0
  0
BLOCK_RECORD
  5
21
100
AcDbSymbolTableRecord
100
AcDbBlockTableRecord
  2
*D3
340
0
  0
BLOCK_RECORD
  5
22
100
AcDbSymbolTableRecord
100
AcDbBlockTableRecord
  2
*D4
340
0
  0
BLOCK_RECORD
  5
23
100
AcDbSymbolTableRecord
100
AcDbBlockTableRecord
  2
*D5
340
0
  0
BLOCK_RECORD
  5
24
100
AcDbSymbolTableRecord
100
AcDbBlockTableRecord
  2
*D6
340
0
  0
BLOCK_RECORD
  5
25
100
AcDbSymbolTableRecord
100
AcDbBlockTableRecord
  2
*D7
340
0
  0
BLOCK_RECORD
  5
26
100
AcDbSymbolTableRecord
100
AcDbBlockTableRecord
  2
*D8
340
0
  0
BLOCK_RECORD
  5
27
100
AcDbSymbolTableRecord
100
AcDbBlockTableRecord
  2
*D9
340
0
  0
ENDTAB
  0
ENDSEC
  0
SECTION
  2
BLOCKS
  0
BLOCK
  5
2B
100
AcDbEntity
  8
0
390
0
100
AcDbBlockBegin
  2
*Model_Space
 70
     0
 10
0.0
 20
0.0
 30
0.0
  3
*Model_Space
  1

  0
ENDBLK
  5
2C
100
AcDbEntity
  8
0
390
0
100
AcDbBlockEnd
  0
BLOCK
  5
2D
100
AcDbEntity
 67
     1
  8
0
390
0
100
AcDbBlockBegin
  2
*Paper_Space
 70
     0
 10
0.0
 20
0.0
 30
0.0
  3
*Paper_Space
  1

  0
ENDBLK
  5
2E
100
AcDbEntity
 67
     1
  8
0
390
0
100
AcDbBlockEnd
  0
BLOCK
  5
41D
100
AcDbEntity
  8
3
100
AcDbBlockBegin
  2
*D0
 70
     1
 10
0.0
 20
0.0
 30
0.0
  3
*D0
  1

  0
TEXT
  5
41E
100
AcDbEntity
  8
3
370
    25
100
AcDbText
 10
-149.26072
 20
-205.286011
 30
0.0
 40
7.0
  1
102
 41
2.0
 72
     5
 11
-131.06072
 21
-205.286011
 31
0.0
100
AcDbText
  0
LINE
  5
41F
100
AcDbEntity
  8
3
370
    25
100
AcDbLine
 10
-189.760798
 20
-180.594172
 30
0.0
 11
-189.760798
 21
-208.286011
 31
0.0
  0
LINE
  5
420
100
AcDbEntity
  8
3
370
    25
100
AcDbLine
 10
-189.760798
 20
-206.286011
 30
0.0
 11
-185.897095
 21
-207.321287
 31
0.0
  0
LINE
  5
421
100
AcDbEntity
  8
3
370
    25
100
AcDbLine
 10
-189.760798
 20
-206.286011
 30
0.0
 11
-185.897095
 21
-205.250735
 31
0.0
  0
LINE
  5
422
100
AcDbEntity
  8
3
370
    25
100
AcDbLine
 10
-185.897095
 20
-207.321287
 30
0.0
 11
-185.897095
 21
-205.250735
 31
0.0
  0
LINE
  5
423
100
AcDbEntity
  8
3
370
    25
100
AcDbLine
 10
-189.760798
 20
-206.286011
 30
0.0
 11
-87.760643
 21
-206.286011
 31
0.0
  0
LINE
  5
424
100
AcDbEntity
  8
3
370
    25
100
AcDbLine
 10
-87.760643
 20
-206.286011
 30
0.0
 11
-91.624346
 21
-205.250735
 31
0.0
  0
LINE
  5
425
100
AcDbEntity
  8
3
370
    25
100
AcDbLine
 10
-87.760643
 20
-206.286011
 30
0.0
 11
-91.624346
 21
-207.321287
 31
0.0
  0
LINE
  5
426
100
AcDbEntity
  8
3
370
    25
100
AcDbLine
 10
-91.624346
 20
-205.250735
 30
0.0
 11
-91.624346
 21
-207.321287
 31
0.0
  0
LINE
  5
427
100
AcDbEntity
  8
3
370
    25
100
AcDbLine
 10
-87.760643
 20
-180.593907
 30
0.0
 11
-87.760643
 21
-208.286011
 31
0.0
  0
ENDBLK
  5
428
100
AcDbEntity
  8
3
100
AcDbBlockEnd
  0
BLOCK
  5
429
100
AcDbEntity
  8
3
100
AcDbBlockBegin
  2
*D1
 70
     1
 10
0.0
 20
0.0
 30
0.0
  3
*D1
  1

  0
TEXT
  5
42A
100
AcDbEntity
  8
3
370
    25
100
AcDbText
 10
-284.122162
 20
-76.034714
 30
0.0
 40
7.0
  1
81
 50
90.0
 41
2.0
 72
     5
 11
-284.122162
 21
-64.834714
 31
0.0
100
AcDbText
  0
LINE
  5
42B
100
AcDbEntity
  8
3
370
    25
100
AcDbLine
 10
-211.760755
 20
-109.284891
 30
0.0
 11
-285.122162
 21
-109.284891
 31
0.0
  0
LINE
  5
42C
100
AcDbEntity
  8
3
370
    25
100
AcDbLine
 10
-283.122162
 20
-109.284891
 30
0.0
 11
-282.086886
 21
-105.421188
 31
0.0
  0
LINE
  5
42D
100
AcDbEntity
  8
3
370
    25
100
AcDbLine
 10
-283.122162
 20
-109.284891
 30
0.0
 11
-284.157438
 21
-105.421188
 31
0.0
  0
LINE
  5
42E
100
AcDbEntity
  8
3
370
    25
100
AcDbLine
 10
-282.086886
 20
-105.421188
 30
0.0
 11
-284.157438
 21
-105.421188
 31
0.0
  0
LINE
  5
42F
100
AcDbEntity
  8
3
370
    25
100
AcDbLine
 10
-283.122162
 20
-109.284891
 30
0.0
 11
-283.122162
 21
-28.784538
 31
0.0
  0
LINE
  5
430
100
AcDbEntity
  8
3
370
    25
100
AcDbLine
 10
-283.122162
 20
-28.784538
 30
0.0
 11
-284.157438
 21
-32.648241
 31
0.0
  0
LINE
  5
431
100
AcDbEntity
  8
3
370
    25
100
AcDbLine
 10
-283.122162
 20
-28.784538
 30
0.0
 11
-282.086886
 21
-32.648241
 31
0.0
  0
LINE
  5
432
100
AcDbEntity
  8
3
370
    25
100
AcDbLine
 10
-284.157438
 20
-32.648241
 30
0.0
 11
-282.086886
 21
-32.648241
 31
0.0
  0
LINE
  5
433
100
AcDbEntity
  8
3
370
    25
100
AcDbLine
 10
-191.760956
 20
-28.784538
 30
0.0
 11
-285.122162
 21
-28.784538
 31
0.0
  0
ENDBLK
  5
434
100
AcDbEntity
  8
3
100
AcDbBlockEnd
  0
BLOCK
  5
435
100
AcDbEntity
  8
3
100
AcDbBlockBegin
  2
*D2
 70
     1
 10
0.0
 20
0.0
 30
0.0
  3
*D2
  1

  0
TEXT
  5
436
100
AcDbEntity
  8
3
370
    25
100
AcDbText
 10
-284.122162
 20
-144.284891
 30
0.0
 40
7.0
  1
56
 50
90.0
 41
2.0
 72
     5
 11
-284.122162
 21
-133.084891
 31
0.0
100
AcDbText
  0
LINE
  5
437
100
AcDbEntity
  8
3
370
    25
100
AcDbLine
 10
-204.463512
 20
-165.284891
 30
0.0
 11
-285.122162
 21
-165.284891
 31
0.0
  0
LINE
  5
438
100
AcDbEntity
  8
3
370
    25
100
AcDbLine
 10
-283.122162
 20
-165.284891
 30
0.0
 11
-282.086886
 21
-161.421188
 31
0.0
  0
LINE
  5
439
100
AcDbEntity
  8
3
370
    25
100
AcDbLine
 10
-283.122162
 20
-165.284891
 30
0.0
 11
-284.157438
 21
-161.421188
 31
0.0
  0
LINE
  5
43A
100
AcDbEntity
  8
3
370
    25
100
AcDbLine
 10
-282.086886
 20
-161.421188
 30
0.0
 11
-284.157438
 21
-161.421188
 31
0.0
  0
LINE
  5
43B
100
AcDbEntity
  8
3
370
    25
100
AcDbLine
 10
-283.122162
 20
-165.284891
 30
0.0
 11
-283.122162
 21
-109.284891
 31
0.0
  0
LINE
  5
43C
100
AcDbEntity
  8
3
370
    25
100
AcDbLine
 10
-283.122162
 20
-109.284891
 30
0.0
 11
-284.157438
 21
-113.148595
 31
0.0
  0
LINE
  5
43D
100
AcDbEntity
  8
3
370
    25
100
AcDbLine
 10
-283.122162
 20
-109.284891
 30
0.0
 11
-282.086886
 21
-113.148595
 31
0.0
  0
LINE
  5
43E
100
AcDbEntity
  8
3
370
    25
100
AcDbLine
 10
-284.157438
 20
-113.148595
 30
0.0
 11
-282.086886
 21
-113.148595
 31
0.0
  0
LINE
  5
43F
100
AcDbEntity
  8
3
370
    25
100
AcDbLine
 10
-211.760755
 20
-109.284891
 30
0.0
 11
-285.122162
 21
-109.284891
 31
0.0
  0
ENDBLK
  5
440
100
AcDbEntity
  8
3
100
AcDbBlockEnd
  0
BLOCK
  5
441
100
AcDbEntity
  8
3
100
AcDbBlockBegin
  2
*D3
 70
     1
 10
0.0
 20
0.0
 30
0.0
  3
*D3
  1

  0
TEXT
  5
442
100
AcDbEntity
  8
3
370
    25
100
AcDbText
 10
-98.260755
 20
-193.064194
 30
0.0
 40
7.0
  1
φ１３
 72
     5
 11
-78.660755
 21
-193.064194
 31
0.0
100
AcDbText
  0
LINE
  5
443
100
AcDbEntity
  8
3
370
    25
100
AcDbLine
 10
-81.260755
 20
-173.78496
 30
0.0
 11
-81.260755
 21
-196.064194
 31
0.0
  0
LINE
  5
444
100
AcDbEntity
  8
3
370
    25
100
AcDbLine
 10
-81.260755
 20
-194.064194
 30
0.0
 11
-85.124458
 21
-193.028918
 31
0.0
  0
LINE
  5
445
100
AcDbEntity
  8
3
370
    25
100
AcDbLine
 10
-81.260755
 20
-194.064194
 30
0.0
 11
-85.124458
 21
-195.09947
 31
0.0
  0
LINE
  5
446
100
AcDbEntity
  8
3
370
    25
100
AcDbLine
 10
-85.124458
 20
-193.028918
 30
0.0
 11
-85.124458
 21
-195.09947
 31
0.0
  0
LINE
  5
447
100
AcDbEntity
  8
3
370
    25
100
AcDbLine
 10
-81.260755
 20
-194.064194
 30
0.0
 11
-94.260755
 21
-194.064194
 31
0.0
  0
LINE
  5
448
100
AcDbEntity
  8
3
370
    25
100
AcDbLine
 10
-94.260755
 20
-194.064194
 30
0.0
 11
-90.397051
 21
-195.09947
 31
0.0
  0
LINE
  5
449
100
AcDbEntity
  8
3
370
    25
100
AcDbLine
 10
-94.260755
 20
-194.064194
 30
0.0
 11
-90.397051
 21
-193.028918
 31
0.0
  0
LINE
  5
44A
100
AcDbEntity
  8
3
370
    25
100
AcDbLine
 10
-90.397051
 20
-195.09947
 30
0.0
 11
-90.397051
 21
-193.028918
 31
0.0
  0
LINE
  5
44B
100
AcDbEntity
  8
3
370
    25
100
AcDbLine
 10
-94.260755
 20
-173.78496
 30
0.0
 11
-94.260755
 21
-196.064194
 31
0.0
  0
ENDBLK
  5
44C
100
AcDbEntity
  8
3
100
AcDbBlockEnd
  0
BLOCK
  5
44D
100
AcDbEntity
  8
3
100
AcDbBlockBegin
  2
*D4
 70
     1
 10
0.0
 20
0.0
 30
0.0
  3
*D4
  1

  0
TEXT
  5
44E
100
AcDbEntity
  8
3
370
    25
100
AcDbText
 10
44.189332
 20
-26.295278
 30
0.0
 40
7.0
  1
３゜
 50
358.5
 72
     5
 11
56.785015
 21
-26.625108
 31
0.0
100
AcDbText
  0
LINE
  5
44F
100
AcDbEntity
  8
3
370
    25
100
AcDbLine
 10
51.794347
 20
-1.28233
 30
0.0
 11
50.318328
 21
-29.446447
 31
0.0
  0
LINE
  5
450
100
AcDbEntity
  8
3
370
    25
100
AcDbLine
 10
51.899019
 20
-1.285071
 30
0.0
 11
51.899019
 21
-29.487838
 31
0.0
  0
LINE
  5
451
100
AcDbEntity
  8
3
370
    25
100
AcDbLine
 10
50.423
 20
-27.449187
 30
0.0
 11
46.712379
 21
-25.955438
 31
0.0
  0
LINE
  5
452
100
AcDbEntity
  8
3
370
    25
100
AcDbLine
 10
50.423
 20
-27.449187
 30
0.0
 11
46.462633
 21
-28.010874
 31
0.0
  0
LINE
  5
453
100
AcDbEntity
  8
3
370
    25
100
AcDbLine
 10
46.712379
 20
-25.955438
 30
0.0
 11
46.462633
 21
-28.010874
 31
0.0
  0
LINE
  5
454
100
AcDbEntity
  8
3
370
    25
100
AcDbLine
 10
51.899019
 20
-27.487838
 30
0.0
 11
55.824562
 21
-28.256024
 31
0.0
  0
LINE
  5
455
100
AcDbEntity
  8
3
370
    25
100
AcDbLine
 10
51.899019
 20
-27.487838
 30
0.0
 11
55.682732
 21
-26.190335
 31
0.0
  0
LINE
  5
456
100
AcDbEntity
  8
3
370
    25
100
AcDbLine
 10
55.824562
 20
-28.256024
 30
0.0
 11
55.682732
 21
-26.190335
 31
0.0
  0
ARC
  5
457
100
AcDbEntity
  8
3
370
    25
100
AcDbCircle
 10
51.899019
 20
0.714929
 30
0.0
 40
28.202767
100
AcDbArc
 50
247.476759
 51
289.523241
  0
ENDBLK
  5
458
100
AcDbEntity
  8
3
100
AcDbBlockEnd
  0
BLOCK
  5
459
100
AcDbEntity
  8
3
100
AcDbBlockBegin
  2
*D5
 70
     1
 10
0.0
 20
0.0
 30
0.0
  3
*D5
  1

  0
TEXT
  5
45A
100
AcDbEntity
  8
3
370
    25
100
AcDbText
 10
141.598817
 20
98.66246
 30
0.0
 40
7.0
  1
２００
 72
     5
 11
161.198817
 21
98.66246
 31
0.0
100
AcDbText
  0
LINE
  5
45B
100
AcDbEntity
  8
3
370
    25
100
AcDbLine
 10
252.298615
 20
-9.219395
 30
0.0
 11
252.298615
 21
99.66246
 31
0.0
  0
LINE
  5
45C
100
AcDbEntity
  8
3
370
    25
100
AcDbLine
 10
252.298615
 20
97.66246
 30
0.0
 11
248.434911
 21
98.697737
 31
0.0
  0
LINE
  5
45D
100
AcDbEntity
  8
3
370
    25
100
AcDbLine
 10
252.298615
 20
97.66246
 30
0.0
 11
248.434911
 21
96.627184
 31
0.0
  0
LINE
  5
45E
100
AcDbEntity
  8
3
370
    25
100
AcDbLine
 10
248.434911
 20
98.697737
 30
0.0
 11
248.434911
 21
96.627184
 31
0.0
  0
LINE
  5
45F
100
AcDbEntity
  8
3
370
    25
100
AcDbLine
 10
252.298615
 20
97.66246
 30
0.0
 11
51.899019
 21
97.66246
 31
0.0
  0
LINE
  5
460
100
AcDbEntity
  8
3
370
    25
100
AcDbLine
 10
51.899019
 20
97.66246
 30
0.0
 11
55.762722
 21
96.627184
 31
0.0
  0
LINE
  5
461
100
AcDbEntity
  8
3
370
    25
100
AcDbLine
 10
51.899019
 20
97.66246
 30
0.0
 11
55.762722
 21
98.697737
 31
0.0
  0
LINE
  5
462
100
AcDbEntity
  8
3
370
    25
100
AcDbLine
 10
55.762722
 20
96.627184
 30
0.0
 11
55.762722
 21
98.697737
 31
0.0
  0
LINE
  5
463
100
AcDbEntity
  8
3
370
    25
100
AcDbLine
 10
51.899019
 20
2.714929
 30
0.0
 11
51.899019
 21
99.66246
 31
0.0
  0
ENDBLK
  5
464
100
AcDbEntity
  8
3
100
AcDbBlockEnd
  0
BLOCK
  5
465
100
AcDbEntity
  8
3
100
AcDbBlockBegin
  2
*D6
 70
     1
 10
0.0
 20
0.0
 30
0.0
  3
*D6
  1

  0
TEXT
  5
466
100
AcDbEntity
  8
3
370
    25
100
AcDbText
 10
280.298615
 20
-122.23539
 30
0.0
 40
7.0
  1
４０
 72
     5
 11
292.898615
 21
-122.23539
 31
0.0
100
AcDbText
  0
LINE
  5
467
100
AcDbEntity
  8
3
370
    25
100
AcDbLine
 10
232.298615
 20
-111.284891
 30
0.0
 11
232.298615
 21
-125.23539
 31
0.0
  0
LINE
  5
468
100
AcDbEntity
  8
3
370
    25
100
AcDbLine
 10
232.298615
 20
-123.23539
 30
0.0
 11
228.434911
 21
-122.200114
 31
0.0
  0
LINE
  5
469
100
AcDbEntity
  8
3
370
    25
100
AcDbLine
 10
232.298615
 20
-123.23539
 30
0.0
 11
228.434911
 21
-124.270666
 31
0.0
  0
LINE
  5
46A
100
AcDbEntity
  8
3
370
    25
100
AcDbLine
 10
228.434911
 20
-122.200114
 30
0.0
 11
228.434911
 21
-124.270666
 31
0.0
  0
LINE
  5
46B
100
AcDbEntity
  8
3
370
    25
100
AcDbLine
 10
222.298615
 20
-123.23539
 30
0.0
 11
294.298615
 21
-123.23539
 31
0.0
  0
LINE
  5
46C
100
AcDbEntity
  8
3
370
    25
100
AcDbLine
 10
272.298615
 20
-123.23539
 30
0.0
 11
276.162318
 21
-124.270666
 31
0.0
  0
LINE
  5
46D
100
AcDbEntity
  8
3
370
    25
100
AcDbLine
 10
272.298615
 20
-123.23539
 30
0.0
 11
276.162318
 21
-122.200114
 31
0.0
  0
LINE
  5
46E
100
AcDbEntity
  8
3
370
    25
100
AcDbLine
 10
276.162318
 20
-124.270666
 30
0.0
 11
276.162318
 21
-122.200114
 31
0.0
  0
LINE
  5
46F
100
AcDbEntity
  8
3
370
    25
100
AcDbLine
 10
272.298615
 20
-111.284891
 30
0.0
 11
272.298615
 21
-125.23539
 31
0.0
  0
ENDBLK
  5
470
100
AcDbEntity
  8
3
100
AcDbBlockEnd
  0
BLOCK
  5
471
100
AcDbEntity
  8
3
100
AcDbBlockBegin
  2
*D7
 70
     1
 10
0.0
 20
0.0
 30
0.0
  3
*D7
  1

  0
TEXT
  5
472
100
AcDbEntity
  8
3
370
    25
100
AcDbText
 10
11.119931
 20
-64.784981
 30
0.0
 40
7.0
  1
１１０
 50
90.0
 72
     5
 11
11.119931
 21
-45.184981
 31
0.0
100
AcDbText
  0
LINE
  5
473
100
AcDbEntity
  8
3
370
    25
100
AcDbLine
 10
230.298615
 20
-109.284891
 30
0.0
 11
10.119931
 21
-109.284891
 31
0.0
  0
LINE
  5
474
100
AcDbEntity
  8
3
370
    25
100
AcDbLine
 10
12.119931
 20
-109.284891
 30
0.0
 11
13.155207
 21
-105.421188
 31
0.0
  0
LINE
  5
475
100
AcDbEntity
  8
3
370
    25
100
AcDbLine
 10
12.119931
 20
-109.284891
 30
0.0
 11
11.084655
 21
-105.421188
 31
0.0
  0
LINE
  5
476
100
AcDbEntity
  8
3
370
    25
100
AcDbLine
 10
13.155207
 20
-105.421188
 30
0.0
 11
11.084655
 21
-105.421188
 31
0.0
  0
LINE
  5
477
100
AcDbEntity
  8
3
370
    25
100
AcDbLine
 10
12.119931
 20
-109.284891
 30
0.0
 11
12.119931
 21
0.714929
 31
0.0
  0
LINE
  5
478
100
AcDbEntity
  8
3
370
    25
100
AcDbLine
 10
12.119931
 20
0.714929
 30
0.0
 11
11.084655
 21
-3.148774
 31
0.0
  0
LINE
  5
479
100
AcDbEntity
  8
3
370
    25
100
AcDbLine
 10
12.119931
 20
0.714929
 30
0.0
 11
13.155207
 21
-3.148774
 31
0.0
  0
LINE
  5
47A
100
AcDbEntity
  8
3
370
    25
100
AcDbLine
 10
11.084655
 20
-3.148774
 30
0.0
 11
13.155207
 21
-3.148774
 31
0.0
  0
LINE
  5
47B
100
AcDbEntity
  8
3
370
    25
100
AcDbLine
 10
49.899019
 20
0.714929
 30
0.0
 11
10.119931
 21
0.714929
 31
0.0
  0
ENDBLK
  5
47C
100
AcDbEntity
  8
3
100
AcDbBlockEnd
  0
BLOCK
  5
47D
100
AcDbEntity
  8
3
100
AcDbBlockBegin
  2
*D8
 70
     1
 10
0.0
 20
0.0
 30
0.0
  3
*D8
  1

  0
LINE
  5
47E
100
AcDbEntity
  8
3
370
    25
100
AcDbLine
 10
85.686926
 20
33.99227
 30
0.0
 11
130.227482
 21
31.657998
 31
0.0
  0
LINE
  5
47F
100
AcDbEntity
  8
3
370
    25
100
AcDbLine
 10
128.230222
 20
31.76267
 30
0.0
 11
129.46629
 21
35.566896
 31
0.0
  0
LINE
  5
480
100
AcDbEntity
  8
3
370
    25
100
AcDbLine
 10
128.230222
 20
31.76267
 30
0.0
 11
127.398576
 21
35.67526
 31
0.0
  0
LINE
  5
481
100
AcDbEntity
  8
3
370
    25
100
AcDbLine
 10
129.46629
 20
35.566896
 30
0.0
 11
127.398576
 21
35.67526
 31
0.0
  0
LINE
  5
482
100
AcDbEntity
  8
3
370
    25
100
AcDbLine
 10
130.480669
 20
74.70374
 30
0.0
 11
126.869488
 21
5.798302
 31
0.0
  0
LINE
  5
483
100
AcDbEntity
  8
3
370
    25
100
AcDbLine
 10
127.392847
 20
15.784597
 30
0.0
 11
126.156779
 21
11.980371
 31
0.0
  0
LINE
  5
484
100
AcDbEntity
  8
3
370
    25
100
AcDbLine
 10
127.392847
 20
15.784597
 30
0.0
 11
128.224494
 21
11.872007
 31
0.0
  0
LINE
  5
485
100
AcDbEntity
  8
3
370
    25
100
AcDbLine
 10
126.156779
 20
11.980371
 30
0.0
 11
128.224494
 21
11.872007
 31
0.0
  0
LINE
  5
486
100
AcDbEntity
  8
3
370
    25
100
AcDbLine
 10
84.84955
 20
18.014197
 30
0.0
 11
129.390106
 21
15.679925
 31
0.0
  0
ENDBLK
  5
487
100
AcDbEntity
  8
3
100
AcDbBlockEnd
  0
BLOCK
  5
488
100
AcDbEntity
  8
3
100
AcDbBlockBegin
  2
*D9
 70
     1
 10
0.0
 20
0.0
 30
0.0
  3
*D9
  1

  0
TEXT
  5
489
100
AcDbEntity
  8
3
370
    25
100
AcDbText
 10
-59.760755
 20
-121.722572
 30
0.0
 40
7.0
  1
１４２
 72
     5
 11
-40.160755
 21
-121.722572
 31
0.0
100
AcDbText
  0
LINE
  5
48A
100
AcDbEntity
  8
3
370
    25
100
AcDbLine
 10
-209.760755
 20
-111.284891
 30
0.0
 11
-209.760755
 21
-124.722572
 31
0.0
  0
LINE
  5
48B
100
AcDbEntity
  8
3
370
    25
100
AcDbLine
 10
-209.760755
 20
-122.722572
 30
0.0
 11
-213.624458
 21
-121.687296
 31
0.0
  0
LINE
  5
48C
100
AcDbEntity
  8
3
370
    25
100
AcDbLine
 10
-209.760755
 20
-122.722572
 30
0.0
 11
-213.624458
 21
-123.757849
 31
0.0
  0
LINE
  5
48D
100
AcDbEntity
  8
3
370
    25
100
AcDbLine
 10
-213.624458
 20
-121.687296
 30
0.0
 11
-213.624458
 21
-123.757849
 31
0.0
  0
LINE
  5
48E
100
AcDbEntity
  8
3
370
    25
100
AcDbLine
 10
-219.760755
 20
-122.722572
 30
0.0
 11
-38.760755
 21
-122.722572
 31
0.0
  0
LINE
  5
48F
100
AcDbEntity
  8
3
370
    25
100
AcDbLine
 10
-67.760755
 20
-122.722572
 30
0.0
 11
-63.897051
 21
-123.757849
 31
0.0
  0
LINE
  5
490
100
AcDbEntity
  8
3
370
    25
100
AcDbLine
 10
-67.760755
 20
-122.722572
 30
0.0
 11
-63.897051
 21
-121.687296
 31
0.0
  0
LINE
  5
491
100
AcDbEntity
  8
3
370
    25
100
AcDbLine
 10
-63.897051
 20
-123.757849
 30
0.0
 11
-63.897051
 21
-121.687296
 31
0.0
  0
LINE
  5
492
100
AcDbEntity
  8
3
370
    25
100
AcDbLine
 10
-67.760755
 20
-111.284891
 30
0.0
 11
-67.760755
 21
-124.722572
 31
0.0
  0
ENDBLK
  5
493
100
AcDbEntity
  8
3
100
AcDbBlockEnd
  0
ENDSEC
  0
SECTION
  2
ENTITIES
  0
LINE
  5
30
100
AcDbEntity
  8
1
370
   100
100
AcDbLine
 10
-373.02157
 20
275.028767
 30
0.0
 11
394.982385
 21
275.028767
 31
0.0
  0
LINE
  5
31
100
AcDbEntity
  8
1
370
   100
100
AcDbLine
 10
-373.02157
 20
275.028767
 30
0.0
 11
-373.02157
 21
-277.971881
 31
0.0
  0
LINE
  5
32
100
AcDbEntity
  8
1
370
   100
100
AcDbLine
 10
-373.02157
 20
-277.971881
 30
0.0
 11
394.982385
 21
-277.971881
 31
0.0
  0
LINE
  5
33
100
AcDbEntity
  8
1
370
   100
100
AcDbLine
 10
394.982385
 20
-277.971881
 30
0.0
 11
394.982385
 21
275.028767
 31
0.0
  0
TEXT
  5
34
100
AcDbEntity
  8
1
370
    50
100
AcDbText
 10
359.628442
 20
-226.252857
 30
0.0
 40
6.0
  1
設計
 72
     5
 11
370.428442
 21
-226.252857
 31
0.0
100
AcDbText
  0
TEXT
  5
35
100
AcDbEntity
  8
1
370
    50
100
AcDbText
 10
379.127478
 20
-226.099658
 30
0.0
 40
6.0
  1
製図
 72
     5
 11
389.927478
 21
-226.099658
 31
0.0
100
AcDbText
  0
TEXT
  5
36
100
AcDbEntity
  8
1
370
    50
100
AcDbText
 10
319.005745
 20
-226.252857
 30
0.0
 40
6.0
  1
承認
 72
     5
 11
329.805745
 21
-226.252857
 31
0.0
100
AcDbText
  0
TEXT
  5
37
100
AcDbEntity
  8
1
370
    50
100
AcDbText
 10
338.989679
 20
-226.19802
 30
0.0
 40
6.0
  1
検図
 72
     5
 11
349.789679
 21
-226.19802
 31
0.0
100
AcDbText
  0
LINE
  5
38
100
AcDbEntity
  8
1
370
    25
100
AcDbLine
 10
284.982385
 20
-227.971881
 30
0.0
 11
394.982385
 21
-227.971881
 31
0.0
  0
LINE
  5
39
100
AcDbEntity
  8
1
370
    25
100
AcDbLine
 10
342.482385
 20
-245.971881
 30
0.0
 11
342.482385
 21
-259.971881
 31
0.0
  0
TEXT
  5
3A
100
AcDbEntity
  8
1
370
    50
100
AcDbText
 10
319.55159
 20
-256.012528
 30
0.0
 40
6.0
  1
日　付
 72
     5
 11
336.35159
 21
-256.012528
 31
0.0
100
AcDbText
  0
LINE
  5
3B
100
AcDbEntity
  8
1
370
    50
100
AcDbLine
 10
40.982385
 20
-259.971881
 30
0.0
 11
394.982385
 21
-259.971881
 31
0.0
  0
TEXT
  5
3C
100
AcDbEntity
  8
1
370
    50
100
AcDbText
 10
287.775011
 20
-256.322406
 30
0.0
 40
6.0
  1
第三角法
 72
     5
 11
310.575011
 21
-256.322406
 31
0.0
100
AcDbText
  0
TEXT
  5
3D
100
AcDbEntity
  8
1
370
    50
100
AcDbText
 10
291.087419
 20
-225.99802
 30
0.0
 40
6.0
  1
尺　度
 72
     5
 11
307.887419
 21
-225.99802
 31
0.0
100
AcDbText
  0
LINE
  5
3E
100
AcDbEntity
  8
1
370
   100
100
AcDbLine
 10
40.982385
 20
-217.971881
 30
0.0
 11
394.982385
 21
-217.971881
 31
0.0
  0
LINE
  5
3F
100
AcDbEntity
  8
1
370
    50
100
AcDbLine
 10
211.982385
 20
-217.971881
 30
0.0
 11
211.982385
 21
-277.971881
 31
0.0
  0
LINE
  5
40
100
AcDbEntity
  8
1
370
    25
100
AcDbLine
 10
374.982385
 20
-245.971881
 30
0.0
 11
374.982385
 21
-217.971881
 31
0.0
  0
LINE
  5
41
100
AcDbEntity
  8
1
370
    25
100
AcDbLine
 10
354.982385
 20
-245.971881
 30
0.0
 11
354.982385
 21
-217.971881
 31
0.0
  0
LINE
  5
42
100
AcDbEntity
  8
1
370
    25
100
AcDbLine
 10
334.982385
 20
-245.971881
 30
0.0
 11
334.982385
 21
-217.971881
 31
0.0
  0
LINE
  5
43
100
AcDbEntity
  8
1
370
    50
100
AcDbLine
 10
284.982385
 20
-277.971881
 30
0.0
 11
284.982385
 21
-217.971881
 31
0.0
  0
LINE
  5
44
100
AcDbEntity
  8
1
370
    50
100
AcDbLine
 10
189.982385
 20
-217.971881
 30
0.0
 11
189.982385
 21
-277.971881
 31
0.0
  0
LINE
  5
45
100
AcDbEntity
  8
1
370
    50
100
AcDbLine
 10
62.982385
 20
-217.971881
 30
0.0
 11
62.982385
 21
-259.971881
 31
0.0
  0
LINE
  5
46
100
AcDbEntity
  8
1
370
    50
100
AcDbLine
 10
284.982385
 20
-245.971881
 30
0.0
 11
394.982385
 21
-245.971881
 31
0.0
  0
TEXT
  5
47
100
AcDbEntity
  8
1
370
    50
100
AcDbText
 10
287.101129
 20
-271.880939
 30
0.0
 40
6.0
  1
コードＮｏ
 41
0.9
 72
     5
 11
313.021129
 21
-271.880939
 31
0.0
100
AcDbText
  0
TEXT
  5
48
100
AcDbEntity
  8
1
370
   100
100
AcDbText
 10
52.886774
 20
-272.875659
 30
0.0
 40
8.0
  1
ミズタニバルブ工業株式会社
 41
1.2
 72
     5
 11
175.766774
 21
-272.875659
 31
0.0
100
AcDbText
  0
LINE
  5
49
100
AcDbEntity
  8
1
370
    50
100
AcDbLine
 10
40.982385
 20
-238.971881
 30
0.0
 11
284.982385
 21
-238.971881
 31
0.0
  0
LINE
  5
4A
100
AcDbEntity
  8
1
370
    50
100
AcDbLine
 10
115.482385
 20
-238.971881
 30
0.0
 11
115.482385
 21
-259.971881
 31
0.0
  0
LINE
  5
4B
100
AcDbEntity
  8
1
370
    50
100
AcDbLine
 10
137.482385
 20
-238.971881
 30
0.0
 11
137.482385
 21
-259.971881
 31
0.0
  0
LINE
  5
4C
100
AcDbEntity
  8
1
370
    50
100
AcDbLine
 10
314.982385
 20
-277.971881
 30
0.0
 11
314.982385
 21
-217.971881
 31
0.0
  0
TEXT
  5
4D
100
AcDbEntity
  8
1
370
    50
100
AcDbText
 10
345.098131
 20
-256.100293
 30
0.0
 40
6.0
  1
　　・　　・
 72
     5
 11
379.898131
 21
-256.100293
 31
0.0
100
AcDbText
  0
LINE
  5
4E
100
AcDbEntity
  8
1
370
   100
100
AcDbLine
 10
40.982385
 20
-217.971881
 30
0.0
 11
40.982385
 21
-277.971881
 31
0.0
  0
TEXT
  5
4F
100
AcDbEntity
  8
1
370
    50
100
AcDbText
 10
290.832582
 20
-240.013492
 30
0.0
 40
6.0
  1
　／ 
 72
     5
 11
301.632582
 21
-240.013492
 31
0.0
100
AcDbText
  0
TEXT
  5
50
100
AcDbEntity
  8
1
370
    50
100
AcDbText
 10
193.904123
 20
-272.024909
 30
0.0
 40
6.0
  1
備 考 
 72
     5
 11
207.704123
 21
-272.024909
 31
0.0
100
AcDbText
  0
TEXT
  5
51
100
AcDbEntity
  8
1
370
    50
100
AcDbText
 10
193.512534
 20
-230.89184
 30
0.0
 40
6.0
  1
仕 上
 72
     5
 11
207.312534
 21
-230.89184
 31
0.0
100
AcDbText
  0
TEXT
  5
52
100
AcDbEntity
  8
1
370
    50
100
AcDbText
 10
193.447176
 20
-248.891666
 30
0.0
 40
6.0
  1
表 面
 72
     5
 11
207.247176
 21
-248.891666
 31
0.0
100
AcDbText
  0
TEXT
  5
53
100
AcDbEntity
  8
1
370
    50
100
AcDbText
 10
193.447176
 20
-255.891666
 30
0.0
 40
6.0
  1
処 理
 72
     5
 11
207.247176
 21
-255.891666
 31
0.0
100
AcDbText
  0
TEXT
  5
54
100
AcDbEntity
  8
1
370
    50
100
AcDbText
 10
44.79335
 20
-231.693399
 30
0.0
 40
6.0
  1
品 名
 72
     5
 11
58.59335
 21
-231.693399
 31
0.0
100
AcDbText
  0
TEXT
  5
55
100
AcDbEntity
  8
1
370
    50
100
AcDbText
 10
44.397766
 20
-252.462534
 30
0.0
 40
6.0
  1
材 質
 72
     5
 11
58.197766
 21
-252.462534
 31
0.0
100
AcDbText
  0
TEXT
  5
56
100
AcDbEntity
  8
1
370
    50
100
AcDbText
 10
118.897766
 20
-252.462534
 30
0.0
 40
6.0
  1
規 格
 72
     5
 11
132.697766
 21
-252.462534
 31
0.0
100
AcDbText
  0
LINE
  5
57
100
AcDbEntity
  8
2
370
    50
100
AcDbLine
 10
-207.011057
 20
-90.495293
 30
0.0
 11
-209.760755
 21
-109.284891
 31
0.0
  0
LINE
  5
58
100
AcDbEntity
  8
2
370
    50
100
AcDbLine
 10
-70.510452
 20
-90.495293
 30
0.0
 11
-67.760755
 21
-109.284891
 31
0.0
  0
LINE
  5
59
100
AcDbEntity
  8
2
370
    50
100
AcDbLine
 10
-201.760755
 20
-79.784538
 30
0.0
 11
-201.760755
 21
-85.784891
 31
0.0
  0
LINE
  5
5A
100
AcDbEntity
  8
2
370
    50
100
AcDbLine
 10
-177.760755
 20
-79.784538
 30
0.0
 11
-177.760755
 21
-85.784891
 31
0.0
  0
LINE
  5
5B
100
AcDbEntity
  8
2
370
    50
100
AcDbLine
 10
-151.760755
 20
-81.284891
 30
0.0
 11
-151.760755
 21
-85.784891
 31
0.0
  0
LINE
  5
5C
100
AcDbEntity
  8
2
370
    50
100
AcDbLine
 10
-125.760755
 20
-81.284891
 30
0.0
 11
-125.760755
 21
-85.784891
 31
0.0
  0
LINE
  5
5D
100
AcDbEntity
  8
2
370
    50
100
AcDbLine
 10
-201.125755
 20
-79.784538
 30
0.0
 11
-201.125755
 21
-80.284891
 31
0.0
  0
LINE
  5
5E
100
AcDbEntity
  8
2
370
    50
100
AcDbLine
 10
-178.395755
 20
-79.784538
 30
0.0
 11
-178.395755
 21
-80.284891
 31
0.0
  0
LINE
  5
5F
100
AcDbEntity
  8
2
370
    50
100
AcDbLine
 10
-201.760755
 20
-80.284891
 30
0.0
 11
-177.760755
 21
-80.284891
 31
0.0
  0
LINE
  5
60
100
AcDbEntity
  8
2
370
    50
100
AcDbLine
 10
-178.395755
 20
-80.284891
 30
0.0
 11
-177.760755
 21
-80.919891
 31
0.0
  0
LINE
  5
61
100
AcDbEntity
  8
2
370
    50
100
AcDbLine
 10
-201.125755
 20
-80.284891
 30
0.0
 11
-201.760755
 21
-80.919891
 31
0.0
  0
ARC
  5
62
100
AcDbEntity
  8
2
370
    50
100
AcDbCircle
 10
-204.760755
 20
-85.784891
 30
0.0
 40
3.0
100
AcDbArc
 50
270.0
 51
360.0
  0
ARC
  5
63
100
AcDbEntity
  8
2
370
    50
100
AcDbCircle
 10
-174.760755
 20
-85.784891
 30
0.0
 40
3.0
100
AcDbArc
 50
180.0
 51
270.0
  0
ARC
  5
64
100
AcDbEntity
  8
2
370
    50
100
AcDbCircle
 10
-154.760755
 20
-85.784891
 30
0.0
 40
3.0
100
AcDbArc
 50
270.0
 51
360.0
  0
ARC
  5
65
100
AcDbEntity
  8
2
370
    50
100
AcDbCircle
 10
-122.760755
 20
-85.784891
 30
0.0
 40
3.0
100
AcDbArc
 50
180.0
 51
270.0
  0
ARC
  5
66
100
AcDbEntity
  8
2
370
    50
100
AcDbCircle
 10
-102.760755
 20
-85.784891
 30
0.0
 40
3.0
100
AcDbArc
 50
270.0
 51
360.0
  0
ARC
  5
67
100
AcDbEntity
  8
2
370
    50
100
AcDbCircle
 10
-72.760755
 20
-85.784891
 30
0.0
 40
3.0
100
AcDbArc
 50
180.0
 51
270.0
  0
LINE
  5
68
100
AcDbEntity
  8
2
370
    25
100
AcDbLine
 10
-151.125755
 20
-81.284891
 30
0.0
 11
-151.125755
 21
-82.784891
 31
0.0
  0
LINE
  5
69
100
AcDbEntity
  8
2
370
    50
100
AcDbLine
 10
-151.760755
 20
-82.784891
 30
0.0
 11
-125.760755
 21
-82.784891
 31
0.0
  0
LINE
  5
6A
100
AcDbEntity
  8
2
370
    50
100
AcDbLine
 10
-126.395755
 20
-82.784891
 30
0.0
 11
-125.760755
 21
-83.419891
 31
0.0
  0
LINE
  5
6B
100
AcDbEntity
  8
2
370
    50
100
AcDbLine
 10
-151.125755
 20
-82.784891
 30
0.0
 11
-151.760755
 21
-83.419891
 31
0.0
  0
LINE
  5
6C
100
AcDbEntity
  8
2
370
    50
100
AcDbLine
 10
-76.395755
 20
-79.784063
 30
0.0
 11
-76.395755
 21
-80.284891
 31
0.0
  0
LINE
  5
6D
100
AcDbEntity
  8
2
370
    50
100
AcDbLine
 10
-99.125755
 20
-79.784063
 30
0.0
 11
-99.125755
 21
-80.284891
 31
0.0
  0
LINE
  5
6E
100
AcDbEntity
  8
2
370
    50
100
AcDbLine
 10
-99.125755
 20
-80.284891
 30
0.0
 11
-99.760755
 21
-80.919891
 31
0.0
  0
LINE
  5
6F
100
AcDbEntity
  8
2
370
    50
100
AcDbLine
 10
-76.395755
 20
-80.284891
 30
0.0
 11
-75.760755
 21
-80.919891
 31
0.0
  0
LINE
  5
70
100
AcDbEntity
  8
2
370
    50
100
AcDbLine
 10
-205.032135
 20
-88.784891
 30
0.0
 11
-72.489374
 21
-88.784891
 31
0.0
  0
LINE
  5
71
100
AcDbEntity
  8
2
370
    25
  6
CENTER
100
AcDbLine
 10
-217.454422
 20
177.163633
 30
0.0
 11
-60.329868
 21
177.163633
 31
0.0
  0
LINE
  5
72
100
AcDbEntity
  8
2
370
    50
100
AcDbLine
 10
-75.760862
 20
-79.784063
 30
0.0
 11
-75.760862
 21
-85.784891
 31
0.0
  0
ARC
  5
73
100
AcDbEntity
  8
2
370
    50
100
AcDbCircle
 10
-13.042102
 20
-58.363225
 30
0.0
 40
100.0
100
AcDbArc
 50
168.537652
 51
188.388164
  0
ARC
  5
74
100
AcDbEntity
  8
2
370
    50
100
AcDbCircle
 10
-162.479699
 20
-58.363225
 30
0.0
 40
100.0
100
AcDbArc
 50
351.611836
 51
11.462348
  0
ARC
  5
75
100
AcDbEntity
  8
2
370
    50
100
AcDbCircle
 10
-87.760901
 20
-170.478148
 30
0.0
 40
140.0
100
AcDbArc
 50
93.788374
 51
96.34007
  0
ARC
  5
76
100
AcDbEntity
  8
2
370
    50
100
AcDbCircle
 10
-87.760901
 20
-170.478148
 30
0.0
 40
140.0
100
AcDbArc
 50
83.65993
 51
86.211626
  0
ARC
  5
77
100
AcDbEntity
  8
2
370
    50
100
AcDbCircle
 10
-102.227153
 20
-40.279348
 30
0.0
 40
9.0
100
AcDbArc
 50
96.34007
 51
168.537652
  0
ARC
  5
78
100
AcDbEntity
  8
2
370
    50
100
AcDbCircle
 10
-73.294648
 20
-40.279348
 30
0.0
 40
9.0
100
AcDbArc
 50
11.462348
 51
83.65993
  0
ARC
  5
79
100
AcDbEntity
  8
2
370
    50
100
AcDbCircle
 10
-104.057931
 20
-71.784063
 30
0.0
 40
8.0
100
AcDbArc
 50
188.388164
 51
270.0
  0
ARC
  5
7A
100
AcDbEntity
  8
2
370
    50
100
AcDbCircle
 10
-71.46387
 20
-71.784063
 30
0.0
 40
8.0
100
AcDbArc
 50
270.0
 51
351.611836
  0
LINE
  5
7B
100
AcDbEntity
  8
2
370
    50
100
AcDbLine
 10
-104.057931
 20
-79.784063
 30
0.0
 11
-71.46387
 21
-79.784063
 31
0.0
  0
LINE
  5
7C
100
AcDbEntity
  8
2
370
    50
100
AcDbLine
 10
-96.510901
 20
-30.165124
 30
0.0
 11
-96.510901
 21
-30.784063
 31
0.0
  0
LINE
  5
7D
100
AcDbEntity
  8
2
370
    50
100
AcDbLine
 10
-79.010901
 20
-30.165124
 30
0.0
 11
-79.010901
 21
-30.784063
 31
0.0
  0
ARC
  5
7E
100
AcDbEntity
  8
2
370
    50
100
AcDbCircle
 10
-95.510901
 20
-30.165124
 30
0.0
 40
1.0
100
AcDbArc
 50
95.629843
 51
180.0
  0
ARC
  5
7F
100
AcDbEntity
  8
2
370
    50
100
AcDbCircle
 10
-80.010901
 20
-30.165124
 30
0.0
 40
1.0
100
AcDbArc
 50
0.0
 51
84.370157
  0
ARC
  5
80
100
AcDbEntity
  8
2
370
    50
100
AcDbCircle
 10
-87.760901
 20
-108.784063
 30
0.0
 40
80.0
100
AcDbArc
 50
84.370157
 51
95.629843
  0
LINE
  5
81
100
AcDbEntity
  8
2
370
    50
100
AcDbLine
 10
-97.010901
 20
-30.784063
 30
0.0
 11
-78.510901
 21
-30.784063
 31
0.0
  0
ARC
  5
82
100
AcDbEntity
  8
2
370
    50
100
AcDbCircle
 10
-115.042157
 20
-58.3637
 30
0.0
 40
100.0
100
AcDbArc
 50
168.537652
 51
188.388164
  0
ARC
  5
83
100
AcDbEntity
  8
2
370
    50
100
AcDbCircle
 10
-204.227208
 20
-40.279823
 30
0.0
 40
9.0
100
AcDbArc
 50
96.34007
 51
168.537652
  0
ARC
  5
84
100
AcDbEntity
  8
2
370
    50
100
AcDbCircle
 10
-189.760956
 20
-170.478623
 30
0.0
 40
140.0
100
AcDbArc
 50
93.788374
 51
96.34007
  0
ARC
  5
85
100
AcDbEntity
  8
2
370
    50
100
AcDbCircle
 10
-197.510956
 20
-30.165599
 30
0.0
 40
1.0
100
AcDbArc
 50
95.629843
 51
180.0
  0
ARC
  5
86
100
AcDbEntity
  8
2
370
    50
100
AcDbCircle
 10
-189.760956
 20
-108.784538
 30
0.0
 40
80.0
100
AcDbArc
 50
84.370157
 51
95.629843
  0
ARC
  5
87
100
AcDbEntity
  8
2
370
    50
100
AcDbCircle
 10
-182.010956
 20
-30.165599
 30
0.0
 40
1.0
100
AcDbArc
 50
0.0
 51
84.370157
  0
LINE
  5
88
100
AcDbEntity
  8
2
370
    50
100
AcDbLine
 10
-180.510956
 20
-30.784538
 30
0.0
 11
-199.010956
 21
-30.784538
 31
0.0
  0
ARC
  5
89
100
AcDbEntity
  8
2
370
    50
100
AcDbCircle
 10
-189.760956
 20
-170.478623
 30
0.0
 40
140.0
100
AcDbArc
 50
83.65993
 51
86.211626
  0
ARC
  5
8A
100
AcDbEntity
  8
2
370
    50
100
AcDbCircle
 10
-175.294703
 20
-40.279823
 30
0.0
 40
9.0
100
AcDbArc
 50
11.462348
 51
83.65993
  0
ARC
  5
8B
100
AcDbEntity
  8
2
370
    50
100
AcDbCircle
 10
-264.479755
 20
-58.3637
 30
0.0
 40
100.0
100
AcDbArc
 50
351.611836
 51
11.462348
  0
ARC
  5
8C
100
AcDbEntity
  8
2
370
    50
100
AcDbCircle
 10
-173.463926
 20
-71.784538
 30
0.0
 40
8.0
100
AcDbArc
 50
270.0
 51
351.611836
  0
LINE
  5
8D
100
AcDbEntity
  8
2
370
    50
100
AcDbLine
 10
-173.463926
 20
-79.784538
 30
0.0
 11
-206.057986
 21
-79.784538
 31
0.0
  0
ARC
  5
8E
100
AcDbEntity
  8
2
370
    50
100
AcDbCircle
 10
-206.057986
 20
-71.784538
 30
0.0
 40
8.0
100
AcDbArc
 50
188.388164
 51
270.0
  0
LINE
  5
8F
100
AcDbEntity
  8
2
370
    50
100
AcDbLine
 10
-181.010956
 20
-30.165599
 30
0.0
 11
-181.010956
 21
-30.784538
 31
0.0
  0
LINE
  5
90
100
AcDbEntity
  8
2
370
    50
100
AcDbLine
 10
-198.510956
 20
-30.165599
 30
0.0
 11
-198.510956
 21
-30.784538
 31
0.0
  0
ARC
  5
91
100
AcDbEntity
  8
2
370
    50
100
AcDbCircle
 10
-299.425896
 20
-58.878873
 30
0.0
 40
120.0
100
AcDbArc
 50
355.059572
 51
9.155483
  0
ARC
  5
92
100
AcDbEntity
  8
2
370
    50
100
AcDbCircle
 10
-80.096015
 20
-58.878873
 30
0.0
 40
120.0
100
AcDbArc
 50
170.844517
 51
184.940428
  0
ARC
  5
93
100
AcDbEntity
  8
2
370
    50
100
AcDbCircle
 10
-189.760956
 20
-41.204458
 30
0.0
 40
8.91992
100
AcDbArc
 50
9.155483
 51
170.844517
  0
ARC
  5
94
100
AcDbEntity
  8
2
370
    50
100
AcDbCircle
 10
-189.760956
 20
-68.358427
 30
0.0
 40
9.926111
100
AcDbArc
 50
184.940428
 51
355.059572
  0
LINE
  5
95
100
AcDbEntity
  8
2
370
    50
100
AcDbLine
 10
-175.260956
 20
-34.284538
 30
0.0
 11
-175.260956
 21
-75.284538
 31
0.0
  0
LINE
  5
96
100
AcDbEntity
  8
2
370
    50
100
AcDbLine
 10
-204.260956
 20
-34.284538
 30
0.0
 11
-204.260956
 21
-75.284538
 31
0.0
  0
ARC
  5
97
100
AcDbEntity
  8
2
370
    50
100
AcDbCircle
 10
-264.479755
 20
-58.3637
 30
0.0
 40
99.5
100
AcDbArc
 50
352.362481
 51
11.528523
  0
ARC
  5
98
100
AcDbEntity
  8
2
370
    50
100
AcDbCircle
 10
-115.042157
 20
-58.3637
 30
0.0
 40
99.5
100
AcDbArc
 50
168.471477
 51
187.637519
  0
ARC
  5
99
100
AcDbEntity
  8
2
370
    50
100
AcDbCircle
 10
-204.696175
 20
-40.0769
 30
0.0
 40
8.0
100
AcDbArc
 50
105.117347
 51
168.471477
  0
ARC
  5
9A
100
AcDbEntity
  8
2
370
    50
100
AcDbCircle
 10
-206.260956
 20
-34.284538
 30
0.0
 40
2.0
100
AcDbArc
 50
0.0
 51
105.117347
  0
ARC
  5
9B
100
AcDbEntity
  8
2
370
    50
100
AcDbCircle
 10
-174.825737
 20
-40.0769
 30
0.0
 40
8.0
100
AcDbArc
 50
11.528523
 51
74.882653
  0
ARC
  5
9C
100
AcDbEntity
  8
2
370
    50
100
AcDbCircle
 10
-173.260956
 20
-34.284538
 30
0.0
 40
2.0
100
AcDbArc
 50
74.882653
 51
180.0
  0
ARC
  5
9D
100
AcDbEntity
  8
2
370
    50
100
AcDbCircle
 10
-205.730435
 20
-70.524547
 30
0.0
 40
8.0
100
AcDbArc
 50
187.637519
 51
252.175397
  0
ARC
  5
9E
100
AcDbEntity
  8
2
370
    50
100
AcDbCircle
 10
-207.260956
 20
-75.284538
 30
0.0
 40
3.0
100
AcDbArc
 50
252.175397
 51
360.0
  0
ARC
  5
9F
100
AcDbEntity
  8
2
370
    50
100
AcDbCircle
 10
-172.260956
 20
-75.284538
 30
0.0
 40
3.0
100
AcDbArc
 50
180.0
 51
287.824603
  0
ARC
  5
A0
100
AcDbEntity
  8
2
370
    50
100
AcDbCircle
 10
-173.791476
 20
-70.524547
 30
0.0
 40
8.0
100
AcDbArc
 50
287.824603
 51
352.362481
  0
LINE
  5
A1
100
AcDbEntity
  8
2
370
    50
100
AcDbLine
 10
-207.261245
 20
-131.784915
 30
0.0
 11
-207.261245
 21
-130.284915
 31
0.0
  0
LINE
  5
A2
100
AcDbEntity
  8
2
370
    50
100
AcDbLine
 10
-189.761245
 20
-130.284915
 30
0.0
 11
-207.261245
 21
-130.284915
 31
0.0
  0
LINE
  5
A3
100
AcDbEntity
  8
2
370
    50
100
AcDbLine
 10
-189.761245
 20
-131.784915
 30
0.0
 11
-207.261245
 21
-131.784915
 31
0.0
  0
LINE
  5
A4
100
AcDbEntity
  8
2
370
    25
100
AcDbLine
 10
-199.011245
 20
-159.78496
 30
0.0
 11
-199.011245
 21
-140.484915
 31
0.0
  0
LINE
  5
A5
100
AcDbEntity
  8
2
370
    50
100
AcDbLine
 10
-200.011245
 20
-159.78496
 30
0.0
 11
-200.011245
 21
-140.484915
 31
0.0
  0
LINE
  5
A6
100
AcDbEntity
  8
2
370
    50
100
AcDbLine
 10
-201.761245
 20
-140.484915
 30
0.0
 11
-189.761245
 21
-140.484915
 31
0.0
  0
LINE
  5
A7
100
AcDbEntity
  8
2
370
    50
100
AcDbLine
 10
-203.511245
 20
-139.474552
 30
0.0
 11
-203.511245
 21
-133.984915
 31
0.0
  0
LINE
  5
A8
100
AcDbEntity
  8
2
370
    50
100
AcDbLine
 10
-201.761245
 20
-140.484915
 30
0.0
 11
-203.511245
 21
-139.474552
 31
0.0
  0
LINE
  5
A9
100
AcDbEntity
  8
2
370
    50
100
AcDbLine
 10
-209.761245
 20
-133.484915
 30
0.0
 11
-209.761245
 21
-132.284915
 31
0.0
  0
LINE
  5
AA
100
AcDbEntity
  8
2
370
    50
100
AcDbLine
 10
-189.761245
 20
-133.984915
 30
0.0
 11
-204.081795
 21
-133.984915
 31
0.0
  0
LINE
  5
AB
100
AcDbEntity
  8
2
370
    50
100
AcDbLine
 10
-209.761245
 20
-132.284915
 30
0.0
 11
-189.761245
 21
-132.284915
 31
0.0
  0
LINE
  5
AC
100
AcDbEntity
  8
2
370
    50
100
AcDbLine
 10
-209.761245
 20
-133.484915
 30
0.0
 11
-189.761245
 21
-133.484915
 31
0.0
  0
ARC
  5
AD
100
AcDbEntity
  8
2
370
    50
100
AcDbCircle
 10
-204.081795
 20
-128.984915
 30
0.0
 40
5.0
100
AcDbArc
 50
246.443536
 51
270.0
  0
ARC
  5
AE
100
AcDbEntity
  8
2
370
    50
100
AcDbCircle
 10
-204.081795
 20
-136.784915
 30
0.0
 40
5.0
100
AcDbArc
 50
90.0
 51
113.556464
  0
ARC
  5
AF
100
AcDbEntity
  8
2
370
    50
100
AcDbCircle
 10
-206.479711
 20
-134.484915
 30
0.0
 40
1.0
100
AcDbArc
 50
66.443536
 51
90.0
  0
ARC
  5
B0
100
AcDbEntity
  8
2
370
    50
100
AcDbCircle
 10
-206.479711
 20
-131.284915
 30
0.0
 40
1.0
100
AcDbArc
 50
270.0
 51
293.556464
  0
LINE
  5
B1
100
AcDbEntity
  8
2
370
    50
100
AcDbLine
 10
-196.761245
 20
-139.474552
 30
0.0
 11
-196.761245
 21
-133.984915
 31
0.0
  0
ARC
  5
B2
100
AcDbEntity
  8
2
370
    50
100
AcDbCircle
 10
-189.761245
 20
-115.731022
 30
0.0
 40
24.753893
100
AcDbArc
 50
253.573579
 51
270.0
  0
ARC
  5
B3
100
AcDbEntity
  8
2
370
    50
100
AcDbCircle
 10
-200.136245
 20
-134.342836
 30
0.0
 40
6.142079
100
AcDbArc
 50
236.668091
 51
303.331909
  0
ARC
  5
B4
100
AcDbEntity
  8
2
370
    50
100
AcDbCircle
 10
-189.761245
 20
-117.734915
 30
0.0
 40
16.25
100
AcDbArc
 50
255.749967
 51
270.0
  0
ARC
  5
B5
100
AcDbEntity
  8
2
370
    50
100
AcDbCircle
 10
-198.011245
 20
-117.734915
 30
0.0
 40
16.25
100
AcDbArc
 50
255.749967
 51
277.069714
  0
ARC
  5
B6
100
AcDbEntity
  8
2
370
    50
100
AcDbCircle
 10
-194.011245
 20
-117.734915
 30
0.0
 40
16.25
100
AcDbArc
 50
255.749967
 51
277.514045
  0
ARC
  5
B7
100
AcDbEntity
  8
2
370
    50
100
AcDbCircle
 10
-202.011245
 20
-117.734915
 30
0.0
 40
16.25
100
AcDbArc
 50
270.0
 51
277.069714
  0
ARC
  5
B8
100
AcDbEntity
  8
2
370
    50
100
AcDbCircle
 10
-189.761245
 20
-148.034915
 30
0.0
 40
16.25
100
AcDbArc
 50
90.0
 51
104.250033
  0
ARC
  5
B9
100
AcDbEntity
  8
2
370
    50
100
AcDbCircle
 10
-194.011245
 20
-148.034915
 30
0.0
 40
16.25
100
AcDbArc
 50
82.485955
 51
104.250033
  0
ARC
  5
BA
100
AcDbEntity
  8
2
370
    50
100
AcDbCircle
 10
-198.011245
 20
-148.034915
 30
0.0
 40
16.25
100
AcDbArc
 50
82.930286
 51
104.250033
  0
ARC
  5
BB
100
AcDbEntity
  8
2
370
    50
100
AcDbCircle
 10
-202.011245
 20
-148.034915
 30
0.0
 40
16.25
100
AcDbArc
 50
82.930286
 51
90.0
  0
LINE
  5
BC
100
AcDbEntity
  8
2
370
    50
100
AcDbLine
 10
-201.260798
 20
-171.78496
 30
0.0
 11
-189.760798
 21
-171.78496
 31
0.0
  0
ARC
  5
BD
100
AcDbEntity
  8
2
370
    50
100
AcDbCircle
 10
-187.485798
 20
-165.78496
 30
0.0
 40
15.025
100
AcDbArc
 50
156.463422
 51
203.536578
  0
LINE
  5
BE
100
AcDbEntity
  8
2
370
    50
100
AcDbLine
 10
-201.260798
 20
-159.78496
 30
0.0
 11
-189.760798
 21
-159.78496
 31
0.0
  0
ELLIPSE
  5
BF
100
AcDbEntity
  8
2
370
    50
100
AcDbEllipse
 10
-199.72009
 20
-165.78496
 30
0.0
 11
0.0
 21
6.0
 31
0.0
210
0.0
220
0.0
230
1.0
 40
0.458833
 41
0.0
 42
6.2831849999999996
  0
ELLIPSE
  5
C0
100
AcDbEntity
  8
2
370
    50
100
AcDbEllipse
 10
-189.760798
 20
-165.78496
 30
0.0
 11
0.0
 21
6.0
 31
0.0
210
0.0
220
0.0
230
1.0
 40
0.926667
 41
0.0
 42
3.1415929999999999
  0
LINE
  5
C1
100
AcDbEntity
  8
2
370
    50
100
AcDbLine
 10
-172.260351
 20
-131.784915
 30
0.0
 11
-172.260351
 21
-130.284915
 31
0.0
  0
LINE
  5
C2
100
AcDbEntity
  8
2
370
    50
100
AcDbLine
 10
-189.760351
 20
-130.284915
 30
0.0
 11
-172.260351
 21
-130.284915
 31
0.0
  0
LINE
  5
C3
100
AcDbEntity
  8
2
370
    50
100
AcDbLine
 10
-189.760351
 20
-131.784915
 30
0.0
 11
-172.260351
 21
-131.784915
 31
0.0
  0
LINE
  5
C4
100
AcDbEntity
  8
2
370
    25
100
AcDbLine
 10
-180.510351
 20
-159.78496
 30
0.0
 11
-180.510351
 21
-140.484915
 31
0.0
  0
LINE
  5
C5
100
AcDbEntity
  8
2
370
    50
100
AcDbLine
 10
-179.510351
 20
-159.78496
 30
0.0
 11
-179.510351
 21
-140.484915
 31
0.0
  0
LINE
  5
C6
100
AcDbEntity
  8
2
370
    50
100
AcDbLine
 10
-177.760351
 20
-140.484915
 30
0.0
 11
-189.760351
 21
-140.484915
 31
0.0
  0
LINE
  5
C7
100
AcDbEntity
  8
2
370
    50
100
AcDbLine
 10
-176.010351
 20
-139.474552
 30
0.0
 11
-176.010351
 21
-133.984915
 31
0.0
  0
LINE
  5
C8
100
AcDbEntity
  8
2
370
    50
100
AcDbLine
 10
-177.760351
 20
-140.484915
 30
0.0
 11
-176.010351
 21
-139.474552
 31
0.0
  0
LINE
  5
C9
100
AcDbEntity
  8
2
370
    50
100
AcDbLine
 10
-169.760351
 20
-133.484915
 30
0.0
 11
-169.760351
 21
-132.284915
 31
0.0
  0
LINE
  5
CA
100
AcDbEntity
  8
2
370
    50
100
AcDbLine
 10
-189.760351
 20
-133.984915
 30
0.0
 11
-175.4398
 21
-133.984915
 31
0.0
  0
LINE
  5
CB
100
AcDbEntity
  8
2
370
    50
100
AcDbLine
 10
-169.760351
 20
-132.284915
 30
0.0
 11
-189.760351
 21
-132.284915
 31
0.0
  0
LINE
  5
CC
100
AcDbEntity
  8
2
370
    50
100
AcDbLine
 10
-169.760351
 20
-133.484915
 30
0.0
 11
-189.760351
 21
-133.484915
 31
0.0
  0
ARC
  5
CD
100
AcDbEntity
  8
2
370
    50
100
AcDbCircle
 10
-175.4398
 20
-128.984915
 30
0.0
 40
5.0
100
AcDbArc
 50
270.0
 51
293.556464
  0
ARC
  5
CE
100
AcDbEntity
  8
2
370
    50
100
AcDbCircle
 10
-175.4398
 20
-136.784915
 30
0.0
 40
5.0
100
AcDbArc
 50
66.443536
 51
90.0
  0
ARC
  5
CF
100
AcDbEntity
  8
2
370
    50
100
AcDbCircle
 10
-173.041884
 20
-134.484915
 30
0.0
 40
1.0
100
AcDbArc
 50
90.0
 51
113.556464
  0
ARC
  5
D0
100
AcDbEntity
  8
2
370
    50
100
AcDbCircle
 10
-173.041884
 20
-131.284915
 30
0.0
 40
1.0
100
AcDbArc
 50
246.443536
 51
270.0
  0
LINE
  5
D1
100
AcDbEntity
  8
2
370
    50
100
AcDbLine
 10
-182.760351
 20
-139.474552
 30
0.0
 11
-182.760351
 21
-133.984915
 31
0.0
  0
ARC
  5
D2
100
AcDbEntity
  8
2
370
    50
100
AcDbCircle
 10
-189.760351
 20
-115.731022
 30
0.0
 40
24.753893
100
AcDbArc
 50
270.0
 51
286.426421
  0
ARC
  5
D3
100
AcDbEntity
  8
2
370
    50
100
AcDbCircle
 10
-179.385351
 20
-134.342836
 30
0.0
 40
6.142079
100
AcDbArc
 50
236.668091
 51
303.331909
  0
ARC
  5
D4
100
AcDbEntity
  8
2
370
    50
100
AcDbCircle
 10
-181.510351
 20
-117.734915
 30
0.0
 40
16.25
100
AcDbArc
 50
262.930286
 51
284.250033
  0
ARC
  5
D5
100
AcDbEntity
  8
2
370
    50
100
AcDbCircle
 10
-185.510351
 20
-117.734915
 30
0.0
 40
16.25
100
AcDbArc
 50
262.485955
 51
284.250033
  0
ARC
  5
D6
100
AcDbEntity
  8
2
370
    50
100
AcDbCircle
 10
-177.510351
 20
-117.734915
 30
0.0
 40
16.25
100
AcDbArc
 50
262.930286
 51
270.0
  0
ARC
  5
D7
100
AcDbEntity
  8
2
370
    50
100
AcDbCircle
 10
-185.510351
 20
-148.034915
 30
0.0
 40
16.25
100
AcDbArc
 50
75.749967
 51
97.514045
  0
ARC
  5
D8
100
AcDbEntity
  8
2
370
    50
100
AcDbCircle
 10
-181.510351
 20
-148.034915
 30
0.0
 40
16.25
100
AcDbArc
 50
75.749967
 51
97.069714
  0
ARC
  5
D9
100
AcDbEntity
  8
2
370
    50
100
AcDbCircle
 10
-177.510351
 20
-148.034915
 30
0.0
 40
16.25
100
AcDbArc
 50
90.0
 51
97.069714
  0
LINE
  5
DA
100
AcDbEntity
  8
2
370
    50
100
AcDbLine
 10
-178.260798
 20
-171.78496
 30
0.0
 11
-189.760798
 21
-171.78496
 31
0.0
  0
ARC
  5
DB
100
AcDbEntity
  8
2
370
    50
100
AcDbCircle
 10
-192.035798
 20
-165.78496
 30
0.0
 40
15.025
100
AcDbArc
 50
336.463422
 51
23.536578
  0
LINE
  5
DC
100
AcDbEntity
  8
2
370
    50
100
AcDbLine
 10
-178.260798
 20
-159.78496
 30
0.0
 11
-189.760798
 21
-159.78496
 31
0.0
  0
ELLIPSE
  5
DD
100
AcDbEntity
  8
2
370
    50
100
AcDbEllipse
 10
-179.801506
 20
-165.78496
 30
0.0
 11
0.0
 21
6.0
 31
0.0
210
0.0
220
0.0
230
1.0
 40
0.458833
 41
0.0
 42
6.2831849999999996
  0
ELLIPSE
  5
DE
100
AcDbEntity
  8
2
370
    50
100
AcDbEllipse
 10
-189.760798
 20
-165.78496
 30
0.0
 11
0.0
 21
6.0
 31
0.0
210
0.0
220
0.0
230
1.0
 40
0.926667
 41
3.1415929999999999
 42
0.0
  0
LINE
  5
DF
100
AcDbEntity
  8
2
370
    50
100
AcDbLine
 10
-179.510351
 20
-112.284891
 30
0.0
 11
-179.510351
 21
-130.284915
 31
0.0
  0
LINE
  5
E0
100
AcDbEntity
  8
2
370
    25
100
AcDbLine
 10
-180.510351
 20
-112.284891
 30
0.0
 11
-180.510351
 21
-130.284915
 31
0.0
  0
LINE
  5
E1
100
AcDbEntity
  8
2
370
    25
100
AcDbLine
 10
-199.011245
 20
-112.284891
 30
0.0
 11
-199.011245
 21
-130.284915
 31
0.0
  0
LINE
  5
E2
100
AcDbEntity
  8
2
370
    50
100
AcDbLine
 10
-200.011245
 20
-112.284891
 30
0.0
 11
-200.011245
 21
-130.284915
 31
0.0
  0
ARC
  5
E3
100
AcDbEntity
  8
2
370
    50
100
AcDbCircle
 10
-189.760502
 20
214.063585
 30
0.0
 40
17.9
100
AcDbArc
 50
232.120687
 51
307.879313
  0
ARC
  5
E4
100
AcDbEntity
  8
2
370
    50
100
AcDbCircle
 10
-221.716839
 20
195.613585
 30
0.0
 40
17.9
100
AcDbArc
 50
292.120687
 51
7.879313
  0
ARC
  5
E5
100
AcDbEntity
  8
2
370
    50
100
AcDbCircle
 10
-221.716839
 20
158.713585
 30
0.0
 40
17.9
100
AcDbArc
 50
352.120687
 51
67.879313
  0
ARC
  5
E6
100
AcDbEntity
  8
2
370
    50
100
AcDbCircle
 10
-189.760502
 20
140.263585
 30
0.0
 40
17.9
100
AcDbArc
 50
52.120687
 51
127.879313
  0
ARC
  5
E7
100
AcDbEntity
  8
2
370
    50
100
AcDbCircle
 10
-157.804164
 20
158.713585
 30
0.0
 40
17.9
100
AcDbArc
 50
112.120687
 51
187.879313
  0
ARC
  5
E8
100
AcDbEntity
  8
2
370
    50
100
AcDbCircle
 10
-157.804164
 20
195.613585
 30
0.0
 40
17.9
100
AcDbArc
 50
172.120687
 51
247.879313
  0
ARC
  5
E9
100
AcDbEntity
  8
2
370
    50
100
AcDbCircle
 10
-189.760502
 20
217.863585
 30
0.0
 40
20.2
100
AcDbArc
 50
240.787981
 51
299.212019
  0
ARC
  5
EA
100
AcDbEntity
  8
2
370
    50
100
AcDbCircle
 10
-225.007736
 20
197.513585
 30
0.0
 40
20.2
100
AcDbArc
 50
300.787981
 51
359.212019
  0
ARC
  5
EB
100
AcDbEntity
  8
2
370
    50
100
AcDbCircle
 10
-225.007736
 20
156.813585
 30
0.0
 40
20.2
100
AcDbArc
 50
0.787981
 51
59.212019
  0
ARC
  5
EC
100
AcDbEntity
  8
2
370
    50
100
AcDbCircle
 10
-189.760502
 20
136.463585
 30
0.0
 40
20.2
100
AcDbArc
 50
60.787981
 51
119.212019
  0
ARC
  5
ED
100
AcDbEntity
  8
2
370
    50
100
AcDbCircle
 10
-154.513268
 20
156.813585
 30
0.0
 40
20.2
100
AcDbArc
 50
120.787981
 51
179.212019
  0
ARC
  5
EE
100
AcDbEntity
  8
2
370
    50
100
AcDbCircle
 10
-154.513268
 20
197.513585
 30
0.0
 40
20.2
100
AcDbArc
 50
180.787981
 51
239.212019
  0
ARC
  5
EF
100
AcDbEntity
  8
2
370
    50
100
AcDbCircle
 10
-189.760502
 20
177.163585
 30
0.0
 40
25.285
100
AcDbArc
 50
54.054461
 51
65.945539
  0
ARC
  5
F0
100
AcDbEntity
  8
2
370
    50
100
AcDbCircle
 10
-189.760502
 20
177.163585
 30
0.0
 40
25.285
100
AcDbArc
 50
354.054461
 51
5.945539
  0
ARC
  5
F1
100
AcDbEntity
  8
2
370
    50
100
AcDbCircle
 10
-189.760502
 20
177.163585
 30
0.0
 40
25.285
100
AcDbArc
 50
294.054461
 51
305.945539
  0
ARC
  5
F2
100
AcDbEntity
  8
2
370
    50
100
AcDbCircle
 10
-189.760502
 20
177.163585
 30
0.0
 40
25.285
100
AcDbArc
 50
234.054461
 51
245.945539
  0
ARC
  5
F3
100
AcDbEntity
  8
2
370
    50
100
AcDbCircle
 10
-189.760502
 20
177.163585
 30
0.0
 40
25.285
100
AcDbArc
 50
114.054461
 51
125.945539
  0
ARC
  5
F4
100
AcDbEntity
  8
2
370
    50
100
AcDbCircle
 10
-189.760502
 20
177.163585
 30
0.0
 40
25.285
100
AcDbArc
 50
174.054461
 51
185.945539
  0
ARC
  5
F5
100
AcDbEntity
  8
2
370
    50
100
AcDbCircle
 10
-165.108825
 20
179.730892
 30
0.0
 40
0.5
100
AcDbArc
 50
5.945539
 51
59.212019
  0
ARC
  5
F6
100
AcDbEntity
  8
2
370
    50
100
AcDbCircle
 10
-165.108825
 20
174.596278
 30
0.0
 40
0.5
100
AcDbArc
 50
300.787981
 51
354.054461
  0
ARC
  5
F7
100
AcDbEntity
  8
2
370
    50
100
AcDbCircle
 10
-175.21131
 20
157.09826
 30
0.0
 40
0.5
100
AcDbArc
 50
305.945539
 51
359.212019
  0
ARC
  5
F8
100
AcDbEntity
  8
2
370
    50
100
AcDbCircle
 10
-179.658017
 20
154.530953
 30
0.0
 40
0.5
100
AcDbArc
 50
240.787981
 51
294.054461
  0
ARC
  5
F9
100
AcDbEntity
  8
2
370
    50
100
AcDbCircle
 10
-199.862987
 20
154.530953
 30
0.0
 40
0.5
100
AcDbArc
 50
245.945539
 51
299.212019
  0
ARC
  5
FA
100
AcDbEntity
  8
2
370
    50
100
AcDbCircle
 10
-204.309693
 20
157.09826
 30
0.0
 40
0.5
100
AcDbArc
 50
180.787981
 51
234.054461
  0
ARC
  5
FB
100
AcDbEntity
  8
2
370
    50
100
AcDbCircle
 10
-214.412178
 20
174.596278
 30
0.0
 40
0.5
100
AcDbArc
 50
185.945539
 51
239.212019
  0
ARC
  5
FC
100
AcDbEntity
  8
2
370
    50
100
AcDbCircle
 10
-214.412178
 20
179.730892
 30
0.0
 40
0.5
100
AcDbArc
 50
120.787981
 51
174.054461
  0
ARC
  5
FD
100
AcDbEntity
  8
2
370
    50
100
AcDbCircle
 10
-204.309693
 20
197.228909
 30
0.0
 40
0.5
100
AcDbArc
 50
125.945539
 51
179.212019
  0
ARC
  5
FE
100
AcDbEntity
  8
2
370
    50
100
AcDbCircle
 10
-199.862987
 20
199.796217
 30
0.0
 40
0.5
100
AcDbArc
 50
60.787981
 51
114.054461
  0
ARC
  5
FF
100
AcDbEntity
  8
2
370
    50
100
AcDbCircle
 10
-179.658017
 20
199.796217
 30
0.0
 40
0.5
100
AcDbArc
 50
65.945539
 51
119.212019
  0
ARC
  5
100
100
AcDbEntity
  8
2
370
    50
100
AcDbCircle
 10
-175.21131
 20
197.228909
 30
0.0
 40
0.5
100
AcDbArc
 50
0.787981
 51
54.054461
  0
CIRCLE
  5
101
100
AcDbEntity
  8
2
370
    50
100
AcDbCircle
 10
-189.760502
 20
177.163585
 30
0.0
 40
8.0
  0
LINE
  5
102
100
AcDbEntity
  8
2
370
    50
100
AcDbLine
 10
-99.760647
 20
-79.784063
 30
0.0
 11
-99.760647
 21
-85.784891
 31
0.0
  0
LINE
  5
103
100
AcDbEntity
  8
2
370
    25
  6
CENTER
100
AcDbLine
 10
-87.760755
 20
-178.594172
 30
0.0
 11
-87.760755
 21
-20.110619
 31
0.0
  0
LINE
  5
104
100
AcDbEntity
  8
2
370
    25
  6
CENTER
100
AcDbLine
 10
-87.760755
 20
150.823685
 30
0.0
 11
-87.760755
 21
202.929352
 31
0.0
  0
LINE
  5
105
100
AcDbEntity
  8
2
370
    25
  6
CENTER
100
AcDbLine
 10
-138.760755
 20
150.823685
 30
0.0
 11
-138.760755
 21
202.929352
 31
0.0
  0
LINE
  5
106
100
AcDbEntity
  8
2
370
    25
  6
CENTER
100
AcDbLine
 10
-189.760755
 20
-178.594172
 30
0.0
 11
-189.760755
 21
-20.110619
 31
0.0
  0
LINE
  5
107
100
AcDbEntity
  8
2
370
    25
  6
CENTER
100
AcDbLine
 10
-189.760755
 20
150.823685
 30
0.0
 11
-189.760755
 21
202.929352
 31
0.0
  0
LINE
  5
108
100
AcDbEntity
  8
2
370
    50
100
AcDbLine
 10
-206.760755
 20
-112.284891
 30
0.0
 11
-206.760755
 21
-109.284891
 31
0.0
  0
LINE
  5
109
100
AcDbEntity
  8
2
370
    50
100
AcDbLine
 10
-133.1039
 20
171.506779
 30
0.0
 11
-252.198423
 21
52.412256
 31
0.0
  0
LINE
  5
10A
100
AcDbEntity
  8
2
370
    50
100
AcDbLine
 10
-144.417609
 20
182.820487
 30
0.0
 11
-263.512132
 21
63.725964
 31
0.0
  0
ARC
  5
10B
100
AcDbEntity
  8
2
370
    50
100
AcDbCircle
 10
-138.760755
 20
177.163633
 30
0.0
 40
8.0
100
AcDbArc
 50
315.0
 51
135.0
  0
LINE
  5
10C
100
AcDbEntity
  8
2
370
    50
100
AcDbLine
 10
-103.087986
 20
194.163633
 30
0.0
 11
-174.433555
 21
194.163633
 31
0.0
  0
LINE
  5
10D
100
AcDbEntity
  8
2
370
    50
100
AcDbLine
 10
-102.811304
 20
197.163633
 30
0.0
 11
-174.710236
 21
197.163633
 31
0.0
  0
LINE
  5
10E
100
AcDbEntity
  8
2
370
    50
100
AcDbLine
 10
-156.510755
 20
175.907535
 30
0.0
 11
-156.510755
 21
178.419731
 31
0.0
  0
LINE
  5
10F
100
AcDbEntity
  8
2
370
    50
100
AcDbLine
 10
-156.510755
 20
178.419731
 30
0.0
 11
-148.723568
 21
191.907535
 31
0.0
  0
LINE
  5
110
100
AcDbEntity
  8
2
370
    50
100
AcDbLine
 10
-154.614672
 20
172.623424
 30
0.0
 11
-156.510755
 21
175.907535
 31
0.0
  0
LINE
  5
111
100
AcDbEntity
  8
2
370
    50
100
AcDbLine
 10
-130.973568
 20
161.163633
 30
0.0
 11
-143.447046
 21
161.163633
 31
0.0
  0
LINE
  5
112
100
AcDbEntity
  8
2
370
    50
100
AcDbLine
 10
-121.010755
 20
175.907535
 30
0.0
 11
-128.797942
 21
162.419731
 31
0.0
  0
LINE
  5
113
100
AcDbEntity
  8
2
370
    50
100
AcDbLine
 10
-128.797942
 20
191.907535
 30
0.0
 11
-121.010755
 21
178.419731
 31
0.0
  0
LINE
  5
114
100
AcDbEntity
  8
2
370
    50
100
AcDbLine
 10
-146.547942
 20
193.163633
 30
0.0
 11
-130.973568
 21
193.163633
 31
0.0
  0
LINE
  5
115
100
AcDbEntity
  8
2
370
    50
100
AcDbLine
 10
-128.797942
 20
162.419731
 30
0.0
 11
-130.973568
 21
161.163633
 31
0.0
  0
LINE
  5
116
100
AcDbEntity
  8
2
370
    50
100
AcDbLine
 10
-130.973568
 20
193.163633
 30
0.0
 11
-128.797942
 21
191.907535
 31
0.0
  0
LINE
  5
117
100
AcDbEntity
  8
2
370
    50
100
AcDbLine
 10
-148.723568
 20
191.907535
 30
0.0
 11
-146.547942
 21
193.163633
 31
0.0
  0
LINE
  5
118
100
AcDbEntity
  8
2
370
    50
100
AcDbLine
 10
-156.510755
 20
175.907535
 30
0.0
 11
-156.510755
 21
178.419731
 31
0.0
  0
LINE
  5
119
100
AcDbEntity
  8
2
370
    50
100
AcDbLine
 10
-266.057716
 20
66.271549
 30
0.0
 11
-249.652839
 21
49.866671
 31
0.0
  0
LINE
  5
11A
100
AcDbEntity
  8
2
370
    50
100
AcDbLine
 10
-249.652839
 20
49.159565
 30
0.0
 11
-282.417126
 21
16.395278
 31
0.0
  0
LINE
  5
11B
100
AcDbEntity
  8
2
370
    50
100
AcDbLine
 10
-266.764823
 20
66.271549
 30
0.0
 11
-299.52911
 21
33.507262
 31
0.0
  0
ARC
  5
11C
100
AcDbEntity
  8
2
370
    50
100
AcDbCircle
 10
-284.408439
 20
31.515948
 30
0.0
 40
16.0
100
AcDbArc
 50
180.572996
 51
269.427004
  0
LINE
  5
11D
100
AcDbEntity
  8
2
370
    50
100
AcDbLine
 10
-284.063596
 20
16.366376
 30
0.0
 11
-299.434636
 21
31.737416
 31
0.0
  0
ARC
  5
11E
100
AcDbEntity
  8
2
370
    50
100
AcDbCircle
 10
-205.032135
 20
-90.784891
 30
0.0
 40
2.0
100
AcDbArc
 50
90.0
 51
171.67435
  0
ARC
  5
11F
100
AcDbEntity
  8
2
370
    50
100
AcDbCircle
 10
-72.489374
 20
-90.784891
 30
0.0
 40
2.0
100
AcDbArc
 50
8.32565
 51
90.0
  0
LINE
  5
120
100
AcDbEntity
  8
2
370
    50
100
AcDbLine
 10
-209.760755
 20
-109.284891
 30
0.0
 11
-67.760755
 21
-109.284891
 31
0.0
  0
LINE
  5
121
100
AcDbEntity
  8
2
370
    50
100
AcDbLine
 10
-130.761193
 20
-71.284891
 30
0.0
 11
-130.761193
 21
0.319777
 31
0.0
  0
LINE
  5
122
100
AcDbEntity
  8
2
370
    50
100
AcDbLine
 10
-146.761193
 20
-71.284891
 30
0.0
 11
-146.761193
 21
0.319826
 31
0.0
  0
ARC
  5
123
100
AcDbEntity
  8
2
370
    50
100
AcDbCircle
 10
-131.691041
 20
-76.284891
 30
0.0
 40
8.205286
100
AcDbArc
 50
322.456522
 51
0.0
  0
ARC
  5
124
100
AcDbEntity
  8
2
370
    50
100
AcDbCircle
 10
-128.485755
 20
-76.284891
 30
0.0
 40
5.0
100
AcDbArc
 50
0.0
 51
90.0
  0
ARC
  5
125
100
AcDbEntity
  8
2
370
    50
100
AcDbCircle
 10
-149.035755
 20
-76.284891
 30
0.0
 40
5.0
100
AcDbArc
 50
90.0
 51
180.0
  0
ARC
  5
126
100
AcDbEntity
  8
2
370
    50
100
AcDbCircle
 10
-145.830469
 20
-76.284891
 30
0.0
 40
8.205286
100
AcDbArc
 50
180.0
 51
217.543478
  0
ELLIPSE
  5
127
100
AcDbEntity
  8
2
370
    50
100
AcDbEllipse
 10
-150.88511
 20
-76.813696
 30
0.0
 11
0.0
 21
-3.8641269999999999
 31
0.0
210
0.0
220
0.0
230
1.0
 40
0.790537
 41
0.0
 42
6.2831849999999996
  0
ELLIPSE
  5
128
100
AcDbEntity
  8
2
370
    50
100
AcDbEllipse
 10
-138.760755
 20
-76.813696
 30
0.0
 11
-6.10947
 21
0.0
 31
0.0
210
0.0
220
0.0
230
1.0
 40
0.632482
 41
0.0
 42
6.2831849999999996
  0
LINE
  5
129
100
AcDbEntity
  8
2
370
    50
100
AcDbLine
 10
-149.035755
 20
-71.284891
 30
0.0
 11
-128.485755
 21
-71.284891
 31
0.0
  0
LINE
  5
12A
100
AcDbEntity
  8
2
370
    50
100
AcDbLine
 10
-130.761193
 20
-71.284891
 30
0.0
 11
-128.485755
 21
-71.284891
 31
0.0
  0
LINE
  5
12B
100
AcDbEntity
  8
2
370
    50
100
AcDbLine
 10
-152.336367
 20
-81.284891
 30
0.0
 11
-125.185142
 21
-81.284891
 31
0.0
  0
LINE
  5
12C
100
AcDbEntity
  8
2
370
    50
100
AcDbLine
 10
-125.760755
 20
-81.284891
 30
0.0
 11
-125.185142
 21
-81.284891
 31
0.0
  0
LINE
  5
12D
100
AcDbEntity
  8
2
370
    25
  6
CENTER
100
AcDbLine
 10
-138.760755
 20
43.913181
 30
0.0
 11
-138.760755
 21
-115.899101
 31
0.0
  0
LINE
  5
12E
100
AcDbEntity
  8
2
370
    25
100
AcDbLine
 10
-126.395755
 20
-82.784891
 30
0.0
 11
-126.395755
 21
-81.284891
 31
0.0
  0
ELLIPSE
  5
12F
100
AcDbEntity
  8
2
370
    50
100
AcDbEllipse
 10
-126.636399
 20
-76.813696
 30
0.0
 11
0.0
 21
3.8641269999999999
 31
0.0
210
0.0
220
0.0
230
1.0
 40
0.790537
 41
0.0
 42
6.2831849999999996
  0
ARC
  5
130
100
AcDbEntity
  8
2
370
    50
100
AcDbCircle
 10
21.904387
 20
-58.878873
 30
0.0
 40
120.0
100
AcDbArc
 50
170.844517
 51
184.940428
  0
ARC
  5
131
100
AcDbEntity
  8
2
370
    50
100
AcDbCircle
 10
-197.425494
 20
-58.878873
 30
0.0
 40
120.0
100
AcDbArc
 50
355.059572
 51
9.155483
  0
ARC
  5
132
100
AcDbEntity
  8
2
370
    50
100
AcDbCircle
 10
-87.760553
 20
-41.204458
 30
0.0
 40
8.91992
100
AcDbArc
 50
9.155483
 51
170.844517
  0
ARC
  5
133
100
AcDbEntity
  8
2
370
    50
100
AcDbCircle
 10
-87.760553
 20
-68.358427
 30
0.0
 40
9.926111
100
AcDbArc
 50
184.940428
 51
355.059572
  0
LINE
  5
134
100
AcDbEntity
  8
2
370
    50
100
AcDbLine
 10
-102.260553
 20
-34.284538
 30
0.0
 11
-102.260553
 21
-75.284538
 31
0.0
  0
LINE
  5
135
100
AcDbEntity
  8
2
370
    50
100
AcDbLine
 10
-73.260553
 20
-34.284538
 30
0.0
 11
-73.260553
 21
-75.284538
 31
0.0
  0
ARC
  5
136
100
AcDbEntity
  8
2
370
    50
100
AcDbCircle
 10
-13.041755
 20
-58.3637
 30
0.0
 40
99.5
100
AcDbArc
 50
168.471477
 51
187.637519
  0
ARC
  5
137
100
AcDbEntity
  8
2
370
    50
100
AcDbCircle
 10
-162.479352
 20
-58.3637
 30
0.0
 40
99.5
100
AcDbArc
 50
352.362481
 51
11.528523
  0
ARC
  5
138
100
AcDbEntity
  8
2
370
    50
100
AcDbCircle
 10
-72.825334
 20
-40.0769
 30
0.0
 40
8.0
100
AcDbArc
 50
11.528523
 51
74.882653
  0
ARC
  5
139
100
AcDbEntity
  8
2
370
    50
100
AcDbCircle
 10
-71.260553
 20
-34.284538
 30
0.0
 40
2.0
100
AcDbArc
 50
74.882653
 51
180.0
  0
ARC
  5
13A
100
AcDbEntity
  8
2
370
    50
100
AcDbCircle
 10
-102.695773
 20
-40.0769
 30
0.0
 40
8.0
100
AcDbArc
 50
105.117347
 51
168.471477
  0
ARC
  5
13B
100
AcDbEntity
  8
2
370
    50
100
AcDbCircle
 10
-104.260553
 20
-34.284538
 30
0.0
 40
2.0
100
AcDbArc
 50
0.0
 51
105.117347
  0
ARC
  5
13C
100
AcDbEntity
  8
2
370
    50
100
AcDbCircle
 10
-71.791074
 20
-70.524547
 30
0.0
 40
8.0
100
AcDbArc
 50
287.824603
 51
352.362481
  0
ARC
  5
13D
100
AcDbEntity
  8
2
370
    50
100
AcDbCircle
 10
-70.260553
 20
-75.284538
 30
0.0
 40
3.0
100
AcDbArc
 50
180.0
 51
287.824603
  0
ARC
  5
13E
100
AcDbEntity
  8
2
370
    50
100
AcDbCircle
 10
-105.260553
 20
-75.284538
 30
0.0
 40
3.0
100
AcDbArc
 50
252.175397
 51
360.0
  0
ARC
  5
13F
100
AcDbEntity
  8
2
370
    50
100
AcDbCircle
 10
-103.730033
 20
-70.524547
 30
0.0
 40
8.0
100
AcDbArc
 50
187.637519
 51
252.175397
  0
LINE
  5
140
100
AcDbEntity
  8
2
370
    50
100
AcDbLine
 10
-76.395755
 20
-80.284891
 30
0.0
 11
-99.125755
 21
-80.284891
 31
0.0
  0
LINE
  5
141
100
AcDbEntity
  8
2
370
    50
100
AcDbLine
 10
-70.260264
 20
-131.784915
 30
0.0
 11
-70.260264
 21
-130.284915
 31
0.0
  0
LINE
  5
142
100
AcDbEntity
  8
2
370
    50
100
AcDbLine
 10
-87.760264
 20
-130.284915
 30
0.0
 11
-70.260264
 21
-130.284915
 31
0.0
  0
LINE
  5
143
100
AcDbEntity
  8
2
370
    50
100
AcDbLine
 10
-87.760264
 20
-131.784915
 30
0.0
 11
-70.260264
 21
-131.784915
 31
0.0
  0
LINE
  5
144
100
AcDbEntity
  8
2
370
    25
100
AcDbLine
 10
-78.510264
 20
-159.78496
 30
0.0
 11
-78.510264
 21
-140.484915
 31
0.0
  0
LINE
  5
145
100
AcDbEntity
  8
2
370
    50
100
AcDbLine
 10
-77.510264
 20
-159.78496
 30
0.0
 11
-77.510264
 21
-140.484915
 31
0.0
  0
LINE
  5
146
100
AcDbEntity
  8
2
370
    50
100
AcDbLine
 10
-75.760264
 20
-140.484915
 30
0.0
 11
-87.760264
 21
-140.484915
 31
0.0
  0
LINE
  5
147
100
AcDbEntity
  8
2
370
    50
100
AcDbLine
 10
-74.010264
 20
-139.474552
 30
0.0
 11
-74.010264
 21
-133.984915
 31
0.0
  0
LINE
  5
148
100
AcDbEntity
  8
2
370
    50
100
AcDbLine
 10
-75.760264
 20
-140.484915
 30
0.0
 11
-74.010264
 21
-139.474552
 31
0.0
  0
LINE
  5
149
100
AcDbEntity
  8
2
370
    50
100
AcDbLine
 10
-67.760264
 20
-133.484915
 30
0.0
 11
-67.760264
 21
-132.284915
 31
0.0
  0
LINE
  5
14A
100
AcDbEntity
  8
2
370
    50
100
AcDbLine
 10
-87.760264
 20
-133.984915
 30
0.0
 11
-73.439714
 21
-133.984915
 31
0.0
  0
LINE
  5
14B
100
AcDbEntity
  8
2
370
    50
100
AcDbLine
 10
-67.760264
 20
-132.284915
 30
0.0
 11
-87.760264
 21
-132.284915
 31
0.0
  0
LINE
  5
14C
100
AcDbEntity
  8
2
370
    50
100
AcDbLine
 10
-67.760264
 20
-133.484915
 30
0.0
 11
-87.760264
 21
-133.484915
 31
0.0
  0
ARC
  5
14D
100
AcDbEntity
  8
2
370
    50
100
AcDbCircle
 10
-73.439714
 20
-128.984915
 30
0.0
 40
5.0
100
AcDbArc
 50
270.0
 51
293.556464
  0
ARC
  5
14E
100
AcDbEntity
  8
2
370
    50
100
AcDbCircle
 10
-73.439714
 20
-136.784915
 30
0.0
 40
5.0
100
AcDbArc
 50
66.443536
 51
90.0
  0
ARC
  5
14F
100
AcDbEntity
  8
2
370
    50
100
AcDbCircle
 10
-71.041798
 20
-134.484915
 30
0.0
 40
1.0
100
AcDbArc
 50
90.0
 51
113.556464
  0
ARC
  5
150
100
AcDbEntity
  8
2
370
    50
100
AcDbCircle
 10
-71.041798
 20
-131.284915
 30
0.0
 40
1.0
100
AcDbArc
 50
246.443536
 51
270.0
  0
LINE
  5
151
100
AcDbEntity
  8
2
370
    50
100
AcDbLine
 10
-80.760264
 20
-139.474552
 30
0.0
 11
-80.760264
 21
-133.984915
 31
0.0
  0
ARC
  5
152
100
AcDbEntity
  8
2
370
    50
100
AcDbCircle
 10
-87.760264
 20
-115.731022
 30
0.0
 40
24.753893
100
AcDbArc
 50
270.0
 51
286.426421
  0
ARC
  5
153
100
AcDbEntity
  8
2
370
    50
100
AcDbCircle
 10
-77.385264
 20
-134.342836
 30
0.0
 40
6.142079
100
AcDbArc
 50
236.668091
 51
303.331909
  0
ARC
  5
154
100
AcDbEntity
  8
2
370
    50
100
AcDbCircle
 10
-87.760264
 20
-117.734915
 30
0.0
 40
16.25
100
AcDbArc
 50
270.0
 51
284.250033
  0
ARC
  5
155
100
AcDbEntity
  8
2
370
    50
100
AcDbCircle
 10
-79.510264
 20
-117.734915
 30
0.0
 40
16.25
100
AcDbArc
 50
262.930286
 51
284.250033
  0
ARC
  5
156
100
AcDbEntity
  8
2
370
    50
100
AcDbCircle
 10
-83.510264
 20
-117.734915
 30
0.0
 40
16.25
100
AcDbArc
 50
262.485955
 51
284.250033
  0
ARC
  5
157
100
AcDbEntity
  8
2
370
    50
100
AcDbCircle
 10
-75.510264
 20
-117.734915
 30
0.0
 40
16.25
100
AcDbArc
 50
262.930286
 51
270.0
  0
ARC
  5
158
100
AcDbEntity
  8
2
370
    50
100
AcDbCircle
 10
-87.760264
 20
-148.034915
 30
0.0
 40
16.25
100
AcDbArc
 50
75.749967
 51
90.0
  0
ARC
  5
159
100
AcDbEntity
  8
2
370
    50
100
AcDbCircle
 10
-83.510264
 20
-148.034915
 30
0.0
 40
16.25
100
AcDbArc
 50
75.749967
 51
97.514045
  0
ARC
  5
15A
100
AcDbEntity
  8
2
370
    50
100
AcDbCircle
 10
-79.510264
 20
-148.034915
 30
0.0
 40
16.25
100
AcDbArc
 50
75.749967
 51
97.069714
  0
ARC
  5
15B
100
AcDbEntity
  8
2
370
    50
100
AcDbCircle
 10
-75.510264
 20
-148.034915
 30
0.0
 40
16.25
100
AcDbArc
 50
90.0
 51
97.069714
  0
ARC
  5
15C
100
AcDbEntity
  8
2
370
    50
100
AcDbCircle
 10
-90.035711
 20
-165.78496
 30
0.0
 40
15.025
100
AcDbArc
 50
336.463422
 51
23.536578
  0
ELLIPSE
  5
15D
100
AcDbEntity
  8
2
370
    50
100
AcDbEllipse
 10
-77.801419
 20
-165.78496
 30
0.0
 11
0.0
 21
6.0
 31
0.0
210
0.0
220
0.0
230
1.0
 40
0.458833
 41
0.0
 42
6.2831849999999996
  0
ELLIPSE
  5
15E
100
AcDbEntity
  8
2
370
    50
100
AcDbEllipse
 10
-87.760711
 20
-165.78496
 30
0.0
 11
0.0
 21
6.0
 31
0.0
210
0.0
220
0.0
230
1.0
 40
0.926667
 41
3.1415929999999999
 42
0.0
  0
LINE
  5
15F
100
AcDbEntity
  8
2
370
    50
100
AcDbLine
 10
-105.261159
 20
-131.784915
 30
0.0
 11
-105.261159
 21
-130.284915
 31
0.0
  0
LINE
  5
160
100
AcDbEntity
  8
2
370
    50
100
AcDbLine
 10
-87.761159
 20
-130.284915
 30
0.0
 11
-105.261159
 21
-130.284915
 31
0.0
  0
LINE
  5
161
100
AcDbEntity
  8
2
370
    50
100
AcDbLine
 10
-87.761159
 20
-131.784915
 30
0.0
 11
-105.261159
 21
-131.784915
 31
0.0
  0
LINE
  5
162
100
AcDbEntity
  8
2
370
    25
100
AcDbLine
 10
-97.011159
 20
-159.78496
 30
0.0
 11
-97.011159
 21
-140.484915
 31
0.0
  0
LINE
  5
163
100
AcDbEntity
  8
2
370
    50
100
AcDbLine
 10
-98.011159
 20
-159.78496
 30
0.0
 11
-98.011159
 21
-140.484915
 31
0.0
  0
LINE
  5
164
100
AcDbEntity
  8
2
370
    50
100
AcDbLine
 10
-99.761159
 20
-140.484915
 30
0.0
 11
-87.761159
 21
-140.484915
 31
0.0
  0
LINE
  5
165
100
AcDbEntity
  8
2
370
    50
100
AcDbLine
 10
-101.511159
 20
-139.474552
 30
0.0
 11
-101.511159
 21
-133.984915
 31
0.0
  0
LINE
  5
166
100
AcDbEntity
  8
2
370
    50
100
AcDbLine
 10
-99.761159
 20
-140.484915
 30
0.0
 11
-101.511159
 21
-139.474552
 31
0.0
  0
LINE
  5
167
100
AcDbEntity
  8
2
370
    50
100
AcDbLine
 10
-107.761159
 20
-133.484915
 30
0.0
 11
-107.761159
 21
-132.284915
 31
0.0
  0
LINE
  5
168
100
AcDbEntity
  8
2
370
    50
100
AcDbLine
 10
-87.761159
 20
-133.984915
 30
0.0
 11
-102.081709
 21
-133.984915
 31
0.0
  0
LINE
  5
169
100
AcDbEntity
  8
2
370
    50
100
AcDbLine
 10
-107.761159
 20
-132.284915
 30
0.0
 11
-87.761159
 21
-132.284915
 31
0.0
  0
LINE
  5
16A
100
AcDbEntity
  8
2
370
    50
100
AcDbLine
 10
-107.761159
 20
-133.484915
 30
0.0
 11
-87.761159
 21
-133.484915
 31
0.0
  0
ARC
  5
16B
100
AcDbEntity
  8
2
370
    50
100
AcDbCircle
 10
-102.081709
 20
-128.984915
 30
0.0
 40
5.0
100
AcDbArc
 50
246.443536
 51
270.0
  0
ARC
  5
16C
100
AcDbEntity
  8
2
370
    50
100
AcDbCircle
 10
-102.081709
 20
-136.784915
 30
0.0
 40
5.0
100
AcDbArc
 50
90.0
 51
113.556464
  0
ARC
  5
16D
100
AcDbEntity
  8
2
370
    50
100
AcDbCircle
 10
-104.479625
 20
-134.484915
 30
0.0
 40
1.0
100
AcDbArc
 50
66.443536
 51
90.0
  0
ARC
  5
16E
100
AcDbEntity
  8
2
370
    50
100
AcDbCircle
 10
-104.479625
 20
-131.284915
 30
0.0
 40
1.0
100
AcDbArc
 50
270.0
 51
293.556464
  0
LINE
  5
16F
100
AcDbEntity
  8
2
370
    50
100
AcDbLine
 10
-94.761159
 20
-139.474552
 30
0.0
 11
-94.761159
 21
-133.984915
 31
0.0
  0
ARC
  5
170
100
AcDbEntity
  8
2
370
    50
100
AcDbCircle
 10
-87.761159
 20
-115.731022
 30
0.0
 40
24.753893
100
AcDbArc
 50
253.573579
 51
270.0
  0
ARC
  5
171
100
AcDbEntity
  8
2
370
    50
100
AcDbCircle
 10
-98.136159
 20
-134.342836
 30
0.0
 40
6.142079
100
AcDbArc
 50
236.668091
 51
303.331909
  0
ARC
  5
172
100
AcDbEntity
  8
2
370
    50
100
AcDbCircle
 10
-96.011159
 20
-117.734915
 30
0.0
 40
16.25
100
AcDbArc
 50
255.749967
 51
277.069714
  0
ARC
  5
173
100
AcDbEntity
  8
2
370
    50
100
AcDbCircle
 10
-92.011159
 20
-117.734915
 30
0.0
 40
16.25
100
AcDbArc
 50
255.749967
 51
277.514045
  0
ARC
  5
174
100
AcDbEntity
  8
2
370
    50
100
AcDbCircle
 10
-100.011159
 20
-117.734915
 30
0.0
 40
16.25
100
AcDbArc
 50
270.0
 51
277.069714
  0
ARC
  5
175
100
AcDbEntity
  8
2
370
    50
100
AcDbCircle
 10
-92.011159
 20
-148.034915
 30
0.0
 40
16.25
100
AcDbArc
 50
82.485955
 51
104.250033
  0
ARC
  5
176
100
AcDbEntity
  8
2
370
    50
100
AcDbCircle
 10
-96.011159
 20
-148.034915
 30
0.0
 40
16.25
100
AcDbArc
 50
82.930286
 51
104.250033
  0
ARC
  5
177
100
AcDbEntity
  8
2
370
    50
100
AcDbCircle
 10
-100.011159
 20
-148.034915
 30
0.0
 40
16.25
100
AcDbArc
 50
82.930286
 51
90.0
  0
LINE
  5
178
100
AcDbEntity
  8
2
370
    50
100
AcDbLine
 10
-99.260711
 20
-171.78496
 30
0.0
 11
-76.260711
 21
-171.78496
 31
0.0
  0
ARC
  5
179
100
AcDbEntity
  8
2
370
    50
100
AcDbCircle
 10
-85.485711
 20
-165.78496
 30
0.0
 40
15.025
100
AcDbArc
 50
156.463422
 51
203.536578
  0
LINE
  5
17A
100
AcDbEntity
  8
2
370
    50
100
AcDbLine
 10
-99.260711
 20
-159.78496
 30
0.0
 11
-76.260711
 21
-159.78496
 31
0.0
  0
ELLIPSE
  5
17B
100
AcDbEntity
  8
2
370
    50
100
AcDbEllipse
 10
-97.720004
 20
-165.78496
 30
0.0
 11
0.0
 21
6.0
 31
0.0
210
0.0
220
0.0
230
1.0
 40
0.458833
 41
0.0
 42
6.2831849999999996
  0
ELLIPSE
  5
17C
100
AcDbEntity
  8
2
370
    50
100
AcDbEllipse
 10
-87.760711
 20
-165.78496
 30
0.0
 11
0.0
 21
6.0
 31
0.0
210
0.0
220
0.0
230
1.0
 40
0.926667
 41
0.0
 42
3.1415929999999999
  0
LINE
  5
17D
100
AcDbEntity
  8
2
370
    50
100
AcDbLine
 10
-98.011159
 20
-112.284891
 30
0.0
 11
-98.011159
 21
-130.284915
 31
0.0
  0
LINE
  5
17E
100
AcDbEntity
  8
2
370
    25
100
AcDbLine
 10
-97.011159
 20
-112.284891
 30
0.0
 11
-97.011159
 21
-130.284915
 31
0.0
  0
LINE
  5
17F
100
AcDbEntity
  8
2
370
    25
100
AcDbLine
 10
-78.510264
 20
-112.284891
 30
0.0
 11
-78.510264
 21
-130.284915
 31
0.0
  0
LINE
  5
180
100
AcDbEntity
  8
2
370
    50
100
AcDbLine
 10
-77.510264
 20
-112.284891
 30
0.0
 11
-77.510264
 21
-130.284915
 31
0.0
  0
LINE
  5
181
100
AcDbEntity
  8
2
370
    50
100
AcDbLine
 10
272.298615
 20
-109.284891
 30
0.0
 11
232.298615
 21
-109.284891
 31
0.0
  0
LINE
  5
182
100
AcDbEntity
  8
2
370
    50
100
AcDbLine
 10
-70.760755
 20
-112.284891
 30
0.0
 11
-70.760755
 21
-109.284891
 31
0.0
  0
LINE
  5
183
100
AcDbEntity
  8
2
370
    50
100
AcDbLine
 10
-70.760755
 20
-112.284891
 30
0.0
 11
-206.760755
 21
-112.284891
 31
0.0
  0
LINE
  5
184
100
AcDbEntity
  8
2
370
    25
  6
CENTER
100
AcDbLine
 10
252.298615
 20
-5.637681
 30
0.0
 11
252.298615
 21
-176.581238
 31
0.0
  0
LINE
  5
185
100
AcDbEntity
  8
2
370
    50
100
AcDbLine
 10
267.569995
 20
-88.784891
 30
0.0
 11
237.027234
 21
-88.784891
 31
0.0
  0
LINE
  5
186
100
AcDbEntity
  8
2
370
    50
100
AcDbLine
 10
272.298615
 20
-109.284891
 30
0.0
 11
269.548917
 21
-90.495293
 31
0.0
  0
LINE
  5
187
100
AcDbEntity
  8
2
370
    50
100
AcDbLine
 10
235.048312
 20
-90.495293
 30
0.0
 11
232.298615
 21
-109.284891
 31
0.0
  0
LINE
  5
188
100
AcDbEntity
  8
2
370
    50
100
AcDbLine
 10
269.298615
 20
-112.284891
 30
0.0
 11
235.298615
 21
-112.284891
 31
0.0
  0
LINE
  5
189
100
AcDbEntity
  8
2
370
    50
100
AcDbLine
 10
235.298615
 20
-109.284891
 30
0.0
 11
235.298615
 21
-112.284891
 31
0.0
  0
LINE
  5
18A
100
AcDbEntity
  8
2
370
    50
100
AcDbLine
 10
269.298615
 20
-109.284891
 30
0.0
 11
269.298615
 21
-112.284891
 31
0.0
  0
ARC
  5
18B
100
AcDbEntity
  8
2
370
    50
100
AcDbCircle
 10
237.027234
 20
-90.784891
 30
0.0
 40
2.0
100
AcDbArc
 50
90.0
 51
171.67435
  0
ARC
  5
18C
100
AcDbEntity
  8
2
370
    50
100
AcDbCircle
 10
267.569995
 20
-90.784891
 30
0.0
 40
2.0
100
AcDbArc
 50
8.32565
 51
90.0
  0
LINE
  5
18D
100
AcDbEntity
  8
2
370
    50
100
AcDbLine
 10
234.798124
 20
-131.784915
 30
0.0
 11
234.798124
 21
-130.284915
 31
0.0
  0
LINE
  5
18E
100
AcDbEntity
  8
2
370
    50
100
AcDbLine
 10
252.298124
 20
-130.284915
 30
0.0
 11
234.798124
 21
-130.284915
 31
0.0
  0
LINE
  5
18F
100
AcDbEntity
  8
2
370
    50
100
AcDbLine
 10
252.298124
 20
-131.784915
 30
0.0
 11
234.798124
 21
-131.784915
 31
0.0
  0
LINE
  5
190
100
AcDbEntity
  8
2
370
    25
100
AcDbLine
 10
243.048124
 20
-159.78496
 30
0.0
 11
243.048124
 21
-140.484915
 31
0.0
  0
LINE
  5
191
100
AcDbEntity
  8
2
370
    50
100
AcDbLine
 10
242.048124
 20
-159.78496
 30
0.0
 11
242.048124
 21
-140.484915
 31
0.0
  0
LINE
  5
192
100
AcDbEntity
  8
2
370
    50
100
AcDbLine
 10
240.298124
 20
-140.484915
 30
0.0
 11
252.298124
 21
-140.484915
 31
0.0
  0
LINE
  5
193
100
AcDbEntity
  8
2
370
    50
100
AcDbLine
 10
238.548124
 20
-139.474552
 30
0.0
 11
238.548124
 21
-133.984915
 31
0.0
  0
LINE
  5
194
100
AcDbEntity
  8
2
370
    50
100
AcDbLine
 10
240.298124
 20
-140.484915
 30
0.0
 11
238.548124
 21
-139.474552
 31
0.0
  0
LINE
  5
195
100
AcDbEntity
  8
2
370
    50
100
AcDbLine
 10
232.298124
 20
-133.484915
 30
0.0
 11
232.298124
 21
-132.284915
 31
0.0
  0
LINE
  5
196
100
AcDbEntity
  8
2
370
    50
100
AcDbLine
 10
252.298124
 20
-133.984915
 30
0.0
 11
237.977574
 21
-133.984915
 31
0.0
  0
LINE
  5
197
100
AcDbEntity
  8
2
370
    50
100
AcDbLine
 10
232.298124
 20
-132.284915
 30
0.0
 11
252.298124
 21
-132.284915
 31
0.0
  0
LINE
  5
198
100
AcDbEntity
  8
2
370
    50
100
AcDbLine
 10
232.298124
 20
-133.484915
 30
0.0
 11
252.298124
 21
-133.484915
 31
0.0
  0
ARC
  5
199
100
AcDbEntity
  8
2
370
    50
100
AcDbCircle
 10
237.977574
 20
-128.984915
 30
0.0
 40
5.0
100
AcDbArc
 50
246.443536
 51
270.0
  0
ARC
  5
19A
100
AcDbEntity
  8
2
370
    50
100
AcDbCircle
 10
237.977574
 20
-136.784915
 30
0.0
 40
5.0
100
AcDbArc
 50
90.0
 51
113.556464
  0
ARC
  5
19B
100
AcDbEntity
  8
2
370
    50
100
AcDbCircle
 10
235.579658
 20
-134.484915
 30
0.0
 40
1.0
100
AcDbArc
 50
66.443536
 51
90.0
  0
ARC
  5
19C
100
AcDbEntity
  8
2
370
    50
100
AcDbCircle
 10
235.579658
 20
-131.284915
 30
0.0
 40
1.0
100
AcDbArc
 50
270.0
 51
293.556464
  0
LINE
  5
19D
100
AcDbEntity
  8
2
370
    50
100
AcDbLine
 10
245.298124
 20
-139.474552
 30
0.0
 11
245.298124
 21
-133.984915
 31
0.0
  0
ARC
  5
19E
100
AcDbEntity
  8
2
370
    50
100
AcDbCircle
 10
252.298124
 20
-115.731022
 30
0.0
 40
24.753893
100
AcDbArc
 50
253.573579
 51
270.0
  0
ARC
  5
19F
100
AcDbEntity
  8
2
370
    50
100
AcDbCircle
 10
241.923124
 20
-134.342836
 30
0.0
 40
6.142079
100
AcDbArc
 50
236.668091
 51
303.331909
  0
ARC
  5
1A0
100
AcDbEntity
  8
2
370
    50
100
AcDbCircle
 10
252.298124
 20
-117.734915
 30
0.0
 40
16.25
100
AcDbArc
 50
255.749967
 51
270.0
  0
ARC
  5
1A1
100
AcDbEntity
  8
2
370
    50
100
AcDbCircle
 10
244.048124
 20
-117.734915
 30
0.0
 40
16.25
100
AcDbArc
 50
255.749967
 51
277.069714
  0
ARC
  5
1A2
100
AcDbEntity
  8
2
370
    50
100
AcDbCircle
 10
248.048124
 20
-117.734915
 30
0.0
 40
16.25
100
AcDbArc
 50
255.749967
 51
277.514045
  0
ARC
  5
1A3
100
AcDbEntity
  8
2
370
    50
100
AcDbCircle
 10
240.048124
 20
-117.734915
 30
0.0
 40
16.25
100
AcDbArc
 50
270.0
 51
277.069714
  0
ARC
  5
1A4
100
AcDbEntity
  8
2
370
    50
100
AcDbCircle
 10
252.298124
 20
-148.034915
 30
0.0
 40
16.25
100
AcDbArc
 50
90.0
 51
104.250033
  0
ARC
  5
1A5
100
AcDbEntity
  8
2
370
    50
100
AcDbCircle
 10
248.048124
 20
-148.034915
 30
0.0
 40
16.25
100
AcDbArc
 50
82.485955
 51
104.250033
  0
ARC
  5
1A6
100
AcDbEntity
  8
2
370
    50
100
AcDbCircle
 10
244.048124
 20
-148.034915
 30
0.0
 40
16.25
100
AcDbArc
 50
82.930286
 51
104.250033
  0
ARC
  5
1A7
100
AcDbEntity
  8
2
370
    50
100
AcDbCircle
 10
240.048124
 20
-148.034915
 30
0.0
 40
16.25
100
AcDbArc
 50
82.930286
 51
90.0
  0
ARC
  5
1A8
100
AcDbEntity
  8
2
370
    50
100
AcDbCircle
 10
254.573571
 20
-165.78496
 30
0.0
 40
15.025
100
AcDbArc
 50
156.463422
 51
203.536578
  0
ELLIPSE
  5
1A9
100
AcDbEntity
  8
2
370
    50
100
AcDbEllipse
 10
242.339279
 20
-165.78496
 30
0.0
 11
0.0
 21
6.0
 31
0.0
210
0.0
220
0.0
230
1.0
 40
0.458833
 41
0.0
 42
6.2831849999999996
  0
ELLIPSE
  5
1AA
100
AcDbEntity
  8
2
370
    50
100
AcDbEllipse
 10
252.298571
 20
-165.78496
 30
0.0
 11
0.0
 21
6.0
 31
0.0
210
0.0
220
0.0
230
1.0
 40
0.926667
 41
0.0
 42
3.1415929999999999
  0
LINE
  5
1AB
100
AcDbEntity
  8
2
370
    50
100
AcDbLine
 10
269.799018
 20
-131.784915
 30
0.0
 11
269.799018
 21
-130.284915
 31
0.0
  0
LINE
  5
1AC
100
AcDbEntity
  8
2
370
    50
100
AcDbLine
 10
252.299018
 20
-130.284915
 30
0.0
 11
269.799018
 21
-130.284915
 31
0.0
  0
LINE
  5
1AD
100
AcDbEntity
  8
2
370
    50
100
AcDbLine
 10
252.299018
 20
-131.784915
 30
0.0
 11
269.799018
 21
-131.784915
 31
0.0
  0
LINE
  5
1AE
100
AcDbEntity
  8
2
370
    25
100
AcDbLine
 10
261.549018
 20
-159.78496
 30
0.0
 11
261.549018
 21
-140.484915
 31
0.0
  0
LINE
  5
1AF
100
AcDbEntity
  8
2
370
    50
100
AcDbLine
 10
262.549018
 20
-159.78496
 30
0.0
 11
262.549018
 21
-140.484915
 31
0.0
  0
LINE
  5
1B0
100
AcDbEntity
  8
2
370
    50
100
AcDbLine
 10
264.299018
 20
-140.484915
 30
0.0
 11
252.299018
 21
-140.484915
 31
0.0
  0
LINE
  5
1B1
100
AcDbEntity
  8
2
370
    50
100
AcDbLine
 10
266.049018
 20
-139.474552
 30
0.0
 11
266.049018
 21
-133.984915
 31
0.0
  0
LINE
  5
1B2
100
AcDbEntity
  8
2
370
    50
100
AcDbLine
 10
264.299018
 20
-140.484915
 30
0.0
 11
266.049018
 21
-139.474552
 31
0.0
  0
LINE
  5
1B3
100
AcDbEntity
  8
2
370
    50
100
AcDbLine
 10
272.299018
 20
-133.484915
 30
0.0
 11
272.299018
 21
-132.284915
 31
0.0
  0
LINE
  5
1B4
100
AcDbEntity
  8
2
370
    50
100
AcDbLine
 10
252.299018
 20
-133.984915
 30
0.0
 11
266.619569
 21
-133.984915
 31
0.0
  0
LINE
  5
1B5
100
AcDbEntity
  8
2
370
    50
100
AcDbLine
 10
272.299018
 20
-132.284915
 30
0.0
 11
252.299018
 21
-132.284915
 31
0.0
  0
LINE
  5
1B6
100
AcDbEntity
  8
2
370
    50
100
AcDbLine
 10
272.299018
 20
-133.484915
 30
0.0
 11
252.299018
 21
-133.484915
 31
0.0
  0
ARC
  5
1B7
100
AcDbEntity
  8
2
370
    50
100
AcDbCircle
 10
266.619569
 20
-128.984915
 30
0.0
 40
5.0
100
AcDbArc
 50
270.0
 51
293.556464
  0
ARC
  5
1B8
100
AcDbEntity
  8
2
370
    50
100
AcDbCircle
 10
266.619569
 20
-136.784915
 30
0.0
 40
5.0
100
AcDbArc
 50
66.443536
 51
90.0
  0
ARC
  5
1B9
100
AcDbEntity
  8
2
370
    50
100
AcDbCircle
 10
269.017485
 20
-134.484915
 30
0.0
 40
1.0
100
AcDbArc
 50
90.0
 51
113.556464
  0
ARC
  5
1BA
100
AcDbEntity
  8
2
370
    50
100
AcDbCircle
 10
269.017485
 20
-131.284915
 30
0.0
 40
1.0
100
AcDbArc
 50
246.443536
 51
270.0
  0
LINE
  5
1BB
100
AcDbEntity
  8
2
370
    50
100
AcDbLine
 10
259.299018
 20
-139.474552
 30
0.0
 11
259.299018
 21
-133.984915
 31
0.0
  0
ARC
  5
1BC
100
AcDbEntity
  8
2
370
    50
100
AcDbCircle
 10
252.299018
 20
-115.731022
 30
0.0
 40
24.753893
100
AcDbArc
 50
270.0
 51
286.426421
  0
ARC
  5
1BD
100
AcDbEntity
  8
2
370
    50
100
AcDbCircle
 10
262.674018
 20
-134.342836
 30
0.0
 40
6.142079
100
AcDbArc
 50
236.668091
 51
303.331909
  0
ARC
  5
1BE
100
AcDbEntity
  8
2
370
    50
100
AcDbCircle
 10
260.549018
 20
-117.734915
 30
0.0
 40
16.25
100
AcDbArc
 50
262.930286
 51
284.250033
  0
ARC
  5
1BF
100
AcDbEntity
  8
2
370
    50
100
AcDbCircle
 10
256.549018
 20
-117.734915
 30
0.0
 40
16.25
100
AcDbArc
 50
262.485955
 51
284.250033
  0
ARC
  5
1C0
100
AcDbEntity
  8
2
370
    50
100
AcDbCircle
 10
264.549018
 20
-117.734915
 30
0.0
 40
16.25
100
AcDbArc
 50
262.930286
 51
270.0
  0
ARC
  5
1C1
100
AcDbEntity
  8
2
370
    50
100
AcDbCircle
 10
256.549018
 20
-148.034915
 30
0.0
 40
16.25
100
AcDbArc
 50
75.749967
 51
97.514045
  0
ARC
  5
1C2
100
AcDbEntity
  8
2
370
    50
100
AcDbCircle
 10
260.549018
 20
-148.034915
 30
0.0
 40
16.25
100
AcDbArc
 50
75.749967
 51
97.069714
  0
ARC
  5
1C3
100
AcDbEntity
  8
2
370
    50
100
AcDbCircle
 10
264.549018
 20
-148.034915
 30
0.0
 40
16.25
100
AcDbArc
 50
90.0
 51
97.069714
  0
LINE
  5
1C4
100
AcDbEntity
  8
2
370
    50
100
AcDbLine
 10
263.798571
 20
-171.78496
 30
0.0
 11
240.798571
 21
-171.78496
 31
0.0
  0
ARC
  5
1C5
100
AcDbEntity
  8
2
370
    50
100
AcDbCircle
 10
250.023571
 20
-165.78496
 30
0.0
 40
15.025
100
AcDbArc
 50
336.463422
 51
23.536578
  0
LINE
  5
1C6
100
AcDbEntity
  8
2
370
    50
100
AcDbLine
 10
263.798571
 20
-159.78496
 30
0.0
 11
240.798571
 21
-159.78496
 31
0.0
  0
ELLIPSE
  5
1C7
100
AcDbEntity
  8
2
370
    50
100
AcDbEllipse
 10
262.257863
 20
-165.78496
 30
0.0
 11
0.0
 21
6.0
 31
0.0
210
0.0
220
0.0
230
1.0
 40
0.458833
 41
0.0
 42
6.2831849999999996
  0
ELLIPSE
  5
1C8
100
AcDbEntity
  8
2
370
    50
100
AcDbEllipse
 10
252.298571
 20
-165.78496
 30
0.0
 11
0.0
 21
6.0
 31
0.0
210
0.0
220
0.0
230
1.0
 40
0.926667
 41
3.1415929999999999
 42
0.0
  0
LINE
  5
1C9
100
AcDbEntity
  8
2
370
    50
100
AcDbLine
 10
262.549018
 20
-112.284891
 30
0.0
 11
262.549018
 21
-130.284915
 31
0.0
  0
LINE
  5
1CA
100
AcDbEntity
  8
2
370
    25
100
AcDbLine
 10
261.549018
 20
-112.284891
 30
0.0
 11
261.549018
 21
-130.284915
 31
0.0
  0
LINE
  5
1CB
100
AcDbEntity
  8
2
370
    25
100
AcDbLine
 10
243.048124
 20
-112.284891
 30
0.0
 11
243.048124
 21
-130.284915
 31
0.0
  0
LINE
  5
1CC
100
AcDbEntity
  8
2
370
    50
100
AcDbLine
 10
242.048124
 20
-112.284891
 30
0.0
 11
242.048124
 21
-130.284915
 31
0.0
  0
ARC
  5
1CD
100
AcDbEntity
  8
2
370
    50
100
AcDbCircle
 10
267.298615
 20
-85.784891
 30
0.0
 40
3.0
100
AcDbArc
 50
180.0
 51
270.0
  0
ARC
  5
1CE
100
AcDbEntity
  8
2
370
    50
100
AcDbCircle
 10
237.298615
 20
-85.784891
 30
0.0
 40
3.0
100
AcDbArc
 50
270.0
 51
360.0
  0
LINE
  5
1CF
100
AcDbEntity
  8
2
370
    50
100
AcDbLine
 10
240.933615
 20
-79.784063
 30
0.0
 11
240.933615
 21
-80.284891
 31
0.0
  0
LINE
  5
1D0
100
AcDbEntity
  8
2
370
    50
100
AcDbLine
 10
263.663615
 20
-79.784063
 30
0.0
 11
263.663615
 21
-80.284891
 31
0.0
  0
LINE
  5
1D1
100
AcDbEntity
  8
2
370
    50
100
AcDbLine
 10
263.663615
 20
-80.284891
 30
0.0
 11
264.298615
 21
-80.919891
 31
0.0
  0
LINE
  5
1D2
100
AcDbEntity
  8
2
370
    50
100
AcDbLine
 10
240.933615
 20
-80.284891
 30
0.0
 11
240.298615
 21
-80.919891
 31
0.0
  0
LINE
  5
1D3
100
AcDbEntity
  8
2
370
    50
100
AcDbLine
 10
240.298722
 20
-79.784063
 30
0.0
 11
240.298722
 21
-85.784891
 31
0.0
  0
ARC
  5
1D4
100
AcDbEntity
  8
2
370
    50
100
AcDbCircle
 10
177.579962
 20
-58.363225
 30
0.0
 40
100.0
100
AcDbArc
 50
351.611836
 51
11.462348
  0
ARC
  5
1D5
100
AcDbEntity
  8
2
370
    50
100
AcDbCircle
 10
327.017559
 20
-58.363225
 30
0.0
 40
100.0
100
AcDbArc
 50
168.537652
 51
188.388164
  0
ARC
  5
1D6
100
AcDbEntity
  8
2
370
    50
100
AcDbCircle
 10
252.29876
 20
-170.478148
 30
0.0
 40
140.0
100
AcDbArc
 50
83.65993
 51
86.211626
  0
ARC
  5
1D7
100
AcDbEntity
  8
2
370
    50
100
AcDbCircle
 10
252.29876
 20
-170.478148
 30
0.0
 40
140.0
100
AcDbArc
 50
93.788374
 51
96.34007
  0
ARC
  5
1D8
100
AcDbEntity
  8
2
370
    50
100
AcDbCircle
 10
266.765013
 20
-40.279348
 30
0.0
 40
9.0
100
AcDbArc
 50
11.462348
 51
83.65993
  0
ARC
  5
1D9
100
AcDbEntity
  8
2
370
    50
100
AcDbCircle
 10
237.832508
 20
-40.279348
 30
0.0
 40
9.0
100
AcDbArc
 50
96.34007
 51
168.537652
  0
ARC
  5
1DA
100
AcDbEntity
  8
2
370
    50
100
AcDbCircle
 10
268.595791
 20
-71.784063
 30
0.0
 40
8.0
100
AcDbArc
 50
270.0
 51
351.611836
  0
ARC
  5
1DB
100
AcDbEntity
  8
2
370
    50
100
AcDbCircle
 10
236.00173
 20
-71.784063
 30
0.0
 40
8.0
100
AcDbArc
 50
188.388164
 51
270.0
  0
LINE
  5
1DC
100
AcDbEntity
  8
2
370
    50
100
AcDbLine
 10
268.595791
 20
-79.784063
 30
0.0
 11
236.00173
 21
-79.784063
 31
0.0
  0
LINE
  5
1DD
100
AcDbEntity
  8
2
370
    50
100
AcDbLine
 10
261.04876
 20
-30.165124
 30
0.0
 11
261.04876
 21
-30.784063
 31
0.0
  0
LINE
  5
1DE
100
AcDbEntity
  8
2
370
    50
100
AcDbLine
 10
243.54876
 20
-30.165124
 30
0.0
 11
243.54876
 21
-30.784063
 31
0.0
  0
ARC
  5
1DF
100
AcDbEntity
  8
2
370
    50
100
AcDbCircle
 10
260.04876
 20
-30.165124
 30
0.0
 40
1.0
100
AcDbArc
 50
0.0
 51
84.370157
  0
ARC
  5
1E0
100
AcDbEntity
  8
2
370
    50
100
AcDbCircle
 10
244.54876
 20
-30.165124
 30
0.0
 40
1.0
100
AcDbArc
 50
95.629843
 51
180.0
  0
ARC
  5
1E1
100
AcDbEntity
  8
2
370
    50
100
AcDbCircle
 10
252.29876
 20
-108.784063
 30
0.0
 40
80.0
100
AcDbArc
 50
84.370157
 51
95.629843
  0
LINE
  5
1E2
100
AcDbEntity
  8
2
370
    50
100
AcDbLine
 10
261.54876
 20
-30.784063
 30
0.0
 11
243.04876
 21
-30.784063
 31
0.0
  0
LINE
  5
1E3
100
AcDbEntity
  8
2
370
    50
100
AcDbLine
 10
264.298507
 20
-79.784063
 30
0.0
 11
264.298507
 21
-85.784891
 31
0.0
  0
ARC
  5
1E4
100
AcDbEntity
  8
2
370
    50
100
AcDbCircle
 10
142.633473
 20
-58.878873
 30
0.0
 40
120.0
100
AcDbArc
 50
355.059572
 51
9.155483
  0
ARC
  5
1E5
100
AcDbEntity
  8
2
370
    50
100
AcDbCircle
 10
361.963354
 20
-58.878873
 30
0.0
 40
120.0
100
AcDbArc
 50
170.844517
 51
184.940428
  0
ARC
  5
1E6
100
AcDbEntity
  8
2
370
    50
100
AcDbCircle
 10
252.298413
 20
-41.204458
 30
0.0
 40
8.91992
100
AcDbArc
 50
9.155483
 51
170.844517
  0
ARC
  5
1E7
100
AcDbEntity
  8
2
370
    50
100
AcDbCircle
 10
252.298413
 20
-68.358427
 30
0.0
 40
9.926111
100
AcDbArc
 50
184.940428
 51
355.059572
  0
LINE
  5
1E8
100
AcDbEntity
  8
2
370
    50
100
AcDbLine
 10
266.798413
 20
-34.284538
 30
0.0
 11
266.798413
 21
-75.284538
 31
0.0
  0
LINE
  5
1E9
100
AcDbEntity
  8
2
370
    50
100
AcDbLine
 10
237.798413
 20
-34.284538
 30
0.0
 11
237.798413
 21
-75.284538
 31
0.0
  0
ARC
  5
1EA
100
AcDbEntity
  8
2
370
    50
100
AcDbCircle
 10
177.579615
 20
-58.3637
 30
0.0
 40
99.5
100
AcDbArc
 50
352.362481
 51
11.528523
  0
ARC
  5
1EB
100
AcDbEntity
  8
2
370
    50
100
AcDbCircle
 10
327.017212
 20
-58.3637
 30
0.0
 40
99.5
100
AcDbArc
 50
168.471477
 51
187.637519
  0
ARC
  5
1EC
100
AcDbEntity
  8
2
370
    50
100
AcDbCircle
 10
237.363194
 20
-40.0769
 30
0.0
 40
8.0
100
AcDbArc
 50
105.117347
 51
168.471477
  0
ARC
  5
1ED
100
AcDbEntity
  8
2
370
    50
100
AcDbCircle
 10
235.798413
 20
-34.284538
 30
0.0
 40
2.0
100
AcDbArc
 50
0.0
 51
105.117347
  0
ARC
  5
1EE
100
AcDbEntity
  8
2
370
    50
100
AcDbCircle
 10
267.233633
 20
-40.0769
 30
0.0
 40
8.0
100
AcDbArc
 50
11.528523
 51
74.882653
  0
ARC
  5
1EF
100
AcDbEntity
  8
2
370
    50
100
AcDbCircle
 10
268.798413
 20
-34.284538
 30
0.0
 40
2.0
100
AcDbArc
 50
74.882653
 51
180.0
  0
ARC
  5
1F0
100
AcDbEntity
  8
2
370
    50
100
AcDbCircle
 10
236.328934
 20
-70.524547
 30
0.0
 40
8.0
100
AcDbArc
 50
187.637519
 51
252.175397
  0
ARC
  5
1F1
100
AcDbEntity
  8
2
370
    50
100
AcDbCircle
 10
234.798413
 20
-75.284538
 30
0.0
 40
3.0
100
AcDbArc
 50
252.175397
 51
360.0
  0
ARC
  5
1F2
100
AcDbEntity
  8
2
370
    50
100
AcDbCircle
 10
269.798413
 20
-75.284538
 30
0.0
 40
3.0
100
AcDbArc
 50
180.0
 51
287.824603
  0
ARC
  5
1F3
100
AcDbEntity
  8
2
370
    50
100
AcDbCircle
 10
268.267893
 20
-70.524547
 30
0.0
 40
8.0
100
AcDbArc
 50
287.824603
 51
352.362481
  0
LINE
  5
1F4
100
AcDbEntity
  8
2
370
    50
100
AcDbLine
 10
240.933615
 20
-80.284891
 30
0.0
 11
263.663615
 21
-80.284891
 31
0.0
  0
LINE
  5
1F5
100
AcDbEntity
  8
2
370
    50
100
AcDbLine
 10
265.298615
 20
-81.284891
 30
0.0
 11
265.298615
 21
-85.784891
 31
0.0
  0
LINE
  5
1F6
100
AcDbEntity
  8
2
370
    50
100
AcDbLine
 10
239.298615
 20
-81.284891
 30
0.0
 11
239.298615
 21
-85.784891
 31
0.0
  0
ARC
  5
1F7
100
AcDbEntity
  8
2
370
    50
100
AcDbCircle
 10
268.298615
 20
-85.784891
 30
0.0
 40
3.0
100
AcDbArc
 50
180.0
 51
270.0
  0
ARC
  5
1F8
100
AcDbEntity
  8
2
370
    50
100
AcDbCircle
 10
236.298615
 20
-85.784891
 30
0.0
 40
3.0
100
AcDbArc
 50
270.0
 51
360.0
  0
LINE
  5
1F9
100
AcDbEntity
  8
2
370
    25
100
AcDbLine
 10
264.663615
 20
-81.284891
 30
0.0
 11
264.663615
 21
-82.784891
 31
0.0
  0
LINE
  5
1FA
100
AcDbEntity
  8
2
370
    50
100
AcDbLine
 10
239.933615
 20
-82.784891
 30
0.0
 11
239.298615
 21
-83.419891
 31
0.0
  0
LINE
  5
1FB
100
AcDbEntity
  8
2
370
    50
100
AcDbLine
 10
264.663615
 20
-82.784891
 30
0.0
 11
265.298615
 21
-83.419891
 31
0.0
  0
LINE
  5
1FC
100
AcDbEntity
  8
2
370
    50
100
AcDbLine
 10
37.581739
 20
40.518787
 30
0.0
 11
83.399693
 21
38.11757
 31
0.0
  0
LINE
  5
1FD
100
AcDbEntity
  8
2
370
    50
100
AcDbLine
 10
63.538144
 20
12.622103
 30
0.0
 11
73.025124
 21
12.124911
 31
0.0
  0
LINE
  5
1FE
100
AcDbEntity
  8
2
370
    50
100
AcDbLine
 10
73.644812
 20
14.395591
 30
0.0
 11
73.550607
 21
12.598058
 31
0.0
  0
LINE
  5
1FF
100
AcDbEntity
  8
2
370
    50
100
AcDbLine
 10
41.688666
 20
16.070342
 30
0.0
 11
41.515958
 21
12.774864
 31
0.0
  0
LINE
  5
200
100
AcDbEntity
  8
2
370
    50
100
AcDbLine
 10
63.538144
 20
12.622103
 30
0.0
 11
63.485808
 21
11.623473
 31
0.0
  0
ARC
  5
201
100
AcDbEntity
  8
2
370
    50
100
AcDbCircle
 10
46.321683
 20
28.044278
 30
0.0
 40
16.0
100
AcDbArc
 50
133.186939
 51
220.813061
  0
ARC
  5
202
100
AcDbEntity
  8
2
370
    50
100
AcDbCircle
 10
37.424731
 20
37.522899
 30
0.0
 40
3.0
100
AcDbArc
 50
87.0
 51
133.186939
  0
ARC
  5
203
100
AcDbEntity
  8
2
370
    50
100
AcDbCircle
 10
36.482684
 20
19.547567
 30
0.0
 40
3.0
100
AcDbArc
 50
220.813061
 51
267.0
  0
LINE
  5
204
100
AcDbEntity
  8
2
370
    50
100
AcDbLine
 10
63.538144
 20
12.622103
 30
0.0
 11
62.802468
 21
11.959697
 31
0.0
  0
LINE
  5
205
100
AcDbEntity
  8
2
370
    50
100
AcDbLine
 10
42.230699
 20
13.037818
 30
0.0
 11
41.568294
 21
13.773494
 31
0.0
  0
LINE
  5
206
100
AcDbEntity
  8
2
370
    50
100
AcDbLine
 10
64.284711
 20
11.581604
 30
0.0
 11
40.717054
 21
12.816733
 31
0.0
  0
LINE
  5
207
100
AcDbEntity
  8
2
370
    50
100
AcDbLine
 10
64.47397
 20
11.371411
 30
0.0
 11
64.084784
 21
3.945306
 31
0.0
  0
LINE
  5
208
100
AcDbEntity
  8
2
370
    50
100
AcDbLine
 10
40.506861
 20
12.627474
 30
0.0
 11
40.117675
 21
5.201369
 31
0.0
  0
LINE
  5
209
100
AcDbEntity
  8
2
370
    50
100
AcDbLine
 10
40.834326
 20
1.665904
 30
0.0
 11
40.138157
 21
4.941121
 31
0.0
  0
LINE
  5
20A
100
AcDbEntity
  8
2
370
    50
100
AcDbLine
 10
63.002503
 20
0.504119
 30
0.0
 11
64.037211
 21
3.688625
 31
0.0
  0
ARC
  5
20B
100
AcDbEntity
  8
2
370
    50
100
AcDbCircle
 10
41.3234
 20
1.76986
 30
0.0
 40
0.5
100
AcDbArc
 50
192.0
 51
267.0
  0
ARC
  5
20C
100
AcDbEntity
  8
2
370
    50
100
AcDbCircle
 10
62.526974
 20
0.658628
 30
0.0
 40
0.5
100
AcDbArc
 50
267.0
 51
342.0
  0
ARC
  5
20D
100
AcDbEntity
  8
2
370
    50
100
AcDbCircle
 10
40.706587
 20
12.617007
 30
0.0
 40
0.2
100
AcDbArc
 50
87.0
 51
177.0
  0
ARC
  5
20E
100
AcDbEntity
  8
2
370
    50
100
AcDbCircle
 10
64.274244
 20
11.381879
 30
0.0
 40
0.2
100
AcDbArc
 50
357.0
 51
87.0
  0
LINE
  5
20F
100
AcDbEntity
  8
2
370
    50
100
AcDbLine
 10
82.669113
 20
14.623608
 30
0.0
 11
83.87284
 21
37.592087
 31
0.0
  0
ARC
  5
210
100
AcDbEntity
  8
2
370
    50
100
AcDbCircle
 10
83.373525
 20
37.618255
 30
0.0
 40
0.5
100
AcDbArc
 50
357.0
 51
87.0
  0
ARC
  5
211
100
AcDbEntity
  8
2
370
    50
100
AcDbCircle
 10
82.169798
 20
14.649776
 30
0.0
 40
0.5
100
AcDbArc
 50
267.0
 51
357.0
  0
ARC
  5
212
100
AcDbEntity
  8
2
370
    50
100
AcDbCircle
 10
73.051292
 20
12.624226
 30
0.0
 40
0.5
100
AcDbArc
 50
267.0
 51
357.0
  0
ARC
  5
213
100
AcDbEntity
  8
2
370
    50
100
AcDbCircle
 10
73.844537
 20
14.385124
 30
0.0
 40
0.2
100
AcDbArc
 50
87.0
 51
177.0
  0
ARC
  5
214
100
AcDbEntity
  8
2
370
    50
100
AcDbCircle
 10
41.488941
 20
16.080809
 30
0.0
 40
0.2
100
AcDbArc
 50
357.0
 51
87.0
  0
LINE
  5
215
100
AcDbEntity
  8
2
370
    50
100
AcDbLine
 10
62.500806
 20
0.159313
 30
0.0
 11
41.297232
 21
1.270545
 31
0.0
  0
ARC
  5
216
100
AcDbEntity
  8
2
370
    50
100
AcDbCircle
 10
41.116305
 20
5.149033
 30
0.0
 40
1.0
100
AcDbArc
 50
177.0
 51
192.0
  0
ARC
  5
217
100
AcDbEntity
  8
2
370
    50
100
AcDbCircle
 10
63.086155
 20
3.997642
 30
0.0
 40
1.0
100
AcDbArc
 50
342.0
 51
357.0
  0
LINE
  5
218
100
AcDbEntity
  8
2
370
    25
100
AcDbLine
 10
62.802468
 20
11.959697
 30
0.0
 11
62.786767
 21
11.660108
 31
0.0
  0
LINE
  5
219
100
AcDbEntity
  8
2
370
    25
100
AcDbLine
 10
42.230699
 20
13.037818
 30
0.0
 11
42.214998
 21
12.738229
 31
0.0
  0
LINE
  5
21A
100
AcDbEntity
  8
2
370
    25
  6
CENTER
100
AcDbLine
 10
27.715036
 20
29.019469
 30
0.0
 11
223.868693
 21
18.739491
 31
0.0
  0
LINE
  5
21B
100
AcDbEntity
  8
2
370
    50
100
AcDbLine
 10
83.689667
 20
34.096941
 30
0.0
 11
224.287819
 21
26.728505
 31
0.0
  0
LINE
  5
21C
100
AcDbEntity
  8
2
370
    50
100
AcDbLine
 10
82.852291
 20
18.118869
 30
0.0
 11
223.450444
 21
10.750432
 31
0.0
  0
LINE
  5
21D
100
AcDbEntity
  8
2
370
    50
100
AcDbLine
 10
244.299053
 20
-29.185038
 30
0.0
 11
244.299053
 21
-11.219418
 31
0.0
  0
LINE
  5
21E
100
AcDbEntity
  8
2
370
    50
100
AcDbLine
 10
260.299053
 20
-29.185097
 30
0.0
 11
260.299053
 21
-11.219418
 31
0.0
  0
ARC
  5
21F
100
AcDbEntity
  8
2
370
    25
  6
CENTER
100
AcDbCircle
 10
222.298615
 20
-11.219395
 30
0.0
 40
30.0
100
AcDbArc
 50
0.0
 51
87.0
  0
ARC
  5
220
100
AcDbEntity
  8
2
370
    50
100
AcDbCircle
 10
222.298615
 20
-11.219395
 30
0.0
 40
22.0
100
AcDbArc
 50
0.0
 51
87.0
  0
ARC
  5
221
100
AcDbEntity
  8
2
370
    50
100
AcDbCircle
 10
222.299053
 20
-11.219418
 30
0.0
 40
38.0
100
AcDbArc
 50
0.0
 51
87.0
  0
ARC
  5
222
100
AcDbEntity
  8
2
370
    50
100
AcDbCircle
 10
245.228901
 20
-76.284891
 30
0.0
 40
8.205286
100
AcDbArc
 50
205.242688
 51
217.543478
  0
ARC
  5
223
100
AcDbEntity
  8
2
370
    50
100
AcDbCircle
 10
259.368328
 20
-76.284891
 30
0.0
 40
8.205286
100
AcDbArc
 50
322.456522
 51
334.757312
  0
POINT
  5
224
100
AcDbEntity
  8
2
370
    50
100
AcDbPoint
 10
51.899019
 20
0.714929
 30
0.0
  0
LINE
  5
225
100
AcDbEntity
  8
2
370
    50
100
AcDbLine
 10
239.298615
 20
-81.284891
 30
0.0
 11
238.723002
 21
-81.284891
 31
0.0
  0
LINE
  5
226
100
AcDbEntity
  8
2
370
    50
100
AcDbLine
 10
36.332179
 20
39.646086
 30
0.0
 11
35.173714
 21
17.541255
 31
0.0
  0
LINE
  5
227
100
AcDbEntity
  8
2
370
    25
100
AcDbLine
 10
40.110785
 20
5.069897
 30
0.0
 11
64.077894
 21
3.813834
 31
0.0
  0
LINE
  5
228
100
AcDbEntity
  8
2
370
    25
100
AcDbLine
 10
239.933615
 20
-82.784891
 30
0.0
 11
239.933615
 21
-81.284891
 31
0.0
  0
LINE
  5
229
100
AcDbEntity
  8
2
370
    50
100
AcDbLine
 10
265.874227
 20
-81.284891
 30
0.0
 11
264.298507
 21
-81.284891
 31
0.0
  0
LINE
  5
22A
100
AcDbEntity
  8
2
370
    50
100
AcDbLine
 10
240.298722
 20
-81.284891
 30
0.0
 11
238.723002
 21
-81.284891
 31
0.0
  0
LINE
  5
22B
100
AcDbEntity
  8
2
370
    50
100
AcDbLine
 10
265.298615
 20
-82.784891
 30
0.0
 11
264.298507
 21
-82.784891
 31
0.0
  0
LINE
  5
22C
100
AcDbEntity
  8
2
370
    50
100
AcDbLine
 10
240.298722
 20
-82.784891
 30
0.0
 11
239.298615
 21
-82.784891
 31
0.0
  0
ELLIPSE
  5
22D
100
AcDbEntity
  8
2
370
    50
100
AcDbEllipse
 10
264.42297
 20
-76.813696
 30
0.0
 11
0.0
 21
3.8641269999999999
 31
0.0
210
0.0
220
0.0
230
1.0
 40
0.790537
 41
3.1008369999999998
 42
3.8355779999999999
  0
ELLIPSE
  5
22E
100
AcDbEntity
  8
2
370
    50
100
AcDbEllipse
 10
240.174259
 20
-76.813696
 30
0.0
 11
0.0
 21
-3.8641269999999999
 31
0.0
210
0.0
220
0.0
230
1.0
 40
0.790537
 41
5.5891999999999999
 42
0.040755
  0
LINE
  5
22F
100
AcDbEntity
  8
2
370
    25
100
AcDbLine
 10
63.356142
 20
15.635758
 30
0.0
 11
73.182132
 21
15.1208
 31
0.0
  0
LINE
  5
230
100
AcDbEntity
  8
2
370
    25
100
AcDbLine
 10
62.659887
 20
14.971287
 30
0.0
 11
62.565682
 21
13.173753
 31
0.0
  0
ARC
  5
231
100
AcDbEntity
  8
2
370
    25
100
AcDbCircle
 10
52.945738
 20
20.68752
 30
0.0
 40
2.0
100
AcDbArc
 50
47.234283
 51
126.531546
  0
ARC
  5
232
100
AcDbEntity
  8
2
370
    25
100
AcDbCircle
 10
16.039291
 20
70.506333
 30
0.0
 40
60.0
100
AcDbArc
 50
296.075803
 51
306.531546
  0
ARC
  5
233
100
AcDbEntity
  8
2
370
    25
100
AcDbCircle
 10
95.043872
 20
66.203969
 30
0.0
 40
60.0
100
AcDbArc
 50
227.234283
 51
236.803751
  0
LINE
  5
234
100
AcDbEntity
  8
2
370
    50
100
AcDbLine
 10
82.14363
 20
14.150461
 30
0.0
 11
73.855005
 21
14.58485
 31
0.0
  0
LINE
  5
235
100
AcDbEntity
  8
2
370
    50
100
AcDbLine
 10
41.499408
 20
16.280535
 30
0.0
 11
36.325676
 21
16.551679
 31
0.0
  0
ARC
  5
236
100
AcDbEntity
  8
2
370
    50
100
AcDbCircle
 10
-87.761007
 20
214.063585
 30
0.0
 40
17.9
100
AcDbArc
 50
232.120687
 51
307.879313
  0
ARC
  5
237
100
AcDbEntity
  8
2
370
    50
100
AcDbCircle
 10
-55.80467
 20
195.613585
 30
0.0
 40
17.9
100
AcDbArc
 50
172.120687
 51
247.879313
  0
ARC
  5
238
100
AcDbEntity
  8
2
370
    50
100
AcDbCircle
 10
-55.80467
 20
158.713585
 30
0.0
 40
17.9
100
AcDbArc
 50
112.120687
 51
187.879313
  0
ARC
  5
239
100
AcDbEntity
  8
2
370
    50
100
AcDbCircle
 10
-87.761007
 20
140.263585
 30
0.0
 40
17.9
100
AcDbArc
 50
52.120687
 51
127.879313
  0
ARC
  5
23A
100
AcDbEntity
  8
2
370
    50
100
AcDbCircle
 10
-119.717345
 20
158.713585
 30
0.0
 40
17.9
100
AcDbArc
 50
352.120687
 51
67.879313
  0
ARC
  5
23B
100
AcDbEntity
  8
2
370
    50
100
AcDbCircle
 10
-119.717345
 20
195.613585
 30
0.0
 40
17.9
100
AcDbArc
 50
292.120687
 51
7.879313
  0
ARC
  5
23C
100
AcDbEntity
  8
2
370
    50
100
AcDbCircle
 10
-87.761007
 20
217.863585
 30
0.0
 40
20.2
100
AcDbArc
 50
240.787981
 51
299.212019
  0
ARC
  5
23D
100
AcDbEntity
  8
2
370
    50
100
AcDbCircle
 10
-52.513773
 20
197.513585
 30
0.0
 40
20.2
100
AcDbArc
 50
180.787981
 51
239.212019
  0
ARC
  5
23E
100
AcDbEntity
  8
2
370
    50
100
AcDbCircle
 10
-52.513773
 20
156.813585
 30
0.0
 40
20.2
100
AcDbArc
 50
120.787981
 51
179.212019
  0
ARC
  5
23F
100
AcDbEntity
  8
2
370
    50
100
AcDbCircle
 10
-87.761007
 20
136.463585
 30
0.0
 40
20.2
100
AcDbArc
 50
60.787981
 51
119.212019
  0
ARC
  5
240
100
AcDbEntity
  8
2
370
    50
100
AcDbCircle
 10
-123.008241
 20
156.813585
 30
0.0
 40
20.2
100
AcDbArc
 50
0.787981
 51
59.212019
  0
ARC
  5
241
100
AcDbEntity
  8
2
370
    50
100
AcDbCircle
 10
-123.008241
 20
197.513585
 30
0.0
 40
20.2
100
AcDbArc
 50
300.787981
 51
359.212019
  0
ARC
  5
242
100
AcDbEntity
  8
2
370
    50
100
AcDbCircle
 10
-87.761007
 20
177.163585
 30
0.0
 40
25.285
100
AcDbArc
 50
114.054461
 51
125.945539
  0
ARC
  5
243
100
AcDbEntity
  8
2
370
    50
100
AcDbCircle
 10
-87.761007
 20
177.163585
 30
0.0
 40
25.285
100
AcDbArc
 50
174.054461
 51
185.945539
  0
ARC
  5
244
100
AcDbEntity
  8
2
370
    50
100
AcDbCircle
 10
-87.761007
 20
177.163585
 30
0.0
 40
25.285
100
AcDbArc
 50
234.054461
 51
245.945539
  0
ARC
  5
245
100
AcDbEntity
  8
2
370
    50
100
AcDbCircle
 10
-87.761007
 20
177.163585
 30
0.0
 40
25.285
100
AcDbArc
 50
294.054461
 51
305.945539
  0
ARC
  5
246
100
AcDbEntity
  8
2
370
    50
100
AcDbCircle
 10
-87.761007
 20
177.163585
 30
0.0
 40
25.285
100
AcDbArc
 50
54.054461
 51
65.945539
  0
ARC
  5
247
100
AcDbEntity
  8
2
370
    50
100
AcDbCircle
 10
-87.761007
 20
177.163585
 30
0.0
 40
25.285
100
AcDbArc
 50
354.054461
 51
5.945539
  0
ARC
  5
248
100
AcDbEntity
  8
2
370
    50
100
AcDbCircle
 10
-112.412684
 20
179.730892
 30
0.0
 40
0.5
100
AcDbArc
 50
120.787981
 51
174.054461
  0
ARC
  5
249
100
AcDbEntity
  8
2
370
    50
100
AcDbCircle
 10
-112.412684
 20
174.596278
 30
0.0
 40
0.5
100
AcDbArc
 50
185.945539
 51
239.212019
  0
ARC
  5
24A
100
AcDbEntity
  8
2
370
    50
100
AcDbCircle
 10
-102.310199
 20
157.09826
 30
0.0
 40
0.5
100
AcDbArc
 50
180.787981
 51
234.054461
  0
ARC
  5
24B
100
AcDbEntity
  8
2
370
    50
100
AcDbCircle
 10
-97.863493
 20
154.530953
 30
0.0
 40
0.5
100
AcDbArc
 50
245.945539
 51
299.212019
  0
ARC
  5
24C
100
AcDbEntity
  8
2
370
    50
100
AcDbCircle
 10
-77.658522
 20
154.530953
 30
0.0
 40
0.5
100
AcDbArc
 50
240.787981
 51
294.054461
  0
ARC
  5
24D
100
AcDbEntity
  8
2
370
    50
100
AcDbCircle
 10
-73.211816
 20
157.09826
 30
0.0
 40
0.5
100
AcDbArc
 50
305.945539
 51
359.212019
  0
ARC
  5
24E
100
AcDbEntity
  8
2
370
    50
100
AcDbCircle
 10
-63.109331
 20
174.596278
 30
0.0
 40
0.5
100
AcDbArc
 50
300.787981
 51
354.054461
  0
ARC
  5
24F
100
AcDbEntity
  8
2
370
    50
100
AcDbCircle
 10
-63.109331
 20
179.730892
 30
0.0
 40
0.5
100
AcDbArc
 50
5.945539
 51
59.212019
  0
ARC
  5
250
100
AcDbEntity
  8
2
370
    50
100
AcDbCircle
 10
-73.211816
 20
197.228909
 30
0.0
 40
0.5
100
AcDbArc
 50
0.787981
 51
54.054461
  0
ARC
  5
251
100
AcDbEntity
  8
2
370
    50
100
AcDbCircle
 10
-77.658522
 20
199.796217
 30
0.0
 40
0.5
100
AcDbArc
 50
65.945539
 51
119.212019
  0
ARC
  5
252
100
AcDbEntity
  8
2
370
    50
100
AcDbCircle
 10
-97.863493
 20
199.796217
 30
0.0
 40
0.5
100
AcDbArc
 50
60.787981
 51
114.054461
  0
ARC
  5
253
100
AcDbEntity
  8
2
370
    50
100
AcDbCircle
 10
-102.310199
 20
197.228909
 30
0.0
 40
0.5
100
AcDbArc
 50
125.945539
 51
179.212019
  0
CIRCLE
  5
254
100
AcDbEntity
  8
2
370
    50
100
AcDbCircle
 10
-87.761007
 20
177.163585
 30
0.0
 40
8.0
  0
LINE
  5
255
100
AcDbEntity
  8
2
370
    50
100
AcDbLine
 10
-121.010755
 20
175.907535
 30
0.0
 11
-121.010755
 21
178.419731
 31
0.0
  0
ARC
  5
256
100
AcDbEntity
  8
2
370
    50
100
AcDbCircle
 10
-138.760755
 20
177.163633
 30
0.0
 40
11.75
100
AcDbArc
 50
267.910184
 51
182.089816
  0
ARC
  5
257
100
AcDbEntity
  8
2
370
    50
100
AcDbCircle
 10
-138.760755
 20
177.163633
 30
0.0
 40
16.0
100
AcDbArc
 50
255.0
 51
195.0
  0
LINE
  5
258
100
AcDbEntity
  8
2
370
    50
100
AcDbLine
 10
-174.433538
 20
160.163633
 30
0.0
 11
-167.074463
 21
160.163633
 31
0.0
  0
LINE
  5
259
100
AcDbEntity
  8
2
370
    50
100
AcDbLine
 10
-144.447046
 20
160.163633
 30
0.0
 11
-103.088002
 21
160.163633
 31
0.0
  0
LINE
  5
25A
100
AcDbEntity
  8
2
370
    50
100
AcDbLine
 10
-174.710235
 20
157.163633
 30
0.0
 11
-170.074463
 21
157.163633
 31
0.0
  0
LINE
  5
25B
100
AcDbEntity
  8
2
370
    50
100
AcDbLine
 10
-147.447046
 20
157.163633
 30
0.0
 11
-102.811306
 21
157.163633
 31
0.0
  0
ARC
  5
25C
100
AcDbEntity
  8
2
370
    50
100
AcDbCircle
 10
-266.41127
 20
65.917995
 30
0.0
 40
0.5
100
AcDbArc
 50
45.0
 51
135.0
  0
ARC
  5
25D
100
AcDbEntity
  8
2
370
    50
100
AcDbCircle
 10
-250.006392
 20
49.513118
 30
0.0
 40
0.5
100
AcDbArc
 50
315.0
 51
45.0
  0
ARC
  5
25E
100
AcDbEntity
  8
2
370
    50
100
AcDbCircle
 10
-284.538446
 20
18.516598
 30
0.0
 40
3.0
100
AcDbArc
 50
269.427004
 51
315.0
  0
ARC
  5
25F
100
AcDbEntity
  8
2
370
    50
100
AcDbCircle
 10
-297.407789
 20
31.385942
 30
0.0
 40
3.0
100
AcDbArc
 50
135.0
 51
180.572996
  0
LINE
  5
260
100
AcDbEntity
  8
2
370
    50
100
AcDbLine
 10
-126.760755
 20
12.199169
 30
0.0
 11
-126.760755
 21
4.441865
 31
0.0
  0
ELLIPSE
  5
261
100
AcDbEntity
  8
2
370
    50
100
AcDbEllipse
 10
-138.760755
 20
28.881711
 30
0.0
 11
12.0
 21
0.0
 31
0.0
210
0.0
220
0.0
230
1.0
 40
0.974999
 41
0.0
 42
3.1415929999999999
  0
ELLIPSE
  5
262
100
AcDbEntity
  8
2
370
    50
100
AcDbEllipse
 10
-138.760755
 20
28.881711
 30
0.0
 11
0.0
 21
12.267115
 31
0.0
210
0.0
220
0.0
230
1.0
 40
0.978225
 41
1.5707960000000001
 42
4.7123889999999999
  0
LINE
  5
263
100
AcDbEntity
  8
2
370
    50
100
AcDbLine
 10
-149.760755
 20
23.979126
 30
0.0
 11
-149.760755
 21
12.450163
 31
0.0
  0
LINE
  5
264
100
AcDbEntity
  8
2
370
    50
100
AcDbLine
 10
-127.760755
 20
23.979126
 30
0.0
 11
-127.760755
 21
12.450163
 31
0.0
  0
LINE
  5
265
100
AcDbEntity
  8
2
370
    50
100
AcDbLine
 10
-150.760755
 20
12.199169
 30
0.0
 11
-150.760755
 21
4.441865
 31
0.0
  0
ELLIPSE
  5
266
100
AcDbEntity
  8
2
370
    50
100
AcDbEllipse
 10
-138.760755
 20
12.199169
 30
0.0
 11
12.0
 21
0.0
 31
0.0
210
0.0
220
0.0
230
1.0
 40
0.052336
 41
0.0
 42
3.1415929999999999
  0
POINT
  5
267
100
AcDbEntity
  8
2
370
    50
100
AcDbPoint
 10
62.883944
 20
0.139234
 30
0.0
  0
ELLIPSE
  5
268
100
AcDbEntity
  8
2
370
    50
100
AcDbEllipse
 10
-138.760755
 20
0.714929
 30
0.0
 11
11.0
 21
0.0
 31
0.0
210
0.0
220
0.0
230
1.0
 40
0.052336
 41
0.0
 42
6.2831849999999996
  0
LINE
  5
269
100
AcDbEntity
  8
2
370
    50
100
AcDbLine
 10
-126.760755
 20
4.441865
 30
0.0
 11
-127.760755
 21
0.714929
 31
0.0
  0
LINE
  5
26A
100
AcDbEntity
  8
2
370
    50
100
AcDbLine
 10
-150.760755
 20
4.441865
 30
0.0
 11
-149.760755
 21
0.714929
 31
0.0
  0
ELLIPSE
  5
26B
100
AcDbEntity
  8
2
370
    25
100
AcDbEllipse
 10
-138.760755
 20
4.441865
 30
0.0
 11
12.0
 21
0.0
 31
0.0
210
0.0
220
0.0
230
1.0
 40
0.052336
 41
0.418467
 42
2.838673
  0
LINE
  5
26C
100
AcDbEntity
  8
2
370
    50
100
AcDbLine
 10
-150.760755
 20
28.881711
 30
0.0
 11
-150.760755
 21
26.107905
 31
0.0
  0
ELLIPSE
  5
26D
100
AcDbEntity
  8
2
370
    50
100
AcDbEllipse
 10
-138.760755
 20
26.107905
 30
0.0
 11
12.0
 21
0.0
 31
0.0
210
0.0
220
0.0
230
1.0
 40
0.998634
 41
3.1415929999999999
 42
3.5527310000000001
  0
ELLIPSE
  5
26E
100
AcDbEntity
  8
2
370
    50
100
AcDbEllipse
 10
-138.760755
 20
26.107905
 30
0.0
 11
12.0
 21
0.0
 31
0.0
210
0.0
220
0.0
230
1.0
 40
0.998634
 41
5.8720470000000002
 42
0.0
  0
LINE
  5
26F
100
AcDbEntity
  8
2
370
    50
100
AcDbLine
 10
-126.760755
 20
28.881711
 30
0.0
 11
-126.760755
 21
26.107905
 31
0.0
  0
TEXT
  5
270
100
AcDbEntity
  8
3
370
    50
100
AcDbText
 10
290.832582
 20
-240.013492
 30
0.0
 40
6.0
  1
１　１
 72
     5
 11
307.632582
 21
-240.013492
 31
0.0
100
AcDbText
  0
DIMENSION
  5
271
100
AcDbEntity
  8
3
370
    25
100
AcDbDimension
  2
*D0
 10
-87.760643
 20
-206.286011
 30
0.0
 11
-138.76072
 21
-201.786011
 31
0.0
 71
     0
 72
     0
 41
0.0
 42
0.0
  3
Standard
100
AcDbAlignedDimension
 13
-189.760798
 23
-178.594172
 33
0.0
 14
-87.760643
 24
-178.593907
 34
0.0
100
AcDbRotatedDimension
  0
DIMENSION
  5
272
100
AcDbEntity
  8
3
370
    25
100
AcDbDimension
  2
*D1
 10
-283.122162
 20
-28.784538
 30
0.0
 11
-291.122162
 21
-69.034714
 31
0.0
 71
     0
 72
     0
 41
0.0
 42
0.0
  3
Standard
100
AcDbAlignedDimension
 13
-209.760755
 23
-109.284891
 33
0.0
 14
-189.760956
 24
-28.784538
 34
0.0
 50
90.0
100
AcDbRotatedDimension
  0
DIMENSION
  5
273
100
AcDbEntity
  8
3
370
    25
100
AcDbDimension
  2
*D2
 10
-283.122162
 20
-109.284891
 30
0.0
 11
-291.122162
 21
-137.284891
 31
0.0
 71
     0
 72
     0
 41
0.0
 42
0.0
  3
Standard
100
AcDbAlignedDimension
 13
-202.463512
 23
-165.284891
 33
0.0
 14
-209.760755
 24
-109.284891
 34
0.0
 50
90.0
100
AcDbRotatedDimension
  0
TEXT
  5
274
100
AcDbEntity
  8
3
370
    50
100
AcDbText
 10
-161.342743
 20
-175.612137
 30
0.0
 40
7.0
  1
ＰＪ１／２
 72
     5
 11
-127.742743
 21
-175.612137
 31
0.0
100
AcDbText
  0
TEXT
  5
275
100
AcDbEntity
  8
3
370
    50
100
AcDbText
 10
-247.252808
 20
-148.082108
 30
0.0
 40
7.0
  1
２４六角
 72
     5
 11
-220.652808
 21
-148.082108
 31
0.0
100
AcDbText
  0
LWPOLYLINE
  5
276
100
AcDbEntity
  8
3
370
    25
100
AcDbPolyline
 90
        3
 70
     0
 10
-203.511245
 20
-136.741165
 10
-218.780273
 20
-150.012451
 10
-246.046326
 20
-150.012451
  0
LINE
  5
27B
100
AcDbEntity
  8
3
370
    25
100
AcDbLine
 10
-206.427396
 20
-139.275778
 30
0.0
 11
-205.748249
 21
-140.057159
 31
0.0
  0
LINE
  5
27C
100
AcDbEntity
  8
3
370
    25
100
AcDbLine
 10
-205.748249
 20
-140.057159
 30
0.0
 11
-203.511245
 21
-136.741165
 31
0.0
  0
LINE
  5
27D
100
AcDbEntity
  8
3
370
    25
100
AcDbLine
 10
-203.511245
 20
-136.741165
 30
0.0
 11
-207.106544
 21
-138.494398
 31
0.0
  0
LINE
  5
27E
100
AcDbEntity
  8
3
370
    25
100
AcDbLine
 10
-207.106544
 20
-138.494398
 30
0.0
 11
-206.427396
 21
-139.275778
 31
0.0
  0
TEXT
  5
27F
100
AcDbEntity
  8
3
370
    50
100
AcDbText
 10
-245.7771
 20
-188.434982
 30
0.0
 40
7.0
  1
２３六角
 72
     5
 11
-219.1771
 21
-188.434982
 31
0.0
100
AcDbText
  0
TEXT
  5
280
100
AcDbEntity
  8
3
370
    50
100
AcDbText
 10
-161.774033
 20
-184.891998
 30
0.0
 40
7.0
  1
取付穴２３±１
 72
     5
 11
-114.174033
 21
-184.891998
 31
0.0
100
AcDbText
  0
LWPOLYLINE
  5
281
100
AcDbEntity
  8
3
370
    25
100
AcDbPolyline
 90
        3
 70
     0
 10
-202.418624
 20
-167.446681
 10
-216.081238
 20
-190.243362
 10
-247.264038
 20
-190.243362
  0
LINE
  5
286
100
AcDbEntity
  8
3
370
    25
100
AcDbLine
 10
-204.404837
 20
-170.760766
 30
0.0
 11
-203.516831
 21
-171.29297
 31
0.0
  0
LINE
  5
287
100
AcDbEntity
  8
3
370
    25
100
AcDbLine
 10
-203.516831
 20
-171.29297
 30
0.0
 11
-202.418624
 21
-167.446681
 31
0.0
  0
LINE
  5
288
100
AcDbEntity
  8
3
370
    25
100
AcDbLine
 10
-202.418624
 20
-167.446681
 30
0.0
 11
-205.292844
 21
-170.228562
 31
0.0
  0
LINE
  5
289
100
AcDbEntity
  8
3
370
    25
100
AcDbLine
 10
-205.292844
 20
-170.228562
 30
0.0
 11
-204.404837
 21
-170.760766
 31
0.0
  0
LWPOLYLINE
  5
28A
100
AcDbEntity
  8
3
370
    25
100
AcDbPolyline
 90
        3
 70
     0
 10
-179.510351
 20
-149.239258
 10
-162.986252
 20
-176.762726
 10
-113.866348
 20
-176.762726
  0
LINE
  5
28F
100
AcDbEntity
  8
3
370
    25
100
AcDbLine
 10
-177.521605
 20
-152.551824
 30
0.0
 11
-176.634006
 21
-152.018941
 31
0.0
  0
LINE
  5
290
100
AcDbEntity
  8
3
370
    25
100
AcDbLine
 10
-176.634006
 20
-152.018941
 30
0.0
 11
-179.510351
 21
-149.239258
 31
0.0
  0
LINE
  5
291
100
AcDbEntity
  8
3
370
    25
100
AcDbLine
 10
-179.510351
 20
-149.239258
 30
0.0
 11
-178.409205
 21
-153.084707
 31
0.0
  0
LINE
  5
292
100
AcDbEntity
  8
3
370
    25
100
AcDbLine
 10
-178.409205
 20
-153.084707
 30
0.0
 11
-177.521605
 21
-152.551824
 31
0.0
  0
DIMENSION
  5
293
100
AcDbEntity
  8
3
370
    25
100
AcDbDimension
  2
*D3
 10
-94.260755
 20
-194.064194
 30
0.0
 11
-87.760755
 21
-189.564194
 31
0.0
 70
     1
 71
     0
 72
     0
 41
0.0
 42
0.0
  3
Standard
100
AcDbAlignedDimension
 13
-81.260755
 23
-171.78496
 33
0.0
 14
-94.260755
 24
-171.78496
 34
0.0
  0
DIMENSION
  5
294
100
AcDbEntity
  8
3
370
    25
100
AcDbDimension
  2
*D4
 10
51.899019
 20
0.712109
 30
0.0
 11
58.184535
 21
-26.661755
 31
0.0
 70
     2
 71
     0
 72
     0
 41
0.0
 42
0.0
  3
Standard
100
AcDb2LineAngularDimension
 13
51.898872
 23
0.712113
 33
0.0
 14
51.899019
 24
0.714929
 34
0.0
 15
51.899019
 25
0.714929
 35
0.0
 16
51.160757
 26
-27.478174
 36
0.0
1001
ACAD
1000
DSTYLE
1002
{
1070
   275
1070
     0
1070
   179
1070
     0
1002
}
  0
DIMENSION
  5
295
100
AcDbEntity
  8
3
370
    25
100
AcDbDimension
  2
*D5
 10
51.899019
 20
97.66246
 30
0.0
 11
152.098817
 21
102.16246
 31
0.0
 70
     1
 71
     0
 72
     0
 41
0.0
 42
0.0
 51
270.0
  3
Standard
100
AcDbAlignedDimension
 13
252.298615
 23
-11.219395
 33
0.0
 14
51.899019
 24
0.714929
 34
0.0
 50
180.0
  0
POINT
  5
296
100
AcDbEntity
  8
3
370
    50
100
AcDbPoint
 10
272.298615
 20
-109.284891
 30
0.0
  0
POINT
  5
297
100
AcDbEntity
  8
3
370
    50
100
AcDbPoint
 10
232.298615
 20
-109.284891
 30
0.0
  0
DIMENSION
  5
298
100
AcDbEntity
  8
3
370
    25
100
AcDbDimension
  2
*D6
 10
272.298615
 20
-123.23539
 30
0.0
 11
287.298615
 21
-118.73539
 31
0.0
 71
     0
 72
     0
 41
0.0
 42
0.0
  3
Standard
100
AcDbAlignedDimension
 13
232.298615
 23
-109.284891
 33
0.0
 14
272.298615
 24
-109.284891
 34
0.0
100
AcDbRotatedDimension
  0
DIMENSION
  5
299
100
AcDbEntity
  8
3
370
    25
100
AcDbDimension
  2
*D7
 10
12.119931
 20
0.714929
 30
0.0
 11
0.619931
 21
-57.784981
 31
0.0
 71
     0
 72
     0
 41
0.0
 42
0.0
  3
Standard
100
AcDbAlignedDimension
 13
232.298615
 23
-109.284891
 33
0.0
 14
51.899019
 24
0.714929
 34
0.0
 50
90.0
100
AcDbRotatedDimension
  0
TEXT
  5
29A
100
AcDbEntity
  8
3
370
    50
100
AcDbText
 10
127.650281
 20
39.804042
 30
0.0
 40
7.0
  1
φ１５．９
 50
87.0
 72
     5
 11
129.408769
 21
73.357994
 31
0.0
100
AcDbText
  0
DIMENSION
  5
29B
100
AcDbEntity
  8
3
370
    25
100
AcDbDimension
  2
*D8
 10
127.392847
 20
15.784597
 30
0.0
 11
125.314961
 21
53.337877
 31
0.0
 70
     1
 71
     0
 72
     0
 41
0.0
 42
0.0
  3
Standard
100
AcDbAlignedDimension
 13
83.689667
 23
34.096941
 33
0.0
 14
82.852291
 24
18.118869
 34
0.0
 50
87.0
  0
TEXT
  5
29C
100
AcDbEntity
  8
3
370
    50
100
AcDbText
 10
-206.615519
 20
-5.744648
 30
0.0
 40
7.0
  1
（湯表示）
 72
     5
 11
-173.015519
 21
-5.744648
 31
0.0
100
AcDbText
  0
TEXT
  5
29D
100
AcDbEntity
  8
3
370
    50
100
AcDbText
 10
-92.467034
 20
2.317717
 30
0.0
 40
7.0
  1
サックス
 72
     5
 11
-65.867034
 21
2.317717
 31
0.0
100
AcDbText
  0
TEXT
  5
29E
100
AcDbEntity
  8
3
370
    50
100
AcDbText
 10
-206.615519
 20
2.255352
 30
0.0
 40
7.0
  1
ピンク
 72
     5
 11
-187.015519
 21
2.255352
 31
0.0
100
AcDbText
  0
TEXT
  5
29F
100
AcDbEntity
  8
3
370
    50
100
AcDbText
 10
-92.467034
 20
-5.682283
 30
0.0
 40
7.0
  1
（水表示）
 72
     5
 11
-58.867034
 21
-5.682283
 31
0.0
100
AcDbText
  0
LWPOLYLINE
  5
2A0
100
AcDbEntity
  8
3
370
    25
100
AcDbPolyline
 90
        2
 70
     0
 10
-192.320383
 20
-28.92162
 10
-194.269663
 20
-8.137036
  0
LWPOLYLINE
  5
2A4
100
AcDbEntity
  8
3
370
    25
100
AcDbPolyline
 90
        2
 70
     0
 10
-83.762169
 20
-28.859255
 10
-81.81289
 20
-8.074671
  0
TEXT
  5
2A8
100
AcDbEntity
  8
3
370
    50
100
AcDbText
 10
336.070276
 20
-271.880939
 30
0.0
 40
6.4
  1
３０１５１０
 72
     5
 11
373.190276
 21
-271.880939
 31
0.0
100
AcDbText
  0
TEXT
  5
2A9
100
AcDbEntity
  8
3
370
    50
100
AcDbText
 10
345.098131
 20
-256.100293
 30
0.0
 40
6.0
  1
０２　　６　１４
 72
     5
 11
391.898131
 21
-256.100293
 31
0.0
100
AcDbText
  0
TEXT
  5
2AA
100
AcDbEntity
  8
3
370
    50
100
AcDbText
 10
66.463699
 20
-228.150439
 30
0.0
 40
7.0
  1
台付２ハンドル湯水混合水栓
 72
     5
 11
156.063699
 21
-228.150439
 31
0.0
100
AcDbText
  0
TEXT
  5
2AB
100
AcDbEntity
  8
3
370
    50
100
AcDbText
 10
66.463699
 20
-236.150439
 30
0.0
 40
7.0
  1
Ｋ１３－３８Ｇ－Ｍ３２
 72
     5
 11
142.063699
 21
-236.150439
 31
0.0
100
AcDbText
  0
TEXT
  5
2AC
100
AcDbEntity
  8
3
370
    50
100
AcDbText
 10
231.121841
 20
-272.46817
 30
0.0
 40
7.0
  1
外観寸法図
 72
     5
 11
264.721841
 21
-272.46817
 31
0.0
100
AcDbText
  0
POINT
  5
2AD
100
AcDbEntity
  8
3
370
    50
100
AcDbPoint
 10
-67.760755
 20
-109.284891
 30
0.0
  0
POINT
  5
2AE
100
AcDbEntity
  8
3
370
    50
100
AcDbPoint
 10
-209.760755
 20
-109.284891
 30
0.0
  0
DIMENSION
  5
2AF
100
AcDbEntity
  8
3
370
    25
100
AcDbDimension
  2
*D9
 10
-67.760755
 20
-122.722572
 30
0.0
 11
-49.260755
 21
-118.222572
 31
0.0
 71
     0
 72
     0
 41
0.0
 42
0.0
  3
Standard
100
AcDbAlignedDimension
 13
-209.760755
 23
-109.284891
 33
0.0
 14
-67.760755
 24
-109.284891
 34
0.0
100
AcDbRotatedDimension
  0
LINE
  5
2B0
100
AcDbEntity
  8
4
370
    50
100
AcDbLine
 10
-179.756223
 20
-93.090243
 30
0.0
 11
-179.756223
 21
-105.440243
 31
0.0
  0
LINE
  5
2B1
100
AcDbEntity
  8
4
370
    50
100
AcDbLine
 10
-198.756223
 20
-93.090243
 30
0.0
 11
-198.756223
 21
-105.440243
 31
0.0
  0
LINE
  5
2B2
100
AcDbEntity
  8
4
370
    50
100
AcDbLine
 10
-178.806223
 20
-93.090243
 30
0.0
 11
-178.806223
 21
-105.440243
 31
0.0
  0
LINE
  5
2B3
100
AcDbEntity
  8
4
370
    50
100
AcDbLine
 10
-199.706223
 20
-93.090243
 30
0.0
 11
-199.706223
 21
-105.440243
 31
0.0
  0
LINE
  5
2B4
100
AcDbEntity
  8
4
370
    50
100
AcDbLine
 10
-181.656223
 20
-90.240243
 30
0.0
 11
-196.856223
 21
-90.240243
 31
0.0
  0
LINE
  5
2B5
100
AcDbEntity
  8
4
370
    50
100
AcDbLine
 10
-181.656223
 20
-91.190243
 30
0.0
 11
-196.856223
 21
-91.190243
 31
0.0
  0
LINE
  5
2B6
100
AcDbEntity
  8
4
370
    50
100
AcDbLine
 10
-181.656223
 20
-107.340243
 30
0.0
 11
-196.856223
 21
-107.340243
 31
0.0
  0
LINE
  5
2B7
100
AcDbEntity
  8
4
370
    50
100
AcDbLine
 10
-181.656223
 20
-108.290243
 30
0.0
 11
-196.856223
 21
-108.290243
 31
0.0
  0
LINE
  5
2B8
100
AcDbEntity
  8
4
370
    50
100
AcDbLine
 10
-179.756223
 20
-96.890243
 30
0.0
 11
-198.756223
 21
-96.890243
 31
0.0
  0
ARC
  5
2B9
100
AcDbEntity
  8
4
370
    50
100
AcDbCircle
 10
-196.856223
 20
-93.090243
 30
0.0
 40
2.85
100
AcDbArc
 50
90.0
 51
180.0
  0
ARC
  5
2BA
100
AcDbEntity
  8
4
370
    50
100
AcDbCircle
 10
-181.656223
 20
-93.090243
 30
0.0
 40
2.85
100
AcDbArc
 50
0.0
 51
90.0
  0
ARC
  5
2BB
100
AcDbEntity
  8
4
370
    50
100
AcDbCircle
 10
-181.656223
 20
-105.440243
 30
0.0
 40
2.85
100
AcDbArc
 50
270.0
 51
0.0
  0
ARC
  5
2BC
100
AcDbEntity
  8
4
370
    50
100
AcDbCircle
 10
-196.856223
 20
-105.440243
 30
0.0
 40
2.85
100
AcDbArc
 50
180.0
 51
270.0
  0
ARC
  5
2BD
100
AcDbEntity
  8
4
370
    50
100
AcDbCircle
 10
-196.856223
 20
-93.090243
 30
0.0
 40
1.9
100
AcDbArc
 50
90.0
 51
180.0
  0
ARC
  5
2BE
100
AcDbEntity
  8
4
370
    50
100
AcDbCircle
 10
-181.656223
 20
-93.090243
 30
0.0
 40
1.9
100
AcDbArc
 50
360.0
 51
90.0
  0
ARC
  5
2BF
100
AcDbEntity
  8
4
370
    50
100
AcDbCircle
 10
-181.656223
 20
-105.440243
 30
0.0
 40
1.9
100
AcDbArc
 50
270.0
 51
360.0
  0
ARC
  5
2C0
100
AcDbEntity
  8
4
370
    50
100
AcDbCircle
 10
-196.856223
 20
-105.440243
 30
0.0
 40
1.9
100
AcDbArc
 50
180.0
 51
270.0
  0
POINT
  5
2C1
100
AcDbEntity
  8
4
370
    50
100
AcDbPoint
 10
-194.481223
 20
-102.115243
 30
0.0
  0
CIRCLE
  5
2C2
100
AcDbEntity
  8
4
370
    50
100
AcDbCircle
 10
-194.481223
 20
-102.115243
 30
0.0
 40
3.8
  0
LINE
  5
2C3
100
AcDbEntity
  8
4
370
    50
100
AcDbLine
 10
-196.658409
 20
-99.602181
 30
0.0
 11
-191.96816
 21
-104.29243
 31
0.0
  0
LINE
  5
2C4
100
AcDbEntity
  8
4
370
    50
100
AcDbLine
 10
-196.994285
 20
-99.938057
 30
0.0
 11
-192.304036
 21
-104.628306
 31
0.0
  0
ARC
  5
2C5
100
AcDbEntity
  8
4
370
    50
100
AcDbCircle
 10
-194.481223
 20
-102.115243
 30
0.0
 40
3.325
100
AcDbArc
 50
319.096044
 51
130.903956
  0
ARC
  5
2C6
100
AcDbEntity
  8
4
370
    50
100
AcDbCircle
 10
-194.481223
 20
-102.115243
 30
0.0
 40
3.325
100
AcDbArc
 50
139.096044
 51
310.903956
  0
LINE
  5
2C7
100
AcDbEntity
  8
4
370
    50
100
AcDbLine
 10
-192.581223
 20
-103.679368
 30
0.0
 11
-192.581223
 21
-100.547743
 31
0.0
  0
LINE
  5
2C8
100
AcDbEntity
  8
4
370
    50
100
AcDbLine
 10
-193.246223
 20
-102.590243
 30
0.0
 11
-193.246223
 21
-100.072743
 31
0.0
  0
LINE
  5
2C9
100
AcDbEntity
  8
4
370
    50
100
AcDbLine
 10
-193.911223
 20
-102.115243
 30
0.0
 11
-193.911223
 21
-99.597743
 31
0.0
  0
LINE
  5
2CA
100
AcDbEntity
  8
4
370
    50
100
AcDbLine
 10
-194.576223
 20
-102.115243
 30
0.0
 11
-194.576223
 21
-99.597743
 31
0.0
  0
LINE
  5
2CB
100
AcDbEntity
  8
4
370
    50
100
AcDbLine
 10
-194.741131
 20
-104.965243
 30
0.0
 11
-193.531223
 21
-104.965243
 31
0.0
  0
ARC
  5
2CC
100
AcDbEntity
  8
4
370
    50
100
AcDbCircle
 10
-194.243723
 20
-99.597743
 30
0.0
 40
0.3325
100
AcDbArc
 50
0.0
 51
180.0
  0
ARC
  5
2CD
100
AcDbEntity
  8
4
370
    50
100
AcDbCircle
 10
-194.908723
 20
-100.072743
 30
0.0
 40
0.3325
100
AcDbArc
 50
0.0
 51
180.0
  0
ARC
  5
2CE
100
AcDbEntity
  8
4
370
    50
100
AcDbCircle
 10
-193.578723
 20
-100.072743
 30
0.0
 40
0.3325
100
AcDbArc
 50
0.0
 51
180.0
  0
ARC
  5
2CF
100
AcDbEntity
  8
4
370
    50
100
AcDbCircle
 10
-192.913723
 20
-100.547743
 30
0.0
 40
0.3325
100
AcDbArc
 50
0.0
 51
180.0
  0
ARC
  5
2D0
100
AcDbEntity
  8
4
370
    50
100
AcDbCircle
 10
-193.531223
 20
-104.015243
 30
0.0
 40
0.95
100
AcDbArc
 50
270.0
 51
342.20057
  0
LINE
  5
2D1
100
AcDbEntity
  8
4
370
    50
100
AcDbLine
 10
-195.241223
 20
-103.065243
 30
0.0
 11
-195.241223
 21
-101.691119
 31
0.0
  0
LINE
  5
2D2
100
AcDbEntity
  8
4
370
    50
100
AcDbLine
 10
-195.241223
 20
-101.019368
 30
0.0
 11
-195.241223
 21
-100.072743
 31
0.0
  0
LINE
  5
2D3
100
AcDbEntity
  8
4
370
    50
100
AcDbLine
 10
-196.226931
 20
-102.208444
 30
0.0
 11
-195.241223
 21
-103.065243
 31
0.0
  0
LINE
  5
2D4
100
AcDbEntity
  8
4
370
    50
100
AcDbLine
 10
-196.789487
 20
-102.710337
 30
0.0
 11
-195.524293
 21
-104.552978
 31
0.0
  0
ARC
  5
2D5
100
AcDbEntity
  8
4
370
    50
100
AcDbCircle
 10
-196.476223
 20
-102.495243
 30
0.0
 40
0.38
100
AcDbArc
 50
49.002125
 51
214.474285
  0
ARC
  5
2D6
100
AcDbEntity
  8
4
370
    50
100
AcDbCircle
 10
-194.741131
 20
-104.015243
 30
0.0
 40
0.95
100
AcDbArc
 50
214.474285
 51
270.0
  0
TEXT
  5
2D7
100
AcDbEntity
  8
4
370
    50
100
AcDbText
 10
-188.653179
 20
-99.878503
 30
0.0
 40
2.09
  1
やけどの
 72
     5
 11
-180.711179
 21
-99.878503
 31
0.0
100
AcDbText
  0
TEXT
  5
2D8
100
AcDbEntity
  8
4
370
    50
100
AcDbText
 10
-188.653179
 20
-102.918503
 30
0.0
 40
2.09
  1
恐れあり
 72
     5
 11
-180.711179
 21
-102.918503
 31
0.0
100
AcDbText
  0
TEXT
  5
2D9
100
AcDbEntity
  8
4
370
    50
100
AcDbText
 10
-188.653179
 20
-105.958503
 30
0.0
 40
2.09
  1
さわるな
 72
     5
 11
-180.711179
 21
-105.958503
 31
0.0
100
AcDbText
  0
TEXT
  5
2DA
100
AcDbEntity
  8
4
370
    50
100
AcDbText
 10
-190.345023
 20
-96.100596
 30
0.0
 40
3.8
  1
注 意
 72
     5
 11
-181.605023
 21
-96.100596
 31
0.0
100
AcDbText
  0
LINE
  5
2DB
100
AcDbEntity
  8
4
370
    50
100
AcDbLine
 10
-191.371395
 20
-96.415243
 30
0.0
 11
-196.856223
 21
-96.415243
 31
0.0
  0
LINE
  5
2DC
100
AcDbEntity
  8
4
370
    50
100
AcDbLine
 10
-196.856223
 20
-96.415243
 30
0.0
 11
-194.113809
 21
-91.665243
 31
0.0
  0
LINE
  5
2DD
100
AcDbEntity
  8
4
370
    50
100
AcDbLine
 10
-194.113809
 20
-91.665243
 30
0.0
 11
-191.371395
 21
-96.415243
 31
0.0
  0
TEXT
  5
2DE
100
AcDbEntity
  8
4
370
    50
100
AcDbText
 10
-195.981627
 20
-96.153541
 30
0.0
 40
3.8
  1
！
 72
     5
 11
-192.941627
 21
-96.153541
 31
0.0
100
AcDbText
  0
LINE
  5
2DF
100
AcDbEntity
  8
4
370
    25
100
AcDbLine
 10
-198.281223
 20
-102.115243
 30
0.0
 11
-197.766074
 21
-101.600094
 31
0.0
  0
LINE
  5
2E0
100
AcDbEntity
  8
4
370
    25
100
AcDbLine
 10
-196.549161
 20
-100.383181
 30
0.0
 11
-196.213285
 21
-100.047305
 31
0.0
  0
LINE
  5
2E1
100
AcDbEntity
  8
4
370
    25
100
AcDbLine
 10
-194.996372
 20
-98.830392
 30
0.0
 11
-194.481223
 21
-98.315243
 31
0.0
  0
LINE
  5
2E2
100
AcDbEntity
  8
4
370
    25
100
AcDbLine
 10
-198.271402
 20
-102.388265
 30
0.0
 11
-197.800318
 21
-101.917182
 31
0.0
  0
LINE
  5
2E3
100
AcDbEntity
  8
4
370
    25
100
AcDbLine
 10
-196.407739
 20
-100.524602
 30
0.0
 11
-196.071864
 21
-100.188727
 31
0.0
  0
LINE
  5
2E4
100
AcDbEntity
  8
4
370
    25
100
AcDbLine
 10
-194.679284
 20
-98.796147
 30
0.0
 11
-194.208201
 21
-98.325064
 31
0.0
  0
LINE
  5
2E5
100
AcDbEntity
  8
4
370
    25
100
AcDbLine
 10
-198.24426
 20
-102.643966
 30
0.0
 11
-197.805018
 21
-102.204724
 31
0.0
  0
LINE
  5
2E6
100
AcDbEntity
  8
4
370
    25
100
AcDbLine
 10
-196.266318
 20
-100.666024
 30
0.0
 11
-195.930442
 21
-100.330148
 31
0.0
  0
LINE
  5
2E7
100
AcDbEntity
  8
4
370
    25
100
AcDbLine
 10
-194.391742
 20
-98.791448
 30
0.0
 11
-193.9525
 21
-98.352206
 31
0.0
  0
LINE
  5
2E8
100
AcDbEntity
  8
4
370
    25
100
AcDbLine
 10
-198.202444
 20
-102.884992
 30
0.0
 11
-197.787264
 21
-102.469812
 31
0.0
  0
LINE
  5
2E9
100
AcDbEntity
  8
4
370
    25
100
AcDbLine
 10
-196.124897
 20
-100.807445
 30
0.0
 11
-195.789021
 21
-100.471569
 31
0.0
  0
LINE
  5
2EA
100
AcDbEntity
  8
4
370
    25
100
AcDbLine
 10
-194.126654
 20
-98.809202
 30
0.0
 11
-193.711474
 21
-98.394022
 31
0.0
  0
LINE
  5
2EB
100
AcDbEntity
  8
4
370
    25
100
AcDbLine
 10
-198.147833
 20
-103.113225
 30
0.0
 11
-197.751362
 21
-102.716753
 31
0.0
  0
LINE
  5
2EC
100
AcDbEntity
  8
4
370
    25
100
AcDbLine
 10
-195.983475
 20
-100.948867
 30
0.0
 11
-195.647599
 21
-100.612991
 31
0.0
  0
LINE
  5
2ED
100
AcDbEntity
  8
4
370
    25
100
AcDbLine
 10
-193.879713
 20
-98.845104
 30
0.0
 11
-193.483241
 21
-98.448633
 31
0.0
  0
LINE
  5
2EE
100
AcDbEntity
  8
4
370
    25
100
AcDbLine
 10
-198.081813
 20
-103.330047
 30
0.0
 11
-197.700151
 21
-102.948385
 31
0.0
  0
LINE
  5
2EF
100
AcDbEntity
  8
4
370
    25
100
AcDbLine
 10
-195.842054
 20
-101.090288
 30
0.0
 11
-195.506178
 21
-100.754412
 31
0.0
  0
LINE
  5
2F0
100
AcDbEntity
  8
4
370
    25
100
AcDbLine
 10
-193.648081
 20
-98.896315
 30
0.0
 11
-193.266419
 21
-98.514653
 31
0.0
  0
LINE
  5
2F1
100
AcDbEntity
  8
4
370
    25
100
AcDbLine
 10
-198.005427
 20
-103.536504
 30
0.0
 11
-197.635602
 21
-103.166679
 31
0.0
  0
LINE
  5
2F2
100
AcDbEntity
  8
4
370
    25
100
AcDbLine
 10
-195.700632
 20
-101.231709
 30
0.0
 11
-195.364757
 21
-100.895834
 31
0.0
  0
LINE
  5
2F3
100
AcDbEntity
  8
4
370
    25
100
AcDbLine
 10
-193.429787
 20
-98.960864
 30
0.0
 11
-193.059962
 21
-98.591039
 31
0.0
  0
LINE
  5
2F4
100
AcDbEntity
  8
4
370
    25
100
AcDbLine
 10
-197.919476
 20
-103.733395
 30
0.0
 11
-197.559134
 21
-103.373054
 31
0.0
  0
LINE
  5
2F5
100
AcDbEntity
  8
4
370
    25
100
AcDbLine
 10
-195.559211
 20
-101.373131
 30
0.0
 11
-195.223335
 21
-101.037255
 31
0.0
  0
LINE
  5
2F6
100
AcDbEntity
  8
4
370
    25
100
AcDbLine
 10
-193.223412
 20
-99.037332
 30
0.0
 11
-192.863071
 21
-98.67699
 31
0.0
  0
LINE
  5
2F7
100
AcDbEntity
  8
4
370
    25
100
AcDbLine
 10
-197.824577
 20
-103.921339
 30
0.0
 11
-197.471793
 21
-103.568555
 31
0.0
  0
LINE
  5
2F8
100
AcDbEntity
  8
4
370
    25
100
AcDbLine
 10
-195.41779
 20
-101.514552
 30
0.0
 11
-195.081914
 21
-101.178676
 31
0.0
  0
LINE
  5
2F9
100
AcDbEntity
  8
4
370
    25
100
AcDbLine
 10
-193.027911
 20
-99.124673
 30
0.0
 11
-192.675127
 21
-98.771889
 31
0.0
  0
LINE
  5
2FA
100
AcDbEntity
  8
4
370
    25
100
AcDbLine
 10
-197.721209
 20
-104.100814
 30
0.0
 11
-197.374357
 21
-103.753962
 31
0.0
  0
LINE
  5
2FB
100
AcDbEntity
  8
4
370
    25
100
AcDbLine
 10
-195.276368
 20
-101.655973
 30
0.0
 11
-194.940493
 21
-101.320098
 31
0.0
  0
LINE
  5
2FC
100
AcDbEntity
  8
4
370
    25
100
AcDbLine
 10
-192.842504
 20
-99.222109
 30
0.0
 11
-192.495652
 21
-98.875257
 31
0.0
  0
LINE
  5
2FD
100
AcDbEntity
  8
4
370
    25
100
AcDbLine
 10
-197.609737
 20
-104.272185
 30
0.0
 11
-197.267406
 21
-103.929853
 31
0.0
  0
LINE
  5
2FE
100
AcDbEntity
  8
4
370
    25
100
AcDbLine
 10
-195.134947
 20
-101.797395
 30
0.0
 11
-194.799071
 21
-101.461519
 31
0.0
  0
LINE
  5
2FF
100
AcDbEntity
  8
4
370
    25
100
AcDbLine
 10
-192.666613
 20
-99.32906
 30
0.0
 11
-192.324281
 21
-98.986729
 31
0.0
  0
LINE
  5
300
100
AcDbEntity
  8
4
370
    25
100
AcDbLine
 10
-197.490435
 20
-104.435726
 30
0.0
 11
-197.151362
 21
-104.096652
 31
0.0
  0
LINE
  5
301
100
AcDbEntity
  8
4
370
    25
100
AcDbLine
 10
-194.993526
 20
-101.938816
 30
0.0
 11
-194.65765
 21
-101.60294
 31
0.0
  0
LINE
  5
302
100
AcDbEntity
  8
4
370
    25
100
AcDbLine
 10
-192.499814
 20
-99.445104
 30
0.0
 11
-192.16074
 21
-99.106031
 31
0.0
  0
LINE
  5
303
100
AcDbEntity
  8
4
370
    25
100
AcDbLine
 10
-197.363497
 20
-104.59163
 30
0.0
 11
-197.026521
 21
-104.254654
 31
0.0
  0
LINE
  5
304
100
AcDbEntity
  8
4
370
    25
100
AcDbLine
 10
-194.852104
 20
-102.080237
 30
0.0
 11
-194.516229
 21
-101.744362
 31
0.0
  0
LINE
  5
305
100
AcDbEntity
  8
4
370
    25
100
AcDbLine
 10
-192.341812
 20
-99.569945
 30
0.0
 11
-192.004836
 21
-99.232969
 31
0.0
  0
LINE
  5
306
100
AcDbEntity
  8
4
370
    25
100
AcDbLine
 10
-197.229046
 20
-104.740022
 30
0.0
 11
-196.89307
 21
-104.404046
 31
0.0
  0
LINE
  5
307
100
AcDbEntity
  8
4
370
    25
100
AcDbLine
 10
-194.710683
 20
-102.221659
 30
0.0
 11
-194.374807
 21
-101.885783
 31
0.0
  0
LINE
  5
308
100
AcDbEntity
  8
4
370
    25
100
AcDbLine
 10
-192.19242
 20
-99.703396
 30
0.0
 11
-191.856444
 21
-99.36742
 31
0.0
  0
LINE
  5
309
100
AcDbEntity
  8
4
370
    25
100
AcDbLine
 10
-197.087141
 20
-104.88096
 30
0.0
 11
-196.751096
 21
-104.544914
 31
0.0
  0
LINE
  5
30A
100
AcDbEntity
  8
4
370
    25
100
AcDbLine
 10
-194.569262
 20
-102.36308
 30
0.0
 11
-194.233386
 21
-102.027204
 31
0.0
  0
LINE
  5
30B
100
AcDbEntity
  8
4
370
    25
100
AcDbLine
 10
-192.051552
 20
-99.84537
 30
0.0
 11
-191.715506
 21
-99.509325
 31
0.0
  0
LINE
  5
30C
100
AcDbEntity
  8
4
370
    25
100
AcDbLine
 10
-196.937778
 20
-105.014439
 30
0.0
 11
-196.600592
 21
-104.677254
 31
0.0
  0
LINE
  5
30D
100
AcDbEntity
  8
4
370
    25
100
AcDbLine
 10
-194.42784
 20
-102.504501
 30
0.0
 11
-194.091965
 21
-102.168626
 31
0.0
  0
LINE
  5
30E
100
AcDbEntity
  8
4
370
    25
100
AcDbLine
 10
-191.919212
 20
-99.995874
 30
0.0
 11
-191.582027
 21
-99.658688
 31
0.0
  0
LINE
  5
30F
100
AcDbEntity
  8
4
370
    25
100
AcDbLine
 10
-196.780889
 20
-105.140393
 30
0.0
 11
-196.44146
 21
-104.800964
 31
0.0
  0
LINE
  5
310
100
AcDbEntity
  8
4
370
    25
100
AcDbLine
 10
-194.286419
 20
-102.645923
 30
0.0
 11
-193.950543
 21
-102.310047
 31
0.0
  0
LINE
  5
311
100
AcDbEntity
  8
4
370
    25
100
AcDbLine
 10
-191.795502
 20
-100.155006
 30
0.0
 11
-191.456073
 21
-99.815577
 31
0.0
  0
LINE
  5
312
100
AcDbEntity
  8
4
370
    25
100
AcDbLine
 10
-196.616344
 20
-105.25869
 30
0.0
 11
-196.273499
 21
-104.915845
 31
0.0
  0
LINE
  5
313
100
AcDbEntity
  8
4
370
    25
100
AcDbLine
 10
-194.144998
 20
-102.787344
 30
0.0
 11
-193.809122
 21
-102.451468
 31
0.0
  0
LINE
  5
314
100
AcDbEntity
  8
4
370
    25
100
AcDbLine
 10
-191.680621
 20
-100.322967
 30
0.0
 11
-191.337776
 21
-99.980122
 31
0.0
  0
LINE
  5
315
100
AcDbEntity
  8
4
370
    25
100
AcDbLine
 10
-196.443937
 20
-105.369126
 30
0.0
 11
-196.096398
 21
-105.021587
 31
0.0
  0
LINE
  5
316
100
AcDbEntity
  8
4
370
    25
100
AcDbLine
 10
-194.003576
 20
-102.928766
 30
0.0
 11
-193.6677
 21
-102.59289
 31
0.0
  0
LINE
  5
317
100
AcDbEntity
  8
4
370
    25
100
AcDbLine
 10
-191.574879
 20
-100.500068
 30
0.0
 11
-191.22734
 21
-100.152529
 31
0.0
  0
LINE
  5
318
100
AcDbEntity
  8
4
370
    25
100
AcDbLine
 10
-196.263385
 20
-105.471417
 30
0.0
 11
-195.909716
 21
-105.117748
 31
0.0
  0
LINE
  5
319
100
AcDbEntity
  8
4
370
    25
100
AcDbLine
 10
-193.862155
 20
-103.070187
 30
0.0
 11
-193.526279
 21
-102.734311
 31
0.0
  0
LINE
  5
31A
100
AcDbEntity
  8
4
370
    25
100
AcDbLine
 10
-191.478718
 20
-100.68675
 30
0.0
 11
-191.125049
 21
-100.333081
 31
0.0
  0
LINE
  5
31B
100
AcDbEntity
  8
4
370
    25
100
AcDbLine
 10
-196.074308
 20
-105.565182
 30
0.0
 11
-195.71285
 21
-105.203725
 31
0.0
  0
LINE
  5
31C
100
AcDbEntity
  8
4
370
    25
100
AcDbLine
 10
-193.720733
 20
-103.211608
 30
0.0
 11
-193.384858
 21
-102.875733
 31
0.0
  0
LINE
  5
31D
100
AcDbEntity
  8
4
370
    25
100
AcDbLine
 10
-191.392741
 20
-100.883616
 30
0.0
 11
-191.031284
 21
-100.522158
 31
0.0
  0
LINE
  5
31E
100
AcDbEntity
  8
4
370
    25
100
AcDbLine
 10
-195.876212
 20
-105.649929
 30
0.0
 11
-195.504992
 21
-105.27871
 31
0.0
  0
LINE
  5
31F
100
AcDbEntity
  8
4
370
    25
100
AcDbLine
 10
-193.579312
 20
-103.35303
 30
0.0
 11
-193.243436
 21
-103.017154
 31
0.0
  0
LINE
  5
320
100
AcDbEntity
  8
4
370
    25
100
AcDbLine
 10
-191.317756
 20
-101.091474
 30
0.0
 11
-190.946537
 21
-100.720254
 31
0.0
  0
LINE
  5
321
100
AcDbEntity
  8
4
370
    25
100
AcDbLine
 10
-195.668458
 20
-105.725018
 30
0.0
 11
-195.285055
 21
-105.341616
 31
0.0
  0
LINE
  5
322
100
AcDbEntity
  8
4
370
    25
100
AcDbLine
 10
-193.437891
 20
-103.494451
 30
0.0
 11
-193.102015
 21
-103.158575
 31
0.0
  0
LINE
  5
323
100
AcDbEntity
  8
4
370
    25
100
AcDbLine
 10
-191.25485
 20
-101.311411
 30
0.0
 11
-190.871448
 21
-100.928008
 31
0.0
  0
LINE
  5
324
100
AcDbEntity
  8
4
370
    25
100
AcDbLine
 10
-195.450218
 20
-105.789621
 30
0.0
 11
-195.05156
 21
-105.390963
 31
0.0
  0
LINE
  5
325
100
AcDbEntity
  8
4
370
    25
100
AcDbLine
 10
-193.296469
 20
-103.635872
 30
0.0
 11
-192.960594
 21
-103.299997
 31
0.0
  0
LINE
  5
326
100
AcDbEntity
  8
4
370
    25
100
AcDbLine
 10
-191.205503
 20
-101.544906
 30
0.0
 11
-190.806845
 21
-101.146248
 31
0.0
  0
LINE
  5
327
100
AcDbEntity
  8
4
370
    25
100
AcDbLine
 10
-195.22041
 20
-105.842656
 30
0.0
 11
-194.802445
 21
-105.424691
 31
0.0
  0
LINE
  5
328
100
AcDbEntity
  8
4
370
    25
100
AcDbLine
 10
-193.155048
 20
-103.777294
 30
0.0
 11
-192.819172
 21
-103.441418
 31
0.0
  0
LINE
  5
329
100
AcDbEntity
  8
4
370
    25
100
AcDbLine
 10
-191.171775
 20
-101.794021
 30
0.0
 11
-190.75381
 21
-101.376056
 31
0.0
  0
LINE
  5
32A
100
AcDbEntity
  8
4
370
    25
100
AcDbLine
 10
-194.977596
 20
-105.882684
 30
0.0
 11
-194.534724
 21
-105.439813
 31
0.0
  0
LINE
  5
32B
100
AcDbEntity
  8
4
370
    25
100
AcDbLine
 10
-193.013627
 20
-103.918715
 30
0.0
 11
-192.677751
 21
-103.582839
 31
0.0
  0
LINE
  5
32C
100
AcDbEntity
  8
4
370
    25
100
AcDbLine
 10
-191.156653
 20
-102.061742
 30
0.0
 11
-190.713781
 21
-101.61887
 31
0.0
  0
LINE
  5
32D
100
AcDbEntity
  8
4
370
    25
100
AcDbLine
 10
-194.719815
 20
-105.907746
 30
0.0
 11
-194.243827
 21
-105.431758
 31
0.0
  0
LINE
  5
32E
100
AcDbEntity
  8
4
370
    25
100
AcDbLine
 10
-192.872205
 20
-104.060136
 30
0.0
 11
-192.53633
 21
-103.724261
 31
0.0
  0
LINE
  5
32F
100
AcDbEntity
  8
4
370
    25
100
AcDbLine
 10
-191.164708
 20
-102.352639
 30
0.0
 11
-190.68872
 21
-101.876651
 31
0.0
  0
LINE
  5
330
100
AcDbEntity
  8
4
370
    25
100
AcDbLine
 10
-194.44429
 20
-105.915064
 30
0.0
 11
-193.922127
 21
-105.3929
 31
0.0
  0
LINE
  5
331
100
AcDbEntity
  8
4
370
    25
100
AcDbLine
 10
-192.730784
 20
-104.201558
 30
0.0
 11
-192.394908
 21
-103.865682
 31
0.0
  0
LINE
  5
332
100
AcDbEntity
  8
4
370
    25
100
AcDbLine
 10
-191.203566
 20
-102.674339
 30
0.0
 11
-190.681402
 21
-102.152176
 31
0.0
  0
LINE
  5
333
100
AcDbEntity
  8
4
370
    25
100
AcDbLine
 10
-194.146891
 20
-105.900507
 30
0.0
 11
-193.555023
 21
-105.308639
 31
0.0
  0
LINE
  5
334
100
AcDbEntity
  8
4
370
    25
100
AcDbLine
 10
-192.589363
 20
-104.342979
 30
0.0
 11
-192.253487
 21
-104.007103
 31
0.0
  0
LINE
  5
335
100
AcDbEntity
  8
4
370
    25
100
AcDbLine
 10
-191.287827
 20
-103.041443
 30
0.0
 11
-190.695959
 21
-102.449575
 31
0.0
  0
LINE
  5
336
100
AcDbEntity
  8
4
370
    25
100
AcDbLine
 10
-193.820988
 20
-105.857447
 30
0.0
 11
-193.106106
 21
-105.142565
 31
0.0
  0
LINE
  5
337
100
AcDbEntity
  8
4
370
    25
100
AcDbLine
 10
-192.447941
 20
-104.4844
 30
0.0
 11
-192.112066
 21
-104.148525
 31
0.0
  0
LINE
  5
338
100
AcDbEntity
  8
4
370
    25
100
AcDbLine
 10
-191.453901
 20
-103.49036
 30
0.0
 11
-190.739019
 21
-102.775478
 31
0.0
  0
LINE
  5
339
100
AcDbEntity
  8
4
370
    25
100
AcDbLine
 10
-193.45465
 20
-105.773952
 30
0.0
 11
-192.338199
 21
-104.657501
 31
0.0
  0
LINE
  5
33A
100
AcDbEntity
  8
4
370
    25
100
AcDbLine
 10
-192.30652
 20
-104.625822
 30
0.0
 11
-191.970644
 21
-104.289946
 31
0.0
  0
LINE
  5
33B
100
AcDbEntity
  8
4
370
    25
100
AcDbLine
 10
-191.938965
 20
-104.258267
 30
0.0
 11
-190.822514
 21
-103.141816
 31
0.0
  0
LINE
  5
33C
100
AcDbEntity
  8
4
370
    25
100
AcDbLine
 10
-193.02158
 20
-105.623725
 30
0.0
 11
-190.972741
 21
-103.574886
 31
0.0
  0
LINE
  5
33D
100
AcDbEntity
  8
4
370
    25
100
AcDbLine
 10
-192.427436
 20
-105.312423
 30
0.0
 11
-191.284043
 21
-104.16903
 31
0.0
  0
LINE
  5
33E
100
AcDbEntity
  8
4
370
    25
100
AcDbLine
 10
-198.269813
 20
-101.820991
 30
0.0
 11
-197.689011
 21
-101.240189
 31
0.0
  0
LINE
  5
33F
100
AcDbEntity
  8
4
370
    25
100
AcDbLine
 10
-196.690582
 20
-100.24176
 30
0.0
 11
-196.354706
 21
-99.905884
 31
0.0
  0
LINE
  5
340
100
AcDbEntity
  8
4
370
    25
100
AcDbLine
 10
-195.356277
 20
-98.907455
 30
0.0
 11
-194.775475
 21
-98.326653
 31
0.0
  0
LINE
  5
341
100
AcDbEntity
  8
4
370
    25
100
AcDbLine
 10
-198.230972
 20
-101.499308
 30
0.0
 11
-197.53757
 21
-100.805905
 31
0.0
  0
LINE
  5
342
100
AcDbEntity
  8
4
370
    25
100
AcDbLine
 10
-196.832003
 20
-100.100338
 30
0.0
 11
-196.496128
 21
-99.764463
 31
0.0
  0
LINE
  5
343
100
AcDbEntity
  8
4
370
    25
100
AcDbLine
 10
-195.790561
 20
-99.058896
 30
0.0
 11
-195.097158
 21
-98.365493
 31
0.0
  0
LINE
  5
344
100
AcDbEntity
  8
4
370
    25
100
AcDbLine
 10
-198.153744
 20
-101.139236
 30
0.0
 11
-197.1599
 21
-100.145393
 31
0.0
  0
LINE
  5
345
100
AcDbEntity
  8
4
370
    25
100
AcDbLine
 10
-196.973425
 20
-99.958917
 30
0.0
 11
-196.637549
 21
-99.623041
 31
0.0
  0
LINE
  5
346
100
AcDbEntity
  8
4
370
    25
100
AcDbLine
 10
-196.451073
 20
-99.436566
 30
0.0
 11
-195.45723
 21
-98.442722
 31
0.0
  0
LINE
  5
347
100
AcDbEntity
  8
4
370
    25
100
AcDbLine
 10
-198.014801
 20
-100.717451
 30
0.0
 11
-195.879015
 21
-98.581665
 31
0.0
  0
LINE
  5
348
100
AcDbEntity
  8
4
370
    25
100
AcDbLine
 10
-197.73871
 20
-100.158517
 30
0.0
 11
-196.437949
 21
-98.857756
 31
0.0
  0
TEXT
  5
349
100
AcDbEntity
  8
4
370
    50
100
AcDbText
 10
-276.291239
 20
-81.661758
 30
0.0
 40
7.0
  1
（やけど注意表示）
 72
     5
 11
-214.691239
 21
-81.661758
 31
0.0
100
AcDbText
  0
LWPOLYLINE
  5
34A
100
AcDbEntity
  8
4
370
    25
100
AcDbPolyline
 90
        2
 70
     0
 10
-200.861582
 20
-92.662523
 10
-220.033274
 20
-83.861892
  0
LINE
  5
34E
100
AcDbEntity
  8
4
370
    50
100
AcDbLine
 10
-141.310961
 20
-99.909919
 30
0.0
 11
-138.948385
 21
-99.909919
 31
0.0
  0
LINE
  5
34F
100
AcDbEntity
  8
4
370
    50
100
AcDbLine
 10
-141.310961
 20
-99.279942
 30
0.0
 11
-138.510871
 21
-99.673469
 31
0.0
  0
LINE
  5
350
100
AcDbEntity
  8
4
370
    50
100
AcDbLine
 10
-138.887495
 20
-98.73691
 30
0.0
 11
-141.310961
 21
-98.396314
 31
0.0
  0
LINE
  5
351
100
AcDbEntity
  8
4
370
    50
100
AcDbLine
 10
-141.310961
 20
-98.159863
 30
0.0
 11
-138.510871
 21
-98.159863
 31
0.0
  0
ARC
  5
352
100
AcDbEntity
  8
4
370
    50
100
AcDbCircle
 10
-138.948385
 20
-97.722349
 30
0.0
 40
0.437514
100
AcDbArc
 50
0.0
 51
90.0
  0
ARC
  5
353
100
AcDbEntity
  8
4
370
    50
100
AcDbCircle
 10
-138.948385
 20
-99.170166
 30
0.0
 40
0.437514
100
AcDbArc
 50
360.0
 51
82.0
  0
ARC
  5
354
100
AcDbEntity
  8
4
370
    50
100
AcDbCircle
 10
-138.948385
 20
-100.347434
 30
0.0
 40
0.437514
100
AcDbArc
 50
0.0
 51
90.0
  0
LINE
  5
355
100
AcDbEntity
  8
4
370
    50
100
AcDbLine
 10
-137.635843
 20
-97.284835
 30
0.0
 11
-137.635843
 21
-98.159863
 31
0.0
  0
LINE
  5
356
100
AcDbEntity
  8
4
370
    50
100
AcDbLine
 10
-137.635843
 20
-98.159863
 30
0.0
 11
-136.410803
 21
-98.159863
 31
0.0
  0
LINE
  5
357
100
AcDbEntity
  8
4
370
    50
100
AcDbLine
 10
-135.535775
 20
-97.722349
 30
0.0
 11
-135.535775
 21
-98.859886
 31
0.0
  0
LINE
  5
358
100
AcDbEntity
  8
4
370
    50
100
AcDbLine
 10
-136.410803
 20
-98.159863
 30
0.0
 11
-136.410803
 21
-98.859886
 31
0.0
  0
LINE
  5
359
100
AcDbEntity
  8
4
370
    50
100
AcDbLine
 10
-138.073357
 20
-99.909919
 30
0.0
 11
-137.460837
 21
-99.909919
 31
0.0
  0
ARC
  5
35A
100
AcDbEntity
  8
4
370
    50
100
AcDbCircle
 10
-137.460837
 20
-98.859886
 30
0.0
 40
1.050034
100
AcDbArc
 50
270.0
 51
360.0
  0
ARC
  5
35B
100
AcDbEntity
  8
4
370
    50
100
AcDbCircle
 10
-134.217867
 20
-97.811459
 30
0.0
 40
2.100068
100
AcDbArc
 50
228.524141
 51
272.241513
  0
ARC
  5
35C
100
AcDbEntity
  8
4
370
    50
100
AcDbCircle
 10
-134.217867
 20
-97.811459
 30
0.0
 40
2.975096
100
AcDbArc
 50
232.173442
 51
271.582042
  0
LINE
  5
35D
100
AcDbEntity
  8
4
370
    50
100
AcDbLine
 10
-134.506532
 20
-98.68488
 30
0.0
 11
-133.496136
 21
-98.68488
 31
0.0
  0
LINE
  5
35E
100
AcDbEntity
  8
4
370
    50
100
AcDbLine
 10
-133.698215
 20
-97.284835
 30
0.0
 11
-134.506532
 21
-98.68488
 31
0.0
  0
LINE
  5
35F
100
AcDbEntity
  8
4
370
    50
100
AcDbLine
 10
-133.193018
 20
-98.159863
 30
0.0
 11
-133.496136
 21
-98.68488
 31
0.0
  0
LINE
  5
360
100
AcDbEntity
  8
4
370
    50
100
AcDbLine
 10
-133.193018
 20
-98.159863
 30
0.0
 11
-132.473176
 21
-98.159863
 31
0.0
  0
ARC
  5
361
100
AcDbEntity
  8
4
370
    50
100
AcDbCircle
 10
-132.035662
 20
-97.722349
 30
0.0
 40
0.437514
100
AcDbArc
 50
0.0
 51
90.0
  0
LINE
  5
362
100
AcDbEntity
  8
4
370
    50
100
AcDbLine
 10
-133.698215
 20
-99.909919
 30
0.0
 11
-133.52321
 21
-99.909919
 31
0.0
  0
ARC
  5
363
100
AcDbEntity
  8
4
370
    50
100
AcDbCircle
 10
-133.52321
 20
-98.859886
 30
0.0
 40
1.925062
100
AcDbArc
 50
270.0
 51
360.0
  0
LINE
  5
364
100
AcDbEntity
  8
4
370
    50
100
AcDbLine
 10
-132.998193
 20
-99.384903
 30
0.0
 11
-132.613854
 21
-99.384903
 31
0.0
  0
LINE
  5
365
100
AcDbEntity
  8
4
370
    50
100
AcDbLine
 10
-132.998193
 20
-98.509874
 30
0.0
 11
-132.473176
 21
-98.509874
 31
0.0
  0
LINE
  5
366
100
AcDbEntity
  8
4
370
    50
100
AcDbLine
 10
-132.998193
 20
-99.384903
 30
0.0
 11
-132.998193
 21
-98.509874
 31
0.0
  0
LINE
  5
367
100
AcDbEntity
  8
4
370
    50
100
AcDbLine
 10
-132.473176
 20
-98.159863
 30
0.0
 11
-132.473176
 21
-98.509874
 31
0.0
  0
ARC
  5
368
100
AcDbEntity
  8
4
370
    50
100
AcDbCircle
 10
-133.52321
 20
-98.859886
 30
0.0
 40
1.050034
100
AcDbArc
 50
270.0
 51
330.0
  0
LINE
  5
369
100
AcDbEntity
  8
4
370
    50
100
AcDbLine
 10
-131.160634
 20
-98.159863
 30
0.0
 11
-129.060566
 21
-98.159863
 31
0.0
  0
LINE
  5
36A
100
AcDbEntity
  8
4
370
    50
100
AcDbLine
 10
-131.160634
 20
-99.909919
 30
0.0
 11
-129.49808
 21
-99.909919
 31
0.0
  0
ARC
  5
36B
100
AcDbEntity
  8
4
370
    50
100
AcDbCircle
 10
-129.49808
 20
-97.722349
 30
0.0
 40
0.437514
100
AcDbArc
 50
0.0
 51
90.0
  0
ARC
  5
36C
100
AcDbEntity
  8
4
370
    50
100
AcDbCircle
 10
-129.49808
 20
-100.347434
 30
0.0
 40
0.437514
100
AcDbArc
 50
0.0
 51
90.0
  0
ARC
  5
36D
100
AcDbEntity
  8
4
370
    50
100
AcDbCircle
 10
-137.460837
 20
-98.859886
 30
0.0
 40
1.925062
100
AcDbArc
 50
270.0
 51
317.461176
  0
ARC
  5
36E
100
AcDbEntity
  8
4
370
    50
100
AcDbCircle
 10
-137.460837
 20
-98.859886
 30
0.0
 40
1.925062
100
AcDbArc
 50
344.17338
 51
360.0
  0
CIRCLE
  5
36F
100
AcDbEntity
  8
4
370
    50
100
AcDbCircle
 10
-134.748249
 20
-97.547343
 30
0.0
 40
0.262508
  0
CIRCLE
  5
370
100
AcDbEntity
  8
4
370
    50
100
AcDbCircle
 10
-135.273266
 20
-97.547343
 30
0.0
 40
0.262508
  0
LINE
  5
371
100
AcDbEntity
  8
4
370
    50
100
AcDbLine
 10
-138.073357
 20
-99.909919
 30
0.0
 11
-138.073357
 21
-100.784948
 31
0.0
  0
LINE
  5
372
100
AcDbEntity
  8
4
370
    50
100
AcDbLine
 10
-134.13573
 20
-99.909919
 30
0.0
 11
-134.13573
 21
-100.784948
 31
0.0
  0
LINE
  5
373
100
AcDbEntity
  8
4
370
    50
100
AcDbLine
 10
-133.698215
 20
-99.909919
 30
0.0
 11
-133.698215
 21
-100.784948
 31
0.0
  0
LINE
  5
374
100
AcDbEntity
  8
4
370
    50
100
AcDbLine
 10
-131.598148
 20
-97.722349
 30
0.0
 11
-131.598148
 21
-98.859886
 31
0.0
  0
LINE
  5
375
100
AcDbEntity
  8
4
370
    50
100
AcDbLine
 10
-141.310961
 20
-97.284835
 30
0.0
 11
-138.948385
 21
-97.284835
 31
0.0
  0
LINE
  5
376
100
AcDbEntity
  8
4
370
    50
100
AcDbLine
 10
-137.635843
 20
-97.284835
 30
0.0
 11
-135.973289
 21
-97.284835
 31
0.0
  0
LINE
  5
377
100
AcDbEntity
  8
4
370
    50
100
AcDbLine
 10
-133.698215
 20
-97.284835
 30
0.0
 11
-132.035662
 21
-97.284835
 31
0.0
  0
LINE
  5
378
100
AcDbEntity
  8
4
370
    50
100
AcDbLine
 10
-131.160634
 20
-97.284835
 30
0.0
 11
-129.49808
 21
-97.284835
 31
0.0
  0
LINE
  5
379
100
AcDbEntity
  8
4
370
    50
100
AcDbLine
 10
-131.160634
 20
-100.784948
 30
0.0
 11
-129.060566
 21
-100.784948
 31
0.0
  0
LINE
  5
37A
100
AcDbEntity
  8
4
370
    50
100
AcDbLine
 10
-133.698215
 20
-100.784948
 30
0.0
 11
-133.52321
 21
-100.784948
 31
0.0
  0
LINE
  5
37B
100
AcDbEntity
  8
4
370
    50
100
AcDbLine
 10
-141.310961
 20
-100.784948
 30
0.0
 11
-138.510871
 21
-100.784948
 31
0.0
  0
LINE
  5
37C
100
AcDbEntity
  8
4
370
    50
100
AcDbLine
 10
-138.510871
 20
-98.159863
 30
0.0
 11
-138.510871
 21
-97.722349
 31
0.0
  0
LINE
  5
37D
100
AcDbEntity
  8
4
370
    50
100
AcDbLine
 10
-138.510871
 20
-100.784948
 30
0.0
 11
-138.510871
 21
-100.347434
 31
0.0
  0
LINE
  5
37E
100
AcDbEntity
  8
4
370
    50
100
AcDbLine
 10
-138.510871
 20
-99.673469
 30
0.0
 11
-138.510871
 21
-99.170166
 31
0.0
  0
LINE
  5
37F
100
AcDbEntity
  8
4
370
    50
100
AcDbLine
 10
-141.310961
 20
-100.784948
 30
0.0
 11
-141.310961
 21
-99.909919
 31
0.0
  0
LINE
  5
380
100
AcDbEntity
  8
4
370
    50
100
AcDbLine
 10
-141.310961
 20
-99.279942
 30
0.0
 11
-141.310961
 21
-98.396314
 31
0.0
  0
LINE
  5
381
100
AcDbEntity
  8
4
370
    50
100
AcDbLine
 10
-141.310961
 20
-98.159863
 30
0.0
 11
-141.310961
 21
-97.284835
 31
0.0
  0
LINE
  5
382
100
AcDbEntity
  8
4
370
    50
100
AcDbLine
 10
-129.060566
 20
-98.159863
 30
0.0
 11
-129.060566
 21
-97.722349
 31
0.0
  0
LINE
  5
383
100
AcDbEntity
  8
4
370
    50
100
AcDbLine
 10
-131.160634
 20
-100.784948
 30
0.0
 11
-131.160634
 21
-99.909919
 31
0.0
  0
LINE
  5
384
100
AcDbEntity
  8
4
370
    50
100
AcDbLine
 10
-131.160634
 20
-98.159863
 30
0.0
 11
-131.160634
 21
-97.284835
 31
0.0
  0
LINE
  5
385
100
AcDbEntity
  8
4
370
    50
100
AcDbLine
 10
-138.073357
 20
-100.784948
 30
0.0
 11
-137.460837
 21
-100.784948
 31
0.0
  0
LINE
  5
386
100
AcDbEntity
  8
4
370
    50
100
AcDbLine
 10
-134.315636
 20
-100.784948
 30
0.0
 11
-134.13573
 21
-100.784948
 31
0.0
  0
ARC
  5
387
100
AcDbEntity
  8
4
370
    50
100
AcDbCircle
 10
-135.973289
 20
-97.722349
 30
0.0
 40
0.437514
100
AcDbArc
 50
0.0
 51
90.0
  0
POINT
  5
388
100
AcDbEntity
  8
4
370
    50
100
AcDbPoint
 10
-149.011086
 20
-99.034891
 30
0.0
  0
LINE
  5
389
100
AcDbEntity
  8
4
370
    50
100
AcDbLine
 10
-149.186091
 20
-99.822417
 30
0.0
 11
-149.186091
 21
-98.247366
 31
0.0
  0
LINE
  5
38A
100
AcDbEntity
  8
4
370
    50
100
AcDbLine
 10
-148.83608
 20
-98.247366
 30
0.0
 11
-148.83608
 21
-99.822417
 31
0.0
  0
LINE
  5
38B
100
AcDbEntity
  8
4
370
    50
100
AcDbLine
 10
-148.83608
 20
-98.247366
 30
0.0
 11
-149.186091
 21
-98.247366
 31
0.0
  0
LINE
  5
38C
100
AcDbEntity
  8
4
370
    50
100
AcDbLine
 10
-148.83608
 20
-99.822417
 30
0.0
 11
-149.186091
 21
-99.822417
 31
0.0
  0
LINE
  5
38D
100
AcDbEntity
  8
4
370
    50
100
AcDbLine
 10
-150.075316
 20
-100.099121
 30
0.0
 11
-150.248562
 21
-100.272368
 31
0.0
  0
LINE
  5
38E
100
AcDbEntity
  8
4
370
    50
100
AcDbLine
 10
-148.136057
 20
-98.247366
 30
0.0
 11
-147.926051
 21
-98.247366
 31
0.0
  0
LINE
  5
38F
100
AcDbEntity
  8
4
370
    50
100
AcDbLine
 10
-148.573571
 20
-99.822417
 30
0.0
 11
-148.293562
 21
-99.822417
 31
0.0
  0
LINE
  5
390
100
AcDbEntity
  8
4
370
    50
100
AcDbLine
 10
-148.573571
 20
-99.822417
 30
0.0
 11
-148.573571
 21
-99.542408
 31
0.0
  0
LINE
  5
391
100
AcDbEntity
  8
4
370
    50
100
AcDbLine
 10
-147.926051
 20
-98.527375
 30
0.0
 11
-147.926051
 21
-98.247366
 31
0.0
  0
LINE
  5
392
100
AcDbEntity
  8
4
370
    50
100
AcDbLine
 10
-148.083556
 20
-98.527375
 30
0.0
 11
-147.926051
 21
-98.527375
 31
0.0
  0
LINE
  5
393
100
AcDbEntity
  8
4
370
    50
100
AcDbLine
 10
-148.433981
 20
-99.005286
 30
0.0
 11
-148.214977
 21
-99.208923
 31
0.0
  0
ARC
  5
394
100
AcDbEntity
  8
4
370
    50
100
AcDbCircle
 10
-148.083556
 20
-98.702381
 30
0.0
 40
0.175006
100
AcDbArc
 50
90.0
 51
227.082289
  0
LINE
  5
395
100
AcDbEntity
  8
4
370
    50
100
AcDbLine
 10
-148.202725
 20
-98.830543
 30
0.0
 11
-147.983721
 21
-99.03418
 31
0.0
  0
ARC
  5
396
100
AcDbEntity
  8
4
370
    50
100
AcDbCircle
 10
-148.293562
 20
-99.367402
 30
0.0
 40
0.455015
100
AcDbArc
 50
270.0
 51
47.082289
  0
ARC
  5
397
100
AcDbEntity
  8
4
370
    50
100
AcDbCircle
 10
-148.346064
 20
-99.349901
 30
0.0
 40
0.192506
100
AcDbArc
 50
270.0
 51
47.082289
  0
ARC
  5
398
100
AcDbEntity
  8
4
370
    50
100
AcDbCircle
 10
-148.136057
 20
-98.68488
 30
0.0
 40
0.437514
100
AcDbArc
 50
90.0
 51
227.082289
  0
LINE
  5
399
100
AcDbEntity
  8
4
370
    50
100
AcDbLine
 10
-148.346064
 20
-99.542408
 30
0.0
 11
-148.573571
 21
-99.542408
 31
0.0
  0
LINE
  5
39A
100
AcDbEntity
  8
4
370
    50
100
AcDbLine
 10
-149.816112
 20
-99.199397
 30
0.0
 11
-149.816112
 21
-98.247366
 31
0.0
  0
LINE
  5
39B
100
AcDbEntity
  8
4
370
    50
100
AcDbLine
 10
-149.501101
 20
-99.199397
 30
0.0
 11
-149.501101
 21
-98.247366
 31
0.0
  0
LINE
  5
39C
100
AcDbEntity
  8
4
370
    50
100
AcDbLine
 10
-149.501101
 20
-98.247366
 30
0.0
 11
-149.816112
 21
-98.247366
 31
0.0
  0
ARC
  5
39D
100
AcDbEntity
  8
4
370
    50
100
AcDbCircle
 10
-150.124121
 20
-99.199397
 30
0.0
 40
0.62302
100
AcDbArc
 50
190.22669
 51
360.0
  0
ARC
  5
39E
100
AcDbEntity
  8
4
370
    50
100
AcDbCircle
 10
-150.159123
 20
-99.199397
 30
0.0
 40
0.343011
100
AcDbArc
 50
190.573586
 51
360.0
  0
ARC
  5
39F
100
AcDbEntity
  8
4
370
    50
100
AcDbCircle
 10
-149.011086
 20
-99.034891
 30
0.0
 40
1.505049
100
AcDbArc
 50
225.0
 51
188.720397
  0
ARC
  5
3A0
100
AcDbEntity
  8
4
370
    50
100
AcDbCircle
 10
-149.011086
 20
-99.034891
 30
0.0
 40
1.750056
100
AcDbArc
 50
225.0
 51
189.066832
  0
LINE
  5
3A1
100
AcDbEntity
  8
4
370
    50
100
AcDbLine
 10
-126.610425
 20
-100.784948
 30
0.0
 11
-126.610425
 21
-98.451539
 31
0.0
  0
LINE
  5
3A2
100
AcDbEntity
  8
4
370
    50
100
AcDbLine
 10
-128.01047
 20
-100.784948
 30
0.0
 11
-128.01047
 21
-98.451539
 31
0.0
  0
LINE
  5
3A3
100
AcDbEntity
  8
4
370
    50
100
AcDbLine
 10
-128.360481
 20
-100.784948
 30
0.0
 11
-127.660458
 21
-100.784948
 31
0.0
  0
LINE
  5
3A4
100
AcDbEntity
  8
4
370
    50
100
AcDbLine
 10
-126.960436
 20
-100.784948
 30
0.0
 11
-126.260413
 21
-100.784948
 31
0.0
  0
LINE
  5
3A5
100
AcDbEntity
  8
4
370
    50
100
AcDbLine
 10
-150.498736
 20
-99.263076
 30
0.0
 11
-150.496309
 21
-99.262338
 31
0.0
  0
HATCH
  5
3A6
100
AcDbEntity
  8
4
370
    25
100
AcDbHatch
 10
0.0
 20
0.0
 30
0.0
210
0.0
220
0.0
230
1.0
  2
_U
 70
     0
 71
     1
 91
        1
 92
        1
 93
        4
 72
     1
 10
-148.83608000000001
 20
-98.247366
 11
-148.83608000000001
 21
-99.822417000000002
 72
     1
 10
-148.83608000000001
 20
-99.822417000000002
 11
-149.186091
 21
-99.822417000000002
 72
     1
 10
-149.186091
 20
-99.822417000000002
 11
-149.186091
 21
-98.247366
 72
     1
 10
-149.186091
 20
-98.247366
 11
-148.83608000000001
 21
-98.247366
 97
        4
330
0
330
0
330
0
330
0
 75
     0
 76
     0
 52
45.0
 41
1.0
 77
     0
 78
     1
 53
45.0
 43
0.0
 44
0.0
 45
-0.282843
 46
0.282843
 79
     0
 98
        1
 10
0.0
 20
0.0
  0
LINE
  5
3A7
100
AcDbEntity
  8
4
370
    25
100
AcDbLine
 10
-148.127103
 20
-99.790875
 30
0.0
 11
-147.870089
 21
-99.533861
 31
0.0
  0
LINE
  5
3A8
100
AcDbEntity
  8
4
370
    25
100
AcDbLine
 10
-148.573571
 20
-99.671658
 30
0.0
 11
-148.444321
 21
-99.542408
 31
0.0
  0
LINE
  5
3A9
100
AcDbEntity
  8
4
370
    25
100
AcDbLine
 10
-148.171234
 20
-99.269321
 30
0.0
 11
-147.959923
 21
-99.05801
 31
0.0
  0
LINE
  5
3AA
100
AcDbEntity
  8
4
370
    25
100
AcDbLine
 10
-147.926051
 20
-98.458452
 30
0.0
 11
-147.994973
 21
-98.527375
 31
0.0
  0
LINE
  5
3AB
100
AcDbEntity
  8
4
370
    25
100
AcDbLine
 10
-148.242725
 20
-98.775127
 30
0.0
 11
-148.453528
 21
-98.98593
 31
0.0
  0
LINE
  5
3AC
100
AcDbEntity
  8
4
370
    25
100
AcDbLine
 10
-148.531978
 20
-98.498695
 30
0.0
 11
-148.322243
 21
-98.288959
 31
0.0
  0
LINE
  5
3AD
100
AcDbEntity
  8
4
370
    25
100
AcDbLine
 10
-149.806504
 20
-100.593739
 30
0.0
 11
-149.62394
 21
-100.411176
 31
0.0
  0
LINE
  5
3AE
100
AcDbEntity
  8
4
370
    25
100
AcDbLine
 10
-147.634809
 20
-98.422045
 30
0.0
 11
-147.452237
 21
-98.239473
 31
0.0
  0
LINE
  5
3AF
100
AcDbEntity
  8
4
370
    25
100
AcDbLine
 10
-149.390421
 20
-100.743342
 30
0.0
 11
-149.180155
 21
-100.533076
 31
0.0
  0
LINE
  5
3B0
100
AcDbEntity
  8
4
370
    25
100
AcDbLine
 10
-147.51291
 20
-98.86583
 30
0.0
 11
-147.302635
 21
-98.655556
 31
0.0
  0
LINE
  5
3B1
100
AcDbEntity
  8
4
370
    25
100
AcDbLine
 10
-148.859789
 20
-100.778396
 30
0.0
 11
-148.554294
 21
-100.4729
 31
0.0
  0
LINE
  5
3B2
100
AcDbEntity
  8
4
370
    25
100
AcDbLine
 10
-147.573085
 20
-99.491691
 30
0.0
 11
-147.267581
 21
-99.186188
 31
0.0
  0
LINE
  5
3B3
100
AcDbEntity
  8
4
370
    25
100
AcDbLine
 10
-147.91445
 20
-100.398742
 30
0.0
 11
-147.647235
 21
-100.131527
 31
0.0
  0
LINE
  5
3B4
100
AcDbEntity
  8
4
370
    25
100
AcDbLine
 10
-150.145734
 20
-100.367284
 30
0.0
 11
-149.97212
 21
-100.193671
 31
0.0
  0
LINE
  5
3B5
100
AcDbEntity
  8
4
370
    25
100
AcDbLine
 10
-147.852315
 20
-98.073865
 30
0.0
 11
-147.678693
 21
-97.900243
 31
0.0
  0
LINE
  5
3B6
100
AcDbEntity
  8
4
370
    25
100
AcDbLine
 10
-150.177735
 20
-99.8336
 30
0.0
 11
-149.501101
 21
-99.156966
 31
0.0
  0
LINE
  5
3B7
100
AcDbEntity
  8
4
370
    25
100
AcDbLine
 10
-148.147383
 20
-97.803248
 30
0.0
 11
-147.971331
 21
-97.627195
 31
0.0
  0
LINE
  5
3B8
100
AcDbEntity
  8
4
370
    25
100
AcDbLine
 10
-150.563891
 20
-99.65407
 30
0.0
 11
-150.375428
 21
-99.465608
 31
0.0
  0
LINE
  5
3B9
100
AcDbEntity
  8
4
370
    25
100
AcDbLine
 10
-149.816112
 20
-98.906291
 30
0.0
 11
-149.501101
 21
-98.591281
 31
0.0
  0
LINE
  5
3BA
100
AcDbEntity
  8
4
370
    25
100
AcDbLine
 10
-148.522989
 20
-97.613168
 30
0.0
 11
-148.331847
 21
-97.422026
 31
0.0
  0
LINE
  5
3BB
100
AcDbEntity
  8
4
370
    25
100
AcDbLine
 10
-150.745305
 20
-99.269799
 30
0.0
 11
-150.513139
 21
-99.037633
 31
0.0
  0
LINE
  5
3BC
100
AcDbEntity
  8
4
370
    25
100
AcDbLine
 10
-149.816112
 20
-98.340605
 30
0.0
 11
-149.722872
 21
-98.247366
 31
0.0
  0
LINE
  5
3BD
100
AcDbEntity
  8
4
370
    25
100
AcDbLine
 10
-149.008353
 20
-97.532847
 30
0.0
 11
-148.776178
 21
-97.300672
 31
0.0
  0
LINE
  5
3BE
100
AcDbEntity
  8
4
370
    25
100
AcDbLine
 10
-150.72571
 20
-98.684518
 30
0.0
 11
-150.289208
 21
-98.248016
 31
0.0
  0
LINE
  5
3BF
100
AcDbEntity
  8
4
370
    25
100
AcDbLine
 10
-149.797969
 20
-97.756777
 30
0.0
 11
-149.361459
 21
-97.320267
 31
0.0
  0
LINE
  5
3C0
100
AcDbEntity
  8
4
370
    50
100
AcDbLine
 10
-129.060566
 20
-100.347434
 30
0.0
 11
-129.060566
 21
-100.784948
 31
0.0
  0
LINE
  5
3C1
100
AcDbEntity
  8
4
370
    50
100
AcDbLine
 10
-145.160961
 20
-98.451539
 30
0.0
 11
-145.860984
 21
-98.451539
 31
0.0
  0
LINE
  5
3C2
100
AcDbEntity
  8
4
370
    50
100
AcDbLine
 10
-126.610425
 20
-98.451539
 30
0.0
 11
-127.310447
 21
-99.664014
 31
0.0
  0
LINE
  5
3C3
100
AcDbEntity
  8
4
370
    50
100
AcDbLine
 10
-128.01047
 20
-98.451539
 30
0.0
 11
-127.310447
 21
-99.664014
 31
0.0
  0
LINE
  5
3C4
100
AcDbEntity
  8
4
370
    50
100
AcDbLine
 10
-145.510973
 20
-98.451539
 30
0.0
 11
-145.510973
 21
-100.084925
 31
0.0
  0
LINE
  5
3C5
100
AcDbEntity
  8
4
370
    50
100
AcDbLine
 10
-142.710882
 20
-98.451539
 30
0.0
 11
-142.01086
 21
-98.451539
 31
0.0
  0
LINE
  5
3C6
100
AcDbEntity
  8
4
370
    50
100
AcDbLine
 10
-144.110927
 20
-98.451539
 30
0.0
 11
-144.81095
 21
-98.451539
 31
0.0
  0
LINE
  5
3C7
100
AcDbEntity
  8
4
370
    50
100
AcDbLine
 10
-144.460939
 20
-98.451539
 30
0.0
 11
-144.049496
 21
-100.784948
 31
0.0
  0
LINE
  5
3C8
100
AcDbEntity
  8
4
370
    50
100
AcDbLine
 10
-144.049496
 20
-100.784948
 30
0.0
 11
-143.410905
 21
-99.030433
 31
0.0
  0
LINE
  5
3C9
100
AcDbEntity
  8
4
370
    50
100
AcDbLine
 10
-142.772314
 20
-100.784948
 30
0.0
 11
-143.410905
 21
-99.030433
 31
0.0
  0
LINE
  5
3CA
100
AcDbEntity
  8
4
370
    50
100
AcDbLine
 10
-142.360871
 20
-98.451539
 30
0.0
 11
-142.772314
 21
-100.784948
 31
0.0
  0
ARC
  5
3CB
100
AcDbEntity
  8
4
370
    50
100
AcDbCircle
 10
-146.210995
 20
-100.084925
 30
0.0
 40
0.700023
100
AcDbArc
 50
180.0
 51
360.0
  0
LINE
  5
3CC
100
AcDbEntity
  8
4
370
    50
100
AcDbLine
 10
-150.761142
 20
-96.284802
 30
0.0
 11
-126.760367
 21
-96.284802
 31
0.0
  0
LINE
  5
3CD
100
AcDbEntity
  8
4
370
    50
100
AcDbLine
 10
-150.761142
 20
-101.78498
 30
0.0
 11
-126.760367
 21
-101.78498
 31
0.0
  0
POINT
  5
3CE
100
AcDbEntity
  8
4
370
    50
100
AcDbPoint
 10
-149.011086
 20
-99.034891
 30
0.0
  0
LINE
  5
3CF
100
AcDbEntity
  8
4
370
    50
100
AcDbLine
 10
-151.761174
 20
-100.784948
 30
0.0
 11
-151.761174
 21
-97.284835
 31
0.0
  0
LINE
  5
3D0
100
AcDbEntity
  8
4
370
    50
100
AcDbLine
 10
-125.760335
 20
-100.784948
 30
0.0
 11
-125.760335
 21
-97.284835
 31
0.0
  0
HATCH
  5
3D1
100
AcDbEntity
  8
4
370
    25
100
AcDbHatch
 10
0.0
 20
0.0
 30
0.0
210
0.0
220
0.0
230
1.0
  2
_U
 70
     0
 71
     1
 91
        1
 92
        1
 93
        5
 72
     1
 10
-138.51087100000001
 20
-98.159863000000001
 11
-138.51087100000001
 21
-97.722348999999994
 72
     2
 10
-138.948385
 20
-97.722348999999994
 40
0.437514
 50
0.0
 51
90.0
 73
     1
 72
     1
 10
-138.948385
 20
-97.284835000000001
 11
-141.31096099999999
 21
-97.284835000000001
 72
     1
 10
-141.31096099999999
 20
-97.284835000000001
 11
-141.31096099999999
 21
-98.159863000000001
 72
     1
 10
-141.31096099999999
 20
-98.159863000000001
 11
-138.51087100000001
 21
-98.159863000000001
 97
        5
330
0
330
0
330
0
330
0
330
0
 75
     0
 76
     0
 52
45.0
 41
1.0
 77
     0
 78
     1
 53
45.0
 43
0.0
 44
0.0
 45
-0.282843
 46
0.282843
 79
     0
 98
        1
 10
0.0
 20
0.0
  0
HATCH
  5
3D2
100
AcDbEntity
  8
4
370
    25
100
AcDbHatch
 10
0.0
 20
0.0
 30
0.0
210
0.0
220
0.0
230
1.0
  2
_U
 70
     0
 71
     1
 91
        1
 92
        1
 93
        5
 72
     2
 10
-138.948385
 20
-99.170165999999995
 40
0.437514
 50
0.0
 51
82.0
 73
     1
 72
     1
 10
-138.887495
 20
-98.736909999999995
 11
-141.31096099999999
 21
-98.396314000000004
 72
     1
 10
-141.31096099999999
 20
-98.396314000000004
 11
-141.31096099999999
 21
-99.279942000000005
 72
     1
 10
-141.31096099999999
 20
-99.279942000000005
 11
-138.51087100000001
 21
-99.673468999999997
 72
     1
 10
-138.51087100000001
 20
-99.673468999999997
 11
-138.51087100000001
 21
-99.170165999999995
 97
        5
330
0
330
0
330
0
330
0
330
0
 75
     0
 76
     0
 52
45.0
 41
1.0
 77
     0
 78
     1
 53
45.0
 43
0.0
 44
0.0
 45
-0.282843
 46
0.282843
 79
     0
 98
        1
 10
0.0
 20
0.0
  0
HATCH
  5
3D3
100
AcDbEntity
  8
4
370
    25
100
AcDbHatch
 10
0.0
 20
0.0
 30
0.0
210
0.0
220
0.0
230
1.0
  2
_U
 70
     0
 71
     1
 91
        1
 92
        1
 93
        5
 72
     2
 10
-138.948385
 20
-100.34743400000001
 40
0.437514
 50
0.0
 51
90.0
 73
     1
 72
     1
 10
-138.948385
 20
-99.909919000000002
 11
-141.31096099999999
 21
-99.909919000000002
 72
     1
 10
-141.31096099999999
 20
-99.909919000000002
 11
-141.31096099999999
 21
-100.784948
 72
     1
 10
-141.31096099999999
 20
-100.784948
 11
-138.51087100000001
 21
-100.784948
 72
     1
 10
-138.51087100000001
 20
-100.784948
 11
-138.51087100000001
 21
-100.34743400000001
 97
        5
330
0
330
0
330
0
330
0
330
0
 75
     0
 76
     0
 52
45.0
 41
1.0
 77
     0
 78
     1
 53
45.0
 43
0.0
 44
0.0
 45
-0.282843
 46
0.282843
 79
     0
 98
        1
 10
0.0
 20
0.0
  0
LINE
  5
3D4
100
AcDbEntity
  8
4
370
    25
100
AcDbLine
 10
-136.410803
 20
-98.159863
 30
0.0
 11
-135.66392
 21
-97.41298
 31
0.0
  0
LINE
  5
3D5
100
AcDbEntity
  8
4
370
    25
100
AcDbLine
 10
-138.073357
 20
-100.388102
 30
0.0
 11
-137.595174
 21
-99.909919
 31
0.0
  0
LINE
  5
3D6
100
AcDbEntity
  8
4
370
    25
100
AcDbLine
 10
-136.410803
 20
-98.725548
 30
0.0
 11
-135.535775
 21
-97.85052
 31
0.0
  0
LINE
  5
3D7
100
AcDbEntity
  8
4
370
    25
100
AcDbLine
 10
-137.904517
 20
-100.784948
 30
0.0
 11
-136.771744
 21
-99.652174
 31
0.0
  0
LINE
  5
3D8
100
AcDbEntity
  8
4
370
    25
100
AcDbLine
 10
-136.668548
 20
-99.548979
 30
0.0
 11
-135.535775
 21
-98.416206
 31
0.0
  0
LINE
  5
3D9
100
AcDbEntity
  8
4
370
    25
100
AcDbLine
 10
-137.334694
 20
-100.78081
 30
0.0
 11
-135.539912
 21
-98.986028
 31
0.0
  0
LINE
  5
3DA
100
AcDbEntity
  8
4
370
    25
100
AcDbLine
 10
-136.536969
 20
-100.54877
 30
0.0
 11
-135.478938
 21
-99.49074
 31
0.0
  0
LINE
  5
3DB
100
AcDbEntity
  8
4
370
    25
100
AcDbLine
 10
-135.771241
 20
-100.348728
 30
0.0
 11
-135.127037
 21
-99.704524
 31
0.0
  0
LINE
  5
3DC
100
AcDbEntity
  8
4
370
    25
100
AcDbLine
 10
-135.398772
 20
-100.541945
 30
0.0
 11
-134.7099
 21
-99.853073
 31
0.0
  0
LINE
  5
3DD
100
AcDbEntity
  8
4
370
    25
100
AcDbLine
 10
-134.978514
 20
-100.687372
 30
0.0
 11
-134.202613
 21
-99.911471
 31
0.0
  0
LINE
  5
3DE
100
AcDbEntity
  8
4
370
    25
100
AcDbLine
 10
-134.498359
 20
-100.772902
 30
0.0
 11
-134.13573
 21
-100.410273
 31
0.0
  0
LINE
  5
3DF
100
AcDbEntity
  8
4
370
    25
100
AcDbLine
 10
-136.10146
 20
-97.284835
 30
0.0
 11
-136.976488
 21
-98.159863
 31
0.0
  0
LINE
  5
3E0
100
AcDbEntity
  8
4
370
    25
100
AcDbLine
 10
-136.667146
 20
-97.284835
 30
0.0
 11
-137.542174
 21
-98.159863
 31
0.0
  0
LINE
  5
3E1
100
AcDbEntity
  8
4
370
    25
100
AcDbLine
 10
-137.232831
 20
-97.284835
 30
0.0
 11
-137.635843
 21
-97.687846
 31
0.0
  0
HATCH
  5
3E2
100
AcDbEntity
  8
4
370
    25
100
AcDbHatch
 10
0.0
 20
0.0
 30
0.0
210
0.0
220
0.0
230
1.0
  2
_U
 70
     0
 71
     1
 91
        1
 92
        1
 93
        1
 72
     2
 10
-135.27326600000001
 20
-97.547342999999998
 40
0.262508
 50
0.0
 51
360.0
 73
     1
 97
        1
330
0
 75
     0
 76
     0
 52
45.0
 41
1.0
 77
     0
 78
     1
 53
45.0
 43
0.0
 44
0.0
 45
-0.282843
 46
0.282843
 79
     0
 98
        1
 10
0.0
 20
0.0
  0
HATCH
  5
3E3
100
AcDbEntity
  8
4
370
    25
100
AcDbHatch
 10
0.0
 20
0.0
 30
0.0
210
0.0
220
0.0
230
1.0
  2
_U
 70
     0
 71
     1
 91
        1
 92
        1
 93
        1
 72
     2
 10
-134.74824899999999
 20
-97.547342999999998
 40
0.262508
 50
0.0
 51
360.0
 73
     1
 97
        1
330
0
 75
     0
 76
     0
 52
45.0
 41
1.0
 77
     0
 78
     1
 53
45.0
 43
0.0
 44
0.0
 45
-0.282843
 46
0.282843
 79
     0
 98
        1
 10
0.0
 20
0.0
  0
LINE
  5
3E4
100
AcDbEntity
  8
4
370
    25
100
AcDbLine
 10
-129.935594
 20
-98.159863
 30
0.0
 11
-129.188711
 21
-97.41298
 31
0.0
  0
LINE
  5
3E5
100
AcDbEntity
  8
4
370
    25
100
AcDbLine
 10
-129.369909
 20
-98.159863
 30
0.0
 11
-129.060566
 21
-97.85052
 31
0.0
  0
LINE
  5
3E6
100
AcDbEntity
  8
4
370
    25
100
AcDbLine
 10
-129.626251
 20
-97.284835
 30
0.0
 11
-130.501279
 21
-98.159863
 31
0.0
  0
LINE
  5
3E7
100
AcDbEntity
  8
4
370
    25
100
AcDbLine
 10
-130.191937
 20
-97.284835
 30
0.0
 11
-131.066965
 21
-98.159863
 31
0.0
  0
LINE
  5
3E8
100
AcDbEntity
  8
4
370
    25
100
AcDbLine
 10
-130.757622
 20
-97.284835
 30
0.0
 11
-131.160634
 21
-97.687846
 31
0.0
  0
HATCH
  5
3E9
100
AcDbEntity
  8
4
370
    25
100
AcDbHatch
 10
0.0
 20
0.0
 30
0.0
210
0.0
220
0.0
230
1.0
  2
_U
 70
     0
 71
     1
 91
        1
 92
        1
 93
        5
 72
     2
 10
-129.49807999999999
 20
-100.34743400000001
 40
0.437514
 50
0.0
 51
90.0
 73
     1
 72
     1
 10
-129.49807999999999
 20
-99.909919000000002
 11
-131.16063399999999
 21
-99.909919000000002
 72
     1
 10
-131.16063399999999
 20
-99.909919000000002
 11
-131.16063399999999
 21
-100.784948
 72
     1
 10
-131.16063399999999
 20
-100.784948
 11
-129.06056599999999
 21
-100.784948
 72
     1
 10
-129.06056599999999
 20
-100.784948
 11
-129.06056599999999
 21
-100.34743400000001
 97
        5
330
0
330
0
330
0
330
0
330
0
 75
     0
 76
     0
 52
45.0
 41
1.0
 77
     0
 78
     1
 53
45.0
 43
0.0
 44
0.0
 45
-0.282843
 46
0.282843
 79
     0
 98
        1
 10
0.0
 20
0.0
  0
LINE
  5
3EA
100
AcDbEntity
  8
4
370
    25
100
AcDbLine
 10
-132.998193
 20
-98.68488
 30
0.0
 11
-132.823187
 21
-98.509874
 31
0.0
  0
LINE
  5
3EB
100
AcDbEntity
  8
4
370
    25
100
AcDbLine
 10
-132.473176
 20
-98.159863
 30
0.0
 11
-131.726293
 21
-97.41298
 31
0.0
  0
LINE
  5
3EC
100
AcDbEntity
  8
4
370
    25
100
AcDbLine
 10
-133.698215
 20
-99.950588
 30
0.0
 11
-133.657547
 21
-99.909919
 31
0.0
  0
LINE
  5
3ED
100
AcDbEntity
  8
4
370
    25
100
AcDbLine
 10
-132.998193
 20
-99.250565
 30
0.0
 11
-131.598148
 21
-97.85052
 31
0.0
  0
LINE
  5
3EE
100
AcDbEntity
  8
4
370
    25
100
AcDbLine
 10
-133.698215
 20
-100.516273
 30
0.0
 11
-132.834116
 21
-99.652174
 31
0.0
  0
LINE
  5
3EF
100
AcDbEntity
  8
4
370
    25
100
AcDbLine
 10
-132.730921
 20
-99.548979
 30
0.0
 11
-131.598148
 21
-98.416206
 31
0.0
  0
LINE
  5
3F0
100
AcDbEntity
  8
4
370
    25
100
AcDbLine
 10
-133.397067
 20
-100.78081
 30
0.0
 11
-131.602285
 21
-98.986028
 31
0.0
  0
LINE
  5
3F1
100
AcDbEntity
  8
4
370
    25
100
AcDbLine
 10
-132.599342
 20
-100.54877
 30
0.0
 11
-131.834325
 21
-99.783754
 31
0.0
  0
LINE
  5
3F2
100
AcDbEntity
  8
4
370
    25
100
AcDbLine
 10
-133.563878
 20
-98.68488
 30
0.0
 11
-133.403599
 21
-98.524601
 31
0.0
  0
LINE
  5
3F3
100
AcDbEntity
  8
4
370
    25
100
AcDbLine
 10
-133.038861
 20
-98.159863
 30
0.0
 11
-132.163833
 21
-97.284835
 31
0.0
  0
LINE
  5
3F4
100
AcDbEntity
  8
4
370
    25
100
AcDbLine
 10
-134.129564
 20
-98.68488
 30
0.0
 11
-132.729519
 21
-97.284835
 31
0.0
  0
LINE
  5
3F5
100
AcDbEntity
  8
4
370
    25
100
AcDbLine
 10
-134.248739
 20
-98.23837
 30
0.0
 11
-133.295204
 21
-97.284835
 31
0.0
  0
ARC
  5
3F6
100
AcDbEntity
  8
4
370
    50
100
AcDbCircle
 10
-150.761142
 20
-97.284835
 30
0.0
 40
1.000032
100
AcDbArc
 50
90.0
 51
180.0
  0
ARC
  5
3F7
100
AcDbEntity
  8
4
370
    50
100
AcDbCircle
 10
-150.761142
 20
-100.784948
 30
0.0
 40
1.000032
100
AcDbArc
 50
180.0
 51
270.0
  0
ARC
  5
3F8
100
AcDbEntity
  8
4
370
    50
100
AcDbCircle
 10
-126.760367
 20
-97.284835
 30
0.0
 40
1.000032
100
AcDbArc
 50
0.0
 51
90.0
  0
ARC
  5
3F9
100
AcDbEntity
  8
4
370
    50
100
AcDbCircle
 10
-126.760367
 20
-100.784948
 30
0.0
 40
1.000032
100
AcDbArc
 50
270.0
 51
360.0
  0
TEXT
  5
3FA
100
AcDbEntity
  8
4
370
    50
100
AcDbText
 10
-159.500257
 20
-146.53923
 30
0.0
 40
7.0
  1
（商標表示）
 72
     5
 11
-118.900257
 21
-146.53923
 31
0.0
100
AcDbText
  0
LWPOLYLINE
  5
3FB
100
AcDbEntity
  8
4
370
    25
100
AcDbPolyline
 90
        2
 70
     0
 10
-148.027588
 20
-103.193596
 10
-151.462967
 20
-126.509285
  0
LINE
  5
3FF
100
AcDbEntity
  8
4
370
    25
100
AcDbLine
 10
-148.590793
 20
-107.01603
 30
0.0
 11
-147.566575
 21
-107.16694
 31
0.0
  0
LINE
  5
400
100
AcDbEntity
  8
4
370
    25
100
AcDbLine
 10
-147.566575
 20
-107.16694
 30
0.0
 11
-148.027588
 21
-103.193596
 31
0.0
  0
LINE
  5
401
100
AcDbEntity
  8
4
370
    25
100
AcDbLine
 10
-148.027588
 20
-103.193596
 30
0.0
 11
-149.615011
 21
-106.86512
 31
0.0
  0
LINE
  5
402
100
AcDbEntity
  8
4
370
    25
100
AcDbLine
 10
-149.615011
 20
-106.86512
 30
0.0
 11
-148.590793
 21
-107.01603
 31
0.0
  0
TEXT
  5
403
100
AcDbEntity
  8
4
370
    50
100
AcDbText
 10
357.937744
 20
-239.953781
 30
0.0
 40
7.0
  1
小野
 72
     5
 11
370.537744
 21
-239.953781
 31
0.0
100
AcDbText
  0
TEXT
  5
404
100
AcDbEntity
  8
4
370
    50
100
AcDbText
 10
378.084167
 20
-240.009201
 30
0.0
 40
7.0
  1
小野
 72
     5
 11
390.684167
 21
-240.009201
 31
0.0
100
AcDbText
  0
LINE
  5
405
100
AcDbEntity
  8
5
370
   100
100
AcDbLine
 10
161.482385
 20
218.028767
 30
0.0
 11
394.982385
 21
218.028767
 31
0.0
  0
LINE
  5
406
100
AcDbEntity
  8
5
370
    25
100
AcDbLine
 10
161.482385
 20
233.028767
 30
0.0
 11
394.982385
 21
233.028767
 31
0.0
  0
LINE
  5
407
100
AcDbEntity
  8
5
370
    25
100
AcDbLine
 10
161.482385
 20
248.028767
 30
0.0
 11
394.982385
 21
248.028767
 31
0.0
  0
LINE
  5
408
100
AcDbEntity
  8
5
370
    50
100
AcDbLine
 10
161.482385
 20
263.028767
 30
0.0
 11
394.982385
 21
263.028767
 31
0.0
  0
TEXT
  5
409
100
AcDbEntity
  8
5
370
    50
100
AcDbText
 10
165.052644
 20
265.950703
 30
0.0
 40
6.0
  1
記号
 72
     5
 11
175.852644
 21
265.950703
 31
0.0
100
AcDbText
  0
TEXT
  5
40A
100
AcDbEntity
  8
5
370
    50
100
AcDbText
 10
316.856729
 20
265.859212
 30
0.0
 40
6.0
  1
訂 正 記 事
 72
     5
 11
357.656729
 21
265.859212
 31
0.0
100
AcDbText
  0
TEXT
  5
40B
100
AcDbEntity
  8
5
370
    50
100
AcDbText
 10
380.887817
 20
265.835536
 30
0.0
 40
6.0
  1
印
 72
     5
 11
385.687817
 21
265.835536
 31
0.0
100
AcDbText
  0
LINE
  5
40C
100
AcDbEntity
  8
5
370
   100
100
AcDbLine
 10
161.482385
 20
218.028767
 30
0.0
 11
161.482385
 21
275.028767
 31
0.0
  0
LINE
  5
40D
100
AcDbEntity
  8
5
370
    25
100
AcDbLine
 10
180.482385
 20
218.028767
 30
0.0
 11
180.482385
 21
275.028767
 31
0.0
  0
LINE
  5
40E
100
AcDbEntity
  8
5
370
    25
100
AcDbLine
 10
372.982385
 20
218.028767
 30
0.0
 11
372.982385
 21
275.028767
 31
0.0
  0
LINE
  5
40F
100
AcDbEntity
  8
5
370
    25
100
AcDbLine
 10
302.982385
 20
218.028767
 30
0.0
 11
302.982385
 21
275.028767
 31
0.0
  0
LINE
  5
410
100
AcDbEntity
  8
5
370
    50
100
AcDbLine
 10
232.982385
 20
218.028767
 30
0.0
 11
232.982385
 21
275.028767
 31
0.0
  0
TEXT
  5
411
100
AcDbEntity
  8
5
370
    50
100
AcDbText
 10
246.91768
 20
265.924672
 30
0.0
 40
6.0
  1
変　更　理　由
 72
     5
 11
287.71768
 21
265.924672
 31
0.0
100
AcDbText
  0
TEXT
  5
412
100
AcDbEntity
  8
5
370
    50
100
AcDbText
 10
194.793748
 20
266.40334
 30
0.0
 40
6.0
  1
日　　付
 72
     5
 11
217.593748
 21
266.40334
 31
0.0
100
AcDbText
  0
TEXT
  5
413
100
AcDbEntity
  8
5
370
    50
100
AcDbText
 10
183.098131
 20
252.400355
 30
0.0
 40
6.0
  1
　　・　　・
 72
     5
 11
217.898131
 21
252.400355
 31
0.0
100
AcDbText
  0
TEXT
  5
414
100
AcDbEntity
  8
5
370
    50
100
AcDbText
 10
183.098131
 20
237.400355
 30
0.0
 40
6.0
  1
　　・　　・
 72
     5
 11
217.898131
 21
237.400355
 31
0.0
100
AcDbText
  0
TEXT
  5
415
100
AcDbEntity
  8
5
370
    50
100
AcDbText
 10
183.098131
 20
222.400355
 30
0.0
 40
6.0
  1
　　・　　・
 72
     5
 11
217.898131
 21
222.400355
 31
0.0
100
AcDbText
  0
TEXT
  5
416
100
AcDbEntity
  8
5
370
    50
100
AcDbText
 10
-153.948499
 20
-134.71933
 30
0.0
 40
4.0
  1
１
 72
     5
 11
-150.748499
 21
-134.71933
 31
0.0
100
AcDbText
  0
TEXT
  5
417
100
AcDbEntity
  8
5
370
    50
100
AcDbText
 10
-158.038297
 20
-137.018982
 30
0.0
 40
12.0
  1
△
 72
     5
 11
-148.438297
 21
-137.018982
 31
0.0
100
AcDbText
  0
TEXT
  5
418
100
AcDbEntity
  8
5
370
    50
100
AcDbText
 10
161.264465
 20
253.929321
 30
0.0
 40
12.0
  1
△
 72
     5
 11
170.864465
 21
253.929321
 31
0.0
100
AcDbText
  0
TEXT
  5
419
100
AcDbEntity
  8
5
370
    50
100
AcDbText
 10
165.354263
 20
256.228973
 30
0.0
 40
4.0
  1
１
 72
     5
 11
168.554263
 21
256.228973
 31
0.0
100
AcDbText
  0
TEXT
  5
41A
100
AcDbEntity
  8
5
370
    50
100
AcDbText
 10
183.758347
 20
255.973419
 30
0.0
 40
6.0
  1
０８　　６　２１
 72
     5
 11
230.558347
 21
255.973419
 31
0.0
100
AcDbText
  0
TEXT
  5
41B
100
AcDbEntity
  8
5
370
    50
100
AcDbText
 10
234.758347
 20
255.973419
 30
0.0
 40
6.0
  1
新ＪＩＳへの移行の為
 72
     5
 11
293.558347
 21
255.973419
 31
0.0
100
AcDbText
  0
TEXT
  5
41C
100
AcDbEntity
  8
5
370
    50
100
AcDbText
 10
304.758347
 20
255.973419
 30
0.0
 40
6.0
  1
ＪＩＳ刻印→新ＪＩＳミズタニシール
 41
0.65
 72
     5
 11
370.278347
 21
255.973419
 31
0.0
100
AcDbText
  0
ENDSEC
  0
SECTION
  2
OBJECTS
  0
DICTIONARY
  5
494
100
AcDbDictionary
280
     0
281
     1
  3
ACAD_GROUP
350
495
  3
ACAD_MLINESTYLE
350
496
  0
DICTIONARY
  5
495
102
{ACAD_REACTORS
330
494
102
}
100
AcDbDictionary
280
     0
281
     1
  0
DICTIONARY
  5
496
102
{ACAD_REACTORS
330
494
102
}
100
AcDbDictionary
280
     0
281
     1
  3
Standard
350
497
  0
MLINESTYLE
  5
497
102
{ACAD_REACTORS
330
496
102
}
100
AcDbMlineStyle
  2
Standard
 70
     0
  3

 62
     0
 51
90.0
 52
90.0
 71
     2
 49
0.5
 62
   256
  6
ByLayer
 49
-0.5
 62
   256
  6
ByLayer
  0
ENDSEC
  0
EOF
