  0
SECTION
  2
HEADER
  9
$ACADVER
  1
AC1015
  9
$ACADMAINTVER
 70
     6
  9
$DWGCODEPAGE
  3
ANSI_932
  9
$INSBASE
 10
0.0
 20
0.0
 30
0.0
  9
$EXTMIN
 10
-841.0
 20
-594.0
 30
1.000000E+20
  9
$EXTMAX
 10
841.0
 20
594.0
 30
-1.000000E+20
  9
$LIMMIN
 10
-841.0
 20
-594.0
  9
$LIMMAX
 10
841.0
 20
594.0
  9
$ORTHOMODE
 70
     0
  9
$REGENMODE
 70
     1
  9
$FILLMODE
 70
     1
  9
$QTEXTMODE
 70
     0
  9
$MIRRTEXT
 70
     1
  9
$LTSCALE
 40
1.0
  9
$ATTMODE
 70
     1
  9
$TEXTSIZE
 40
0.2
  9
$TRACEWID
 40
0.05
  9
$TEXTSTYLE
  7
STANDARD
  9
$CLAYER
  8
0
  9
$CELTYPE
  6
CONTINUOUS
  9
$CECOLOR
 62
   256
  9
$CELTSCALE
 40
1.0
  9
$DISPSILH
 70
     0
  9
$DIMSCALE
 40
2.0
  9
$DIMASZ
 40
2.0
  9
$DIMEXO
 40
1.0
  9
$DIMDLI
 40
0.38
  9
$DIMRND
 40
0.0
  9
$DIMDLE
 40
0.0
  9
$DIMEXE
 40
2.0
  9
$DIMTP
 40
0.0
  9
$DIMTM
 40
0.0
  9
$DIMTXT
 40
3.5
  9
$DIMCEN
 40
0.09
  9
$DIMTSZ
 40
0.0
  9
$DIMTOL
 70
     0
  9
$DIMLIM
 70
     0
  9
$DIMTIH
 70
     0
  9
$DIMTOH
 70
     0
  9
$DIMSE1
 70
     0
  9
$DIMSE2
 70
     0
  9
$DIMTAD
 70
     1
  9
$DIMZIN
 70
     0
  9
$DIMBLK
  1

  9
$DIMASO
 70
     1
  9
$DIMSHO
 70
     1
  9
$DIMPOST
  1

  9
$DIMAPOST
  1

  9
$DIMALT
 70
     0
  9
$DIMALTD
 70
     2
  9
$DIMALTF
 40
25.4
  9
$DIMLFAC
 40
1.0
  9
$DIMTOFL
 70
     0
  9
$DIMTVP
 40
0.0
  9
$DIMTIX
 70
     0
  9
$DIMSOXD
 70
     0
  9
$DIMSAH
 70
     0
  9
$DIMBLK1
  1

  9
$DIMBLK2
  1

  9
$DIMSTYLE
  2
Standard
  9
$DIMCLRD
 70
     0
  9
$DIMCLRE
 70
     0
  9
$DIMCLRT
 70
     0
  9
$DIMTFAC
 40
1.0
  9
$DIMGAP
 40
0.5
  9
$DIMJUST
 70
     0
  9
$DIMSD1
 70
     0
  9
$DIMSD2
 70
     0
  9
$DIMTOLJ
 70
     1
  9
$DIMTZIN
 70
     0
  9
$DIMALTZ
 70
     0
  9
$DIMALTTZ
 70
     0
  9
$DIMUPT
 70
     0
  9
$DIMDEC
 70
     3
  9
$DIMTDEC
 70
     4
  9
$DIMALTU
 70
     2
  9
$DIMALTTD
 70
     2
  9
$DIMTXSTY
  7
STANDARD
  9
$DIMAUNIT
 70
     0
  9
$DIMADEC
 70
     0
  9
$DIMALTRND
 40
0.0
  9
$DIMAZIN
 70
     0
  9
$DIMDSEP
 70
     0
  9
$DIMATFIT
 70
     3
  9
$DIMFRAC
 70
     0
  9
$DIMLDRBLK
  1

  9
$DIMLUNIT
 70
     2
  9
$DIMLWD
 70
     0
  9
$DIMLWE
 70
     0
  9
$DIMTMOVE
 70
     0
  9
$LUNITS
 70
     2
  9
$LUPREC
 70
     4
  9
$SKETCHINC
 40
0.1
  9
$FILLETRAD
 40
0.0
  9
$AUNITS
 70
     0
  9
$AUPREC
 70
     0
  9
$MENU
  1
acad
  9
$ELEVATION
 40
0.0
  9
$PELEVATION
 40
0.0
  9
$THICKNESS
 40
0.0
  9
$LIMCHECK
 70
     0
  9
$CHAMFERA
 40
0.0
  9
$CHAMFERB
 40
0.0
  9
$CHAMFERC
 40
0.0
  9
$CHAMFERD
 40
0.0
  9
$SKPOLY
 70
     0
  9
$TDCREATE
 40
2454540.000000000
  9
$TDUCREATE
 40
0.000000000
  9
$TDUPDATE
 40
0.000000000
  9
$TDUUPDATE
 40
2447892.625000000
  9
$TDINDWG
 40
0.0000000000
  9
$TDUSRTIMER
 40
0.0000000000
  9
$USRTIMER
 70
     1
  9
$ANGBASE
 50
0.0
  9
$ANGDIR
 70
     0
  9
$PDMODE
 70
     0
  9
$PDSIZE
 40
0.0
  9
$PLINEWID
 40
0.0
  9
$SPLFRAME
 70
     0
  9
$SPLINETYPE
 70
     6
  9
$SPLINESEGS
 70
     8
  9
$HANDSEED
  5
2FA
  9
$SURFTAB1
 70
     6
  9
$SURFTAB2
 70
     6
  9
$SURFTYPE
 70
     6
  9
$SURFU
 70
     6
  9
$SURFV
 70
     6
  9
$UCSBASE
  2

  9
$UCSNAME
  2

  9
$UCSORG
 10
0.0
 20
0.0
 30
0.0
  9
$UCSXDIR
 10
1.0
 20
0.0
 30
0.0
  9
$UCSYDIR
 10
0.0
 20
1.0
 30
0.0
  9
$UCSORTHOREF
  2

  9
$UCSORTHOVIEW
 70
     0
  9
$UCSORGTOP
 10
0.0
 20
0.0
 30
0.0
  9
$UCSORGBOTTOM
 10
0.0
 20
0.0
 30
0.0
  9
$UCSORGLEFT
 10
0.0
 20
0.0
 30
0.0
  9
$UCSORGRIGHT
 10
0.0
 20
0.0
 30
0.0
  9
$UCSORGFRONT
 10
0.0
 20
0.0
 30
0.0
  9
$UCSORGBACK
 10
0.0
 20
0.0
 30
0.0
  9
$PUCSBASE
  2

  9
$PUCSNAME
  2

  9
$PUCSORG
 10
0.0
 20
0.0
 30
0.0
  9
$PUCSXDIR
 10
1.0
 20
0.0
 30
0.0
  9
$PUCSYDIR
 10
0.0
 20
1.0
 30
0.0
  9
$PUCSORTHOREF
  2

  9
$PUCSORTHOVIEW
 70
     0
  9
$PUCSORGTOP
 10
0.0
 20
0.0
 30
0.0
  9
$PUCSORGBOTTOM
 10
0.0
 20
0.0
 30
0.0
  9
$PUCSORGLEFT
 10
0.0
 20
0.0
 30
0.0
  9
$PUCSORGRIGHT
 10
0.0
 20
0.0
 30
0.0
  9
$PUCSORGFRONT
 10
0.0
 20
0.0
 30
0.0
  9
$PUCSORGBACK
 10
0.0
 20
0.0
 30
0.0
  9
$USERI1
 70
     0
  9
$USERI2
 70
     0
  9
$USERI3
 70
     0
  9
$USERI4
 70
     0
  9
$USERI5
 70
     0
  9
$USERR1
 40
0.0
  9
$USERR2
 40
0.0
  9
$USERR3
 40
0.0
  9
$USERR4
 40
0.0
  9
$USERR5
 40
0.0
  9
$WORLDVIEW
 70
     1
  9
$SHADEDGE
 70
     3
  9
$SHADEDIF
 70
    70
  9
$TILEMODE
 70
     1
  9
$MAXACTVP
 70
    16
  9
$PINSBASE
 10
0.0
 20
0.0
 30
0.0
  9
$PLIMCHECK
 70
     0
  9
$PEXTMIN
 10
1.000000E+20
 20
1.000000E+20
 30
1.000000E+20
  9
$PEXTMAX
 10
-1.000000E+20
 20
-1.000000E+20
 30
-1.000000E+20
  9
$PLIMMIN
 10
0.0
 20
0.0
  9
$PLIMMAX
 10
12.0
 20
9.0
  9
$UNITMODE
 70
     0
  9
$VISRETAIN
 70
     0
  9
$PLINEGEN
 70
     1
  9
$PSLTSCALE
 70
     0
  9
$TREEDEPTH
 70
  3020
  9
$CMLSTYLE
  2
Standard
  9
$CMLJUST
 70
     0
  9
$CMLSCALE
 40
1.0
  9
$PROXYGRAPHICS
 70
     0
  9
$MEASUREMENT
 70
     0
  9
$CELWEIGHT
370
     0
  9
$ENDCAPS
280
     0
  9
$JOINSTYLE
280
     0
  9
$LWDISPLAY
290
     0
  9
$INSUNITS
 70
     0
  9
$HYPERLINKBASE
  1

  9
$STYLESHEET
  1

  9
$XEDIT
290
     1
  9
$CEPSNTYPE
380
     0
  9
$PSTYLEMODE
290
     1
  9
$FINGERPRINTGUID
  2

  9
$VERSIONGUID
  2

  9
$EXTNAMES
290
     1
  9
$PSVPSCALE
 40
0.0
  0
ENDSEC
  0
SECTION
  2
CLASSES
  0
CLASS
  1
LWPOLYLINE
  2
AcDbPolyline
  3
AutoCAD 2000
 90
        0
280
     0
281
     1
  0
CLASS
  1
IMAGE
  2
AcDbRasterImage
  3
ISM
 90
      127
280
     0
281
     1
  0
CLASS
  1
OLE2FRAME
  2
AcDbOle2Frame
  3
AutoCAD 2000
 90
        0
280
     0
281
     1
  0
CLASS
  1
HATCH
  2
AcDbHatch
  3
AutoCAD 2000
 90
        0
280
     0
281
     1
  0
CLASS
  1
DICTIONARYVAR
  2
AcDbDictionaryVar
  3
AutoCAD 2000
 90
        0
280
     0
281
     0
  0
CLASS
  1
RASTERVARIABLES
  2
AcDbRasterVariables
  3
ISM
 90
        0
280
     0
281
     0
  0
CLASS
  1
IMAGEDEF
  2
AcDbRasterImageDef
  3
ISM
 90
        0
280
     0
281
     0
  0
CLASS
  1
IMAGEDEF_REACTOR
  2
AcDbRasterImageDefReactor
  3
ISM
 90
        1
280
     0
281
     0
  0
CLASS
  1
IDBUFFER
  2
AcDbIdBuffer
  3
AutoCAD 2000
 90
        0
280
     0
281
     0
  0
CLASS
  1
SPATIAL_FILTER
  2
AcDbSpatialFilter
  3
AutoCAD 2000
 90
        0
280
     0
281
     0
  0
CLASS
  1
XRECORD
  2
AcDbXrecord
  3
AutoCAD 2000
 90
        0
280
     0
281
     0
  0
CLASS
  1
SORTENTSTABLE
  2
AcDbSortentsTable
  3
AutoCAD 2000
 90
        0
280
     0
281
     0
  0
CLASS
  1
LAYER_INDEX
  2
AcDbLayerIndex
  3
AutoCAD 2000
 90
        0
280
     0
281
     0
  0
CLASS
  1
SPATIAL_INDEX
  2
AcDbSpatialIndex
  3
AutoCAD 2000
 90
        0
280
     0
281
     0
  0
CLASS
  1
OBJECT_PTR
  2
CAseDLPNTableRecord
  3
"ASE-LPNTableRecord"
 90
        1
280
     0
281
     0
  0
CLASS
  1
LAYOUT
  2
AcDbLayout
  3
AutoCAD 2000
 90
        0
280
     0
281
     0
  0
CLASS
  1
PLOTSETTINGS
  2
AcDbPlotSettings
  3
AutoCAD 2000
 90
        0
280
     0
281
     0
  0
CLASS
  1
ACDBDICTIONARYWDFLT
  2
AcDbDictionaryWithDefault
  3
AutoCAD 2000
 90
        0
280
     0
281
     0
  0
CLASS
  1
ACDBPLACEHOLDER
  2
AcDbPlaceHolder
  3
AutoCAD 2000
 90
        0
280
     0
281
     0
  0
CLASS
  1
VBA_PROJECT
  2
AcDbVbaProject
  3
acadvba
 90
        0
280
     0
281
     0
  0
CLASS
  1
WIPEOUT
  2
AcDbWipeout
  3
WipeOut|AutoCAD Express Tool|expresstools@autodesk.com
 90
      127
280
     0
281
     1
  0
CLASS
  1
WIPEOUTVARIABLES
  2
AcDbWipeoutVariables
  3
WipeOut|AutoCAD Express Tool|expresstools@autodesk.com
 90
        0
280
     0
281
     0
  0
CLASS
  1
RTEXT
  2
RText
  3
RText|AutoCAD Express Tool|expresstools@autodesk.com
 90
        0
280
     0
281
     1
  0
CLASS
  1
ARCALIGNEDTEXT
  2
AcDbArcAlignedText
  3
ATEXT|AutoCAD Express Tool|expresstools@autodesk.com
 90
        0
280
     0
281
     1
  0
ENDSEC
  0
SECTION
  2
TABLES
  0
TABLE
  2
VPORT
  5
6
100
AcDbSymbolTable
 70
     1
  0
VPORT
  5
19
100
AcDbSymbolTableRecord
100
AcDbViewportTableRecord
  2
*ACTIVE
 70
     0
 10
0.0
 20
0.0
 11
1.0
 21
1.0
 12
0.0
 22
0.0
 13
0.0
 23
0.0
 14
1.0
 24
1.0
 15
0.0
 25
0.0
 16
0.0
 26
0.0
 36
1.0
 17
0.0
 27
0.0
 37
0.0
 40
1188.0
 41
1.415825
 42
50.0
 43
0.0
 44
0.0
 50
0.0
 51
0.0
 71
     0
 72
   500
 73
     1
 74
     1
 75
     0
 76
     0
 77
     0
 78
     0
281
     0
 65
     0
110
0.0
120
0.0
130
0.0
111
1.0
121
0.0
131
0.0
112
0.0
122
1.0
132
0.0
345
0
346
0
 79
     0
146
0.0
  0
ENDTAB
  0
TABLE
  2
LTYPE
  5
3
100
AcDbSymbolTable
 70
     9
  0
LTYPE
  5
C
100
AcDbSymbolTableRecord
100
AcDbLinetypeTableRecord
  2
ByBlock
 70
    64
  3

 72
    65
 73
     0
 40
0.0
  0
LTYPE
  5
D
100
AcDbSymbolTableRecord
100
AcDbLinetypeTableRecord
  2
ByLayer
 70
    64
  3

 72
    65
 73
     0
 40
0.0
  0
LTYPE
  5
E
100
AcDbSymbolTableRecord
100
AcDbLinetypeTableRecord
  2
CONTINUOUS
 70
     0
  3
Solid line
 72
    65
 73
     0
 40
0.0
  0
LTYPE
  5
F
100
AcDbSymbolTableRecord
100
AcDbLinetypeTableRecord
  2
DASHED
 70
     0
  3
__ __ __ __ __ __ __ __ __ __ __ __ __ __ __
 72
    65
 73
     2
 40
2.0
 49
1.2
 74
     0
 49
-0.8
 74
     0
  0
LTYPE
  5
10
100
AcDbSymbolTableRecord
100
AcDbLinetypeTableRecord
  2
CENTER
 70
     0
  3
____ _ ____ _ ____ _ ____ _ ____ _ ____ _ ____
 72
    65
 73
     4
 40
12.0
 49
9.0
 74
     0
 49
-1.0
 74
     0
 49
1.0
 74
     0
 49
-1.0
 74
     0
  0
LTYPE
  5
11
100
AcDbSymbolTableRecord
100
AcDbLinetypeTableRecord
  2
HIDDEN
 70
     0
  3
_ _ _ _ _ _ _ _ _ _ _ _ _ _ _ _ _ _ _ _ _ _ _
 72
    65
 73
     2
 40
3.2
 49
2.4
 74
     0
 49
-0.8
 74
     0
  0
LTYPE
  5
12
100
AcDbSymbolTableRecord
100
AcDbLinetypeTableRecord
  2
PHANTOM
 70
     0
  3
_____ _ _ _____ _ _ _____ _ _ _____ _ _ _____
 72
    65
 73
     6
 40
13.5
 49
9.0
 74
     0
 49
-1.0
 74
     0
 49
1.0
 74
     0
 49
-0.5
 74
     0
 49
1.0
 74
     0
 49
-1.0
 74
     0
  0
LTYPE
  5
13
100
AcDbSymbolTableRecord
100
AcDbLinetypeTableRecord
  2
DOT
 70
     0
  3
...............................................
 72
    65
 73
     2
 40
1.0
 49
0.5
 74
     0
 49
-0.5
 74
     0
  0
LTYPE
  5
14
100
AcDbSymbolTableRecord
100
AcDbLinetypeTableRecord
  2
DASHDOT
 70
     0
  3
__ . __ . __ . __ . __ . __ . __ . __ . __ . __
 72
    65
 73
     4
 40
8.0
 49
5.0
 74
     0
 49
-1.0
 74
     0
 49
1.0
 74
     0
 49
-1.0
 74
     0
  0
ENDTAB
  0
TABLE
  2
LAYER
  5
1
100
AcDbSymbolTable
 70
     4
  0
LAYER
  5
15
100
AcDbSymbolTableRecord
100
AcDbLayerTableRecord
  2
0
 70
     0
 62
   225
  6
CONTINUOUS
290
     1
370
    -3
390
0
  0
LAYER
  5
16
100
AcDbSymbolTableRecord
100
AcDbLayerTableRecord
  2
1
 70
     0
 62
     2
  6
CONTINUOUS
290
     1
370
    -3
390
0
  0
LAYER
  5
17
100
AcDbSymbolTableRecord
100
AcDbLayerTableRecord
  2
2
 70
     0
 62
     3
  6
CONTINUOUS
290
     1
370
    -3
390
0
  0
LAYER
  5
18
100
AcDbSymbolTableRecord
100
AcDbLayerTableRecord
  2
3
 70
     0
 62
     4
  6
CONTINUOUS
290
     1
370
    -3
390
0
  0
ENDTAB
  0
TABLE
  2
STYLE
  5
2
100
AcDbSymbolTable
 70
     1
  0
STYLE
  5
1B
100
AcDbSymbolTableRecord
100
AcDbTextStyleTableRecord
  2
STANDARD
 70
    64
 40
0.0
 41
1.0
 50
0.0
 71
     0
 42
1.0
  3
txt
  4
BIGFONT
  0
ENDTAB
  0
TABLE
  2
VIEW
  5
4
100
AcDbSymbolTable
 70
     0
  0
ENDTAB
  0
TABLE
  2
UCS
  5
5
100
AcDbSymbolTable
 70
     0
  0
ENDTAB
  0
TABLE
  2
APPID
  5
7
100
AcDbSymbolTable
 70
     1
  0
APPID
  5
1A
100
AcDbSymbolTableRecord
100
AcDbRegAppTableRecord
  2
ACAD
 70
     0
  0
ENDTAB
  0
TABLE
  2
DIMSTYLE
  5
8
100
AcDbSymbolTable
 70
     1
100
AcDbDimStyleTable
 71
     0
  0
DIMSTYLE
105
2D
100
AcDbSymbolTableRecord
100
AcDbDimStyleTableRecord
  2
Standard
 70
     0
  3

  4

 40
2.0
 41
2.0
 42
1.0
 43
0.38
 44
2.0
 45
0.0
 46
0.0
 47
0.0
 48
0.0
 71
     0
 72
     0
 73
     0
 74
     0
 75
     0
 76
     0
 77
     1
 78
     0
 79
     0
140
3.5
141
0.09
142
0.0
143
25.4
144
1.0
145
0.0
146
1.0
147
0.5
148
0.0
170
     0
171
     2
172
     0
173
     0
174
     0
175
     0
176
     0
177
     0
178
     0
179
     0
271
     3
272
     4
273
     2
274
     2
275
     0
276
     0
277
     2
278
    46
279
     0
280
     0
281
     0
282
     0
283
     1
284
     0
285
     0
286
     0
288
     0
289
     3
340
1B
341
0
342
0
343
0
344
0
371
    -2
372
    -2
  0
ENDTAB
  0
TABLE
  2
BLOCK_RECORD
  5
28
100
AcDbSymbolTable
 70
    10
  0
BLOCK_RECORD
  5
26
100
AcDbSymbolTableRecord
100
AcDbBlockTableRecord
  2
*Model_Space
340
0
  0
BLOCK_RECORD
  5
27
100
AcDbSymbolTableRecord
100
AcDbBlockTableRecord
  2
*Paper_Space
340
0
  0
BLOCK_RECORD
  5
1C
100
AcDbSymbolTableRecord
100
AcDbBlockTableRecord
  2
*D0
340
0
  0
BLOCK_RECORD
  5
1D
100
AcDbSymbolTableRecord
100
AcDbBlockTableRecord
  2
*D1
340
0
  0
BLOCK_RECORD
  5
1E
100
AcDbSymbolTableRecord
100
AcDbBlockTableRecord
  2
*D2
340
0
  0
BLOCK_RECORD
  5
1F
100
AcDbSymbolTableRecord
100
AcDbBlockTableRecord
  2
*D3
340
0
  0
BLOCK_RECORD
  5
20
100
AcDbSymbolTableRecord
100
AcDbBlockTableRecord
  2
*D4
340
0
  0
BLOCK_RECORD
  5
21
100
AcDbSymbolTableRecord
100
AcDbBlockTableRecord
  2
*D5
340
0
  0
BLOCK_RECORD
  5
22
100
AcDbSymbolTableRecord
100
AcDbBlockTableRecord
  2
*D6
340
0
  0
BLOCK_RECORD
  5
23
100
AcDbSymbolTableRecord
100
AcDbBlockTableRecord
  2
*D7
340
0
  0
BLOCK_RECORD
  5
24
100
AcDbSymbolTableRecord
100
AcDbBlockTableRecord
  2
*D8
340
0
  0
BLOCK_RECORD
  5
25
100
AcDbSymbolTableRecord
100
AcDbBlockTableRecord
  2
*D9
340
0
  0
ENDTAB
  0
ENDSEC
  0
SECTION
  2
BLOCKS
  0
BLOCK
  5
29
100
AcDbEntity
  8
0
390
0
100
AcDbBlockBegin
  2
*Model_Space
 70
     0
 10
0.0
 20
0.0
 30
0.0
  3
*Model_Space
  1

  0
ENDBLK
  5
2A
100
AcDbEntity
  8
0
390
0
100
AcDbBlockEnd
  0
BLOCK
  5
2B
100
AcDbEntity
 67
     1
  8
0
390
0
100
AcDbBlockBegin
  2
*Paper_Space
 70
     0
 10
0.0
 20
0.0
 30
0.0
  3
*Paper_Space
  1

  0
ENDBLK
  5
2C
100
AcDbEntity
 67
     1
  8
0
390
0
100
AcDbBlockEnd
  0
BLOCK
  5
282
100
AcDbEntity
  8
3
100
AcDbBlockBegin
  2
*D0
 70
     1
 10
0.0
 20
0.0
 30
0.0
  3
*D0
  1

  0
TEXT
  5
283
100
AcDbEntity
  8
3
370
    25
100
AcDbText
 10
-204.149722
 20
-105.547699
 30
0.0
 40
7.0
  1
１３５
 72
     5
 11
-184.549722
 21
-105.547699
 31
0.0
100
AcDbText
  0
LINE
  5
284
100
AcDbEntity
  8
3
370
    25
100
AcDbLine
 10
-261.149387
 20
10.007529
 30
0.0
 11
-261.149387
 21
-108.547699
 31
0.0
  0
LINE
  5
285
100
AcDbEntity
  8
3
370
    25
100
AcDbLine
 10
-261.149387
 20
-106.547699
 30
0.0
 11
-257.285683
 21
-107.582975
 31
0.0
  0
LINE
  5
286
100
AcDbEntity
  8
3
370
    25
100
AcDbLine
 10
-261.149387
 20
-106.547699
 30
0.0
 11
-257.285683
 21
-105.512423
 31
0.0
  0
LINE
  5
287
100
AcDbEntity
  8
3
370
    25
100
AcDbLine
 10
-257.285683
 20
-107.582975
 30
0.0
 11
-257.285683
 21
-105.512423
 31
0.0
  0
LINE
  5
288
100
AcDbEntity
  8
3
370
    25
100
AcDbLine
 10
-261.149387
 20
-106.547699
 30
0.0
 11
-126.150058
 21
-106.547699
 31
0.0
  0
LINE
  5
289
100
AcDbEntity
  8
3
370
    25
100
AcDbLine
 10
-126.150058
 20
-106.547699
 30
0.0
 11
-130.013761
 21
-105.512423
 31
0.0
  0
LINE
  5
28A
100
AcDbEntity
  8
3
370
    25
100
AcDbLine
 10
-126.150058
 20
-106.547699
 30
0.0
 11
-130.013761
 21
-107.582975
 31
0.0
  0
LINE
  5
28B
100
AcDbEntity
  8
3
370
    25
100
AcDbLine
 10
-130.013761
 20
-105.512423
 30
0.0
 11
-130.013761
 21
-107.582975
 31
0.0
  0
LINE
  5
28C
100
AcDbEntity
  8
3
370
    25
100
AcDbLine
 10
-126.150058
 20
10.007529
 30
0.0
 11
-126.150058
 21
-108.547699
 31
0.0
  0
ENDBLK
  5
28D
100
AcDbEntity
  8
3
100
AcDbBlockEnd
  0
BLOCK
  5
28E
100
AcDbEntity
  8
3
100
AcDbBlockBegin
  2
*D1
 70
     1
 10
0.0
 20
0.0
 30
0.0
  3
*D1
  1

  0
LINE
  5
28F
100
AcDbEntity
  8
3
370
    25
100
AcDbLine
 10
-289.434058
 20
-18.276471
 30
0.0
 11
-289.434058
 21
-133.127319
 31
0.0
  0
LINE
  5
290
100
AcDbEntity
  8
3
370
    25
100
AcDbLine
 10
-289.434058
 20
-131.127319
 30
0.0
 11
-285.570354
 21
-132.162596
 31
0.0
  0
LINE
  5
291
100
AcDbEntity
  8
3
370
    25
100
AcDbLine
 10
-289.434058
 20
-131.127319
 30
0.0
 11
-285.570354
 21
-130.092043
 31
0.0
  0
LINE
  5
292
100
AcDbEntity
  8
3
370
    25
100
AcDbLine
 10
-285.570354
 20
-132.162596
 30
0.0
 11
-285.570354
 21
-130.092043
 31
0.0
  0
LINE
  5
293
100
AcDbEntity
  8
3
370
    25
100
AcDbLine
 10
-289.434058
 20
-131.127319
 30
0.0
 11
-97.865387
 21
-131.127319
 31
0.0
  0
LINE
  5
294
100
AcDbEntity
  8
3
370
    25
100
AcDbLine
 10
-97.865387
 20
-131.127319
 30
0.0
 11
-101.72909
 21
-130.092043
 31
0.0
  0
LINE
  5
295
100
AcDbEntity
  8
3
370
    25
100
AcDbLine
 10
-97.865387
 20
-131.127319
 30
0.0
 11
-101.72909
 21
-132.162596
 31
0.0
  0
LINE
  5
296
100
AcDbEntity
  8
3
370
    25
100
AcDbLine
 10
-101.72909
 20
-130.092043
 30
0.0
 11
-101.72909
 21
-132.162596
 31
0.0
  0
LINE
  5
297
100
AcDbEntity
  8
3
370
    25
100
AcDbLine
 10
-97.865387
 20
-18.276471
 30
0.0
 11
-97.865387
 21
-133.127319
 31
0.0
  0
ENDBLK
  5
298
100
AcDbEntity
  8
3
100
AcDbBlockEnd
  0
BLOCK
  5
299
100
AcDbEntity
  8
3
100
AcDbBlockBegin
  2
*D2
 70
     1
 10
0.0
 20
0.0
 30
0.0
  3
*D2
  1

  0
TEXT
  5
29A
100
AcDbEntity
  8
3
370
    25
100
AcDbText
 10
110.849788
 20
-100.218109
 30
0.0
 40
7.0
  1
１７０
 72
     5
 11
130.449788
 21
-100.218109
 31
0.0
100
AcDbText
  0
LINE
  5
29B
100
AcDbEntity
  8
3
370
    25
100
AcDbLine
 10
36.349942
 20
-83.992829
 30
0.0
 11
36.349942
 21
-103.218109
 31
0.0
  0
LINE
  5
29C
100
AcDbEntity
  8
3
370
    25
100
AcDbLine
 10
36.349942
 20
-101.218109
 30
0.0
 11
40.213646
 21
-102.253385
 31
0.0
  0
LINE
  5
29D
100
AcDbEntity
  8
3
370
    25
100
AcDbLine
 10
36.349942
 20
-101.218109
 30
0.0
 11
40.213646
 21
-100.182833
 31
0.0
  0
LINE
  5
29E
100
AcDbEntity
  8
3
370
    25
100
AcDbLine
 10
40.213646
 20
-102.253385
 30
0.0
 11
40.213646
 21
-100.182833
 31
0.0
  0
LINE
  5
29F
100
AcDbEntity
  8
3
370
    25
100
AcDbLine
 10
36.349942
 20
-101.218109
 30
0.0
 11
206.349634
 21
-101.218109
 31
0.0
  0
LINE
  5
2A0
100
AcDbEntity
  8
3
370
    25
100
AcDbLine
 10
206.349634
 20
-101.218109
 30
0.0
 11
202.485931
 21
-100.182833
 31
0.0
  0
LINE
  5
2A1
100
AcDbEntity
  8
3
370
    25
100
AcDbLine
 10
206.349634
 20
-101.218109
 30
0.0
 11
202.485931
 21
-102.253385
 31
0.0
  0
LINE
  5
2A2
100
AcDbEntity
  8
3
370
    25
100
AcDbLine
 10
202.485931
 20
-100.182833
 30
0.0
 11
202.485931
 21
-102.253385
 31
0.0
  0
LINE
  5
2A3
100
AcDbEntity
  8
3
370
    25
100
AcDbLine
 10
206.349634
 20
-19.341796
 30
0.0
 11
206.349634
 21
-103.218109
 31
0.0
  0
ENDBLK
  5
2A4
100
AcDbEntity
  8
3
100
AcDbBlockEnd
  0
BLOCK
  5
2A5
100
AcDbEntity
  8
3
100
AcDbBlockBegin
  2
*D3
 70
     1
 10
0.0
 20
0.0
 30
0.0
  3
*D3
  1

  0
LINE
  5
2A6
100
AcDbEntity
  8
3
370
    25
100
AcDbLine
 10
26.599634
 20
-81.993122
 30
0.0
 11
10.383181
 21
-81.993122
 31
0.0
  0
LINE
  5
2A7
100
AcDbEntity
  8
3
370
    25
100
AcDbLine
 10
12.383181
 20
-81.993122
 30
0.0
 11
13.418457
 21
-78.129418
 31
0.0
  0
LINE
  5
2A8
100
AcDbEntity
  8
3
370
    25
100
AcDbLine
 10
12.383181
 20
-81.993122
 30
0.0
 11
11.347904
 21
-78.129418
 31
0.0
  0
LINE
  5
2A9
100
AcDbEntity
  8
3
370
    25
100
AcDbLine
 10
13.418457
 20
-78.129418
 30
0.0
 11
11.347904
 21
-78.129418
 31
0.0
  0
LINE
  5
2AA
100
AcDbEntity
  8
3
370
    25
100
AcDbLine
 10
12.383181
 20
-81.993122
 30
0.0
 11
12.383181
 21
7.007529
 31
0.0
  0
LINE
  5
2AB
100
AcDbEntity
  8
3
370
    25
100
AcDbLine
 10
12.383181
 20
7.007529
 30
0.0
 11
11.347904
 21
3.143826
 31
0.0
  0
LINE
  5
2AC
100
AcDbEntity
  8
3
370
    25
100
AcDbLine
 10
12.383181
 20
7.007529
 30
0.0
 11
13.418457
 21
3.143826
 31
0.0
  0
LINE
  5
2AD
100
AcDbEntity
  8
3
370
    25
100
AcDbLine
 10
11.347904
 20
3.143826
 30
0.0
 11
13.418457
 21
3.143826
 31
0.0
  0
LINE
  5
2AE
100
AcDbEntity
  8
3
370
    25
100
AcDbLine
 10
183.568665
 20
7.007529
 30
0.0
 11
10.383181
 21
7.007529
 31
0.0
  0
ENDBLK
  5
2AF
100
AcDbEntity
  8
3
100
AcDbBlockEnd
  0
BLOCK
  5
2B0
100
AcDbEntity
  8
3
100
AcDbBlockBegin
  2
*D4
 70
     1
 10
0.0
 20
0.0
 30
0.0
  3
*D4
  1

  0
LINE
  5
2B1
100
AcDbEntity
  8
3
370
    25
100
AcDbLine
 10
183.568665
 20
7.007529
 30
0.0
 11
10.383181
 21
7.007529
 31
0.0
  0
LINE
  5
2B2
100
AcDbEntity
  8
3
370
    25
100
AcDbLine
 10
12.383181
 20
7.007529
 30
0.0
 11
13.418457
 21
10.871233
 31
0.0
  0
LINE
  5
2B3
100
AcDbEntity
  8
3
370
    25
100
AcDbLine
 10
12.383181
 20
7.007529
 30
0.0
 11
11.347904
 21
10.871233
 31
0.0
  0
LINE
  5
2B4
100
AcDbEntity
  8
3
370
    25
100
AcDbLine
 10
13.418457
 20
10.871233
 30
0.0
 11
11.347904
 21
10.871233
 31
0.0
  0
LINE
  5
2B5
100
AcDbEntity
  8
3
370
    25
100
AcDbLine
 10
12.383181
 20
7.007529
 30
0.0
 11
12.383181
 21
84.007529
 31
0.0
  0
LINE
  5
2B6
100
AcDbEntity
  8
3
370
    25
100
AcDbLine
 10
12.383181
 20
84.007529
 30
0.0
 11
11.347904
 21
80.143826
 31
0.0
  0
LINE
  5
2B7
100
AcDbEntity
  8
3
370
    25
100
AcDbLine
 10
12.383181
 20
84.007529
 30
0.0
 11
13.418457
 21
80.143826
 31
0.0
  0
LINE
  5
2B8
100
AcDbEntity
  8
3
370
    25
100
AcDbLine
 10
11.347904
 20
80.143826
 30
0.0
 11
13.418457
 21
80.143826
 31
0.0
  0
LINE
  5
2B9
100
AcDbEntity
  8
3
370
    25
100
AcDbLine
 10
204.349634
 20
84.007529
 30
0.0
 11
10.383181
 21
84.007529
 31
0.0
  0
ENDBLK
  5
2BA
100
AcDbEntity
  8
3
100
AcDbBlockEnd
  0
BLOCK
  5
2BB
100
AcDbEntity
  8
3
100
AcDbBlockBegin
  2
*D5
 70
     1
 10
0.0
 20
0.0
 30
0.0
  3
*D5
  1

  0
TEXT
  5
2BC
100
AcDbEntity
  8
3
370
    25
100
AcDbText
 10
324.822388
 20
-43.492475
 30
0.0
 40
7.0
  1
φ４６
 50
90.0
 72
     5
 11
324.822388
 21
-23.892475
 31
0.0
100
AcDbText
  0
LINE
  5
2BD
100
AcDbEntity
  8
3
370
    25
100
AcDbLine
 10
287.337219
 20
-9.992475
 30
0.0
 11
327.822388
 21
-9.992475
 31
0.0
  0
LINE
  5
2BE
100
AcDbEntity
  8
3
370
    25
100
AcDbLine
 10
325.822388
 20
-9.992475
 30
0.0
 11
324.787112
 21
-13.856179
 31
0.0
  0
LINE
  5
2BF
100
AcDbEntity
  8
3
370
    25
100
AcDbLine
 10
325.822388
 20
-9.992475
 30
0.0
 11
326.857664
 21
-13.856179
 31
0.0
  0
LINE
  5
2C0
100
AcDbEntity
  8
3
370
    25
100
AcDbLine
 10
324.787112
 20
-13.856179
 30
0.0
 11
326.857664
 21
-13.856179
 31
0.0
  0
LINE
  5
2C1
100
AcDbEntity
  8
3
370
    25
100
AcDbLine
 10
325.822388
 20
-9.992475
 30
0.0
 11
325.822388
 21
-55.992475
 31
0.0
  0
LINE
  5
2C2
100
AcDbEntity
  8
3
370
    25
100
AcDbLine
 10
325.822388
 20
-55.992475
 30
0.0
 11
326.857664
 21
-52.128772
 31
0.0
  0
LINE
  5
2C3
100
AcDbEntity
  8
3
370
    25
100
AcDbLine
 10
325.822388
 20
-55.992475
 30
0.0
 11
324.787112
 21
-52.128772
 31
0.0
  0
LINE
  5
2C4
100
AcDbEntity
  8
3
370
    25
100
AcDbLine
 10
326.857664
 20
-52.128772
 30
0.0
 11
324.787112
 21
-52.128772
 31
0.0
  0
LINE
  5
2C5
100
AcDbEntity
  8
3
370
    25
100
AcDbLine
 10
287.337219
 20
-55.992475
 30
0.0
 11
327.822388
 21
-55.992475
 31
0.0
  0
ENDBLK
  5
2C6
100
AcDbEntity
  8
3
100
AcDbBlockEnd
  0
BLOCK
  5
2C7
100
AcDbEntity
  8
3
100
AcDbBlockBegin
  2
*D6
 70
     1
 10
0.0
 20
0.0
 30
0.0
  3
*D6
  1

  0
LINE
  5
2C8
100
AcDbEntity
  8
3
370
    25
100
AcDbLine
 10
285.337219
 20
-57.992475
 30
0.0
 11
285.337219
 21
-103.218109
 31
0.0
  0
LINE
  5
2C9
100
AcDbEntity
  8
3
370
    25
100
AcDbLine
 10
285.337219
 20
-101.218109
 30
0.0
 11
281.473516
 21
-100.182833
 31
0.0
  0
LINE
  5
2CA
100
AcDbEntity
  8
3
370
    25
100
AcDbLine
 10
285.337219
 20
-101.218109
 30
0.0
 11
281.473516
 21
-102.253385
 31
0.0
  0
LINE
  5
2CB
100
AcDbEntity
  8
3
370
    25
100
AcDbLine
 10
281.473516
 20
-100.182833
 30
0.0
 11
281.473516
 21
-102.253385
 31
0.0
  0
LINE
  5
2CC
100
AcDbEntity
  8
3
370
    25
100
AcDbLine
 10
275.337219
 20
-101.218109
 30
0.0
 11
335.337219
 21
-101.218109
 31
0.0
  0
LINE
  5
2CD
100
AcDbEntity
  8
3
370
    25
100
AcDbLine
 10
299.337219
 20
-101.218109
 30
0.0
 11
303.200923
 21
-102.253385
 31
0.0
  0
LINE
  5
2CE
100
AcDbEntity
  8
3
370
    25
100
AcDbLine
 10
299.337219
 20
-101.218109
 30
0.0
 11
303.200923
 21
-100.182833
 31
0.0
  0
LINE
  5
2CF
100
AcDbEntity
  8
3
370
    25
100
AcDbLine
 10
303.200923
 20
-102.253385
 30
0.0
 11
303.200923
 21
-100.182833
 31
0.0
  0
LINE
  5
2D0
100
AcDbEntity
  8
3
370
    25
100
AcDbLine
 10
299.337219
 20
-44.292471
 30
0.0
 11
299.337219
 21
-103.218109
 31
0.0
  0
ENDBLK
  5
2D1
100
AcDbEntity
  8
3
100
AcDbBlockEnd
  0
BLOCK
  5
2D2
100
AcDbEntity
  8
3
100
AcDbBlockBegin
  2
*D7
 70
     1
 10
0.0
 20
0.0
 30
0.0
  3
*D7
  1

  0
TEXT
  5
2D3
100
AcDbEntity
  8
3
370
    25
100
AcDbText
 10
-96.526018
 20
18.247213
 30
0.0
 40
7.0
  1
４０
 50
315.00068
 72
     5
 11
-87.616367
 21
9.337774
 31
0.0
100
AcDbText
  0
LINE
  5
2D4
100
AcDbEntity
  8
3
370
    25
100
AcDbLine
 10
-124.735861
 20
8.42176
 30
0.0
 11
-105.011449
 21
28.14664
 31
0.0
  0
LINE
  5
2D5
100
AcDbEntity
  8
3
370
    25
100
AcDbLine
 10
-106.425646
 20
26.732409
 30
0.0
 11
-104.425604
 21
23.268332
 31
0.0
  0
LINE
  5
2D6
100
AcDbEntity
  8
3
370
    25
100
AcDbLine
 10
-106.425646
 20
26.732409
 30
0.0
 11
-102.96152
 21
24.732451
 31
0.0
  0
LINE
  5
2D7
100
AcDbEntity
  8
3
370
    25
100
AcDbLine
 10
-104.425604
 20
23.268332
 30
0.0
 11
-102.96152
 21
24.732451
 31
0.0
  0
LINE
  5
2D8
100
AcDbEntity
  8
3
370
    25
100
AcDbLine
 10
-106.425646
 20
26.732409
 30
0.0
 11
-78.140975
 21
-1.551591
 31
0.0
  0
LINE
  5
2D9
100
AcDbEntity
  8
3
370
    25
100
AcDbLine
 10
-78.140975
 20
-1.551591
 30
0.0
 11
-80.141016
 21
1.912487
 31
0.0
  0
LINE
  5
2DA
100
AcDbEntity
  8
3
370
    25
100
AcDbLine
 10
-78.140975
 20
-1.551591
 30
0.0
 11
-81.6051
 21
0.448368
 31
0.0
  0
LINE
  5
2DB
100
AcDbEntity
  8
3
370
    25
100
AcDbLine
 10
-80.141016
 20
1.912487
 30
0.0
 11
-81.6051
 21
0.448368
 31
0.0
  0
LINE
  5
2DC
100
AcDbEntity
  8
3
370
    25
100
AcDbLine
 10
-96.45119
 20
-19.86224
 30
0.0
 11
-76.726778
 21
-0.13736
 31
0.0
  0
ENDBLK
  5
2DD
100
AcDbEntity
  8
3
100
AcDbBlockEnd
  0
BLOCK
  5
2DE
100
AcDbEntity
  8
3
100
AcDbBlockBegin
  2
*D8
 70
     1
 10
0.0
 20
0.0
 30
0.0
  3
*D8
  1

  0
TEXT
  5
2DF
100
AcDbEntity
  8
3
370
    25
100
AcDbText
 10
-300.399063
 20
8.072768
 30
0.0
 40
7.0
  1
４０
 50
45.0
 72
     5
 11
-291.489517
 21
16.982313
 31
0.0
100
AcDbText
  0
LINE
  5
2E0
100
AcDbEntity
  8
3
370
    25
100
AcDbLine
 10
-290.848543
 20
-19.862528
 30
0.0
 11
-310.298558
 21
-0.412513
 31
0.0
  0
LINE
  5
2E1
100
AcDbEntity
  8
3
370
    25
100
AcDbLine
 10
-308.884344
 20
-1.826727
 30
0.0
 11
-305.420242
 21
0.173273
 31
0.0
  0
LINE
  5
2E2
100
AcDbEntity
  8
3
370
    25
100
AcDbLine
 10
-308.884344
 20
-1.826727
 30
0.0
 11
-306.884344
 21
1.637375
 31
0.0
  0
LINE
  5
2E3
100
AcDbEntity
  8
3
370
    25
100
AcDbLine
 10
-305.420242
 20
0.173273
 30
0.0
 11
-306.884344
 21
1.637375
 31
0.0
  0
LINE
  5
2E4
100
AcDbEntity
  8
3
370
    25
100
AcDbLine
 10
-308.884344
 20
-1.826727
 30
0.0
 11
-280.600073
 21
26.457544
 31
0.0
  0
LINE
  5
2E5
100
AcDbEntity
  8
3
370
    25
100
AcDbLine
 10
-280.600073
 20
26.457544
 30
0.0
 11
-284.064174
 21
24.457544
 31
0.0
  0
LINE
  5
2E6
100
AcDbEntity
  8
3
370
    25
100
AcDbLine
 10
-280.600073
 20
26.457544
 30
0.0
 11
-282.600073
 21
22.993443
 31
0.0
  0
LINE
  5
2E7
100
AcDbEntity
  8
3
370
    25
100
AcDbLine
 10
-284.064174
 20
24.457544
 30
0.0
 11
-282.600073
 21
22.993443
 31
0.0
  0
LINE
  5
2E8
100
AcDbEntity
  8
3
370
    25
100
AcDbLine
 10
-262.564271
 20
8.421743
 30
0.0
 11
-282.014286
 21
27.871758
 31
0.0
  0
ENDBLK
  5
2E9
100
AcDbEntity
  8
3
100
AcDbBlockEnd
  0
BLOCK
  5
2EA
100
AcDbEntity
  8
3
100
AcDbBlockBegin
  2
*D9
 70
     1
 10
0.0
 20
0.0
 30
0.0
  3
*D9
  1

  0
LINE
  5
2EB
100
AcDbEntity
  8
3
370
    25
100
AcDbLine
 10
206.349634
 20
-23.092975
 30
0.0
 11
206.349634
 21
-103.218109
 31
0.0
  0
LINE
  5
2EC
100
AcDbEntity
  8
3
370
    25
100
AcDbLine
 10
206.349634
 20
-101.218109
 30
0.0
 11
210.213337
 21
-102.253385
 31
0.0
  0
LINE
  5
2ED
100
AcDbEntity
  8
3
370
    25
100
AcDbLine
 10
206.349634
 20
-101.218109
 30
0.0
 11
210.213337
 21
-100.182833
 31
0.0
  0
LINE
  5
2EE
100
AcDbEntity
  8
3
370
    25
100
AcDbLine
 10
210.213337
 20
-102.253385
 30
0.0
 11
210.213337
 21
-100.182833
 31
0.0
  0
LINE
  5
2EF
100
AcDbEntity
  8
3
370
    25
100
AcDbLine
 10
206.349634
 20
-101.218109
 30
0.0
 11
285.337219
 21
-101.218109
 31
0.0
  0
LINE
  5
2F0
100
AcDbEntity
  8
3
370
    25
100
AcDbLine
 10
285.337219
 20
-101.218109
 30
0.0
 11
281.473516
 21
-100.182833
 31
0.0
  0
LINE
  5
2F1
100
AcDbEntity
  8
3
370
    25
100
AcDbLine
 10
285.337219
 20
-101.218109
 30
0.0
 11
281.473516
 21
-102.253385
 31
0.0
  0
LINE
  5
2F2
100
AcDbEntity
  8
3
370
    25
100
AcDbLine
 10
281.473516
 20
-100.182833
 30
0.0
 11
281.473516
 21
-102.253385
 31
0.0
  0
LINE
  5
2F3
100
AcDbEntity
  8
3
370
    25
100
AcDbLine
 10
285.337219
 20
-57.992475
 30
0.0
 11
285.337219
 21
-103.218109
 31
0.0
  0
ENDBLK
  5
2F4
100
AcDbEntity
  8
3
100
AcDbBlockEnd
  0
ENDSEC
  0
SECTION
  2
ENTITIES
  0
LINE
  5
2E
100
AcDbEntity
  8
1
370
   100
100
AcDbLine
 10
-373.02157
 20
275.028767
 30
0.0
 11
394.982385
 21
275.028767
 31
0.0
  0
LINE
  5
2F
100
AcDbEntity
  8
1
370
   100
100
AcDbLine
 10
-373.02157
 20
275.028767
 30
0.0
 11
-373.02157
 21
-277.971881
 31
0.0
  0
LINE
  5
30
100
AcDbEntity
  8
1
370
   100
100
AcDbLine
 10
-373.02157
 20
-277.971881
 30
0.0
 11
394.982385
 21
-277.971881
 31
0.0
  0
LINE
  5
31
100
AcDbEntity
  8
1
370
   100
100
AcDbLine
 10
394.982385
 20
-277.971881
 30
0.0
 11
394.982385
 21
275.028767
 31
0.0
  0
TEXT
  5
32
100
AcDbEntity
  8
1
370
    50
100
AcDbText
 10
359.628442
 20
-226.252857
 30
0.0
 40
6.0
  1
設計
 72
     5
 11
370.428442
 21
-226.252857
 31
0.0
100
AcDbText
  0
TEXT
  5
33
100
AcDbEntity
  8
1
370
    50
100
AcDbText
 10
379.127478
 20
-226.099658
 30
0.0
 40
6.0
  1
製図
 72
     5
 11
389.927478
 21
-226.099658
 31
0.0
100
AcDbText
  0
TEXT
  5
34
100
AcDbEntity
  8
1
370
    50
100
AcDbText
 10
319.005745
 20
-226.252857
 30
0.0
 40
6.0
  1
承認
 72
     5
 11
329.805745
 21
-226.252857
 31
0.0
100
AcDbText
  0
TEXT
  5
35
100
AcDbEntity
  8
1
370
    50
100
AcDbText
 10
338.989679
 20
-226.19802
 30
0.0
 40
6.0
  1
検図
 72
     5
 11
349.789679
 21
-226.19802
 31
0.0
100
AcDbText
  0
LINE
  5
36
100
AcDbEntity
  8
1
370
    25
100
AcDbLine
 10
284.982385
 20
-227.971881
 30
0.0
 11
394.982385
 21
-227.971881
 31
0.0
  0
LINE
  5
37
100
AcDbEntity
  8
1
370
    25
100
AcDbLine
 10
342.482385
 20
-245.971881
 30
0.0
 11
342.482385
 21
-259.971881
 31
0.0
  0
TEXT
  5
38
100
AcDbEntity
  8
1
370
    50
100
AcDbText
 10
319.55159
 20
-256.012528
 30
0.0
 40
6.0
  1
日　付
 72
     5
 11
336.35159
 21
-256.012528
 31
0.0
100
AcDbText
  0
LINE
  5
39
100
AcDbEntity
  8
1
370
    50
100
AcDbLine
 10
40.982385
 20
-259.971881
 30
0.0
 11
394.982385
 21
-259.971881
 31
0.0
  0
TEXT
  5
3A
100
AcDbEntity
  8
1
370
    50
100
AcDbText
 10
287.775011
 20
-256.322406
 30
0.0
 40
6.0
  1
第三角法
 72
     5
 11
310.575011
 21
-256.322406
 31
0.0
100
AcDbText
  0
TEXT
  5
3B
100
AcDbEntity
  8
1
370
    50
100
AcDbText
 10
291.087419
 20
-225.99802
 30
0.0
 40
6.0
  1
尺　度
 72
     5
 11
307.887419
 21
-225.99802
 31
0.0
100
AcDbText
  0
LINE
  5
3C
100
AcDbEntity
  8
1
370
   100
100
AcDbLine
 10
40.982385
 20
-217.971881
 30
0.0
 11
394.982385
 21
-217.971881
 31
0.0
  0
LINE
  5
3D
100
AcDbEntity
  8
1
370
    50
100
AcDbLine
 10
211.982385
 20
-217.971881
 30
0.0
 11
211.982385
 21
-277.971881
 31
0.0
  0
LINE
  5
3E
100
AcDbEntity
  8
1
370
    25
100
AcDbLine
 10
374.982385
 20
-245.971881
 30
0.0
 11
374.982385
 21
-217.971881
 31
0.0
  0
LINE
  5
3F
100
AcDbEntity
  8
1
370
    25
100
AcDbLine
 10
354.982385
 20
-245.971881
 30
0.0
 11
354.982385
 21
-217.971881
 31
0.0
  0
LINE
  5
40
100
AcDbEntity
  8
1
370
    25
100
AcDbLine
 10
334.982385
 20
-245.971881
 30
0.0
 11
334.982385
 21
-217.971881
 31
0.0
  0
LINE
  5
41
100
AcDbEntity
  8
1
370
    50
100
AcDbLine
 10
284.982385
 20
-277.971881
 30
0.0
 11
284.982385
 21
-217.971881
 31
0.0
  0
LINE
  5
42
100
AcDbEntity
  8
1
370
    50
100
AcDbLine
 10
189.982385
 20
-217.971881
 30
0.0
 11
189.982385
 21
-277.971881
 31
0.0
  0
LINE
  5
43
100
AcDbEntity
  8
1
370
    50
100
AcDbLine
 10
62.982385
 20
-217.971881
 30
0.0
 11
62.982385
 21
-259.971881
 31
0.0
  0
LINE
  5
44
100
AcDbEntity
  8
1
370
    50
100
AcDbLine
 10
284.982385
 20
-245.971881
 30
0.0
 11
394.982385
 21
-245.971881
 31
0.0
  0
TEXT
  5
45
100
AcDbEntity
  8
1
370
    50
100
AcDbText
 10
287.101129
 20
-271.880939
 30
0.0
 40
6.0
  1
コードＮｏ
 41
0.9
 72
     5
 11
313.021129
 21
-271.880939
 31
0.0
100
AcDbText
  0
TEXT
  5
46
100
AcDbEntity
  8
1
370
   100
100
AcDbText
 10
52.886774
 20
-272.875659
 30
0.0
 40
8.0
  1
ミズタニバルブ工業株式会社
 41
1.2
 72
     5
 11
175.766774
 21
-272.875659
 31
0.0
100
AcDbText
  0
LINE
  5
47
100
AcDbEntity
  8
1
370
    50
100
AcDbLine
 10
40.982385
 20
-238.971881
 30
0.0
 11
284.982385
 21
-238.971881
 31
0.0
  0
LINE
  5
48
100
AcDbEntity
  8
1
370
    50
100
AcDbLine
 10
115.482385
 20
-238.971881
 30
0.0
 11
115.482385
 21
-259.971881
 31
0.0
  0
LINE
  5
49
100
AcDbEntity
  8
1
370
    50
100
AcDbLine
 10
137.482385
 20
-238.971881
 30
0.0
 11
137.482385
 21
-259.971881
 31
0.0
  0
LINE
  5
4A
100
AcDbEntity
  8
1
370
    50
100
AcDbLine
 10
314.982385
 20
-277.971881
 30
0.0
 11
314.982385
 21
-217.971881
 31
0.0
  0
TEXT
  5
4B
100
AcDbEntity
  8
1
370
    50
100
AcDbText
 10
345.098131
 20
-256.100293
 30
0.0
 40
6.0
  1
　　・　　・
 72
     5
 11
379.898131
 21
-256.100293
 31
0.0
100
AcDbText
  0
LINE
  5
4C
100
AcDbEntity
  8
1
370
   100
100
AcDbLine
 10
40.982385
 20
-217.971881
 30
0.0
 11
40.982385
 21
-277.971881
 31
0.0
  0
TEXT
  5
4D
100
AcDbEntity
  8
1
370
    50
100
AcDbText
 10
290.832582
 20
-240.013492
 30
0.0
 40
6.0
  1
　／ 
 72
     5
 11
301.632582
 21
-240.013492
 31
0.0
100
AcDbText
  0
TEXT
  5
4E
100
AcDbEntity
  8
1
370
    50
100
AcDbText
 10
193.904123
 20
-272.024909
 30
0.0
 40
6.0
  1
備 考 
 72
     5
 11
207.704123
 21
-272.024909
 31
0.0
100
AcDbText
  0
TEXT
  5
4F
100
AcDbEntity
  8
1
370
    50
100
AcDbText
 10
193.512534
 20
-230.89184
 30
0.0
 40
6.0
  1
仕 上
 72
     5
 11
207.312534
 21
-230.89184
 31
0.0
100
AcDbText
  0
TEXT
  5
50
100
AcDbEntity
  8
1
370
    50
100
AcDbText
 10
193.447176
 20
-248.891666
 30
0.0
 40
6.0
  1
表 面
 72
     5
 11
207.247176
 21
-248.891666
 31
0.0
100
AcDbText
  0
TEXT
  5
51
100
AcDbEntity
  8
1
370
    50
100
AcDbText
 10
193.447176
 20
-255.891666
 30
0.0
 40
6.0
  1
処 理
 72
     5
 11
207.247176
 21
-255.891666
 31
0.0
100
AcDbText
  0
TEXT
  5
52
100
AcDbEntity
  8
1
370
    50
100
AcDbText
 10
44.79335
 20
-231.693399
 30
0.0
 40
6.0
  1
品 名
 72
     5
 11
58.59335
 21
-231.693399
 31
0.0
100
AcDbText
  0
TEXT
  5
53
100
AcDbEntity
  8
1
370
    50
100
AcDbText
 10
44.397766
 20
-252.462534
 30
0.0
 40
6.0
  1
材 質
 72
     5
 11
58.197766
 21
-252.462534
 31
0.0
100
AcDbText
  0
TEXT
  5
54
100
AcDbEntity
  8
1
370
    50
100
AcDbText
 10
118.897766
 20
-252.462534
 30
0.0
 40
6.0
  1
規 格
 72
     5
 11
132.697766
 21
-252.462534
 31
0.0
100
AcDbText
  0
POINT
  5
55
100
AcDbEntity
  8
2
370
    50
100
AcDbPoint
 10
-150.650058
 20
21.757529
 30
0.0
  0
ARC
  5
56
100
AcDbEntity
  8
2
370
    50
100
AcDbCircle
 10
-261.150097
 20
4.007529
 30
0.0
 40
80.0
100
AcDbArc
 50
84.370157
 51
95.629843
  0
LINE
  5
57
100
AcDbEntity
  8
2
370
    50
100
AcDbLine
 10
-261.150058
 20
82.007529
 30
0.0
 11
-251.900097
 21
82.007529
 31
0.0
  0
ARC
  5
58
100
AcDbEntity
  8
2
370
    50
100
AcDbCircle
 10
-253.400097
 20
82.626468
 30
0.0
 40
1.0
100
AcDbArc
 50
0.0
 51
84.370157
  0
ARC
  5
59
100
AcDbEntity
  8
2
370
    50
100
AcDbCircle
 10
-186.431298
 20
54.428367
 30
0.0
 40
100.0
100
AcDbArc
 50
168.537652
 51
188.388164
  0
ARC
  5
5A
100
AcDbEntity
  8
2
370
    50
100
AcDbCircle
 10
-335.868895
 20
54.428367
 30
0.0
 40
100.0
100
AcDbArc
 50
351.611836
 51
11.462348
  0
ARC
  5
5B
100
AcDbEntity
  8
2
370
    50
100
AcDbCircle
 10
-261.150097
 20
-57.686556
 30
0.0
 40
140.0
100
AcDbArc
 50
93.788374
 51
96.34007
  0
ARC
  5
5C
100
AcDbEntity
  8
2
370
    50
100
AcDbCircle
 10
-261.150097
 20
-57.686556
 30
0.0
 40
140.0
100
AcDbArc
 50
83.65993
 51
86.211626
  0
ARC
  5
5D
100
AcDbEntity
  8
2
370
    50
100
AcDbCircle
 10
-275.616349
 20
72.512244
 30
0.0
 40
9.0
100
AcDbArc
 50
96.34007
 51
168.537652
  0
ARC
  5
5E
100
AcDbEntity
  8
2
370
    50
100
AcDbCircle
 10
-246.683844
 20
72.512244
 30
0.0
 40
9.0
100
AcDbArc
 50
11.462348
 51
83.65993
  0
ARC
  5
5F
100
AcDbEntity
  8
2
370
    50
100
AcDbCircle
 10
-277.447127
 20
41.007529
 30
0.0
 40
8.0
100
AcDbArc
 50
188.388164
 51
270.0
  0
ARC
  5
60
100
AcDbEntity
  8
2
370
    50
100
AcDbCircle
 10
-244.853066
 20
41.007529
 30
0.0
 40
8.0
100
AcDbArc
 50
270.0
 51
351.611836
  0
LINE
  5
61
100
AcDbEntity
  8
2
370
    50
100
AcDbLine
 10
-277.447127
 20
33.007529
 30
0.0
 11
-244.853066
 21
33.007529
 31
0.0
  0
LINE
  5
62
100
AcDbEntity
  8
2
370
    50
100
AcDbLine
 10
-269.900097
 20
82.626468
 30
0.0
 11
-269.900097
 21
82.007529
 31
0.0
  0
LINE
  5
63
100
AcDbEntity
  8
2
370
    50
100
AcDbLine
 10
-252.400097
 20
82.626468
 30
0.0
 11
-252.400097
 21
82.007529
 31
0.0
  0
ARC
  5
64
100
AcDbEntity
  8
2
370
    50
100
AcDbCircle
 10
-268.900097
 20
82.626468
 30
0.0
 40
1.0
100
AcDbArc
 50
95.629843
 51
180.0
  0
ARC
  5
65
100
AcDbEntity
  8
2
370
    50
100
AcDbCircle
 10
-253.400097
 20
82.626468
 30
0.0
 40
1.0
100
AcDbArc
 50
0.0
 51
84.370157
  0
ARC
  5
66
100
AcDbEntity
  8
2
370
    50
100
AcDbCircle
 10
-261.150097
 20
4.007529
 30
0.0
 40
80.0
100
AcDbArc
 50
84.370157
 51
95.629843
  0
LINE
  5
67
100
AcDbEntity
  8
2
370
    50
100
AcDbLine
 10
-270.400097
 20
82.007529
 30
0.0
 11
-261.150058
 21
82.007529
 31
0.0
  0
LINE
  5
68
100
AcDbEntity
  8
2
370
    50
100
AcDbLine
 10
-261.150058
 20
82.007529
 30
0.0
 11
-251.900097
 21
82.007529
 31
0.0
  0
ARC
  5
69
100
AcDbEntity
  8
2
370
    50
100
AcDbCircle
 10
-370.814998
 20
53.913194
 30
0.0
 40
120.0
100
AcDbArc
 50
355.059572
 51
9.155483
  0
ARC
  5
6A
100
AcDbEntity
  8
2
370
    50
100
AcDbCircle
 10
-151.485117
 20
53.913194
 30
0.0
 40
120.0
100
AcDbArc
 50
170.844517
 51
184.940428
  0
ARC
  5
6B
100
AcDbEntity
  8
2
370
    50
100
AcDbCircle
 10
-261.150058
 20
71.587609
 30
0.0
 40
8.91992
100
AcDbArc
 50
9.155483
 51
170.844517
  0
ARC
  5
6C
100
AcDbEntity
  8
2
370
    50
100
AcDbCircle
 10
-261.150058
 20
44.43364
 30
0.0
 40
9.926111
100
AcDbArc
 50
184.940428
 51
355.059572
  0
LINE
  5
6D
100
AcDbEntity
  8
2
370
    50
100
AcDbLine
 10
-246.650058
 20
78.507529
 30
0.0
 11
-246.650058
 21
37.507529
 31
0.0
  0
LINE
  5
6E
100
AcDbEntity
  8
2
370
    50
100
AcDbLine
 10
-275.650058
 20
78.507529
 30
0.0
 11
-275.650058
 21
37.507529
 31
0.0
  0
ARC
  5
6F
100
AcDbEntity
  8
2
370
    50
100
AcDbCircle
 10
-335.868857
 20
54.428367
 30
0.0
 40
99.5
100
AcDbArc
 50
352.362481
 51
11.528523
  0
ARC
  5
70
100
AcDbEntity
  8
2
370
    50
100
AcDbCircle
 10
-186.431259
 20
54.428367
 30
0.0
 40
99.5
100
AcDbArc
 50
168.471477
 51
187.637519
  0
ARC
  5
71
100
AcDbEntity
  8
2
370
    50
100
AcDbCircle
 10
-276.085277
 20
72.715167
 30
0.0
 40
8.0
100
AcDbArc
 50
105.117347
 51
168.471477
  0
ARC
  5
72
100
AcDbEntity
  8
2
370
    50
100
AcDbCircle
 10
-277.650058
 20
78.507529
 30
0.0
 40
2.0
100
AcDbArc
 50
0.0
 51
105.117347
  0
ARC
  5
73
100
AcDbEntity
  8
2
370
    50
100
AcDbCircle
 10
-246.214839
 20
72.715167
 30
0.0
 40
8.0
100
AcDbArc
 50
11.528523
 51
74.882653
  0
ARC
  5
74
100
AcDbEntity
  8
2
370
    50
100
AcDbCircle
 10
-244.650058
 20
78.507529
 30
0.0
 40
2.0
100
AcDbArc
 50
74.882653
 51
180.0
  0
ARC
  5
75
100
AcDbEntity
  8
2
370
    50
100
AcDbCircle
 10
-277.119537
 20
42.267519
 30
0.0
 40
8.0
100
AcDbArc
 50
187.637519
 51
252.175397
  0
ARC
  5
76
100
AcDbEntity
  8
2
370
    50
100
AcDbCircle
 10
-278.650058
 20
37.507529
 30
0.0
 40
3.0
100
AcDbArc
 50
252.175397
 51
360.0
  0
ARC
  5
77
100
AcDbEntity
  8
2
370
    50
100
AcDbCircle
 10
-243.650058
 20
37.507529
 30
0.0
 40
3.0
100
AcDbArc
 50
180.0
 51
287.824603
  0
ARC
  5
78
100
AcDbEntity
  8
2
370
    50
100
AcDbCircle
 10
-245.180578
 20
42.267519
 30
0.0
 40
8.0
100
AcDbArc
 50
287.824603
 51
352.362481
  0
POINT
  5
79
100
AcDbEntity
  8
2
370
    50
100
AcDbPoint
 10
-261.150058
 20
84.007529
 30
0.0
  0
ARC
  5
7A
100
AcDbEntity
  8
2
370
    50
100
AcDbCircle
 10
-51.43122
 20
54.428367
 30
0.0
 40
100.0
100
AcDbArc
 50
168.537652
 51
188.388164
  0
ARC
  5
7B
100
AcDbEntity
  8
2
370
    50
100
AcDbCircle
 10
-51.431259
 20
54.428367
 30
0.0
 40
99.5
100
AcDbArc
 50
168.471477
 51
187.637519
  0
ARC
  5
7C
100
AcDbEntity
  8
2
370
    50
100
AcDbCircle
 10
-140.616272
 20
72.512244
 30
0.0
 40
9.0
100
AcDbArc
 50
96.34007
 51
168.537652
  0
ARC
  5
7D
100
AcDbEntity
  8
2
370
    50
100
AcDbCircle
 10
-141.085277
 20
72.715167
 30
0.0
 40
8.0
100
AcDbArc
 50
105.117347
 51
168.471477
  0
ARC
  5
7E
100
AcDbEntity
  8
2
370
    50
100
AcDbCircle
 10
-142.650058
 20
78.507529
 30
0.0
 40
2.0
100
AcDbArc
 50
0.0
 51
105.117347
  0
LINE
  5
7F
100
AcDbEntity
  8
2
370
    50
100
AcDbLine
 10
-140.650058
 20
78.507529
 30
0.0
 11
-140.650058
 21
37.507529
 31
0.0
  0
ARC
  5
80
100
AcDbEntity
  8
2
370
    50
100
AcDbCircle
 10
-143.650058
 20
37.507529
 30
0.0
 40
3.0
100
AcDbArc
 50
252.175397
 51
360.0
  0
ARC
  5
81
100
AcDbEntity
  8
2
370
    50
100
AcDbCircle
 10
-143.650058
 20
37.507529
 30
0.0
 40
3.0
100
AcDbArc
 50
252.175397
 51
360.0
  0
ARC
  5
82
100
AcDbEntity
  8
2
370
    50
100
AcDbCircle
 10
-142.119537
 20
42.267519
 30
0.0
 40
8.0
100
AcDbArc
 50
187.637519
 51
252.175397
  0
ARC
  5
83
100
AcDbEntity
  8
2
370
    50
100
AcDbCircle
 10
-142.447049
 20
41.007529
 30
0.0
 40
8.0
100
AcDbArc
 50
188.388164
 51
270.0
  0
LINE
  5
84
100
AcDbEntity
  8
2
370
    50
100
AcDbLine
 10
-109.852989
 20
33.007529
 30
0.0
 11
-142.447049
 21
33.007529
 31
0.0
  0
ARC
  5
85
100
AcDbEntity
  8
2
370
    50
100
AcDbCircle
 10
-109.852989
 20
41.007529
 30
0.0
 40
8.0
100
AcDbArc
 50
270.0
 51
351.611836
  0
ARC
  5
86
100
AcDbEntity
  8
2
370
    50
100
AcDbCircle
 10
-200.868818
 20
54.428367
 30
0.0
 40
100.0
100
AcDbArc
 50
351.611836
 51
11.462348
  0
ARC
  5
87
100
AcDbEntity
  8
2
370
    50
100
AcDbCircle
 10
-111.683766
 20
72.512244
 30
0.0
 40
9.0
100
AcDbArc
 50
11.462348
 51
83.65993
  0
ARC
  5
88
100
AcDbEntity
  8
2
370
    50
100
AcDbCircle
 10
-111.683766
 20
72.512244
 30
0.0
 40
9.0
100
AcDbArc
 50
11.462348
 51
83.65993
  0
ARC
  5
89
100
AcDbEntity
  8
2
370
    50
100
AcDbCircle
 10
-126.150019
 20
-57.686556
 30
0.0
 40
140.0
100
AcDbArc
 50
83.65993
 51
86.211626
  0
LINE
  5
8A
100
AcDbEntity
  8
2
370
    50
100
AcDbLine
 10
-116.900019
 20
82.007529
 30
0.0
 11
-126.150058
 21
82.007529
 31
0.0
  0
LINE
  5
8B
100
AcDbEntity
  8
2
370
    50
100
AcDbLine
 10
-126.150058
 20
82.007529
 30
0.0
 11
-135.400019
 21
82.007529
 31
0.0
  0
ARC
  5
8C
100
AcDbEntity
  8
2
370
    50
100
AcDbCircle
 10
-126.150019
 20
-57.686556
 30
0.0
 40
140.0
100
AcDbArc
 50
93.788374
 51
96.34007
  0
ARC
  5
8D
100
AcDbEntity
  8
2
370
    50
100
AcDbCircle
 10
-126.150019
 20
-57.686556
 30
0.0
 40
140.0
100
AcDbArc
 50
93.788374
 51
96.34007
  0
ARC
  5
8E
100
AcDbEntity
  8
2
370
    50
100
AcDbCircle
 10
-126.150019
 20
4.007529
 30
0.0
 40
80.0
100
AcDbArc
 50
84.370157
 51
95.629843
  0
ARC
  5
8F
100
AcDbEntity
  8
2
370
    50
100
AcDbCircle
 10
-133.900019
 20
82.626468
 30
0.0
 40
1.0
100
AcDbArc
 50
95.629843
 51
180.0
  0
ARC
  5
90
100
AcDbEntity
  8
2
370
    50
100
AcDbCircle
 10
-118.400019
 20
82.626468
 30
0.0
 40
1.0
100
AcDbArc
 50
0.0
 51
84.370157
  0
ARC
  5
91
100
AcDbEntity
  8
2
370
    50
100
AcDbCircle
 10
-126.150058
 20
71.587609
 30
0.0
 40
8.91992
100
AcDbArc
 50
9.155483
 51
170.844517
  0
ARC
  5
92
100
AcDbEntity
  8
2
370
    50
100
AcDbCircle
 10
-16.485117
 20
53.913194
 30
0.0
 40
120.0
100
AcDbArc
 50
170.844517
 51
184.940428
  0
ARC
  5
93
100
AcDbEntity
  8
2
370
    50
100
AcDbCircle
 10
-235.814998
 20
53.913194
 30
0.0
 40
120.0
100
AcDbArc
 50
355.059572
 51
9.155483
  0
ARC
  5
94
100
AcDbEntity
  8
2
370
    50
100
AcDbCircle
 10
-126.150058
 20
44.43364
 30
0.0
 40
9.926111
100
AcDbArc
 50
184.940428
 51
355.059572
  0
LINE
  5
95
100
AcDbEntity
  8
2
370
    50
100
AcDbLine
 10
-111.650058
 20
78.507529
 30
0.0
 11
-111.650058
 21
37.507529
 31
0.0
  0
ARC
  5
96
100
AcDbEntity
  8
2
370
    50
100
AcDbCircle
 10
-109.650058
 20
78.507529
 30
0.0
 40
2.0
100
AcDbArc
 50
74.882653
 51
180.0
  0
ARC
  5
97
100
AcDbEntity
  8
2
370
    50
100
AcDbCircle
 10
-111.214839
 20
72.715167
 30
0.0
 40
8.0
100
AcDbArc
 50
11.528523
 51
74.882653
  0
ARC
  5
98
100
AcDbEntity
  8
2
370
    50
100
AcDbCircle
 10
-200.868857
 20
54.428367
 30
0.0
 40
99.5
100
AcDbArc
 50
352.362481
 51
11.528523
  0
ARC
  5
99
100
AcDbEntity
  8
2
370
    50
100
AcDbCircle
 10
-110.180578
 20
42.267519
 30
0.0
 40
8.0
100
AcDbArc
 50
287.824603
 51
352.362481
  0
ARC
  5
9A
100
AcDbEntity
  8
2
370
    50
100
AcDbCircle
 10
-110.180578
 20
42.267519
 30
0.0
 40
8.0
100
AcDbArc
 50
287.824603
 51
352.362481
  0
ARC
  5
9B
100
AcDbEntity
  8
2
370
    50
100
AcDbCircle
 10
-108.650058
 20
37.507529
 30
0.0
 40
3.0
100
AcDbArc
 50
180.0
 51
287.824603
  0
LINE
  5
9C
100
AcDbEntity
  8
2
370
    50
100
AcDbLine
 10
-126.150058
 20
82.007529
 30
0.0
 11
-135.400019
 21
82.007529
 31
0.0
  0
LINE
  5
9D
100
AcDbEntity
  8
2
370
    50
100
AcDbLine
 10
-117.400019
 20
82.626468
 30
0.0
 11
-117.400019
 21
82.007529
 31
0.0
  0
ARC
  5
9E
100
AcDbEntity
  8
2
370
    50
100
AcDbCircle
 10
-126.150019
 20
-57.686556
 30
0.0
 40
140.0
100
AcDbArc
 50
83.65993
 51
86.211626
  0
ARC
  5
9F
100
AcDbEntity
  8
2
370
    50
100
AcDbCircle
 10
-133.900019
 20
82.626468
 30
0.0
 40
1.0
100
AcDbArc
 50
95.629843
 51
180.0
  0
ARC
  5
A0
100
AcDbEntity
  8
2
370
    50
100
AcDbCircle
 10
-133.900019
 20
82.626468
 30
0.0
 40
1.0
100
AcDbArc
 50
95.629843
 51
180.0
  0
LINE
  5
A1
100
AcDbEntity
  8
2
370
    50
100
AcDbLine
 10
-134.900019
 20
82.626468
 30
0.0
 11
-134.900019
 21
82.007529
 31
0.0
  0
POINT
  5
A2
100
AcDbEntity
  8
2
370
    50
100
AcDbPoint
 10
-126.150058
 20
84.007529
 30
0.0
  0
POINT
  5
A3
100
AcDbEntity
  8
2
370
    50
100
AcDbPoint
 10
-126.150058
 20
12.007529
 30
0.0
  0
POINT
  5
A4
100
AcDbEntity
  8
2
370
    50
100
AcDbPoint
 10
-289.435442
 20
-21.276471
 30
0.0
  0
LINE
  5
A5
100
AcDbEntity
  8
2
370
    50
100
AcDbLine
 10
194.349942
 20
33.007529
 30
0.0
 11
218.349942
 21
33.007529
 31
0.0
  0
ARC
  5
A6
100
AcDbEntity
  8
2
370
    50
100
AcDbCircle
 10
281.06878
 20
54.428367
 30
0.0
 40
100.0
100
AcDbArc
 50
168.537652
 51
188.388164
  0
ARC
  5
A7
100
AcDbEntity
  8
2
370
    50
100
AcDbCircle
 10
281.068741
 20
54.428367
 30
0.0
 40
99.5
100
AcDbArc
 50
168.471477
 51
187.637519
  0
ARC
  5
A8
100
AcDbEntity
  8
2
370
    50
100
AcDbCircle
 10
191.883728
 20
72.512244
 30
0.0
 40
9.0
100
AcDbArc
 50
96.34007
 51
168.537652
  0
ARC
  5
A9
100
AcDbEntity
  8
2
370
    50
100
AcDbCircle
 10
191.414723
 20
72.715167
 30
0.0
 40
8.0
100
AcDbArc
 50
105.117347
 51
168.471477
  0
ARC
  5
AA
100
AcDbEntity
  8
2
370
    50
100
AcDbCircle
 10
189.849942
 20
78.507529
 30
0.0
 40
2.0
100
AcDbArc
 50
0.0
 51
105.117347
  0
LINE
  5
AB
100
AcDbEntity
  8
2
370
    50
100
AcDbLine
 10
191.849942
 20
78.507529
 30
0.0
 11
191.849942
 21
37.507529
 31
0.0
  0
ARC
  5
AC
100
AcDbEntity
  8
2
370
    50
100
AcDbCircle
 10
188.849942
 20
37.507529
 30
0.0
 40
3.0
100
AcDbArc
 50
252.175397
 51
360.0
  0
ARC
  5
AD
100
AcDbEntity
  8
2
370
    50
100
AcDbCircle
 10
188.849942
 20
37.507529
 30
0.0
 40
3.0
100
AcDbArc
 50
252.175397
 51
360.0
  0
ARC
  5
AE
100
AcDbEntity
  8
2
370
    50
100
AcDbCircle
 10
190.380463
 20
42.267519
 30
0.0
 40
8.0
100
AcDbArc
 50
187.637519
 51
252.175397
  0
ARC
  5
AF
100
AcDbEntity
  8
2
370
    50
100
AcDbCircle
 10
190.052951
 20
41.007529
 30
0.0
 40
8.0
100
AcDbArc
 50
188.388164
 51
270.0
  0
LINE
  5
B0
100
AcDbEntity
  8
2
370
    50
100
AcDbLine
 10
222.647011
 20
33.007529
 30
0.0
 11
190.052951
 21
33.007529
 31
0.0
  0
ARC
  5
B1
100
AcDbEntity
  8
2
370
    50
100
AcDbCircle
 10
222.647011
 20
41.007529
 30
0.0
 40
8.0
100
AcDbArc
 50
270.0
 51
351.611836
  0
ARC
  5
B2
100
AcDbEntity
  8
2
370
    50
100
AcDbCircle
 10
131.631182
 20
54.428367
 30
0.0
 40
100.0
100
AcDbArc
 50
351.611836
 51
11.462348
  0
ARC
  5
B3
100
AcDbEntity
  8
2
370
    50
100
AcDbCircle
 10
220.816234
 20
72.512244
 30
0.0
 40
9.0
100
AcDbArc
 50
11.462348
 51
83.65993
  0
ARC
  5
B4
100
AcDbEntity
  8
2
370
    50
100
AcDbCircle
 10
206.349981
 20
-57.686556
 30
0.0
 40
140.0
100
AcDbArc
 50
83.65993
 51
86.211626
  0
LINE
  5
B5
100
AcDbEntity
  8
2
370
    50
100
AcDbLine
 10
215.599981
 20
82.007529
 30
0.0
 11
206.349942
 21
82.007529
 31
0.0
  0
LINE
  5
B6
100
AcDbEntity
  8
2
370
    50
100
AcDbLine
 10
206.349942
 20
82.007529
 30
0.0
 11
197.099981
 21
82.007529
 31
0.0
  0
ARC
  5
B7
100
AcDbEntity
  8
2
370
    50
100
AcDbCircle
 10
206.349981
 20
-57.686556
 30
0.0
 40
140.0
100
AcDbArc
 50
93.788374
 51
96.34007
  0
ARC
  5
B8
100
AcDbEntity
  8
2
370
    50
100
AcDbCircle
 10
206.349981
 20
-57.686556
 30
0.0
 40
140.0
100
AcDbArc
 50
93.788374
 51
96.34007
  0
ARC
  5
B9
100
AcDbEntity
  8
2
370
    50
100
AcDbCircle
 10
206.349981
 20
4.007529
 30
0.0
 40
80.0
100
AcDbArc
 50
84.370157
 51
95.629843
  0
ARC
  5
BA
100
AcDbEntity
  8
2
370
    50
100
AcDbCircle
 10
198.599981
 20
82.626468
 30
0.0
 40
1.0
100
AcDbArc
 50
95.629843
 51
180.0
  0
ARC
  5
BB
100
AcDbEntity
  8
2
370
    50
100
AcDbCircle
 10
214.099981
 20
82.626468
 30
0.0
 40
1.0
100
AcDbArc
 50
0.0
 51
84.370157
  0
ARC
  5
BC
100
AcDbEntity
  8
2
370
    50
100
AcDbCircle
 10
206.349942
 20
71.587609
 30
0.0
 40
8.91992
100
AcDbArc
 50
9.155483
 51
170.844517
  0
ARC
  5
BD
100
AcDbEntity
  8
2
370
    50
100
AcDbCircle
 10
316.014883
 20
53.913194
 30
0.0
 40
120.0
100
AcDbArc
 50
170.844517
 51
184.940428
  0
ARC
  5
BE
100
AcDbEntity
  8
2
370
    50
100
AcDbCircle
 10
96.685002
 20
53.913194
 30
0.0
 40
120.0
100
AcDbArc
 50
355.059572
 51
9.155483
  0
ARC
  5
BF
100
AcDbEntity
  8
2
370
    50
100
AcDbCircle
 10
206.349942
 20
44.43364
 30
0.0
 40
9.926111
100
AcDbArc
 50
184.940428
 51
355.059572
  0
LINE
  5
C0
100
AcDbEntity
  8
2
370
    50
100
AcDbLine
 10
220.849942
 20
78.507529
 30
0.0
 11
220.849942
 21
37.507529
 31
0.0
  0
ARC
  5
C1
100
AcDbEntity
  8
2
370
    50
100
AcDbCircle
 10
222.849942
 20
78.507529
 30
0.0
 40
2.0
100
AcDbArc
 50
74.882653
 51
180.0
  0
ARC
  5
C2
100
AcDbEntity
  8
2
370
    50
100
AcDbCircle
 10
221.285161
 20
72.715167
 30
0.0
 40
8.0
100
AcDbArc
 50
11.528523
 51
74.882653
  0
ARC
  5
C3
100
AcDbEntity
  8
2
370
    50
100
AcDbCircle
 10
131.631143
 20
54.428367
 30
0.0
 40
99.5
100
AcDbArc
 50
352.362481
 51
11.528523
  0
ARC
  5
C4
100
AcDbEntity
  8
2
370
    50
100
AcDbCircle
 10
222.319422
 20
42.267519
 30
0.0
 40
8.0
100
AcDbArc
 50
287.824603
 51
352.362481
  0
ARC
  5
C5
100
AcDbEntity
  8
2
370
    50
100
AcDbCircle
 10
222.319422
 20
42.267519
 30
0.0
 40
8.0
100
AcDbArc
 50
287.824603
 51
352.362481
  0
ARC
  5
C6
100
AcDbEntity
  8
2
370
    50
100
AcDbCircle
 10
223.849942
 20
37.507529
 30
0.0
 40
3.0
100
AcDbArc
 50
180.0
 51
287.824603
  0
LINE
  5
C7
100
AcDbEntity
  8
2
370
    50
100
AcDbLine
 10
206.349942
 20
82.007529
 30
0.0
 11
197.099981
 21
82.007529
 31
0.0
  0
LINE
  5
C8
100
AcDbEntity
  8
2
370
    50
100
AcDbLine
 10
215.099981
 20
82.626468
 30
0.0
 11
215.099981
 21
82.007529
 31
0.0
  0
ARC
  5
C9
100
AcDbEntity
  8
2
370
    50
100
AcDbCircle
 10
206.349981
 20
-57.686556
 30
0.0
 40
140.0
100
AcDbArc
 50
83.65993
 51
86.211626
  0
ARC
  5
CA
100
AcDbEntity
  8
2
370
    50
100
AcDbCircle
 10
198.599981
 20
82.626468
 30
0.0
 40
1.0
100
AcDbArc
 50
95.629843
 51
180.0
  0
ARC
  5
CB
100
AcDbEntity
  8
2
370
    50
100
AcDbCircle
 10
198.599981
 20
82.626468
 30
0.0
 40
1.0
100
AcDbArc
 50
95.629843
 51
180.0
  0
LINE
  5
CC
100
AcDbEntity
  8
2
370
    50
100
AcDbLine
 10
197.599981
 20
82.626468
 30
0.0
 11
197.599981
 21
82.007529
 31
0.0
  0
POINT
  5
CD
100
AcDbEntity
  8
2
370
    50
100
AcDbPoint
 10
206.349942
 20
84.007529
 30
0.0
  0
LINE
  5
CE
100
AcDbEntity
  8
2
370
    50
100
AcDbLine
 10
-185.749722
 20
-81.992829
 30
0.0
 11
-201.549722
 21
-81.992829
 31
0.0
  0
LINE
  5
CF
100
AcDbEntity
  8
2
370
    50
100
AcDbLine
 10
-185.749722
 20
-76.992829
 30
0.0
 11
-201.549722
 21
-76.992829
 31
0.0
  0
LINE
  5
D0
100
AcDbEntity
  8
2
370
    50
100
AcDbLine
 10
-185.749722
 20
-19.992975
 30
0.0
 11
-185.749722
 21
-76.992829
 31
0.0
  0
LINE
  5
D1
100
AcDbEntity
  8
2
370
    50
100
AcDbLine
 10
-201.549722
 20
-19.992975
 30
0.0
 11
-201.549722
 21
-76.992829
 31
0.0
  0
ARC
  5
D2
100
AcDbEntity
  8
2
370
    50
100
AcDbCircle
 10
-193.649722
 20
-48.992829
 30
0.0
 40
7.9
100
AcDbArc
 50
0.0
 51
180.0
  0
ARC
  5
D3
100
AcDbEntity
  8
2
370
    50
100
AcDbCircle
 10
-198.427223
 20
-79.492829
 30
0.0
 40
4.0
100
AcDbArc
 50
141.317813
 51
218.682187
  0
ARC
  5
D4
100
AcDbEntity
  8
2
370
    50
100
AcDbCircle
 10
-188.872221
 20
-79.492829
 30
0.0
 40
4.0
100
AcDbArc
 50
321.317813
 51
38.682187
  0
LINE
  5
D5
100
AcDbEntity
  8
2
370
    50
100
AcDbLine
 10
-181.284949
 20
-9.992829
 30
0.0
 11
-180.643689
 21
-9.351569
 31
0.0
  0
LINE
  5
D6
100
AcDbEntity
  8
2
370
    50
100
AcDbLine
 10
-206.014949
 20
-9.992829
 30
0.0
 11
-206.656208
 21
-9.351569
 31
0.0
  0
POINT
  5
D7
100
AcDbEntity
  8
2
370
    50
100
AcDbPoint
 10
-97.865387
 20
-21.276471
 30
0.0
  0
POINT
  5
D8
100
AcDbEntity
  8
2
370
    50
100
AcDbPoint
 10
-193.649366
 20
-17.341796
 30
0.0
  0
CIRCLE
  5
D9
100
AcDbEntity
  8
2
370
    50
100
AcDbCircle
 10
-97.865787
 20
-21.276742
 30
0.0
 40
11.25
  0
LINE
  5
DA
100
AcDbEntity
  8
2
370
    50
100
AcDbLine
 10
-113.650058
 20
13.650277
 30
0.0
 11
-89.910835
 21
-13.321791
 31
0.0
  0
LINE
  5
DB
100
AcDbEntity
  8
2
370
    50
100
AcDbLine
 10
-105.820738
 20
-29.231693
 30
0.0
 11
-131.088542
 21
-6.992463
 31
0.0
  0
POINT
  5
DC
100
AcDbEntity
  8
2
370
    50
100
AcDbPoint
 10
-97.865787
 20
-21.276742
 30
0.0
  0
LINE
  5
DD
100
AcDbEntity
  8
2
370
    50
100
AcDbLine
 10
-121.251078
 20
-6.992471
 30
0.0
 11
-120.103364
 21
-6.992471
 31
0.0
  0
CIRCLE
  5
DE
100
AcDbEntity
  8
2
370
    50
100
AcDbCircle
 10
-97.865787
 20
-21.276742
 30
0.0
 40
10.0
  0
LINE
  5
DF
100
AcDbEntity
  8
2
370
    50
100
AcDbLine
 10
-107.865787
 20
-25.859318
 30
0.0
 11
-107.865787
 21
-16.694166
 31
0.0
  0
LINE
  5
E0
100
AcDbEntity
  8
2
370
    50
100
AcDbLine
 10
-87.865787
 20
-25.859318
 30
0.0
 11
-87.865787
 21
-16.694166
 31
0.0
  0
ARC
  5
E1
100
AcDbEntity
  8
2
370
    50
100
AcDbCircle
 10
-97.865787
 20
-21.276742
 30
0.0
 40
11.0
100
AcDbArc
 50
24.619977
 51
155.380023
  0
ARC
  5
E2
100
AcDbEntity
  8
2
370
    50
100
AcDbCircle
 10
-97.865787
 20
-21.276742
 30
0.0
 40
11.0
100
AcDbArc
 50
204.619977
 51
335.380023
  0
CIRCLE
  5
E3
100
AcDbEntity
  8
2
370
    50
100
AcDbCircle
 10
-97.865787
 20
-21.276742
 30
0.0
 40
4.5
  0
LINE
  5
E4
100
AcDbEntity
  8
2
370
    50
100
AcDbLine
 10
-98.865787
 20
-16.88926
 30
0.0
 11
-98.865787
 21
-25.664224
 31
0.0
  0
LINE
  5
E5
100
AcDbEntity
  8
2
370
    50
100
AcDbLine
 10
-96.865787
 20
-16.88926
 30
0.0
 11
-96.865787
 21
-25.664224
 31
0.0
  0
LINE
  5
E6
100
AcDbEntity
  8
2
370
    50
100
AcDbLine
 10
-79.480966
 20
-31.176281
 30
0.0
 11
-87.120875
 21
-17.94357
 31
0.0
  0
LINE
  5
E7
100
AcDbEntity
  8
2
370
    50
100
AcDbLine
 10
-87.966248
 20
-39.661562
 30
0.0
 11
-101.198958
 21
-32.021653
 31
0.0
  0
LINE
  5
E8
100
AcDbEntity
  8
2
370
    50
100
AcDbLine
 10
-87.966248
 20
-39.661562
 30
0.0
 11
-79.480966
 21
-31.176281
 31
0.0
  0
LINE
  5
E9
100
AcDbEntity
  8
2
370
    50
100
AcDbLine
 10
-86.905588
 20
-42.843543
 30
0.0
 11
-76.298986
 21
-32.236941
 31
0.0
  0
LINE
  5
EA
100
AcDbEntity
  8
2
370
    50
100
AcDbLine
 10
-76.298986
 20
-32.236941
 30
0.0
 11
-72.975584
 21
-35.560343
 31
0.0
  0
ARC
  5
EB
100
AcDbEntity
  8
2
370
    50
100
AcDbCircle
 10
-98.818481
 20
-20.324048
 30
0.0
 40
30.0
100
AcDbArc
 50
300.522488
 51
329.477512
  0
LINE
  5
EC
100
AcDbEntity
  8
2
370
    50
100
AcDbLine
 10
-86.905588
 20
-42.843543
 30
0.0
 11
-83.582186
 21
-46.166945
 31
0.0
  0
LINE
  5
ED
100
AcDbEntity
  8
2
370
    50
100
AcDbLine
 10
-84.07716
 20
-40.015116
 30
0.0
 11
-85.703506
 21
-38.38877
 31
0.0
  0
LINE
  5
EE
100
AcDbEntity
  8
2
370
    50
100
AcDbLine
 10
-79.127413
 20
-35.065368
 30
0.0
 11
-80.753759
 21
-33.439022
 31
0.0
  0
LINE
  5
EF
100
AcDbEntity
  8
2
370
    50
100
AcDbLine
 10
-80.576982
 20
-33.262246
 30
0.0
 11
-80.576982
 21
-32.272296
 31
0.0
  0
LINE
  5
F0
100
AcDbEntity
  8
2
370
    50
100
AcDbLine
 10
-85.880283
 20
-38.565547
 30
0.0
 11
-86.870232
 21
-38.565547
 31
0.0
  0
LINE
  5
F1
100
AcDbEntity
  8
2
370
    25
100
AcDbLine
 10
-86.375258
 20
-38.070572
 30
0.0
 11
-85.880283
 21
-38.565547
 31
0.0
  0
LINE
  5
F2
100
AcDbEntity
  8
2
370
    25
100
AcDbLine
 10
-81.071957
 20
-32.767271
 30
0.0
 11
-80.576982
 21
-33.262246
 31
0.0
  0
LINE
  5
F3
100
AcDbEntity
  8
2
370
    50
100
AcDbLine
 10
-80.576982
 20
-33.262246
 30
0.0
 11
-85.880283
 21
-38.565547
 31
0.0
  0
LINE
  5
F4
100
AcDbEntity
  8
2
370
    50
100
AcDbLine
 10
-77.006093
 20
-32.944048
 30
0.0
 11
-73.512989
 21
-36.437151
 31
0.0
  0
LINE
  5
F5
100
AcDbEntity
  8
2
370
    50
100
AcDbLine
 10
-77.713199
 20
-33.651154
 30
0.0
 11
-74.075737
 21
-37.288617
 31
0.0
  0
LINE
  5
F6
100
AcDbEntity
  8
2
370
    50
100
AcDbLine
 10
-78.420306
 20
-34.358261
 30
0.0
 11
-74.663303
 21
-38.115264
 31
0.0
  0
LINE
  5
F7
100
AcDbEntity
  8
2
370
    50
100
AcDbLine
 10
-79.127413
 20
-35.065368
 30
0.0
 11
-75.275266
 21
-38.917515
 31
0.0
  0
LINE
  5
F8
100
AcDbEntity
  8
2
370
    50
100
AcDbLine
 10
-79.83452
 20
-35.772475
 30
0.0
 11
-75.911296
 21
-39.695699
 31
0.0
  0
LINE
  5
F9
100
AcDbEntity
  8
2
370
    50
100
AcDbLine
 10
-80.541627
 20
-36.479582
 30
0.0
 11
-76.57115
 21
-40.450058
 31
0.0
  0
LINE
  5
FA
100
AcDbEntity
  8
2
370
    50
100
AcDbLine
 10
-86.198481
 20
-42.136436
 30
0.0
 11
-82.705377
 21
-45.629539
 31
0.0
  0
LINE
  5
FB
100
AcDbEntity
  8
2
370
    50
100
AcDbLine
 10
-85.491374
 20
-41.429329
 30
0.0
 11
-81.853911
 21
-45.066792
 31
0.0
  0
LINE
  5
FC
100
AcDbEntity
  8
2
370
    50
100
AcDbLine
 10
-84.784267
 20
-40.722222
 30
0.0
 11
-81.027264
 21
-44.479225
 31
0.0
  0
LINE
  5
FD
100
AcDbEntity
  8
2
370
    50
100
AcDbLine
 10
-84.07716
 20
-40.015116
 30
0.0
 11
-80.225013
 21
-43.867263
 31
0.0
  0
LINE
  5
FE
100
AcDbEntity
  8
2
370
    50
100
AcDbLine
 10
-83.370054
 20
-39.308009
 30
0.0
 11
-79.44683
 21
-43.231233
 31
0.0
  0
LINE
  5
FF
100
AcDbEntity
  8
2
370
    50
100
AcDbLine
 10
-82.662947
 20
-38.600902
 30
0.0
 11
-78.692471
 21
-42.571378
 31
0.0
  0
ARC
  5
100
100
AcDbEntity
  8
2
370
    50
100
AcDbCircle
 10
-97.865787
 20
-21.276742
 30
0.0
 40
12.5
100
AcDbArc
 50
202.567101
 51
268.627137
  0
ARC
  5
101
100
AcDbEntity
  8
2
370
    50
100
AcDbCircle
 10
-97.865787
 20
-21.276742
 30
0.0
 40
12.5
100
AcDbArc
 50
1.372863
 51
67.432899
  0
ARC
  5
102
100
AcDbEntity
  8
2
370
    50
100
AcDbCircle
 10
-97.865787
 20
-21.276742
 30
0.0
 40
23.0
100
AcDbArc
 50
167.866041
 51
306.247071
  0
ARC
  5
103
100
AcDbEntity
  8
2
370
    50
100
AcDbCircle
 10
-97.865787
 20
-21.276742
 30
0.0
 40
23.0
100
AcDbArc
 50
323.752929
 51
102.133959
  0
LINE
  5
104
100
AcDbEntity
  8
2
370
    50
100
AcDbLine
 10
-81.602287
 20
-37.540242
 30
0.0
 11
-77.605277
 21
-41.537251
 31
0.0
  0
POINT
  5
105
100
AcDbEntity
  8
2
370
    50
100
AcDbPoint
 10
-126.150058
 20
12.007529
 30
0.0
  0
LINE
  5
106
100
AcDbEntity
  8
2
370
    50
100
AcDbLine
 10
-111.002347
 20
8.770939
 30
0.0
 11
-113.65005
 21
13.356894
 31
0.0
  0
ARC
  5
107
100
AcDbEntity
  8
2
370
    50
100
AcDbCircle
 10
-126.15005
 20
7.007529
 30
0.0
 40
14.0
100
AcDbArc
 50
318.917667
 51
26.765501
  0
LINE
  5
108
100
AcDbEntity
  8
2
370
    50
100
AcDbLine
 10
-117.049041
 20
-5.229061
 30
0.0
 11
-111.002347
 21
5.244119
 31
0.0
  0
ARC
  5
109
100
AcDbEntity
  8
2
370
    50
100
AcDbCircle
 10
-126.15005
 20
7.007529
 30
0.0
 40
15.25
100
AcDbArc
 50
353.359838
 51
6.640162
  0
ARC
  5
10A
100
AcDbEntity
  8
2
370
    50
100
AcDbCircle
 10
-126.15005
 20
7.007529
 30
0.0
 40
15.25
100
AcDbArc
 50
293.359838
 51
306.640162
  0
POINT
  5
10B
100
AcDbEntity
  8
2
370
    50
100
AcDbPoint
 10
-261.148674
 20
12.007529
 30
0.0
  0
POINT
  5
10C
100
AcDbEntity
  8
2
370
    50
100
AcDbPoint
 10
-289.434729
 20
-21.276471
 30
0.0
  0
CIRCLE
  5
10D
100
AcDbEntity
  8
2
370
    50
100
AcDbCircle
 10
-289.434329
 20
-21.276742
 30
0.0
 40
11.25
  0
LINE
  5
10E
100
AcDbEntity
  8
2
370
    50
100
AcDbLine
 10
-273.650058
 20
13.650277
 30
0.0
 11
-297.38928
 21
-13.321791
 31
0.0
  0
LINE
  5
10F
100
AcDbEntity
  8
2
370
    50
100
AcDbLine
 10
-281.479378
 20
-29.231693
 30
0.0
 11
-256.211574
 21
-6.992463
 31
0.0
  0
POINT
  5
110
100
AcDbEntity
  8
2
370
    50
100
AcDbPoint
 10
-289.434329
 20
-21.276742
 30
0.0
  0
CIRCLE
  5
111
100
AcDbEntity
  8
2
370
    50
100
AcDbCircle
 10
-289.434329
 20
-21.276742
 30
0.0
 40
10.0
  0
LINE
  5
112
100
AcDbEntity
  8
2
370
    50
100
AcDbLine
 10
-279.434329
 20
-25.859318
 30
0.0
 11
-279.434329
 21
-16.694166
 31
0.0
  0
LINE
  5
113
100
AcDbEntity
  8
2
370
    50
100
AcDbLine
 10
-299.434329
 20
-25.859318
 30
0.0
 11
-299.434329
 21
-16.694166
 31
0.0
  0
ARC
  5
114
100
AcDbEntity
  8
2
370
    50
100
AcDbCircle
 10
-289.434329
 20
-21.276742
 30
0.0
 40
11.0
100
AcDbArc
 50
24.619977
 51
155.380023
  0
ARC
  5
115
100
AcDbEntity
  8
2
370
    50
100
AcDbCircle
 10
-289.434329
 20
-21.276742
 30
0.0
 40
11.0
100
AcDbArc
 50
204.619977
 51
335.380023
  0
CIRCLE
  5
116
100
AcDbEntity
  8
2
370
    50
100
AcDbCircle
 10
-289.434329
 20
-21.276742
 30
0.0
 40
4.5
  0
LINE
  5
117
100
AcDbEntity
  8
2
370
    50
100
AcDbLine
 10
-288.434329
 20
-16.88926
 30
0.0
 11
-288.434329
 21
-25.664224
 31
0.0
  0
LINE
  5
118
100
AcDbEntity
  8
2
370
    50
100
AcDbLine
 10
-290.434329
 20
-16.88926
 30
0.0
 11
-290.434329
 21
-25.664224
 31
0.0
  0
LINE
  5
119
100
AcDbEntity
  8
2
370
    50
100
AcDbLine
 10
-307.819149
 20
-31.176281
 30
0.0
 11
-300.17924
 21
-17.94357
 31
0.0
  0
LINE
  5
11A
100
AcDbEntity
  8
2
370
    50
100
AcDbLine
 10
-299.333868
 20
-39.661562
 30
0.0
 11
-286.101157
 21
-32.021653
 31
0.0
  0
LINE
  5
11B
100
AcDbEntity
  8
2
370
    50
100
AcDbLine
 10
-299.333868
 20
-39.661562
 30
0.0
 11
-307.819149
 21
-31.176281
 31
0.0
  0
LINE
  5
11C
100
AcDbEntity
  8
2
370
    50
100
AcDbLine
 10
-300.394528
 20
-42.843543
 30
0.0
 11
-311.00113
 21
-32.236941
 31
0.0
  0
LINE
  5
11D
100
AcDbEntity
  8
2
370
    50
100
AcDbLine
 10
-311.00113
 20
-32.236941
 30
0.0
 11
-314.324532
 21
-35.560343
 31
0.0
  0
ARC
  5
11E
100
AcDbEntity
  8
2
370
    50
100
AcDbCircle
 10
-288.481635
 20
-20.324048
 30
0.0
 40
30.0
100
AcDbArc
 50
210.522488
 51
239.477512
  0
LINE
  5
11F
100
AcDbEntity
  8
2
370
    50
100
AcDbLine
 10
-300.394528
 20
-42.843543
 30
0.0
 11
-303.71793
 21
-46.166945
 31
0.0
  0
LINE
  5
120
100
AcDbEntity
  8
2
370
    50
100
AcDbLine
 10
-303.222955
 20
-40.015116
 30
0.0
 11
-301.596609
 21
-38.38877
 31
0.0
  0
LINE
  5
121
100
AcDbEntity
  8
2
370
    50
100
AcDbLine
 10
-308.172703
 20
-35.065368
 30
0.0
 11
-306.546357
 21
-33.439022
 31
0.0
  0
LINE
  5
122
100
AcDbEntity
  8
2
370
    50
100
AcDbLine
 10
-306.723134
 20
-33.262246
 30
0.0
 11
-306.723134
 21
-32.272296
 31
0.0
  0
LINE
  5
123
100
AcDbEntity
  8
2
370
    50
100
AcDbLine
 10
-301.419833
 20
-38.565547
 30
0.0
 11
-300.429883
 21
-38.565547
 31
0.0
  0
LINE
  5
124
100
AcDbEntity
  8
2
370
    25
100
AcDbLine
 10
-300.924858
 20
-38.070572
 30
0.0
 11
-301.419833
 21
-38.565547
 31
0.0
  0
LINE
  5
125
100
AcDbEntity
  8
2
370
    25
100
AcDbLine
 10
-306.228159
 20
-32.767271
 30
0.0
 11
-306.723134
 21
-33.262246
 31
0.0
  0
LINE
  5
126
100
AcDbEntity
  8
2
370
    50
100
AcDbLine
 10
-306.723134
 20
-33.262246
 30
0.0
 11
-301.419833
 21
-38.565547
 31
0.0
  0
LINE
  5
127
100
AcDbEntity
  8
2
370
    50
100
AcDbLine
 10
-310.294023
 20
-32.944048
 30
0.0
 11
-313.787126
 21
-36.437151
 31
0.0
  0
LINE
  5
128
100
AcDbEntity
  8
2
370
    50
100
AcDbLine
 10
-309.586916
 20
-33.651154
 30
0.0
 11
-313.224379
 21
-37.288617
 31
0.0
  0
LINE
  5
129
100
AcDbEntity
  8
2
370
    50
100
AcDbLine
 10
-308.879809
 20
-34.358261
 30
0.0
 11
-312.636812
 21
-38.115264
 31
0.0
  0
LINE
  5
12A
100
AcDbEntity
  8
2
370
    50
100
AcDbLine
 10
-308.172703
 20
-35.065368
 30
0.0
 11
-312.02485
 21
-38.917515
 31
0.0
  0
LINE
  5
12B
100
AcDbEntity
  8
2
370
    50
100
AcDbLine
 10
-307.465596
 20
-35.772475
 30
0.0
 11
-311.38882
 21
-39.695699
 31
0.0
  0
LINE
  5
12C
100
AcDbEntity
  8
2
370
    50
100
AcDbLine
 10
-306.758489
 20
-36.479582
 30
0.0
 11
-310.728965
 21
-40.450058
 31
0.0
  0
LINE
  5
12D
100
AcDbEntity
  8
2
370
    50
100
AcDbLine
 10
-301.101635
 20
-42.136436
 30
0.0
 11
-304.594738
 21
-45.629539
 31
0.0
  0
LINE
  5
12E
100
AcDbEntity
  8
2
370
    50
100
AcDbLine
 10
-301.808742
 20
-41.429329
 30
0.0
 11
-305.446204
 21
-45.066792
 31
0.0
  0
LINE
  5
12F
100
AcDbEntity
  8
2
370
    50
100
AcDbLine
 10
-302.515848
 20
-40.722222
 30
0.0
 11
-306.272851
 21
-44.479225
 31
0.0
  0
LINE
  5
130
100
AcDbEntity
  8
2
370
    50
100
AcDbLine
 10
-303.222955
 20
-40.015116
 30
0.0
 11
-307.075102
 21
-43.867263
 31
0.0
  0
LINE
  5
131
100
AcDbEntity
  8
2
370
    50
100
AcDbLine
 10
-303.930062
 20
-39.308009
 30
0.0
 11
-307.853286
 21
-43.231233
 31
0.0
  0
LINE
  5
132
100
AcDbEntity
  8
2
370
    50
100
AcDbLine
 10
-304.637169
 20
-38.600902
 30
0.0
 11
-308.607645
 21
-42.571378
 31
0.0
  0
ARC
  5
133
100
AcDbEntity
  8
2
370
    50
100
AcDbCircle
 10
-289.434329
 20
-21.276742
 30
0.0
 40
12.5
100
AcDbArc
 50
271.372863
 51
337.432899
  0
ARC
  5
134
100
AcDbEntity
  8
2
370
    50
100
AcDbCircle
 10
-289.434329
 20
-21.276742
 30
0.0
 40
12.5
100
AcDbArc
 50
112.567101
 51
178.627137
  0
ARC
  5
135
100
AcDbEntity
  8
2
370
    50
100
AcDbCircle
 10
-289.434329
 20
-21.276742
 30
0.0
 40
23.0
100
AcDbArc
 50
233.752929
 51
12.133959
  0
ARC
  5
136
100
AcDbEntity
  8
2
370
    50
100
AcDbCircle
 10
-289.434329
 20
-21.276742
 30
0.0
 40
23.0
100
AcDbArc
 50
77.866041
 51
216.247071
  0
LINE
  5
137
100
AcDbEntity
  8
2
370
    50
100
AcDbLine
 10
-305.697829
 20
-37.540242
 30
0.0
 11
-309.694838
 21
-41.537251
 31
0.0
  0
POINT
  5
138
100
AcDbEntity
  8
2
370
    50
100
AcDbPoint
 10
206.349634
 20
-20.271318
 30
0.0
  0
POINT
  5
139
100
AcDbEntity
  8
2
370
    50
100
AcDbPoint
 10
206.349634
 20
-20.271318
 30
0.0
  0
LINE
  5
13A
100
AcDbEntity
  8
2
370
    25
  6
CENTER
100
AcDbLine
 10
206.349634
 20
89.88373
 30
0.0
 11
206.349634
 21
-21.092975
 31
0.0
  0
LINE
  5
13B
100
AcDbEntity
  8
2
370
    50
100
AcDbLine
 10
243.349634
 20
-5.167975
 30
0.0
 11
243.349634
 21
19.183034
 31
0.0
  0
LINE
  5
13C
100
AcDbEntity
  8
2
370
    50
100
AcDbLine
 10
230.349634
 20
22.257529
 30
0.0
 11
241.349634
 21
22.257529
 31
0.0
  0
LINE
  5
13D
100
AcDbEntity
  8
2
370
    50
100
AcDbLine
 10
230.349634
 20
-8.242471
 30
0.0
 11
241.349634
 21
-8.242471
 31
0.0
  0
LINE
  5
13E
100
AcDbEntity
  8
2
370
    50
100
AcDbLine
 10
243.349634
 20
20.007529
 30
0.0
 11
250.349634
 21
20.007529
 31
0.0
  0
LINE
  5
13F
100
AcDbEntity
  8
2
370
    50
100
AcDbLine
 10
243.349634
 20
-5.992471
 30
0.0
 11
250.349634
 21
-5.992471
 31
0.0
  0
LINE
  5
140
100
AcDbEntity
  8
2
370
    50
100
AcDbLine
 10
243.349634
 20
19.107529
 30
0.0
 11
246.349634
 21
19.107529
 31
0.0
  0
LINE
  5
141
100
AcDbEntity
  8
2
370
    50
100
AcDbLine
 10
246.349634
 20
19.107529
 30
0.0
 11
247.90848
 21
20.007529
 31
0.0
  0
LINE
  5
142
100
AcDbEntity
  8
2
370
    50
100
AcDbLine
 10
243.349634
 20
-5.092471
 30
0.0
 11
246.349634
 21
-5.092471
 31
0.0
  0
LINE
  5
143
100
AcDbEntity
  8
2
370
    50
100
AcDbLine
 10
246.349634
 20
-5.092471
 30
0.0
 11
247.90848
 21
-5.992471
 31
0.0
  0
LINE
  5
144
100
AcDbEntity
  8
2
370
    50
100
AcDbLine
 10
246.349634
 20
-5.092471
 30
0.0
 11
247.90848
 21
-5.992471
 31
0.0
  0
LINE
  5
145
100
AcDbEntity
  8
2
370
    50
100
AcDbLine
 10
243.349634
 20
-5.992471
 30
0.0
 11
250.349634
 21
-5.992471
 31
0.0
  0
LINE
  5
146
100
AcDbEntity
  8
2
370
    50
100
AcDbLine
 10
246.349634
 20
19.107529
 30
0.0
 11
246.349634
 21
-5.092471
 31
0.0
  0
LINE
  5
147
100
AcDbEntity
  8
2
370
    50
100
AcDbLine
 10
241.349634
 20
-2.09348
 30
0.0
 11
230.349634
 21
-2.09348
 31
0.0
  0
LINE
  5
148
100
AcDbEntity
  8
2
370
    50
100
AcDbLine
 10
241.349634
 20
0.960836
 30
0.0
 11
230.349634
 21
0.960836
 31
0.0
  0
LINE
  5
149
100
AcDbEntity
  8
2
370
    50
100
AcDbLine
 10
241.349634
 20
13.054223
 30
0.0
 11
230.349634
 21
13.054223
 31
0.0
  0
LINE
  5
14A
100
AcDbEntity
  8
2
370
    50
100
AcDbLine
 10
241.349634
 20
16.108538
 30
0.0
 11
230.349634
 21
16.108538
 31
0.0
  0
ARC
  5
14B
100
AcDbEntity
  8
2
370
    50
100
AcDbCircle
 10
233.209009
 20
7.007529
 30
0.0
 40
10.140625
100
AcDbArc
 50
323.395774
 51
36.604226
  0
ARC
  5
14C
100
AcDbEntity
  8
2
370
    50
100
AcDbCircle
 10
239.986504
 20
-5.167975
 30
0.0
 40
3.363131
100
AcDbArc
 50
293.910931
 51
66.089069
  0
LINE
  5
14D
100
AcDbEntity
  8
2
370
    50
100
AcDbLine
 10
241.349634
 20
16.108538
 30
0.0
 11
241.349634
 21
13.054223
 31
0.0
  0
LINE
  5
14E
100
AcDbEntity
  8
2
370
    50
100
AcDbLine
 10
241.349634
 20
0.960836
 30
0.0
 11
241.349634
 21
-2.09348
 31
0.0
  0
ARC
  5
14F
100
AcDbEntity
  8
2
370
    50
100
AcDbCircle
 10
239.986504
 20
19.183034
 30
0.0
 40
3.363131
100
AcDbArc
 50
293.910931
 51
66.089069
  0
LINE
  5
150
100
AcDbEntity
  8
2
370
    50
100
AcDbLine
 10
228.349634
 20
-5.167975
 30
0.0
 11
228.349634
 21
19.183034
 31
0.0
  0
ARC
  5
151
100
AcDbEntity
  8
2
370
    50
100
AcDbCircle
 10
231.712765
 20
19.183034
 30
0.0
 40
3.363131
100
AcDbArc
 50
113.910931
 51
246.089069
  0
LINE
  5
152
100
AcDbEntity
  8
2
370
    50
100
AcDbLine
 10
230.349634
 20
16.108538
 30
0.0
 11
230.349634
 21
13.054223
 31
0.0
  0
ARC
  5
153
100
AcDbEntity
  8
2
370
    50
100
AcDbCircle
 10
238.490259
 20
7.007529
 30
0.0
 40
10.140625
100
AcDbArc
 50
143.395774
 51
216.604226
  0
LINE
  5
154
100
AcDbEntity
  8
2
370
    50
100
AcDbLine
 10
230.349634
 20
0.960836
 30
0.0
 11
230.349634
 21
-2.09348
 31
0.0
  0
ARC
  5
155
100
AcDbEntity
  8
2
370
    50
100
AcDbCircle
 10
231.712765
 20
-5.167975
 30
0.0
 40
3.363131
100
AcDbArc
 50
113.910931
 51
246.089069
  0
POINT
  5
156
100
AcDbEntity
  8
2
370
    50
100
AcDbPoint
 10
228.349634
 20
7.007529
 30
0.0
  0
LINE
  5
157
100
AcDbEntity
  8
2
370
    50
100
AcDbLine
 10
218.849634
 20
31.374668
 30
0.0
 11
218.849634
 21
33.007529
 31
0.0
  0
LINE
  5
158
100
AcDbEntity
  8
2
370
    50
100
AcDbLine
 10
193.849634
 20
33.007529
 30
0.0
 11
193.849634
 21
14.507171
 31
0.0
  0
POINT
  5
159
100
AcDbEntity
  8
2
370
    50
100
AcDbPoint
 10
36.349634
 20
-81.993122
 30
0.0
  0
POINT
  5
15A
100
AcDbEntity
  8
2
370
    50
100
AcDbPoint
 10
36.349634
 20
-81.993122
 30
0.0
  0
LINE
  5
15B
100
AcDbEntity
  8
2
370
    50
100
AcDbLine
 10
29.278372
 20
-81.993122
 30
0.0
 11
43.420896
 21
-81.993122
 31
0.0
  0
POINT
  5
15C
100
AcDbEntity
  8
2
370
    50
100
AcDbPoint
 10
36.349634
 20
-81.993122
 30
0.0
  0
LINE
  5
15D
100
AcDbEntity
  8
2
370
    25
  6
CENTER
100
AcDbLine
 10
66.249634
 20
-48.993122
 30
0.0
 11
176.449634
 21
-48.993122
 31
0.0
  0
LINE
  5
15E
100
AcDbEntity
  8
2
370
    25
  6
CENTER
100
AcDbLine
 10
36.349634
 20
-85.009592
 30
0.0
 11
36.349634
 21
-78.893122
 31
0.0
  0
LINE
  5
15F
100
AcDbEntity
  8
2
370
    50
100
AcDbLine
 10
66.249634
 20
-41.093122
 30
0.0
 11
176.449634
 21
-41.093122
 31
0.0
  0
LINE
  5
160
100
AcDbEntity
  8
2
370
    50
100
AcDbLine
 10
66.249634
 20
-56.893122
 30
0.0
 11
176.449634
 21
-56.893122
 31
0.0
  0
LINE
  5
161
100
AcDbEntity
  8
2
370
    50
100
AcDbLine
 10
28.599634
 20
-81.993122
 30
0.0
 11
44.099634
 21
-81.993122
 31
0.0
  0
ARC
  5
162
100
AcDbEntity
  8
2
370
    50
100
AcDbCircle
 10
66.249634
 20
-78.893122
 30
0.0
 40
22.0
100
AcDbArc
 50
90.0
 51
175.040397
  0
ARC
  5
163
100
AcDbEntity
  8
2
370
    50
100
AcDbCircle
 10
66.249634
 20
-78.893122
 30
0.0
 40
37.8
100
AcDbArc
 50
90.0
 51
176.841576
  0
ARC
  5
164
100
AcDbEntity
  8
2
370
    25
  6
CENTER
100
AcDbCircle
 10
66.249634
 20
-78.893122
 30
0.0
 40
29.9
100
AcDbArc
 50
90.0
 51
180.0
  0
ARC
  5
165
100
AcDbEntity
  8
2
370
    50
100
AcDbCircle
 10
41.099634
 20
-79.34737
 30
0.0
 40
4.0
100
AcDbArc
 50
318.590378
 51
36.090016
  0
ARC
  5
166
100
AcDbEntity
  8
2
370
    50
100
AcDbCircle
 10
31.599634
 20
-79.34737
 30
0.0
 40
4.0
100
AcDbArc
 50
140.6372
 51
221.409622
  0
ARC
  5
167
100
AcDbEntity
  8
2
370
    50
100
AcDbCircle
 10
176.449634
 20
-19.093122
 30
0.0
 40
22.0
100
AcDbArc
 50
270.0
 51
357.655809
  0
ARC
  5
168
100
AcDbEntity
  8
2
370
    50
100
AcDbCircle
 10
176.449634
 20
-19.093122
 30
0.0
 40
37.8
100
AcDbArc
 50
270.0
 51
358.570263
  0
ARC
  5
169
100
AcDbEntity
  8
2
370
    25
  6
CENTER
100
AcDbCircle
 10
176.449634
 20
-19.093122
 30
0.0
 40
29.9
100
AcDbArc
 50
270.0
 51
360.0
  0
LINE
  5
16A
100
AcDbEntity
  8
2
370
    50
100
AcDbLine
 10
28.507052
 20
-76.810456
 30
0.0
 11
44.348435
 21
-76.810456
 31
0.0
  0
POINT
  5
16B
100
AcDbEntity
  8
2
370
    50
100
AcDbPoint
 10
-193.649366
 20
-2.992965
 30
0.0
  0
POINT
  5
16C
100
AcDbEntity
  8
2
370
    50
100
AcDbPoint
 10
-193.649366
 20
-2.992965
 30
0.0
  0
LINE
  5
16D
100
AcDbEntity
  8
2
370
    50
100
AcDbLine
 10
-193.649366
 20
-19.992975
 30
0.0
 11
-204.149443
 21
-19.992975
 31
0.0
  0
LINE
  5
16E
100
AcDbEntity
  8
2
370
    50
100
AcDbLine
 10
-193.649366
 20
-9.992975
 30
0.0
 11
-207.099443
 21
-9.992975
 31
0.0
  0
ARC
  5
16F
100
AcDbEntity
  8
2
370
    50
100
AcDbCircle
 10
-203.301122
 20
-14.307596
 30
0.0
 40
5.74832
100
AcDbArc
 50
131.35866
 51
261.513458
  0
ELLIPSE
  5
170
100
AcDbEntity
  8
2
370
    50
100
AcDbEllipse
 10
-205.784995
 20
-14.242975
 30
0.0
 11
0.0
 21
-4.0
 31
0.0
210
0.0
220
0.0
230
1.0
 40
0.810375
 41
0.0
 42
6.2831849999999996
  0
ELLIPSE
  5
171
100
AcDbEntity
  8
2
370
    50
100
AcDbEllipse
 10
-193.649443
 20
-14.242975
 30
0.0
 11
-6.4154999999999998
 21
0.0
 31
0.0
210
0.0
220
0.0
230
1.0
 40
0.62349
 41
0.0
 42
6.2831849999999996
  0
LINE
  5
172
100
AcDbEntity
  8
2
370
    50
100
AcDbLine
 10
-193.649366
 20
-19.992975
 30
0.0
 11
-183.149289
 21
-19.992975
 31
0.0
  0
LINE
  5
173
100
AcDbEntity
  8
2
370
    50
100
AcDbLine
 10
-193.649366
 20
-9.992975
 30
0.0
 11
-180.199289
 21
-9.992975
 31
0.0
  0
ARC
  5
174
100
AcDbEntity
  8
2
370
    50
100
AcDbCircle
 10
-183.99761
 20
-14.307596
 30
0.0
 40
5.74832
100
AcDbArc
 50
278.486542
 51
48.64134
  0
ELLIPSE
  5
175
100
AcDbEntity
  8
2
370
    50
100
AcDbEllipse
 10
-181.513737
 20
-14.242975
 30
0.0
 11
0.0
 21
-4.0
 31
0.0
210
0.0
220
0.0
230
1.0
 40
0.810375
 41
0.0
 42
6.2831849999999996
  0
LINE
  5
176
100
AcDbEntity
  8
2
370
    50
100
AcDbLine
 10
-193.649366
 20
-17.341796
 30
0.0
 11
-193.649366
 21
-19.862648
 31
0.0
  0
LINE
  5
177
100
AcDbEntity
  8
2
370
    50
100
AcDbLine
 10
-218.650058
 20
3.257529
 30
0.0
 11
-234.486647
 21
3.257529
 31
0.0
  0
LINE
  5
178
100
AcDbEntity
  8
2
370
    50
100
AcDbLine
 10
-248.650058
 20
32.757529
 30
0.0
 11
-248.650058
 21
33.007529
 31
0.0
  0
LINE
  5
179
100
AcDbEntity
  8
2
370
    50
100
AcDbLine
 10
-206.650058
 20
-8.742471
 30
0.0
 11
-206.650058
 21
-9.992975
 31
0.0
  0
LINE
  5
17A
100
AcDbEntity
  8
2
370
    50
100
AcDbLine
 10
-273.650058
 20
33.007529
 30
0.0
 11
-273.650058
 21
9.507529
 31
0.0
  0
ARC
  5
17B
100
AcDbEntity
  8
2
370
    50
100
AcDbCircle
 10
-218.650058
 20
-8.742471
 30
0.0
 40
12.0
100
AcDbArc
 50
0.0
 51
90.0
  0
ARC
  5
17C
100
AcDbEntity
  8
2
370
    50
100
AcDbCircle
 10
-261.150058
 20
9.507529
 30
0.0
 40
12.5
100
AcDbArc
 50
180.0
 51
270.0
  0
LINE
  5
17D
100
AcDbEntity
  8
2
370
    50
100
AcDbLine
 10
-168.650058
 20
3.257529
 30
0.0
 11
-152.813469
 21
3.257529
 31
0.0
  0
LINE
  5
17E
100
AcDbEntity
  8
2
370
    50
100
AcDbLine
 10
-138.650058
 20
32.757529
 30
0.0
 11
-138.650058
 21
33.007529
 31
0.0
  0
LINE
  5
17F
100
AcDbEntity
  8
2
370
    50
100
AcDbLine
 10
-180.650058
 20
-8.742471
 30
0.0
 11
-180.650058
 21
-9.992975
 31
0.0
  0
LINE
  5
180
100
AcDbEntity
  8
2
370
    50
100
AcDbLine
 10
-113.650058
 20
33.007529
 30
0.0
 11
-113.650058
 21
9.507529
 31
0.0
  0
ARC
  5
181
100
AcDbEntity
  8
2
370
    50
100
AcDbCircle
 10
-168.650058
 20
-8.742471
 30
0.0
 40
12.0
100
AcDbArc
 50
90.0
 51
180.0
  0
ARC
  5
182
100
AcDbEntity
  8
2
370
    50
100
AcDbCircle
 10
-193.650058
 20
-477.433611
 30
0.0
 40
500.0
100
AcDbArc
 50
85.182375
 51
94.817625
  0
ARC
  5
183
100
AcDbEntity
  8
2
370
    50
100
AcDbCircle
 10
-236.650058
 20
32.757529
 30
0.0
 40
12.0
100
AcDbArc
 50
180.0
 51
274.817625
  0
ARC
  5
184
100
AcDbEntity
  8
2
370
    50
100
AcDbCircle
 10
-150.650058
 20
32.757529
 30
0.0
 40
12.0
100
AcDbArc
 50
265.182375
 51
360.0
  0
ARC
  5
185
100
AcDbEntity
  8
2
370
    50
100
AcDbCircle
 10
-126.150058
 20
9.507529
 30
0.0
 40
12.5
100
AcDbArc
 50
270.0
 51
360.0
  0
ARC
  5
186
100
AcDbEntity
  8
2
370
    50
100
AcDbCircle
 10
-152.813469
 20
-26.742471
 30
0.0
 40
30.0
100
AcDbArc
 50
63.61567
 51
90.0
  0
ARC
  5
187
100
AcDbEntity
  8
2
370
    50
100
AcDbCircle
 10
-126.150058
 20
27.007529
 30
0.0
 40
30.0
100
AcDbArc
 50
243.61567
 51
270.0
  0
ARC
  5
188
100
AcDbEntity
  8
2
370
    50
100
AcDbCircle
 10
-234.486647
 20
-26.742471
 30
0.0
 40
30.0
100
AcDbArc
 50
90.0
 51
116.38433
  0
ARC
  5
189
100
AcDbEntity
  8
2
370
    50
100
AcDbCircle
 10
-261.150058
 20
27.007529
 30
0.0
 40
30.0
100
AcDbArc
 50
270.0
 51
296.38433
  0
LINE
  5
18A
100
AcDbEntity
  8
2
370
    50
100
AcDbLine
 10
218.837219
 20
26.375026
 30
0.0
 11
218.837219
 21
33.007529
 31
0.0
  0
LINE
  5
18B
100
AcDbEntity
  8
2
370
    50
100
AcDbLine
 10
193.837219
 20
33.007529
 30
0.0
 11
193.837219
 21
9.507529
 31
0.0
  0
ARC
  5
18C
100
AcDbEntity
  8
2
370
    50
100
AcDbCircle
 10
206.337219
 20
9.507529
 30
0.0
 40
12.5
100
AcDbArc
 50
180.0
 51
270.0
  0
LINE
  5
18D
100
AcDbEntity
  8
2
370
    50
100
AcDbLine
 10
206.337219
 20
-2.992471
 30
0.0
 11
228.337219
 21
-2.992471
 31
0.0
  0
LINE
  5
18E
100
AcDbEntity
  8
2
370
    50
100
AcDbLine
 10
223.337219
 20
17.007529
 30
0.0
 11
228.349634
 21
17.007529
 31
0.0
  0
ARC
  5
18F
100
AcDbEntity
  8
2
370
    50
100
AcDbCircle
 10
230.837219
 20
26.375026
 30
0.0
 40
12.0
100
AcDbArc
 50
180.0
 51
231.317813
  0
ARC
  5
190
100
AcDbEntity
  8
2
370
    50
100
AcDbCircle
 10
281.068741
 20
54.428367
 30
0.0
 40
100.0
100
AcDbArc
 50
168.537652
 51
188.388164
  0
ARC
  5
191
100
AcDbEntity
  8
2
370
    50
100
AcDbCircle
 10
191.88369
 20
72.512244
 30
0.0
 40
9.0
100
AcDbArc
 50
96.34007
 51
168.537652
  0
ARC
  5
192
100
AcDbEntity
  8
2
370
    50
100
AcDbCircle
 10
206.349942
 20
-57.686556
 30
0.0
 40
140.0
100
AcDbArc
 50
93.788374
 51
96.34007
  0
ARC
  5
193
100
AcDbEntity
  8
2
370
    50
100
AcDbCircle
 10
198.599942
 20
82.626468
 30
0.0
 40
1.0
100
AcDbArc
 50
95.629843
 51
180.0
  0
ARC
  5
194
100
AcDbEntity
  8
2
370
    50
100
AcDbCircle
 10
206.349942
 20
4.007529
 30
0.0
 40
80.0
100
AcDbArc
 50
84.370157
 51
95.629843
  0
ARC
  5
195
100
AcDbEntity
  8
2
370
    50
100
AcDbCircle
 10
214.099942
 20
82.626468
 30
0.0
 40
1.0
100
AcDbArc
 50
0.0
 51
84.370157
  0
LINE
  5
196
100
AcDbEntity
  8
2
370
    50
100
AcDbLine
 10
215.599942
 20
82.007529
 30
0.0
 11
197.099942
 21
82.007529
 31
0.0
  0
ARC
  5
197
100
AcDbEntity
  8
2
370
    50
100
AcDbCircle
 10
206.349942
 20
-57.686556
 30
0.0
 40
140.0
100
AcDbArc
 50
83.65993
 51
86.211626
  0
ARC
  5
198
100
AcDbEntity
  8
2
370
    50
100
AcDbCircle
 10
220.816195
 20
72.512244
 30
0.0
 40
9.0
100
AcDbArc
 50
11.462348
 51
83.65993
  0
ARC
  5
199
100
AcDbEntity
  8
2
370
    50
100
AcDbCircle
 10
131.631143
 20
54.428367
 30
0.0
 40
100.0
100
AcDbArc
 50
351.611836
 51
11.462348
  0
ARC
  5
19A
100
AcDbEntity
  8
2
370
    50
100
AcDbCircle
 10
222.646972
 20
41.007529
 30
0.0
 40
8.0
100
AcDbArc
 50
270.0
 51
351.611836
  0
LINE
  5
19B
100
AcDbEntity
  8
2
370
    50
100
AcDbLine
 10
222.646972
 20
33.007529
 30
0.0
 11
194.349942
 21
33.007529
 31
0.0
  0
LINE
  5
19C
100
AcDbEntity
  8
2
370
    50
100
AcDbLine
 10
194.349942
 20
33.007529
 30
0.0
 11
190.052912
 21
33.007529
 31
0.0
  0
ARC
  5
19D
100
AcDbEntity
  8
2
370
    50
100
AcDbCircle
 10
190.052912
 20
41.007529
 30
0.0
 40
8.0
100
AcDbArc
 50
188.388164
 51
270.0
  0
LINE
  5
19E
100
AcDbEntity
  8
2
370
    50
100
AcDbLine
 10
215.099942
 20
82.626468
 30
0.0
 11
215.099942
 21
82.007529
 31
0.0
  0
LINE
  5
19F
100
AcDbEntity
  8
2
370
    50
100
AcDbLine
 10
197.599942
 20
82.626468
 30
0.0
 11
197.599942
 21
82.007529
 31
0.0
  0
ARC
  5
1A0
100
AcDbEntity
  8
2
370
    50
100
AcDbCircle
 10
96.685002
 20
53.913194
 30
0.0
 40
120.0
100
AcDbArc
 50
355.059572
 51
9.155483
  0
ARC
  5
1A1
100
AcDbEntity
  8
2
370
    50
100
AcDbCircle
 10
316.014883
 20
53.913194
 30
0.0
 40
120.0
100
AcDbArc
 50
170.844517
 51
184.940428
  0
ARC
  5
1A2
100
AcDbEntity
  8
2
370
    50
100
AcDbCircle
 10
206.349942
 20
71.587609
 30
0.0
 40
8.91992
100
AcDbArc
 50
9.155483
 51
170.844517
  0
ARC
  5
1A3
100
AcDbEntity
  8
2
370
    50
100
AcDbCircle
 10
206.349942
 20
44.43364
 30
0.0
 40
9.926111
100
AcDbArc
 50
184.940428
 51
355.059572
  0
LINE
  5
1A4
100
AcDbEntity
  8
2
370
    50
100
AcDbLine
 10
220.849942
 20
78.507529
 30
0.0
 11
220.849942
 21
37.507529
 31
0.0
  0
LINE
  5
1A5
100
AcDbEntity
  8
2
370
    50
100
AcDbLine
 10
191.849942
 20
78.507529
 30
0.0
 11
191.849942
 21
37.507529
 31
0.0
  0
ARC
  5
1A6
100
AcDbEntity
  8
2
370
    50
100
AcDbCircle
 10
131.631143
 20
54.428367
 30
0.0
 40
99.5
100
AcDbArc
 50
352.362481
 51
11.528523
  0
ARC
  5
1A7
100
AcDbEntity
  8
2
370
    50
100
AcDbCircle
 10
281.068741
 20
54.428367
 30
0.0
 40
99.5
100
AcDbArc
 50
168.471477
 51
187.637519
  0
ARC
  5
1A8
100
AcDbEntity
  8
2
370
    50
100
AcDbCircle
 10
191.414723
 20
72.715167
 30
0.0
 40
8.0
100
AcDbArc
 50
105.117347
 51
168.471477
  0
ARC
  5
1A9
100
AcDbEntity
  8
2
370
    50
100
AcDbCircle
 10
189.849942
 20
78.507529
 30
0.0
 40
2.0
100
AcDbArc
 50
0.0
 51
105.117347
  0
ARC
  5
1AA
100
AcDbEntity
  8
2
370
    50
100
AcDbCircle
 10
221.285161
 20
72.715167
 30
0.0
 40
8.0
100
AcDbArc
 50
11.528523
 51
74.882653
  0
ARC
  5
1AB
100
AcDbEntity
  8
2
370
    50
100
AcDbCircle
 10
222.849942
 20
78.507529
 30
0.0
 40
2.0
100
AcDbArc
 50
74.882653
 51
180.0
  0
ARC
  5
1AC
100
AcDbEntity
  8
2
370
    50
100
AcDbCircle
 10
190.380463
 20
42.267519
 30
0.0
 40
8.0
100
AcDbArc
 50
187.637519
 51
252.175397
  0
ARC
  5
1AD
100
AcDbEntity
  8
2
370
    50
100
AcDbCircle
 10
188.849942
 20
37.507529
 30
0.0
 40
3.0
100
AcDbArc
 50
252.175397
 51
360.0
  0
ARC
  5
1AE
100
AcDbEntity
  8
2
370
    50
100
AcDbCircle
 10
223.849942
 20
37.507529
 30
0.0
 40
3.0
100
AcDbArc
 50
180.0
 51
287.824603
  0
ARC
  5
1AF
100
AcDbEntity
  8
2
370
    50
100
AcDbCircle
 10
222.319422
 20
42.267519
 30
0.0
 40
8.0
100
AcDbArc
 50
287.824603
 51
352.362481
  0
LINE
  5
1B0
100
AcDbEntity
  8
2
370
    50
100
AcDbLine
 10
193.837219
 20
32.757529
 30
0.0
 11
193.837219
 21
33.007529
 31
0.0
  0
LINE
  5
1B1
100
AcDbEntity
  8
2
370
    50
100
AcDbLine
 10
218.837219
 20
33.007529
 30
0.0
 11
218.837219
 21
31.844928
 31
0.0
  0
POINT
  5
1B2
100
AcDbEntity
  8
2
370
    50
100
AcDbPoint
 10
206.349942
 20
84.007529
 30
0.0
  0
LINE
  5
1B3
100
AcDbEntity
  8
2
370
    50
100
AcDbLine
 10
250.337219
 20
20.807529
 30
0.0
 11
264.337219
 21
20.807529
 31
0.0
  0
LINE
  5
1B4
100
AcDbEntity
  8
2
370
    50
100
AcDbLine
 10
250.337219
 20
20.807529
 30
0.0
 11
250.337219
 21
20.007529
 31
0.0
  0
LINE
  5
1B5
100
AcDbEntity
  8
2
370
    50
100
AcDbLine
 10
243.247003
 20
20.007529
 30
0.0
 11
250.337219
 21
20.007529
 31
0.0
  0
LINE
  5
1B6
100
AcDbEntity
  8
2
370
    50
100
AcDbLine
 10
243.247003
 20
-5.992471
 30
0.0
 11
250.337219
 21
-5.992471
 31
0.0
  0
LINE
  5
1B7
100
AcDbEntity
  8
2
370
    25
100
AcDbLine
 10
243.337219
 20
19.107529
 30
0.0
 11
246.337219
 21
19.107529
 31
0.0
  0
LINE
  5
1B8
100
AcDbEntity
  8
2
370
    50
100
AcDbLine
 10
246.337219
 20
19.107529
 30
0.0
 11
247.896065
 21
20.007529
 31
0.0
  0
LINE
  5
1B9
100
AcDbEntity
  8
2
370
    50
100
AcDbLine
 10
246.337219
 20
-5.092471
 30
0.0
 11
247.896065
 21
-5.992471
 31
0.0
  0
LINE
  5
1BA
100
AcDbEntity
  8
2
370
    50
100
AcDbLine
 10
246.337219
 20
-5.092471
 30
0.0
 11
247.896065
 21
-5.992471
 31
0.0
  0
POINT
  5
1BB
100
AcDbEntity
  8
2
370
    50
100
AcDbPoint
 10
206.337219
 20
12.007529
 30
0.0
  0
LINE
  5
1BC
100
AcDbEntity
  8
2
370
    50
100
AcDbLine
 10
193.337219
 20
-7.992617
 30
0.0
 11
193.337219
 21
-9.992617
 31
0.0
  0
LINE
  5
1BD
100
AcDbEntity
  8
2
370
    50
100
AcDbLine
 10
219.337219
 20
-7.992617
 30
0.0
 11
219.337219
 21
-9.992617
 31
0.0
  0
LINE
  5
1BE
100
AcDbEntity
  8
2
370
    50
100
AcDbLine
 10
193.972219
 20
-9.992471
 30
0.0
 11
193.337219
 21
-9.357471
 31
0.0
  0
LINE
  5
1BF
100
AcDbEntity
  8
2
370
    50
100
AcDbLine
 10
219.337219
 20
-9.992617
 30
0.0
 11
219.737219
 21
-9.992617
 31
0.0
  0
ARC
  5
1C0
100
AcDbEntity
  8
2
370
    50
100
AcDbCircle
 10
192.937219
 20
-11.992617
 30
0.0
 40
2.0
100
AcDbArc
 50
90.0
 51
107.457063
  0
ARC
  5
1C1
100
AcDbEntity
  8
2
370
    50
100
AcDbCircle
 10
216.737219
 20
-14.992617
 30
0.0
 40
5.0
100
AcDbArc
 50
270.0
 51
316.054183
  0
ARC
  5
1C2
100
AcDbEntity
  8
2
370
    50
100
AcDbCircle
 10
195.937219
 20
-14.992617
 30
0.0
 40
5.0
100
AcDbArc
 50
223.945817
 51
270.0
  0
LINE
  5
1C3
100
AcDbEntity
  8
2
370
    50
100
AcDbLine
 10
216.737219
 20
-19.992617
 30
0.0
 11
195.937219
 21
-19.992617
 31
0.0
  0
LINE
  5
1C4
100
AcDbEntity
  8
2
370
    50
100
AcDbLine
 10
193.337219
 20
-9.992617
 30
0.0
 11
192.937219
 21
-9.992617
 31
0.0
  0
ARC
  5
1C5
100
AcDbEntity
  8
2
370
    50
100
AcDbCircle
 10
219.737219
 20
-11.992617
 30
0.0
 40
2.0
100
AcDbArc
 50
72.542937
 51
90.0
  0
LINE
  5
1C6
100
AcDbEntity
  8
2
370
    50
100
AcDbLine
 10
192.837219
 20
12.007529
 30
0.0
 11
192.837219
 21
-7.992617
 31
0.0
  0
ARC
  5
1C7
100
AcDbEntity
  8
2
370
    50
100
AcDbCircle
 10
206.337219
 20
12.007529
 30
0.0
 40
13.5
100
AcDbArc
 50
157.808393
 51
180.0
  0
LINE
  5
1C8
100
AcDbEntity
  8
2
370
    50
100
AcDbLine
 10
219.837219
 20
-7.992617
 30
0.0
 11
192.837219
 21
-7.992617
 31
0.0
  0
LINE
  5
1C9
100
AcDbEntity
  8
2
370
    50
100
AcDbLine
 10
219.837219
 20
-2.992471
 30
0.0
 11
219.837219
 21
-7.992617
 31
0.0
  0
LINE
  5
1CA
100
AcDbEntity
  8
2
370
    50
100
AcDbLine
 10
193.337219
 20
-9.992617
 30
0.0
 11
219.523082
 21
-9.992617
 31
0.0
  0
LINE
  5
1CB
100
AcDbEntity
  8
2
370
    50
100
AcDbLine
 10
218.702219
 20
-9.992471
 30
0.0
 11
219.337219
 21
-9.357471
 31
0.0
  0
ELLIPSE
  5
1CC
100
AcDbEntity
  8
2
370
    50
100
AcDbEllipse
 10
213.337237
 20
-14.219187
 30
0.0
 11
5.2365899999999996
 21
0.0
 31
0.0
210
0.0
220
0.0
230
1.0
 40
0.779251
 41
0.0
 42
6.2831849999999996
  0
ELLIPSE
  5
1CD
100
AcDbEntity
  8
2
370
    50
100
AcDbEllipse
 10
199.337201
 20
-14.219187
 30
0.0
 11
-5.2365899999999996
 21
0.0
 31
0.0
210
0.0
220
0.0
230
1.0
 40
0.779251
 41
0.0
 42
6.2831849999999996
  0
LINE
  5
1CE
100
AcDbEntity
  8
2
370
    50
100
AcDbLine
 10
192.337237
 20
-10.084733
 30
0.0
 11
192.337237
 21
-18.462506
 31
0.0
  0
LINE
  5
1CF
100
AcDbEntity
  8
2
370
    50
100
AcDbLine
 10
220.337201
 20
-10.084733
 30
0.0
 11
220.337201
 21
-18.462506
 31
0.0
  0
POINT
  5
1D0
100
AcDbEntity
  8
2
370
    50
100
AcDbPoint
 10
228.349634
 20
7.007529
 30
0.0
  0
LINE
  5
1D1
100
AcDbEntity
  8
2
370
    50
100
AcDbLine
 10
-111.002347
 20
8.770947
 30
0.0
 11
-113.65005
 21
13.356902
 31
0.0
  0
ARC
  5
1D2
100
AcDbEntity
  8
2
370
    50
100
AcDbCircle
 10
-126.15005
 20
7.007537
 30
0.0
 40
14.0
100
AcDbArc
 50
212.878405
 51
26.765501
  0
LINE
  5
1D3
100
AcDbEntity
  8
2
370
    50
100
AcDbLine
 10
-117.049041
 20
-5.229053
 30
0.0
 11
-111.002347
 21
5.244127
 31
0.0
  0
ARC
  5
1D4
100
AcDbEntity
  8
2
370
    50
100
AcDbCircle
 10
-126.15005
 20
7.007537
 30
0.0
 40
15.25
100
AcDbArc
 50
353.359838
 51
6.640162
  0
ARC
  5
1D5
100
AcDbEntity
  8
2
370
    50
100
AcDbCircle
 10
-126.15005
 20
7.007537
 30
0.0
 40
15.25
100
AcDbArc
 50
293.359838
 51
306.640162
  0
LINE
  5
1D6
100
AcDbEntity
  8
2
370
    50
100
AcDbLine
 10
-132.196763
 20
-6.992463
 30
0.0
 11
-120.103356
 21
-6.992463
 31
0.0
  0
ARC
  5
1D7
100
AcDbEntity
  8
2
370
    50
100
AcDbCircle
 10
-126.150054
 20
7.00753
 30
0.0
 40
15.25
100
AcDbArc
 50
233.359838
 51
246.640162
  0
LINE
  5
1D8
100
AcDbEntity
  8
2
370
    50
100
AcDbLine
 10
-137.934664
 20
-0.580926
 30
0.0
 11
-135.251063
 21
-5.22906
 31
0.0
  0
ARC
  5
1D9
100
AcDbEntity
  8
2
370
    50
100
AcDbCircle
 10
-261.150066
 20
7.007529
 30
0.0
 40
14.0
100
AcDbArc
 50
153.234499
 51
221.082333
  0
ARC
  5
1DA
100
AcDbEntity
  8
2
370
    50
100
AcDbCircle
 10
-261.150066
 20
7.007537
 30
0.0
 40
14.0
100
AcDbArc
 50
153.234499
 51
327.121595
  0
LINE
  5
1DB
100
AcDbEntity
  8
2
370
    50
100
AcDbLine
 10
-249.365452
 20
-0.580926
 30
0.0
 11
-252.049053
 21
-5.22906
 31
0.0
  0
ARC
  5
1DC
100
AcDbEntity
  8
2
370
    50
100
AcDbCircle
 10
-261.150062
 20
7.00753
 30
0.0
 40
15.25
100
AcDbArc
 50
293.359838
 51
306.640162
  0
LINE
  5
1DD
100
AcDbEntity
  8
2
370
    50
100
AcDbLine
 10
-255.103352
 20
-6.992463
 30
0.0
 11
-267.196759
 21
-6.992463
 31
0.0
  0
ARC
  5
1DE
100
AcDbEntity
  8
2
370
    50
100
AcDbCircle
 10
-261.150066
 20
7.007529
 30
0.0
 40
15.25
100
AcDbArc
 50
233.359838
 51
246.640162
  0
LINE
  5
1DF
100
AcDbEntity
  8
2
370
    50
100
AcDbLine
 10
-270.251075
 20
-5.229053
 30
0.0
 11
-276.297768
 21
5.244127
 31
0.0
  0
LINE
  5
1E0
100
AcDbEntity
  8
2
370
    50
100
AcDbLine
 10
-270.251075
 20
-5.229053
 30
0.0
 11
-276.297768
 21
5.244127
 31
0.0
  0
ARC
  5
1E1
100
AcDbEntity
  8
2
370
    50
100
AcDbCircle
 10
-261.150066
 20
7.007537
 30
0.0
 40
15.25
100
AcDbArc
 50
173.359838
 51
186.640162
  0
LINE
  5
1E2
100
AcDbEntity
  8
2
370
    50
100
AcDbLine
 10
-276.297768
 20
8.770947
 30
0.0
 11
-273.650066
 21
13.356902
 31
0.0
  0
LINE
  5
1E3
100
AcDbEntity
  8
2
370
    50
100
AcDbLine
 10
218.837219
 20
26.375026
 30
0.0
 11
218.837219
 21
33.007529
 31
0.0
  0
LINE
  5
1E4
100
AcDbEntity
  8
2
370
    50
100
AcDbLine
 10
206.337219
 20
-2.992471
 30
0.0
 11
228.337219
 21
-2.992471
 31
0.0
  0
LINE
  5
1E5
100
AcDbEntity
  8
2
370
    50
100
AcDbLine
 10
223.337219
 20
17.007529
 30
0.0
 11
228.337219
 21
17.007529
 31
0.0
  0
ARC
  5
1E6
100
AcDbEntity
  8
2
370
    50
100
AcDbCircle
 10
230.837219
 20
26.375026
 30
0.0
 40
12.0
100
AcDbArc
 50
180.0
 51
231.317813
  0
LINE
  5
1E7
100
AcDbEntity
  8
2
370
    50
100
AcDbLine
 10
264.337219
 20
20.807529
 30
0.0
 11
264.337219
 21
-21.742471
 31
0.0
  0
LINE
  5
1E8
100
AcDbEntity
  8
2
370
    50
100
AcDbLine
 10
250.337219
 20
20.807529
 30
0.0
 11
264.337219
 21
20.807529
 31
0.0
  0
LINE
  5
1E9
100
AcDbEntity
  8
2
370
    50
100
AcDbLine
 10
299.337219
 20
-23.692471
 30
0.0
 11
299.337219
 21
-42.292471
 31
0.0
  0
LINE
  5
1EA
100
AcDbEntity
  8
2
370
    25
100
AcDbLine
 10
285.337219
 20
-42.292471
 30
0.0
 11
299.337219
 21
-42.292471
 31
0.0
  0
LINE
  5
1EB
100
AcDbEntity
  8
2
370
    25
100
AcDbLine
 10
285.337219
 20
-23.692471
 30
0.0
 11
299.337219
 21
-23.692471
 31
0.0
  0
LINE
  5
1EC
100
AcDbEntity
  8
2
370
    50
100
AcDbLine
 10
275.337219
 20
-42.292471
 30
0.0
 11
273.258758
 21
-43.492471
 31
0.0
  0
LINE
  5
1ED
100
AcDbEntity
  8
2
370
    50
100
AcDbLine
 10
275.337219
 20
-23.692471
 30
0.0
 11
273.258758
 21
-22.492471
 31
0.0
  0
LINE
  5
1EE
100
AcDbEntity
  8
2
370
    50
100
AcDbLine
 10
299.337219
 20
-42.292471
 30
0.0
 11
298.137219
 21
-43.492471
 31
0.0
  0
LINE
  5
1EF
100
AcDbEntity
  8
2
370
    50
100
AcDbLine
 10
299.337219
 20
-23.692471
 30
0.0
 11
298.137219
 21
-22.492471
 31
0.0
  0
LINE
  5
1F0
100
AcDbEntity
  8
2
370
    50
100
AcDbLine
 10
250.337219
 20
20.807529
 30
0.0
 11
250.337219
 21
-21.492471
 31
0.0
  0
LINE
  5
1F1
100
AcDbEntity
  8
2
370
    25
  6
CENTER
100
AcDbLine
 10
302.504395
 20
-32.992471
 30
0.0
 11
235.822739
 21
-32.992471
 31
0.0
  0
LINE
  5
1F2
100
AcDbEntity
  8
2
370
    25
  6
CENTER
100
AcDbLine
 10
266.81322
 20
7.007529
 30
0.0
 11
185.77771
 21
7.007529
 31
0.0
  0
LINE
  5
1F3
100
AcDbEntity
  8
2
370
    50
100
AcDbLine
 10
250.837219
 20
-21.492471
 30
0.0
 11
250.337219
 21
-21.492471
 31
0.0
  0
LINE
  5
1F4
100
AcDbEntity
  8
2
370
    50
100
AcDbLine
 10
272.337219
 20
-21.742471
 30
0.0
 11
264.337219
 21
-21.742471
 31
0.0
  0
LINE
  5
1F5
100
AcDbEntity
  8
2
370
    50
100
AcDbLine
 10
272.337219
 20
-21.742471
 30
0.0
 11
272.337219
 21
-44.242471
 31
0.0
  0
LINE
  5
1F6
100
AcDbEntity
  8
2
370
    50
100
AcDbLine
 10
228.337219
 20
-5.167975
 30
0.0
 11
228.337219
 21
19.183034
 31
0.0
  0
LINE
  5
1F7
100
AcDbEntity
  8
2
370
    50
100
AcDbLine
 10
243.337219
 20
-5.167975
 30
0.0
 11
243.337219
 21
19.183034
 31
0.0
  0
LINE
  5
1F8
100
AcDbEntity
  8
2
370
    50
100
AcDbLine
 10
230.337219
 20
22.257529
 30
0.0
 11
241.337219
 21
22.257529
 31
0.0
  0
LINE
  5
1F9
100
AcDbEntity
  8
2
370
    50
100
AcDbLine
 10
230.337219
 20
-8.242471
 30
0.0
 11
241.337219
 21
-8.242471
 31
0.0
  0
LINE
  5
1FA
100
AcDbEntity
  8
2
370
    50
100
AcDbLine
 10
243.337219
 20
20.007529
 30
0.0
 11
250.337219
 21
20.007529
 31
0.0
  0
LINE
  5
1FB
100
AcDbEntity
  8
2
370
    50
100
AcDbLine
 10
243.337219
 20
-5.992471
 30
0.0
 11
250.337219
 21
-5.992471
 31
0.0
  0
LINE
  5
1FC
100
AcDbEntity
  8
2
370
    50
100
AcDbLine
 10
243.337219
 20
19.107529
 30
0.0
 11
246.337219
 21
19.107529
 31
0.0
  0
LINE
  5
1FD
100
AcDbEntity
  8
2
370
    50
100
AcDbLine
 10
246.337219
 20
19.107529
 30
0.0
 11
247.896065
 21
20.007529
 31
0.0
  0
LINE
  5
1FE
100
AcDbEntity
  8
2
370
    25
100
AcDbLine
 10
243.337219
 20
-5.092471
 30
0.0
 11
246.337219
 21
-5.092471
 31
0.0
  0
LINE
  5
1FF
100
AcDbEntity
  8
2
370
    50
100
AcDbLine
 10
246.337219
 20
-5.092471
 30
0.0
 11
247.896065
 21
-5.992471
 31
0.0
  0
LINE
  5
200
100
AcDbEntity
  8
2
370
    50
100
AcDbLine
 10
246.337219
 20
-5.092471
 30
0.0
 11
247.896065
 21
-5.992471
 31
0.0
  0
LINE
  5
201
100
AcDbEntity
  8
2
370
    50
100
AcDbLine
 10
250.837219
 20
-21.992471
 30
0.0
 11
247.073287
 21
-21.992471
 31
0.0
  0
ARC
  5
202
100
AcDbEntity
  8
2
370
    50
100
AcDbCircle
 10
244.837219
 20
-27.992471
 30
0.0
 40
5.0
100
AcDbArc
 50
90.0
 51
180.0
  0
ARC
  5
203
100
AcDbEntity
  8
2
370
    50
100
AcDbCircle
 10
244.837219
 20
-37.992471
 30
0.0
 40
5.0
100
AcDbArc
 50
180.0
 51
270.0
  0
ARC
  5
204
100
AcDbEntity
  8
2
370
    50
100
AcDbCircle
 10
247.073287
 20
-24.992471
 30
0.0
 40
3.0
100
AcDbArc
 50
90.0
 51
138.189685
  0
LINE
  5
205
100
AcDbEntity
  8
2
370
    50
100
AcDbLine
 10
250.837219
 20
-44.242471
 30
0.0
 11
250.837219
 21
-21.492471
 31
0.0
  0
LINE
  5
206
100
AcDbEntity
  8
2
370
    50
100
AcDbLine
 10
238.935296
 20
-36.417471
 30
0.0
 11
238.935296
 21
-29.567471
 31
0.0
  0
LINE
  5
207
100
AcDbEntity
  8
2
370
    50
100
AcDbLine
 10
239.837219
 20
-37.992471
 30
0.0
 11
239.837219
 21
-27.992471
 31
0.0
  0
ARC
  5
208
100
AcDbEntity
  8
2
370
    50
100
AcDbCircle
 10
239.935296
 20
-29.567471
 30
0.0
 40
1.0
100
AcDbArc
 50
95.628401
 51
180.0
  0
ARC
  5
209
100
AcDbEntity
  8
2
370
    50
100
AcDbCircle
 10
239.935296
 20
-36.417471
 30
0.0
 40
1.0
100
AcDbArc
 50
180.0
 51
264.371599
  0
LINE
  5
20A
100
AcDbEntity
  8
2
370
    50
100
AcDbLine
 10
285.337219
 20
-9.992475
 30
0.0
 11
283.094528
 21
-9.992475
 31
0.0
  0
LINE
  5
20B
100
AcDbEntity
  8
2
370
    50
100
AcDbLine
 10
285.337219
 20
-55.992475
 30
0.0
 11
283.094528
 21
-55.992475
 31
0.0
  0
LINE
  5
20C
100
AcDbEntity
  8
2
370
    50
100
AcDbLine
 10
285.337219
 20
-55.992475
 30
0.0
 11
285.337219
 21
-9.992475
 31
0.0
  0
LINE
  5
20D
100
AcDbEntity
  8
2
370
    50
100
AcDbLine
 10
282.687661
 20
-10.201856
 30
0.0
 11
275.523486
 21
-20.231698
 31
0.0
  0
LINE
  5
20E
100
AcDbEntity
  8
2
370
    50
100
AcDbLine
 10
282.687662
 20
-55.783094
 30
0.0
 11
275.523486
 21
-45.753244
 31
0.0
  0
ARC
  5
20F
100
AcDbEntity
  8
2
370
    50
100
AcDbCircle
 10
276.337219
 20
-20.812936
 30
0.0
 40
1.0
100
AcDbArc
 50
144.46231
 51
180.0
  0
ARC
  5
210
100
AcDbEntity
  8
2
370
    50
100
AcDbCircle
 10
276.337219
 20
-45.172006
 30
0.0
 40
1.0
100
AcDbArc
 50
180.0
 51
215.537666
  0
ARC
  5
211
100
AcDbEntity
  8
2
370
    50
100
AcDbCircle
 10
283.094528
 20
-10.492475
 30
0.0
 40
0.5
100
AcDbArc
 50
90.0
 51
144.46231
  0
ARC
  5
212
100
AcDbEntity
  8
2
370
    50
100
AcDbCircle
 10
283.094528
 20
-55.492475
 30
0.0
 40
0.5
100
AcDbArc
 50
215.537666
 51
270.0
  0
LINE
  5
213
100
AcDbEntity
  8
2
370
    50
100
AcDbLine
 10
275.337219
 20
-45.172006
 30
0.0
 11
275.337219
 21
-20.812936
 31
0.0
  0
LINE
  5
214
100
AcDbEntity
  8
2
370
    50
100
AcDbLine
 10
298.137219
 20
-22.492471
 30
0.0
 11
298.137219
 21
-43.492471
 31
0.0
  0
LINE
  5
215
100
AcDbEntity
  8
2
370
    50
100
AcDbLine
 10
272.337219
 20
-22.492471
 30
0.0
 11
275.337219
 21
-22.492471
 31
0.0
  0
LINE
  5
216
100
AcDbEntity
  8
2
370
    50
100
AcDbLine
 10
285.337219
 20
-22.492471
 30
0.0
 11
298.137219
 21
-22.492471
 31
0.0
  0
LINE
  5
217
100
AcDbEntity
  8
2
370
    50
100
AcDbLine
 10
272.337219
 20
-43.492471
 30
0.0
 11
275.337219
 21
-43.492471
 31
0.0
  0
LINE
  5
218
100
AcDbEntity
  8
2
370
    50
100
AcDbLine
 10
285.337219
 20
-43.492471
 30
0.0
 11
298.137219
 21
-43.492471
 31
0.0
  0
LINE
  5
219
100
AcDbEntity
  8
2
370
    50
100
AcDbLine
 10
283.094528
 20
-9.992475
 30
0.0
 11
283.094528
 21
-55.992475
 31
0.0
  0
LINE
  5
21A
100
AcDbEntity
  8
2
370
    50
100
AcDbLine
 10
246.337219
 20
19.107529
 30
0.0
 11
246.337219
 21
-5.092471
 31
0.0
  0
ARC
  5
21B
100
AcDbEntity
  8
2
370
    50
100
AcDbCircle
 10
247.073287
 20
-40.992471
 30
0.0
 40
3.0
100
AcDbArc
 50
221.810315
 51
270.0
  0
LINE
  5
21C
100
AcDbEntity
  8
2
370
    50
100
AcDbLine
 10
250.837219
 20
-43.992471
 30
0.0
 11
247.073287
 21
-43.992471
 31
0.0
  0
LINE
  5
21D
100
AcDbEntity
  8
2
370
    50
100
AcDbLine
 10
244.837219
 20
-22.992471
 30
0.0
 11
244.837219
 21
-42.992471
 31
0.0
  0
LINE
  5
21E
100
AcDbEntity
  8
2
370
    50
100
AcDbLine
 10
250.837219
 20
-28.410471
 30
0.0
 11
244.837219
 21
-28.410471
 31
0.0
  0
LINE
  5
21F
100
AcDbEntity
  8
2
370
    50
100
AcDbLine
 10
250.837219
 20
-37.574471
 30
0.0
 11
244.837219
 21
-37.574471
 31
0.0
  0
ARC
  5
220
100
AcDbEntity
  8
2
370
    50
100
AcDbCircle
 10
231.70035
 20
19.183034
 30
0.0
 40
3.363131
100
AcDbArc
 50
113.910931
 51
246.089069
  0
LINE
  5
221
100
AcDbEntity
  8
2
370
    50
100
AcDbLine
 10
230.337219
 20
16.108538
 30
0.0
 11
241.337219
 21
16.108538
 31
0.0
  0
LINE
  5
222
100
AcDbEntity
  8
2
370
    50
100
AcDbLine
 10
230.337219
 20
13.054223
 30
0.0
 11
230.337219
 21
16.108538
 31
0.0
  0
LINE
  5
223
100
AcDbEntity
  8
2
370
    50
100
AcDbLine
 10
230.337219
 20
13.054223
 30
0.0
 11
241.171413
 21
13.054223
 31
0.0
  0
ARC
  5
224
100
AcDbEntity
  8
2
370
    50
100
AcDbCircle
 10
238.477844
 20
7.007529
 30
0.0
 40
10.140625
100
AcDbArc
 50
143.395774
 51
216.604226
  0
LINE
  5
225
100
AcDbEntity
  8
2
370
    50
100
AcDbLine
 10
230.337219
 20
-2.09348
 30
0.0
 11
230.337219
 21
0.960836
 31
0.0
  0
LINE
  5
226
100
AcDbEntity
  8
2
370
    50
100
AcDbLine
 10
230.337219
 20
0.960836
 30
0.0
 11
241.171413
 21
0.960836
 31
0.0
  0
LINE
  5
227
100
AcDbEntity
  8
2
370
    50
100
AcDbLine
 10
230.337219
 20
-2.09348
 30
0.0
 11
241.337219
 21
-2.09348
 31
0.0
  0
ARC
  5
228
100
AcDbEntity
  8
2
370
    50
100
AcDbCircle
 10
231.70035
 20
-5.167975
 30
0.0
 40
3.363131
100
AcDbArc
 50
113.910931
 51
246.089069
  0
LINE
  5
229
100
AcDbEntity
  8
2
370
    50
100
AcDbLine
 10
241.337219
 20
-2.09348
 30
0.0
 11
241.337219
 21
0.960836
 31
0.0
  0
ARC
  5
22A
100
AcDbEntity
  8
2
370
    50
100
AcDbCircle
 10
233.196594
 20
7.007529
 30
0.0
 40
10.140625
100
AcDbArc
 50
323.395774
 51
36.604226
  0
LINE
  5
22B
100
AcDbEntity
  8
2
370
    50
100
AcDbLine
 10
241.337219
 20
13.054223
 30
0.0
 11
241.337219
 21
16.108538
 31
0.0
  0
ARC
  5
22C
100
AcDbEntity
  8
2
370
    50
100
AcDbCircle
 10
239.974089
 20
19.183034
 30
0.0
 40
3.363131
100
AcDbArc
 50
293.910931
 51
360.0
  0
ARC
  5
22D
100
AcDbEntity
  8
2
370
    50
100
AcDbCircle
 10
239.974089
 20
19.183034
 30
0.0
 40
3.363131
100
AcDbArc
 50
293.910931
 51
66.089069
  0
ARC
  5
22E
100
AcDbEntity
  8
2
370
    50
100
AcDbCircle
 10
239.974089
 20
-5.167975
 30
0.0
 40
3.363131
100
AcDbArc
 50
293.910931
 51
66.089069
  0
LINE
  5
22F
100
AcDbEntity
  8
2
370
    50
100
AcDbLine
 10
269.837219
 20
-55.992533
 30
0.0
 11
269.837219
 21
-60.692533
 31
0.0
  0
LINE
  5
230
100
AcDbEntity
  8
2
370
    50
100
AcDbLine
 10
254.837219
 20
-55.992533
 30
0.0
 11
254.837219
 21
-60.692533
 31
0.0
  0
LINE
  5
231
100
AcDbEntity
  8
2
370
    50
100
AcDbLine
 10
266.137219
 20
-53.642533
 30
0.0
 11
266.787219
 21
-52.992533
 31
0.0
  0
LINE
  5
232
100
AcDbEntity
  8
2
370
    50
100
AcDbLine
 10
258.587219
 20
-53.692533
 30
0.0
 11
257.887219
 21
-52.992533
 31
0.0
  0
LINE
  5
233
100
AcDbEntity
  8
2
370
    50
100
AcDbLine
 10
265.837219
 20
-55.992533
 30
0.0
 11
265.837219
 21
-53.692533
 31
0.0
  0
LINE
  5
234
100
AcDbEntity
  8
2
370
    50
100
AcDbLine
 10
258.837219
 20
-55.992533
 30
0.0
 11
258.837219
 21
-53.692533
 31
0.0
  0
LINE
  5
235
100
AcDbEntity
  8
2
370
    50
100
AcDbLine
 10
258.587219
 20
-53.692533
 30
0.0
 11
258.837219
 21
-53.692533
 31
0.0
  0
LINE
  5
236
100
AcDbEntity
  8
2
370
    50
100
AcDbLine
 10
266.137219
 20
-53.692533
 30
0.0
 11
258.837219
 21
-53.692533
 31
0.0
  0
LINE
  5
237
100
AcDbEntity
  8
2
370
    50
100
AcDbLine
 10
254.837219
 20
-55.992533
 30
0.0
 11
265.837219
 21
-55.992533
 31
0.0
  0
LINE
  5
238
100
AcDbEntity
  8
2
370
    50
100
AcDbLine
 10
265.837219
 20
-55.992533
 30
0.0
 11
269.837219
 21
-55.992533
 31
0.0
  0
ARC
  5
239
100
AcDbEntity
  8
2
370
    50
100
AcDbCircle
 10
262.337219
 20
-31.645158
 30
0.0
 40
30.0
100
AcDbArc
 50
255.522488
 51
284.477512
  0
LINE
  5
23A
100
AcDbEntity
  8
2
370
    25
100
AcDbLine
 10
258.537219
 20
-52.992533
 30
0.0
 11
258.537219
 21
-53.642533
 31
0.0
  0
LINE
  5
23B
100
AcDbEntity
  8
2
370
    25
100
AcDbLine
 10
266.137219
 20
-53.692533
 30
0.0
 11
266.137219
 21
-52.992533
 31
0.0
  0
LINE
  5
23C
100
AcDbEntity
  8
2
370
    50
100
AcDbLine
 10
256.337219
 20
-52.992533
 30
0.0
 11
255.043124
 21
-48.162904
 31
0.0
  0
ARC
  5
23D
100
AcDbEntity
  8
2
370
    50
100
AcDbCircle
 10
247.849821
 20
-51.663816
 30
0.0
 40
8.0
100
AcDbArc
 50
25.95175
 51
68.073011
  0
LINE
  5
23E
100
AcDbEntity
  8
2
370
    50
100
AcDbLine
 10
268.337219
 20
-52.992533
 30
0.0
 11
269.631315
 21
-48.162904
 31
0.0
  0
ARC
  5
23F
100
AcDbEntity
  8
2
370
    50
100
AcDbCircle
 10
277.269678
 20
-50.541013
 30
0.0
 40
8.0
100
AcDbArc
 50
128.065167
 51
167.293325
  0
LINE
  5
240
100
AcDbEntity
  8
2
370
    50
100
AcDbLine
 10
266.137219
 20
-52.992533
 30
0.0
 11
256.337219
 21
-52.992533
 31
0.0
  0
LINE
  5
241
100
AcDbEntity
  8
2
370
    50
100
AcDbLine
 10
266.137219
 20
-52.992533
 30
0.0
 11
268.337219
 21
-52.992533
 31
0.0
  0
LINE
  5
242
100
AcDbEntity
  8
2
370
    50
100
AcDbLine
 10
268.837219
 20
-55.992533
 30
0.0
 11
268.837219
 21
-60.932527
 31
0.0
  0
LINE
  5
243
100
AcDbEntity
  8
2
370
    50
100
AcDbLine
 10
267.837219
 20
-55.992533
 30
0.0
 11
267.837219
 21
-61.136682
 31
0.0
  0
LINE
  5
244
100
AcDbEntity
  8
2
370
    50
100
AcDbLine
 10
266.837219
 20
-55.992533
 30
0.0
 11
266.837219
 21
-61.305738
 31
0.0
  0
LINE
  5
245
100
AcDbEntity
  8
2
370
    50
100
AcDbLine
 10
265.837219
 20
-55.992533
 30
0.0
 11
265.837219
 21
-61.440291
 31
0.0
  0
LINE
  5
246
100
AcDbEntity
  8
2
370
    50
100
AcDbLine
 10
264.837219
 20
-55.992533
 30
0.0
 11
264.837219
 21
-61.540809
 31
0.0
  0
LINE
  5
247
100
AcDbEntity
  8
2
370
    50
100
AcDbLine
 10
263.837219
 20
-55.992533
 30
0.0
 11
263.837219
 21
-61.607634
 31
0.0
  0
LINE
  5
248
100
AcDbEntity
  8
2
370
    50
100
AcDbLine
 10
262.837219
 20
-55.992533
 30
0.0
 11
262.837219
 21
-61.640991
 31
0.0
  0
LINE
  5
249
100
AcDbEntity
  8
2
370
    50
100
AcDbLine
 10
261.837219
 20
-55.992533
 30
0.0
 11
261.837219
 21
-61.640991
 31
0.0
  0
LINE
  5
24A
100
AcDbEntity
  8
2
370
    50
100
AcDbLine
 10
260.837219
 20
-55.992533
 30
0.0
 11
260.837219
 21
-61.607634
 31
0.0
  0
LINE
  5
24B
100
AcDbEntity
  8
2
370
    50
100
AcDbLine
 10
259.837219
 20
-55.992533
 30
0.0
 11
259.837219
 21
-61.540809
 31
0.0
  0
LINE
  5
24C
100
AcDbEntity
  8
2
370
    50
100
AcDbLine
 10
258.837219
 20
-55.992533
 30
0.0
 11
258.837219
 21
-61.440291
 31
0.0
  0
LINE
  5
24D
100
AcDbEntity
  8
2
370
    50
100
AcDbLine
 10
257.837219
 20
-55.992533
 30
0.0
 11
257.837219
 21
-61.305738
 31
0.0
  0
LINE
  5
24E
100
AcDbEntity
  8
2
370
    50
100
AcDbLine
 10
256.837219
 20
-55.992533
 30
0.0
 11
256.837219
 21
-61.136682
 31
0.0
  0
LINE
  5
24F
100
AcDbEntity
  8
2
370
    50
100
AcDbLine
 10
255.837219
 20
-55.992533
 30
0.0
 11
255.837219
 21
-60.932527
 31
0.0
  0
LINE
  5
250
100
AcDbEntity
  8
2
370
    25
  6
CENTER
100
AcDbLine
 10
-126.150058
 20
84.007529
 30
0.0
 11
-126.150058
 21
12.007529
 31
0.0
  0
LINE
  5
251
100
AcDbEntity
  8
2
370
    25
  6
CENTER
100
AcDbLine
 10
-261.150058
 20
84.007529
 30
0.0
 11
-261.150058
 21
12.007529
 31
0.0
  0
LINE
  5
252
100
AcDbEntity
  8
2
370
    25
  6
CENTER
100
AcDbLine
 10
-193.649366
 20
26.8524
 30
0.0
 11
-193.649366
 21
-88.204918
 31
0.0
  0
LINE
  5
253
100
AcDbEntity
  8
2
370
    25
  6
CENTER
100
AcDbLine
 10
-103.787323
 20
12.007529
 30
0.0
 11
-280.648834
 21
12.007529
 31
0.0
  0
POINT
  5
254
100
AcDbEntity
  8
2
370
    50
100
AcDbPoint
 10
-126.150058
 20
7.007529
 30
0.0
  0
POINT
  5
255
100
AcDbEntity
  8
2
370
    50
100
AcDbPoint
 10
-261.150058
 20
7.007529
 30
0.0
  0
TEXT
  5
256
100
AcDbEntity
  8
3
370
    50
100
AcDbText
 10
230.278992
 20
-272.075134
 30
0.0
 40
7.0
  1
外観寸法図
 72
     5
 11
263.878992
 21
-272.075134
 31
0.0
100
AcDbText
  0
TEXT
  5
257
100
AcDbEntity
  8
3
370
    50
100
AcDbText
 10
288.320221
 20
-239.912292
 30
0.0
 40
7.0
  1
１
 72
     5
 11
293.920221
 21
-239.912292
 31
0.0
100
AcDbText
  0
TEXT
  5
258
100
AcDbEntity
  8
3
370
    50
100
AcDbText
 10
303.537354
 20
-240.199203
 30
0.0
 40
7.0
  1
２
 72
     5
 11
309.137354
 21
-240.199203
 31
0.0
100
AcDbText
  0
DIMENSION
  5
259
100
AcDbEntity
  8
3
370
    25
100
AcDbDimension
  2
*D0
 10
-126.150058
 20
-106.547699
 30
0.0
 11
-193.649722
 21
-102.047699
 31
0.0
 71
     0
 72
     0
 41
0.0
 42
0.0
  3
Standard
100
AcDbAlignedDimension
 13
-261.149387
 23
12.007529
 33
0.0
 14
-126.150058
 24
12.007529
 34
0.0
100
AcDbRotatedDimension
  0
TEXT
  5
25A
100
AcDbEntity
  8
3
370
    50
100
AcDbText
 10
-275.004822
 20
107.546944
 30
0.0
 40
7.0
  1
（湯表示）
 72
     5
 11
-241.404822
 21
107.546944
 31
0.0
100
AcDbText
  0
TEXT
  5
25B
100
AcDbEntity
  8
3
370
    50
100
AcDbText
 10
-135.294623
 20
115.546944
 30
0.0
 40
7.0
  1
サックス
 72
     5
 11
-108.694623
 21
115.546944
 31
0.0
100
AcDbText
  0
TEXT
  5
25C
100
AcDbEntity
  8
3
370
    50
100
AcDbText
 10
-275.004822
 20
115.546944
 30
0.0
 40
7.0
  1
ピンク
 72
     5
 11
-255.404822
 21
115.546944
 31
0.0
100
AcDbText
  0
TEXT
  5
25D
100
AcDbEntity
  8
3
370
    50
100
AcDbText
 10
-135.294623
 20
107.546944
 30
0.0
 40
7.0
  1
（水表示）
 72
     5
 11
-101.694623
 21
107.546944
 31
0.0
100
AcDbText
  0
LWPOLYLINE
  5
25E
100
AcDbEntity
  8
3
370
    25
100
AcDbPolyline
 90
        2
 70
     0
 10
-260.709686
 20
84.369972
 10
-262.658966
 20
105.154556
  0
LWPOLYLINE
  5
262
100
AcDbEntity
  8
3
370
    25
100
AcDbPolyline
 90
        2
 70
     0
 10
-126.589758
 20
84.369972
 10
-124.640479
 20
105.154556
  0
TEXT
  5
266
100
AcDbEntity
  8
3
370
    50
100
AcDbText
 10
-235.649722
 20
-130.127319
 30
0.0
 40
7.0
  1
２００（ＭＡＸ　２１０）
 72
     5
 11
-153.049722
 21
-130.127319
 31
0.0
100
AcDbText
  0
DIMENSION
  5
267
100
AcDbEntity
  8
3
370
    25
100
AcDbDimension
  2
*D1
 10
-97.865387
 20
-131.127319
 30
0.0
 11
-193.649722
 21
-129.127319
 31
0.0
 70
     1
 71
     0
 72
     0
 41
0.0
 42
0.0
  3
Standard
100
AcDbAlignedDimension
 13
-289.434058
 23
-16.276471
 33
0.0
 14
-97.865387
 24
-16.276471
 34
0.0
 50
180.0
  0
DIMENSION
  5
268
100
AcDbEntity
  8
3
370
    25
100
AcDbDimension
  2
*D2
 10
206.349634
 20
-101.218109
 30
0.0
 11
121.349788
 21
-96.718109
 31
0.0
 71
     0
 72
     0
 41
0.0
 42
0.0
  3
Standard
100
AcDbAlignedDimension
 13
36.349942
 23
-81.992829
 33
0.0
 14
206.349634
 24
-17.341796
 34
0.0
100
AcDbRotatedDimension
  0
TEXT
  5
269
100
AcDbEntity
  8
3
370
    50
100
AcDbText
 10
67.982487
 20
-235.994034
 30
0.0
 40
7.0
  1
Ｋ１３－４３６ＤＡ
 72
     5
 11
129.582487
 21
-235.994034
 31
0.0
100
AcDbText
  0
TEXT
  5
26A
100
AcDbEntity
  8
3
370
    50
100
AcDbText
 10
344.88205
 20
-256.268799
 30
0.0
 40
6.0
  1
１６　１０　１７
 72
     5
 11
391.68205
 21
-256.268799
 31
0.0
100
AcDbText
  0
TEXT
  5
26B
100
AcDbEntity
  8
3
370
    50
100
AcDbText
 10
67.982487
 20
-227.59259
 30
0.0
 40
7.0
  1
壁付２ハンドル湯水混合水栓（寒）
 72
     5
 11
178.582487
 21
-227.59259
 31
0.0
100
AcDbText
  0
TEXT
  5
26C
100
AcDbEntity
  8
3
370
    50
100
AcDbText
 10
322.774139
 20
-273.055786
 30
0.0
 40
10.5
  1
３０１２４０
 72
     5
 11
383.674139
 21
-273.055786
 31
0.0
100
AcDbText
  0
TEXT
  5
26D
100
AcDbEntity
  8
3
370
    50
100
AcDbText
 10
11.383181
 20
-44.492796
 30
0.0
 40
7.0
  1
８９
 50
90.0
 72
     5
 11
11.383181
 21
-31.892796
 31
0.0
100
AcDbText
  0
DIMENSION
  5
26E
100
AcDbEntity
  8
3
370
    25
100
AcDbDimension
  2
*D3
 10
12.383181
 20
7.007529
 30
0.0
 11
9.883181
 21
-37.492796
 31
0.0
 71
     0
 72
     0
 41
0.0
 42
0.0
  3
Standard
100
AcDbAlignedDimension
 13
28.599634
 23
-81.993122
 33
0.0
 14
185.568665
 24
7.007529
 34
0.0
 50
90.0
100
AcDbRotatedDimension
  0
TEXT
  5
26F
100
AcDbEntity
  8
3
370
    50
100
AcDbText
 10
11.383181
 20
31.507529
 30
0.0
 40
7.0
  1
（７７）
 50
90.0
 72
     5
 11
11.383181
 21
58.107529
 31
0.0
100
AcDbText
  0
DIMENSION
  5
270
100
AcDbEntity
  8
3
370
    25
100
AcDbDimension
  2
*D4
 10
12.383181
 20
84.007529
 30
0.0
 11
9.883181
 21
45.507529
 31
0.0
 71
     0
 72
     0
 41
0.0
 42
0.0
  3
Standard
100
AcDbAlignedDimension
 13
185.568665
 23
7.007529
 33
0.0
 14
206.349634
 24
84.007529
 34
0.0
 50
90.0
100
AcDbRotatedDimension
  0
TEXT
  5
271
100
AcDbEntity
  8
3
370
    50
100
AcDbText
 10
311.672902
 20
5.624783
 30
0.0
 40
7.0
  1
ＰＪ１／２
 72
     5
 11
345.272902
 21
5.624783
 31
0.0
100
AcDbText
  0
LWPOLYLINE
  5
272
100
AcDbEntity
  8
3
370
    25
100
AcDbPolyline
 90
        3
 70
     0
 10
291.17397
 20
-22.492471
 10
310.923177
 20
4.656842
 10
346.461415
 20
4.656842
  0
LINE
  5
277
100
AcDbEntity
  8
3
370
    25
100
AcDbLine
 10
293.446811
 20
-19.367987
 30
0.0
 11
292.609608
 21
-18.758981
 31
0.0
  0
LINE
  5
278
100
AcDbEntity
  8
3
370
    25
100
AcDbLine
 10
292.609608
 20
-18.758981
 30
0.0
 11
291.17397
 21
-22.492471
 31
0.0
  0
LINE
  5
279
100
AcDbEntity
  8
3
370
    25
100
AcDbLine
 10
291.17397
 20
-22.492471
 30
0.0
 11
294.284014
 21
-19.976993
 31
0.0
  0
LINE
  5
27A
100
AcDbEntity
  8
3
370
    25
100
AcDbLine
 10
294.284014
 20
-19.976993
 30
0.0
 11
293.446811
 21
-19.367987
 31
0.0
  0
DIMENSION
  5
27B
100
AcDbEntity
  8
3
370
    25
100
AcDbDimension
  2
*D5
 10
325.822388
 20
-55.992475
 30
0.0
 11
314.322388
 21
-36.492475
 31
0.0
 70
     1
 71
     0
 72
     0
 41
0.0
 42
0.0
  3
Standard
100
AcDbAlignedDimension
 13
285.337219
 23
-9.992475
 33
0.0
 14
285.337219
 24
-55.992475
 34
0.0
 50
270.0
  0
TEXT
  5
27C
100
AcDbEntity
  8
3
370
    50
100
AcDbText
 10
307.337219
 20
-100.218109
 30
0.0
 40
7.0
  1
（１４）
 72
     5
 11
333.937219
 21
-100.218109
 31
0.0
100
AcDbText
  0
DIMENSION
  5
27D
100
AcDbEntity
  8
3
370
    25
100
AcDbDimension
  2
*D6
 10
299.337219
 20
-101.218109
 30
0.0
 11
292.337219
 21
-99.218109
 31
0.0
 71
     0
 72
     0
 41
0.0
 42
0.0
  3
Standard
100
AcDbAlignedDimension
 13
285.337219
 23
-55.992475
 33
0.0
 14
299.337219
 24
-42.292471
 34
0.0
100
AcDbRotatedDimension
  0
DIMENSION
  5
27E
100
AcDbEntity
  8
3
370
    25
100
AcDbDimension
  2
*D7
 10
-78.140975
 20
-1.551591
 30
0.0
 11
-91.576212
 21
15.772369
 31
0.0
 70
     1
 71
     0
 72
     0
 41
0.0
 42
0.0
  3
Standard
100
AcDbAlignedDimension
 13
-126.150058
 23
7.007529
 33
0.0
 14
-97.865387
 24
-21.276471
 34
0.0
 50
135.00068
  0
DIMENSION
  5
27F
100
AcDbEntity
  8
3
370
    25
100
AcDbDimension
  2
*D8
 10
-280.600073
 20
26.457544
 30
0.0
 11
-295.449315
 21
10.547642
 31
0.0
 70
     1
 71
     0
 72
     0
 41
0.0
 42
0.0
  3
Standard
100
AcDbAlignedDimension
 13
-289.434329
 23
-21.276742
 33
0.0
 14
-261.150058
 24
7.007529
 34
0.0
 50
45.0
  0
TEXT
  5
280
100
AcDbEntity
  8
3
370
    50
100
AcDbText
 10
231.843427
 20
-100.218109
 30
0.0
 40
7.0
  1
（７９）
 72
     5
 11
258.443427
 21
-100.218109
 31
0.0
100
AcDbText
  0
DIMENSION
  5
281
100
AcDbEntity
  8
3
370
    25
100
AcDbDimension
  2
*D9
 10
285.337219
 20
-101.218109
 30
0.0
 11
245.843427
 21
-99.218109
 31
0.0
 71
     0
 72
     0
 41
0.0
 42
0.0
  3
Standard
100
AcDbAlignedDimension
 13
206.349634
 23
-21.092975
 33
0.0
 14
285.337219
 24
-55.992475
 34
0.0
100
AcDbRotatedDimension
  0
ENDSEC
  0
SECTION
  2
OBJECTS
  0
DICTIONARY
  5
2F5
100
AcDbDictionary
280
     0
281
     1
  3
ACAD_GROUP
350
2F6
  3
ACAD_MLINESTYLE
350
2F7
  0
DICTIONARY
  5
2F6
102
{ACAD_REACTORS
330
2F5
102
}
100
AcDbDictionary
280
     0
281
     1
  0
DICTIONARY
  5
2F7
102
{ACAD_REACTORS
330
2F5
102
}
100
AcDbDictionary
280
     0
281
     1
  3
Standard
350
2F8
  0
MLINESTYLE
  5
2F8
102
{ACAD_REACTORS
330
2F7
102
}
100
AcDbMlineStyle
  2
Standard
 70
     0
  3

 62
     0
 51
90.0
 52
90.0
 71
     2
 49
0.5
 62
   256
  6
ByLayer
 49
-0.5
 62
   256
  6
ByLayer
  0
ENDSEC
  0
EOF
