  0
SECTION
  2
HEADER
  9
$ACADVER
  1
AC1015
  9
$ACADMAINTVER
 70
     6
  9
$DWGCODEPAGE
  3
ANSI_932
  9
$INSBASE
 10
0.0
 20
0.0
 30
0.0
  9
$EXTMIN
 10
-420.0
 20
-297.0
 30
1.000000E+20
  9
$EXTMAX
 10
420.0
 20
297.0
 30
-1.000000E+20
  9
$LIMMIN
 10
-420.0
 20
-297.0
  9
$LIMMAX
 10
420.0
 20
297.0
  9
$ORTHOMODE
 70
     0
  9
$REGENMODE
 70
     1
  9
$FILLMODE
 70
     1
  9
$QTEXTMODE
 70
     0
  9
$MIRRTEXT
 70
     1
  9
$LTSCALE
 40
1.0
  9
$ATTMODE
 70
     1
  9
$TEXTSIZE
 40
0.2
  9
$TRACEWID
 40
0.05
  9
$TEXTSTYLE
  7
STANDARD
  9
$CLAYER
  8
0
  9
$CELTYPE
  6
CONTINUOUS
  9
$CECOLOR
 62
   256
  9
$CELTSCALE
 40
1.0
  9
$DISPSILH
 70
     0
  9
$DIMSCALE
 40
2.0
  9
$DIMASZ
 40
2.0
  9
$DIMEXO
 40
1.0
  9
$DIMDLI
 40
0.38
  9
$DIMRND
 40
0.0
  9
$DIMDLE
 40
0.0
  9
$DIMEXE
 40
2.0
  9
$DIMTP
 40
0.0
  9
$DIMTM
 40
0.0
  9
$DIMTXT
 40
3.5
  9
$DIMCEN
 40
0.09
  9
$DIMTSZ
 40
0.0
  9
$DIMTOL
 70
     0
  9
$DIMLIM
 70
     0
  9
$DIMTIH
 70
     0
  9
$DIMTOH
 70
     0
  9
$DIMSE1
 70
     0
  9
$DIMSE2
 70
     0
  9
$DIMTAD
 70
     1
  9
$DIMZIN
 70
     0
  9
$DIMBLK
  1

  9
$DIMASO
 70
     1
  9
$DIMSHO
 70
     1
  9
$DIMPOST
  1

  9
$DIMAPOST
  1

  9
$DIMALT
 70
     0
  9
$DIMALTD
 70
     2
  9
$DIMALTF
 40
25.4
  9
$DIMLFAC
 40
1.0
  9
$DIMTOFL
 70
     0
  9
$DIMTVP
 40
0.0
  9
$DIMTIX
 70
     0
  9
$DIMSOXD
 70
     0
  9
$DIMSAH
 70
     0
  9
$DIMBLK1
  1

  9
$DIMBLK2
  1

  9
$DIMSTYLE
  2
Standard
  9
$DIMCLRD
 70
     0
  9
$DIMCLRE
 70
     0
  9
$DIMCLRT
 70
     0
  9
$DIMTFAC
 40
1.0
  9
$DIMGAP
 40
0.5
  9
$DIMJUST
 70
     0
  9
$DIMSD1
 70
     0
  9
$DIMSD2
 70
     0
  9
$DIMTOLJ
 70
     1
  9
$DIMTZIN
 70
     0
  9
$DIMALTZ
 70
     0
  9
$DIMALTTZ
 70
     0
  9
$DIMUPT
 70
     0
  9
$DIMDEC
 70
     3
  9
$DIMTDEC
 70
     4
  9
$DIMALTU
 70
     2
  9
$DIMALTTD
 70
     2
  9
$DIMTXSTY
  7
STANDARD
  9
$DIMAUNIT
 70
     0
  9
$DIMADEC
 70
     0
  9
$DIMALTRND
 40
0.0
  9
$DIMAZIN
 70
     0
  9
$DIMDSEP
 70
     0
  9
$DIMATFIT
 70
     3
  9
$DIMFRAC
 70
     0
  9
$DIMLDRBLK
  1

  9
$DIMLUNIT
 70
     2
  9
$DIMLWD
 70
     0
  9
$DIMLWE
 70
     0
  9
$DIMTMOVE
 70
     0
  9
$LUNITS
 70
     2
  9
$LUPREC
 70
     4
  9
$SKETCHINC
 40
0.1
  9
$FILLETRAD
 40
0.0
  9
$AUNITS
 70
     0
  9
$AUPREC
 70
     0
  9
$MENU
  1
acad
  9
$ELEVATION
 40
0.0
  9
$PELEVATION
 40
0.0
  9
$THICKNESS
 40
0.0
  9
$LIMCHECK
 70
     0
  9
$CHAMFERA
 40
0.0
  9
$CHAMFERB
 40
0.0
  9
$CHAMFERC
 40
0.0
  9
$CHAMFERD
 40
0.0
  9
$SKPOLY
 70
     0
  9
$TDCREATE
 40
2453383.000000000
  9
$TDUCREATE
 40
0.000000000
  9
$TDUPDATE
 40
0.000000000
  9
$TDUUPDATE
 40
2447892.625000000
  9
$TDINDWG
 40
0.0000000000
  9
$TDUSRTIMER
 40
0.0000000000
  9
$USRTIMER
 70
     1
  9
$ANGBASE
 50
0.0
  9
$ANGDIR
 70
     0
  9
$PDMODE
 70
     0
  9
$PDSIZE
 40
0.0
  9
$PLINEWID
 40
0.0
  9
$SPLFRAME
 70
     0
  9
$SPLINETYPE
 70
     6
  9
$SPLINESEGS
 70
     8
  9
$HANDSEED
  5
901
  9
$SURFTAB1
 70
     6
  9
$SURFTAB2
 70
     6
  9
$SURFTYPE
 70
     6
  9
$SURFU
 70
     6
  9
$SURFV
 70
     6
  9
$UCSBASE
  2

  9
$UCSNAME
  2

  9
$UCSORG
 10
0.0
 20
0.0
 30
0.0
  9
$UCSXDIR
 10
1.0
 20
0.0
 30
0.0
  9
$UCSYDIR
 10
0.0
 20
1.0
 30
0.0
  9
$UCSORTHOREF
  2

  9
$UCSORTHOVIEW
 70
     0
  9
$UCSORGTOP
 10
0.0
 20
0.0
 30
0.0
  9
$UCSORGBOTTOM
 10
0.0
 20
0.0
 30
0.0
  9
$UCSORGLEFT
 10
0.0
 20
0.0
 30
0.0
  9
$UCSORGRIGHT
 10
0.0
 20
0.0
 30
0.0
  9
$UCSORGFRONT
 10
0.0
 20
0.0
 30
0.0
  9
$UCSORGBACK
 10
0.0
 20
0.0
 30
0.0
  9
$PUCSBASE
  2

  9
$PUCSNAME
  2

  9
$PUCSORG
 10
0.0
 20
0.0
 30
0.0
  9
$PUCSXDIR
 10
1.0
 20
0.0
 30
0.0
  9
$PUCSYDIR
 10
0.0
 20
1.0
 30
0.0
  9
$PUCSORTHOREF
  2

  9
$PUCSORTHOVIEW
 70
     0
  9
$PUCSORGTOP
 10
0.0
 20
0.0
 30
0.0
  9
$PUCSORGBOTTOM
 10
0.0
 20
0.0
 30
0.0
  9
$PUCSORGLEFT
 10
0.0
 20
0.0
 30
0.0
  9
$PUCSORGRIGHT
 10
0.0
 20
0.0
 30
0.0
  9
$PUCSORGFRONT
 10
0.0
 20
0.0
 30
0.0
  9
$PUCSORGBACK
 10
0.0
 20
0.0
 30
0.0
  9
$USERI1
 70
     0
  9
$USERI2
 70
     0
  9
$USERI3
 70
     0
  9
$USERI4
 70
     0
  9
$USERI5
 70
     0
  9
$USERR1
 40
0.0
  9
$USERR2
 40
0.0
  9
$USERR3
 40
0.0
  9
$USERR4
 40
0.0
  9
$USERR5
 40
0.0
  9
$WORLDVIEW
 70
     1
  9
$SHADEDGE
 70
     3
  9
$SHADEDIF
 70
    70
  9
$TILEMODE
 70
     1
  9
$MAXACTVP
 70
    16
  9
$PINSBASE
 10
0.0
 20
0.0
 30
0.0
  9
$PLIMCHECK
 70
     0
  9
$PEXTMIN
 10
1.000000E+20
 20
1.000000E+20
 30
1.000000E+20
  9
$PEXTMAX
 10
-1.000000E+20
 20
-1.000000E+20
 30
-1.000000E+20
  9
$PLIMMIN
 10
0.0
 20
0.0
  9
$PLIMMAX
 10
12.0
 20
9.0
  9
$UNITMODE
 70
     0
  9
$VISRETAIN
 70
     0
  9
$PLINEGEN
 70
     1
  9
$PSLTSCALE
 70
     0
  9
$TREEDEPTH
 70
  3020
  9
$CMLSTYLE
  2
Standard
  9
$CMLJUST
 70
     0
  9
$CMLSCALE
 40
1.0
  9
$PROXYGRAPHICS
 70
     0
  9
$MEASUREMENT
 70
     0
  9
$CELWEIGHT
370
     0
  9
$ENDCAPS
280
     0
  9
$JOINSTYLE
280
     0
  9
$LWDISPLAY
290
     0
  9
$INSUNITS
 70
     0
  9
$HYPERLINKBASE
  1

  9
$STYLESHEET
  1

  9
$XEDIT
290
     1
  9
$CEPSNTYPE
380
     0
  9
$PSTYLEMODE
290
     1
  9
$FINGERPRINTGUID
  2

  9
$VERSIONGUID
  2

  9
$EXTNAMES
290
     1
  9
$PSVPSCALE
 40
0.0
  0
ENDSEC
  0
SECTION
  2
CLASSES
  0
CLASS
  1
LWPOLYLINE
  2
AcDbPolyline
  3
AutoCAD 2000
 90
        0
280
     0
281
     1
  0
CLASS
  1
IMAGE
  2
AcDbRasterImage
  3
ISM
 90
      127
280
     0
281
     1
  0
CLASS
  1
OLE2FRAME
  2
AcDbOle2Frame
  3
AutoCAD 2000
 90
        0
280
     0
281
     1
  0
CLASS
  1
HATCH
  2
AcDbHatch
  3
AutoCAD 2000
 90
        0
280
     0
281
     1
  0
CLASS
  1
DICTIONARYVAR
  2
AcDbDictionaryVar
  3
AutoCAD 2000
 90
        0
280
     0
281
     0
  0
CLASS
  1
RASTERVARIABLES
  2
AcDbRasterVariables
  3
ISM
 90
        0
280
     0
281
     0
  0
CLASS
  1
IMAGEDEF
  2
AcDbRasterImageDef
  3
ISM
 90
        0
280
     0
281
     0
  0
CLASS
  1
IMAGEDEF_REACTOR
  2
AcDbRasterImageDefReactor
  3
ISM
 90
        1
280
     0
281
     0
  0
CLASS
  1
IDBUFFER
  2
AcDbIdBuffer
  3
AutoCAD 2000
 90
        0
280
     0
281
     0
  0
CLASS
  1
SPATIAL_FILTER
  2
AcDbSpatialFilter
  3
AutoCAD 2000
 90
        0
280
     0
281
     0
  0
CLASS
  1
XRECORD
  2
AcDbXrecord
  3
AutoCAD 2000
 90
        0
280
     0
281
     0
  0
CLASS
  1
SORTENTSTABLE
  2
AcDbSortentsTable
  3
AutoCAD 2000
 90
        0
280
     0
281
     0
  0
CLASS
  1
LAYER_INDEX
  2
AcDbLayerIndex
  3
AutoCAD 2000
 90
        0
280
     0
281
     0
  0
CLASS
  1
SPATIAL_INDEX
  2
AcDbSpatialIndex
  3
AutoCAD 2000
 90
        0
280
     0
281
     0
  0
CLASS
  1
OBJECT_PTR
  2
CAseDLPNTableRecord
  3
"ASE-LPNTableRecord"
 90
        1
280
     0
281
     0
  0
CLASS
  1
LAYOUT
  2
AcDbLayout
  3
AutoCAD 2000
 90
        0
280
     0
281
     0
  0
CLASS
  1
PLOTSETTINGS
  2
AcDbPlotSettings
  3
AutoCAD 2000
 90
        0
280
     0
281
     0
  0
CLASS
  1
ACDBDICTIONARYWDFLT
  2
AcDbDictionaryWithDefault
  3
AutoCAD 2000
 90
        0
280
     0
281
     0
  0
CLASS
  1
ACDBPLACEHOLDER
  2
AcDbPlaceHolder
  3
AutoCAD 2000
 90
        0
280
     0
281
     0
  0
CLASS
  1
VBA_PROJECT
  2
AcDbVbaProject
  3
acadvba
 90
        0
280
     0
281
     0
  0
CLASS
  1
WIPEOUT
  2
AcDbWipeout
  3
WipeOut|AutoCAD Express Tool|expresstools@autodesk.com
 90
      127
280
     0
281
     1
  0
CLASS
  1
WIPEOUTVARIABLES
  2
AcDbWipeoutVariables
  3
WipeOut|AutoCAD Express Tool|expresstools@autodesk.com
 90
        0
280
     0
281
     0
  0
CLASS
  1
RTEXT
  2
RText
  3
RText|AutoCAD Express Tool|expresstools@autodesk.com
 90
        0
280
     0
281
     1
  0
CLASS
  1
ARCALIGNEDTEXT
  2
AcDbArcAlignedText
  3
ATEXT|AutoCAD Express Tool|expresstools@autodesk.com
 90
        0
280
     0
281
     1
  0
ENDSEC
  0
SECTION
  2
TABLES
  0
TABLE
  2
VPORT
  5
6
100
AcDbSymbolTable
 70
     1
  0
VPORT
  5
19
100
AcDbSymbolTableRecord
100
AcDbViewportTableRecord
  2
*ACTIVE
 70
     0
 10
0.0
 20
0.0
 11
1.0
 21
1.0
 12
0.0
 22
0.0
 13
0.0
 23
0.0
 14
1.0
 24
1.0
 15
0.0
 25
0.0
 16
0.0
 26
0.0
 36
1.0
 17
0.0
 27
0.0
 37
0.0
 40
594.0
 41
1.414141
 42
50.0
 43
0.0
 44
0.0
 50
0.0
 51
0.0
 71
     0
 72
   500
 73
     1
 74
     1
 75
     0
 76
     0
 77
     0
 78
     0
281
     0
 65
     0
110
0.0
120
0.0
130
0.0
111
1.0
121
0.0
131
0.0
112
0.0
122
1.0
132
0.0
345
0
346
0
 79
     0
146
0.0
  0
ENDTAB
  0
TABLE
  2
LTYPE
  5
3
100
AcDbSymbolTable
 70
     9
  0
LTYPE
  5
C
100
AcDbSymbolTableRecord
100
AcDbLinetypeTableRecord
  2
ByBlock
 70
    64
  3

 72
    65
 73
     0
 40
0.0
  0
LTYPE
  5
D
100
AcDbSymbolTableRecord
100
AcDbLinetypeTableRecord
  2
ByLayer
 70
    64
  3

 72
    65
 73
     0
 40
0.0
  0
LTYPE
  5
E
100
AcDbSymbolTableRecord
100
AcDbLinetypeTableRecord
  2
CONTINUOUS
 70
     0
  3
Solid line
 72
    65
 73
     0
 40
0.0
  0
LTYPE
  5
F
100
AcDbSymbolTableRecord
100
AcDbLinetypeTableRecord
  2
DASHED
 70
     0
  3
__ __ __ __ __ __ __ __ __ __ __ __ __ __ __
 72
    65
 73
     2
 40
2.0
 49
1.2
 74
     0
 49
-0.8
 74
     0
  0
LTYPE
  5
10
100
AcDbSymbolTableRecord
100
AcDbLinetypeTableRecord
  2
CENTER
 70
     0
  3
____ _ ____ _ ____ _ ____ _ ____ _ ____ _ ____
 72
    65
 73
     4
 40
12.0
 49
9.0
 74
     0
 49
-1.0
 74
     0
 49
1.0
 74
     0
 49
-1.0
 74
     0
  0
LTYPE
  5
11
100
AcDbSymbolTableRecord
100
AcDbLinetypeTableRecord
  2
HIDDEN
 70
     0
  3
_ _ _ _ _ _ _ _ _ _ _ _ _ _ _ _ _ _ _ _ _ _ _
 72
    65
 73
     2
 40
3.2
 49
2.4
 74
     0
 49
-0.8
 74
     0
  0
LTYPE
  5
12
100
AcDbSymbolTableRecord
100
AcDbLinetypeTableRecord
  2
PHANTOM
 70
     0
  3
_____ _ _ _____ _ _ _____ _ _ _____ _ _ _____
 72
    65
 73
     6
 40
13.5
 49
9.0
 74
     0
 49
-1.0
 74
     0
 49
1.0
 74
     0
 49
-0.5
 74
     0
 49
1.0
 74
     0
 49
-1.0
 74
     0
  0
LTYPE
  5
13
100
AcDbSymbolTableRecord
100
AcDbLinetypeTableRecord
  2
DOT
 70
     0
  3
...............................................
 72
    65
 73
     2
 40
1.0
 49
0.5
 74
     0
 49
-0.5
 74
     0
  0
LTYPE
  5
14
100
AcDbSymbolTableRecord
100
AcDbLinetypeTableRecord
  2
DASHDOT
 70
     0
  3
__ . __ . __ . __ . __ . __ . __ . __ . __ . __
 72
    65
 73
     4
 40
8.0
 49
5.0
 74
     0
 49
-1.0
 74
     0
 49
1.0
 74
     0
 49
-1.0
 74
     0
  0
ENDTAB
  0
TABLE
  2
LAYER
  5
1
100
AcDbSymbolTable
 70
     4
  0
LAYER
  5
15
100
AcDbSymbolTableRecord
100
AcDbLayerTableRecord
  2
0
 70
     0
 62
     7
  6
CONTINUOUS
290
     1
370
    -3
390
0
  0
LAYER
  5
16
100
AcDbSymbolTableRecord
100
AcDbLayerTableRecord
  2
1
 70
     0
 62
     7
  6
CONTINUOUS
290
     1
370
    -3
390
0
  0
LAYER
  5
17
100
AcDbSymbolTableRecord
100
AcDbLayerTableRecord
  2
2
 70
     0
 62
     7
  6
CONTINUOUS
290
     1
370
    -3
390
0
  0
LAYER
  5
18
100
AcDbSymbolTableRecord
100
AcDbLayerTableRecord
  2
3
 70
     0
 62
     7
  6
CONTINUOUS
290
     1
370
    -3
390
0
  0
ENDTAB
  0
TABLE
  2
STYLE
  5
2
100
AcDbSymbolTable
 70
     1
  0
STYLE
  5
1B
100
AcDbSymbolTableRecord
100
AcDbTextStyleTableRecord
  2
STANDARD
 70
    64
 40
0.0
 41
1.0
 50
0.0
 71
     0
 42
1.0
  3
txt
  4
BIGFONT
  0
ENDTAB
  0
TABLE
  2
VIEW
  5
4
100
AcDbSymbolTable
 70
     0
  0
ENDTAB
  0
TABLE
  2
UCS
  5
5
100
AcDbSymbolTable
 70
     0
  0
ENDTAB
  0
TABLE
  2
APPID
  5
7
100
AcDbSymbolTable
 70
     1
  0
APPID
  5
1A
100
AcDbSymbolTableRecord
100
AcDbRegAppTableRecord
  2
ACAD
 70
     0
  0
ENDTAB
  0
TABLE
  2
DIMSTYLE
  5
8
100
AcDbSymbolTable
 70
     1
100
AcDbDimStyleTable
 71
     0
  0
DIMSTYLE
105
32
100
AcDbSymbolTableRecord
100
AcDbDimStyleTableRecord
  2
Standard
 70
     0
  3

  4

 40
2.0
 41
2.0
 42
1.0
 43
0.38
 44
2.0
 45
0.0
 46
0.0
 47
0.0
 48
0.0
 71
     0
 72
     0
 73
     0
 74
     0
 75
     0
 76
     0
 77
     1
 78
     0
 79
     0
140
3.5
141
0.09
142
0.0
143
25.4
144
1.0
145
0.0
146
1.0
147
0.5
148
0.0
170
     0
171
     2
172
     0
173
     0
174
     0
175
     0
176
     0
177
     0
178
     0
179
     0
271
     3
272
     4
273
     2
274
     2
275
     0
276
     0
277
     2
278
    46
279
     0
280
     0
281
     0
282
     0
283
     1
284
     0
285
     0
286
     0
288
     0
289
     3
340
1B
341
0
342
0
343
0
344
0
371
    -2
372
    -2
  0
ENDTAB
  0
TABLE
  2
BLOCK_RECORD
  5
2D
100
AcDbSymbolTable
 70
    15
  0
BLOCK_RECORD
  5
2B
100
AcDbSymbolTableRecord
100
AcDbBlockTableRecord
  2
*Model_Space
340
0
  0
BLOCK_RECORD
  5
2C
100
AcDbSymbolTableRecord
100
AcDbBlockTableRecord
  2
*Paper_Space
340
0
  0
BLOCK_RECORD
  5
1C
100
AcDbSymbolTableRecord
100
AcDbBlockTableRecord
  2
*D0
340
0
  0
BLOCK_RECORD
  5
1D
100
AcDbSymbolTableRecord
100
AcDbBlockTableRecord
  2
*D1
340
0
  0
BLOCK_RECORD
  5
1E
100
AcDbSymbolTableRecord
100
AcDbBlockTableRecord
  2
*D2
340
0
  0
BLOCK_RECORD
  5
1F
100
AcDbSymbolTableRecord
100
AcDbBlockTableRecord
  2
*D3
340
0
  0
BLOCK_RECORD
  5
20
100
AcDbSymbolTableRecord
100
AcDbBlockTableRecord
  2
*D4
340
0
  0
BLOCK_RECORD
  5
21
100
AcDbSymbolTableRecord
100
AcDbBlockTableRecord
  2
*D5
340
0
  0
BLOCK_RECORD
  5
22
100
AcDbSymbolTableRecord
100
AcDbBlockTableRecord
  2
*D6
340
0
  0
BLOCK_RECORD
  5
23
100
AcDbSymbolTableRecord
100
AcDbBlockTableRecord
  2
*D7
340
0
  0
BLOCK_RECORD
  5
24
100
AcDbSymbolTableRecord
100
AcDbBlockTableRecord
  2
*D8
340
0
  0
BLOCK_RECORD
  5
25
100
AcDbSymbolTableRecord
100
AcDbBlockTableRecord
  2
*D9
340
0
  0
BLOCK_RECORD
  5
26
100
AcDbSymbolTableRecord
100
AcDbBlockTableRecord
  2
*D10
340
0
  0
BLOCK_RECORD
  5
27
100
AcDbSymbolTableRecord
100
AcDbBlockTableRecord
  2
*D11
340
0
  0
BLOCK_RECORD
  5
28
100
AcDbSymbolTableRecord
100
AcDbBlockTableRecord
  2
*D12
340
0
  0
BLOCK_RECORD
  5
29
100
AcDbSymbolTableRecord
100
AcDbBlockTableRecord
  2
*D13
340
0
  0
BLOCK_RECORD
  5
2A
100
AcDbSymbolTableRecord
100
AcDbBlockTableRecord
  2
*D14
340
0
  0
ENDTAB
  0
ENDSEC
  0
SECTION
  2
BLOCKS
  0
BLOCK
  5
2E
100
AcDbEntity
  8
0
390
0
100
AcDbBlockBegin
  2
*Model_Space
 70
     0
 10
0.0
 20
0.0
 30
0.0
  3
*Model_Space
  1

  0
ENDBLK
  5
2F
100
AcDbEntity
  8
0
390
0
100
AcDbBlockEnd
  0
BLOCK
  5
30
100
AcDbEntity
 67
     1
  8
0
390
0
100
AcDbBlockBegin
  2
*Paper_Space
 70
     0
 10
0.0
 20
0.0
 30
0.0
  3
*Paper_Space
  1

  0
ENDBLK
  5
31
100
AcDbEntity
 67
     1
  8
0
390
0
100
AcDbBlockEnd
  0
BLOCK
  5
84F
100
AcDbEntity
  8
3
100
AcDbBlockBegin
  2
*D0
 70
     1
 10
0.0
 20
0.0
 30
0.0
  3
*D0
  1

  0
TEXT
  5
850
100
AcDbEntity
  8
3
370
    25
100
AcDbText
 10
-173.930129
 20
231.528625
 30
0.0
 40
7.0
  1
100
 41
2.0
 72
     5
 11
-155.730129
 21
231.528625
 31
0.0
100
AcDbText
  0
LINE
  5
851
100
AcDbEntity
  8
3
370
    25
100
AcDbLine
 10
-213.229765
 20
145.241645
 30
0.0
 11
-213.229765
 21
232.528625
 31
0.0
  0
LINE
  5
852
100
AcDbEntity
  8
3
370
    25
100
AcDbLine
 10
-213.229765
 20
230.528625
 30
0.0
 11
-209.366062
 21
229.493349
 31
0.0
  0
LINE
  5
853
100
AcDbEntity
  8
3
370
    25
100
AcDbLine
 10
-213.229765
 20
230.528625
 30
0.0
 11
-209.366062
 21
231.563902
 31
0.0
  0
LINE
  5
854
100
AcDbEntity
  8
3
370
    25
100
AcDbLine
 10
-209.366062
 20
229.493349
 30
0.0
 11
-209.366062
 21
231.563902
 31
0.0
  0
LINE
  5
855
100
AcDbEntity
  8
3
370
    25
100
AcDbLine
 10
-213.229765
 20
230.528625
 30
0.0
 11
-113.630493
 21
230.528625
 31
0.0
  0
LINE
  5
856
100
AcDbEntity
  8
3
370
    25
100
AcDbLine
 10
-113.630493
 20
230.528625
 30
0.0
 11
-117.494196
 21
231.563902
 31
0.0
  0
LINE
  5
857
100
AcDbEntity
  8
3
370
    25
100
AcDbLine
 10
-113.630493
 20
230.528625
 30
0.0
 11
-117.494196
 21
229.493349
 31
0.0
  0
LINE
  5
858
100
AcDbEntity
  8
3
370
    25
100
AcDbLine
 10
-117.494196
 20
231.563902
 30
0.0
 11
-117.494196
 21
229.493349
 31
0.0
  0
LINE
  5
859
100
AcDbEntity
  8
3
370
    25
100
AcDbLine
 10
-113.630493
 20
145.241645
 30
0.0
 11
-113.630493
 21
232.528625
 31
0.0
  0
ENDBLK
  5
85A
100
AcDbEntity
  8
3
100
AcDbBlockEnd
  0
BLOCK
  5
85B
100
AcDbEntity
  8
3
100
AcDbBlockBegin
  2
*D1
 70
     1
 10
0.0
 20
0.0
 30
0.0
  3
*D1
  1

  0
TEXT
  5
85C
100
AcDbEntity
  8
3
370
    25
100
AcDbText
 10
-85.630311
 20
231.528625
 30
0.0
 40
7.0
  1
70
 41
2.0
 72
     5
 11
-74.430311
 21
231.528625
 31
0.0
100
AcDbText
  0
LINE
  5
85D
100
AcDbEntity
  8
3
370
    25
100
AcDbLine
 10
-113.630493
 20
145.241645
 30
0.0
 11
-113.630493
 21
232.528625
 31
0.0
  0
LINE
  5
85E
100
AcDbEntity
  8
3
370
    25
100
AcDbLine
 10
-113.630493
 20
230.528625
 30
0.0
 11
-109.766789
 21
229.493349
 31
0.0
  0
LINE
  5
85F
100
AcDbEntity
  8
3
370
    25
100
AcDbLine
 10
-113.630493
 20
230.528625
 30
0.0
 11
-109.766789
 21
231.563902
 31
0.0
  0
LINE
  5
860
100
AcDbEntity
  8
3
370
    25
100
AcDbLine
 10
-109.766789
 20
229.493349
 30
0.0
 11
-109.766789
 21
231.563902
 31
0.0
  0
LINE
  5
861
100
AcDbEntity
  8
3
370
    25
100
AcDbLine
 10
-113.630493
 20
230.528625
 30
0.0
 11
-43.630129
 21
230.528625
 31
0.0
  0
LINE
  5
862
100
AcDbEntity
  8
3
370
    25
100
AcDbLine
 10
-43.630129
 20
230.528625
 30
0.0
 11
-47.493832
 21
231.563902
 31
0.0
  0
LINE
  5
863
100
AcDbEntity
  8
3
370
    25
100
AcDbLine
 10
-43.630129
 20
230.528625
 30
0.0
 11
-47.493832
 21
229.493349
 31
0.0
  0
LINE
  5
864
100
AcDbEntity
  8
3
370
    25
100
AcDbLine
 10
-47.493832
 20
231.563902
 30
0.0
 11
-47.493832
 21
229.493349
 31
0.0
  0
LINE
  5
865
100
AcDbEntity
  8
3
370
    25
100
AcDbLine
 10
-43.630129
 20
184.741645
 30
0.0
 11
-43.630129
 21
232.528625
 31
0.0
  0
ENDBLK
  5
866
100
AcDbEntity
  8
3
100
AcDbBlockEnd
  0
BLOCK
  5
867
100
AcDbEntity
  8
3
100
AcDbBlockBegin
  2
*D2
 70
     1
 10
0.0
 20
0.0
 30
0.0
  3
*D2
  1

  0
TEXT
  5
868
100
AcDbEntity
  8
3
370
    25
100
AcDbText
 10
247.698075
 20
-108.710861
 30
0.0
 40
7.0
  1
６４
 72
     5
 11
260.298075
 21
-108.710861
 31
0.0
100
AcDbText
  0
LINE
  5
869
100
AcDbEntity
  8
3
370
    25
100
AcDbLine
 10
222.498075
 20
19.740323
 30
0.0
 11
222.498075
 21
-111.710861
 31
0.0
  0
LINE
  5
86A
100
AcDbEntity
  8
3
370
    25
100
AcDbLine
 10
222.498075
 20
-109.710861
 30
0.0
 11
226.361778
 21
-110.746137
 31
0.0
  0
LINE
  5
86B
100
AcDbEntity
  8
3
370
    25
100
AcDbLine
 10
222.498075
 20
-109.710861
 30
0.0
 11
226.361778
 21
-108.675585
 31
0.0
  0
LINE
  5
86C
100
AcDbEntity
  8
3
370
    25
100
AcDbLine
 10
226.361778
 20
-110.746137
 30
0.0
 11
226.361778
 21
-108.675585
 31
0.0
  0
LINE
  5
86D
100
AcDbEntity
  8
3
370
    25
100
AcDbLine
 10
222.498075
 20
-109.710861
 30
0.0
 11
286.898075
 21
-109.710861
 31
0.0
  0
LINE
  5
86E
100
AcDbEntity
  8
3
370
    25
100
AcDbLine
 10
286.898075
 20
-109.710861
 30
0.0
 11
283.034371
 21
-108.675585
 31
0.0
  0
LINE
  5
86F
100
AcDbEntity
  8
3
370
    25
100
AcDbLine
 10
286.898075
 20
-109.710861
 30
0.0
 11
283.034371
 21
-110.746137
 31
0.0
  0
LINE
  5
870
100
AcDbEntity
  8
3
370
    25
100
AcDbLine
 10
283.034371
 20
-108.675585
 30
0.0
 11
283.034371
 21
-110.746137
 31
0.0
  0
LINE
  5
871
100
AcDbEntity
  8
3
370
    25
100
AcDbLine
 10
286.898075
 20
-5.259677
 30
0.0
 11
286.898075
 21
-111.710861
 31
0.0
  0
ENDBLK
  5
872
100
AcDbEntity
  8
3
100
AcDbBlockEnd
  0
BLOCK
  5
873
100
AcDbEntity
  8
3
100
AcDbBlockBegin
  2
*D3
 70
     1
 10
0.0
 20
0.0
 30
0.0
  3
*D3
  1

  0
TEXT
  5
874
100
AcDbEntity
  8
3
370
    25
100
AcDbText
 10
78.530426
 20
26.740323
 30
0.0
 40
7.0
  1
２４
 50
90.0
 72
     5
 11
78.530426
 21
39.340323
 31
0.0
100
AcDbText
  0
LINE
  5
875
100
AcDbEntity
  8
3
370
    25
100
AcDbLine
 10
220.498075
 20
21.740323
 30
0.0
 11
77.530426
 21
21.740323
 31
0.0
  0
LINE
  5
876
100
AcDbEntity
  8
3
370
    25
100
AcDbLine
 10
79.530426
 20
21.740323
 30
0.0
 11
80.565702
 21
25.604027
 31
0.0
  0
LINE
  5
877
100
AcDbEntity
  8
3
370
    25
100
AcDbLine
 10
79.530426
 20
21.740323
 30
0.0
 11
78.49515
 21
25.604027
 31
0.0
  0
LINE
  5
878
100
AcDbEntity
  8
3
370
    25
100
AcDbLine
 10
80.565702
 20
25.604027
 30
0.0
 11
78.49515
 21
25.604027
 31
0.0
  0
LINE
  5
879
100
AcDbEntity
  8
3
370
    25
100
AcDbLine
 10
79.530426
 20
21.740323
 30
0.0
 11
79.530426
 21
45.740323
 31
0.0
  0
LINE
  5
87A
100
AcDbEntity
  8
3
370
    25
100
AcDbLine
 10
79.530426
 20
45.740323
 30
0.0
 11
78.49515
 21
41.87662
 31
0.0
  0
LINE
  5
87B
100
AcDbEntity
  8
3
370
    25
100
AcDbLine
 10
79.530426
 20
45.740323
 30
0.0
 11
80.565702
 21
41.87662
 31
0.0
  0
LINE
  5
87C
100
AcDbEntity
  8
3
370
    25
100
AcDbLine
 10
78.49515
 20
41.87662
 30
0.0
 11
80.565702
 21
41.87662
 31
0.0
  0
LINE
  5
87D
100
AcDbEntity
  8
3
370
    25
100
AcDbLine
 10
220.498075
 20
45.740323
 30
0.0
 11
77.530426
 21
45.740323
 31
0.0
  0
ENDBLK
  5
87E
100
AcDbEntity
  8
3
100
AcDbBlockEnd
  0
BLOCK
  5
87F
100
AcDbEntity
  8
3
100
AcDbBlockBegin
  2
*D4
 70
     1
 10
0.0
 20
0.0
 30
0.0
  3
*D4
  1

  0
TEXT
  5
880
100
AcDbEntity
  8
3
370
    25
100
AcDbText
 10
-294.779967
 20
233.828903
 30
0.0
 40
7.0
  1
φ４６
 72
     5
 11
-275.179967
 21
233.828903
 31
0.0
100
AcDbText
  0
LINE
  5
881
100
AcDbEntity
  8
3
370
    25
100
AcDbLine
 10
-307.279967
 20
201.541387
 30
0.0
 11
-307.279967
 21
234.828903
 31
0.0
  0
LINE
  5
882
100
AcDbEntity
  8
3
370
    25
100
AcDbLine
 10
-307.279967
 20
232.828903
 30
0.0
 11
-303.416264
 21
231.793627
 31
0.0
  0
LINE
  5
883
100
AcDbEntity
  8
3
370
    25
100
AcDbLine
 10
-307.279967
 20
232.828903
 30
0.0
 11
-303.416264
 21
233.864179
 31
0.0
  0
LINE
  5
884
100
AcDbEntity
  8
3
370
    25
100
AcDbLine
 10
-303.416264
 20
231.793627
 30
0.0
 11
-303.416264
 21
233.864179
 31
0.0
  0
LINE
  5
885
100
AcDbEntity
  8
3
370
    25
100
AcDbLine
 10
-307.279967
 20
232.828903
 30
0.0
 11
-261.279967
 21
232.828903
 31
0.0
  0
LINE
  5
886
100
AcDbEntity
  8
3
370
    25
100
AcDbLine
 10
-261.279967
 20
232.828903
 30
0.0
 11
-265.143671
 21
233.864179
 31
0.0
  0
LINE
  5
887
100
AcDbEntity
  8
3
370
    25
100
AcDbLine
 10
-261.279967
 20
232.828903
 30
0.0
 11
-265.143671
 21
231.793627
 31
0.0
  0
LINE
  5
888
100
AcDbEntity
  8
3
370
    25
100
AcDbLine
 10
-265.143671
 20
233.864179
 30
0.0
 11
-265.143671
 21
231.793627
 31
0.0
  0
LINE
  5
889
100
AcDbEntity
  8
3
370
    25
100
AcDbLine
 10
-261.279967
 20
201.541387
 30
0.0
 11
-261.279967
 21
234.828903
 31
0.0
  0
ENDBLK
  5
88A
100
AcDbEntity
  8
3
100
AcDbBlockEnd
  0
BLOCK
  5
88B
100
AcDbEntity
  8
3
100
AcDbBlockBegin
  2
*D5
 70
     1
 10
0.0
 20
0.0
 30
0.0
  3
*D5
  1

  0
LINE
  5
88C
100
AcDbEntity
  8
3
370
    25
100
AcDbLine
 10
222.498075
 20
19.740323
 30
0.0
 11
222.498075
 21
-141.517166
 31
0.0
  0
LINE
  5
88D
100
AcDbEntity
  8
3
370
    25
100
AcDbLine
 10
222.498075
 20
-139.517166
 30
0.0
 11
226.361778
 21
-140.552442
 31
0.0
  0
LINE
  5
88E
100
AcDbEntity
  8
3
370
    25
100
AcDbLine
 10
222.498075
 20
-139.517166
 30
0.0
 11
226.361778
 21
-138.48189
 31
0.0
  0
LINE
  5
88F
100
AcDbEntity
  8
3
370
    25
100
AcDbLine
 10
226.361778
 20
-140.552442
 30
0.0
 11
226.361778
 21
-138.48189
 31
0.0
  0
LINE
  5
890
100
AcDbEntity
  8
3
370
    25
100
AcDbLine
 10
222.498075
 20
-139.517166
 30
0.0
 11
333.647839
 21
-139.517166
 31
0.0
  0
LINE
  5
891
100
AcDbEntity
  8
3
370
    25
100
AcDbLine
 10
333.647839
 20
-139.517166
 30
0.0
 11
329.784135
 21
-138.48189
 31
0.0
  0
LINE
  5
892
100
AcDbEntity
  8
3
370
    25
100
AcDbLine
 10
333.647839
 20
-139.517166
 30
0.0
 11
329.784135
 21
-140.552442
 31
0.0
  0
LINE
  5
893
100
AcDbEntity
  8
3
370
    25
100
AcDbLine
 10
329.784135
 20
-138.48189
 30
0.0
 11
329.784135
 21
-140.552442
 31
0.0
  0
LINE
  5
894
100
AcDbEntity
  8
3
370
    25
100
AcDbLine
 10
333.647839
 20
-52.725317
 30
0.0
 11
333.647839
 21
-141.517166
 31
0.0
  0
ENDBLK
  5
895
100
AcDbEntity
  8
3
100
AcDbBlockEnd
  0
BLOCK
  5
896
100
AcDbEntity
  8
3
100
AcDbBlockBegin
  2
*D6
 70
     1
 10
0.0
 20
0.0
 30
0.0
  3
*D6
  1

  0
LINE
  5
897
100
AcDbEntity
  8
3
370
    25
100
AcDbLine
 10
333.647839
 20
-52.725317
 30
0.0
 11
333.647839
 21
-141.517166
 31
0.0
  0
LINE
  5
898
100
AcDbEntity
  8
3
370
    25
100
AcDbLine
 10
333.647839
 20
-139.517166
 30
0.0
 11
329.784135
 21
-138.48189
 31
0.0
  0
LINE
  5
899
100
AcDbEntity
  8
3
370
    25
100
AcDbLine
 10
333.647839
 20
-139.517166
 30
0.0
 11
329.784135
 21
-140.552442
 31
0.0
  0
LINE
  5
89A
100
AcDbEntity
  8
3
370
    25
100
AcDbLine
 10
329.784135
 20
-138.48189
 30
0.0
 11
329.784135
 21
-140.552442
 31
0.0
  0
LINE
  5
89B
100
AcDbEntity
  8
3
370
    25
100
AcDbLine
 10
323.647839
 20
-139.517166
 30
0.0
 11
390.023839
 21
-139.517166
 31
0.0
  0
LINE
  5
89C
100
AcDbEntity
  8
3
370
    25
100
AcDbLine
 10
354.023839
 20
-139.517166
 30
0.0
 11
357.887542
 21
-140.552442
 31
0.0
  0
LINE
  5
89D
100
AcDbEntity
  8
3
370
    25
100
AcDbLine
 10
354.023839
 20
-139.517166
 30
0.0
 11
357.887542
 21
-138.48189
 31
0.0
  0
LINE
  5
89E
100
AcDbEntity
  8
3
370
    25
100
AcDbLine
 10
357.887542
 20
-140.552442
 30
0.0
 11
357.887542
 21
-138.48189
 31
0.0
  0
LINE
  5
89F
100
AcDbEntity
  8
3
370
    25
100
AcDbLine
 10
354.023839
 20
-39.356911
 30
0.0
 11
354.023839
 21
-141.517166
 31
0.0
  0
ENDBLK
  5
8A0
100
AcDbEntity
  8
3
100
AcDbBlockEnd
  0
BLOCK
  5
8A1
100
AcDbEntity
  8
3
100
AcDbBlockBegin
  2
*D7
 70
     1
 10
0.0
 20
0.0
 30
0.0
  3
*D7
  1

  0
LINE
  5
8A2
100
AcDbEntity
  8
3
370
    25
100
AcDbLine
 10
-263.927154
 20
-157.757692
 30
0.0
 11
-263.927154
 21
-249.09021
 31
0.0
  0
LINE
  5
8A3
100
AcDbEntity
  8
3
370
    25
100
AcDbLine
 10
-263.927154
 20
-247.09021
 30
0.0
 11
-260.06345
 21
-248.125486
 31
0.0
  0
LINE
  5
8A4
100
AcDbEntity
  8
3
370
    25
100
AcDbLine
 10
-263.927154
 20
-247.09021
 30
0.0
 11
-260.06345
 21
-246.054934
 31
0.0
  0
LINE
  5
8A5
100
AcDbEntity
  8
3
370
    25
100
AcDbLine
 10
-260.06345
 20
-248.125486
 30
0.0
 11
-260.06345
 21
-246.054934
 31
0.0
  0
LINE
  5
8A6
100
AcDbEntity
  8
3
370
    25
100
AcDbLine
 10
-263.927154
 20
-247.09021
 30
0.0
 11
-64.932204
 21
-247.09021
 31
0.0
  0
LINE
  5
8A7
100
AcDbEntity
  8
3
370
    25
100
AcDbLine
 10
-64.932204
 20
-247.09021
 30
0.0
 11
-68.795908
 21
-246.054934
 31
0.0
  0
LINE
  5
8A8
100
AcDbEntity
  8
3
370
    25
100
AcDbLine
 10
-64.932204
 20
-247.09021
 30
0.0
 11
-68.795908
 21
-248.125486
 31
0.0
  0
LINE
  5
8A9
100
AcDbEntity
  8
3
370
    25
100
AcDbLine
 10
-68.795908
 20
-246.054934
 30
0.0
 11
-68.795908
 21
-248.125486
 31
0.0
  0
LINE
  5
8AA
100
AcDbEntity
  8
3
370
    25
100
AcDbLine
 10
-64.932204
 20
-157.757692
 30
0.0
 11
-64.932204
 21
-249.09021
 31
0.0
  0
ENDBLK
  5
8AB
100
AcDbEntity
  8
3
100
AcDbBlockEnd
  0
BLOCK
  5
8AC
100
AcDbEntity
  8
3
100
AcDbBlockBegin
  2
*D8
 70
     1
 10
0.0
 20
0.0
 30
0.0
  3
*D8
  1

  0
TEXT
  5
8AD
100
AcDbEntity
  8
3
370
    25
100
AcDbText
 10
5.849665
 20
-29.612439
 30
0.0
 40
7.0
  1
８９
 50
90.0
 72
     5
 11
5.849665
 21
-17.012439
 31
0.0
100
AcDbText
  0
LINE
  5
8AE
100
AcDbEntity
  8
3
370
    25
100
AcDbLine
 10
50.498771
 20
-66.965201
 30
0.0
 11
4.849665
 21
-66.965201
 31
0.0
  0
LINE
  5
8AF
100
AcDbEntity
  8
3
370
    25
100
AcDbLine
 10
6.849665
 20
-66.965201
 30
0.0
 11
7.884941
 21
-63.101498
 31
0.0
  0
LINE
  5
8B0
100
AcDbEntity
  8
3
370
    25
100
AcDbLine
 10
6.849665
 20
-66.965201
 30
0.0
 11
5.814389
 21
-63.101498
 31
0.0
  0
LINE
  5
8B1
100
AcDbEntity
  8
3
370
    25
100
AcDbLine
 10
7.884941
 20
-63.101498
 30
0.0
 11
5.814389
 21
-63.101498
 31
0.0
  0
LINE
  5
8B2
100
AcDbEntity
  8
3
370
    25
100
AcDbLine
 10
6.849665
 20
-66.965201
 30
0.0
 11
6.849665
 21
21.740323
 31
0.0
  0
LINE
  5
8B3
100
AcDbEntity
  8
3
370
    25
100
AcDbLine
 10
6.849665
 20
21.740323
 30
0.0
 11
5.814389
 21
17.87662
 31
0.0
  0
LINE
  5
8B4
100
AcDbEntity
  8
3
370
    25
100
AcDbLine
 10
6.849665
 20
21.740323
 30
0.0
 11
7.884941
 21
17.87662
 31
0.0
  0
LINE
  5
8B5
100
AcDbEntity
  8
3
370
    25
100
AcDbLine
 10
5.814389
 20
17.87662
 30
0.0
 11
7.884941
 21
17.87662
 31
0.0
  0
LINE
  5
8B6
100
AcDbEntity
  8
3
370
    25
100
AcDbLine
 10
220.498075
 20
21.740323
 30
0.0
 11
4.849665
 21
21.740323
 31
0.0
  0
ENDBLK
  5
8B7
100
AcDbEntity
  8
3
100
AcDbBlockEnd
  0
BLOCK
  5
8B8
100
AcDbEntity
  8
3
100
AcDbBlockBegin
  2
*D9
 70
     1
 10
0.0
 20
0.0
 30
0.0
  3
*D9
  1

  0
TEXT
  5
8B9
100
AcDbEntity
  8
3
370
    25
100
AcDbText
 10
21.295784
 20
-18.787439
 30
0.0
 40
7.0
  1
６７
 50
90.0
 72
     5
 11
21.295784
 21
-6.187439
 31
0.0
100
AcDbText
  0
LINE
  5
8BA
100
AcDbEntity
  8
3
370
    25
100
AcDbLine
 10
22.498771
 20
-45.315201
 30
0.0
 11
20.295784
 21
-45.315201
 31
0.0
  0
LINE
  5
8BB
100
AcDbEntity
  8
3
370
    25
100
AcDbLine
 10
22.295784
 20
-45.315201
 30
0.0
 11
23.33106
 21
-41.451498
 31
0.0
  0
LINE
  5
8BC
100
AcDbEntity
  8
3
370
    25
100
AcDbLine
 10
22.295784
 20
-45.315201
 30
0.0
 11
21.260508
 21
-41.451498
 31
0.0
  0
LINE
  5
8BD
100
AcDbEntity
  8
3
370
    25
100
AcDbLine
 10
23.33106
 20
-41.451498
 30
0.0
 11
21.260508
 21
-41.451498
 31
0.0
  0
LINE
  5
8BE
100
AcDbEntity
  8
3
370
    25
100
AcDbLine
 10
22.295784
 20
-45.315201
 30
0.0
 11
22.295784
 21
21.740323
 31
0.0
  0
LINE
  5
8BF
100
AcDbEntity
  8
3
370
    25
100
AcDbLine
 10
22.295784
 20
21.740323
 30
0.0
 11
21.260508
 21
17.87662
 31
0.0
  0
LINE
  5
8C0
100
AcDbEntity
  8
3
370
    25
100
AcDbLine
 10
22.295784
 20
21.740323
 30
0.0
 11
23.33106
 21
17.87662
 31
0.0
  0
LINE
  5
8C1
100
AcDbEntity
  8
3
370
    25
100
AcDbLine
 10
21.260508
 20
17.87662
 30
0.0
 11
23.33106
 21
17.87662
 31
0.0
  0
LINE
  5
8C2
100
AcDbEntity
  8
3
370
    25
100
AcDbLine
 10
220.498075
 20
21.740323
 30
0.0
 11
20.295784
 21
21.740323
 31
0.0
  0
ENDBLK
  5
8C3
100
AcDbEntity
  8
3
100
AcDbBlockEnd
  0
BLOCK
  5
8C4
100
AcDbEntity
  8
3
100
AcDbBlockBegin
  2
*D10
 70
     1
 10
0.0
 20
0.0
 30
0.0
  3
*D10
  1

  0
LINE
  5
8C5
100
AcDbEntity
  8
3
370
    25
100
AcDbLine
 10
-290.12941
 20
-95.25983
 30
0.0
 11
-290.12941
 21
-34.931484
 31
0.0
  0
LINE
  5
8C6
100
AcDbEntity
  8
3
370
    25
100
AcDbLine
 10
-290.12941
 20
-36.931484
 30
0.0
 11
-286.265707
 21
-37.96676
 31
0.0
  0
LINE
  5
8C7
100
AcDbEntity
  8
3
370
    25
100
AcDbLine
 10
-290.12941
 20
-36.931484
 30
0.0
 11
-286.265707
 21
-35.896208
 31
0.0
  0
LINE
  5
8C8
100
AcDbEntity
  8
3
370
    25
100
AcDbLine
 10
-286.265707
 20
-37.96676
 30
0.0
 11
-286.265707
 21
-35.896208
 31
0.0
  0
LINE
  5
8C9
100
AcDbEntity
  8
3
370
    25
100
AcDbLine
 10
-290.12941
 20
-36.931484
 30
0.0
 11
-37.428951
 21
-36.931484
 31
0.0
  0
LINE
  5
8CA
100
AcDbEntity
  8
3
370
    25
100
AcDbLine
 10
-37.428951
 20
-36.931484
 30
0.0
 11
-41.292654
 21
-35.896208
 31
0.0
  0
LINE
  5
8CB
100
AcDbEntity
  8
3
370
    25
100
AcDbLine
 10
-37.428951
 20
-36.931484
 30
0.0
 11
-41.292654
 21
-37.96676
 31
0.0
  0
LINE
  5
8CC
100
AcDbEntity
  8
3
370
    25
100
AcDbLine
 10
-41.292654
 20
-35.896208
 30
0.0
 11
-41.292654
 21
-37.96676
 31
0.0
  0
LINE
  5
8CD
100
AcDbEntity
  8
3
370
    25
100
AcDbLine
 10
-37.428951
 20
-95.260197
 30
0.0
 11
-37.428951
 21
-34.931484
 31
0.0
  0
ENDBLK
  5
8CE
100
AcDbEntity
  8
3
100
AcDbBlockEnd
  0
BLOCK
  5
8CF
100
AcDbEntity
  8
3
100
AcDbBlockBegin
  2
*D11
 70
     1
 10
0.0
 20
0.0
 30
0.0
  3
*D11
  1

  0
LINE
  5
8D0
100
AcDbEntity
  8
3
370
    25
100
AcDbLine
 10
-290.12941
 20
-95.25983
 30
0.0
 11
-290.12941
 21
-61.539581
 31
0.0
  0
LINE
  5
8D1
100
AcDbEntity
  8
3
370
    25
100
AcDbLine
 10
-290.12941
 20
-63.539581
 30
0.0
 11
-286.265707
 21
-64.574857
 31
0.0
  0
LINE
  5
8D2
100
AcDbEntity
  8
3
370
    25
100
AcDbLine
 10
-290.12941
 20
-63.539581
 30
0.0
 11
-286.265707
 21
-62.504305
 31
0.0
  0
LINE
  5
8D3
100
AcDbEntity
  8
3
370
    25
100
AcDbLine
 10
-286.265707
 20
-64.574857
 30
0.0
 11
-286.265707
 21
-62.504305
 31
0.0
  0
LINE
  5
8D4
100
AcDbEntity
  8
3
370
    25
100
AcDbLine
 10
-290.12941
 20
-63.539581
 30
0.0
 11
-163.77941
 21
-63.539581
 31
0.0
  0
LINE
  5
8D5
100
AcDbEntity
  8
3
370
    25
100
AcDbLine
 10
-163.77941
 20
-63.539581
 30
0.0
 11
-167.643113
 21
-62.504305
 31
0.0
  0
LINE
  5
8D6
100
AcDbEntity
  8
3
370
    25
100
AcDbLine
 10
-163.77941
 20
-63.539581
 30
0.0
 11
-167.643113
 21
-64.574857
 31
0.0
  0
LINE
  5
8D7
100
AcDbEntity
  8
3
370
    25
100
AcDbLine
 10
-167.643113
 20
-62.504305
 30
0.0
 11
-167.643113
 21
-64.574857
 31
0.0
  0
LINE
  5
8D8
100
AcDbEntity
  8
3
370
    25
100
AcDbLine
 10
-163.77941
 20
-82.260197
 30
0.0
 11
-163.77941
 21
-61.539581
 31
0.0
  0
ENDBLK
  5
8D9
100
AcDbEntity
  8
3
100
AcDbBlockEnd
  0
BLOCK
  5
8DA
100
AcDbEntity
  8
3
100
AcDbBlockBegin
  2
*D12
 70
     1
 10
0.0
 20
0.0
 30
0.0
  3
*D12
  1

  0
LINE
  5
8DB
100
AcDbEntity
  8
3
370
    25
100
AcDbLine
 10
-163.77941
 20
-82.260197
 30
0.0
 11
-163.77941
 21
-61.539581
 31
0.0
  0
LINE
  5
8DC
100
AcDbEntity
  8
3
370
    25
100
AcDbLine
 10
-163.77941
 20
-63.539581
 30
0.0
 11
-159.915707
 21
-64.574857
 31
0.0
  0
LINE
  5
8DD
100
AcDbEntity
  8
3
370
    25
100
AcDbLine
 10
-163.77941
 20
-63.539581
 30
0.0
 11
-159.915707
 21
-62.504305
 31
0.0
  0
LINE
  5
8DE
100
AcDbEntity
  8
3
370
    25
100
AcDbLine
 10
-159.915707
 20
-64.574857
 30
0.0
 11
-159.915707
 21
-62.504305
 31
0.0
  0
LINE
  5
8DF
100
AcDbEntity
  8
3
370
    25
100
AcDbLine
 10
-163.77941
 20
-63.539581
 30
0.0
 11
-37.428951
 21
-63.539581
 31
0.0
  0
LINE
  5
8E0
100
AcDbEntity
  8
3
370
    25
100
AcDbLine
 10
-37.428951
 20
-63.539581
 30
0.0
 11
-41.292654
 21
-62.504305
 31
0.0
  0
LINE
  5
8E1
100
AcDbEntity
  8
3
370
    25
100
AcDbLine
 10
-37.428951
 20
-63.539581
 30
0.0
 11
-41.292654
 21
-64.574857
 31
0.0
  0
LINE
  5
8E2
100
AcDbEntity
  8
3
370
    25
100
AcDbLine
 10
-41.292654
 20
-62.504305
 30
0.0
 11
-41.292654
 21
-64.574857
 31
0.0
  0
LINE
  5
8E3
100
AcDbEntity
  8
3
370
    25
100
AcDbLine
 10
-37.428951
 20
-95.260197
 30
0.0
 11
-37.428951
 21
-61.539581
 31
0.0
  0
ENDBLK
  5
8E4
100
AcDbEntity
  8
3
100
AcDbBlockEnd
  0
BLOCK
  5
8E5
100
AcDbEntity
  8
3
100
AcDbBlockBegin
  2
*D13
 70
     1
 10
0.0
 20
0.0
 30
0.0
  3
*D13
  1

  0
TEXT
  5
8E6
100
AcDbEntity
  8
3
370
    25
100
AcDbText
 10
214.26636
 20
73.921716
 30
0.0
 40
7.0
  1
９５゜
 50
357.5
 72
     5
 11
233.847705
 21
73.066776
 31
0.0
100
AcDbText
  0
LINE
  5
8E7
100
AcDbEntity
  8
3
370
    25
100
AcDbLine
 10
255.644566
 20
49.553532
 30
0.0
 11
262.924282
 21
55.661939
 31
0.0
  0
LINE
  5
8E8
100
AcDbEntity
  8
3
370
    25
100
AcDbLine
 10
208.170212
 20
36.068185
 30
0.0
 11
185.182165
 21
59.056233
 31
0.0
  0
LINE
  5
8E9
100
AcDbEntity
  8
3
370
    25
100
AcDbLine
 10
261.392193
 20
54.376363
 30
0.0
 11
259.565007
 21
57.934649
 31
0.0
  0
LINE
  5
8EA
100
AcDbEntity
  8
3
370
    25
100
AcDbLine
 10
261.392193
 20
54.376363
 30
0.0
 11
258.030661
 21
56.544336
 31
0.0
  0
LINE
  5
8EB
100
AcDbEntity
  8
3
370
    25
100
AcDbLine
 10
259.565007
 20
57.934649
 30
0.0
 11
258.030661
 21
56.544336
 31
0.0
  0
LINE
  5
8EC
100
AcDbEntity
  8
3
370
    25
100
AcDbLine
 10
186.596378
 20
57.642019
 30
0.0
 11
190.13407
 21
59.508765
 31
0.0
  0
LINE
  5
8ED
100
AcDbEntity
  8
3
370
    25
100
AcDbLine
 10
186.596378
 20
57.642019
 30
0.0
 11
188.726736
 21
61.027514
 31
0.0
  0
LINE
  5
8EE
100
AcDbEntity
  8
3
370
    25
100
AcDbLine
 10
190.13407
 20
59.508765
 30
0.0
 11
188.726736
 21
61.027514
 31
0.0
  0
ARC
  5
8EF
100
AcDbEntity
  8
3
370
    25
100
AcDbCircle
 10
222.498075
 20
21.740323
 30
0.0
 40
50.772665
100
AcDbArc
 50
40.0
 51
135.0
  0
ENDBLK
  5
8F0
100
AcDbEntity
  8
3
100
AcDbBlockEnd
  0
BLOCK
  5
8F1
100
AcDbEntity
  8
3
100
AcDbBlockBegin
  2
*D14
 70
     1
 10
0.0
 20
0.0
 30
0.0
  3
*D14
  1

  0
LINE
  5
8F2
100
AcDbEntity
  8
3
370
    25
100
AcDbLine
 10
208.170212
 20
36.068185
 30
0.0
 11
185.18774
 21
59.050658
 31
0.0
  0
LINE
  5
8F3
100
AcDbEntity
  8
3
370
    25
100
AcDbLine
 10
195.075957
 20
-10.940084
 30
0.0
 11
188.581527
 21
-18.679845
 31
0.0
  0
LINE
  5
8F4
100
AcDbEntity
  8
3
370
    25
100
AcDbLine
 10
186.601953
 20
57.636445
 30
0.0
 11
183.216471
 21
55.506067
 31
0.0
  0
LINE
  5
8F5
100
AcDbEntity
  8
3
370
    25
100
AcDbLine
 10
186.601953
 20
57.636445
 30
0.0
 11
184.735228
 21
54.098742
 31
0.0
  0
LINE
  5
8F6
100
AcDbEntity
  8
3
370
    25
100
AcDbLine
 10
183.216471
 20
55.506067
 30
0.0
 11
184.735228
 21
54.098742
 31
0.0
  0
LINE
  5
8F7
100
AcDbEntity
  8
3
370
    25
100
AcDbLine
 10
189.867102
 20
-17.147756
 30
0.0
 11
187.699149
 21
-13.786211
 31
0.0
  0
LINE
  5
8F8
100
AcDbEntity
  8
3
370
    25
100
AcDbLine
 10
189.867102
 20
-17.147756
 30
0.0
 11
186.308828
 21
-15.320549
 31
0.0
  0
LINE
  5
8F9
100
AcDbEntity
  8
3
370
    25
100
AcDbLine
 10
187.699149
 20
-13.786211
 30
0.0
 11
186.308828
 21
-15.320549
 31
0.0
  0
ARC
  5
8FA
100
AcDbEntity
  8
3
370
    25
100
AcDbCircle
 10
222.498075
 20
21.740323
 30
0.0
 40
50.764782
100
AcDbArc
 50
135.0
 51
230.0
  0
ENDBLK
  5
8FB
100
AcDbEntity
  8
3
100
AcDbBlockEnd
  0
ENDSEC
  0
SECTION
  2
ENTITIES
  0
LINE
  5
33
100
AcDbEntity
  8
1
370
   100
100
AcDbLine
 10
-373.02157
 20
275.028767
 30
0.0
 11
394.982385
 21
275.028767
 31
0.0
  0
LINE
  5
34
100
AcDbEntity
  8
1
370
   100
100
AcDbLine
 10
-373.02157
 20
275.028767
 30
0.0
 11
-373.02157
 21
-277.971881
 31
0.0
  0
LINE
  5
35
100
AcDbEntity
  8
1
370
   100
100
AcDbLine
 10
-373.02157
 20
-277.971881
 30
0.0
 11
394.982385
 21
-277.971881
 31
0.0
  0
LINE
  5
36
100
AcDbEntity
  8
1
370
   100
100
AcDbLine
 10
394.982385
 20
-277.971881
 30
0.0
 11
394.982385
 21
275.028767
 31
0.0
  0
TEXT
  5
37
100
AcDbEntity
  8
1
370
    50
100
AcDbText
 10
359.628442
 20
-226.252857
 30
0.0
 40
6.0
  1
設計
 72
     5
 11
370.428442
 21
-226.252857
 31
0.0
100
AcDbText
  0
TEXT
  5
38
100
AcDbEntity
  8
1
370
    50
100
AcDbText
 10
379.127478
 20
-226.099658
 30
0.0
 40
6.0
  1
製図
 72
     5
 11
389.927478
 21
-226.099658
 31
0.0
100
AcDbText
  0
TEXT
  5
39
100
AcDbEntity
  8
1
370
    50
100
AcDbText
 10
319.005745
 20
-226.252857
 30
0.0
 40
6.0
  1
承認
 72
     5
 11
329.805745
 21
-226.252857
 31
0.0
100
AcDbText
  0
TEXT
  5
3A
100
AcDbEntity
  8
1
370
    50
100
AcDbText
 10
338.989679
 20
-226.19802
 30
0.0
 40
6.0
  1
検図
 72
     5
 11
349.789679
 21
-226.19802
 31
0.0
100
AcDbText
  0
LINE
  5
3B
100
AcDbEntity
  8
1
370
    25
100
AcDbLine
 10
284.982385
 20
-227.971881
 30
0.0
 11
394.982385
 21
-227.971881
 31
0.0
  0
LINE
  5
3C
100
AcDbEntity
  8
1
370
    25
100
AcDbLine
 10
342.482385
 20
-245.971881
 30
0.0
 11
342.482385
 21
-259.971881
 31
0.0
  0
TEXT
  5
3D
100
AcDbEntity
  8
1
370
    50
100
AcDbText
 10
319.55159
 20
-256.012528
 30
0.0
 40
6.0
  1
日　付
 72
     5
 11
336.35159
 21
-256.012528
 31
0.0
100
AcDbText
  0
LINE
  5
3E
100
AcDbEntity
  8
1
370
    50
100
AcDbLine
 10
40.982385
 20
-259.971881
 30
0.0
 11
394.982385
 21
-259.971881
 31
0.0
  0
TEXT
  5
3F
100
AcDbEntity
  8
1
370
    50
100
AcDbText
 10
287.775011
 20
-256.322406
 30
0.0
 40
6.0
  1
第三角法
 72
     5
 11
310.575011
 21
-256.322406
 31
0.0
100
AcDbText
  0
TEXT
  5
40
100
AcDbEntity
  8
1
370
    50
100
AcDbText
 10
291.087419
 20
-225.99802
 30
0.0
 40
6.0
  1
尺　度
 72
     5
 11
307.887419
 21
-225.99802
 31
0.0
100
AcDbText
  0
LINE
  5
41
100
AcDbEntity
  8
1
370
   100
100
AcDbLine
 10
40.982385
 20
-217.971881
 30
0.0
 11
394.982385
 21
-217.971881
 31
0.0
  0
LINE
  5
42
100
AcDbEntity
  8
1
370
    50
100
AcDbLine
 10
211.982385
 20
-217.971881
 30
0.0
 11
211.982385
 21
-277.971881
 31
0.0
  0
LINE
  5
43
100
AcDbEntity
  8
1
370
    25
100
AcDbLine
 10
374.982385
 20
-245.971881
 30
0.0
 11
374.982385
 21
-217.971881
 31
0.0
  0
LINE
  5
44
100
AcDbEntity
  8
1
370
    25
100
AcDbLine
 10
354.982385
 20
-245.971881
 30
0.0
 11
354.982385
 21
-217.971881
 31
0.0
  0
LINE
  5
45
100
AcDbEntity
  8
1
370
    25
100
AcDbLine
 10
334.982385
 20
-245.971881
 30
0.0
 11
334.982385
 21
-217.971881
 31
0.0
  0
LINE
  5
46
100
AcDbEntity
  8
1
370
    50
100
AcDbLine
 10
284.982385
 20
-277.971881
 30
0.0
 11
284.982385
 21
-217.971881
 31
0.0
  0
LINE
  5
47
100
AcDbEntity
  8
1
370
    50
100
AcDbLine
 10
189.982385
 20
-217.971881
 30
0.0
 11
189.982385
 21
-277.971881
 31
0.0
  0
LINE
  5
48
100
AcDbEntity
  8
1
370
    50
100
AcDbLine
 10
62.982385
 20
-217.971881
 30
0.0
 11
62.982385
 21
-259.971881
 31
0.0
  0
LINE
  5
49
100
AcDbEntity
  8
1
370
    50
100
AcDbLine
 10
284.982385
 20
-245.971881
 30
0.0
 11
394.982385
 21
-245.971881
 31
0.0
  0
TEXT
  5
4A
100
AcDbEntity
  8
1
370
    50
100
AcDbText
 10
287.101129
 20
-271.880939
 30
0.0
 40
6.0
  1
コードＮｏ
 41
0.9
 72
     5
 11
313.021129
 21
-271.880939
 31
0.0
100
AcDbText
  0
TEXT
  5
4B
100
AcDbEntity
  8
1
370
   100
100
AcDbText
 10
52.886774
 20
-272.875659
 30
0.0
 40
8.0
  1
ミズタニバルブ工業株式会社
 41
1.2
 72
     5
 11
175.766774
 21
-272.875659
 31
0.0
100
AcDbText
  0
LINE
  5
4C
100
AcDbEntity
  8
1
370
    50
100
AcDbLine
 10
40.982385
 20
-238.971881
 30
0.0
 11
284.982385
 21
-238.971881
 31
0.0
  0
LINE
  5
4D
100
AcDbEntity
  8
1
370
    50
100
AcDbLine
 10
115.482385
 20
-238.971881
 30
0.0
 11
115.482385
 21
-259.971881
 31
0.0
  0
LINE
  5
4E
100
AcDbEntity
  8
1
370
    50
100
AcDbLine
 10
137.482385
 20
-238.971881
 30
0.0
 11
137.482385
 21
-259.971881
 31
0.0
  0
LINE
  5
4F
100
AcDbEntity
  8
1
370
    50
100
AcDbLine
 10
314.982385
 20
-277.971881
 30
0.0
 11
314.982385
 21
-217.971881
 31
0.0
  0
TEXT
  5
50
100
AcDbEntity
  8
1
370
    50
100
AcDbText
 10
345.098131
 20
-256.100293
 30
0.0
 40
6.0
  1
　　・　　・
 72
     5
 11
379.898131
 21
-256.100293
 31
0.0
100
AcDbText
  0
LINE
  5
51
100
AcDbEntity
  8
1
370
   100
100
AcDbLine
 10
40.982385
 20
-217.971881
 30
0.0
 11
40.982385
 21
-277.971881
 31
0.0
  0
TEXT
  5
52
100
AcDbEntity
  8
1
370
    50
100
AcDbText
 10
290.832582
 20
-240.013492
 30
0.0
 40
6.0
  1
　／ 
 72
     5
 11
301.632582
 21
-240.013492
 31
0.0
100
AcDbText
  0
TEXT
  5
53
100
AcDbEntity
  8
1
370
    50
100
AcDbText
 10
193.904123
 20
-272.024909
 30
0.0
 40
6.0
  1
備 考 
 72
     5
 11
207.704123
 21
-272.024909
 31
0.0
100
AcDbText
  0
TEXT
  5
54
100
AcDbEntity
  8
1
370
    50
100
AcDbText
 10
193.512534
 20
-230.89184
 30
0.0
 40
6.0
  1
仕 上
 72
     5
 11
207.312534
 21
-230.89184
 31
0.0
100
AcDbText
  0
TEXT
  5
55
100
AcDbEntity
  8
1
370
    50
100
AcDbText
 10
193.447176
 20
-248.891666
 30
0.0
 40
6.0
  1
表 面
 72
     5
 11
207.247176
 21
-248.891666
 31
0.0
100
AcDbText
  0
TEXT
  5
56
100
AcDbEntity
  8
1
370
    50
100
AcDbText
 10
193.447176
 20
-255.891666
 30
0.0
 40
6.0
  1
処 理
 72
     5
 11
207.247176
 21
-255.891666
 31
0.0
100
AcDbText
  0
TEXT
  5
57
100
AcDbEntity
  8
1
370
    50
100
AcDbText
 10
44.79335
 20
-231.693399
 30
0.0
 40
6.0
  1
品 名
 72
     5
 11
58.59335
 21
-231.693399
 31
0.0
100
AcDbText
  0
TEXT
  5
58
100
AcDbEntity
  8
1
370
    50
100
AcDbText
 10
44.397766
 20
-252.462534
 30
0.0
 40
6.0
  1
材 質
 72
     5
 11
58.197766
 21
-252.462534
 31
0.0
100
AcDbText
  0
TEXT
  5
59
100
AcDbEntity
  8
1
370
    50
100
AcDbText
 10
118.897766
 20
-252.462534
 30
0.0
 40
6.0
  1
規 格
 72
     5
 11
132.697766
 21
-252.462534
 31
0.0
100
AcDbText
  0
LINE
  5
5A
100
AcDbEntity
  8
2
370
    50
100
AcDbLine
 10
232.998771
 20
-21.065535
 30
0.0
 11
211.998771
 21
-21.065535
 31
0.0
  0
LINE
  5
5B
100
AcDbEntity
  8
2
370
    50
100
AcDbLine
 10
235.948771
 20
-9.565535
 30
0.0
 11
209.048771
 21
-9.565535
 31
0.0
  0
ARC
  5
5C
100
AcDbEntity
  8
2
370
    50
100
AcDbCircle
 10
232.150451
 20
-15.380155
 30
0.0
 40
5.74832
100
AcDbArc
 50
278.486542
 51
48.64134
  0
ARC
  5
5D
100
AcDbEntity
  8
2
370
    50
100
AcDbCircle
 10
212.847092
 20
-15.380155
 30
0.0
 40
5.74832
100
AcDbArc
 50
131.35866
 51
261.513458
  0
ELLIPSE
  5
5E
100
AcDbEntity
  8
2
370
    50
100
AcDbEllipse
 10
222.498771
 20
-15.315535
 30
0.0
 11
-6.4154999999999998
 21
0.0
 31
0.0
210
0.0
220
0.0
230
1.0
 40
0.62349
 41
0.0
 42
6.2831849999999996
  0
ELLIPSE
  5
5F
100
AcDbEntity
  8
2
370
    50
100
AcDbEllipse
 10
234.634324
 20
-15.315535
 30
0.0
 11
0.0
 21
-4.0
 31
0.0
210
0.0
220
0.0
230
1.0
 40
0.810375
 41
0.0
 42
6.2831849999999996
  0
ELLIPSE
  5
60
100
AcDbEntity
  8
2
370
    50
100
AcDbEllipse
 10
210.363219
 20
-15.315535
 30
0.0
 11
0.0
 21
-4.0
 31
0.0
210
0.0
220
0.0
230
1.0
 40
0.810375
 41
0.0
 42
6.2831849999999996
  0
LINE
  5
61
100
AcDbEntity
  8
2
370
    50
100
AcDbLine
 10
207.998075
 20
-9.565535
 30
0.0
 11
209.498075
 21
-9.565535
 31
0.0
  0
LINE
  5
62
100
AcDbEntity
  8
2
370
    50
100
AcDbLine
 10
235.498075
 20
-9.565535
 30
0.0
 11
236.998075
 21
-9.565535
 31
0.0
  0
LINE
  5
63
100
AcDbEntity
  8
2
370
    50
100
AcDbLine
 10
256.948075
 20
-2.259677
 30
0.0
 11
256.948075
 21
6.740323
 31
0.0
  0
LINE
  5
64
100
AcDbEntity
  8
2
370
    50
100
AcDbLine
 10
256.948075
 20
36.740323
 30
0.0
 11
256.948075
 21
45.740323
 31
0.0
  0
LINE
  5
65
100
AcDbEntity
  8
2
370
    50
100
AcDbLine
 10
258.948075
 20
34.740323
 30
0.0
 11
265.14833
 21
34.740323
 31
0.0
  0
LINE
  5
66
100
AcDbEntity
  8
2
370
    50
100
AcDbLine
 10
258.948075
 20
8.740323
 30
0.0
 11
265.14833
 21
8.740323
 31
0.0
  0
ARC
  5
67
100
AcDbEntity
  8
2
370
    50
100
AcDbCircle
 10
258.948075
 20
36.740323
 30
0.0
 40
2.0
100
AcDbArc
 50
180.0
 51
270.0
  0
ARC
  5
68
100
AcDbEntity
  8
2
370
    50
100
AcDbCircle
 10
258.948075
 20
6.740323
 30
0.0
 40
2.0
100
AcDbArc
 50
90.0
 51
180.0
  0
LINE
  5
69
100
AcDbEntity
  8
2
370
    50
100
AcDbLine
 10
256.948075
 20
36.740323
 30
0.0
 11
256.948075
 21
6.740323
 31
0.0
  0
LINE
  5
6A
100
AcDbEntity
  8
2
370
    50
100
AcDbLine
 10
279.00833
 20
33.719683
 30
0.0
 11
278.51333
 21
33.719683
 31
0.0
  0
LINE
  5
6B
100
AcDbEntity
  8
2
370
    50
100
AcDbLine
 10
279.00833
 20
9.761683
 30
0.0
 11
278.51333
 21
9.761683
 31
0.0
  0
LINE
  5
6C
100
AcDbEntity
  8
2
370
    50
100
AcDbLine
 10
262.888075
 20
32.135683
 30
0.0
 11
265.14833
 21
32.135683
 31
0.0
  0
LINE
  5
6D
100
AcDbEntity
  8
2
370
    50
100
AcDbLine
 10
262.888075
 20
11.345683
 30
0.0
 11
265.14833
 21
11.345683
 31
0.0
  0
LINE
  5
6E
100
AcDbEntity
  8
2
370
    50
100
AcDbLine
 10
265.14833
 20
7.633183
 30
0.0
 11
265.14833
 21
35.848183
 31
0.0
  0
ARC
  5
6F
100
AcDbEntity
  8
2
370
    50
100
AcDbCircle
 10
271.83083
 20
23.70554
 30
0.0
 40
13.86
100
AcDbArc
 50
61.174551
 51
118.825449
  0
ARC
  5
70
100
AcDbEntity
  8
2
370
    50
100
AcDbCircle
 10
271.83083
 20
19.775827
 30
0.0
 40
13.86
100
AcDbArc
 50
241.174551
 51
298.825449
  0
LINE
  5
71
100
AcDbEntity
  8
2
370
    50
100
AcDbLine
 10
278.51333
 20
7.633183
 30
0.0
 11
278.51333
 21
35.848183
 31
0.0
  0
CIRCLE
  5
72
100
AcDbEntity
  8
2
370
    50
100
AcDbCircle
 10
271.83083
 20
21.740683
 30
0.0
 40
5.6925
  0
ELLIPSE
  5
73
100
AcDbEntity
  8
2
370
    50
100
AcDbEllipse
 10
271.83083
 20
9.257077
 30
0.0
 11
5.6924999999999999
 21
0.0
 31
0.0
210
0.0
220
0.0
230
1.0
 40
0.5
 41
0.0
 42
6.2831849999999996
  0
ELLIPSE
  5
74
100
AcDbEntity
  8
2
370
    50
100
AcDbEllipse
 10
271.83083
 20
34.22429
 30
0.0
 11
-5.6924999999999999
 21
0.0
 31
0.0
210
0.0
220
0.0
230
1.0
 40
0.5
 41
0.0
 42
6.2831849999999996
  0
LINE
  5
75
100
AcDbEntity
  8
2
370
    50
100
AcDbLine
 10
256.948075
 20
9.365323
 30
0.0
 11
262.591075
 21
9.365323
 31
0.0
  0
LINE
  5
76
100
AcDbEntity
  8
2
370
    50
100
AcDbLine
 10
256.948075
 20
34.115323
 30
0.0
 11
262.591075
 21
34.115323
 31
0.0
  0
LINE
  5
77
100
AcDbEntity
  8
2
370
    50
100
AcDbLine
 10
262.888075
 20
10.850323
 30
0.0
 11
262.888075
 21
9.662323
 31
0.0
  0
LINE
  5
78
100
AcDbEntity
  8
2
370
    50
100
AcDbLine
 10
262.888075
 20
32.630323
 30
0.0
 11
262.888075
 21
33.818323
 31
0.0
  0
LINE
  5
79
100
AcDbEntity
  8
2
370
    50
100
AcDbLine
 10
262.888075
 20
10.850323
 30
0.0
 11
262.888075
 21
32.630323
 31
0.0
  0
LINE
  5
7A
100
AcDbEntity
  8
2
370
    50
100
AcDbLine
 10
262.591075
 20
9.365323
 30
0.0
 11
262.888075
 21
9.662323
 31
0.0
  0
LINE
  5
7B
100
AcDbEntity
  8
2
370
    50
100
AcDbLine
 10
262.888075
 20
33.818323
 30
0.0
 11
262.591075
 21
34.115323
 31
0.0
  0
LINE
  5
7C
100
AcDbEntity
  8
2
370
    50
100
AcDbLine
 10
262.591075
 20
34.115323
 30
0.0
 11
262.591075
 21
9.365323
 31
0.0
  0
LINE
  5
7D
100
AcDbEntity
  8
2
370
    50
100
AcDbLine
 10
235.948771
 20
-11.065535
 30
0.0
 11
209.048771
 21
-11.065535
 31
0.0
  0
LINE
  5
7E
100
AcDbEntity
  8
2
370
    50
100
AcDbLine
 10
222.498075
 20
45.740323
 30
0.0
 11
256.948075
 21
45.740323
 31
0.0
  0
LINE
  5
7F
100
AcDbEntity
  8
2
370
    50
100
AcDbLine
 10
222.498075
 20
-2.259677
 30
0.0
 11
225.991978
 21
-2.259677
 31
0.0
  0
LINE
  5
80
100
AcDbEntity
  8
2
370
    50
100
AcDbLine
 10
225.991978
 20
-2.259677
 30
0.0
 11
256.948075
 21
-2.259677
 31
0.0
  0
LINE
  5
81
100
AcDbEntity
  8
2
370
    50
100
AcDbLine
 10
235.498771
 20
-9.565535
 30
0.0
 11
235.498771
 21
-11.065535
 31
0.0
  0
LINE
  5
82
100
AcDbEntity
  8
2
370
    50
100
AcDbLine
 10
209.498771
 20
-9.565535
 30
0.0
 11
209.498771
 21
-11.065535
 31
0.0
  0
LINE
  5
83
100
AcDbEntity
  8
2
370
    50
100
AcDbLine
 10
-99.380493
 20
129.741645
 30
0.0
 11
-127.880493
 21
129.741645
 31
0.0
  0
ARC
  5
84
100
AcDbEntity
  8
2
370
    50
100
AcDbCircle
 10
-115.615196
 20
136.491645
 30
0.0
 40
14.0
100
AcDbArc
 50
151.174551
 51
208.825449
  0
ARC
  5
85
100
AcDbEntity
  8
2
370
    50
100
AcDbCircle
 10
-111.645789
 20
136.491645
 30
0.0
 40
14.0
100
AcDbArc
 50
331.174551
 51
28.825449
  0
LINE
  5
86
100
AcDbEntity
  8
2
370
    50
100
AcDbLine
 10
-99.380493
 20
143.241645
 30
0.0
 11
-127.880493
 21
143.241645
 31
0.0
  0
CIRCLE
  5
87
100
AcDbEntity
  8
2
370
    50
100
AcDbCircle
 10
-113.630493
 20
136.491645
 30
0.0
 40
5.75
  0
ELLIPSE
  5
88
100
AcDbEntity
  8
2
370
    50
100
AcDbEllipse
 10
-101.020789
 20
136.491645
 30
0.0
 11
0.0
 21
5.75
 31
0.0
210
0.0
220
0.0
230
1.0
 40
0.5
 41
0.0
 42
6.2831849999999996
  0
ELLIPSE
  5
89
100
AcDbEntity
  8
2
370
    50
100
AcDbEllipse
 10
-126.240196
 20
136.491645
 30
0.0
 11
0.0
 21
-5.75
 31
0.0
210
0.0
220
0.0
230
1.0
 40
0.5
 41
0.0
 42
6.2831849999999996
  0
LINE
  5
8A
100
AcDbEntity
  8
2
370
    50
100
AcDbLine
 10
-234.630129
 20
63.341384
 30
0.0
 11
-163.630129
 21
63.341384
 31
0.0
  0
LINE
  5
8B
100
AcDbEntity
  8
2
370
    50
100
AcDbLine
 10
-163.630129
 20
63.341384
 30
0.0
 11
-92.930129
 21
63.341384
 31
0.0
  0
ARC
  5
8C
100
AcDbEntity
  8
2
370
    50
100
AcDbCircle
 10
-178.630129
 20
123.741387
 30
0.0
 40
2.0
100
AcDbArc
 50
270.0
 51
360.0
  0
ARC
  5
8D
100
AcDbEntity
  8
2
370
    50
100
AcDbCircle
 10
-148.630129
 20
123.741387
 30
0.0
 40
2.0
100
AcDbArc
 50
180.0
 51
270.0
  0
LINE
  5
8E
100
AcDbEntity
  8
2
370
    50
100
AcDbLine
 10
-97.630129
 20
121.741387
 30
0.0
 11
-229.630129
 21
121.741387
 31
0.0
  0
LINE
  5
8F
100
AcDbEntity
  8
2
370
    50
100
AcDbLine
 10
-130.296656
 20
121.741387
 30
0.0
 11
-126.130129
 21
121.741387
 31
0.0
  0
LINE
  5
90
100
AcDbEntity
  8
2
370
    50
100
AcDbLine
 10
-101.130129
 20
121.741387
 30
0.0
 11
-101.130129
 21
127.441387
 31
0.0
  0
LINE
  5
91
100
AcDbEntity
  8
2
370
    50
100
AcDbLine
 10
-126.130129
 20
121.741387
 30
0.0
 11
-126.130129
 21
127.441387
 31
0.0
  0
LINE
  5
92
100
AcDbEntity
  8
2
370
    50
100
AcDbLine
 10
-102.630129
 20
127.741387
 30
0.0
 11
-101.430129
 21
127.741387
 31
0.0
  0
LINE
  5
93
100
AcDbEntity
  8
2
370
    50
100
AcDbLine
 10
-124.630129
 20
127.741387
 30
0.0
 11
-125.830129
 21
127.741387
 31
0.0
  0
LINE
  5
94
100
AcDbEntity
  8
2
370
    50
100
AcDbLine
 10
-196.963602
 20
121.741387
 30
0.0
 11
-201.130129
 21
121.741387
 31
0.0
  0
LINE
  5
95
100
AcDbEntity
  8
2
370
    50
100
AcDbLine
 10
-226.130129
 20
121.741387
 30
0.0
 11
-226.130129
 21
127.441387
 31
0.0
  0
LINE
  5
96
100
AcDbEntity
  8
2
370
    50
100
AcDbLine
 10
-201.130129
 20
121.741387
 30
0.0
 11
-201.130129
 21
127.441387
 31
0.0
  0
LINE
  5
97
100
AcDbEntity
  8
2
370
    50
100
AcDbLine
 10
-225.830129
 20
127.741387
 30
0.0
 11
-224.630129
 21
127.741387
 31
0.0
  0
LINE
  5
98
100
AcDbEntity
  8
2
370
    50
100
AcDbLine
 10
-97.630129
 20
87.341384
 30
0.0
 11
-97.630129
 21
121.741387
 31
0.0
  0
LINE
  5
99
100
AcDbEntity
  8
2
370
    50
100
AcDbLine
 10
-229.630129
 20
87.341384
 30
0.0
 11
-229.630129
 21
121.741387
 31
0.0
  0
LINE
  5
9A
100
AcDbEntity
  8
2
370
    50
100
AcDbLine
 10
-102.630129
 20
127.741387
 30
0.0
 11
-124.630129
 21
127.741387
 31
0.0
  0
LINE
  5
9B
100
AcDbEntity
  8
2
370
    50
100
AcDbLine
 10
-201.430129
 20
127.741387
 30
0.0
 11
-224.630129
 21
127.741387
 31
0.0
  0
LINE
  5
9C
100
AcDbEntity
  8
2
370
    50
100
AcDbLine
 10
-101.130129
 20
127.441387
 30
0.0
 11
-101.430129
 21
127.741387
 31
0.0
  0
LINE
  5
9D
100
AcDbEntity
  8
2
370
    50
100
AcDbLine
 10
-125.830129
 20
127.741387
 30
0.0
 11
-126.130129
 21
127.441387
 31
0.0
  0
LINE
  5
9E
100
AcDbEntity
  8
2
370
    50
100
AcDbLine
 10
-201.130129
 20
127.441387
 30
0.0
 11
-201.430129
 21
127.741387
 31
0.0
  0
LINE
  5
9F
100
AcDbEntity
  8
2
370
    50
100
AcDbLine
 10
-234.630129
 20
111.341384
 30
0.0
 11
-229.630129
 21
111.341384
 31
0.0
  0
LINE
  5
A0
100
AcDbEntity
  8
2
370
    50
100
AcDbLine
 10
-97.630129
 20
111.341384
 30
0.0
 11
-92.930129
 21
111.341384
 31
0.0
  0
LINE
  5
A1
100
AcDbEntity
  8
2
370
    50
100
AcDbLine
 10
-121.629967
 20
127.741387
 30
0.0
 11
-124.129967
 21
127.741387
 31
0.0
  0
LINE
  5
A2
100
AcDbEntity
  8
2
370
    50
100
AcDbLine
 10
-103.129967
 20
127.741387
 30
0.0
 11
-105.629967
 21
127.741387
 31
0.0
  0
LINE
  5
A3
100
AcDbEntity
  8
2
370
    50
100
AcDbLine
 10
-176.630129
 20
123.241387
 30
0.0
 11
-176.630129
 21
133.741387
 31
0.0
  0
LINE
  5
A4
100
AcDbEntity
  8
2
370
    50
100
AcDbLine
 10
-150.630129
 20
123.241387
 30
0.0
 11
-150.630129
 21
133.741387
 31
0.0
  0
LINE
  5
A5
100
AcDbEntity
  8
2
370
    50
100
AcDbLine
 10
-175.630129
 20
134.741387
 30
0.0
 11
-151.630129
 21
134.741387
 31
0.0
  0
LINE
  5
A6
100
AcDbEntity
  8
2
370
    50
100
AcDbLine
 10
-176.630129
 20
133.741387
 30
0.0
 11
-175.630129
 21
134.741387
 31
0.0
  0
LINE
  5
A7
100
AcDbEntity
  8
2
370
    50
100
AcDbLine
 10
-151.630129
 20
134.741387
 30
0.0
 11
-150.630129
 21
133.741387
 31
0.0
  0
LINE
  5
A8
100
AcDbEntity
  8
2
370
    50
100
AcDbLine
 10
-225.830129
 20
127.741387
 30
0.0
 11
-226.130129
 21
127.441387
 31
0.0
  0
LINE
  5
A9
100
AcDbEntity
  8
2
370
    50
100
AcDbLine
 10
-234.630129
 20
111.341384
 30
0.0
 11
-234.630129
 21
63.341384
 31
0.0
  0
LINE
  5
AA
100
AcDbEntity
  8
2
370
    50
100
AcDbLine
 10
-92.930129
 20
111.341384
 30
0.0
 11
-92.930129
 21
63.341384
 31
0.0
  0
LINE
  5
AB
100
AcDbEntity
  8
2
370
    50
100
AcDbLine
 10
-103.130129
 20
129.741645
 30
0.0
 11
-103.130129
 21
127.741387
 31
0.0
  0
LINE
  5
AC
100
AcDbEntity
  8
2
370
    50
100
AcDbLine
 10
-124.130129
 20
129.741645
 30
0.0
 11
-124.130129
 21
127.741387
 31
0.0
  0
LINE
  5
AD
100
AcDbEntity
  8
2
370
    50
100
AcDbLine
 10
-227.479765
 20
129.741645
 30
0.0
 11
-198.979765
 21
129.741645
 31
0.0
  0
ARC
  5
AE
100
AcDbEntity
  8
2
370
    50
100
AcDbCircle
 10
-211.245062
 20
136.491645
 30
0.0
 40
14.0
100
AcDbArc
 50
331.174551
 51
28.825449
  0
ARC
  5
AF
100
AcDbEntity
  8
2
370
    50
100
AcDbCircle
 10
-215.214469
 20
136.491645
 30
0.0
 40
14.0
100
AcDbArc
 50
151.174551
 51
208.825449
  0
LINE
  5
B0
100
AcDbEntity
  8
2
370
    50
100
AcDbLine
 10
-227.479765
 20
143.241645
 30
0.0
 11
-198.979765
 21
143.241645
 31
0.0
  0
CIRCLE
  5
B1
100
AcDbEntity
  8
2
370
    50
100
AcDbCircle
 10
-213.229765
 20
136.491645
 30
0.0
 40
5.75
  0
ELLIPSE
  5
B2
100
AcDbEntity
  8
2
370
    50
100
AcDbEllipse
 10
-225.839469
 20
136.491645
 30
0.0
 11
0.0
 21
-5.75
 31
0.0
210
0.0
220
0.0
230
1.0
 40
0.5
 41
0.0
 42
6.2831849999999996
  0
ELLIPSE
  5
B3
100
AcDbEntity
  8
2
370
    50
100
AcDbEllipse
 10
-200.620062
 20
136.491645
 30
0.0
 11
0.0
 21
5.75
 31
0.0
210
0.0
220
0.0
230
1.0
 40
0.5
 41
0.0
 42
6.2831849999999996
  0
LINE
  5
B4
100
AcDbEntity
  8
2
370
    50
100
AcDbLine
 10
-223.730129
 20
129.741645
 30
0.0
 11
-223.730129
 21
127.741387
 31
0.0
  0
LINE
  5
B5
100
AcDbEntity
  8
2
370
    50
100
AcDbLine
 10
-202.730129
 20
129.741645
 30
0.0
 11
-202.730129
 21
127.741387
 31
0.0
  0
LINE
  5
B6
100
AcDbEntity
  8
2
370
    50
100
AcDbLine
 10
-234.630129
 20
63.907776
 30
0.0
 11
-234.630129
 21
65.841384
 31
0.0
  0
LINE
  5
B7
100
AcDbEntity
  8
2
370
    50
100
AcDbLine
 10
-234.630129
 20
108.841384
 30
0.0
 11
-234.630129
 21
110.774993
 31
0.0
  0
LINE
  5
B8
100
AcDbEntity
  8
2
370
    50
100
AcDbLine
 10
-234.630129
 20
65.841384
 30
0.0
 11
-234.630129
 21
108.841384
 31
0.0
  0
LINE
  5
B9
100
AcDbEntity
  8
2
370
    50
100
AcDbLine
 10
-92.930129
 20
110.774993
 30
0.0
 11
-92.930129
 21
108.841384
 31
0.0
  0
LINE
  5
BA
100
AcDbEntity
  8
2
370
    50
100
AcDbLine
 10
-92.930129
 20
65.841384
 30
0.0
 11
-92.930129
 21
63.907776
 31
0.0
  0
LINE
  5
BB
100
AcDbEntity
  8
2
370
    50
100
AcDbLine
 10
-92.930129
 20
108.841384
 30
0.0
 11
-92.930129
 21
65.841384
 31
0.0
  0
LINE
  5
BC
100
AcDbEntity
  8
2
370
    50
100
AcDbLine
 10
-234.62941
 20
-84.260197
 30
0.0
 11
-92.92941
 21
-84.260197
 31
0.0
  0
LINE
  5
BD
100
AcDbEntity
  8
2
370
    50
100
AcDbLine
 10
-234.62941
 20
-132.260197
 30
0.0
 11
-202.781996
 21
-132.260197
 31
0.0
  0
LINE
  5
BE
100
AcDbEntity
  8
2
370
    50
100
AcDbLine
 10
-124.476824
 20
-132.260197
 30
0.0
 11
-92.92941
 21
-132.260197
 31
0.0
  0
LINE
  5
BF
100
AcDbEntity
  8
2
370
    50
100
AcDbLine
 10
-150.42941
 20
-138.760197
 30
0.0
 11
-150.42941
 21
-139.821589
 31
0.0
  0
LINE
  5
C0
100
AcDbEntity
  8
2
370
    50
100
AcDbLine
 10
-176.82941
 20
-138.760197
 30
0.0
 11
-176.82941
 21
-139.821589
 31
0.0
  0
LINE
  5
C1
100
AcDbEntity
  8
2
370
    50
100
AcDbLine
 10
-149.12941
 20
-138.760197
 30
0.0
 11
-178.12941
 21
-138.760197
 31
0.0
  0
LINE
  5
C2
100
AcDbEntity
  8
2
370
    50
100
AcDbLine
 10
-150.77618
 20
-139.821589
 30
0.0
 11
-150.42941
 21
-139.220966
 31
0.0
  0
ARC
  5
C3
100
AcDbEntity
  8
2
370
    50
100
AcDbCircle
 10
-124.476824
 20
-182.260197
 30
0.0
 40
50.0
100
AcDbArc
 50
90.0
 51
119.541361
  0
ARC
  5
C4
100
AcDbEntity
  8
2
370
    50
100
AcDbCircle
 10
-202.781996
 20
-182.260197
 30
0.0
 40
50.0
100
AcDbArc
 50
60.45864
 51
90.0
  0
LINE
  5
C5
100
AcDbEntity
  8
2
370
    50
100
AcDbLine
 10
-153.35441
 20
-149.821589
 30
0.0
 11
-173.90441
 21
-149.821589
 31
0.0
  0
LINE
  5
C6
100
AcDbEntity
  8
2
370
    50
100
AcDbLine
 10
-150.053797
 20
-139.821589
 30
0.0
 11
-177.205023
 21
-139.821589
 31
0.0
  0
ARC
  5
C7
100
AcDbEntity
  8
2
370
    50
100
AcDbCircle
 10
-173.90441
 20
-144.821589
 30
0.0
 40
5.0
100
AcDbArc
 50
180.0
 51
270.0
  0
ARC
  5
C8
100
AcDbEntity
  8
2
370
    50
100
AcDbCircle
 10
-170.699124
 20
-144.821589
 30
0.0
 40
8.205286
100
AcDbArc
 50
142.456522
 51
180.0
  0
ELLIPSE
  5
C9
100
AcDbEntity
  8
2
370
    50
100
AcDbEllipse
 10
-163.62941
 20
-144.292784
 30
0.0
 11
-6.10947
 21
0.0
 31
0.0
210
0.0
220
0.0
230
1.0
 40
0.632482
 41
0.0
 42
6.2831849999999996
  0
ELLIPSE
  5
CA
100
AcDbEntity
  8
2
370
    50
100
AcDbEllipse
 10
-151.505054
 20
-144.292784
 30
0.0
 11
0.0
 21
3.8641269999999999
 31
0.0
210
0.0
220
0.0
230
1.0
 40
0.790537
 41
0.0
 42
6.2831849999999996
  0
ARC
  5
CB
100
AcDbEntity
  8
2
370
    50
100
AcDbCircle
 10
-153.35441
 20
-144.821589
 30
0.0
 40
5.0
100
AcDbArc
 50
270.0
 51
0.0
  0
ARC
  5
CC
100
AcDbEntity
  8
2
370
    50
100
AcDbCircle
 10
-156.559696
 20
-144.821589
 30
0.0
 40
8.205286
100
AcDbArc
 50
0.0
 51
37.543478
  0
ELLIPSE
  5
CD
100
AcDbEntity
  8
2
370
    50
100
AcDbEllipse
 10
-175.753766
 20
-144.292784
 30
0.0
 11
0.0
 21
-3.8641269999999999
 31
0.0
210
0.0
220
0.0
230
1.0
 40
0.790537
 41
0.0
 42
6.2831849999999996
  0
LINE
  5
CE
100
AcDbEntity
  8
2
370
    50
100
AcDbLine
 10
-176.48264
 20
-139.821589
 30
0.0
 11
-176.82941
 21
-139.220966
 31
0.0
  0
LINE
  5
CF
100
AcDbEntity
  8
2
370
    50
100
AcDbLine
 10
-92.92941
 20
-84.260197
 30
0.0
 11
-92.92941
 21
-132.260197
 31
0.0
  0
LINE
  5
D0
100
AcDbEntity
  8
2
370
    50
100
AcDbLine
 10
-234.62941
 20
-84.260197
 30
0.0
 11
-234.62941
 21
-132.260197
 31
0.0
  0
ARC
  5
D1
100
AcDbEntity
  8
2
370
    50
100
AcDbCircle
 10
178.006332
 20
-8.861716
 30
0.0
 40
30.0
100
AcDbArc
 50
358.655682
 51
34.520734
  0
ARC
  5
D2
100
AcDbEntity
  8
2
370
    50
100
AcDbCircle
 10
256.618878
 20
-32.259677
 30
0.0
 40
30.0
100
AcDbArc
 50
90.0
 51
130.845896
  0
LINE
  5
D3
100
AcDbEntity
  8
2
370
    50
100
AcDbLine
 10
-150.630129
 20
133.741387
 30
0.0
 11
-176.630129
 21
133.741387
 31
0.0
  0
LINE
  5
D4
100
AcDbEntity
  8
2
370
    50
100
AcDbLine
 10
-153.080129
 20
153.041387
 30
0.0
 11
-153.080129
 21
134.741387
 31
0.0
  0
LINE
  5
D5
100
AcDbEntity
  8
2
370
    50
100
AcDbLine
 10
-174.680129
 20
153.041387
 30
0.0
 11
-174.680129
 21
134.741387
 31
0.0
  0
ARC
  5
D6
100
AcDbEntity
  8
2
370
    50
100
AcDbCircle
 10
-163.880129
 20
153.041387
 30
0.0
 40
10.8
100
AcDbArc
 50
0.0
 51
180.0
  0
LINE
  5
D7
100
AcDbEntity
  8
2
370
    50
100
AcDbLine
 10
276.098075
 20
-3.259677
 30
0.0
 11
292.147839
 21
-3.259677
 31
0.0
  0
LINE
  5
D8
100
AcDbEntity
  8
2
370
    50
100
AcDbLine
 10
276.098075
 20
-3.259677
 30
0.0
 11
276.098075
 21
6.589083
 31
0.0
  0
LINE
  5
D9
100
AcDbEntity
  8
2
370
    50
100
AcDbLine
 10
275.398075
 20
6.382755
 30
0.0
 11
275.398075
 21
-1.559677
 31
0.0
  0
LINE
  5
DA
100
AcDbEntity
  8
2
370
    50
100
AcDbLine
 10
276.098075
 20
-2.259677
 30
0.0
 11
275.398075
 21
-1.559677
 31
0.0
  0
LINE
  5
DB
100
AcDbEntity
  8
2
370
    50
100
AcDbLine
 10
275.398075
 20
6.040323
 30
0.0
 11
292.147839
 21
6.040323
 31
0.0
  0
LINE
  5
DC
100
AcDbEntity
  8
2
370
    50
100
AcDbLine
 10
275.398075
 20
-1.559677
 30
0.0
 11
292.147839
 21
-1.559677
 31
0.0
  0
LINE
  5
DD
100
AcDbEntity
  8
2
370
    50
100
AcDbLine
 10
276.098075
 20
-2.259677
 30
0.0
 11
292.147839
 21
-2.259677
 31
0.0
  0
LINE
  5
DE
100
AcDbEntity
  8
2
370
    50
100
AcDbLine
 10
276.539889
 20
6.740323
 30
0.0
 11
292.147839
 21
6.740323
 31
0.0
  0
POINT
  5
DF
100
AcDbEntity
  8
2
370
    50
100
AcDbPoint
 10
286.898075
 20
-3.259677
 30
0.0
  0
POINT
  5
E0
100
AcDbEntity
  8
2
370
    50
100
AcDbPoint
 10
-163.62941
 20
-149.821589
 30
0.0
  0
LINE
  5
E1
100
AcDbEntity
  8
2
370
    50
  6
DASHED
100
AcDbLine
 10
-135.161788
 20
116.869188
 30
0.0
 11
-135.161788
 21
104.869188
 31
0.0
  0
LINE
  5
E2
100
AcDbEntity
  8
2
370
    50
  6
DASHED
100
AcDbLine
 10
-109.161788
 20
116.869188
 30
0.0
 11
-109.161788
 21
104.869188
 31
0.0
  0
LINE
  5
E3
100
AcDbEntity
  8
2
370
    50
  6
DASHED
100
AcDbLine
 10
-135.161788
 20
116.869188
 30
0.0
 11
-109.161788
 21
116.869188
 31
0.0
  0
LINE
  5
E4
100
AcDbEntity
  8
2
370
    50
  6
DASHED
100
AcDbLine
 10
-135.161788
 20
104.869188
 30
0.0
 11
-109.161788
 21
104.869188
 31
0.0
  0
LINE
  5
E5
100
AcDbEntity
  8
2
370
    50
100
AcDbLine
 10
-293.911562
 20
219.917058
 30
0.0
 11
-274.711562
 21
219.917058
 31
0.0
  0
LINE
  5
E6
100
AcDbEntity
  8
2
370
    50
100
AcDbLine
 10
-273.811562
 20
219.017058
 30
0.0
 11
-273.811562
 21
199.541387
 31
0.0
  0
LINE
  5
E7
100
AcDbEntity
  8
2
370
    50
100
AcDbLine
 10
-294.811562
 20
219.017058
 30
0.0
 11
-294.811562
 21
199.541387
 31
0.0
  0
LINE
  5
E8
100
AcDbEntity
  8
2
370
    50
100
AcDbLine
 10
-274.711562
 20
219.917058
 30
0.0
 11
-274.711562
 21
199.541387
 31
0.0
  0
LINE
  5
E9
100
AcDbEntity
  8
2
370
    50
100
AcDbLine
 10
-293.911562
 20
219.917058
 30
0.0
 11
-293.911562
 21
199.541387
 31
0.0
  0
LINE
  5
EA
100
AcDbEntity
  8
2
370
    50
100
AcDbLine
 10
-293.911562
 20
219.917058
 30
0.0
 11
-294.811562
 21
219.017058
 31
0.0
  0
LINE
  5
EB
100
AcDbEntity
  8
2
370
    50
100
AcDbLine
 10
-274.711562
 20
219.917058
 30
0.0
 11
-273.811562
 21
219.017058
 31
0.0
  0
LINE
  5
EC
100
AcDbEntity
  8
2
370
    50
100
AcDbLine
 10
-272.911562
 20
189.541387
 30
0.0
 11
-272.911562
 21
188.241387
 31
0.0
  0
LINE
  5
ED
100
AcDbEntity
  8
2
370
    50
100
AcDbLine
 10
-295.711562
 20
189.541387
 30
0.0
 11
-295.711562
 21
188.241387
 31
0.0
  0
LINE
  5
EE
100
AcDbEntity
  8
2
370
    50
100
AcDbLine
 10
-307.279967
 20
199.541387
 30
0.0
 11
-307.279967
 21
196.182507
 31
0.0
  0
LINE
  5
EF
100
AcDbEntity
  8
2
370
    50
100
AcDbLine
 10
-261.279967
 20
199.541387
 30
0.0
 11
-307.279967
 21
199.541387
 31
0.0
  0
ARC
  5
F0
100
AcDbEntity
  8
2
370
    50
100
AcDbCircle
 10
-297.779967
 20
191.541387
 30
0.0
 40
2.0
100
AcDbArc
 50
245.329488
 51
270.0
  0
LINE
  5
F1
100
AcDbEntity
  8
2
370
    50
100
AcDbLine
 10
-306.697367
 20
195.273784
 30
0.0
 11
-298.614766
 21
189.72394
 31
0.0
  0
LINE
  5
F2
100
AcDbEntity
  8
2
370
    50
100
AcDbLine
 10
-261.862568
 20
195.273784
 30
0.0
 11
-269.945169
 21
189.72394
 31
0.0
  0
ARC
  5
F3
100
AcDbEntity
  8
2
370
    50
100
AcDbCircle
 10
-306.279967
 20
196.182507
 30
0.0
 40
1.0
100
AcDbArc
 50
180.0
 51
245.329488
  0
LINE
  5
F4
100
AcDbEntity
  8
2
370
    50
100
AcDbLine
 10
-297.479967
 20
187.041387
 30
0.0
 11
-268.779967
 21
187.041387
 31
0.0
  0
LINE
  5
F5
100
AcDbEntity
  8
2
370
    50
100
AcDbLine
 10
-297.479967
 20
188.241387
 30
0.0
 11
-268.779967
 21
188.241387
 31
0.0
  0
LINE
  5
F6
100
AcDbEntity
  8
2
370
    50
100
AcDbLine
 10
-268.779967
 20
188.241387
 30
0.0
 11
-268.779967
 21
187.041387
 31
0.0
  0
LINE
  5
F7
100
AcDbEntity
  8
2
370
    50
100
AcDbLine
 10
-297.479967
 20
188.241387
 30
0.0
 11
-297.479967
 21
187.041387
 31
0.0
  0
LINE
  5
F8
100
AcDbEntity
  8
2
370
    50
100
AcDbLine
 10
-299.679967
 20
184.241387
 30
0.0
 11
-268.879967
 21
184.241387
 31
0.0
  0
LINE
  5
F9
100
AcDbEntity
  8
2
370
    50
100
AcDbLine
 10
-261.279967
 20
196.182507
 30
0.0
 11
-261.279967
 21
199.541387
 31
0.0
  0
LINE
  5
FA
100
AcDbEntity
  8
2
370
    50
100
AcDbLine
 10
-261.862568
 20
195.273784
 30
0.0
 11
-269.945169
 21
189.72394
 31
0.0
  0
ARC
  5
FB
100
AcDbEntity
  8
2
370
    50
100
AcDbCircle
 10
-262.279967
 20
196.182507
 30
0.0
 40
1.0
100
AcDbArc
 50
294.670512
 51
0.0
  0
LINE
  5
FC
100
AcDbEntity
  8
2
370
    50
100
AcDbLine
 10
-272.779967
 20
147.741387
 30
0.0
 11
-272.779967
 21
153.741387
 31
0.0
  0
LINE
  5
FD
100
AcDbEntity
  8
2
370
    50
100
AcDbLine
 10
-295.779967
 20
147.741387
 30
0.0
 11
-295.779967
 21
153.741387
 31
0.0
  0
LINE
  5
FE
100
AcDbEntity
  8
2
370
    50
100
AcDbLine
 10
-294.779967
 20
146.741387
 30
0.0
 11
-273.779967
 21
146.741387
 31
0.0
  0
ARC
  5
FF
100
AcDbEntity
  8
2
370
    50
100
AcDbCircle
 10
-273.779967
 20
147.741387
 30
0.0
 40
1.0
100
AcDbArc
 50
270.0
 51
360.0
  0
ARC
  5
100
100
AcDbEntity
  8
2
370
    50
100
AcDbCircle
 10
-294.779967
 20
147.741387
 30
0.0
 40
1.0
100
AcDbArc
 50
180.0
 51
270.0
  0
LINE
  5
101
100
AcDbEntity
  8
2
370
    50
100
AcDbLine
 10
-299.679967
 20
153.741387
 30
0.0
 11
-268.879967
 21
153.741387
 31
0.0
  0
ARC
  5
102
100
AcDbEntity
  8
2
370
    50
100
AcDbCircle
 10
-219.335809
 20
168.74155
 30
0.0
 40
22.855625
100
AcDbArc
 50
337.11014
 51
22.88986
  0
LINE
  5
103
100
AcDbEntity
  8
2
370
    50
100
AcDbLine
 10
-198.279967
 20
180.741387
 30
0.0
 11
-198.279967
 21
156.741387
 31
0.0
  0
LINE
  5
104
100
AcDbEntity
  8
2
370
    50
100
AcDbLine
 10
-300.679967
 20
154.741387
 30
0.0
 11
-300.679967
 21
183.241387
 31
0.0
  0
LINE
  5
105
100
AcDbEntity
  8
2
370
    50
100
AcDbLine
 10
-268.879967
 20
153.741387
 30
0.0
 11
-267.879967
 21
154.741387
 31
0.0
  0
LINE
  5
106
100
AcDbEntity
  8
2
370
    50
100
AcDbLine
 10
-299.679967
 20
153.741387
 30
0.0
 11
-300.679967
 21
154.741387
 31
0.0
  0
LINE
  5
107
100
AcDbEntity
  8
2
370
    50
100
AcDbLine
 10
-300.679967
 20
183.241387
 30
0.0
 11
-299.679967
 21
184.241387
 31
0.0
  0
LINE
  5
108
100
AcDbEntity
  8
2
370
    50
100
AcDbLine
 10
-268.879967
 20
184.241387
 30
0.0
 11
-267.879967
 21
183.241387
 31
0.0
  0
LINE
  5
109
100
AcDbEntity
  8
2
370
    50
100
AcDbLine
 10
-267.879967
 20
154.741387
 30
0.0
 11
-267.879967
 21
155.741387
 31
0.0
  0
LINE
  5
10A
100
AcDbEntity
  8
2
370
    50
100
AcDbLine
 10
-267.879967
 20
181.741387
 30
0.0
 11
-267.879967
 21
183.241387
 31
0.0
  0
LINE
  5
10B
100
AcDbEntity
  8
2
370
    50
100
AcDbLine
 10
-198.279967
 20
156.741387
 30
0.0
 11
-284.279967
 21
156.741387
 31
0.0
  0
LINE
  5
10C
100
AcDbEntity
  8
2
370
    50
100
AcDbLine
 10
-198.279967
 20
180.741387
 30
0.0
 11
-284.279967
 21
180.741387
 31
0.0
  0
ARC
  5
10D
100
AcDbEntity
  8
2
370
    50
100
AcDbCircle
 10
-229.279967
 20
154.741387
 30
0.0
 40
2.0
100
AcDbArc
 50
0.0
 51
90.0
  0
ARC
  5
10E
100
AcDbEntity
  8
2
370
    50
100
AcDbCircle
 10
-266.879967
 20
155.741387
 30
0.0
 40
1.0
100
AcDbArc
 50
90.0
 51
180.0
  0
ARC
  5
10F
100
AcDbEntity
  8
2
370
    50
100
AcDbCircle
 10
-266.879967
 20
181.741387
 30
0.0
 40
1.0
100
AcDbArc
 50
180.0
 51
270.0
  0
LINE
  5
110
100
AcDbEntity
  8
2
370
    50
100
AcDbLine
 10
-201.279967
 20
154.741387
 30
0.0
 11
-201.279967
 21
143.241387
 31
0.0
  0
LINE
  5
111
100
AcDbEntity
  8
2
370
    50
100
AcDbLine
 10
-227.279967
 20
154.741387
 30
0.0
 11
-227.279967
 21
143.241387
 31
0.0
  0
LINE
  5
112
100
AcDbEntity
  8
2
370
    50
100
AcDbLine
 10
-267.879967
 20
154.741387
 30
0.0
 11
-300.679967
 21
154.741387
 31
0.0
  0
LINE
  5
113
100
AcDbEntity
  8
2
370
    50
100
AcDbLine
 10
-272.779967
 20
184.241387
 30
0.0
 11
-272.779967
 21
187.041387
 31
0.0
  0
LINE
  5
114
100
AcDbEntity
  8
2
370
    50
100
AcDbLine
 10
-295.779967
 20
184.241387
 30
0.0
 11
-295.779967
 21
187.041387
 31
0.0
  0
ARC
  5
115
100
AcDbEntity
  8
2
370
    50
100
AcDbCircle
 10
-199.279967
 20
154.741387
 30
0.0
 40
2.0
100
AcDbArc
 50
90.0
 51
180.0
  0
LINE
  5
116
100
AcDbEntity
  8
2
370
    50
100
AcDbLine
 10
-297.779967
 20
189.541387
 30
0.0
 11
-270.779967
 21
189.541387
 31
0.0
  0
ARC
  5
117
100
AcDbEntity
  8
2
370
    50
100
AcDbCircle
 10
-270.779967
 20
191.541387
 30
0.0
 40
2.0
100
AcDbArc
 50
270.0
 51
294.670512
  0
LINE
  5
118
100
AcDbEntity
  8
2
370
    50
100
AcDbLine
 10
-262.028631
 20
195.673821
 30
0.0
 11
-306.60108
 21
195.673821
 31
0.0
  0
LINE
  5
119
100
AcDbEntity
  8
2
370
    50
100
AcDbLine
 10
-294.811562
 20
219.017058
 30
0.0
 11
-273.811562
 21
219.017058
 31
0.0
  0
LINE
  5
11A
100
AcDbEntity
  8
2
370
    50
100
AcDbLine
 10
-34.648356
 20
219.917058
 30
0.0
 11
-53.848356
 21
219.917058
 31
0.0
  0
LINE
  5
11B
100
AcDbEntity
  8
2
370
    50
100
AcDbLine
 10
-54.748356
 20
219.017058
 30
0.0
 11
-54.748356
 21
199.541387
 31
0.0
  0
LINE
  5
11C
100
AcDbEntity
  8
2
370
    50
100
AcDbLine
 10
-33.748356
 20
219.017058
 30
0.0
 11
-33.748356
 21
199.541387
 31
0.0
  0
LINE
  5
11D
100
AcDbEntity
  8
2
370
    50
100
AcDbLine
 10
-53.848356
 20
219.917058
 30
0.0
 11
-53.848356
 21
199.541387
 31
0.0
  0
LINE
  5
11E
100
AcDbEntity
  8
2
370
    50
100
AcDbLine
 10
-34.648356
 20
219.917058
 30
0.0
 11
-34.648356
 21
199.541387
 31
0.0
  0
LINE
  5
11F
100
AcDbEntity
  8
2
370
    50
100
AcDbLine
 10
-34.648356
 20
219.917058
 30
0.0
 11
-33.748356
 21
219.017058
 31
0.0
  0
LINE
  5
120
100
AcDbEntity
  8
2
370
    50
100
AcDbLine
 10
-53.848356
 20
219.917058
 30
0.0
 11
-54.748356
 21
219.017058
 31
0.0
  0
LINE
  5
121
100
AcDbEntity
  8
2
370
    50
100
AcDbLine
 10
-55.648356
 20
189.541387
 30
0.0
 11
-55.648356
 21
188.241387
 31
0.0
  0
LINE
  5
122
100
AcDbEntity
  8
2
370
    50
100
AcDbLine
 10
-32.848356
 20
189.541387
 30
0.0
 11
-32.848356
 21
188.241387
 31
0.0
  0
LINE
  5
123
100
AcDbEntity
  8
2
370
    50
100
AcDbLine
 10
-21.279951
 20
199.541387
 30
0.0
 11
-21.279951
 21
196.182507
 31
0.0
  0
LINE
  5
124
100
AcDbEntity
  8
2
370
    50
100
AcDbLine
 10
-67.279951
 20
199.541387
 30
0.0
 11
-21.279951
 21
199.541387
 31
0.0
  0
ARC
  5
125
100
AcDbEntity
  8
2
370
    50
100
AcDbCircle
 10
-30.779951
 20
191.541387
 30
0.0
 40
2.0
100
AcDbArc
 50
270.0
 51
294.670512
  0
LINE
  5
126
100
AcDbEntity
  8
2
370
    50
100
AcDbLine
 10
-21.862552
 20
195.273784
 30
0.0
 11
-29.945152
 21
189.72394
 31
0.0
  0
LINE
  5
127
100
AcDbEntity
  8
2
370
    50
100
AcDbLine
 10
-66.69735
 20
195.273784
 30
0.0
 11
-58.61475
 21
189.72394
 31
0.0
  0
ARC
  5
128
100
AcDbEntity
  8
2
370
    50
100
AcDbCircle
 10
-22.279951
 20
196.182507
 30
0.0
 40
1.0
100
AcDbArc
 50
294.670512
 51
0.0
  0
LINE
  5
129
100
AcDbEntity
  8
2
370
    50
100
AcDbLine
 10
-31.079951
 20
187.041387
 30
0.0
 11
-59.779951
 21
187.041387
 31
0.0
  0
LINE
  5
12A
100
AcDbEntity
  8
2
370
    50
100
AcDbLine
 10
-31.079951
 20
188.241387
 30
0.0
 11
-59.779951
 21
188.241387
 31
0.0
  0
LINE
  5
12B
100
AcDbEntity
  8
2
370
    50
100
AcDbLine
 10
-59.779951
 20
188.241387
 30
0.0
 11
-59.779951
 21
187.041387
 31
0.0
  0
LINE
  5
12C
100
AcDbEntity
  8
2
370
    50
100
AcDbLine
 10
-31.079951
 20
188.241387
 30
0.0
 11
-31.079951
 21
187.041387
 31
0.0
  0
LINE
  5
12D
100
AcDbEntity
  8
2
370
    50
100
AcDbLine
 10
-28.879951
 20
184.241387
 30
0.0
 11
-59.679951
 21
184.241387
 31
0.0
  0
LINE
  5
12E
100
AcDbEntity
  8
2
370
    50
100
AcDbLine
 10
-67.279951
 20
196.182507
 30
0.0
 11
-67.279951
 21
199.541387
 31
0.0
  0
LINE
  5
12F
100
AcDbEntity
  8
2
370
    50
100
AcDbLine
 10
-66.69735
 20
195.273784
 30
0.0
 11
-58.61475
 21
189.72394
 31
0.0
  0
ARC
  5
130
100
AcDbEntity
  8
2
370
    50
100
AcDbCircle
 10
-66.279951
 20
196.182507
 30
0.0
 40
1.0
100
AcDbArc
 50
180.0
 51
245.329488
  0
LINE
  5
131
100
AcDbEntity
  8
2
370
    50
100
AcDbLine
 10
-55.779951
 20
147.741387
 30
0.0
 11
-55.779951
 21
153.741387
 31
0.0
  0
LINE
  5
132
100
AcDbEntity
  8
2
370
    50
100
AcDbLine
 10
-32.779951
 20
147.741387
 30
0.0
 11
-32.779951
 21
153.741387
 31
0.0
  0
LINE
  5
133
100
AcDbEntity
  8
2
370
    50
100
AcDbLine
 10
-33.779951
 20
146.741387
 30
0.0
 11
-54.779951
 21
146.741387
 31
0.0
  0
ARC
  5
134
100
AcDbEntity
  8
2
370
    50
100
AcDbCircle
 10
-54.779951
 20
147.741387
 30
0.0
 40
1.0
100
AcDbArc
 50
180.0
 51
270.0
  0
ARC
  5
135
100
AcDbEntity
  8
2
370
    50
100
AcDbCircle
 10
-33.779951
 20
147.741387
 30
0.0
 40
1.0
100
AcDbArc
 50
270.0
 51
0.0
  0
LINE
  5
136
100
AcDbEntity
  8
2
370
    50
100
AcDbLine
 10
-28.879951
 20
153.741387
 30
0.0
 11
-59.679951
 21
153.741387
 31
0.0
  0
ARC
  5
137
100
AcDbEntity
  8
2
370
    50
100
AcDbCircle
 10
-109.224109
 20
168.74155
 30
0.0
 40
22.855625
100
AcDbArc
 50
157.11014
 51
202.88986
  0
LINE
  5
138
100
AcDbEntity
  8
2
370
    50
100
AcDbLine
 10
-130.279951
 20
180.741387
 30
0.0
 11
-130.279951
 21
156.741387
 31
0.0
  0
LINE
  5
139
100
AcDbEntity
  8
2
370
    50
100
AcDbLine
 10
-27.879951
 20
154.741387
 30
0.0
 11
-27.879951
 21
183.241387
 31
0.0
  0
LINE
  5
13A
100
AcDbEntity
  8
2
370
    50
100
AcDbLine
 10
-59.679951
 20
153.741387
 30
0.0
 11
-60.679951
 21
154.741387
 31
0.0
  0
LINE
  5
13B
100
AcDbEntity
  8
2
370
    50
100
AcDbLine
 10
-28.879951
 20
153.741387
 30
0.0
 11
-27.879951
 21
154.741387
 31
0.0
  0
LINE
  5
13C
100
AcDbEntity
  8
2
370
    50
100
AcDbLine
 10
-27.879951
 20
183.241387
 30
0.0
 11
-28.879951
 21
184.241387
 31
0.0
  0
LINE
  5
13D
100
AcDbEntity
  8
2
370
    50
100
AcDbLine
 10
-59.679951
 20
184.241387
 30
0.0
 11
-60.679951
 21
183.241387
 31
0.0
  0
LINE
  5
13E
100
AcDbEntity
  8
2
370
    50
100
AcDbLine
 10
-60.679951
 20
154.741387
 30
0.0
 11
-60.679951
 21
155.741387
 31
0.0
  0
LINE
  5
13F
100
AcDbEntity
  8
2
370
    50
100
AcDbLine
 10
-60.679951
 20
181.741387
 30
0.0
 11
-60.679951
 21
183.241387
 31
0.0
  0
LINE
  5
140
100
AcDbEntity
  8
2
370
    50
100
AcDbLine
 10
-130.279951
 20
156.741387
 30
0.0
 11
-44.279951
 21
156.741387
 31
0.0
  0
LINE
  5
141
100
AcDbEntity
  8
2
370
    50
100
AcDbLine
 10
-130.279951
 20
180.741387
 30
0.0
 11
-44.279951
 21
180.741387
 31
0.0
  0
ARC
  5
142
100
AcDbEntity
  8
2
370
    50
100
AcDbCircle
 10
-99.279951
 20
154.741387
 30
0.0
 40
2.0
100
AcDbArc
 50
90.0
 51
180.0
  0
ARC
  5
143
100
AcDbEntity
  8
2
370
    50
100
AcDbCircle
 10
-61.679951
 20
155.741387
 30
0.0
 40
1.0
100
AcDbArc
 50
0.0
 51
90.0
  0
ARC
  5
144
100
AcDbEntity
  8
2
370
    50
100
AcDbCircle
 10
-61.679951
 20
181.741387
 30
0.0
 40
1.0
100
AcDbArc
 50
270.0
 51
360.0
  0
LINE
  5
145
100
AcDbEntity
  8
2
370
    50
100
AcDbLine
 10
-127.279951
 20
154.741387
 30
0.0
 11
-127.279951
 21
143.241387
 31
0.0
  0
LINE
  5
146
100
AcDbEntity
  8
2
370
    50
100
AcDbLine
 10
-101.279951
 20
154.741387
 30
0.0
 11
-101.279951
 21
143.241387
 31
0.0
  0
LINE
  5
147
100
AcDbEntity
  8
2
370
    50
100
AcDbLine
 10
-60.679951
 20
154.741387
 30
0.0
 11
-27.879951
 21
154.741387
 31
0.0
  0
LINE
  5
148
100
AcDbEntity
  8
2
370
    50
100
AcDbLine
 10
-55.779951
 20
184.241387
 30
0.0
 11
-55.779951
 21
187.041387
 31
0.0
  0
LINE
  5
149
100
AcDbEntity
  8
2
370
    50
100
AcDbLine
 10
-32.779951
 20
184.241387
 30
0.0
 11
-32.779951
 21
187.041387
 31
0.0
  0
ARC
  5
14A
100
AcDbEntity
  8
2
370
    50
100
AcDbCircle
 10
-129.279951
 20
154.741387
 30
0.0
 40
2.0
100
AcDbArc
 50
0.0
 51
90.0
  0
LINE
  5
14B
100
AcDbEntity
  8
2
370
    50
100
AcDbLine
 10
-30.779951
 20
189.541387
 30
0.0
 11
-57.779951
 21
189.541387
 31
0.0
  0
ARC
  5
14C
100
AcDbEntity
  8
2
370
    50
100
AcDbCircle
 10
-57.779951
 20
191.541387
 30
0.0
 40
2.0
100
AcDbArc
 50
245.329488
 51
270.0
  0
LINE
  5
14D
100
AcDbEntity
  8
2
370
    50
100
AcDbLine
 10
-66.531287
 20
195.673821
 30
0.0
 11
-21.958838
 21
195.673821
 31
0.0
  0
LINE
  5
14E
100
AcDbEntity
  8
2
370
    50
100
AcDbLine
 10
-33.748356
 20
219.017058
 30
0.0
 11
-54.748356
 21
219.017058
 31
0.0
  0
LINE
  5
14F
100
AcDbEntity
  8
2
370
    50
100
AcDbLine
 10
-279.854967
 20
146.241387
 30
0.0
 11
-279.854967
 21
146.741387
 31
0.0
  0
LINE
  5
150
100
AcDbEntity
  8
2
370
    50
100
AcDbLine
 10
-288.704967
 20
146.241387
 30
0.0
 11
-288.704967
 21
146.741387
 31
0.0
  0
LINE
  5
151
100
AcDbEntity
  8
2
370
    50
100
AcDbLine
 10
-283.279967
 20
145.241387
 30
0.0
 11
-283.279967
 21
146.741387
 31
0.0
  0
LINE
  5
152
100
AcDbEntity
  8
2
370
    50
100
AcDbLine
 10
-285.279967
 20
145.241387
 30
0.0
 11
-285.279967
 21
146.741387
 31
0.0
  0
LINE
  5
153
100
AcDbEntity
  8
2
370
    50
100
AcDbLine
 10
-280.854967
 20
145.241387
 30
0.0
 11
-279.854967
 21
146.241387
 31
0.0
  0
LINE
  5
154
100
AcDbEntity
  8
2
370
    50
100
AcDbLine
 10
-287.704967
 20
145.241387
 30
0.0
 11
-288.704967
 21
146.241387
 31
0.0
  0
LINE
  5
155
100
AcDbEntity
  8
2
370
    50
100
AcDbLine
 10
-287.704967
 20
145.241387
 30
0.0
 11
-285.279967
 21
145.241387
 31
0.0
  0
LINE
  5
156
100
AcDbEntity
  8
2
370
    50
100
AcDbLine
 10
-283.279967
 20
145.241387
 30
0.0
 11
-280.854967
 21
145.241387
 31
0.0
  0
LINE
  5
157
100
AcDbEntity
  8
2
370
    50
100
AcDbLine
 10
-290.760467
 20
152.241387
 30
0.0
 11
-277.799467
 21
152.241387
 31
0.0
  0
LINE
  5
158
100
AcDbEntity
  8
2
370
    50
100
AcDbLine
 10
-277.799467
 20
146.741387
 30
0.0
 11
-277.799467
 21
152.241387
 31
0.0
  0
LINE
  5
159
100
AcDbEntity
  8
2
370
    50
100
AcDbLine
 10
-290.760467
 20
146.741387
 30
0.0
 11
-290.760467
 21
152.241387
 31
0.0
  0
LINE
  5
15A
100
AcDbEntity
  8
2
370
    50
100
AcDbLine
 10
-37.799451
 20
146.741387
 30
0.0
 11
-37.799451
 21
152.241387
 31
0.0
  0
LINE
  5
15B
100
AcDbEntity
  8
2
370
    50
100
AcDbLine
 10
-37.799451
 20
146.741387
 30
0.0
 11
-37.799451
 21
152.241387
 31
0.0
  0
LINE
  5
15C
100
AcDbEntity
  8
2
370
    50
100
AcDbLine
 10
-37.799451
 20
152.241387
 30
0.0
 11
-50.760451
 21
152.241387
 31
0.0
  0
LINE
  5
15D
100
AcDbEntity
  8
2
370
    50
100
AcDbLine
 10
-50.760451
 20
146.741387
 30
0.0
 11
-50.760451
 21
152.241387
 31
0.0
  0
LINE
  5
15E
100
AcDbEntity
  8
2
370
    50
100
AcDbLine
 10
-47.704951
 20
145.241387
 30
0.0
 11
-48.704951
 21
146.241387
 31
0.0
  0
LINE
  5
15F
100
AcDbEntity
  8
2
370
    50
100
AcDbLine
 10
-45.279951
 20
145.241387
 30
0.0
 11
-47.704951
 21
145.241387
 31
0.0
  0
LINE
  5
160
100
AcDbEntity
  8
2
370
    50
100
AcDbLine
 10
-45.279951
 20
145.241387
 30
0.0
 11
-45.279951
 21
146.741387
 31
0.0
  0
LINE
  5
161
100
AcDbEntity
  8
2
370
    50
100
AcDbLine
 10
-48.704951
 20
146.241387
 30
0.0
 11
-48.704951
 21
146.741387
 31
0.0
  0
LINE
  5
162
100
AcDbEntity
  8
2
370
    50
100
AcDbLine
 10
-39.854951
 20
146.241387
 30
0.0
 11
-39.854951
 21
146.741387
 31
0.0
  0
LINE
  5
163
100
AcDbEntity
  8
2
370
    50
100
AcDbLine
 10
-40.854951
 20
145.241387
 30
0.0
 11
-39.854951
 21
146.241387
 31
0.0
  0
LINE
  5
164
100
AcDbEntity
  8
2
370
    50
100
AcDbLine
 10
-40.854951
 20
145.241387
 30
0.0
 11
-43.279951
 21
145.241387
 31
0.0
  0
LINE
  5
165
100
AcDbEntity
  8
2
370
    50
100
AcDbLine
 10
-43.279951
 20
145.241387
 30
0.0
 11
-43.279951
 21
146.741387
 31
0.0
  0
POINT
  5
166
100
AcDbEntity
  8
2
370
    50
100
AcDbPoint
 10
-44.248356
 20
219.917058
 30
0.0
  0
POINT
  5
167
100
AcDbEntity
  8
2
370
    50
100
AcDbPoint
 10
-284.311562
 20
219.917058
 30
0.0
  0
POINT
  5
168
100
AcDbEntity
  8
2
370
    50
100
AcDbPoint
 10
-114.279951
 20
156.741387
 30
0.0
  0
POINT
  5
169
100
AcDbEntity
  8
2
370
    50
100
AcDbPoint
 10
-214.279967
 20
156.741387
 30
0.0
  0
ARC
  5
16A
100
AcDbEntity
  8
2
370
    50
100
AcDbCircle
 10
-64.932204
 20
-155.757692
 30
0.0
 40
23.0
100
AcDbArc
 50
177.234583
 51
92.765417
  0
POINT
  5
16B
100
AcDbEntity
  8
2
370
    50
100
AcDbPoint
 10
-64.932204
 20
-155.757692
 30
0.0
  0
CIRCLE
  5
16C
100
AcDbEntity
  8
2
370
    50
100
AcDbCircle
 10
-64.932204
 20
-155.757692
 30
0.0
 40
16.4
  0
CIRCLE
  5
16D
100
AcDbEntity
  8
2
370
    50
100
AcDbCircle
 10
-64.932204
 20
-155.757692
 30
0.0
 40
4.425
  0
LINE
  5
16E
100
AcDbEntity
  8
2
370
    50
100
AcDbLine
 10
-68.687312
 20
-158.098587
 30
0.0
 11
-62.59131
 21
-152.002584
 31
0.0
  0
LINE
  5
16F
100
AcDbEntity
  8
2
370
    50
100
AcDbLine
 10
-67.273099
 20
-159.5128
 30
0.0
 11
-61.177096
 21
-153.416797
 31
0.0
  0
CIRCLE
  5
170
100
AcDbEntity
  8
2
370
    50
100
AcDbCircle
 10
-64.932204
 20
-155.757692
 30
0.0
 40
11.5
  0
LINE
  5
171
100
AcDbEntity
  8
2
370
    50
100
AcDbLine
 10
-76.232294
 20
-153.622753
 30
0.0
 11
-67.067143
 21
-144.457602
 31
0.0
  0
LINE
  5
172
100
AcDbEntity
  8
2
370
    50
100
AcDbLine
 10
-62.797265
 20
-167.057782
 30
0.0
 11
-53.632114
 21
-157.892631
 31
0.0
  0
CIRCLE
  5
173
100
AcDbEntity
  8
2
370
    50
100
AcDbCircle
 10
-64.932204
 20
-155.757692
 30
0.0
 40
13.8
  0
CIRCLE
  5
174
100
AcDbEntity
  8
2
370
    50
100
AcDbCircle
 10
-64.932204
 20
-155.757692
 30
0.0
 40
15.4
  0
LINE
  5
175
100
AcDbEntity
  8
2
370
    50
100
AcDbLine
 10
-107.888362
 20
-132.260197
 30
0.0
 11
-77.167259
 21
-166.678471
 31
0.0
  0
LINE
  5
176
100
AcDbEntity
  8
2
370
    50
100
AcDbLine
 10
-68.869951
 20
-130.260197
 30
0.0
 11
-54.011425
 21
-143.522637
 31
0.0
  0
ARC
  5
177
100
AcDbEntity
  8
2
370
    50
100
AcDbCircle
 10
-263.927154
 20
-155.757692
 30
0.0
 40
23.0
100
AcDbArc
 50
87.234583
 51
2.765417
  0
POINT
  5
178
100
AcDbEntity
  8
2
370
    50
100
AcDbPoint
 10
-263.927154
 20
-155.757692
 30
0.0
  0
CIRCLE
  5
179
100
AcDbEntity
  8
2
370
    50
100
AcDbCircle
 10
-263.927154
 20
-155.757692
 30
0.0
 40
16.4
  0
CIRCLE
  5
17A
100
AcDbEntity
  8
2
370
    50
100
AcDbCircle
 10
-263.927154
 20
-155.757692
 30
0.0
 40
4.425
  0
LINE
  5
17B
100
AcDbEntity
  8
2
370
    50
100
AcDbLine
 10
-260.172045
 20
-158.098587
 30
0.0
 11
-266.268048
 21
-152.002584
 31
0.0
  0
LINE
  5
17C
100
AcDbEntity
  8
2
370
    50
100
AcDbLine
 10
-261.586259
 20
-159.5128
 30
0.0
 11
-267.682262
 21
-153.416797
 31
0.0
  0
CIRCLE
  5
17D
100
AcDbEntity
  8
2
370
    50
100
AcDbCircle
 10
-263.927154
 20
-155.757692
 30
0.0
 40
11.5
  0
LINE
  5
17E
100
AcDbEntity
  8
2
370
    50
100
AcDbLine
 10
-252.627063
 20
-153.622753
 30
0.0
 11
-261.792215
 21
-144.457602
 31
0.0
  0
LINE
  5
17F
100
AcDbEntity
  8
2
370
    50
100
AcDbLine
 10
-266.062092
 20
-167.057782
 30
0.0
 11
-275.227244
 21
-157.892631
 31
0.0
  0
CIRCLE
  5
180
100
AcDbEntity
  8
2
370
    50
100
AcDbCircle
 10
-263.927154
 20
-155.757692
 30
0.0
 40
13.8
  0
CIRCLE
  5
181
100
AcDbEntity
  8
2
370
    50
100
AcDbCircle
 10
-263.927154
 20
-155.757692
 30
0.0
 40
15.4
  0
LINE
  5
182
100
AcDbEntity
  8
2
370
    50
100
AcDbLine
 10
-220.970996
 20
-132.260197
 30
0.0
 11
-251.692098
 21
-166.678471
 31
0.0
  0
LINE
  5
183
100
AcDbEntity
  8
2
370
    50
100
AcDbLine
 10
-259.989407
 20
-130.260197
 30
0.0
 11
-274.847933
 21
-143.522637
 31
0.0
  0
POINT
  5
184
100
AcDbEntity
  8
2
370
    50
100
AcDbPoint
 10
265.14833
 20
21.740683
 30
0.0
  0
LINE
  5
185
100
AcDbEntity
  8
2
370
    50
100
AcDbLine
 10
353.123839
 20
-17.256911
 30
0.0
 11
333.647839
 21
-17.256911
 31
0.0
  0
LINE
  5
186
100
AcDbEntity
  8
2
370
    50
100
AcDbLine
 10
353.123839
 20
-38.256911
 30
0.0
 11
333.647839
 21
-38.256911
 31
0.0
  0
LINE
  5
187
100
AcDbEntity
  8
2
370
    25
100
AcDbLine
 10
354.023839
 20
-18.156911
 30
0.0
 11
333.647839
 21
-18.156911
 31
0.0
  0
LINE
  5
188
100
AcDbEntity
  8
2
370
    25
100
AcDbLine
 10
354.023839
 20
-37.356911
 30
0.0
 11
333.647839
 21
-37.356911
 31
0.0
  0
LINE
  5
189
100
AcDbEntity
  8
2
370
    50
100
AcDbLine
 10
333.647839
 20
-50.725317
 30
0.0
 11
330.288959
 21
-50.725317
 31
0.0
  0
LINE
  5
18A
100
AcDbEntity
  8
2
370
    50
100
AcDbLine
 10
333.647839
 20
-4.725317
 30
0.0
 11
333.647839
 21
-50.725317
 31
0.0
  0
ARC
  5
18B
100
AcDbEntity
  8
2
370
    50
100
AcDbCircle
 10
325.647839
 20
-41.225317
 30
0.0
 40
2.0
100
AcDbArc
 50
180.0
 51
204.670512
  0
LINE
  5
18C
100
AcDbEntity
  8
2
370
    50
100
AcDbLine
 10
329.380235
 20
-50.142716
 30
0.0
 11
323.830392
 21
-42.060116
 31
0.0
  0
ARC
  5
18D
100
AcDbEntity
  8
2
370
    50
100
AcDbCircle
 10
325.647839
 20
-14.225317
 30
0.0
 40
2.0
100
AcDbArc
 50
155.329488
 51
180.0
  0
LINE
  5
18E
100
AcDbEntity
  8
2
370
    50
100
AcDbLine
 10
329.380235
 20
-5.307917
 30
0.0
 11
323.830392
 21
-13.390518
 31
0.0
  0
ARC
  5
18F
100
AcDbEntity
  8
2
370
    50
100
AcDbCircle
 10
330.288959
 20
-49.725317
 30
0.0
 40
1.0
100
AcDbArc
 50
204.670512
 51
270.0
  0
LINE
  5
190
100
AcDbEntity
  8
2
370
    50
100
AcDbLine
 10
322.447839
 20
-40.925317
 30
0.0
 11
322.447839
 21
-12.225317
 31
0.0
  0
LINE
  5
191
100
AcDbEntity
  8
2
370
    50
100
AcDbLine
 10
323.647839
 20
-40.925317
 30
0.0
 11
323.647839
 21
-12.225317
 31
0.0
  0
LINE
  5
192
100
AcDbEntity
  8
2
370
    50
100
AcDbLine
 10
323.647839
 20
-40.925317
 30
0.0
 11
322.447839
 21
-40.925317
 31
0.0
  0
LINE
  5
193
100
AcDbEntity
  8
2
370
    50
100
AcDbLine
 10
319.647839
 20
-43.157317
 30
0.0
 11
319.647839
 21
-12.325317
 31
0.0
  0
LINE
  5
194
100
AcDbEntity
  8
2
370
    50
100
AcDbLine
 10
330.288959
 20
-4.725317
 30
0.0
 11
333.647839
 21
-4.725317
 31
0.0
  0
LINE
  5
195
100
AcDbEntity
  8
2
370
    50
100
AcDbLine
 10
329.380235
 20
-5.307917
 30
0.0
 11
323.830392
 21
-13.390518
 31
0.0
  0
ARC
  5
196
100
AcDbEntity
  8
2
370
    50
100
AcDbCircle
 10
330.288959
 20
-5.725317
 30
0.0
 40
1.0
100
AcDbArc
 50
90.0
 51
155.329488
  0
LINE
  5
197
100
AcDbEntity
  8
2
370
    50
100
AcDbLine
 10
283.147839
 20
-16.225317
 30
0.0
 11
289.147839
 21
-16.225317
 31
0.0
  0
LINE
  5
198
100
AcDbEntity
  8
2
370
    50
100
AcDbLine
 10
283.147839
 20
-39.225317
 30
0.0
 11
289.147839
 21
-39.225317
 31
0.0
  0
LINE
  5
199
100
AcDbEntity
  8
2
370
    50
100
AcDbLine
 10
281.647839
 20
-23.300317
 30
0.0
 11
282.147839
 21
-23.300317
 31
0.0
  0
LINE
  5
19A
100
AcDbEntity
  8
2
370
    50
100
AcDbLine
 10
281.647839
 20
-32.150317
 30
0.0
 11
282.147839
 21
-32.150317
 31
0.0
  0
LINE
  5
19B
100
AcDbEntity
  8
2
370
    50
100
AcDbLine
 10
280.647839
 20
-26.725317
 30
0.0
 11
282.147839
 21
-26.725317
 31
0.0
  0
LINE
  5
19C
100
AcDbEntity
  8
2
370
    50
100
AcDbLine
 10
280.647839
 20
-28.725317
 30
0.0
 11
282.147839
 21
-28.725317
 31
0.0
  0
LINE
  5
19D
100
AcDbEntity
  8
2
370
    50
100
AcDbLine
 10
280.647839
 20
-24.300317
 30
0.0
 11
281.647839
 21
-23.300317
 31
0.0
  0
LINE
  5
19E
100
AcDbEntity
  8
2
370
    50
100
AcDbLine
 10
280.647839
 20
-31.150317
 30
0.0
 11
281.647839
 21
-32.150317
 31
0.0
  0
LINE
  5
19F
100
AcDbEntity
  8
2
370
    50
100
AcDbLine
 10
280.647839
 20
-31.150317
 30
0.0
 11
280.647839
 21
-28.725317
 31
0.0
  0
LINE
  5
1A0
100
AcDbEntity
  8
2
370
    50
100
AcDbLine
 10
280.647839
 20
-26.725317
 30
0.0
 11
280.647839
 21
-24.300317
 31
0.0
  0
LINE
  5
1A1
100
AcDbEntity
  8
2
370
    50
100
AcDbLine
 10
282.147839
 20
-38.225317
 30
0.0
 11
282.147839
 21
-17.225317
 31
0.0
  0
ARC
  5
1A2
100
AcDbEntity
  8
2
370
    50
100
AcDbCircle
 10
283.147839
 20
-17.225317
 30
0.0
 40
1.0
100
AcDbArc
 50
90.0
 51
180.0
  0
ARC
  5
1A3
100
AcDbEntity
  8
2
370
    50
100
AcDbCircle
 10
283.147839
 20
-38.225317
 30
0.0
 40
1.0
100
AcDbArc
 50
180.0
 51
270.0
  0
LINE
  5
1A4
100
AcDbEntity
  8
2
370
    50
100
AcDbLine
 10
290.147839
 20
-44.157317
 30
0.0
 11
318.647839
 21
-44.157317
 31
0.0
  0
LINE
  5
1A5
100
AcDbEntity
  8
2
370
    50
100
AcDbLine
 10
290.147839
 20
-11.325317
 30
0.0
 11
289.147839
 21
-12.325317
 31
0.0
  0
LINE
  5
1A6
100
AcDbEntity
  8
2
370
    50
100
AcDbLine
 10
289.147839
 20
-43.157317
 30
0.0
 11
290.147839
 21
-44.157317
 31
0.0
  0
LINE
  5
1A7
100
AcDbEntity
  8
2
370
    50
100
AcDbLine
 10
318.647839
 20
-44.157317
 30
0.0
 11
319.647839
 21
-43.157317
 31
0.0
  0
LINE
  5
1A8
100
AcDbEntity
  8
2
370
    50
100
AcDbLine
 10
290.147839
 20
-11.325317
 30
0.0
 11
291.147839
 21
-11.325317
 31
0.0
  0
LINE
  5
1A9
100
AcDbEntity
  8
2
370
    50
100
AcDbLine
 10
314.947839
 20
-11.325317
 30
0.0
 11
318.647839
 21
-11.325317
 31
0.0
  0
ARC
  5
1AA
100
AcDbEntity
  8
2
370
    50
100
AcDbCircle
 10
291.147839
 20
-10.325317
 30
0.0
 40
1.0
100
AcDbArc
 50
270.0
 51
360.0
  0
LINE
  5
1AB
100
AcDbEntity
  8
2
370
    50
100
AcDbLine
 10
289.147839
 20
-43.157317
 30
0.0
 11
289.147839
 21
-12.325317
 31
0.0
  0
LINE
  5
1AC
100
AcDbEntity
  8
2
370
    50
100
AcDbLine
 10
319.647839
 20
-16.325317
 30
0.0
 11
322.247839
 21
-16.325317
 31
0.0
  0
LINE
  5
1AD
100
AcDbEntity
  8
2
370
    50
100
AcDbLine
 10
319.647839
 20
-39.125317
 30
0.0
 11
322.247839
 21
-39.125317
 31
0.0
  0
LINE
  5
1AE
100
AcDbEntity
  8
2
370
    50
100
AcDbLine
 10
322.247839
 20
-39.125317
 30
0.0
 11
322.447839
 21
-38.925317
 31
0.0
  0
LINE
  5
1AF
100
AcDbEntity
  8
2
370
    50
100
AcDbLine
 10
322.247839
 20
-16.325317
 30
0.0
 11
322.447839
 21
-16.525317
 31
0.0
  0
LINE
  5
1B0
100
AcDbEntity
  8
2
370
    50
100
AcDbLine
 10
318.647839
 20
-11.325317
 30
0.0
 11
318.647839
 21
-44.157317
 31
0.0
  0
LINE
  5
1B1
100
AcDbEntity
  8
2
370
    50
100
AcDbLine
 10
290.147839
 20
-11.325317
 30
0.0
 11
290.147839
 21
-44.157317
 31
0.0
  0
LINE
  5
1B2
100
AcDbEntity
  8
2
370
    50
100
AcDbLine
 10
323.647839
 20
-14.225317
 30
0.0
 11
323.647839
 21
-41.225317
 31
0.0
  0
LINE
  5
1B3
100
AcDbEntity
  8
2
370
    50
100
AcDbLine
 10
329.780273
 20
-5.464598
 30
0.0
 11
329.780273
 21
-49.885207
 31
0.0
  0
LINE
  5
1B4
100
AcDbEntity
  8
2
370
    50
100
AcDbLine
 10
287.647839
 20
-34.205817
 30
0.0
 11
287.647839
 21
-21.244817
 31
0.0
  0
LINE
  5
1B5
100
AcDbEntity
  8
2
370
    50
100
AcDbLine
 10
282.147839
 20
-21.244817
 30
0.0
 11
287.647839
 21
-21.244817
 31
0.0
  0
LINE
  5
1B6
100
AcDbEntity
  8
2
370
    50
100
AcDbLine
 10
282.147839
 20
-34.205817
 30
0.0
 11
287.647839
 21
-34.205817
 31
0.0
  0
LINE
  5
1B7
100
AcDbEntity
  8
2
370
    50
100
AcDbLine
 10
302.29833
 20
37.740683
 30
0.0
 11
311.947839
 21
37.740683
 31
0.0
  0
ARC
  5
1B8
100
AcDbEntity
  8
2
370
    50
100
AcDbCircle
 10
311.947839
 20
35.740683
 30
0.0
 40
2.0
100
AcDbArc
 50
0.0
 51
90.0
  0
ARC
  5
1B9
100
AcDbEntity
  8
2
370
    50
100
AcDbCircle
 10
314.947839
 20
-10.325317
 30
0.0
 40
1.0
100
AcDbArc
 50
180.0
 51
270.0
  0
LINE
  5
1BA
100
AcDbEntity
  8
2
370
    50
100
AcDbLine
 10
318.647839
 20
-11.325317
 30
0.0
 11
319.647839
 21
-12.325317
 31
0.0
  0
LINE
  5
1BB
100
AcDbEntity
  8
2
370
    50
100
AcDbLine
 10
322.447839
 20
-12.225317
 30
0.0
 11
323.647839
 21
-12.225317
 31
0.0
  0
LINE
  5
1BC
100
AcDbEntity
  8
2
370
    50
100
AcDbLine
 10
354.023839
 20
-37.356911
 30
0.0
 11
354.023839
 21
-18.156911
 31
0.0
  0
LINE
  5
1BD
100
AcDbEntity
  8
2
370
    25
100
AcDbLine
 10
353.123839
 20
-17.256911
 30
0.0
 11
353.123839
 21
-38.256911
 31
0.0
  0
LINE
  5
1BE
100
AcDbEntity
  8
2
370
    50
100
AcDbLine
 10
354.023839
 20
-18.156911
 30
0.0
 11
353.123839
 21
-17.256911
 31
0.0
  0
LINE
  5
1BF
100
AcDbEntity
  8
2
370
    50
100
AcDbLine
 10
354.023839
 20
-37.356911
 30
0.0
 11
353.123839
 21
-38.256911
 31
0.0
  0
POINT
  5
1C0
100
AcDbEntity
  8
2
370
    50
100
AcDbPoint
 10
288.44833
 20
-3.259317
 30
0.0
  0
LINE
  5
1C1
100
AcDbEntity
  8
2
370
    50
100
AcDbLine
 10
280.706684
 20
34.740683
 30
0.0
 11
290.147839
 21
34.740683
 31
0.0
  0
LINE
  5
1C2
100
AcDbEntity
  8
2
370
    50
100
AcDbLine
 10
313.947839
 20
-27.756911
 30
0.0
 11
313.947839
 21
35.740683
 31
0.0
  0
LINE
  5
1C3
100
AcDbEntity
  8
2
370
    50
100
AcDbLine
 10
292.147839
 20
37.740683
 30
0.0
 11
292.147839
 21
-27.756911
 31
0.0
  0
LINE
  5
1C4
100
AcDbEntity
  8
2
370
    50
100
AcDbLine
 10
292.147839
 20
37.740683
 30
0.0
 11
311.947839
 21
37.740683
 31
0.0
  0
ARC
  5
1C5
100
AcDbEntity
  8
2
370
    50
100
AcDbCircle
 10
311.947839
 20
35.740683
 30
0.0
 40
2.0
100
AcDbArc
 50
0.0
 51
90.0
  0
ARC
  5
1C6
100
AcDbEntity
  8
2
370
    50
100
AcDbCircle
 10
290.147839
 20
36.740683
 30
0.0
 40
2.0
100
AcDbArc
 50
270.0
 51
0.0
  0
LINE
  5
1C7
100
AcDbEntity
  8
2
370
    25
100
AcDbLine
 10
279.147839
 20
33.840683
 30
0.0
 11
278.64833
 21
33.840683
 31
0.0
  0
LINE
  5
1C8
100
AcDbEntity
  8
2
370
    50
100
AcDbLine
 10
279.147839
 20
33.840683
 30
0.0
 11
280.706684
 21
34.740683
 31
0.0
  0
LINE
  5
1C9
100
AcDbEntity
  8
2
370
    50
100
AcDbLine
 10
279.147839
 20
33.840683
 30
0.0
 11
279.147839
 21
9.640683
 31
0.0
  0
LINE
  5
1CA
100
AcDbEntity
  8
2
370
    50
100
AcDbLine
 10
280.706684
 20
8.740683
 30
0.0
 11
290.147839
 21
8.740683
 31
0.0
  0
ARC
  5
1CB
100
AcDbEntity
  8
2
370
    50
100
AcDbCircle
 10
290.147839
 20
6.740683
 30
0.0
 40
2.0
100
AcDbArc
 50
360.0
 51
90.0
  0
LINE
  5
1CC
100
AcDbEntity
  8
2
370
    50
100
AcDbLine
 10
279.147839
 20
9.640683
 30
0.0
 11
280.706684
 21
8.740683
 31
0.0
  0
LINE
  5
1CD
100
AcDbEntity
  8
2
370
    25
100
AcDbLine
 10
279.147839
 20
9.640683
 30
0.0
 11
278.64833
 21
9.640683
 31
0.0
  0
LINE
  5
1CE
100
AcDbEntity
  8
2
370
    50
100
AcDbLine
 10
208.998771
 20
-22.565201
 30
0.0
 11
235.998771
 21
-22.565201
 31
0.0
  0
LINE
  5
1CF
100
AcDbEntity
  8
2
370
    50
100
AcDbLine
 10
70.499239
 20
-37.565201
 30
0.0
 11
208.498771
 21
-37.565201
 31
0.0
  0
LINE
  5
1D0
100
AcDbEntity
  8
2
370
    50
100
AcDbLine
 10
208.498771
 20
-37.565201
 30
0.0
 11
208.498771
 21
-23.065201
 31
0.0
  0
LINE
  5
1D1
100
AcDbEntity
  8
2
370
    50
100
AcDbLine
 10
236.498771
 20
-48.565201
 30
0.0
 11
236.498771
 21
-37.565201
 31
0.0
  0
LINE
  5
1D2
100
AcDbEntity
  8
2
370
    50
100
AcDbLine
 10
208.998771
 20
-22.565201
 30
0.0
 11
208.498771
 21
-23.065201
 31
0.0
  0
LINE
  5
1D3
100
AcDbEntity
  8
2
370
    50
100
AcDbLine
 10
236.498771
 20
-23.065201
 30
0.0
 11
235.998771
 21
-22.565201
 31
0.0
  0
ARC
  5
1D4
100
AcDbEntity
  8
2
370
    50
100
AcDbCircle
 10
231.498771
 20
-48.565201
 30
0.0
 40
5.0
100
AcDbArc
 50
270.0
 51
360.0
  0
LINE
  5
1D5
100
AcDbEntity
  8
2
370
    50
100
AcDbLine
 10
236.498771
 20
-23.065201
 30
0.0
 11
236.498771
 21
-37.565201
 31
0.0
  0
LINE
  5
1D6
100
AcDbEntity
  8
2
370
    50
100
AcDbLine
 10
70.499239
 20
-53.565201
 30
0.0
 11
231.498771
 21
-53.565201
 31
0.0
  0
LINE
  5
1D7
100
AcDbEntity
  8
2
370
    50
100
AcDbLine
 10
230.448771
 20
-22.565201
 30
0.0
 11
230.448771
 21
-21.065535
 31
0.0
  0
LINE
  5
1D8
100
AcDbEntity
  8
2
370
    50
100
AcDbLine
 10
214.548771
 20
-22.565201
 30
0.0
 11
214.548771
 21
-21.065535
 31
0.0
  0
LINE
  5
1D9
100
AcDbEntity
  8
2
370
    50
100
AcDbLine
 10
41.866067
 20
-66.965201
 30
0.0
 11
63.131476
 21
-66.965201
 31
0.0
  0
LINE
  5
1DA
100
AcDbEntity
  8
2
370
    50
100
AcDbLine
 10
40.498771
 20
-56.665201
 30
0.0
 11
40.498771
 21
-63.465201
 31
0.0
  0
LINE
  5
1DB
100
AcDbEntity
  8
2
370
    50
100
AcDbLine
 10
64.498771
 20
-56.665201
 30
0.0
 11
64.498771
 21
-63.465201
 31
0.0
  0
LINE
  5
1DC
100
AcDbEntity
  8
2
370
    50
100
AcDbLine
 10
64.498771
 20
-63.465201
 30
0.0
 11
64.121425
 21
-66.106623
 31
0.0
  0
LINE
  5
1DD
100
AcDbEntity
  8
2
370
    50
100
AcDbLine
 10
40.498771
 20
-63.465201
 30
0.0
 11
40.876117
 21
-66.106623
 31
0.0
  0
ARC
  5
1DE
100
AcDbEntity
  8
2
370
    50
100
AcDbCircle
 10
63.131476
 20
-65.965201
 30
0.0
 40
1.0
100
AcDbArc
 50
270.0
 51
351.869898
  0
ARC
  5
1DF
100
AcDbEntity
  8
2
370
    50
100
AcDbCircle
 10
41.866067
 20
-65.965201
 30
0.0
 40
1.0
100
AcDbArc
 50
188.130102
 51
270.0
  0
POINT
  5
1E0
100
AcDbEntity
  8
2
370
    50
100
AcDbPoint
 10
52.498771
 20
-66.965201
 30
0.0
  0
LINE
  5
1E1
100
AcDbEntity
  8
2
370
    50
100
AcDbLine
 10
35.848771
 20
-33.965201
 30
0.0
 11
67.499239
 21
-33.965201
 31
0.0
  0
ARC
  5
1E2
100
AcDbEntity
  8
2
370
    50
100
AcDbCircle
 10
67.499239
 20
-38.965201
 30
0.0
 40
5.0
100
AcDbArc
 50
53.130102
 51
90.0
  0
ARC
  5
1E3
100
AcDbEntity
  8
2
370
    50
100
AcDbCircle
 10
67.499239
 20
-51.665201
 30
0.0
 40
5.0
100
AcDbArc
 50
269.994637
 51
306.869898
  0
ARC
  5
1E4
100
AcDbEntity
  8
2
370
    50
100
AcDbCircle
 10
35.848771
 20
-45.315201
 30
0.0
 40
11.35
100
AcDbArc
 50
90.0
 51
270.0
  0
LINE
  5
1E5
100
AcDbEntity
  8
2
370
    50
100
AcDbLine
 10
70.499239
 20
-55.665201
 30
0.0
 11
70.499239
 21
-34.965201
 31
0.0
  0
LINE
  5
1E6
100
AcDbEntity
  8
2
370
    50
100
AcDbLine
 10
35.848771
 20
-56.665201
 30
0.0
 11
67.499239
 21
-56.665201
 31
0.0
  0
LINE
  5
1E7
100
AcDbEntity
  8
2
370
    25
100
AcDbLine
 10
63.933716
 20
-63.465201
 30
0.0
 11
40.890751
 21
-63.465201
 31
0.0
  0
LINE
  5
1E8
100
AcDbEntity
  8
2
370
    50
100
AcDbLine
 10
236.498771
 20
-23.065201
 30
0.0
 11
208.498771
 21
-23.065201
 31
0.0
  0
ARC
  5
1E9
100
AcDbEntity
  8
2
370
    25
100
AcDbCircle
 10
271.463437
 20
40.122963
 30
0.0
 40
100.0
100
AcDbArc
 50
233.365977
 51
243.303759
  0
LINE
  5
1EA
100
AcDbEntity
  8
2
370
    50
100
AcDbLine
 10
-171.62941
 20
-149.821589
 30
0.0
 11
-171.62941
 21
-151.322212
 31
0.0
  0
LINE
  5
1EB
100
AcDbEntity
  8
2
370
    50
100
AcDbLine
 10
-155.62941
 20
-149.821589
 30
0.0
 11
-155.62941
 21
-151.322212
 31
0.0
  0
LINE
  5
1EC
100
AcDbEntity
  8
2
370
    50
100
AcDbLine
 10
-149.62941
 20
-151.822212
 30
0.0
 11
-149.62941
 21
-165.408991
 31
0.0
  0
LINE
  5
1ED
100
AcDbEntity
  8
2
370
    50
100
AcDbLine
 10
-177.62941
 20
-151.822212
 30
0.0
 11
-177.62941
 21
-165.408991
 31
0.0
  0
LINE
  5
1EE
100
AcDbEntity
  8
2
370
    50
100
AcDbLine
 10
-150.12941
 20
-151.322212
 30
0.0
 11
-177.12941
 21
-151.322212
 31
0.0
  0
LINE
  5
1EF
100
AcDbEntity
  8
2
370
    50
100
AcDbLine
 10
-177.12941
 20
-151.322212
 30
0.0
 11
-177.62941
 21
-151.822212
 31
0.0
  0
LINE
  5
1F0
100
AcDbEntity
  8
2
370
    50
100
AcDbLine
 10
-149.62941
 20
-151.822212
 30
0.0
 11
-177.62941
 21
-151.822212
 31
0.0
  0
POINT
  5
1F1
100
AcDbEntity
  8
2
370
    50
100
AcDbPoint
 10
-163.62941
 20
-195.722212
 30
0.0
  0
LINE
  5
1F2
100
AcDbEntity
  8
2
370
    50
100
AcDbLine
 10
-174.262115
 20
-195.722212
 30
0.0
 11
-152.996706
 21
-195.722212
 31
0.0
  0
LINE
  5
1F3
100
AcDbEntity
  8
2
370
    50
100
AcDbLine
 10
-175.62941
 20
-185.422212
 30
0.0
 11
-175.62941
 21
-192.222212
 31
0.0
  0
LINE
  5
1F4
100
AcDbEntity
  8
2
370
    50
100
AcDbLine
 10
-151.62941
 20
-185.422212
 30
0.0
 11
-151.62941
 21
-192.222212
 31
0.0
  0
LINE
  5
1F5
100
AcDbEntity
  8
2
370
    50
100
AcDbLine
 10
-151.62941
 20
-192.222212
 30
0.0
 11
-152.006756
 21
-194.863634
 31
0.0
  0
LINE
  5
1F6
100
AcDbEntity
  8
2
370
    50
100
AcDbLine
 10
-175.62941
 20
-192.222212
 30
0.0
 11
-175.252064
 21
-194.863634
 31
0.0
  0
ARC
  5
1F7
100
AcDbEntity
  8
2
370
    50
100
AcDbCircle
 10
-152.996706
 20
-194.722212
 30
0.0
 40
1.0
100
AcDbArc
 50
270.0
 51
351.869898
  0
ARC
  5
1F8
100
AcDbEntity
  8
2
370
    50
100
AcDbCircle
 10
-174.262115
 20
-194.722212
 30
0.0
 40
1.0
100
AcDbArc
 50
188.130102
 51
270.0
  0
LINE
  5
1F9
100
AcDbEntity
  8
2
370
    25
100
AcDbLine
 10
-175.063126
 20
-192.222212
 30
0.0
 11
-152.460953
 21
-192.222212
 31
0.0
  0
POINT
  5
1FA
100
AcDbEntity
  8
2
370
    50
100
AcDbPoint
 10
-163.62941
 20
-174.322212
 30
0.0
  0
ARC
  5
1FB
100
AcDbEntity
  8
2
370
    50
100
AcDbCircle
 10
-156.682135
 20
-173.322212
 30
0.0
 40
10.6
100
AcDbArc
 50
17.132207
 51
90.0
  0
LINE
  5
1FC
100
AcDbEntity
  8
2
370
    50
100
AcDbLine
 10
-170.576685
 20
-162.722212
 30
0.0
 11
-156.682135
 21
-162.722212
 31
0.0
  0
ARC
  5
1FD
100
AcDbEntity
  8
2
370
    50
100
AcDbCircle
 10
-170.576685
 20
-173.322212
 30
0.0
 40
10.6
100
AcDbArc
 50
90.0
 51
162.867793
  0
ARC
  5
1FE
100
AcDbEntity
  8
2
370
    50
100
AcDbCircle
 10
-163.526866
 20
-174.02465
 30
0.0
 40
17.4
100
AcDbArc
 50
322.393772
 51
12.698773
  0
LINE
  5
1FF
100
AcDbEntity
  8
2
370
    50
100
AcDbLine
 10
-175.932194
 20
-185.422212
 30
0.0
 11
-151.326627
 21
-185.422212
 31
0.0
  0
ARC
  5
200
100
AcDbEntity
  8
2
370
    50
100
AcDbCircle
 10
-163.731955
 20
-174.02465
 30
0.0
 40
17.4
100
AcDbArc
 50
167.301227
 51
217.606228
  0
ARC
  5
201
100
AcDbEntity
  8
2
370
    50
100
AcDbCircle
 10
-151.326627
 20
-183.422212
 30
0.0
 40
2.0
100
AcDbArc
 50
270.0
 51
322.393772
  0
ARC
  5
202
100
AcDbEntity
  8
2
370
    50
100
AcDbCircle
 10
-175.932194
 20
-183.422212
 30
0.0
 40
2.0
100
AcDbArc
 50
217.606228
 51
270.0
  0
POINT
  5
203
100
AcDbEntity
  8
2
370
    50
100
AcDbPoint
 10
222.498075
 20
21.740323
 30
0.0
  0
LINE
  5
204
100
AcDbEntity
  8
2
370
    50
100
AcDbLine
 10
-246.630129
 20
65.341155
 30
0.0
 11
-246.630129
 21
65.841384
 31
0.0
  0
LINE
  5
205
100
AcDbEntity
  8
2
370
    50
100
AcDbLine
 10
-246.630129
 20
109.341614
 30
0.0
 11
-246.630129
 21
108.841384
 31
0.0
  0
LINE
  5
206
100
AcDbEntity
  8
2
370
    50
100
AcDbLine
 10
-246.630129
 20
109.399993
 30
0.0
 11
-246.630129
 21
65.282776
 31
0.0
  0
LINE
  5
207
100
AcDbEntity
  8
2
370
    50
100
AcDbLine
 10
-246.192146
 20
109.896132
 30
0.0
 11
-235.192146
 21
111.271132
 31
0.0
  0
LINE
  5
208
100
AcDbEntity
  8
2
370
    50
100
AcDbLine
 10
-246.192146
 20
64.786637
 30
0.0
 11
-235.192146
 21
63.411637
 31
0.0
  0
ARC
  5
209
100
AcDbEntity
  8
2
370
    50
100
AcDbCircle
 10
-246.130129
 20
109.399993
 30
0.0
 40
0.5
100
AcDbArc
 50
97.125016
 51
180.0
  0
ARC
  5
20A
100
AcDbEntity
  8
2
370
    50
100
AcDbCircle
 10
-246.130129
 20
65.282776
 30
0.0
 40
0.5
100
AcDbArc
 50
180.0
 51
262.874984
  0
ARC
  5
20B
100
AcDbEntity
  8
2
370
    50
100
AcDbCircle
 10
-235.130129
 20
63.907776
 30
0.0
 40
0.5
100
AcDbArc
 50
262.874984
 51
0.0
  0
ARC
  5
20C
100
AcDbEntity
  8
2
370
    50
100
AcDbCircle
 10
-235.130129
 20
110.774993
 30
0.0
 40
0.5
100
AcDbArc
 50
360.0
 51
97.125016
  0
LINE
  5
20D
100
AcDbEntity
  8
2
370
    50
100
AcDbLine
 10
-237.130129
 20
74.841384
 30
0.0
 11
-244.130129
 21
74.841384
 31
0.0
  0
ARC
  5
20E
100
AcDbEntity
  8
2
370
    50
100
AcDbCircle
 10
-244.130129
 20
75.341384
 30
0.0
 40
0.5
100
AcDbArc
 50
180.0
 51
270.0
  0
ARC
  5
20F
100
AcDbEntity
  8
2
370
    50
100
AcDbCircle
 10
-237.130129
 20
75.341384
 30
0.0
 40
0.5
100
AcDbArc
 50
270.0
 51
360.0
  0
ARC
  5
210
100
AcDbEntity
  8
2
370
    50
100
AcDbCircle
 10
-244.130129
 20
75.341384
 30
0.0
 40
0.5
100
AcDbArc
 50
90.0
 51
180.0
  0
LINE
  5
211
100
AcDbEntity
  8
2
370
    50
100
AcDbLine
 10
-237.130129
 20
75.841384
 30
0.0
 11
-244.130129
 21
75.841384
 31
0.0
  0
ARC
  5
212
100
AcDbEntity
  8
2
370
    50
100
AcDbCircle
 10
-237.130129
 20
75.341384
 30
0.0
 40
0.5
100
AcDbArc
 50
0.0
 51
90.0
  0
LINE
  5
213
100
AcDbEntity
  8
2
370
    50
100
AcDbLine
 10
-237.130129
 20
80.341384
 30
0.0
 11
-244.130129
 21
80.341384
 31
0.0
  0
LINE
  5
214
100
AcDbEntity
  8
2
370
    50
100
AcDbLine
 10
-244.130129
 20
80.341384
 30
0.0
 11
-240.630129
 21
86.403562
 31
0.0
  0
LINE
  5
215
100
AcDbEntity
  8
2
370
    50
100
AcDbLine
 10
-237.130129
 20
80.341384
 30
0.0
 11
-240.630129
 21
86.403562
 31
0.0
  0
LINE
  5
216
100
AcDbEntity
  8
2
370
    50
100
AcDbLine
 10
-237.130129
 20
70.341384
 30
0.0
 11
-244.130129
 21
70.341384
 31
0.0
  0
LINE
  5
217
100
AcDbEntity
  8
2
370
    50
100
AcDbLine
 10
-244.130129
 20
70.341384
 30
0.0
 11
-240.630129
 21
64.279207
 31
0.0
  0
LINE
  5
218
100
AcDbEntity
  8
2
370
    50
100
AcDbLine
 10
-237.130129
 20
70.341384
 30
0.0
 11
-240.630129
 21
64.279207
 31
0.0
  0
LINE
  5
219
100
AcDbEntity
  8
2
370
    50
100
AcDbLine
 10
-243.630129
 20
87.903562
 30
0.0
 11
-243.630129
 21
93.903562
 31
0.0
  0
LINE
  5
21A
100
AcDbEntity
  8
2
370
    50
100
AcDbLine
 10
-242.630129
 20
91.403562
 30
0.0
 11
-238.630129
 21
91.403562
 31
0.0
  0
LINE
  5
21B
100
AcDbEntity
  8
2
370
    50
100
AcDbLine
 10
-242.630129
 20
91.403562
 30
0.0
 11
-242.630129
 21
93.903562
 31
0.0
  0
ARC
  5
21C
100
AcDbEntity
  8
2
370
    50
100
AcDbCircle
 10
-243.130129
 20
93.903562
 30
0.0
 40
0.5
100
AcDbArc
 50
0.0
 51
180.0
  0
LINE
  5
21D
100
AcDbEntity
  8
2
370
    50
100
AcDbLine
 10
-238.630129
 20
91.403562
 30
0.0
 11
-238.630129
 21
93.903562
 31
0.0
  0
ARC
  5
21E
100
AcDbEntity
  8
2
370
    50
100
AcDbCircle
 10
-238.130129
 20
93.903562
 30
0.0
 40
0.5
100
AcDbArc
 50
360.0
 51
180.0
  0
LINE
  5
21F
100
AcDbEntity
  8
2
370
    50
100
AcDbLine
 10
-237.630129
 20
87.903562
 30
0.0
 11
-237.630129
 21
93.903562
 31
0.0
  0
ARC
  5
220
100
AcDbEntity
  8
2
370
    50
100
AcDbCircle
 10
-243.130129
 20
87.903562
 30
0.0
 40
0.5
100
AcDbArc
 50
180.0
 51
360.0
  0
LINE
  5
221
100
AcDbEntity
  8
2
370
    50
100
AcDbLine
 10
-242.630129
 20
90.403562
 30
0.0
 11
-242.630129
 21
87.903562
 31
0.0
  0
LINE
  5
222
100
AcDbEntity
  8
2
370
    50
100
AcDbLine
 10
-242.630129
 20
90.403562
 30
0.0
 11
-238.630129
 21
90.403562
 31
0.0
  0
LINE
  5
223
100
AcDbEntity
  8
2
370
    50
100
AcDbLine
 10
-238.630129
 20
90.403562
 30
0.0
 11
-238.630129
 21
87.903562
 31
0.0
  0
ARC
  5
224
100
AcDbEntity
  8
2
370
    50
100
AcDbCircle
 10
-238.130129
 20
87.903562
 30
0.0
 40
0.5
100
AcDbArc
 50
180.0
 51
0.0
  0
HATCH
  5
225
100
AcDbEntity
  8
2
370
    25
100
AcDbHatch
 10
0.0
 20
0.0
 30
0.0
210
0.0
220
0.0
230
1.0
  2
_U
 70
     0
 71
     1
 91
        1
 92
        1
 93
       12
 72
     1
 10
-238.63012900000001
 20
91.403561999999994
 11
-242.63012900000001
 21
91.403561999999994
 72
     1
 10
-242.63012900000001
 20
91.403561999999994
 11
-242.63012900000001
 21
93.903561999999994
 72
     2
 10
-243.13012900000001
 20
93.903561999999994
 40
0.5
 50
0.0
 51
180.0
 73
     1
 72
     1
 10
-243.63012900000001
 20
93.903561999999994
 11
-243.63012900000001
 21
87.903561999999994
 72
     2
 10
-243.13012900000001
 20
87.903561999999994
 40
0.5
 50
180.0
 51
0.0
 73
     1
 72
     1
 10
-242.63012900000001
 20
87.903561999999994
 11
-242.63012900000001
 21
90.403561999999994
 72
     1
 10
-242.63012900000001
 20
90.403561999999994
 11
-238.63012900000001
 21
90.403561999999994
 72
     1
 10
-238.63012900000001
 20
90.403561999999994
 11
-238.63012900000001
 21
87.903561999999994
 72
     2
 10
-238.13012900000001
 20
87.903561999999994
 40
0.5
 50
180.0
 51
0.0
 73
     1
 72
     1
 10
-237.63012900000001
 20
87.903561999999994
 11
-237.63012900000001
 21
93.903561999999994
 72
     2
 10
-238.13012900000001
 20
93.903561999999994
 40
0.5
 50
0.0
 51
180.0
 73
     1
 72
     1
 10
-238.63012900000001
 20
93.903561999999994
 11
-238.63012900000001
 21
91.403561999999994
 97
       12
330
0
330
0
330
0
330
0
330
0
330
0
330
0
330
0
330
0
330
0
330
0
330
0
 75
     0
 76
     0
 52
45.0
 41
1.0
 77
     0
 78
     1
 53
45.0
 43
0.0
 44
0.0
 45
-0.141421
 46
0.141421
 79
     0
 98
        1
 10
0.0
 20
0.0
  0
HATCH
  5
226
100
AcDbEntity
  8
2
370
    25
100
AcDbHatch
 10
0.0
 20
0.0
 30
0.0
210
0.0
220
0.0
230
1.0
  2
_U
 70
     0
 71
     1
 91
        1
 92
        1
 93
        3
 72
     1
 10
-240.63012900000001
 20
86.403561999999994
 11
-237.13012900000001
 21
80.341384000000005
 72
     1
 10
-237.13012900000001
 20
80.341384000000005
 11
-244.13012900000001
 21
80.341384000000005
 72
     1
 10
-244.13012900000001
 20
80.341384000000005
 11
-240.63012900000001
 21
86.403561999999994
 97
        3
330
0
330
0
330
0
 75
     0
 76
     0
 52
45.0
 41
1.0
 77
     0
 78
     1
 53
45.0
 43
0.0
 44
0.0
 45
-0.141421
 46
0.141421
 79
     0
 98
        1
 10
0.0
 20
0.0
  0
LINE
  5
227
100
AcDbEntity
  8
2
370
    25
100
AcDbLine
 10
-241.630129
 20
74.841384
 30
0.0
 11
-240.630129
 21
75.841384
 31
0.0
  0
LINE
  5
228
100
AcDbEntity
  8
2
370
    25
100
AcDbLine
 10
-241.347286
 20
74.841384
 30
0.0
 11
-240.347286
 21
75.841384
 31
0.0
  0
LINE
  5
229
100
AcDbEntity
  8
2
370
    25
100
AcDbLine
 10
-241.064443
 20
74.841384
 30
0.0
 11
-240.064443
 21
75.841384
 31
0.0
  0
LINE
  5
22A
100
AcDbEntity
  8
2
370
    25
100
AcDbLine
 10
-240.781601
 20
74.841384
 30
0.0
 11
-239.781601
 21
75.841384
 31
0.0
  0
LINE
  5
22B
100
AcDbEntity
  8
2
370
    25
100
AcDbLine
 10
-240.498758
 20
74.841384
 30
0.0
 11
-239.498758
 21
75.841384
 31
0.0
  0
LINE
  5
22C
100
AcDbEntity
  8
2
370
    25
100
AcDbLine
 10
-240.215915
 20
74.841384
 30
0.0
 11
-239.215915
 21
75.841384
 31
0.0
  0
LINE
  5
22D
100
AcDbEntity
  8
2
370
    25
100
AcDbLine
 10
-239.933073
 20
74.841384
 30
0.0
 11
-238.933073
 21
75.841384
 31
0.0
  0
LINE
  5
22E
100
AcDbEntity
  8
2
370
    25
100
AcDbLine
 10
-239.65023
 20
74.841384
 30
0.0
 11
-238.65023
 21
75.841384
 31
0.0
  0
LINE
  5
22F
100
AcDbEntity
  8
2
370
    25
100
AcDbLine
 10
-239.367387
 20
74.841384
 30
0.0
 11
-238.367387
 21
75.841384
 31
0.0
  0
LINE
  5
230
100
AcDbEntity
  8
2
370
    25
100
AcDbLine
 10
-239.084544
 20
74.841384
 30
0.0
 11
-238.084544
 21
75.841384
 31
0.0
  0
LINE
  5
231
100
AcDbEntity
  8
2
370
    25
100
AcDbLine
 10
-238.801702
 20
74.841384
 30
0.0
 11
-237.801702
 21
75.841384
 31
0.0
  0
LINE
  5
232
100
AcDbEntity
  8
2
370
    25
100
AcDbLine
 10
-238.518859
 20
74.841384
 30
0.0
 11
-237.518859
 21
75.841384
 31
0.0
  0
LINE
  5
233
100
AcDbEntity
  8
2
370
    25
100
AcDbLine
 10
-238.236016
 20
74.841384
 30
0.0
 11
-237.236016
 21
75.841384
 31
0.0
  0
LINE
  5
234
100
AcDbEntity
  8
2
370
    25
100
AcDbLine
 10
-237.953174
 20
74.841384
 30
0.0
 11
-236.977151
 21
75.817407
 31
0.0
  0
LINE
  5
235
100
AcDbEntity
  8
2
370
    25
100
AcDbLine
 10
-237.670331
 20
74.841384
 30
0.0
 11
-236.797248
 21
75.714467
 31
0.0
  0
LINE
  5
236
100
AcDbEntity
  8
2
370
    25
100
AcDbLine
 10
-237.387488
 20
74.841384
 30
0.0
 11
-236.676722
 21
75.55215
 31
0.0
  0
LINE
  5
237
100
AcDbEntity
  8
2
370
    25
100
AcDbLine
 10
-237.10396
 20
74.84207
 30
0.0
 11
-236.630814
 21
75.315216
 31
0.0
  0
LINE
  5
238
100
AcDbEntity
  8
2
370
    25
100
AcDbLine
 10
-241.912972
 20
74.841384
 30
0.0
 11
-240.912972
 21
75.841384
 31
0.0
  0
LINE
  5
239
100
AcDbEntity
  8
2
370
    25
100
AcDbLine
 10
-242.195814
 20
74.841384
 30
0.0
 11
-241.195814
 21
75.841384
 31
0.0
  0
LINE
  5
23A
100
AcDbEntity
  8
2
370
    25
100
AcDbLine
 10
-242.478657
 20
74.841384
 30
0.0
 11
-241.478657
 21
75.841384
 31
0.0
  0
LINE
  5
23B
100
AcDbEntity
  8
2
370
    25
100
AcDbLine
 10
-242.7615
 20
74.841384
 30
0.0
 11
-241.7615
 21
75.841384
 31
0.0
  0
LINE
  5
23C
100
AcDbEntity
  8
2
370
    25
100
AcDbLine
 10
-243.044342
 20
74.841384
 30
0.0
 11
-242.044342
 21
75.841384
 31
0.0
  0
LINE
  5
23D
100
AcDbEntity
  8
2
370
    25
100
AcDbLine
 10
-243.327185
 20
74.841384
 30
0.0
 11
-242.327185
 21
75.841384
 31
0.0
  0
LINE
  5
23E
100
AcDbEntity
  8
2
370
    25
100
AcDbLine
 10
-243.610028
 20
74.841384
 30
0.0
 11
-242.610028
 21
75.841384
 31
0.0
  0
LINE
  5
23F
100
AcDbEntity
  8
2
370
    25
100
AcDbLine
 10
-243.892871
 20
74.841384
 30
0.0
 11
-242.892871
 21
75.841384
 31
0.0
  0
LINE
  5
240
100
AcDbEntity
  8
2
370
    25
100
AcDbLine
 10
-244.173802
 20
74.843295
 30
0.0
 11
-243.175713
 21
75.841384
 31
0.0
  0
LINE
  5
241
100
AcDbEntity
  8
2
370
    25
100
AcDbLine
 10
-244.38733
 20
74.91261
 30
0.0
 11
-243.458556
 21
75.841384
 31
0.0
  0
LINE
  5
242
100
AcDbEntity
  8
2
370
    25
100
AcDbLine
 10
-244.534912
 20
75.047871
 30
0.0
 11
-243.741399
 21
75.841384
 31
0.0
  0
LINE
  5
243
100
AcDbEntity
  8
2
370
    25
100
AcDbLine
 10
-244.62073
 20
75.244895
 30
0.0
 11
-244.024241
 21
75.841384
 31
0.0
  0
LINE
  5
244
100
AcDbEntity
  8
2
370
    25
100
AcDbLine
 10
-244.570748
 20
75.577721
 30
0.0
 11
-244.366465
 21
75.782004
 31
0.0
  0
HATCH
  5
245
100
AcDbEntity
  8
2
370
    25
100
AcDbHatch
 10
0.0
 20
0.0
 30
0.0
210
0.0
220
0.0
230
1.0
  2
_U
 70
     0
 71
     1
 91
        1
 92
        1
 93
        3
 72
     1
 10
-244.13012900000001
 20
70.341384000000005
 11
-237.13012900000001
 21
70.341384000000005
 72
     1
 10
-237.13012900000001
 20
70.341384000000005
 11
-240.63012900000001
 21
64.279207
 72
     1
 10
-240.63012900000001
 20
64.279207
 11
-244.13012900000001
 21
70.341384000000005
 97
        3
330
0
330
0
330
0
 75
     0
 76
     0
 52
45.0
 41
1.0
 77
     0
 78
     1
 53
45.0
 43
0.0
 44
0.0
 45
-0.141421
 46
0.141421
 79
     0
 98
        1
 10
0.0
 20
0.0
  0
LINE
  5
246
100
AcDbEntity
  8
2
370
    50
100
AcDbLine
 10
-251.130129
 20
73.289209
 30
0.0
 11
-252.130129
 21
73.289209
 31
0.0
  0
LINE
  5
247
100
AcDbEntity
  8
2
370
    50
100
AcDbLine
 10
-251.130129
 20
109.341384
 30
0.0
 11
-251.130129
 21
73.289209
 31
0.0
  0
LINE
  5
248
100
AcDbEntity
  8
2
370
    50
100
AcDbLine
 10
-252.130129
 20
109.341384
 30
0.0
 11
-252.130129
 21
73.289209
 31
0.0
  0
HATCH
  5
249
100
AcDbEntity
  8
2
370
    25
100
AcDbHatch
 10
0.0
 20
0.0
 30
0.0
210
0.0
220
0.0
230
1.0
  2
_U
 70
     0
 71
     1
 91
        1
 92
        1
 93
        4
 72
     1
 10
-251.13012900000001
 20
109.34138400000001
 11
-251.13012900000001
 21
73.289209
 72
     1
 10
-251.13012900000001
 20
73.289209
 11
-252.13012900000001
 21
73.289209
 72
     1
 10
-252.13012900000001
 20
73.289209
 11
-252.13012900000001
 21
109.34138400000001
 72
     1
 10
-252.13012900000001
 20
109.34138400000001
 11
-251.13012900000001
 21
109.34138400000001
 97
        4
330
0
330
0
330
0
330
0
 75
     0
 76
     0
 52
45.0
 41
1.0
 77
     0
 78
     1
 53
45.0
 43
0.0
 44
0.0
 45
-0.141421
 46
0.141421
 79
     0
 98
        1
 10
0.0
 20
0.0
  0
LINE
  5
24A
100
AcDbEntity
  8
2
370
    50
100
AcDbLine
 10
-247.630129
 20
65.841384
 30
0.0
 11
-247.630129
 21
87.341384
 31
0.0
  0
LINE
  5
24B
100
AcDbEntity
  8
2
370
    50
100
AcDbLine
 10
-285.648132
 20
109.341384
 30
0.0
 11
-248.130129
 21
109.341384
 31
0.0
  0
LINE
  5
24C
100
AcDbEntity
  8
2
370
    50
100
AcDbLine
 10
-290.130129
 20
76.341018
 30
0.0
 11
-290.130129
 21
98.341751
 31
0.0
  0
LINE
  5
24D
100
AcDbEntity
  8
2
370
    50
100
AcDbLine
 10
-247.630129
 20
67.641384
 30
0.0
 11
-247.630129
 21
87.341384
 31
0.0
  0
LINE
  5
24E
100
AcDbEntity
  8
2
370
    50
100
AcDbLine
 10
-247.630129
 20
108.841384
 30
0.0
 11
-247.630129
 21
87.341384
 31
0.0
  0
LINE
  5
24F
100
AcDbEntity
  8
2
370
    50
100
AcDbLine
 10
-247.630129
 20
107.041384
 30
0.0
 11
-247.630129
 21
87.341384
 31
0.0
  0
LINE
  5
250
100
AcDbEntity
  8
2
370
    50
100
AcDbLine
 10
-290.130129
 20
76.341018
 30
0.0
 11
-287.579984
 21
66.823746
 31
0.0
  0
LINE
  5
251
100
AcDbEntity
  8
2
370
    50
100
AcDbLine
 10
-290.130129
 20
98.341751
 30
0.0
 11
-287.579984
 21
107.859023
 31
0.0
  0
ARC
  5
252
100
AcDbEntity
  8
2
370
    50
100
AcDbCircle
 10
-285.648132
 20
67.341384
 30
0.0
 40
2.0
100
AcDbArc
 50
195.0
 51
235.596505
  0
ARC
  5
253
100
AcDbEntity
  8
2
370
    50
100
AcDbCircle
 10
-285.648132
 20
107.341384
 30
0.0
 40
2.0
100
AcDbArc
 50
90.0
 51
165.0
  0
ARC
  5
254
100
AcDbEntity
  8
2
370
    50
100
AcDbCircle
 10
-248.130129
 20
65.841384
 30
0.0
 40
0.5
100
AcDbArc
 50
270.0
 51
360.0
  0
ARC
  5
255
100
AcDbEntity
  8
2
370
    50
100
AcDbCircle
 10
-248.130129
 20
108.841384
 30
0.0
 40
0.5
100
AcDbArc
 50
360.0
 51
90.0
  0
LINE
  5
256
100
AcDbEntity
  8
2
370
    50
100
AcDbLine
 10
-247.630129
 20
68.541384
 30
0.0
 11
-246.630129
 21
68.541384
 31
0.0
  0
LINE
  5
257
100
AcDbEntity
  8
2
370
    50
100
AcDbLine
 10
-247.630129
 20
106.141384
 30
0.0
 11
-246.630129
 21
106.141384
 31
0.0
  0
ELLIPSE
  5
258
100
AcDbEntity
  8
2
370
    50
100
AcDbEllipse
 10
-260.630129
 20
67.542778
 30
0.0
 11
3.5
 21
0.0
 31
0.0
210
0.0
220
0.0
230
1.0
 40
0.763714
 41
0.0
 42
6.2831849999999996
  0
LINE
  5
259
100
AcDbEntity
  8
2
370
    50
100
AcDbLine
 10
-257.130129
 20
67.542778
 30
0.0
 11
-257.130129
 21
71.785419
 31
0.0
  0
LINE
  5
25A
100
AcDbEntity
  8
2
370
    50
100
AcDbLine
 10
-264.130129
 20
67.542778
 30
0.0
 11
-264.130129
 21
71.785419
 31
0.0
  0
ELLIPSE
  5
25B
100
AcDbEntity
  8
2
370
    50
100
AcDbEllipse
 10
-260.630129
 20
71.785419
 30
0.0
 11
3.5
 21
0.0
 31
0.0
210
0.0
220
0.0
230
1.0
 40
0.763714
 41
0.0
 42
3.1415929999999999
  0
LINE
  5
25C
100
AcDbEntity
  8
2
370
    50
100
AcDbLine
 10
-270.66015
 20
65.341384
 30
0.0
 11
-262.615397
 21
65.341384
 31
0.0
  0
LINE
  5
25D
100
AcDbEntity
  8
2
370
    50
100
AcDbLine
 10
-258.64486
 20
65.341384
 30
0.0
 11
-248.130129
 21
65.341384
 31
0.0
  0
LINE
  5
25E
100
AcDbEntity
  8
2
370
    50
100
AcDbLine
 10
-283.779992
 20
67.324977
 30
0.0
 11
-274.297417
 21
67.324977
 31
0.0
  0
LINE
  5
25F
100
AcDbEntity
  8
2
370
    50
100
AcDbLine
 10
-284.627524
 20
62.375229
 30
0.0
 11
-272.95918
 21
62.375229
 31
0.0
  0
LINE
  5
260
100
AcDbEntity
  8
2
370
    50
100
AcDbLine
 10
-271.393372
 20
67.324977
 30
0.0
 11
-270.569392
 21
70.658283
 31
0.0
  0
ARC
  5
261
100
AcDbEntity
  8
2
370
    50
100
AcDbCircle
 10
-265.715494
 20
69.458419
 30
0.0
 40
5.0
100
AcDbArc
 50
90.0
 51
166.115067
  0
LINE
  5
262
100
AcDbEntity
  8
2
370
    50
100
AcDbLine
 10
-286.426797
 20
67.324977
 30
0.0
 11
-287.182786
 21
74.459504
 31
0.0
  0
LINE
  5
263
100
AcDbEntity
  8
2
370
    50
100
AcDbLine
 10
-271.017621
 20
63.895284
 30
0.0
 11
-270.569392
 21
65.708535
 31
0.0
  0
ARC
  5
264
100
AcDbEntity
  8
2
370
    50
100
AcDbCircle
 10
-265.715494
 20
64.508672
 30
0.0
 40
5.0
100
AcDbArc
 50
90.0
 51
166.115067
  0
LINE
  5
265
100
AcDbEntity
  8
2
370
    50
100
AcDbLine
 10
-286.61639
 20
64.164485
 30
0.0
 11
-287.182786
 21
69.509757
 31
0.0
  0
ARC
  5
266
100
AcDbEntity
  8
2
370
    50
100
AcDbCircle
 10
-272.95918
 20
64.375229
 30
0.0
 40
2.0
100
AcDbArc
 50
270.0
 51
346.115067
  0
ARC
  5
267
100
AcDbEntity
  8
2
370
    50
100
AcDbCircle
 10
-284.627524
 20
64.375229
 30
0.0
 40
2.0
100
AcDbArc
 50
186.048608
 51
270.0
  0
ARC
  5
268
100
AcDbEntity
  8
2
370
    50
100
AcDbCircle
 10
-284.426797
 20
65.324977
 30
0.0
 40
2.0
100
AcDbArc
 50
116.452129
 51
171.882064
  0
ARC
  5
269
100
AcDbEntity
  8
2
370
    50
100
AcDbCircle
 10
-273.393372
 20
65.324977
 30
0.0
 40
2.0
100
AcDbArc
 50
22.532412
 51
90.0
  0
LINE
  5
26A
100
AcDbEntity
  8
2
370
    50
100
AcDbLine
 10
-287.182786
 20
106.076329
 30
0.0
 11
-287.182786
 21
74.459504
 31
0.0
  0
LINE
  5
26B
100
AcDbEntity
  8
2
370
    50
100
AcDbLine
 10
-287.182786
 20
69.509757
 30
0.0
 11
-287.182786
 21
66.310399
 31
0.0
  0
LINE
  5
26C
100
AcDbEntity
  8
2
370
    25
100
AcDbLine
 10
-265.715494
 20
74.458419
 30
0.0
 11
-286.500679
 21
74.458419
 31
0.0
  0
POINT
  5
26D
100
AcDbEntity
  8
2
370
    50
100
AcDbPoint
 10
-246.630129
 20
87.341384
 30
0.0
  0
LINE
  5
26E
100
AcDbEntity
  8
2
370
    50
100
AcDbLine
 10
-252.944719
 20
70.789209
 30
0.0
 11
-252.430129
 21
70.789209
 31
0.0
  0
LINE
  5
26F
100
AcDbEntity
  8
2
370
    50
100
AcDbLine
 10
-252.830129
 20
65.789209
 30
0.0
 11
-252.430129
 21
65.789209
 31
0.0
  0
LWPOLYLINE
  5
270
100
AcDbEntity
  8
2
370
    50
100
AcDbPolyline
 90
      114
 70
     0
 10
-250.130129
 20
70.789209
 10
-250.197482
 20
70.786451
 10
-250.264568
 20
70.778383
 10
-250.331117
 20
70.765309
 10
-250.524871
 20
70.69912
 10
-250.586597
 20
70.669088
 10
-250.646447
 20
70.635582
 10
-250.704154
 20
70.598908
 10
-250.770529
 20
70.550932
 10
-250.833533
 20
70.499132
 10
-250.893292
 20
70.443836
 10
-251.054364
 20
70.260244
 10
-251.102409
 20
70.194238
 10
-251.147842
 20
70.126372
 10
-251.190789
 20
70.056976
 10
-251.227404
 20
69.993466
 10
-251.262151
 20
69.929035
 10
-251.295071
 20
69.863737
 10
-251.383281
 20
69.663179
 10
-251.456535
 20
69.456755
 10
-251.477822
 20
69.386895
 10
-251.497613
 20
69.316597
 10
-251.515948
 20
69.245918
 10
-251.534521
 20
69.167597
 10
-251.551392
 20
69.088911
 10
-251.566577
 20
69.00989
 10
-251.602184
 20
68.771163
 10
-251.623218
 20
68.530636
 10
-251.627068
 20
68.450216
 10
-251.629366
 20
68.369729
 10
-251.630129
 20
68.289209
 10
-251.629366
 20
68.208689
 10
-251.627068
 20
68.128202
 10
-251.623218
 20
68.047782
 10
-251.602184
 20
67.807255
 10
-251.566577
 20
67.568528
 10
-251.551392
 20
67.489507
 10
-251.534521
 20
67.410821
 10
-251.515948
 20
67.3325
 10
-251.497613
 20
67.261821
 10
-251.477822
 20
67.191524
 10
-251.456535
 20
67.121663
 10
-251.383281
 20
66.915239
 10
-251.295071
 20
66.714681
 10
-251.262151
 20
66.649383
 10
-251.227404
 20
66.584952
 10
-251.190789
 20
66.521442
 10
-251.147842
 20
66.452046
 10
-251.102409
 20
66.38418
 10
-251.054364
 20
66.318174
 10
-250.893292
 20
66.134582
 10
-250.833533
 20
66.079286
 10
-250.770529
 20
66.027486
 10
-250.704154
 20
65.97951
 10
-250.646447
 20
65.942836
 10
-250.586597
 20
65.90933
 10
-250.524871
 20
65.879298
 10
-250.331117
 20
65.813109
 10
-250.264568
 20
65.800035
 10
-250.197482
 20
65.791967
 10
-250.130129
 20
65.789209
 10
-250.062775
 20
65.791967
 10
-249.99569
 20
65.800035
 10
-249.929141
 20
65.813109
 10
-249.735387
 20
65.879298
 10
-249.673661
 20
65.90933
 10
-249.61381
 20
65.942836
 10
-249.556104
 20
65.97951
 10
-249.489728
 20
66.027486
 10
-249.426725
 20
66.079286
 10
-249.366966
 20
66.134582
 10
-249.205894
 20
66.318174
 10
-249.157849
 20
66.38418
 10
-249.112416
 20
66.452046
 10
-249.069469
 20
66.521442
 10
-249.021066
 20
66.60633
 10
-248.97596
 20
66.692822
 10
-248.934053
 20
66.780792
 10
-248.826548
 20
67.052293
 10
-248.796458
 20
67.144898
 10
-248.769078
 20
67.238343
 10
-248.74431
 20
67.3325
 10
-248.719924
 20
67.43701
 10
-248.698556
 20
67.542153
 10
-248.680165
 20
67.647848
 10
-248.64246
 20
67.967462
 10
-248.635583
 20
68.074579
 10
-248.631486
 20
68.181855
 10
-248.630129
 20
68.289209
 10
-248.631486
 20
68.396563
 10
-248.635583
 20
68.503839
 10
-248.64246
 20
68.610956
 10
-248.680165
 20
68.93057
 10
-248.698556
 20
69.036265
 10
-248.719924
 20
69.141408
 10
-248.74431
 20
69.245918
 10
-248.769078
 20
69.340075
 10
-248.796458
 20
69.43352
 10
-248.826548
 20
69.526125
 10
-248.934053
 20
69.797626
 10
-248.97596
 20
69.885596
 10
-249.021066
 20
69.972088
 10
-249.069469
 20
70.056976
 10
-249.134814
 20
70.160517
 10
-249.205894
 20
70.260244
 10
-249.283135
 20
70.355052
 10
-249.366966
 20
70.443836
 10
-249.457813
 20
70.525489
 10
-249.556104
 20
70.598908
 10
-249.661532
 20
70.662655
 10
-249.773212
 20
70.715344
 10
-249.88958
 20
70.75519
 10
-250.009073
 20
70.780407
 10
-250.130129
 20
70.789209
  0
LWPOLYLINE
  5
2E4
100
AcDbEntity
  8
2
370
    50
100
AcDbPolyline
 90
      114
 70
     0
 10
-250.130129
 20
69.789209
 10
-250.164731
 20
69.784908
 10
-250.198869
 20
69.772907
 10
-250.232076
 20
69.754564
 10
-250.263889
 20
69.731232
 10
-250.293842
 20
69.704269
 10
-250.321471
 20
69.675028
 10
-250.34848
 20
69.641964
 10
-250.372508
 20
69.607907
 10
-250.393868
 20
69.572956
 10
-250.445102
 20
69.463698
 10
-250.458948
 20
69.426134
 10
-250.471703
 20
69.388159
 10
-250.483682
 20
69.349869
 10
-250.495474
 20
69.310227
 10
-250.506776
 20
69.27037
 10
-250.517583
 20
69.230313
 10
-250.547007
 20
69.109086
 10
-250.571866
 20
68.986592
 10
-250.579122
 20
68.945549
 10
-250.585857
 20
68.904425
 10
-250.592069
 20
68.863234
 10
-250.597337
 20
68.825163
 10
-250.602167
 20
68.787051
 10
-250.60657
 20
68.748901
 10
-250.617326
 20
68.634254
 10
-250.624639
 20
68.51937
 10
-250.628806
 20
68.404329
 10
-250.629548
 20
68.36596
 10
-250.629986
 20
68.327586
 10
-250.630129
 20
68.289209
 10
-250.629986
 20
68.250832
 10
-250.629548
 20
68.212458
 10
-250.628806
 20
68.174089
 10
-250.624639
 20
68.059048
 10
-250.617326
 20
67.944164
 10
-250.60657
 20
67.829517
 10
-250.602167
 20
67.791367
 10
-250.597337
 20
67.753255
 10
-250.592069
 20
67.715184
 10
-250.585857
 20
67.673993
 10
-250.579122
 20
67.632869
 10
-250.571866
 20
67.591826
 10
-250.547007
 20
67.469332
 10
-250.517583
 20
67.348105
 10
-250.506776
 20
67.308048
 10
-250.495474
 20
67.268191
 10
-250.483682
 20
67.228549
 10
-250.471703
 20
67.190259
 10
-250.458948
 20
67.152284
 10
-250.445102
 20
67.11472
 10
-250.393868
 20
67.005462
 10
-250.372508
 20
66.970511
 10
-250.34848
 20
66.936454
 10
-250.321471
 20
66.90339
 10
-250.293842
 20
66.874149
 10
-250.263889
 20
66.847186
 10
-250.232076
 20
66.823854
 10
-250.198869
 20
66.805511
 10
-250.164731
 20
66.79351
 10
-250.130129
 20
66.789209
 10
-250.095527
 20
66.79351
 10
-250.061389
 20
66.805511
 10
-250.028182
 20
66.823854
 10
-249.996369
 20
66.847186
 10
-249.966416
 20
66.874149
 10
-249.938787
 20
66.90339
 10
-249.911778
 20
66.936454
 10
-249.88775
 20
66.970511
 10
-249.866389
 20
67.005462
 10
-249.815156
 20
67.11472
 10
-249.80131
 20
67.152284
 10
-249.788555
 20
67.190259
 10
-249.776575
 20
67.228549
 10
-249.760962
 20
67.281453
 10
-249.746222
 20
67.334732
 10
-249.732365
 20
67.388349
 10
-249.696165
 20
67.550878
 10
-249.685916
 20
67.605497
 10
-249.676588
 20
67.660277
 10
-249.668189
 20
67.715184
 10
-249.661673
 20
67.762779
 10
-249.655837
 20
67.810437
 10
-249.65066
 20
67.858152
 10
-249.638863
 20
68.001582
 10
-249.632215
 20
68.145318
 10
-249.631042
 20
68.193272
 10
-249.630353
 20
68.241238
 10
-249.630129
 20
68.289209
 10
-249.630353
 20
68.33718
 10
-249.631042
 20
68.385146
 10
-249.632215
 20
68.4331
 10
-249.638863
 20
68.576836
 10
-249.65066
 20
68.720266
 10
-249.655837
 20
68.767981
 10
-249.661673
 20
68.815639
 10
-249.668189
 20
68.863234
 10
-249.676588
 20
68.918141
 10
-249.685916
 20
68.972921
 10
-249.696165
 20
69.02754
 10
-249.732365
 20
69.190069
 10
-249.746222
 20
69.243687
 10
-249.760962
 20
69.296965
 10
-249.776575
 20
69.349869
 10
-249.794816
 20
69.407192
 10
-249.815156
 20
69.463698
 10
-249.838659
 20
69.519062
 10
-249.866389
 20
69.572956
 10
-249.899411
 20
69.625053
 10
-249.938787
 20
69.675028
 10
-249.981131
 20
69.71812
 10
-250.028182
 20
69.754564
 10
-250.078371
 20
69.779785
 10
-250.130129
 20
69.789209
  0
LINE
  5
358
100
AcDbEntity
  8
2
370
    50
100
AcDbLine
 10
-252.130129
 20
70.489209
 30
0.0
 11
-252.130129
 21
67.789209
 31
0.0
  0
LINE
  5
359
100
AcDbEntity
  8
2
370
    50
100
AcDbLine
 10
-253.130129
 20
69.671175
 30
0.0
 11
-253.130129
 21
67.889209
 31
0.0
  0
LINE
  5
35A
100
AcDbEntity
  8
2
370
    50
100
AcDbLine
 10
-252.130129
 20
66.789209
 30
0.0
 11
-251.930129
 21
66.789209
 31
0.0
  0
LINE
  5
35B
100
AcDbEntity
  8
2
370
    50
100
AcDbLine
 10
-253.909308
 20
67.789209
 30
0.0
 11
-253.230129
 21
67.789209
 31
0.0
  0
LINE
  5
35C
100
AcDbEntity
  8
2
370
    50
100
AcDbLine
 10
-253.213047
 20
70.623373
 30
0.0
 11
-254.598457
 21
67.852553
 31
0.0
  0
LINE
  5
35D
100
AcDbEntity
  8
2
370
    50
100
AcDbLine
 10
-253.130129
 20
69.671175
 30
0.0
 11
-253.998751
 21
67.93393
 31
0.0
  0
ARC
  5
35E
100
AcDbEntity
  8
2
370
    50
100
AcDbCircle
 10
-253.909308
 20
67.889209
 30
0.0
 40
0.1
100
AcDbArc
 50
153.434949
 51
270.0
  0
ARC
  5
35F
100
AcDbEntity
  8
2
370
    50
100
AcDbCircle
 10
-253.230129
 20
67.889209
 30
0.0
 40
0.1
100
AcDbArc
 50
270.0
 51
360.0
  0
LINE
  5
360
100
AcDbEntity
  8
2
370
    50
100
AcDbLine
 10
-252.130129
 20
67.789209
 30
0.0
 11
-251.930129
 21
67.789209
 31
0.0
  0
LINE
  5
361
100
AcDbEntity
  8
2
370
    50
100
AcDbLine
 10
-252.130129
 20
66.089209
 30
0.0
 11
-252.130129
 21
66.789209
 31
0.0
  0
LINE
  5
362
100
AcDbEntity
  8
2
370
    50
100
AcDbLine
 10
-253.130129
 20
66.089209
 30
0.0
 11
-253.130129
 21
66.789209
 31
0.0
  0
LINE
  5
363
100
AcDbEntity
  8
2
370
    50
100
AcDbLine
 10
-254.330129
 20
66.789209
 30
0.0
 11
-253.130129
 21
66.789209
 31
0.0
  0
LINE
  5
364
100
AcDbEntity
  8
2
370
    50
100
AcDbLine
 10
-251.630129
 20
67.489209
 30
0.0
 11
-251.630129
 21
67.089209
 31
0.0
  0
ARC
  5
365
100
AcDbEntity
  8
2
370
    50
100
AcDbCircle
 10
-252.944719
 20
70.489209
 30
0.0
 40
0.3
100
AcDbArc
 50
90.0
 51
153.434949
  0
ARC
  5
366
100
AcDbEntity
  8
2
370
    50
100
AcDbCircle
 10
-252.430129
 20
70.489209
 30
0.0
 40
0.3
100
AcDbArc
 50
0.0
 51
90.0
  0
ARC
  5
367
100
AcDbEntity
  8
2
370
    50
100
AcDbCircle
 10
-254.330129
 20
67.089209
 30
0.0
 40
0.3
100
AcDbArc
 50
180.0
 51
270.0
  0
ARC
  5
368
100
AcDbEntity
  8
2
370
    50
100
AcDbCircle
 10
-251.930129
 20
67.489209
 30
0.0
 40
0.3
100
AcDbArc
 50
0.0
 51
90.0
  0
ARC
  5
369
100
AcDbEntity
  8
2
370
    50
100
AcDbCircle
 10
-251.930129
 20
67.089209
 30
0.0
 40
0.3
100
AcDbArc
 50
270.0
 51
360.0
  0
ARC
  5
36A
100
AcDbEntity
  8
2
370
    50
100
AcDbCircle
 10
-252.830129
 20
66.089209
 30
0.0
 40
0.3
100
AcDbArc
 50
180.0
 51
270.0
  0
ARC
  5
36B
100
AcDbEntity
  8
2
370
    50
100
AcDbCircle
 10
-252.430129
 20
66.089209
 30
0.0
 40
0.3
100
AcDbArc
 50
270.0
 51
360.0
  0
LINE
  5
36C
100
AcDbEntity
  8
2
370
    25
100
AcDbLine
 10
-254.45356
 20
66.815778
 30
0.0
 11
-253.480129
 21
67.789209
 31
0.0
  0
LINE
  5
36D
100
AcDbEntity
  8
2
370
    25
100
AcDbLine
 10
-253.130129
 20
68.139209
 30
0.0
 11
-252.130129
 21
69.139209
 31
0.0
  0
LINE
  5
36E
100
AcDbEntity
  8
2
370
    25
100
AcDbLine
 10
-254.197286
 20
66.789209
 30
0.0
 11
-253.18796
 21
67.798535
 31
0.0
  0
LINE
  5
36F
100
AcDbEntity
  8
2
370
    25
100
AcDbLine
 10
-253.139455
 20
67.847041
 30
0.0
 11
-252.130129
 21
68.856366
 31
0.0
  0
LINE
  5
370
100
AcDbEntity
  8
2
370
    25
100
AcDbLine
 10
-253.914443
 20
66.789209
 30
0.0
 11
-252.130129
 21
68.573524
 31
0.0
  0
LINE
  5
371
100
AcDbEntity
  8
2
370
    25
100
AcDbLine
 10
-253.631601
 20
66.789209
 30
0.0
 11
-252.130129
 21
68.290681
 31
0.0
  0
LINE
  5
372
100
AcDbEntity
  8
2
370
    25
100
AcDbLine
 10
-253.348758
 20
66.789209
 30
0.0
 11
-252.130129
 21
68.007838
 31
0.0
  0
LINE
  5
373
100
AcDbEntity
  8
2
370
    25
100
AcDbLine
 10
-253.130129
 20
66.724995
 30
0.0
 11
-252.065915
 21
67.789209
 31
0.0
  0
LINE
  5
374
100
AcDbEntity
  8
2
370
    25
100
AcDbLine
 10
-253.130129
 20
66.442153
 30
0.0
 11
-251.808732
 21
67.76355
 31
0.0
  0
LINE
  5
375
100
AcDbEntity
  8
2
370
    25
100
AcDbLine
 10
-253.130129
 20
66.15931
 30
0.0
 11
-251.663235
 21
67.626204
 31
0.0
  0
LINE
  5
376
100
AcDbEntity
  8
2
370
    25
100
AcDbLine
 10
-253.081355
 20
65.925241
 30
0.0
 11
-251.630129
 21
67.376467
 31
0.0
  0
LINE
  5
377
100
AcDbEntity
  8
2
370
    25
100
AcDbLine
 10
-252.920583
 20
65.80317
 30
0.0
 11
-252.130129
 21
66.593625
 31
0.0
  0
LINE
  5
378
100
AcDbEntity
  8
2
370
    25
100
AcDbLine
 10
-251.934544
 20
66.789209
 30
0.0
 11
-251.630129
 21
67.093625
 31
0.0
  0
LINE
  5
379
100
AcDbEntity
  8
2
370
    25
100
AcDbLine
 10
-252.651702
 20
65.789209
 30
0.0
 11
-252.130129
 21
66.310782
 31
0.0
  0
LINE
  5
37A
100
AcDbEntity
  8
2
370
    25
100
AcDbLine
 10
-252.360719
 20
65.797349
 30
0.0
 11
-252.138269
 21
66.019799
 31
0.0
  0
LINE
  5
37B
100
AcDbEntity
  8
2
370
    25
100
AcDbLine
 10
-254.598015
 20
66.954165
 30
0.0
 11
-253.762972
 21
67.789209
 31
0.0
  0
LINE
  5
37C
100
AcDbEntity
  8
2
370
    25
100
AcDbLine
 10
-253.130129
 20
68.422052
 30
0.0
 11
-252.130129
 21
69.422052
 31
0.0
  0
LINE
  5
37D
100
AcDbEntity
  8
2
370
    25
100
AcDbLine
 10
-254.630129
 20
67.204894
 30
0.0
 11
-253.995876
 21
67.839148
 31
0.0
  0
LINE
  5
37E
100
AcDbEntity
  8
2
370
    25
100
AcDbLine
 10
-253.130129
 20
68.704894
 30
0.0
 11
-252.130129
 21
69.704894
 31
0.0
  0
LINE
  5
37F
100
AcDbEntity
  8
2
370
    25
100
AcDbLine
 10
-254.630129
 20
67.487737
 30
0.0
 11
-253.813567
 21
68.304299
 31
0.0
  0
LINE
  5
380
100
AcDbEntity
  8
2
370
    25
100
AcDbLine
 10
-253.130129
 20
68.987737
 30
0.0
 11
-252.130129
 21
69.987737
 31
0.0
  0
LINE
  5
381
100
AcDbEntity
  8
2
370
    25
100
AcDbLine
 10
-254.624505
 20
67.776204
 30
0.0
 11
-253.530724
 21
68.869985
 31
0.0
  0
LINE
  5
382
100
AcDbEntity
  8
2
370
    25
100
AcDbLine
 10
-253.130129
 20
69.27058
 30
0.0
 11
-252.130129
 21
70.27058
 31
0.0
  0
LINE
  5
383
100
AcDbEntity
  8
2
370
    25
100
AcDbLine
 10
-252.13588
 20
70.547671
 30
0.0
 11
-253.130129
 21
69.553423
 31
0.0
  0
LINE
  5
384
100
AcDbEntity
  8
2
370
    25
100
AcDbLine
 10
-253.247881
 20
69.43567
 30
0.0
 11
-254.365915
 21
68.317636
 31
0.0
  0
LINE
  5
385
100
AcDbEntity
  8
2
370
    25
100
AcDbLine
 10
-252.242834
 20
70.72356
 30
0.0
 11
-254.083073
 21
68.883322
 31
0.0
  0
LINE
  5
386
100
AcDbEntity
  8
2
370
    25
100
AcDbLine
 10
-252.460028
 20
70.789209
 30
0.0
 11
-253.80023
 21
69.449007
 31
0.0
  0
LINE
  5
387
100
AcDbEntity
  8
2
370
    25
100
AcDbLine
 10
-252.742871
 20
70.789209
 30
0.0
 11
-253.517387
 21
70.014692
 31
0.0
  0
LINE
  5
388
100
AcDbEntity
  8
2
370
    25
100
AcDbLine
 10
-253.041884
 20
70.773038
 30
0.0
 11
-253.234544
 21
70.580378
 31
0.0
  0
HATCH
  5
389
100
AcDbEntity
  8
2
370
    25
100
AcDbHatch
 10
0.0
 20
0.0
 30
0.0
210
0.0
220
0.0
230
1.0
  2
_U
 70
     0
 71
     1
 91
        2
 92
        1
 93
        8
 72
     1
 10
-250.13012900000001
 20
70.789209
 11
-251.190789
 21
70.056976000000006
 72
     1
 10
-251.190789
 20
70.056976000000006
 11
-251.63012900000001
 21
68.289209
 72
     1
 10
-251.63012900000001
 20
68.289209
 11
-251.190789
 21
66.521441999999993
 72
     1
 10
-251.190789
 20
66.521441999999993
 11
-250.13012900000001
 21
65.789209
 72
     1
 10
-250.13012900000001
 20
65.789209
 11
-249.069469
 21
66.521441999999993
 72
     1
 10
-249.069469
 20
66.521441999999993
 11
-248.63012900000001
 21
68.289209
 72
     1
 10
-248.63012900000001
 20
68.289209
 11
-249.069469
 21
70.056976000000006
 72
     1
 10
-249.069469
 20
70.056976000000006
 11
-250.13012900000001
 21
70.789209
 97
        8
330
0
330
0
330
0
330
0
330
0
330
0
330
0
330
0
 92
        0
 93
        9
 72
     1
 10
-250.13012900000001
 20
69.789209
 11
-250.48368199999999
 21
69.349868999999998
 72
     1
 10
-250.48368199999999
 20
69.349868999999998
 11
-250.63012900000001
 21
68.289209
 72
     1
 10
-250.63012900000001
 20
68.289209
 11
-250.59206900000001
 21
67.715183999999994
 72
     1
 10
-250.59206900000001
 20
67.715183999999994
 11
-250.321471
 21
66.903390000000002
 72
     1
 10
-250.321471
 20
66.903390000000002
 11
-249.77657500000001
 21
67.228549000000001
 72
     1
 10
-249.77657500000001
 20
67.228549000000001
 11
-249.63012900000001
 21
68.289209
 72
     1
 10
-249.63012900000001
 20
68.289209
 11
-249.66818900000001
 21
68.863234000000006
 72
     1
 10
-249.66818900000001
 20
68.863234000000006
 11
-249.93878699999999
 21
69.675027999999998
 72
     1
 10
-249.93878699999999
 20
69.675027999999998
 11
-250.13012900000001
 21
69.789209
 97
        9
330
0
330
0
330
0
330
0
330
0
330
0
330
0
330
0
330
0
 75
     0
 76
     0
 52
45.0
 41
1.0
 77
     0
 78
     1
 53
45.0
 43
0.0
 44
0.0
 45
-0.141421
 46
0.141421
 79
     0
 98
        1
 10
0.0
 20
0.0
  0
LINE
  5
38A
100
AcDbEntity
  8
2
370
    50
100
AcDbLine
 10
-254.630129
 20
67.718389
 30
0.0
 11
-254.630129
 21
67.089209
 31
0.0
  0
ARC
  5
38B
100
AcDbEntity
  8
2
370
    50
100
AcDbCircle
 10
-254.330129
 20
67.718389
 30
0.0
 40
0.3
100
AcDbArc
 50
153.434949
 51
180.0
  0
LINE
  5
38C
100
AcDbEntity
  8
2
370
    50
100
AcDbLine
 10
-80.930129
 20
109.341614
 30
0.0
 11
-80.930129
 21
108.841384
 31
0.0
  0
LINE
  5
38D
100
AcDbEntity
  8
2
370
    50
100
AcDbLine
 10
-80.930129
 20
65.341155
 30
0.0
 11
-80.930129
 21
65.841384
 31
0.0
  0
LINE
  5
38E
100
AcDbEntity
  8
2
370
    50
100
AcDbLine
 10
-80.930129
 20
65.282776
 30
0.0
 11
-80.930129
 21
109.399993
 31
0.0
  0
LINE
  5
38F
100
AcDbEntity
  8
2
370
    50
100
AcDbLine
 10
-81.368111
 20
64.786637
 30
0.0
 11
-92.368111
 21
63.411637
 31
0.0
  0
LINE
  5
390
100
AcDbEntity
  8
2
370
    50
100
AcDbLine
 10
-81.368111
 20
109.896132
 30
0.0
 11
-92.368111
 21
111.271132
 31
0.0
  0
ARC
  5
391
100
AcDbEntity
  8
2
370
    50
100
AcDbCircle
 10
-81.430129
 20
65.282776
 30
0.0
 40
0.5
100
AcDbArc
 50
277.125016
 51
0.0
  0
ARC
  5
392
100
AcDbEntity
  8
2
370
    50
100
AcDbCircle
 10
-81.430129
 20
109.399993
 30
0.0
 40
0.5
100
AcDbArc
 50
0.0
 51
82.874984
  0
ARC
  5
393
100
AcDbEntity
  8
2
370
    50
100
AcDbCircle
 10
-92.430129
 20
110.774993
 30
0.0
 40
0.5
100
AcDbArc
 50
82.874984
 51
180.0
  0
ARC
  5
394
100
AcDbEntity
  8
2
370
    50
100
AcDbCircle
 10
-92.430129
 20
63.907776
 30
0.0
 40
0.5
100
AcDbArc
 50
180.0
 51
277.125016
  0
LINE
  5
395
100
AcDbEntity
  8
2
370
    50
100
AcDbLine
 10
-90.430129
 20
70.341384
 30
0.0
 11
-83.430129
 21
70.341384
 31
0.0
  0
LINE
  5
396
100
AcDbEntity
  8
2
370
    50
100
AcDbLine
 10
-83.430129
 20
70.341384
 30
0.0
 11
-86.930129
 21
64.279207
 31
0.0
  0
LINE
  5
397
100
AcDbEntity
  8
2
370
    50
100
AcDbLine
 10
-90.430129
 20
70.341384
 30
0.0
 11
-86.930129
 21
64.279207
 31
0.0
  0
LINE
  5
398
100
AcDbEntity
  8
2
370
    50
100
AcDbLine
 10
-90.430129
 20
80.341384
 30
0.0
 11
-83.430129
 21
80.341384
 31
0.0
  0
LINE
  5
399
100
AcDbEntity
  8
2
370
    50
100
AcDbLine
 10
-83.430129
 20
80.341384
 30
0.0
 11
-86.930129
 21
86.403562
 31
0.0
  0
LINE
  5
39A
100
AcDbEntity
  8
2
370
    50
100
AcDbLine
 10
-90.430129
 20
80.341384
 30
0.0
 11
-86.930129
 21
86.403562
 31
0.0
  0
LINE
  5
39B
100
AcDbEntity
  8
2
370
    50
100
AcDbLine
 10
-89.930129
 20
72.341384
 30
0.0
 11
-83.930129
 21
72.341384
 31
0.0
  0
ARC
  5
39C
100
AcDbEntity
  8
2
370
    50
100
AcDbCircle
 10
-83.930129
 20
72.841384
 30
0.0
 40
0.5
100
AcDbArc
 50
270.0
 51
90.0
  0
LINE
  5
39D
100
AcDbEntity
  8
2
370
    50
100
AcDbLine
 10
-87.430129
 20
77.841384
 30
0.0
 11
-87.430129
 21
73.341384
 31
0.0
  0
ARC
  5
39E
100
AcDbEntity
  8
2
370
    50
100
AcDbCircle
 10
-86.930129
 20
77.841384
 30
0.0
 40
0.5
100
AcDbArc
 50
0.0
 51
180.0
  0
LINE
  5
39F
100
AcDbEntity
  8
2
370
    50
100
AcDbLine
 10
-86.430129
 20
73.341384
 30
0.0
 11
-83.930129
 21
73.341384
 31
0.0
  0
LINE
  5
3A0
100
AcDbEntity
  8
2
370
    50
100
AcDbLine
 10
-88.430129
 20
76.341384
 30
0.0
 11
-88.430129
 21
73.341384
 31
0.0
  0
ARC
  5
3A1
100
AcDbEntity
  8
2
370
    50
100
AcDbCircle
 10
-88.930129
 20
76.341384
 30
0.0
 40
0.5
100
AcDbArc
 50
0.0
 51
180.0
  0
LINE
  5
3A2
100
AcDbEntity
  8
2
370
    50
100
AcDbLine
 10
-88.430129
 20
73.341384
 30
0.0
 11
-87.430129
 21
73.341384
 31
0.0
  0
LINE
  5
3A3
100
AcDbEntity
  8
2
370
    50
100
AcDbLine
 10
-86.430129
 20
75.341384
 30
0.0
 11
-84.930129
 21
75.341384
 31
0.0
  0
LINE
  5
3A4
100
AcDbEntity
  8
2
370
    50
100
AcDbLine
 10
-86.430129
 20
76.341384
 30
0.0
 11
-84.930129
 21
76.341384
 31
0.0
  0
ARC
  5
3A5
100
AcDbEntity
  8
2
370
    50
100
AcDbCircle
 10
-84.930129
 20
75.841384
 30
0.0
 40
0.5
100
AcDbArc
 50
270.0
 51
90.0
  0
LINE
  5
3A6
100
AcDbEntity
  8
2
370
    50
100
AcDbLine
 10
-86.430129
 20
77.841384
 30
0.0
 11
-86.430129
 21
76.341384
 31
0.0
  0
LINE
  5
3A7
100
AcDbEntity
  8
2
370
    50
100
AcDbLine
 10
-86.430129
 20
75.341384
 30
0.0
 11
-86.430129
 21
73.341384
 31
0.0
  0
LINE
  5
3A8
100
AcDbEntity
  8
2
370
    50
100
AcDbLine
 10
-84.930129
 20
85.841384
 30
0.0
 11
-82.930129
 21
86.841384
 31
0.0
  0
ARC
  5
3A9
100
AcDbEntity
  8
2
370
    50
100
AcDbCircle
 10
-180.600815
 20
56.736061
 30
0.0
 40
100.0
100
AcDbArc
 50
16.921022
 51
21.833919
  0
ARC
  5
3AA
100
AcDbEntity
  8
2
370
    50
100
AcDbCircle
 10
-86.613901
 20
94.392701
 30
0.0
 40
1.25
100
AcDbArc
 50
22.305938
 51
201.833919
  0
ARC
  5
3AB
100
AcDbEntity
  8
2
370
    50
100
AcDbCircle
 10
-122.135476
 20
78.907862
 30
0.0
 40
40.0
100
AcDbArc
 50
11.43979
 51
23.553721
  0
LINE
  5
3AC
100
AcDbEntity
  8
2
370
    50
100
AcDbLine
 10
-88.211637
 20
92.296615
 30
0.0
 11
-88.39242
 21
92.762788
 31
0.0
  0
LINE
  5
3AD
100
AcDbEntity
  8
2
370
    50
100
AcDbLine
 10
-88.444723
 20
92.206223
 30
0.0
 11
-88.625506
 21
92.672396
 31
0.0
  0
LINE
  5
3AE
100
AcDbEntity
  8
2
370
    50
100
AcDbLine
 10
-88.910896
 20
92.025439
 30
0.0
 11
-89.091679
 21
92.491612
 31
0.0
  0
LINE
  5
3AF
100
AcDbEntity
  8
2
370
    50
100
AcDbLine
 10
-89.143983
 20
91.935047
 30
0.0
 11
-89.324766
 21
92.401221
 31
0.0
  0
LINE
  5
3B0
100
AcDbEntity
  8
2
370
    50
100
AcDbLine
 10
-89.610156
 20
91.754263
 30
0.0
 11
-89.790938
 21
92.220437
 31
0.0
  0
LINE
  5
3B1
100
AcDbEntity
  8
2
370
    50
100
AcDbLine
 10
-89.843242
 20
91.663871
 30
0.0
 11
-90.024025
 21
92.130045
 31
0.0
  0
LINE
  5
3B2
100
AcDbEntity
  8
2
370
    50
100
AcDbLine
 10
-87.745464
 20
92.477399
 30
0.0
 11
-88.211637
 21
92.296615
 31
0.0
  0
LINE
  5
3B3
100
AcDbEntity
  8
2
370
    50
100
AcDbLine
 10
-88.444723
 20
92.206223
 30
0.0
 11
-88.910896
 21
92.025439
 31
0.0
  0
LINE
  5
3B4
100
AcDbEntity
  8
2
370
    50
100
AcDbLine
 10
-89.143983
 20
91.935047
 30
0.0
 11
-89.610156
 21
91.754263
 31
0.0
  0
LINE
  5
3B5
100
AcDbEntity
  8
2
370
    50
100
AcDbLine
 10
-89.843242
 20
91.663871
 30
0.0
 11
-90.076328
 21
91.57348
 31
0.0
  0
LINE
  5
3B6
100
AcDbEntity
  8
2
370
    50
100
AcDbLine
 10
-90.024025
 20
92.130045
 30
0.0
 11
-90.257112
 21
92.039653
 31
0.0
  0
LINE
  5
3B7
100
AcDbEntity
  8
2
370
    50
100
AcDbLine
 10
-89.324766
 20
92.401221
 30
0.0
 11
-89.790938
 21
92.220437
 31
0.0
  0
LINE
  5
3B8
100
AcDbEntity
  8
2
370
    50
100
AcDbLine
 10
-87.926247
 20
92.943572
 30
0.0
 11
-88.39242
 21
92.762788
 31
0.0
  0
LINE
  5
3B9
100
AcDbEntity
  8
2
370
    50
100
AcDbLine
 10
-88.625506
 20
92.672396
 30
0.0
 11
-89.091679
 21
92.491612
 31
0.0
  0
ARC
  5
3BA
100
AcDbEntity
  8
2
370
    50
100
AcDbCircle
 10
-90.16672
 20
91.806566
 30
0.0
 40
0.25
100
AcDbArc
 50
111.196505
 51
291.196505
  0
LINE
  5
3BB
100
AcDbEntity
  8
2
370
    50
100
AcDbLine
 10
-87.52209
 20
91.901399
 30
0.0
 11
-87.647725
 21
91.74516
 31
0.0
  0
LINE
  5
3BC
100
AcDbEntity
  8
2
370
    50
100
AcDbLine
 10
-87.73084
 20
92.43969
 30
0.0
 11
-88.037374
 21
92.058486
 31
0.0
  0
LINE
  5
3BD
100
AcDbEntity
  8
2
370
    50
100
AcDbLine
 10
-87.647725
 20
91.74516
 30
0.0
 11
-88.037374
 21
92.058486
 31
0.0
  0
LINE
  5
3BE
100
AcDbEntity
  8
2
370
    50
100
AcDbLine
 10
-87.804388
 20
91.550335
 30
0.0
 11
-88.194037
 21
91.863661
 31
0.0
  0
LINE
  5
3BF
100
AcDbEntity
  8
2
370
    50
100
AcDbLine
 10
-87.804388
 20
91.550335
 30
0.0
 11
-88.117713
 21
91.160685
 31
0.0
  0
LINE
  5
3C0
100
AcDbEntity
  8
2
370
    50
100
AcDbLine
 10
-88.194037
 20
91.863661
 30
0.0
 11
-88.507363
 21
91.474011
 31
0.0
  0
LINE
  5
3C1
100
AcDbEntity
  8
2
370
    50
100
AcDbLine
 10
-88.117713
 20
91.160685
 30
0.0
 11
-88.507363
 21
91.474011
 31
0.0
  0
LINE
  5
3C2
100
AcDbEntity
  8
2
370
    50
100
AcDbLine
 10
-88.274376
 20
90.96586
 30
0.0
 11
-88.587702
 21
90.57621
 31
0.0
  0
LINE
  5
3C3
100
AcDbEntity
  8
2
370
    50
100
AcDbLine
 10
-88.274376
 20
90.96586
 30
0.0
 11
-88.664025
 21
91.279187
 31
0.0
  0
LINE
  5
3C4
100
AcDbEntity
  8
2
370
    50
100
AcDbLine
 10
-88.664025
 20
91.279187
 30
0.0
 11
-88.977351
 21
90.889537
 31
0.0
  0
LINE
  5
3C5
100
AcDbEntity
  8
2
370
    50
100
AcDbLine
 10
-88.587702
 20
90.57621
 30
0.0
 11
-88.977351
 21
90.889537
 31
0.0
  0
ARC
  5
3C6
100
AcDbEntity
  8
2
370
    50
100
AcDbCircle
 10
-89.095852
 20
90.343224
 30
0.0
 40
0.25
100
AcDbArc
 50
141.196505
 51
321.196505
  0
LINE
  5
3C7
100
AcDbEntity
  8
2
370
    50
100
AcDbLine
 10
-88.744365
 20
90.381385
 30
0.0
 11
-88.901027
 21
90.186561
 31
0.0
  0
LINE
  5
3C8
100
AcDbEntity
  8
2
370
    50
100
AcDbLine
 10
-88.744365
 20
90.381385
 30
0.0
 11
-89.134014
 21
90.694712
 31
0.0
  0
LINE
  5
3C9
100
AcDbEntity
  8
2
370
    50
100
AcDbLine
 10
-89.134014
 20
90.694712
 30
0.0
 11
-89.290677
 21
90.499886
 31
0.0
  0
LINE
  5
3CA
100
AcDbEntity
  8
2
370
    50
100
AcDbLine
 10
-87.94087
 20
92.98128
 30
0.0
 11
-88.424271
 21
93.056145
 31
0.0
  0
LINE
  5
3CB
100
AcDbEntity
  8
2
370
    50
100
AcDbLine
 10
-88.14962
 20
93.51957
 30
0.0
 11
-88.347747
 21
93.550254
 31
0.0
  0
LINE
  5
3CC
100
AcDbEntity
  8
2
370
    50
100
AcDbLine
 10
-88.424271
 20
93.056145
 30
0.0
 11
-88.347747
 21
93.550254
 31
0.0
  0
LINE
  5
3CD
100
AcDbEntity
  8
2
370
    50
100
AcDbLine
 10
-88.671326
 20
93.094407
 30
0.0
 11
-88.594802
 21
93.588516
 31
0.0
  0
LINE
  5
3CE
100
AcDbEntity
  8
2
370
    50
100
AcDbLine
 10
-88.671326
 20
93.094407
 30
0.0
 11
-89.165436
 21
93.17093
 31
0.0
  0
LINE
  5
3CF
100
AcDbEntity
  8
2
370
    50
100
AcDbLine
 10
-89.165436
 20
93.17093
 30
0.0
 11
-89.088912
 21
93.665039
 31
0.0
  0
LINE
  5
3D0
100
AcDbEntity
  8
2
370
    50
100
AcDbLine
 10
-89.41249
 20
93.209191
 30
0.0
 11
-89.335966
 21
93.703301
 31
0.0
  0
LINE
  5
3D1
100
AcDbEntity
  8
2
370
    50
100
AcDbLine
 10
-89.9066
 20
93.285714
 30
0.0
 11
-89.830076
 21
93.779824
 31
0.0
  0
LINE
  5
3D2
100
AcDbEntity
  8
2
370
    50
100
AcDbLine
 10
-90.153655
 20
93.323976
 30
0.0
 11
-90.077131
 21
93.818085
 31
0.0
  0
LINE
  5
3D3
100
AcDbEntity
  8
2
370
    50
100
AcDbLine
 10
-89.41249
 20
93.209191
 30
0.0
 11
-89.9066
 21
93.285714
 31
0.0
  0
LINE
  5
3D4
100
AcDbEntity
  8
2
370
    50
100
AcDbLine
 10
-90.153655
 20
93.323976
 30
0.0
 11
-90.400709
 21
93.362237
 31
0.0
  0
LINE
  5
3D5
100
AcDbEntity
  8
2
370
    50
100
AcDbLine
 10
-90.077131
 20
93.818085
 30
0.0
 11
-90.324186
 21
93.856347
 31
0.0
  0
LINE
  5
3D6
100
AcDbEntity
  8
2
370
    50
100
AcDbLine
 10
-89.335966
 20
93.703301
 30
0.0
 11
-89.830076
 21
93.779824
 31
0.0
  0
LINE
  5
3D7
100
AcDbEntity
  8
2
370
    50
100
AcDbLine
 10
-88.594802
 20
93.588516
 30
0.0
 11
-89.088912
 21
93.665039
 31
0.0
  0
ARC
  5
3D8
100
AcDbEntity
  8
2
370
    50
100
AcDbCircle
 10
-90.362447
 20
93.609292
 30
0.0
 40
0.25
100
AcDbArc
 50
81.196505
 51
261.196505
  0
LINE
  5
3D9
100
AcDbEntity
  8
2
370
    50
100
AcDbLine
 10
-87.52209
 20
91.901399
 30
0.0
 11
-87.73084
 21
92.43969
 31
0.0
  0
LINE
  5
3DA
100
AcDbEntity
  8
2
370
    50
100
AcDbLine
 10
-87.745464
 20
92.477399
 30
0.0
 11
-87.926247
 21
92.943572
 31
0.0
  0
LINE
  5
3DB
100
AcDbEntity
  8
2
370
    50
100
AcDbLine
 10
-87.94087
 20
92.98128
 30
0.0
 11
-88.14962
 21
93.51957
 31
0.0
  0
HATCH
  5
3DC
100
AcDbEntity
  8
2
370
    25
100
AcDbHatch
 10
0.0
 20
0.0
 30
0.0
210
0.0
220
0.0
230
1.0
  2
_U
 70
     0
 71
     1
 91
        7
 92
        1
 93
        4
 72
     1
 10
-88.664024999999995
 20
91.279186999999993
 11
-88.977350999999999
 21
90.889537000000004
 72
     1
 10
-88.977350999999999
 20
90.889537000000004
 11
-88.587701999999993
 21
90.576210000000003
 72
     1
 10
-88.587701999999993
 20
90.576210000000003
 11
-88.274376000000004
 21
90.965860000000006
 72
     1
 10
-88.274376000000004
 20
90.965860000000006
 11
-88.664024999999995
 21
91.279186999999993
 97
        4
330
0
330
0
330
0
330
0
 92
        0
 93
        4
 72
     1
 10
-88.194036999999994
 20
91.863660999999993
 11
-88.507362999999998
 21
91.474011000000004
 72
     1
 10
-88.507362999999998
 20
91.474011000000004
 11
-88.117712999999995
 21
91.160685000000001
 72
     1
 10
-88.117712999999995
 20
91.160685000000001
 11
-87.804388000000003
 21
91.550335000000004
 72
     1
 10
-87.804388000000003
 20
91.550335000000004
 11
-88.194036999999994
 21
91.863660999999993
 97
        4
330
0
330
0
330
0
330
0
 92
        0
 93
       12
 72
     1
 10
-88.037374
 20
92.058486000000002
 11
-87.730840000000001
 21
92.439689999999999
 72
     1
 10
-87.730840000000001
 20
92.439689999999999
 11
-88.211636999999996
 21
92.296615000000003
 72
     1
 10
-88.211636999999996
 20
92.296615000000003
 11
-88.392420000000001
 21
92.762788
 72
     1
 10
-88.392420000000001
 20
92.762788
 11
-87.926247000000004
 21
92.943572000000003
 72
     1
 10
-87.926247000000004
 20
92.943572000000003
 11
-88.424271000000005
 21
93.056145000000001
 72
     1
 10
-88.424271000000005
 20
93.056145000000001
 11
-88.347746999999998
 21
93.550253999999995
 72
     1
 10
-88.347746999999998
 20
93.550253999999995
 11
-88.149619999999999
 21
93.519570000000002
 72
     1
 10
-88.149619999999999
 20
93.519570000000002
 11
-87.940870000000004
 21
92.981279999999998
 72
     1
 10
-87.940870000000004
 20
92.981279999999998
 11
-87.745463999999998
 21
92.477399000000005
 72
     1
 10
-87.745463999999998
 20
92.477399000000005
 11
-87.522090000000006
 21
91.901398999999998
 72
     1
 10
-87.522090000000006
 20
91.901398999999998
 11
-87.647724999999994
 21
91.745159999999998
 72
     1
 10
-87.647724999999994
 20
91.745159999999998
 11
-88.037374
 21
92.058486000000002
 97
       12
330
0
330
0
330
0
330
0
330
0
330
0
330
0
330
0
330
0
330
0
330
0
330
0
 92
        0
 93
        4
 72
     1
 10
-88.444722999999996
 20
92.206222999999994
 11
-88.910895999999994
 21
92.025439000000006
 72
     1
 10
-88.910895999999994
 20
92.025439000000006
 11
-89.091678999999999
 21
92.491612000000003
 72
     1
 10
-89.091678999999999
 20
92.491612000000003
 11
-88.625506000000001
 21
92.672396000000006
 72
     1
 10
-88.625506000000001
 20
92.672396000000006
 11
-88.444722999999996
 21
92.206222999999994
 97
        4
330
0
330
0
330
0
330
0
 92
        0
 93
        4
 72
     1
 10
-89.143983000000006
 20
91.935046999999997
 11
-89.610156000000003
 21
91.754262999999995
 72
     1
 10
-89.610156000000003
 20
91.754262999999995
 11
-89.790937999999997
 21
92.220437000000004
 72
     1
 10
-89.790937999999997
 20
92.220437000000004
 11
-89.324765999999997
 21
92.401221000000007
 72
     1
 10
-89.324765999999997
 20
92.401221000000007
 11
-89.143983000000006
 21
91.935046999999997
 97
        4
330
0
330
0
330
0
330
0
 92
        0
 93
        4
 72
     1
 10
-89.906599999999997
 20
93.285713999999999
 11
-89.412490000000005
 21
93.209191000000004
 72
     1
 10
-89.412490000000005
 20
93.209191000000004
 11
-89.335965999999999
 21
93.703300999999996
 72
     1
 10
-89.335965999999999
 20
93.703300999999996
 11
-89.830076000000005
 21
93.779824000000005
 72
     1
 10
-89.830076000000005
 20
93.779824000000005
 11
-89.906599999999997
 21
93.285713999999999
 97
        4
330
0
330
0
330
0
330
0
 92
        0
 93
        4
 72
     1
 10
-88.671325999999993
 20
93.094407000000004
 11
-89.165436
 21
93.170929999999998
 72
     1
 10
-89.165436
 20
93.170929999999998
 11
-89.088911999999993
 21
93.665038999999993
 72
     1
 10
-89.088911999999993
 20
93.665038999999993
 11
-88.594802000000001
 21
93.588515999999998
 72
     1
 10
-88.594802000000001
 20
93.588515999999998
 11
-88.671325999999993
 21
93.094407000000004
 97
        4
330
0
330
0
330
0
330
0
 75
     0
 76
     0
 52
45.0
 41
1.0
 77
     0
 78
     1
 53
45.0
 43
0.0
 44
0.0
 45
-0.141421
 46
0.141421
 79
     0
 98
        1
 10
0.0
 20
0.0
  0
LINE
  5
3DD
100
AcDbEntity
  8
2
370
    25
100
AcDbLine
 10
-85.941358
 20
88.978692
 30
0.0
 11
-83.986117
 21
90.933934
 31
0.0
  0
LINE
  5
3DE
100
AcDbEntity
  8
2
370
    25
100
AcDbLine
 10
-85.869691
 20
88.767517
 30
0.0
 11
-83.918833
 21
90.718375
 31
0.0
  0
LINE
  5
3DF
100
AcDbEntity
  8
2
370
    25
100
AcDbLine
 10
-85.798416
 20
88.555949
 30
0.0
 11
-83.852572
 21
90.501794
 31
0.0
  0
LINE
  5
3E0
100
AcDbEntity
  8
2
370
    25
100
AcDbLine
 10
-85.727536
 20
88.343987
 30
0.0
 11
-83.787342
 21
90.284181
 31
0.0
  0
LINE
  5
3E1
100
AcDbEntity
  8
2
370
    25
100
AcDbLine
 10
-85.657051
 20
88.131629
 30
0.0
 11
-83.723153
 21
90.065527
 31
0.0
  0
LINE
  5
3E2
100
AcDbEntity
  8
2
370
    25
100
AcDbLine
 10
-85.586963
 20
87.918875
 30
0.0
 11
-83.660015
 21
89.845822
 31
0.0
  0
LINE
  5
3E3
100
AcDbEntity
  8
2
370
    25
100
AcDbLine
 10
-85.517272
 20
87.705722
 30
0.0
 11
-83.597939
 21
89.625056
 31
0.0
  0
LINE
  5
3E4
100
AcDbEntity
  8
2
370
    25
100
AcDbLine
 10
-85.447981
 20
87.49217
 30
0.0
 11
-83.536933
 21
89.403219
 31
0.0
  0
LINE
  5
3E5
100
AcDbEntity
  8
2
370
    25
100
AcDbLine
 10
-85.379091
 20
87.278218
 30
0.0
 11
-83.477009
 21
89.1803
 31
0.0
  0
LINE
  5
3E6
100
AcDbEntity
  8
2
370
    25
100
AcDbLine
 10
-85.310603
 20
87.063863
 30
0.0
 11
-83.418178
 21
88.956288
 31
0.0
  0
LINE
  5
3E7
100
AcDbEntity
  8
2
370
    25
100
AcDbLine
 10
-85.242519
 20
86.849105
 30
0.0
 11
-83.360451
 21
88.731173
 31
0.0
  0
LINE
  5
3E8
100
AcDbEntity
  8
2
370
    25
100
AcDbLine
 10
-85.17484
 20
86.633941
 30
0.0
 11
-83.303838
 21
88.504942
 31
0.0
  0
LINE
  5
3E9
100
AcDbEntity
  8
2
370
    25
100
AcDbLine
 10
-85.107567
 20
86.418372
 30
0.0
 11
-83.248353
 21
88.277585
 31
0.0
  0
LINE
  5
3EA
100
AcDbEntity
  8
2
370
    25
100
AcDbLine
 10
-85.040702
 20
86.202394
 30
0.0
 11
-83.194007
 21
88.049088
 31
0.0
  0
LINE
  5
3EB
100
AcDbEntity
  8
2
370
    25
100
AcDbLine
 10
-84.974246
 20
85.986007
 30
0.0
 11
-83.140812
 21
87.81944
 31
0.0
  0
LINE
  5
3EC
100
AcDbEntity
  8
2
370
    25
100
AcDbLine
 10
-84.908201
 20
85.769209
 30
0.0
 11
-84.908201
 21
85.769209
 31
0.0
  0
LINE
  5
3ED
100
AcDbEntity
  8
2
370
    25
100
AcDbLine
 10
-84.741922
 20
85.935488
 30
0.0
 11
-83.088782
 21
87.588628
 31
0.0
  0
LINE
  5
3EE
100
AcDbEntity
  8
2
370
    25
100
AcDbLine
 10
-84.842569
 20
85.551999
 30
0.0
 11
-84.842569
 21
85.551999
 31
0.0
  0
LINE
  5
3EF
100
AcDbEntity
  8
2
370
    25
100
AcDbLine
 10
-84.176237
 20
86.21833
 30
0.0
 11
-83.037929
 21
87.356639
 31
0.0
  0
LINE
  5
3F0
100
AcDbEntity
  8
2
370
    25
100
AcDbLine
 10
-83.610552
 20
86.501173
 30
0.0
 11
-82.988267
 21
87.123458
 31
0.0
  0
LINE
  5
3F1
100
AcDbEntity
  8
2
370
    25
100
AcDbLine
 10
-83.044866
 20
86.784016
 30
0.0
 11
-82.939809
 21
86.889073
 31
0.0
  0
LINE
  5
3F2
100
AcDbEntity
  8
2
370
    25
100
AcDbLine
 10
-86.013417
 20
89.189476
 30
0.0
 11
-84.054414
 21
91.14848
 31
0.0
  0
LINE
  5
3F3
100
AcDbEntity
  8
2
370
    25
100
AcDbLine
 10
-86.085866
 20
89.39987
 30
0.0
 11
-84.123715
 21
91.362021
 31
0.0
  0
LINE
  5
3F4
100
AcDbEntity
  8
2
370
    25
100
AcDbLine
 10
-86.158704
 20
89.609875
 30
0.0
 11
-84.194013
 21
91.574566
 31
0.0
  0
LINE
  5
3F5
100
AcDbEntity
  8
2
370
    25
100
AcDbLine
 10
-86.231929
 20
89.819492
 30
0.0
 11
-84.265298
 21
91.786124
 31
0.0
  0
LINE
  5
3F6
100
AcDbEntity
  8
2
370
    25
100
AcDbLine
 10
-86.305541
 20
90.028723
 30
0.0
 11
-84.337562
 21
91.996702
 31
0.0
  0
LINE
  5
3F7
100
AcDbEntity
  8
2
370
    25
100
AcDbLine
 10
-86.379538
 20
90.237569
 30
0.0
 11
-84.410798
 21
92.206309
 31
0.0
  0
LINE
  5
3F8
100
AcDbEntity
  8
2
370
    25
100
AcDbLine
 10
-86.453919
 20
90.446031
 30
0.0
 11
-84.484997
 21
92.414952
 31
0.0
  0
LINE
  5
3F9
100
AcDbEntity
  8
2
370
    25
100
AcDbLine
 10
-86.528683
 20
90.654109
 30
0.0
 11
-84.560153
 21
92.62264
 31
0.0
  0
LINE
  5
3FA
100
AcDbEntity
  8
2
370
    25
100
AcDbLine
 10
-86.603828
 20
90.861807
 30
0.0
 11
-84.636257
 21
92.829378
 31
0.0
  0
LINE
  5
3FB
100
AcDbEntity
  8
2
370
    25
100
AcDbLine
 10
-86.679354
 20
91.069124
 30
0.0
 11
-84.713303
 21
93.035175
 31
0.0
  0
LINE
  5
3FC
100
AcDbEntity
  8
2
370
    25
100
AcDbLine
 10
-86.755259
 20
91.276062
 30
0.0
 11
-84.791283
 21
93.240038
 31
0.0
  0
LINE
  5
3FD
100
AcDbEntity
  8
2
370
    25
100
AcDbLine
 10
-86.831542
 20
91.482621
 30
0.0
 11
-84.87019
 21
93.443973
 31
0.0
  0
LINE
  5
3FE
100
AcDbEntity
  8
2
370
    25
100
AcDbLine
 10
-86.908202
 20
91.688804
 30
0.0
 11
-84.950019
 21
93.646987
 31
0.0
  0
LINE
  5
3FF
100
AcDbEntity
  8
2
370
    25
100
AcDbLine
 10
-86.985237
 20
91.894611
 30
0.0
 11
-85.030762
 21
93.849087
 31
0.0
  0
LINE
  5
400
100
AcDbEntity
  8
2
370
    25
100
AcDbLine
 10
-89.0679
 20
90.094791
 30
0.0
 11
-88.764841
 21
90.397851
 31
0.0
  0
LINE
  5
401
100
AcDbEntity
  8
2
370
    25
100
AcDbLine
 10
-87.062648
 20
92.100044
 30
0.0
 11
-85.112412
 21
94.050279
 31
0.0
  0
LINE
  5
402
100
AcDbEntity
  8
2
370
    25
100
AcDbLine
 10
-89.275829
 20
90.169706
 30
0.0
 11
-88.921616
 21
90.523918
 31
0.0
  0
LINE
  5
403
100
AcDbEntity
  8
2
370
    25
100
AcDbLine
 10
-87.140431
 20
92.305103
 30
0.0
 11
-85.194965
 21
94.250569
 31
0.0
  0
LINE
  5
404
100
AcDbEntity
  8
2
370
    25
100
AcDbLine
 10
-89.342121
 20
90.386256
 30
0.0
 11
-89.078392
 21
90.649985
 31
0.0
  0
LINE
  5
405
100
AcDbEntity
  8
2
370
    25
100
AcDbLine
 10
-87.218588
 20
92.509789
 30
0.0
 11
-85.278413
 21
94.449964
 31
0.0
  0
LINE
  5
406
100
AcDbEntity
  8
2
370
    25
100
AcDbLine
 10
-87.297115
 20
92.714104
 30
0.0
 11
-85.362751
 21
94.648469
 31
0.0
  0
LINE
  5
407
100
AcDbEntity
  8
2
370
    25
100
AcDbLine
 10
-87.376013
 20
92.918049
 30
0.0
 11
-85.447972
 21
94.84609
 31
0.0
  0
LINE
  5
408
100
AcDbEntity
  8
2
370
    25
100
AcDbLine
 10
-85.541679
 20
95.035226
 30
0.0
 11
-87.45528
 21
93.121625
 31
0.0
  0
LINE
  5
409
100
AcDbEntity
  8
2
370
    25
100
AcDbLine
 10
-85.659646
 20
95.200102
 30
0.0
 11
-87.534915
 21
93.324833
 31
0.0
  0
LINE
  5
40A
100
AcDbEntity
  8
2
370
    25
100
AcDbLine
 10
-85.800631
 20
95.34196
 30
0.0
 11
-87.614917
 21
93.527674
 31
0.0
  0
LINE
  5
40B
100
AcDbEntity
  8
2
370
    25
100
AcDbLine
 10
-85.964599
 20
95.460834
 30
0.0
 11
-87.695285
 21
93.730148
 31
0.0
  0
LINE
  5
40C
100
AcDbEntity
  8
2
370
    25
100
AcDbLine
 10
-86.153465
 20
95.554811
 30
0.0
 11
-87.776011
 21
93.932265
 31
0.0
  0
LINE
  5
40D
100
AcDbEntity
  8
2
370
    25
100
AcDbLine
 10
-87.776018
 20
93.932258
 30
0.0
 11
-87.776018
 21
93.932258
 31
0.0
  0
LINE
  5
40E
100
AcDbEntity
  8
2
370
    25
100
AcDbLine
 10
-89.899454
 20
91.808822
 30
0.0
 11
-89.899454
 21
91.808822
 31
0.0
  0
LINE
  5
40F
100
AcDbEntity
  8
2
370
    25
100
AcDbLine
 10
-86.372039
 20
95.619079
 30
0.0
 11
-87.840279
 21
94.150839
 31
0.0
  0
LINE
  5
410
100
AcDbEntity
  8
2
370
    25
100
AcDbLine
 10
-87.857115
 20
94.134004
 30
0.0
 11
-87.857115
 21
94.134004
 31
0.0
  0
LINE
  5
411
100
AcDbEntity
  8
2
370
    25
100
AcDbLine
 10
-89.97849
 20
92.012628
 30
0.0
 11
-89.97849
 21
92.012628
 31
0.0
  0
LINE
  5
412
100
AcDbEntity
  8
2
370
    25
100
AcDbLine
 10
-90.410055
 20
91.863906
 30
0.0
 11
-90.219864
 21
92.054098
 31
0.0
  0
LINE
  5
413
100
AcDbEntity
  8
2
370
    25
100
AcDbLine
 10
-87.863779
 20
94.410182
 30
0.0
 11
-86.631382
 21
95.642579
 31
0.0
  0
LINE
  5
414
100
AcDbEntity
  8
2
370
    25
100
AcDbLine
 10
-87.813818
 20
94.742986
 30
0.0
 11
-86.964186
 21
95.592618
 31
0.0
  0
LINE
  5
415
100
AcDbEntity
  8
2
370
    25
100
AcDbLine
 10
-88.211218
 20
80.341384
 30
0.0
 11
-85.180129
 21
83.372473
 31
0.0
  0
LINE
  5
416
100
AcDbEntity
  8
2
370
    25
100
AcDbLine
 10
-87.928375
 20
80.341384
 30
0.0
 11
-85.076601
 21
83.193158
 31
0.0
  0
LINE
  5
417
100
AcDbEntity
  8
2
370
    25
100
AcDbLine
 10
-87.645532
 20
80.341384
 30
0.0
 11
-84.973074
 21
83.013843
 31
0.0
  0
LINE
  5
418
100
AcDbEntity
  8
2
370
    25
100
AcDbLine
 10
-87.36269
 20
80.341384
 30
0.0
 11
-84.869546
 21
82.834528
 31
0.0
  0
LINE
  5
419
100
AcDbEntity
  8
2
370
    25
100
AcDbLine
 10
-87.079847
 20
80.341384
 30
0.0
 11
-84.766018
 21
82.655213
 31
0.0
  0
LINE
  5
41A
100
AcDbEntity
  8
2
370
    25
100
AcDbLine
 10
-86.797004
 20
80.341384
 30
0.0
 11
-84.662491
 21
82.475898
 31
0.0
  0
LINE
  5
41B
100
AcDbEntity
  8
2
370
    25
100
AcDbLine
 10
-86.514161
 20
80.341384
 30
0.0
 11
-84.558963
 21
82.296583
 31
0.0
  0
LINE
  5
41C
100
AcDbEntity
  8
2
370
    25
100
AcDbLine
 10
-86.231319
 20
80.341384
 30
0.0
 11
-84.455436
 21
82.117268
 31
0.0
  0
LINE
  5
41D
100
AcDbEntity
  8
2
370
    25
100
AcDbLine
 10
-85.948476
 20
80.341384
 30
0.0
 11
-84.351908
 21
81.937953
 31
0.0
  0
LINE
  5
41E
100
AcDbEntity
  8
2
370
    25
100
AcDbLine
 10
-85.665633
 20
80.341384
 30
0.0
 11
-84.24838
 21
81.758637
 31
0.0
  0
LINE
  5
41F
100
AcDbEntity
  8
2
370
    25
100
AcDbLine
 10
-89.430129
 20
76.294046
 30
0.0
 11
-88.884845
 21
76.83933
 31
0.0
  0
LINE
  5
420
100
AcDbEntity
  8
2
370
    25
100
AcDbLine
 10
-85.382791
 20
80.341384
 30
0.0
 11
-84.144853
 21
81.579322
 31
0.0
  0
LINE
  5
421
100
AcDbEntity
  8
2
370
    25
100
AcDbLine
 10
-89.430129
 20
76.011203
 30
0.0
 11
-88.671832
 21
76.7695
 31
0.0
  0
LINE
  5
422
100
AcDbEntity
  8
2
370
    25
100
AcDbLine
 10
-87.378333
 20
78.063
 30
0.0
 11
-87.151744
 21
78.289588
 31
0.0
  0
LINE
  5
423
100
AcDbEntity
  8
2
370
    25
100
AcDbLine
 10
-85.099948
 20
80.341384
 30
0.0
 11
-84.041325
 21
81.400007
 31
0.0
  0
LINE
  5
424
100
AcDbEntity
  8
2
370
    25
100
AcDbLine
 10
-89.430129
 20
75.728361
 30
0.0
 11
-88.524609
 21
76.63388
 31
0.0
  0
LINE
  5
425
100
AcDbEntity
  8
2
370
    25
100
AcDbLine
 10
-87.430129
 20
77.728361
 30
0.0
 11
-86.827708
 21
78.330782
 31
0.0
  0
LINE
  5
426
100
AcDbEntity
  8
2
370
    25
100
AcDbLine
 10
-84.817105
 20
80.341384
 30
0.0
 11
-83.937797
 21
81.220692
 31
0.0
  0
LINE
  5
427
100
AcDbEntity
  8
2
370
    25
100
AcDbLine
 10
-89.430129
 20
75.445518
 30
0.0
 11
-88.439241
 21
76.436406
 31
0.0
  0
LINE
  5
428
100
AcDbEntity
  8
2
370
    25
100
AcDbLine
 10
-87.430129
 20
77.445518
 30
0.0
 11
-86.632497
 21
78.24315
 31
0.0
  0
LINE
  5
429
100
AcDbEntity
  8
2
370
    25
100
AcDbLine
 10
-84.534263
 20
80.341384
 30
0.0
 11
-83.83427
 21
81.041377
 31
0.0
  0
LINE
  5
42A
100
AcDbEntity
  8
2
370
    25
100
AcDbLine
 10
-89.430129
 20
75.162675
 30
0.0
 11
-88.430129
 21
76.162675
 31
0.0
  0
LINE
  5
42B
100
AcDbEntity
  8
2
370
    25
100
AcDbLine
 10
-87.430129
 20
77.162675
 30
0.0
 11
-86.498699
 21
78.094106
 31
0.0
  0
LINE
  5
42C
100
AcDbEntity
  8
2
370
    25
100
AcDbLine
 10
-84.25142
 20
80.341384
 30
0.0
 11
-83.730742
 21
80.862062
 31
0.0
  0
LINE
  5
42D
100
AcDbEntity
  8
2
370
    25
100
AcDbLine
 10
-89.430129
 20
74.879833
 30
0.0
 11
-88.430129
 21
75.879833
 31
0.0
  0
LINE
  5
42E
100
AcDbEntity
  8
2
370
    25
100
AcDbLine
 10
-87.430129
 20
76.879833
 30
0.0
 11
-86.431505
 21
77.878456
 31
0.0
  0
LINE
  5
42F
100
AcDbEntity
  8
2
370
    25
100
AcDbLine
 10
-83.968577
 20
80.341384
 30
0.0
 11
-83.627215
 21
80.682747
 31
0.0
  0
LINE
  5
430
100
AcDbEntity
  8
2
370
    25
100
AcDbLine
 10
-89.430129
 20
74.59699
 30
0.0
 11
-88.430129
 21
75.59699
 31
0.0
  0
LINE
  5
431
100
AcDbEntity
  8
2
370
    25
100
AcDbLine
 10
-87.430129
 20
76.59699
 30
0.0
 11
-86.430129
 21
77.59699
 31
0.0
  0
LINE
  5
432
100
AcDbEntity
  8
2
370
    25
100
AcDbLine
 10
-83.685734
 20
80.341384
 30
0.0
 11
-83.523687
 21
80.503432
 31
0.0
  0
LINE
  5
433
100
AcDbEntity
  8
2
370
    25
100
AcDbLine
 10
-89.430129
 20
74.314147
 30
0.0
 11
-88.430129
 21
75.314147
 31
0.0
  0
LINE
  5
434
100
AcDbEntity
  8
2
370
    25
100
AcDbLine
 10
-87.430129
 20
76.314147
 30
0.0
 11
-86.430129
 21
77.314147
 31
0.0
  0
LINE
  5
435
100
AcDbEntity
  8
2
370
    25
100
AcDbLine
 10
-90.352565
 20
73.108868
 30
0.0
 11
-90.197613
 21
73.263821
 31
0.0
  0
LINE
  5
436
100
AcDbEntity
  8
2
370
    25
100
AcDbLine
 10
-89.430129
 20
74.031305
 30
0.0
 11
-88.430129
 21
75.031305
 31
0.0
  0
LINE
  5
437
100
AcDbEntity
  8
2
370
    25
100
AcDbLine
 10
-87.430129
 20
76.031305
 30
0.0
 11
-86.430129
 21
77.031305
 31
0.0
  0
LINE
  5
438
100
AcDbEntity
  8
2
370
    25
100
AcDbLine
 10
-90.422756
 20
72.755835
 30
0.0
 11
-89.837206
 21
73.341384
 31
0.0
  0
LINE
  5
439
100
AcDbEntity
  8
2
370
    25
100
AcDbLine
 10
-89.430129
 20
73.748462
 30
0.0
 11
-88.430129
 21
74.748462
 31
0.0
  0
LINE
  5
43A
100
AcDbEntity
  8
2
370
    25
100
AcDbLine
 10
-87.430129
 20
75.748462
 30
0.0
 11
-86.430129
 21
76.748462
 31
0.0
  0
LINE
  5
43B
100
AcDbEntity
  8
2
370
    25
100
AcDbLine
 10
-90.3403
 20
72.555448
 30
0.0
 11
-89.554364
 21
73.341384
 31
0.0
  0
LINE
  5
43C
100
AcDbEntity
  8
2
370
    25
100
AcDbLine
 10
-89.430129
 20
73.465619
 30
0.0
 11
-88.430129
 21
74.465619
 31
0.0
  0
LINE
  5
43D
100
AcDbEntity
  8
2
370
    25
100
AcDbLine
 10
-87.430129
 20
75.465619
 30
0.0
 11
-86.430129
 21
76.465619
 31
0.0
  0
LINE
  5
43E
100
AcDbEntity
  8
2
370
    25
100
AcDbLine
 10
-90.195369
 20
72.417536
 30
0.0
 11
-88.430129
 21
74.182776
 31
0.0
  0
LINE
  5
43F
100
AcDbEntity
  8
2
370
    25
100
AcDbLine
 10
-87.430129
 20
75.182776
 30
0.0
 11
-86.271521
 21
76.341384
 31
0.0
  0
LINE
  5
440
100
AcDbEntity
  8
2
370
    25
100
AcDbLine
 10
-89.985592
 20
72.34447
 30
0.0
 11
-88.430129
 21
73.899934
 31
0.0
  0
LINE
  5
441
100
AcDbEntity
  8
2
370
    25
100
AcDbLine
 10
-87.430129
 20
74.899934
 30
0.0
 11
-85.988678
 21
76.341384
 31
0.0
  0
LINE
  5
442
100
AcDbEntity
  8
2
370
    25
100
AcDbLine
 10
-89.705835
 20
72.341384
 30
0.0
 11
-88.430129
 21
73.617091
 31
0.0
  0
LINE
  5
443
100
AcDbEntity
  8
2
370
    25
100
AcDbLine
 10
-87.430129
 20
74.617091
 30
0.0
 11
-85.705835
 21
76.341384
 31
0.0
  0
LINE
  5
444
100
AcDbEntity
  8
2
370
    25
100
AcDbLine
 10
-89.422993
 20
72.341384
 30
0.0
 11
-89.422993
 21
72.341384
 31
0.0
  0
LINE
  5
445
100
AcDbEntity
  8
2
370
    25
100
AcDbLine
 10
-88.430129
 20
73.334248
 30
0.0
 11
-88.422993
 21
73.341384
 31
0.0
  0
LINE
  5
446
100
AcDbEntity
  8
2
370
    25
100
AcDbLine
 10
-87.430129
 20
74.334248
 30
0.0
 11
-87.430129
 21
74.334248
 31
0.0
  0
LINE
  5
447
100
AcDbEntity
  8
2
370
    25
100
AcDbLine
 10
-86.430129
 20
75.334248
 30
0.0
 11
-86.422993
 21
75.341384
 31
0.0
  0
LINE
  5
448
100
AcDbEntity
  8
2
370
    25
100
AcDbLine
 10
-89.14015
 20
72.341384
 30
0.0
 11
-88.14015
 21
73.341384
 31
0.0
  0
LINE
  5
449
100
AcDbEntity
  8
2
370
    25
100
AcDbLine
 10
-87.430129
 20
74.051406
 30
0.0
 11
-86.430129
 21
75.051406
 31
0.0
  0
LINE
  5
44A
100
AcDbEntity
  8
2
370
    25
100
AcDbLine
 10
-86.14015
 20
75.341384
 30
0.0
 11
-85.14015
 21
76.341384
 31
0.0
  0
LINE
  5
44B
100
AcDbEntity
  8
2
370
    25
100
AcDbLine
 10
-88.857307
 20
72.341384
 30
0.0
 11
-87.857307
 21
73.341384
 31
0.0
  0
LINE
  5
44C
100
AcDbEntity
  8
2
370
    25
100
AcDbLine
 10
-87.430129
 20
73.768563
 30
0.0
 11
-86.430129
 21
74.768563
 31
0.0
  0
LINE
  5
44D
100
AcDbEntity
  8
2
370
    25
100
AcDbLine
 10
-85.857307
 20
75.341384
 30
0.0
 11
-84.861974
 21
76.336718
 31
0.0
  0
LINE
  5
44E
100
AcDbEntity
  8
2
370
    25
100
AcDbLine
 10
-88.574465
 20
72.341384
 30
0.0
 11
-87.574465
 21
73.341384
 31
0.0
  0
LINE
  5
44F
100
AcDbEntity
  8
2
370
    25
100
AcDbLine
 10
-87.430129
 20
73.48572
 30
0.0
 11
-86.430129
 21
74.48572
 31
0.0
  0
LINE
  5
450
100
AcDbEntity
  8
2
370
    25
100
AcDbLine
 10
-85.574465
 20
75.341384
 30
0.0
 11
-84.656187
 21
76.259662
 31
0.0
  0
LINE
  5
451
100
AcDbEntity
  8
2
370
    25
100
AcDbLine
 10
-90.379432
 20
70.253574
 30
0.0
 11
-90.291622
 21
70.341384
 31
0.0
  0
LINE
  5
452
100
AcDbEntity
  8
2
370
    25
100
AcDbLine
 10
-88.291622
 20
72.341384
 30
0.0
 11
-86.430129
 21
74.202877
 31
0.0
  0
LINE
  5
453
100
AcDbEntity
  8
2
370
    25
100
AcDbLine
 10
-85.291622
 20
75.341384
 30
0.0
 11
-84.514171
 21
76.118835
 31
0.0
  0
LINE
  5
454
100
AcDbEntity
  8
2
370
    25
100
AcDbLine
 10
-90.275904
 20
70.074259
 30
0.0
 11
-90.008779
 21
70.341384
 31
0.0
  0
LINE
  5
455
100
AcDbEntity
  8
2
370
    25
100
AcDbLine
 10
-88.008779
 20
72.341384
 30
0.0
 11
-86.430129
 21
73.920035
 31
0.0
  0
LINE
  5
456
100
AcDbEntity
  8
2
370
    25
100
AcDbLine
 10
-85.008779
 20
75.341384
 30
0.0
 11
-84.435524
 21
75.914639
 31
0.0
  0
LINE
  5
457
100
AcDbEntity
  8
2
370
    25
100
AcDbLine
 10
-90.172377
 20
69.894944
 30
0.0
 11
-89.725936
 21
70.341384
 31
0.0
  0
LINE
  5
458
100
AcDbEntity
  8
2
370
    25
100
AcDbLine
 10
-87.725936
 20
72.341384
 30
0.0
 11
-86.430129
 21
73.637192
 31
0.0
  0
LINE
  5
459
100
AcDbEntity
  8
2
370
    25
100
AcDbLine
 10
-84.610099
 20
75.457222
 30
0.0
 11
-84.545966
 21
75.521354
 31
0.0
  0
LINE
  5
45A
100
AcDbEntity
  8
2
370
    25
100
AcDbLine
 10
-90.068849
 20
69.715629
 30
0.0
 11
-89.443094
 21
70.341384
 31
0.0
  0
LINE
  5
45B
100
AcDbEntity
  8
2
370
    25
100
AcDbLine
 10
-87.443094
 20
72.341384
 30
0.0
 11
-86.430129
 21
73.354349
 31
0.0
  0
LINE
  5
45C
100
AcDbEntity
  8
2
370
    25
100
AcDbLine
 10
-89.965321
 20
69.536314
 30
0.0
 11
-89.160251
 21
70.341384
 31
0.0
  0
LINE
  5
45D
100
AcDbEntity
  8
2
370
    25
100
AcDbLine
 10
-87.160251
 20
72.341384
 30
0.0
 11
-86.160251
 21
73.341384
 31
0.0
  0
LINE
  5
45E
100
AcDbEntity
  8
2
370
    25
100
AcDbLine
 10
-89.861794
 20
69.356999
 30
0.0
 11
-88.877408
 21
70.341384
 31
0.0
  0
LINE
  5
45F
100
AcDbEntity
  8
2
370
    25
100
AcDbLine
 10
-86.877408
 20
72.341384
 30
0.0
 11
-85.877408
 21
73.341384
 31
0.0
  0
LINE
  5
460
100
AcDbEntity
  8
2
370
    25
100
AcDbLine
 10
-89.758266
 20
69.177684
 30
0.0
 11
-88.594566
 21
70.341384
 31
0.0
  0
LINE
  5
461
100
AcDbEntity
  8
2
370
    25
100
AcDbLine
 10
-86.594566
 20
72.341384
 30
0.0
 11
-85.594566
 21
73.341384
 31
0.0
  0
LINE
  5
462
100
AcDbEntity
  8
2
370
    25
100
AcDbLine
 10
-89.654738
 20
68.998369
 30
0.0
 11
-88.311723
 21
70.341384
 31
0.0
  0
LINE
  5
463
100
AcDbEntity
  8
2
370
    25
100
AcDbLine
 10
-86.311723
 20
72.341384
 30
0.0
 11
-85.311723
 21
73.341384
 31
0.0
  0
LINE
  5
464
100
AcDbEntity
  8
2
370
    25
100
AcDbLine
 10
-89.551211
 20
68.819054
 30
0.0
 11
-88.02888
 21
70.341384
 31
0.0
  0
LINE
  5
465
100
AcDbEntity
  8
2
370
    25
100
AcDbLine
 10
-86.02888
 20
72.341384
 30
0.0
 11
-85.02888
 21
73.341384
 31
0.0
  0
LINE
  5
466
100
AcDbEntity
  8
2
370
    25
100
AcDbLine
 10
-89.447683
 20
68.639739
 30
0.0
 11
-87.746037
 21
70.341384
 31
0.0
  0
LINE
  5
467
100
AcDbEntity
  8
2
370
    25
100
AcDbLine
 10
-85.746037
 20
72.341384
 30
0.0
 11
-84.746037
 21
73.341384
 31
0.0
  0
LINE
  5
468
100
AcDbEntity
  8
2
370
    25
100
AcDbLine
 10
-89.344156
 20
68.460424
 30
0.0
 11
-87.463195
 21
70.341384
 31
0.0
  0
LINE
  5
469
100
AcDbEntity
  8
2
370
    25
100
AcDbLine
 10
-85.463195
 20
72.341384
 30
0.0
 11
-84.463195
 21
73.341384
 31
0.0
  0
LINE
  5
46A
100
AcDbEntity
  8
2
370
    25
100
AcDbLine
 10
-89.240628
 20
68.281108
 30
0.0
 11
-87.180352
 21
70.341384
 31
0.0
  0
LINE
  5
46B
100
AcDbEntity
  8
2
370
    25
100
AcDbLine
 10
-85.180352
 20
72.341384
 30
0.0
 11
-84.180352
 21
73.341384
 31
0.0
  0
LINE
  5
46C
100
AcDbEntity
  8
2
370
    25
100
AcDbLine
 10
-89.1371
 20
68.101793
 30
0.0
 11
-86.897509
 21
70.341384
 31
0.0
  0
LINE
  5
46D
100
AcDbEntity
  8
2
370
    25
100
AcDbLine
 10
-84.897509
 20
72.341384
 30
0.0
 11
-83.89851
 21
73.340384
 31
0.0
  0
LINE
  5
46E
100
AcDbEntity
  8
2
370
    25
100
AcDbLine
 10
-89.033573
 20
67.922478
 30
0.0
 11
-86.614667
 21
70.341384
 31
0.0
  0
LINE
  5
46F
100
AcDbEntity
  8
2
370
    25
100
AcDbLine
 10
-84.614667
 20
72.341384
 30
0.0
 11
-83.681097
 21
73.274954
 31
0.0
  0
LINE
  5
470
100
AcDbEntity
  8
2
370
    25
100
AcDbLine
 10
-88.930045
 20
67.743163
 30
0.0
 11
-86.331824
 21
70.341384
 31
0.0
  0
LINE
  5
471
100
AcDbEntity
  8
2
370
    25
100
AcDbLine
 10
-84.331824
 20
72.341384
 30
0.0
 11
-83.530856
 21
73.142352
 31
0.0
  0
LINE
  5
472
100
AcDbEntity
  8
2
370
    25
100
AcDbLine
 10
-88.826517
 20
67.563848
 30
0.0
 11
-86.048981
 21
70.341384
 31
0.0
  0
LINE
  5
473
100
AcDbEntity
  8
2
370
    25
100
AcDbLine
 10
-84.048981
 20
72.341384
 30
0.0
 11
-83.44176
 21
72.948605
 31
0.0
  0
LINE
  5
474
100
AcDbEntity
  8
2
370
    25
100
AcDbLine
 10
-88.72299
 20
67.384533
 30
0.0
 11
-85.766138
 21
70.341384
 31
0.0
  0
LINE
  5
475
100
AcDbEntity
  8
2
370
    25
100
AcDbLine
 10
-83.719703
 20
72.38782
 30
0.0
 11
-83.476564
 21
72.630959
 31
0.0
  0
LINE
  5
476
100
AcDbEntity
  8
2
370
    25
100
AcDbLine
 10
-88.619462
 20
67.205218
 30
0.0
 11
-85.483296
 21
70.341384
 31
0.0
  0
LINE
  5
477
100
AcDbEntity
  8
2
370
    25
100
AcDbLine
 10
-88.515935
 20
67.025903
 30
0.0
 11
-85.200453
 21
70.341384
 31
0.0
  0
LINE
  5
478
100
AcDbEntity
  8
2
370
    25
100
AcDbLine
 10
-88.412407
 20
66.846588
 30
0.0
 11
-84.91761
 21
70.341384
 31
0.0
  0
LINE
  5
479
100
AcDbEntity
  8
2
370
    25
100
AcDbLine
 10
-88.308879
 20
66.667273
 30
0.0
 11
-84.634768
 21
70.341384
 31
0.0
  0
LINE
  5
47A
100
AcDbEntity
  8
2
370
    25
100
AcDbLine
 10
-88.205352
 20
66.487957
 30
0.0
 11
-84.351925
 21
70.341384
 31
0.0
  0
LINE
  5
47B
100
AcDbEntity
  8
2
370
    25
100
AcDbLine
 10
-88.101824
 20
66.308642
 30
0.0
 11
-84.069082
 21
70.341384
 31
0.0
  0
LINE
  5
47C
100
AcDbEntity
  8
2
370
    25
100
AcDbLine
 10
-87.998297
 20
66.129327
 30
0.0
 11
-83.786239
 21
70.341384
 31
0.0
  0
LINE
  5
47D
100
AcDbEntity
  8
2
370
    25
100
AcDbLine
 10
-87.894769
 20
65.950012
 30
0.0
 11
-83.503397
 21
70.341384
 31
0.0
  0
LINE
  5
47E
100
AcDbEntity
  8
2
370
    25
100
AcDbLine
 10
-83.716413
 20
69.845525
 30
0.0
 11
-87.791241
 21
65.770697
 31
0.0
  0
LINE
  5
47F
100
AcDbEntity
  8
2
370
    25
100
AcDbLine
 10
-84.102784
 20
69.176312
 30
0.0
 11
-87.687714
 21
65.591382
 31
0.0
  0
LINE
  5
480
100
AcDbEntity
  8
2
370
    25
100
AcDbLine
 10
-84.489154
 20
68.507099
 30
0.0
 11
-87.584186
 21
65.412067
 31
0.0
  0
LINE
  5
481
100
AcDbEntity
  8
2
370
    25
100
AcDbLine
 10
-84.875524
 20
67.837886
 30
0.0
 11
-87.480658
 21
65.232752
 31
0.0
  0
LINE
  5
482
100
AcDbEntity
  8
2
370
    25
100
AcDbLine
 10
-85.261895
 20
67.168673
 30
0.0
 11
-87.377131
 21
65.053437
 31
0.0
  0
LINE
  5
483
100
AcDbEntity
  8
2
370
    25
100
AcDbLine
 10
-85.648265
 20
66.49946
 30
0.0
 11
-87.273603
 21
64.874122
 31
0.0
  0
LINE
  5
484
100
AcDbEntity
  8
2
370
    25
100
AcDbLine
 10
-86.034635
 20
65.830247
 30
0.0
 11
-87.170076
 21
64.694807
 31
0.0
  0
LINE
  5
485
100
AcDbEntity
  8
2
370
    25
100
AcDbLine
 10
-86.421006
 20
65.161034
 30
0.0
 11
-87.066548
 21
64.515491
 31
0.0
  0
LINE
  5
486
100
AcDbEntity
  8
2
370
    25
100
AcDbLine
 10
-86.807376
 20
64.491821
 30
0.0
 11
-86.96302
 21
64.336176
 31
0.0
  0
LINE
  5
487
100
AcDbEntity
  8
2
370
    25
100
AcDbLine
 10
-88.49406
 20
80.341384
 30
0.0
 11
-85.283656
 21
83.551788
 31
0.0
  0
LINE
  5
488
100
AcDbEntity
  8
2
370
    25
100
AcDbLine
 10
-88.776903
 20
80.341384
 30
0.0
 11
-85.387184
 21
83.731104
 31
0.0
  0
LINE
  5
489
100
AcDbEntity
  8
2
370
    25
100
AcDbLine
 10
-89.059746
 20
80.341384
 30
0.0
 11
-85.490712
 21
83.910419
 31
0.0
  0
LINE
  5
48A
100
AcDbEntity
  8
2
370
    25
100
AcDbLine
 10
-89.342589
 20
80.341384
 30
0.0
 11
-85.594239
 21
84.089734
 31
0.0
  0
LINE
  5
48B
100
AcDbEntity
  8
2
370
    25
100
AcDbLine
 10
-89.625431
 20
80.341384
 30
0.0
 11
-85.697767
 21
84.269049
 31
0.0
  0
LINE
  5
48C
100
AcDbEntity
  8
2
370
    25
100
AcDbLine
 10
-89.908274
 20
80.341384
 30
0.0
 11
-85.801295
 21
84.448364
 31
0.0
  0
LINE
  5
48D
100
AcDbEntity
  8
2
370
    25
100
AcDbLine
 10
-90.191117
 20
80.341384
 30
0.0
 11
-85.904822
 21
84.627679
 31
0.0
  0
LINE
  5
48E
100
AcDbEntity
  8
2
370
    25
100
AcDbLine
 10
-90.370255
 20
80.445089
 30
0.0
 11
-86.00835
 21
84.806994
 31
0.0
  0
LINE
  5
48F
100
AcDbEntity
  8
2
370
    25
100
AcDbLine
 10
-89.983885
 20
81.114302
 30
0.0
 11
-86.111877
 21
84.986309
 31
0.0
  0
LINE
  5
490
100
AcDbEntity
  8
2
370
    25
100
AcDbLine
 10
-89.597514
 20
81.783515
 30
0.0
 11
-86.215405
 21
85.165624
 31
0.0
  0
LINE
  5
491
100
AcDbEntity
  8
2
370
    25
100
AcDbLine
 10
-89.211144
 20
82.452728
 30
0.0
 11
-86.318933
 21
85.344939
 31
0.0
  0
LINE
  5
492
100
AcDbEntity
  8
2
370
    25
100
AcDbLine
 10
-88.824774
 20
83.121941
 30
0.0
 11
-86.42246
 21
85.524254
 31
0.0
  0
LINE
  5
493
100
AcDbEntity
  8
2
370
    25
100
AcDbLine
 10
-88.438403
 20
83.791154
 30
0.0
 11
-86.525988
 21
85.70357
 31
0.0
  0
LINE
  5
494
100
AcDbEntity
  8
2
370
    25
100
AcDbLine
 10
-88.052033
 20
84.460367
 30
0.0
 11
-86.629516
 21
85.882885
 31
0.0
  0
LINE
  5
495
100
AcDbEntity
  8
2
370
    25
100
AcDbLine
 10
-87.665663
 20
85.12958
 30
0.0
 11
-86.733043
 21
86.0622
 31
0.0
  0
LINE
  5
496
100
AcDbEntity
  8
2
370
    25
100
AcDbLine
 10
-87.279292
 20
85.798793
 30
0.0
 11
-86.836571
 21
86.241515
 31
0.0
  0
LINE
  5
497
100
AcDbEntity
  8
2
370
    50
100
AcDbLine
 10
-79.930129
 20
102.341384
 30
0.0
 11
-80.930129
 21
102.341384
 31
0.0
  0
LINE
  5
498
100
AcDbEntity
  8
2
370
    50
100
AcDbLine
 10
-79.930129
 20
70.841384
 30
0.0
 11
-80.930129
 21
70.841384
 31
0.0
  0
LINE
  5
499
100
AcDbEntity
  8
2
370
    50
100
AcDbLine
 10
-79.930129
 20
87.341384
 30
0.0
 11
-79.930129
 21
108.841384
 31
0.0
  0
LINE
  5
49A
100
AcDbEntity
  8
2
370
    50
100
AcDbLine
 10
-79.430129
 20
65.341384
 30
0.0
 11
-78.464072
 21
65.341384
 31
0.0
  0
LINE
  5
49B
100
AcDbEntity
  8
2
370
    50
100
AcDbLine
 10
-79.930129
 20
65.841384
 30
0.0
 11
-79.930129
 21
87.341384
 31
0.0
  0
ARC
  5
49C
100
AcDbEntity
  8
2
370
    50
100
AcDbCircle
 10
-79.430129
 20
65.841384
 30
0.0
 40
0.5
100
AcDbArc
 50
180.0
 51
270.0
  0
LINE
  5
49D
100
AcDbEntity
  8
2
370
    50
100
AcDbLine
 10
-37.42967
 20
98.341384
 30
0.0
 11
-37.42967
 21
76.341384
 31
0.0
  0
LINE
  5
49E
100
AcDbEntity
  8
2
370
    50
100
AcDbLine
 10
-37.429129
 20
87.341384
 30
0.0
 11
-37.429129
 21
98.341751
 31
0.0
  0
LINE
  5
49F
100
AcDbEntity
  8
2
370
    50
100
AcDbLine
 10
-37.429129
 20
87.341384
 30
0.0
 11
-37.429129
 21
76.341751
 31
0.0
  0
LINE
  5
4A0
100
AcDbEntity
  8
2
370
    50
100
AcDbLine
 10
-37.42967
 20
98.341384
 30
0.0
 11
-39.979913
 21
107.859023
 31
0.0
  0
LINE
  5
4A1
100
AcDbEntity
  8
2
370
    50
100
AcDbLine
 10
-37.42967
 20
76.341384
 30
0.0
 11
-39.979913
 21
66.823746
 31
0.0
  0
ARC
  5
4A2
100
AcDbEntity
  8
2
370
    50
100
AcDbCircle
 10
-41.911765
 20
67.341384
 30
0.0
 40
2.0
100
AcDbArc
 50
269.078976
 51
345.0
  0
LINE
  5
4A3
100
AcDbEntity
  8
2
370
    50
100
AcDbLine
 10
-79.430129
 20
109.341384
 30
0.0
 11
-41.911765
 21
109.341384
 31
0.0
  0
ARC
  5
4A4
100
AcDbEntity
  8
2
370
    50
100
AcDbCircle
 10
-79.430129
 20
108.841384
 30
0.0
 40
0.5
100
AcDbArc
 50
90.0
 51
180.0
  0
ARC
  5
4A5
100
AcDbEntity
  8
2
370
    50
100
AcDbCircle
 10
-41.911765
 20
107.341384
 30
0.0
 40
2.0
100
AcDbArc
 50
15.0
 51
90.0
  0
LINE
  5
4A6
100
AcDbEntity
  8
2
370
    50
100
AcDbLine
 10
-44.395683
 20
60.82115
 30
0.0
 11
-44.395683
 21
61.770897
 31
0.0
  0
LINE
  5
4A7
100
AcDbEntity
  8
2
370
    50
100
AcDbLine
 10
-77.284944
 20
60.82115
 30
0.0
 11
-77.284944
 21
61.770897
 31
0.0
  0
LINE
  5
4A8
100
AcDbEntity
  8
2
370
    50
100
AcDbLine
 10
-46.395683
 20
63.770897
 30
0.0
 11
-75.284944
 21
63.770897
 31
0.0
  0
LINE
  5
4A9
100
AcDbEntity
  8
2
370
    50
100
AcDbLine
 10
-46.395683
 20
58.82115
 30
0.0
 11
-75.284944
 21
58.82115
 31
0.0
  0
LINE
  5
4AA
100
AcDbEntity
  8
2
370
    50
100
AcDbLine
 10
-44.395683
 20
63.770897
 30
0.0
 11
-40.697021
 21
73.607506
 31
0.0
  0
LINE
  5
4AB
100
AcDbEntity
  8
2
370
    50
100
AcDbLine
 10
-77.284944
 20
63.770897
 30
0.0
 11
-79.930129
 21
74.458308
 31
0.0
  0
LINE
  5
4AC
100
AcDbEntity
  8
2
370
    50
100
AcDbLine
 10
-40.377111
 20
107.877452
 30
0.0
 11
-40.377111
 21
75.367266
 31
0.0
  0
LINE
  5
4AD
100
AcDbEntity
  8
2
370
    50
100
AcDbLine
 10
-40.377111
 20
71.144977
 30
0.0
 11
-40.377111
 21
66.845269
 31
0.0
  0
ARC
  5
4AE
100
AcDbEntity
  8
2
370
    50
100
AcDbCircle
 10
-46.395683
 20
60.82115
 30
0.0
 40
2.0
100
AcDbArc
 50
270.0
 51
360.0
  0
ARC
  5
4AF
100
AcDbEntity
  8
2
370
    50
100
AcDbCircle
 10
-46.395683
 20
61.770897
 30
0.0
 40
2.0
100
AcDbArc
 50
360.0
 51
90.0
  0
ARC
  5
4B0
100
AcDbEntity
  8
2
370
    50
100
AcDbCircle
 10
-75.284944
 20
60.82115
 30
0.0
 40
2.0
100
AcDbArc
 50
180.0
 51
270.0
  0
ARC
  5
4B1
100
AcDbEntity
  8
2
370
    50
100
AcDbCircle
 10
-75.284944
 20
61.770897
 30
0.0
 40
2.0
100
AcDbArc
 50
90.0
 51
180.0
  0
LINE
  5
4B2
100
AcDbEntity
  8
2
370
    50
100
AcDbLine
 10
-44.523647
 20
60.117246
 30
0.0
 11
-40.377111
 21
71.144977
 31
0.0
  0
LINE
  5
4B3
100
AcDbEntity
  8
2
370
    50
100
AcDbLine
 10
-77.226363
 20
60.340639
 30
0.0
 11
-79.930129
 21
71.264734
 31
0.0
  0
LINE
  5
4B4
100
AcDbEntity
  8
2
370
    50
100
AcDbLine
 10
-41.911765
 20
65.341384
 30
0.0
 11
-42.559319
 21
65.341384
 31
0.0
  0
ARC
  5
4B5
100
AcDbEntity
  8
2
370
    50
100
AcDbCircle
 10
-45.377111
 20
75.367266
 30
0.0
 40
5.0
100
AcDbArc
 50
339.393241
 51
0.0
  0
LINE
  5
4B6
100
AcDbEntity
  8
2
370
    25
100
AcDbLine
 10
-43.056905
 20
74.458308
 30
0.0
 11
-77.878986
 21
74.458308
 31
0.0
  0
POINT
  5
4B7
100
AcDbEntity
  8
2
370
    50
100
AcDbPoint
 10
-80.930129
 20
87.341384
 30
0.0
  0
POINT
  5
4B8
100
AcDbEntity
  8
2
370
    50
100
AcDbPoint
 10
-77.878698
 20
-95.37712
 30
0.0
  0
POINT
  5
4B9
100
AcDbEntity
  8
2
370
    50
100
AcDbPoint
 10
-43.056617
 20
-95.37712
 30
0.0
  0
LINE
  5
4BA
100
AcDbEntity
  8
2
370
    50
100
AcDbLine
 10
-246.62941
 20
-130.319672
 30
0.0
 11
-246.62941
 21
-129.861064
 31
0.0
  0
LINE
  5
4BB
100
AcDbEntity
  8
2
370
    50
100
AcDbLine
 10
-246.62941
 20
-86.202455
 30
0.0
 11
-246.62941
 21
-86.661064
 31
0.0
  0
LINE
  5
4BC
100
AcDbEntity
  8
2
370
    50
100
AcDbLine
 10
-246.191427
 20
-85.706316
 30
0.0
 11
-235.191427
 21
-84.331316
 31
0.0
  0
LINE
  5
4BD
100
AcDbEntity
  8
2
370
    50
100
AcDbLine
 10
-246.191427
 20
-130.815811
 30
0.0
 11
-235.191427
 21
-132.190811
 31
0.0
  0
ARC
  5
4BE
100
AcDbEntity
  8
2
370
    50
100
AcDbCircle
 10
-246.12941
 20
-86.202455
 30
0.0
 40
0.5
100
AcDbArc
 50
97.125016
 51
180.0
  0
ARC
  5
4BF
100
AcDbEntity
  8
2
370
    50
100
AcDbCircle
 10
-246.12941
 20
-130.319672
 30
0.0
 40
0.5
100
AcDbArc
 50
180.0
 51
262.874984
  0
ARC
  5
4C0
100
AcDbEntity
  8
2
370
    50
100
AcDbCircle
 10
-235.12941
 20
-131.694672
 30
0.0
 40
0.5
100
AcDbArc
 50
262.874984
 51
0.0
  0
ARC
  5
4C1
100
AcDbEntity
  8
2
370
    50
100
AcDbCircle
 10
-235.12941
 20
-84.827455
 30
0.0
 40
0.5
100
AcDbArc
 50
360.0
 51
97.125016
  0
LINE
  5
4C2
100
AcDbEntity
  8
2
370
    50
100
AcDbLine
 10
-246.62941
 20
-86.661064
 30
0.0
 11
-246.62941
 21
-129.861064
 31
0.0
  0
LINE
  5
4C3
100
AcDbEntity
  8
2
370
    50
100
AcDbLine
 10
-237.12941
 20
-96.760197
 30
0.0
 11
-244.12941
 21
-96.760197
 31
0.0
  0
ARC
  5
4C4
100
AcDbEntity
  8
2
370
    50
100
AcDbCircle
 10
-244.12941
 20
-96.260197
 30
0.0
 40
0.5
100
AcDbArc
 50
180.0
 51
270.0
  0
ARC
  5
4C5
100
AcDbEntity
  8
2
370
    50
100
AcDbCircle
 10
-244.12941
 20
-96.260197
 30
0.0
 40
0.5
100
AcDbArc
 50
90.0
 51
180.0
  0
LINE
  5
4C6
100
AcDbEntity
  8
2
370
    50
100
AcDbLine
 10
-237.12941
 20
-95.760197
 30
0.0
 11
-244.12941
 21
-95.760197
 31
0.0
  0
LINE
  5
4C7
100
AcDbEntity
  8
2
370
    50
100
AcDbLine
 10
-237.12941
 20
-91.260197
 30
0.0
 11
-244.12941
 21
-91.260197
 31
0.0
  0
LINE
  5
4C8
100
AcDbEntity
  8
2
370
    50
100
AcDbLine
 10
-244.12941
 20
-91.260197
 30
0.0
 11
-240.62941
 21
-85.198019
 31
0.0
  0
LINE
  5
4C9
100
AcDbEntity
  8
2
370
    50
100
AcDbLine
 10
-237.12941
 20
-91.260197
 30
0.0
 11
-240.62941
 21
-85.198019
 31
0.0
  0
LINE
  5
4CA
100
AcDbEntity
  8
2
370
    50
100
AcDbLine
 10
-237.12941
 20
-101.260197
 30
0.0
 11
-244.12941
 21
-101.260197
 31
0.0
  0
LINE
  5
4CB
100
AcDbEntity
  8
2
370
    50
100
AcDbLine
 10
-244.12941
 20
-101.260197
 30
0.0
 11
-240.62941
 21
-107.322375
 31
0.0
  0
LINE
  5
4CC
100
AcDbEntity
  8
2
370
    50
100
AcDbLine
 10
-237.12941
 20
-101.260197
 30
0.0
 11
-240.62941
 21
-107.322375
 31
0.0
  0
ARC
  5
4CD
100
AcDbEntity
  8
2
370
    50
100
AcDbCircle
 10
-240.12941
 20
-111.822375
 30
0.0
 40
2.5
100
AcDbArc
 50
48.189685
 51
311.810315
  0
ARC
  5
4CE
100
AcDbEntity
  8
2
370
    50
100
AcDbCircle
 10
-240.12941
 20
-111.822375
 30
0.0
 40
3.5
100
AcDbArc
 50
48.189685
 51
311.810315
  0
ARC
  5
4CF
100
AcDbEntity
  8
2
370
    50
100
AcDbCircle
 10
-238.12941
 20
-109.586307
 30
0.0
 40
0.5
100
AcDbArc
 50
228.189685
 51
48.189685
  0
ARC
  5
4D0
100
AcDbEntity
  8
2
370
    50
100
AcDbCircle
 10
-238.12941
 20
-114.058443
 30
0.0
 40
0.5
100
AcDbArc
 50
311.810315
 51
131.810315
  0
HATCH
  5
4D1
100
AcDbEntity
  8
2
370
    25
100
AcDbHatch
 10
0.0
 20
0.0
 30
0.0
210
0.0
220
0.0
230
1.0
  2
_U
 70
     0
 71
     1
 91
        1
 92
        1
 93
        3
 72
     1
 10
-237.12941000000001
 20
-91.260197000000005
 11
-240.62941000000001
 21
-85.198019000000002
 72
     1
 10
-240.62941000000001
 20
-85.198019000000002
 11
-244.12941000000001
 21
-91.260197000000005
 72
     1
 10
-244.12941000000001
 20
-91.260197000000005
 11
-237.12941000000001
 21
-91.260197000000005
 97
        3
330
0
330
0
330
0
 75
     0
 76
     0
 52
45.0
 41
1.0
 77
     0
 78
     1
 53
45.0
 43
0.0
 44
0.0
 45
-0.141421
 46
0.141421
 79
     0
 98
        1
 10
0.0
 20
0.0
  0
HATCH
  5
4D2
100
AcDbEntity
  8
2
370
    25
100
AcDbHatch
 10
0.0
 20
0.0
 30
0.0
210
0.0
220
0.0
230
1.0
  2
_U
 70
     0
 71
     1
 91
        1
 92
        1
 93
        6
 72
     1
 10
-237.12941000000001
 20
-95.760197000000005
 11
-244.12941000000001
 21
-95.760197000000005
 72
     2
 10
-244.12941000000001
 20
-96.260197000000005
 40
0.5
 50
90.0
 51
180.0
 73
     1
 72
     2
 10
-244.12941000000001
 20
-96.260197000000005
 40
0.5
 50
180.0
 51
270.0
 73
     1
 72
     1
 10
-244.12941000000001
 20
-96.760197000000005
 11
-237.12941000000001
 21
-96.760197000000005
 72
     2
 10
-237.12941000000001
 20
-96.260197000000005
 40
0.5
 50
270.0
 51
0.0
 73
     1
 72
     2
 10
-237.12941000000001
 20
-96.260197000000005
 40
0.5
 50
0.0
 51
90.0
 73
     1
 97
        6
330
0
330
0
330
0
330
0
330
0
330
0
 75
     0
 76
     0
 52
45.0
 41
1.0
 77
     0
 78
     1
 53
45.0
 43
0.0
 44
0.0
 45
-0.141421
 46
0.141421
 79
     0
 98
        1
 10
0.0
 20
0.0
  0
HATCH
  5
4D3
100
AcDbEntity
  8
2
370
    25
100
AcDbHatch
 10
0.0
 20
0.0
 30
0.0
210
0.0
220
0.0
230
1.0
  2
_U
 70
     0
 71
     1
 91
        1
 92
        1
 93
        3
 72
     1
 10
-237.12941000000001
 20
-101.26019700000001
 11
-244.12941000000001
 21
-101.26019700000001
 72
     1
 10
-244.12941000000001
 20
-101.26019700000001
 11
-240.62941000000001
 21
-107.32237499999999
 72
     1
 10
-240.62941000000001
 20
-107.32237499999999
 11
-237.12941000000001
 21
-101.26019700000001
 97
        3
330
0
330
0
330
0
 75
     0
 76
     0
 52
45.0
 41
1.0
 77
     0
 78
     1
 53
45.0
 43
0.0
 44
0.0
 45
-0.141421
 46
0.141421
 79
     0
 98
        1
 10
0.0
 20
0.0
  0
LINE
  5
4D4
100
AcDbEntity
  8
2
370
    25
100
AcDbLine
 10
-243.62941
 20
-111.822375
 30
0.0
 11
-242.12941
 21
-110.322375
 31
0.0
  0
LINE
  5
4D5
100
AcDbEntity
  8
2
370
    25
100
AcDbLine
 10
-241.62941
 20
-109.822375
 30
0.0
 11
-240.12941
 21
-108.322375
 31
0.0
  0
LINE
  5
4D6
100
AcDbEntity
  8
2
370
    25
100
AcDbLine
 10
-243.618806
 20
-112.094614
 30
0.0
 11
-242.471115
 21
-110.946923
 31
0.0
  0
LINE
  5
4D7
100
AcDbEntity
  8
2
370
    25
100
AcDbLine
 10
-241.004862
 20
-109.480669
 30
0.0
 11
-239.857171
 21
-108.332978
 31
0.0
  0
LINE
  5
4D8
100
AcDbEntity
  8
2
370
    25
100
AcDbLine
 10
-243.589668
 20
-112.348318
 30
0.0
 11
-242.582696
 21
-111.341346
 31
0.0
  0
LINE
  5
4D9
100
AcDbEntity
  8
2
370
    25
100
AcDbLine
 10
-240.610439
 20
-109.369089
 30
0.0
 11
-239.603467
 21
-108.362117
 31
0.0
  0
LINE
  5
4DA
100
AcDbEntity
  8
2
370
    25
100
AcDbLine
 10
-243.544984
 20
-112.586477
 30
0.0
 11
-242.624515
 21
-111.666008
 31
0.0
  0
LINE
  5
4DB
100
AcDbEntity
  8
2
370
    25
100
AcDbLine
 10
-240.285777
 20
-109.32727
 30
0.0
 11
-239.365308
 21
-108.4068
 31
0.0
  0
LINE
  5
4DC
100
AcDbEntity
  8
2
370
    25
100
AcDbLine
 10
-243.486833
 20
-112.811168
 30
0.0
 11
-242.626127
 21
-111.950462
 31
0.0
  0
LINE
  5
4DD
100
AcDbEntity
  8
2
370
    25
100
AcDbLine
 10
-240.001323
 20
-109.325658
 30
0.0
 11
-239.140617
 21
-108.464952
 31
0.0
  0
LINE
  5
4DE
100
AcDbEntity
  8
2
370
    25
100
AcDbLine
 10
-243.416713
 20
-113.023891
 30
0.0
 11
-242.599669
 21
-112.206847
 31
0.0
  0
LINE
  5
4DF
100
AcDbEntity
  8
2
370
    25
100
AcDbLine
 10
-239.744937
 20
-109.352115
 30
0.0
 11
-238.927894
 21
-108.535072
 31
0.0
  0
LINE
  5
4E0
100
AcDbEntity
  8
2
370
    25
100
AcDbLine
 10
-243.335735
 20
-113.225756
 30
0.0
 11
-242.551523
 21
-112.441544
 31
0.0
  0
LINE
  5
4E1
100
AcDbEntity
  8
2
370
    25
100
AcDbLine
 10
-239.510241
 20
-109.400262
 30
0.0
 11
-238.726029
 21
-108.61605
 31
0.0
  0
LINE
  5
4E2
100
AcDbEntity
  8
2
370
    25
100
AcDbLine
 10
-243.244736
 20
-113.4176
 30
0.0
 11
-242.485494
 21
-112.658358
 31
0.0
  0
LINE
  5
4E3
100
AcDbEntity
  8
2
370
    25
100
AcDbLine
 10
-239.293427
 20
-109.466291
 30
0.0
 11
-238.534185
 21
-108.707049
 31
0.0
  0
LINE
  5
4E4
100
AcDbEntity
  8
2
370
    25
100
AcDbLine
 10
-243.144349
 20
-113.600055
 30
0.0
 11
-242.404028
 21
-112.859734
 31
0.0
  0
LINE
  5
4E5
100
AcDbEntity
  8
2
370
    25
100
AcDbLine
 10
-239.092051
 20
-109.547757
 30
0.0
 11
-238.35173
 21
-108.807436
 31
0.0
  0
LINE
  5
4E6
100
AcDbEntity
  8
2
370
    25
100
AcDbLine
 10
-243.035048
 20
-113.773597
 30
0.0
 11
-242.308756
 21
-113.047305
 31
0.0
  0
LINE
  5
4E7
100
AcDbEntity
  8
2
370
    25
100
AcDbLine
 10
-238.90448
 20
-109.643029
 30
0.0
 11
-238.178188
 21
-108.916737
 31
0.0
  0
LINE
  5
4E8
100
AcDbEntity
  8
2
370
    25
100
AcDbLine
 10
-242.917185
 20
-113.938577
 30
0.0
 11
-242.200779
 21
-113.222171
 31
0.0
  0
LINE
  5
4E9
100
AcDbEntity
  8
2
370
    25
100
AcDbLine
 10
-238.729614
 20
-109.751005
 30
0.0
 11
-238.013208
 21
-109.0346
 31
0.0
  0
LINE
  5
4EA
100
AcDbEntity
  8
2
370
    25
100
AcDbLine
 10
-242.791005
 20
-114.095239
 30
0.0
 11
-242.080824
 21
-113.385059
 31
0.0
  0
LINE
  5
4EB
100
AcDbEntity
  8
2
370
    25
100
AcDbLine
 10
-238.566726
 20
-109.87096
 30
0.0
 11
-237.856546
 21
-109.16078
 31
0.0
  0
LINE
  5
4EC
100
AcDbEntity
  8
2
370
    25
100
AcDbLine
 10
-237.71681
 20
-109.303887
 30
0.0
 11
-238.41183
 21
-109.998907
 31
0.0
  0
LINE
  5
4ED
100
AcDbEntity
  8
2
370
    25
100
AcDbLine
 10
-241.949328
 20
-113.536405
 30
0.0
 11
-242.656661
 21
-114.243738
 31
0.0
  0
LINE
  5
4EE
100
AcDbEntity
  8
2
370
    25
100
AcDbLine
 10
-237.635926
 20
-109.505846
 30
0.0
 11
-238.20987
 21
-110.07979
 31
0.0
  0
LINE
  5
4EF
100
AcDbEntity
  8
2
370
    25
100
AcDbLine
 10
-241.806484
 20
-113.676404
 30
0.0
 11
-242.514224
 21
-114.384144
 31
0.0
  0
LINE
  5
4F0
100
AcDbEntity
  8
2
370
    25
100
AcDbLine
 10
-237.718687
 20
-109.871449
 30
0.0
 11
-237.844267
 21
-109.99703
 31
0.0
  0
LINE
  5
4F1
100
AcDbEntity
  8
2
370
    25
100
AcDbLine
 10
-241.652265
 20
-113.805028
 30
0.0
 11
-242.363684
 21
-114.516446
 31
0.0
  0
LINE
  5
4F2
100
AcDbEntity
  8
2
370
    25
100
AcDbLine
 10
-241.486419
 20
-113.922024
 30
0.0
 11
-242.204949
 21
-114.640554
 31
0.0
  0
LINE
  5
4F3
100
AcDbEntity
  8
2
370
    25
100
AcDbLine
 10
-241.308441
 20
-114.026889
 30
0.0
 11
-242.037845
 21
-114.756293
 31
0.0
  0
LINE
  5
4F4
100
AcDbEntity
  8
2
370
    25
100
AcDbLine
 10
-241.117523
 20
-114.118814
 30
0.0
 11
-241.862101
 21
-114.863391
 31
0.0
  0
LINE
  5
4F5
100
AcDbEntity
  8
2
370
    25
100
AcDbLine
 10
-240.912447
 20
-114.19658
 30
0.0
 11
-241.677337
 21
-114.96147
 31
0.0
  0
LINE
  5
4F6
100
AcDbEntity
  8
2
370
    25
100
AcDbLine
 10
-240.691411
 20
-114.258387
 30
0.0
 11
-241.483042
 21
-115.050018
 31
0.0
  0
LINE
  5
4F7
100
AcDbEntity
  8
2
370
    25
100
AcDbLine
 10
-240.451695
 20
-114.301514
 30
0.0
 11
-241.278537
 21
-115.128355
 31
0.0
  0
LINE
  5
4F8
100
AcDbEntity
  8
2
370
    25
100
AcDbLine
 10
-240.189003
 20
-114.321664
 30
0.0
 11
-241.062924
 21
-115.195586
 31
0.0
  0
LINE
  5
4F9
100
AcDbEntity
  8
2
370
    25
100
AcDbLine
 10
-239.895945
 20
-114.31145
 30
0.0
 11
-240.835008
 21
-115.250513
 31
0.0
  0
LINE
  5
4FA
100
AcDbEntity
  8
2
370
    25
100
AcDbLine
 10
-239.557804
 20
-114.256151
 30
0.0
 11
-240.593167
 21
-115.291514
 31
0.0
  0
LINE
  5
4FB
100
AcDbEntity
  8
2
370
    25
100
AcDbLine
 10
-239.134831
 20
-114.116021
 30
0.0
 11
-240.335134
 21
-115.316323
 31
0.0
  0
LINE
  5
4FC
100
AcDbEntity
  8
2
370
    25
100
AcDbLine
 10
-238.341728
 20
-113.605761
 30
0.0
 11
-240.057606
 21
-115.321638
 31
0.0
  0
LINE
  5
4FD
100
AcDbEntity
  8
2
370
    25
100
AcDbLine
 10
-238.023018
 20
-113.569893
 30
0.0
 11
-239.755466
 21
-115.302341
 31
0.0
  0
LINE
  5
4FE
100
AcDbEntity
  8
2
370
    25
100
AcDbLine
 10
-237.829019
 20
-113.658737
 30
0.0
 11
-239.42001
 21
-115.249728
 31
0.0
  0
LINE
  5
4FF
100
AcDbEntity
  8
2
370
    25
100
AcDbLine
 10
-237.696209
 20
-113.808769
 30
0.0
 11
-239.03397
 21
-115.14653
 31
0.0
  0
LINE
  5
500
100
AcDbEntity
  8
2
370
    25
100
AcDbLine
 10
-237.630472
 20
-114.025875
 30
0.0
 11
-238.550698
 21
-114.946101
 31
0.0
  0
LINE
  5
501
100
AcDbEntity
  8
2
370
    25
100
AcDbLine
 10
-243.616928
 20
-111.52705
 30
0.0
 11
-240.424735
 21
-108.334856
 31
0.0
  0
LINE
  5
502
100
AcDbEntity
  8
2
370
    25
100
AcDbLine
 10
-243.57383
 20
-111.201109
 30
0.0
 11
-240.750676
 21
-108.377955
 31
0.0
  0
LINE
  5
503
100
AcDbEntity
  8
2
370
    25
100
AcDbLine
 10
-243.485865
 20
-110.830302
 30
0.0
 11
-241.121483
 21
-108.46592
 31
0.0
  0
LINE
  5
504
100
AcDbEntity
  8
2
370
    25
100
AcDbLine
 10
-243.318366
 20
-110.37996
 30
0.0
 11
-241.571825
 21
-108.633419
 31
0.0
  0
LINE
  5
505
100
AcDbEntity
  8
2
370
    25
100
AcDbLine
 10
-242.882534
 20
-109.661285
 30
0.0
 11
-242.2905
 21
-109.069251
 31
0.0
  0
LINE
  5
506
100
AcDbEntity
  8
2
370
    50
100
AcDbLine
 10
-252.944
 20
-86.708021
 30
0.0
 11
-252.42941
 21
-86.708021
 31
0.0
  0
LINE
  5
507
100
AcDbEntity
  8
2
370
    50
100
AcDbLine
 10
-252.82941
 20
-91.708021
 30
0.0
 11
-252.42941
 21
-91.708021
 31
0.0
  0
LWPOLYLINE
  5
508
100
AcDbEntity
  8
2
370
    50
100
AcDbPolyline
 90
      114
 70
     0
 10
-250.12941
 20
-86.708021
 10
-250.196764
 20
-86.710779
 10
-250.263849
 20
-86.718848
 10
-250.330398
 20
-86.731921
 10
-250.524152
 20
-86.798111
 10
-250.585878
 20
-86.828142
 10
-250.645728
 20
-86.861649
 10
-250.703435
 20
-86.898323
 10
-250.769811
 20
-86.946299
 10
-250.832814
 20
-86.998099
 10
-250.892573
 20
-87.053395
 10
-251.053645
 20
-87.236986
 10
-251.10169
 20
-87.302993
 10
-251.147123
 20
-87.370858
 10
-251.19007
 20
-87.440254
 10
-251.226685
 20
-87.503765
 10
-251.261432
 20
-87.568196
 10
-251.294352
 20
-87.633494
 10
-251.382562
 20
-87.834052
 10
-251.455816
 20
-88.040475
 10
-251.477104
 20
-88.110336
 10
-251.496894
 20
-88.180633
 10
-251.515229
 20
-88.251313
 10
-251.533803
 20
-88.329633
 10
-251.550673
 20
-88.40832
 10
-251.565858
 20
-88.48734
 10
-251.601465
 20
-88.726067
 10
-251.622499
 20
-88.966594
 10
-251.62635
 20
-89.047014
 10
-251.628648
 20
-89.127501
 10
-251.62941
 20
-89.208021
 10
-251.628648
 20
-89.288542
 10
-251.62635
 20
-89.369028
 10
-251.622499
 20
-89.449449
 10
-251.601465
 20
-89.689976
 10
-251.565858
 20
-89.928703
 10
-251.550673
 20
-90.007723
 10
-251.533803
 20
-90.08641
 10
-251.515229
 20
-90.16473
 10
-251.496894
 20
-90.23541
 10
-251.477104
 20
-90.305707
 10
-251.455816
 20
-90.375567
 10
-251.382562
 20
-90.581991
 10
-251.294352
 20
-90.782549
 10
-251.261432
 20
-90.847847
 10
-251.226685
 20
-90.912278
 10
-251.19007
 20
-90.975788
 10
-251.147123
 20
-91.045185
 10
-251.10169
 20
-91.11305
 10
-251.053645
 20
-91.179057
 10
-250.892573
 20
-91.362648
 10
-250.832814
 20
-91.417944
 10
-250.769811
 20
-91.469744
 10
-250.703435
 20
-91.51772
 10
-250.645728
 20
-91.554394
 10
-250.585878
 20
-91.5879
 10
-250.524152
 20
-91.617932
 10
-250.330398
 20
-91.684121
 10
-250.263849
 20
-91.697195
 10
-250.196764
 20
-91.705264
 10
-250.12941
 20
-91.708021
 10
-250.062057
 20
-91.705264
 10
-249.994971
 20
-91.697195
 10
-249.928422
 20
-91.684121
 10
-249.734668
 20
-91.617932
 10
-249.672942
 20
-91.5879
 10
-249.613092
 20
-91.554394
 10
-249.555385
 20
-91.51772
 10
-249.48901
 20
-91.469744
 10
-249.426006
 20
-91.417944
 10
-249.366247
 20
-91.362648
 10
-249.205175
 20
-91.179057
 10
-249.15713
 20
-91.11305
 10
-249.111697
 20
-91.045185
 10
-249.06875
 20
-90.975788
 10
-249.020347
 20
-90.890901
 10
-248.975241
 20
-90.804408
 10
-248.933334
 20
-90.716438
 10
-248.825829
 20
-90.444938
 10
-248.795739
 20
-90.352332
 10
-248.768359
 20
-90.258887
 10
-248.743591
 20
-90.16473
 10
-248.719206
 20
-90.06022
 10
-248.697837
 20
-89.955078
 10
-248.679446
 20
-89.849383
 10
-248.641741
 20
-89.529769
 10
-248.634864
 20
-89.422651
 10
-248.630767
 20
-89.315376
 10
-248.62941
 20
-89.208021
 10
-248.630767
 20
-89.100667
 10
-248.634864
 20
-88.993392
 10
-248.641741
 20
-88.886274
 10
-248.679446
 20
-88.56666
 10
-248.697837
 20
-88.460965
 10
-248.719206
 20
-88.355823
 10
-248.743591
 20
-88.251313
 10
-248.768359
 20
-88.157155
 10
-248.795739
 20
-88.06371
 10
-248.825829
 20
-87.971105
 10
-248.933334
 20
-87.699605
 10
-248.975241
 20
-87.611635
 10
-249.020347
 20
-87.525142
 10
-249.06875
 20
-87.440254
 10
-249.134095
 20
-87.336714
 10
-249.205175
 20
-87.236986
 10
-249.282416
 20
-87.142178
 10
-249.366247
 20
-87.053395
 10
-249.457094
 20
-86.971741
 10
-249.555385
 20
-86.898323
 10
-249.660814
 20
-86.834576
 10
-249.772493
 20
-86.781886
 10
-249.888861
 20
-86.742041
 10
-250.008354
 20
-86.716824
 10
-250.12941
 20
-86.708021
  0
LWPOLYLINE
  5
57C
100
AcDbEntity
  8
2
370
    50
100
AcDbPolyline
 90
      114
 70
     0
 10
-250.12941
 20
-87.708021
 10
-250.164012
 20
-87.712323
 10
-250.19815
 20
-87.724323
 10
-250.231357
 20
-87.742667
 10
-250.26317
 20
-87.765998
 10
-250.293123
 20
-87.792962
 10
-250.320752
 20
-87.822202
 10
-250.347761
 20
-87.855267
 10
-250.371789
 20
-87.889323
 10
-250.39315
 20
-87.924275
 10
-250.444383
 20
-88.033533
 10
-250.458229
 20
-88.071097
 10
-250.470984
 20
-88.109072
 10
-250.482964
 20
-88.147361
 10
-250.494756
 20
-88.187003
 10
-250.506057
 20
-88.22686
 10
-250.516864
 20
-88.266918
 10
-250.546289
 20
-88.388144
 10
-250.571147
 20
-88.510638
 10
-250.578403
 20
-88.551681
 10
-250.585139
 20
-88.592806
 10
-250.59135
 20
-88.633996
 10
-250.596618
 20
-88.672067
 10
-250.601448
 20
-88.710179
 10
-250.605851
 20
-88.748329
 10
-250.616608
 20
-88.862977
 10
-250.62392
 20
-88.97786
 10
-250.628088
 20
-89.092902
 10
-250.62883
 20
-89.13127
 10
-250.629267
 20
-89.169644
 10
-250.62941
 20
-89.208021
 10
-250.629267
 20
-89.246399
 10
-250.62883
 20
-89.284773
 10
-250.628088
 20
-89.323141
 10
-250.62392
 20
-89.438182
 10
-250.616608
 20
-89.553066
 10
-250.605851
 20
-89.667714
 10
-250.601448
 20
-89.705864
 10
-250.596618
 20
-89.743975
 10
-250.59135
 20
-89.782047
 10
-250.585139
 20
-89.823237
 10
-250.578403
 20
-89.864362
 10
-250.571147
 20
-89.905405
 10
-250.546289
 20
-90.027899
 10
-250.516864
 20
-90.149125
 10
-250.506057
 20
-90.189183
 10
-250.494756
 20
-90.22904
 10
-250.482964
 20
-90.268682
 10
-250.470984
 20
-90.306971
 10
-250.458229
 20
-90.344946
 10
-250.444383
 20
-90.38251
 10
-250.39315
 20
-90.491768
 10
-250.371789
 20
-90.52672
 10
-250.347761
 20
-90.560776
 10
-250.320752
 20
-90.593841
 10
-250.293123
 20
-90.623081
 10
-250.26317
 20
-90.650045
 10
-250.231357
 20
-90.673376
 10
-250.19815
 20
-90.69172
 10
-250.164012
 20
-90.70372
 10
-250.12941
 20
-90.708021
 10
-250.094808
 20
-90.70372
 10
-250.06067
 20
-90.69172
 10
-250.027463
 20
-90.673376
 10
-249.99565
 20
-90.650045
 10
-249.965697
 20
-90.623081
 10
-249.938068
 20
-90.593841
 10
-249.911059
 20
-90.560776
 10
-249.887031
 20
-90.52672
 10
-249.865671
 20
-90.491768
 10
-249.814437
 20
-90.38251
 10
-249.800591
 20
-90.344946
 10
-249.787836
 20
-90.306971
 10
-249.775857
 20
-90.268682
 10
-249.760243
 20
-90.215777
 10
-249.745503
 20
-90.162499
 10
-249.731646
 20
-90.108882
 10
-249.695446
 20
-89.946352
 10
-249.685197
 20
-89.891734
 10
-249.675869
 20
-89.836953
 10
-249.66747
 20
-89.782047
 10
-249.660954
 20
-89.734451
 10
-249.655118
 20
-89.686793
 10
-249.649941
 20
-89.639078
 10
-249.638145
 20
-89.495649
 10
-249.631496
 20
-89.351912
 10
-249.630323
 20
-89.303958
 10
-249.629635
 20
-89.255993
 10
-249.62941
 20
-89.208021
 10
-249.629635
 20
-89.16005
 10
-249.630323
 20
-89.112085
 10
-249.631496
 20
-89.064131
 10
-249.638145
 20
-88.920394
 10
-249.649941
 20
-88.776965
 10
-249.655118
 20
-88.72925
 10
-249.660954
 20
-88.681592
 10
-249.66747
 20
-88.633996
 10
-249.675869
 20
-88.579089
 10
-249.685197
 20
-88.524309
 10
-249.695446
 20
-88.469691
 10
-249.731646
 20
-88.307161
 10
-249.745503
 20
-88.253544
 10
-249.760243
 20
-88.200266
 10
-249.775857
 20
-88.147361
 10
-249.794097
 20
-88.090039
 10
-249.814437
 20
-88.033533
 10
-249.83794
 20
-87.978169
 10
-249.865671
 20
-87.924275
 10
-249.898692
 20
-87.872177
 10
-249.938068
 20
-87.822202
 10
-249.980412
 20
-87.779111
 10
-250.027463
 20
-87.742667
 10
-250.077652
 20
-87.717445
 10
-250.12941
 20
-87.708021
  0
LINE
  5
5F0
100
AcDbEntity
  8
2
370
    50
100
AcDbLine
 10
-252.12941
 20
-87.008021
 30
0.0
 11
-252.12941
 21
-89.708021
 31
0.0
  0
LINE
  5
5F1
100
AcDbEntity
  8
2
370
    50
100
AcDbLine
 10
-253.12941
 20
-87.826055
 30
0.0
 11
-253.12941
 21
-89.608021
 31
0.0
  0
LINE
  5
5F2
100
AcDbEntity
  8
2
370
    50
100
AcDbLine
 10
-252.12941
 20
-90.708021
 30
0.0
 11
-251.92941
 21
-90.708021
 31
0.0
  0
LINE
  5
5F3
100
AcDbEntity
  8
2
370
    50
100
AcDbLine
 10
-253.90859
 20
-89.708021
 30
0.0
 11
-253.22941
 21
-89.708021
 31
0.0
  0
LINE
  5
5F4
100
AcDbEntity
  8
2
370
    50
100
AcDbLine
 10
-253.212328
 20
-86.873857
 30
0.0
 11
-254.597738
 21
-89.644678
 31
0.0
  0
LINE
  5
5F5
100
AcDbEntity
  8
2
370
    50
100
AcDbLine
 10
-253.12941
 20
-87.826055
 30
0.0
 11
-253.998032
 21
-89.5633
 31
0.0
  0
ARC
  5
5F6
100
AcDbEntity
  8
2
370
    50
100
AcDbCircle
 10
-253.90859
 20
-89.608021
 30
0.0
 40
0.1
100
AcDbArc
 50
153.434949
 51
270.0
  0
ARC
  5
5F7
100
AcDbEntity
  8
2
370
    50
100
AcDbCircle
 10
-253.22941
 20
-89.608021
 30
0.0
 40
0.1
100
AcDbArc
 50
270.0
 51
360.0
  0
LINE
  5
5F8
100
AcDbEntity
  8
2
370
    50
100
AcDbLine
 10
-252.12941
 20
-89.708021
 30
0.0
 11
-251.92941
 21
-89.708021
 31
0.0
  0
LINE
  5
5F9
100
AcDbEntity
  8
2
370
    50
100
AcDbLine
 10
-252.12941
 20
-91.408021
 30
0.0
 11
-252.12941
 21
-90.708021
 31
0.0
  0
LINE
  5
5FA
100
AcDbEntity
  8
2
370
    50
100
AcDbLine
 10
-253.12941
 20
-91.408021
 30
0.0
 11
-253.12941
 21
-90.708021
 31
0.0
  0
LINE
  5
5FB
100
AcDbEntity
  8
2
370
    50
100
AcDbLine
 10
-254.32941
 20
-90.708021
 30
0.0
 11
-253.12941
 21
-90.708021
 31
0.0
  0
LINE
  5
5FC
100
AcDbEntity
  8
2
370
    50
100
AcDbLine
 10
-251.62941
 20
-90.008021
 30
0.0
 11
-251.62941
 21
-90.408021
 31
0.0
  0
ARC
  5
5FD
100
AcDbEntity
  8
2
370
    50
100
AcDbCircle
 10
-252.944
 20
-87.008021
 30
0.0
 40
0.3
100
AcDbArc
 50
90.0
 51
153.434949
  0
ARC
  5
5FE
100
AcDbEntity
  8
2
370
    50
100
AcDbCircle
 10
-252.42941
 20
-87.008021
 30
0.0
 40
0.3
100
AcDbArc
 50
0.0
 51
90.0
  0
ARC
  5
5FF
100
AcDbEntity
  8
2
370
    50
100
AcDbCircle
 10
-254.32941
 20
-90.408021
 30
0.0
 40
0.3
100
AcDbArc
 50
180.0
 51
270.0
  0
ARC
  5
600
100
AcDbEntity
  8
2
370
    50
100
AcDbCircle
 10
-251.92941
 20
-90.008021
 30
0.0
 40
0.3
100
AcDbArc
 50
0.0
 51
90.0
  0
ARC
  5
601
100
AcDbEntity
  8
2
370
    50
100
AcDbCircle
 10
-251.92941
 20
-90.408021
 30
0.0
 40
0.3
100
AcDbArc
 50
270.0
 51
360.0
  0
ARC
  5
602
100
AcDbEntity
  8
2
370
    50
100
AcDbCircle
 10
-252.82941
 20
-91.408021
 30
0.0
 40
0.3
100
AcDbArc
 50
180.0
 51
270.0
  0
ARC
  5
603
100
AcDbEntity
  8
2
370
    50
100
AcDbCircle
 10
-252.42941
 20
-91.408021
 30
0.0
 40
0.3
100
AcDbArc
 50
270.0
 51
360.0
  0
LINE
  5
604
100
AcDbEntity
  8
2
370
    25
100
AcDbLine
 10
-254.452841
 20
-90.681453
 30
0.0
 11
-253.47941
 21
-89.708021
 31
0.0
  0
LINE
  5
605
100
AcDbEntity
  8
2
370
    25
100
AcDbLine
 10
-253.12941
 20
-89.358021
 30
0.0
 11
-252.12941
 21
-88.358021
 31
0.0
  0
LINE
  5
606
100
AcDbEntity
  8
2
370
    25
100
AcDbLine
 10
-254.196567
 20
-90.708021
 30
0.0
 11
-253.187242
 21
-89.698696
 31
0.0
  0
LINE
  5
607
100
AcDbEntity
  8
2
370
    25
100
AcDbLine
 10
-253.138736
 20
-89.65019
 30
0.0
 11
-252.12941
 21
-88.640864
 31
0.0
  0
LINE
  5
608
100
AcDbEntity
  8
2
370
    25
100
AcDbLine
 10
-253.913725
 20
-90.708021
 30
0.0
 11
-252.12941
 21
-88.923707
 31
0.0
  0
LINE
  5
609
100
AcDbEntity
  8
2
370
    25
100
AcDbLine
 10
-253.630882
 20
-90.708021
 30
0.0
 11
-252.12941
 21
-89.20655
 31
0.0
  0
LINE
  5
60A
100
AcDbEntity
  8
2
370
    25
100
AcDbLine
 10
-253.348039
 20
-90.708021
 30
0.0
 11
-252.12941
 21
-89.489392
 31
0.0
  0
LINE
  5
60B
100
AcDbEntity
  8
2
370
    25
100
AcDbLine
 10
-253.12941
 20
-90.772235
 30
0.0
 11
-252.065197
 21
-89.708021
 31
0.0
  0
LINE
  5
60C
100
AcDbEntity
  8
2
370
    25
100
AcDbLine
 10
-253.12941
 20
-91.055078
 30
0.0
 11
-251.808013
 21
-89.733681
 31
0.0
  0
LINE
  5
60D
100
AcDbEntity
  8
2
370
    25
100
AcDbLine
 10
-253.12941
 20
-91.33792
 30
0.0
 11
-251.662516
 21
-89.871026
 31
0.0
  0
LINE
  5
60E
100
AcDbEntity
  8
2
370
    25
100
AcDbLine
 10
-253.080636
 20
-91.571989
 30
0.0
 11
-251.62941
 21
-90.120763
 31
0.0
  0
LINE
  5
60F
100
AcDbEntity
  8
2
370
    25
100
AcDbLine
 10
-252.919864
 20
-91.69406
 30
0.0
 11
-252.12941
 21
-90.903606
 31
0.0
  0
LINE
  5
610
100
AcDbEntity
  8
2
370
    25
100
AcDbLine
 10
-251.933826
 20
-90.708021
 30
0.0
 11
-251.62941
 21
-90.403606
 31
0.0
  0
LINE
  5
611
100
AcDbEntity
  8
2
370
    25
100
AcDbLine
 10
-252.650983
 20
-91.708021
 30
0.0
 11
-252.12941
 21
-91.186449
 31
0.0
  0
LINE
  5
612
100
AcDbEntity
  8
2
370
    25
100
AcDbLine
 10
-252.36
 20
-91.699881
 30
0.0
 11
-252.13755
 21
-91.477431
 31
0.0
  0
LINE
  5
613
100
AcDbEntity
  8
2
370
    25
100
AcDbLine
 10
-254.597297
 20
-90.543065
 30
0.0
 11
-253.762253
 21
-89.708021
 31
0.0
  0
LINE
  5
614
100
AcDbEntity
  8
2
370
    25
100
AcDbLine
 10
-253.12941
 20
-89.075179
 30
0.0
 11
-252.12941
 21
-88.075179
 31
0.0
  0
LINE
  5
615
100
AcDbEntity
  8
2
370
    25
100
AcDbLine
 10
-254.62941
 20
-90.292336
 30
0.0
 11
-253.995157
 21
-89.658083
 31
0.0
  0
LINE
  5
616
100
AcDbEntity
  8
2
370
    25
100
AcDbLine
 10
-253.12941
 20
-88.792336
 30
0.0
 11
-252.12941
 21
-87.792336
 31
0.0
  0
LINE
  5
617
100
AcDbEntity
  8
2
370
    25
100
AcDbLine
 10
-254.62941
 20
-90.009493
 30
0.0
 11
-253.812848
 21
-89.192931
 31
0.0
  0
LINE
  5
618
100
AcDbEntity
  8
2
370
    25
100
AcDbLine
 10
-253.12941
 20
-88.509493
 30
0.0
 11
-252.12941
 21
-87.509493
 31
0.0
  0
LINE
  5
619
100
AcDbEntity
  8
2
370
    25
100
AcDbLine
 10
-254.623786
 20
-89.721027
 30
0.0
 11
-253.530005
 21
-88.627246
 31
0.0
  0
LINE
  5
61A
100
AcDbEntity
  8
2
370
    25
100
AcDbLine
 10
-253.12941
 20
-88.226651
 30
0.0
 11
-252.12941
 21
-87.226651
 31
0.0
  0
LINE
  5
61B
100
AcDbEntity
  8
2
370
    25
100
AcDbLine
 10
-252.135162
 20
-86.949559
 30
0.0
 11
-253.12941
 21
-87.943808
 31
0.0
  0
LINE
  5
61C
100
AcDbEntity
  8
2
370
    25
100
AcDbLine
 10
-253.247163
 20
-88.06156
 30
0.0
 11
-254.365197
 21
-89.179594
 31
0.0
  0
LINE
  5
61D
100
AcDbEntity
  8
2
370
    25
100
AcDbLine
 10
-252.242115
 20
-86.77367
 30
0.0
 11
-254.082354
 21
-88.613909
 31
0.0
  0
LINE
  5
61E
100
AcDbEntity
  8
2
370
    25
100
AcDbLine
 10
-252.459309
 20
-86.708021
 30
0.0
 11
-253.799511
 21
-88.048223
 31
0.0
  0
LINE
  5
61F
100
AcDbEntity
  8
2
370
    25
100
AcDbLine
 10
-252.742152
 20
-86.708021
 30
0.0
 11
-253.516668
 21
-87.482538
 31
0.0
  0
LINE
  5
620
100
AcDbEntity
  8
2
370
    25
100
AcDbLine
 10
-253.041166
 20
-86.724193
 30
0.0
 11
-253.233826
 21
-86.916853
 31
0.0
  0
HATCH
  5
621
100
AcDbEntity
  8
2
370
    25
100
AcDbHatch
 10
0.0
 20
0.0
 30
0.0
210
0.0
220
0.0
230
1.0
  2
_U
 70
     0
 71
     1
 91
        2
 92
        1
 93
        8
 72
     1
 10
-250.12941000000001
 20
-86.708021000000002
 11
-251.19006999999999
 21
-87.440253999999996
 72
     1
 10
-251.19006999999999
 20
-87.440253999999996
 11
-251.62941000000001
 21
-89.208021000000002
 72
     1
 10
-251.62941000000001
 20
-89.208021000000002
 11
-251.19006999999999
 21
-90.975787999999994
 72
     1
 10
-251.19006999999999
 20
-90.975787999999994
 11
-250.12941000000001
 21
-91.708021000000002
 72
     1
 10
-250.12941000000001
 20
-91.708021000000002
 11
-249.06874999999999
 21
-90.975787999999994
 72
     1
 10
-249.06874999999999
 20
-90.975787999999994
 11
-248.62941000000001
 21
-89.208021000000002
 72
     1
 10
-248.62941000000001
 20
-89.208021000000002
 11
-249.06874999999999
 21
-87.440253999999996
 72
     1
 10
-249.06874999999999
 20
-87.440253999999996
 11
-250.12941000000001
 21
-86.708021000000002
 97
        8
330
0
330
0
330
0
330
0
330
0
330
0
330
0
330
0
 92
        0
 93
        9
 72
     1
 10
-250.12941000000001
 20
-87.708021000000002
 11
-250.48296400000001
 21
-88.147361000000004
 72
     1
 10
-250.48296400000001
 20
-88.147361000000004
 11
-250.62941000000001
 21
-89.208021000000002
 72
     1
 10
-250.62941000000001
 20
-89.208021000000002
 11
-250.59135000000001
 21
-89.782047000000006
 72
     1
 10
-250.59135000000001
 20
-89.782047000000006
 11
-250.320752
 21
-90.593840999999998
 72
     1
 10
-250.320752
 20
-90.593840999999998
 11
-249.775857
 21
-90.268681999999998
 72
     1
 10
-249.775857
 20
-90.268681999999998
 11
-249.62941000000001
 21
-89.208021000000002
 72
     1
 10
-249.62941000000001
 20
-89.208021000000002
 11
-249.66747000000001
 21
-88.633995999999996
 72
     1
 10
-249.66747000000001
 20
-88.633995999999996
 11
-249.93806799999999
 21
-87.822202000000004
 72
     1
 10
-249.93806799999999
 20
-87.822202000000004
 11
-250.12941000000001
 21
-87.708021000000002
 97
        9
330
0
330
0
330
0
330
0
330
0
330
0
330
0
330
0
330
0
 75
     0
 76
     0
 52
45.0
 41
1.0
 77
     0
 78
     1
 53
45.0
 43
0.0
 44
0.0
 45
-0.141421
 46
0.141421
 79
     0
 98
        1
 10
0.0
 20
0.0
  0
LINE
  5
622
100
AcDbEntity
  8
2
370
    50
100
AcDbLine
 10
-254.62941
 20
-89.778842
 30
0.0
 11
-254.62941
 21
-90.408021
 31
0.0
  0
ARC
  5
623
100
AcDbEntity
  8
2
370
    50
100
AcDbCircle
 10
-254.32941
 20
-89.778842
 30
0.0
 40
0.3
100
AcDbArc
 50
153.434949
 51
180.0
  0
LINE
  5
624
100
AcDbEntity
  8
2
370
    50
100
AcDbLine
 10
-251.12941
 20
-94.208021
 30
0.0
 11
-252.12941
 21
-94.208021
 31
0.0
  0
LINE
  5
625
100
AcDbEntity
  8
2
370
    50
100
AcDbLine
 10
-251.12941
 20
-130.260197
 30
0.0
 11
-251.12941
 21
-94.208021
 31
0.0
  0
LINE
  5
626
100
AcDbEntity
  8
2
370
    50
100
AcDbLine
 10
-252.12941
 20
-130.260197
 30
0.0
 11
-252.12941
 21
-94.208021
 31
0.0
  0
HATCH
  5
627
100
AcDbEntity
  8
2
370
    25
100
AcDbHatch
 10
0.0
 20
0.0
 30
0.0
210
0.0
220
0.0
230
1.0
  2
_U
 70
     0
 71
     1
 91
        1
 92
        1
 93
        4
 72
     1
 10
-251.12941000000001
 20
-130.26019700000001
 11
-251.12941000000001
 21
-94.208021000000002
 72
     1
 10
-251.12941000000001
 20
-94.208021000000002
 11
-252.12941000000001
 21
-94.208021000000002
 72
     1
 10
-252.12941000000001
 20
-94.208021000000002
 11
-252.12941000000001
 21
-130.26019700000001
 72
     1
 10
-252.12941000000001
 20
-130.26019700000001
 11
-251.12941000000001
 21
-130.26019700000001
 97
        4
330
0
330
0
330
0
330
0
 75
     0
 76
     0
 52
45.0
 41
1.0
 77
     0
 78
     1
 53
45.0
 43
0.0
 44
0.0
 45
-0.141421
 46
0.141421
 79
     0
 98
        1
 10
0.0
 20
0.0
  0
LINE
  5
628
100
AcDbEntity
  8
2
370
    50
100
AcDbLine
 10
-247.62941
 20
-86.760197
 30
0.0
 11
-247.62941
 21
-108.260197
 31
0.0
  0
LINE
  5
629
100
AcDbEntity
  8
2
370
    50
100
AcDbLine
 10
-285.647413
 20
-130.260197
 30
0.0
 11
-248.12941
 21
-130.260197
 31
0.0
  0
LINE
  5
62A
100
AcDbEntity
  8
2
370
    50
100
AcDbLine
 10
-290.12941
 20
-97.25983
 30
0.0
 11
-290.12941
 21
-119.260564
 31
0.0
  0
LINE
  5
62B
100
AcDbEntity
  8
2
370
    50
100
AcDbLine
 10
-247.62941
 20
-88.560197
 30
0.0
 11
-247.62941
 21
-108.260197
 31
0.0
  0
LINE
  5
62C
100
AcDbEntity
  8
2
370
    50
100
AcDbLine
 10
-247.62941
 20
-129.760197
 30
0.0
 11
-247.62941
 21
-108.260197
 31
0.0
  0
LINE
  5
62D
100
AcDbEntity
  8
2
370
    50
100
AcDbLine
 10
-247.62941
 20
-127.960197
 30
0.0
 11
-247.62941
 21
-108.260197
 31
0.0
  0
LINE
  5
62E
100
AcDbEntity
  8
2
370
    50
100
AcDbLine
 10
-290.12941
 20
-97.25983
 30
0.0
 11
-287.579265
 21
-87.742559
 31
0.0
  0
LINE
  5
62F
100
AcDbEntity
  8
2
370
    50
100
AcDbLine
 10
-290.12941
 20
-119.260564
 30
0.0
 11
-287.579265
 21
-128.777835
 31
0.0
  0
ARC
  5
630
100
AcDbEntity
  8
2
370
    50
100
AcDbCircle
 10
-285.647413
 20
-88.260197
 30
0.0
 40
2.0
100
AcDbArc
 50
124.403495
 51
165.0
  0
ARC
  5
631
100
AcDbEntity
  8
2
370
    50
100
AcDbCircle
 10
-285.647413
 20
-128.260197
 30
0.0
 40
2.0
100
AcDbArc
 50
195.0
 51
270.0
  0
ARC
  5
632
100
AcDbEntity
  8
2
370
    50
100
AcDbCircle
 10
-248.12941
 20
-86.760197
 30
0.0
 40
0.5
100
AcDbArc
 50
0.0
 51
90.0
  0
ARC
  5
633
100
AcDbEntity
  8
2
370
    50
100
AcDbCircle
 10
-248.12941
 20
-129.760197
 30
0.0
 40
0.5
100
AcDbArc
 50
270.0
 51
360.0
  0
LINE
  5
634
100
AcDbEntity
  8
2
370
    50
100
AcDbLine
 10
-247.62941
 20
-89.460197
 30
0.0
 11
-246.62941
 21
-89.460197
 31
0.0
  0
LINE
  5
635
100
AcDbEntity
  8
2
370
    50
100
AcDbLine
 10
-247.62941
 20
-127.060197
 30
0.0
 11
-246.62941
 21
-127.060197
 31
0.0
  0
ELLIPSE
  5
636
100
AcDbEntity
  8
2
370
    50
100
AcDbEllipse
 10
-260.62941
 20
-88.46159
 30
0.0
 11
3.5
 21
0.0
 31
0.0
210
0.0
220
0.0
230
1.0
 40
0.763714
 41
0.0
 42
6.2831849999999996
  0
LINE
  5
637
100
AcDbEntity
  8
2
370
    50
100
AcDbLine
 10
-257.12941
 20
-88.46159
 30
0.0
 11
-257.12941
 21
-92.704231
 31
0.0
  0
LINE
  5
638
100
AcDbEntity
  8
2
370
    50
100
AcDbLine
 10
-264.12941
 20
-88.46159
 30
0.0
 11
-264.12941
 21
-92.704231
 31
0.0
  0
ELLIPSE
  5
639
100
AcDbEntity
  8
2
370
    50
100
AcDbEllipse
 10
-260.62941
 20
-92.704231
 30
0.0
 11
3.5
 21
0.0
 31
0.0
210
0.0
220
0.0
230
1.0
 40
0.763714
 41
3.1415929999999999
 42
0.0
  0
LINE
  5
63A
100
AcDbEntity
  8
2
370
    50
100
AcDbLine
 10
-270.659432
 20
-86.260197
 30
0.0
 11
-262.614678
 21
-86.260197
 31
0.0
  0
LINE
  5
63B
100
AcDbEntity
  8
2
370
    50
100
AcDbLine
 10
-258.644142
 20
-86.260197
 30
0.0
 11
-248.12941
 21
-86.260197
 31
0.0
  0
LINE
  5
63C
100
AcDbEntity
  8
2
370
    50
100
AcDbLine
 10
-283.779273
 20
-88.243789
 30
0.0
 11
-274.296698
 21
-88.243789
 31
0.0
  0
LINE
  5
63D
100
AcDbEntity
  8
2
370
    50
100
AcDbLine
 10
-284.626806
 20
-83.294041
 30
0.0
 11
-272.958461
 21
-83.294041
 31
0.0
  0
LINE
  5
63E
100
AcDbEntity
  8
2
370
    50
100
AcDbLine
 10
-271.392653
 20
-88.243789
 30
0.0
 11
-270.568673
 21
-91.577095
 31
0.0
  0
ARC
  5
63F
100
AcDbEntity
  8
2
370
    50
100
AcDbCircle
 10
-265.714775
 20
-90.377232
 30
0.0
 40
5.0
100
AcDbArc
 50
193.884933
 51
270.0
  0
LINE
  5
640
100
AcDbEntity
  8
2
370
    50
100
AcDbLine
 10
-286.426078
 20
-88.243789
 30
0.0
 11
-287.182067
 21
-95.378316
 31
0.0
  0
LINE
  5
641
100
AcDbEntity
  8
2
370
    50
100
AcDbLine
 10
-271.016902
 20
-84.814096
 30
0.0
 11
-270.568673
 21
-86.627348
 31
0.0
  0
ARC
  5
642
100
AcDbEntity
  8
2
370
    50
100
AcDbCircle
 10
-265.714775
 20
-85.427484
 30
0.0
 40
5.0
100
AcDbArc
 50
193.884933
 51
270.0
  0
LINE
  5
643
100
AcDbEntity
  8
2
370
    50
100
AcDbLine
 10
-286.615671
 20
-85.083297
 30
0.0
 11
-287.182067
 21
-90.428569
 31
0.0
  0
ARC
  5
644
100
AcDbEntity
  8
2
370
    50
100
AcDbCircle
 10
-272.958461
 20
-85.294041
 30
0.0
 40
2.0
100
AcDbArc
 50
13.884933
 51
90.0
  0
ARC
  5
645
100
AcDbEntity
  8
2
370
    50
100
AcDbCircle
 10
-284.626806
 20
-85.294041
 30
0.0
 40
2.0
100
AcDbArc
 50
90.0
 51
173.951392
  0
ARC
  5
646
100
AcDbEntity
  8
2
370
    50
100
AcDbCircle
 10
-284.426078
 20
-86.243789
 30
0.0
 40
2.0
100
AcDbArc
 50
188.117936
 51
243.547871
  0
ARC
  5
647
100
AcDbEntity
  8
2
370
    50
100
AcDbCircle
 10
-273.392653
 20
-86.243789
 30
0.0
 40
2.0
100
AcDbArc
 50
270.0
 51
337.467588
  0
LINE
  5
648
100
AcDbEntity
  8
2
370
    50
100
AcDbLine
 10
-287.182067
 20
-126.995142
 30
0.0
 11
-287.182067
 21
-95.378316
 31
0.0
  0
LINE
  5
649
100
AcDbEntity
  8
2
370
    50
100
AcDbLine
 10
-287.182067
 20
-90.428569
 30
0.0
 11
-287.182067
 21
-87.229211
 31
0.0
  0
LINE
  5
64A
100
AcDbEntity
  8
2
370
    25
100
AcDbLine
 10
-265.714775
 20
-95.377232
 30
0.0
 11
-286.499961
 21
-95.377232
 31
0.0
  0
LINE
  5
64B
100
AcDbEntity
  8
2
370
    50
100
AcDbLine
 10
-80.92941
 20
-130.260426
 30
0.0
 11
-80.92941
 21
-129.760197
 31
0.0
  0
LINE
  5
64C
100
AcDbEntity
  8
2
370
    50
100
AcDbLine
 10
-81.367393
 20
-130.814945
 30
0.0
 11
-92.367393
 21
-132.189945
 31
0.0
  0
ARC
  5
64D
100
AcDbEntity
  8
2
370
    50
100
AcDbCircle
 10
-81.42941
 20
-130.318806
 30
0.0
 40
0.5
100
AcDbArc
 50
277.125016
 51
360.0
  0
ARC
  5
64E
100
AcDbEntity
  8
2
370
    50
100
AcDbCircle
 10
-92.42941
 20
-131.693806
 30
0.0
 40
0.5
100
AcDbArc
 50
180.0
 51
277.125016
  0
LINE
  5
64F
100
AcDbEntity
  8
2
370
    50
100
AcDbLine
 10
-80.92941
 20
-86.201588
 30
0.0
 11
-80.92941
 21
-130.318806
 31
0.0
  0
LINE
  5
650
100
AcDbEntity
  8
2
370
    50
100
AcDbLine
 10
-81.367393
 20
-85.705449
 30
0.0
 11
-92.367393
 21
-84.330449
 31
0.0
  0
ARC
  5
651
100
AcDbEntity
  8
2
370
    50
100
AcDbCircle
 10
-81.42941
 20
-86.201588
 30
0.0
 40
0.5
100
AcDbArc
 50
0.0
 51
82.874984
  0
ARC
  5
652
100
AcDbEntity
  8
2
370
    50
100
AcDbCircle
 10
-92.42941
 20
-84.826588
 30
0.0
 40
0.5
100
AcDbArc
 50
82.874984
 51
180.0
  0
LINE
  5
653
100
AcDbEntity
  8
2
370
    50
100
AcDbLine
 10
-90.42941
 20
-101.260197
 30
0.0
 11
-83.42941
 21
-101.260197
 31
0.0
  0
LINE
  5
654
100
AcDbEntity
  8
2
370
    50
100
AcDbLine
 10
-83.42941
 20
-101.260197
 30
0.0
 11
-86.92941
 21
-107.322375
 31
0.0
  0
LINE
  5
655
100
AcDbEntity
  8
2
370
    50
100
AcDbLine
 10
-90.42941
 20
-101.260197
 30
0.0
 11
-86.92941
 21
-107.322375
 31
0.0
  0
LINE
  5
656
100
AcDbEntity
  8
2
370
    50
100
AcDbLine
 10
-90.42941
 20
-91.260197
 30
0.0
 11
-83.42941
 21
-91.260197
 31
0.0
  0
LINE
  5
657
100
AcDbEntity
  8
2
370
    50
100
AcDbLine
 10
-83.42941
 20
-91.260197
 30
0.0
 11
-86.92941
 21
-85.198019
 31
0.0
  0
LINE
  5
658
100
AcDbEntity
  8
2
370
    50
100
AcDbLine
 10
-90.42941
 20
-91.260197
 30
0.0
 11
-86.92941
 21
-85.198019
 31
0.0
  0
LINE
  5
659
100
AcDbEntity
  8
2
370
    50
100
AcDbLine
 10
-89.92941
 20
-99.260197
 30
0.0
 11
-83.92941
 21
-99.260197
 31
0.0
  0
ARC
  5
65A
100
AcDbEntity
  8
2
370
    50
100
AcDbCircle
 10
-83.92941
 20
-98.760197
 30
0.0
 40
0.5
100
AcDbArc
 50
270.0
 51
90.0
  0
ARC
  5
65B
100
AcDbEntity
  8
2
370
    50
100
AcDbCircle
 10
-89.92941
 20
-98.760197
 30
0.0
 40
0.5
100
AcDbArc
 50
90.0
 51
270.0
  0
LINE
  5
65C
100
AcDbEntity
  8
2
370
    50
100
AcDbLine
 10
-87.42941
 20
-93.760197
 30
0.0
 11
-87.42941
 21
-98.260197
 31
0.0
  0
ARC
  5
65D
100
AcDbEntity
  8
2
370
    50
100
AcDbCircle
 10
-86.92941
 20
-93.760197
 30
0.0
 40
0.5
100
AcDbArc
 50
0.0
 51
180.0
  0
LINE
  5
65E
100
AcDbEntity
  8
2
370
    50
100
AcDbLine
 10
-86.42941
 20
-98.260197
 30
0.0
 11
-83.92941
 21
-98.260197
 31
0.0
  0
LINE
  5
65F
100
AcDbEntity
  8
2
370
    50
100
AcDbLine
 10
-88.42941
 20
-95.260197
 30
0.0
 11
-88.42941
 21
-98.260197
 31
0.0
  0
LINE
  5
660
100
AcDbEntity
  8
2
370
    50
100
AcDbLine
 10
-89.42941
 20
-95.260197
 30
0.0
 11
-89.42941
 21
-98.260197
 31
0.0
  0
ARC
  5
661
100
AcDbEntity
  8
2
370
    50
100
AcDbCircle
 10
-88.92941
 20
-95.260197
 30
0.0
 40
0.5
100
AcDbArc
 50
0.0
 51
180.0
  0
LINE
  5
662
100
AcDbEntity
  8
2
370
    50
100
AcDbLine
 10
-89.92941
 20
-98.260197
 30
0.0
 11
-89.42941
 21
-98.260197
 31
0.0
  0
LINE
  5
663
100
AcDbEntity
  8
2
370
    50
100
AcDbLine
 10
-88.42941
 20
-98.260197
 30
0.0
 11
-87.42941
 21
-98.260197
 31
0.0
  0
LINE
  5
664
100
AcDbEntity
  8
2
370
    50
100
AcDbLine
 10
-86.42941
 20
-96.260197
 30
0.0
 11
-84.92941
 21
-96.260197
 31
0.0
  0
LINE
  5
665
100
AcDbEntity
  8
2
370
    50
100
AcDbLine
 10
-86.42941
 20
-95.260197
 30
0.0
 11
-84.92941
 21
-95.260197
 31
0.0
  0
ARC
  5
666
100
AcDbEntity
  8
2
370
    50
100
AcDbCircle
 10
-84.92941
 20
-95.760197
 30
0.0
 40
0.5
100
AcDbArc
 50
270.0
 51
90.0
  0
LINE
  5
667
100
AcDbEntity
  8
2
370
    50
100
AcDbLine
 10
-86.42941
 20
-93.760197
 30
0.0
 11
-86.42941
 21
-95.260197
 31
0.0
  0
LINE
  5
668
100
AcDbEntity
  8
2
370
    50
100
AcDbLine
 10
-86.42941
 20
-96.260197
 30
0.0
 11
-86.42941
 21
-98.260197
 31
0.0
  0
LINE
  5
669
100
AcDbEntity
  8
2
370
    50
100
AcDbLine
 10
-82.92941
 20
-108.322375
 30
0.0
 11
-82.92941
 21
-111.322375
 31
0.0
  0
LINE
  5
66A
100
AcDbEntity
  8
2
370
    50
100
AcDbLine
 10
-82.92941
 20
-108.322375
 30
0.0
 11
-89.42941
 21
-108.322375
 31
0.0
  0
LINE
  5
66B
100
AcDbEntity
  8
2
370
    50
100
AcDbLine
 10
-82.92941
 20
-111.322375
 30
0.0
 11
-89.42941
 21
-111.322375
 31
0.0
  0
ARC
  5
66C
100
AcDbEntity
  8
2
370
    50
100
AcDbCircle
 10
-89.42941
 20
-109.822375
 30
0.0
 40
1.5
100
AcDbArc
 50
90.0
 51
270.0
  0
LINE
  5
66D
100
AcDbEntity
  8
2
370
    50
100
AcDbLine
 10
-86.92941
 20
-111.822375
 30
0.0
 11
-86.92941
 21
-115.322375
 31
0.0
  0
LINE
  5
66E
100
AcDbEntity
  8
2
370
    50
100
AcDbLine
 10
-87.92941
 20
-111.822375
 30
0.0
 11
-87.92941
 21
-115.322375
 31
0.0
  0
LINE
  5
66F
100
AcDbEntity
  8
2
370
    50
100
AcDbLine
 10
-88.92941
 20
-111.822375
 30
0.0
 11
-88.92941
 21
-115.322375
 31
0.0
  0
LINE
  5
670
100
AcDbEntity
  8
2
370
    50
100
AcDbLine
 10
-89.92941
 20
-111.822375
 30
0.0
 11
-89.92941
 21
-115.322375
 31
0.0
  0
LINE
  5
671
100
AcDbEntity
  8
2
370
    50
100
AcDbLine
 10
-86.92941
 20
-111.822375
 30
0.0
 11
-87.92941
 21
-111.822375
 31
0.0
  0
LINE
  5
672
100
AcDbEntity
  8
2
370
    50
100
AcDbLine
 10
-88.92941
 20
-111.822375
 30
0.0
 11
-89.92941
 21
-111.822375
 31
0.0
  0
ARC
  5
673
100
AcDbEntity
  8
2
370
    50
100
AcDbCircle
 10
-87.42941
 20
-115.322375
 30
0.0
 40
0.5
100
AcDbArc
 50
180.0
 51
360.0
  0
ARC
  5
674
100
AcDbEntity
  8
2
370
    50
100
AcDbCircle
 10
-89.42941
 20
-115.322375
 30
0.0
 40
0.5
100
AcDbArc
 50
180.0
 51
360.0
  0
HATCH
  5
675
100
AcDbEntity
  8
2
370
    25
100
AcDbHatch
 10
0.0
 20
0.0
 30
0.0
210
0.0
220
0.0
230
1.0
  2
_U
 70
     0
 71
     1
 91
        1
 92
        1
 93
        3
 72
     1
 10
-90.429410000000004
 20
-91.260197000000005
 11
-83.429410000000004
 21
-91.260197000000005
 72
     1
 10
-83.429410000000004
 20
-91.260197000000005
 11
-86.929410000000004
 21
-85.198019000000002
 72
     1
 10
-86.929410000000004
 20
-85.198019000000002
 11
-90.429410000000004
 21
-91.260197000000005
 97
        3
330
0
330
0
330
0
 75
     0
 76
     0
 52
45.0
 41
1.0
 77
     0
 78
     1
 53
45.0
 43
0.0
 44
0.0
 45
-0.141421
 46
0.141421
 79
     0
 98
        1
 10
0.0
 20
0.0
  0
LINE
  5
676
100
AcDbEntity
  8
2
370
    25
100
AcDbLine
 10
-89.42941
 20
-97.510197
 30
0.0
 11
-88.42941
 21
-96.510197
 31
0.0
  0
LINE
  5
677
100
AcDbEntity
  8
2
370
    25
100
AcDbLine
 10
-87.42941
 20
-95.510197
 30
0.0
 11
-86.42941
 21
-94.510197
 31
0.0
  0
LINE
  5
678
100
AcDbEntity
  8
2
370
    25
100
AcDbLine
 10
-90.428396
 20
-98.792025
 30
0.0
 11
-89.896567
 21
-98.260197
 31
0.0
  0
LINE
  5
679
100
AcDbEntity
  8
2
370
    25
100
AcDbLine
 10
-89.42941
 20
-97.79304
 30
0.0
 11
-88.42941
 21
-96.79304
 31
0.0
  0
LINE
  5
67A
100
AcDbEntity
  8
2
370
    25
100
AcDbLine
 10
-87.42941
 20
-95.79304
 30
0.0
 11
-86.42941
 21
-94.79304
 31
0.0
  0
LINE
  5
67B
100
AcDbEntity
  8
2
370
    25
100
AcDbLine
 10
-90.362899
 20
-99.009371
 30
0.0
 11
-89.613725
 21
-98.260197
 31
0.0
  0
LINE
  5
67C
100
AcDbEntity
  8
2
370
    25
100
AcDbLine
 10
-89.42941
 20
-98.075882
 30
0.0
 11
-88.42941
 21
-97.075882
 31
0.0
  0
LINE
  5
67D
100
AcDbEntity
  8
2
370
    25
100
AcDbLine
 10
-87.42941
 20
-96.075882
 30
0.0
 11
-86.42941
 21
-95.075882
 31
0.0
  0
LINE
  5
67E
100
AcDbEntity
  8
2
370
    25
100
AcDbLine
 10
-90.23025
 20
-99.159565
 30
0.0
 11
-88.42941
 21
-97.358725
 31
0.0
  0
LINE
  5
67F
100
AcDbEntity
  8
2
370
    25
100
AcDbLine
 10
-87.42941
 20
-96.358725
 30
0.0
 11
-86.330882
 21
-95.260197
 31
0.0
  0
LINE
  5
680
100
AcDbEntity
  8
2
370
    25
100
AcDbLine
 10
-90.036448
 20
-99.248605
 30
0.0
 11
-88.42941
 21
-97.641568
 31
0.0
  0
LINE
  5
681
100
AcDbEntity
  8
2
370
    25
100
AcDbLine
 10
-87.42941
 20
-96.641568
 30
0.0
 11
-86.048039
 21
-95.260197
 31
0.0
  0
LINE
  5
682
100
AcDbEntity
  8
2
370
    25
100
AcDbLine
 10
-89.765197
 20
-99.260197
 30
0.0
 11
-88.42941
 21
-97.92441
 31
0.0
  0
LINE
  5
683
100
AcDbEntity
  8
2
370
    25
100
AcDbLine
 10
-87.42941
 20
-96.92441
 30
0.0
 11
-85.765197
 21
-95.260197
 31
0.0
  0
LINE
  5
684
100
AcDbEntity
  8
2
370
    25
100
AcDbLine
 10
-89.482354
 20
-99.260197
 30
0.0
 11
-88.42941
 21
-98.207253
 31
0.0
  0
LINE
  5
685
100
AcDbEntity
  8
2
370
    25
100
AcDbLine
 10
-87.42941
 20
-97.207253
 30
0.0
 11
-85.482354
 21
-95.260197
 31
0.0
  0
LINE
  5
686
100
AcDbEntity
  8
2
370
    25
100
AcDbLine
 10
-89.199511
 20
-99.260197
 30
0.0
 11
-88.199511
 21
-98.260197
 31
0.0
  0
LINE
  5
687
100
AcDbEntity
  8
2
370
    25
100
AcDbLine
 10
-87.42941
 20
-97.490096
 30
0.0
 11
-86.42941
 21
-96.490096
 31
0.0
  0
LINE
  5
688
100
AcDbEntity
  8
2
370
    25
100
AcDbLine
 10
-86.199511
 20
-96.260197
 30
0.0
 11
-85.199511
 21
-95.260197
 31
0.0
  0
LINE
  5
689
100
AcDbEntity
  8
2
370
    25
100
AcDbLine
 10
-88.916668
 20
-99.260197
 30
0.0
 11
-87.916668
 21
-98.260197
 31
0.0
  0
LINE
  5
68A
100
AcDbEntity
  8
2
370
    25
100
AcDbLine
 10
-87.42941
 20
-97.772939
 30
0.0
 11
-86.42941
 21
-96.772939
 31
0.0
  0
LINE
  5
68B
100
AcDbEntity
  8
2
370
    25
100
AcDbLine
 10
-85.916668
 20
-96.260197
 30
0.0
 11
-84.916827
 21
-95.260355
 31
0.0
  0
LINE
  5
68C
100
AcDbEntity
  8
2
370
    25
100
AcDbLine
 10
-88.633826
 20
-99.260197
 30
0.0
 11
-87.633826
 21
-98.260197
 31
0.0
  0
LINE
  5
68D
100
AcDbEntity
  8
2
370
    25
100
AcDbLine
 10
-87.42941
 20
-98.055781
 30
0.0
 11
-86.42941
 21
-97.055781
 31
0.0
  0
LINE
  5
68E
100
AcDbEntity
  8
2
370
    25
100
AcDbLine
 10
-85.633826
 20
-96.260197
 30
0.0
 11
-84.69316
 21
-95.319531
 31
0.0
  0
LINE
  5
68F
100
AcDbEntity
  8
2
370
    25
100
AcDbLine
 10
-88.350983
 20
-99.260197
 30
0.0
 11
-86.42941
 21
-97.338624
 31
0.0
  0
LINE
  5
690
100
AcDbEntity
  8
2
370
    25
100
AcDbLine
 10
-85.350983
 20
-96.260197
 30
0.0
 11
-84.538825
 21
-95.448038
 31
0.0
  0
LINE
  5
691
100
AcDbEntity
  8
2
370
    25
100
AcDbLine
 10
-88.06814
 20
-99.260197
 30
0.0
 11
-86.42941
 21
-97.621467
 31
0.0
  0
LINE
  5
692
100
AcDbEntity
  8
2
370
    25
100
AcDbLine
 10
-85.06814
 20
-96.260197
 30
0.0
 11
-84.444849
 21
-95.636906
 31
0.0
  0
LINE
  5
693
100
AcDbEntity
  8
2
370
    25
100
AcDbLine
 10
-87.785298
 20
-99.260197
 30
0.0
 11
-86.42941
 21
-97.904309
 31
0.0
  0
LINE
  5
694
100
AcDbEntity
  8
2
370
    25
100
AcDbLine
 10
-84.75323
 20
-96.228129
 30
0.0
 11
-84.461478
 21
-95.936377
 31
0.0
  0
LINE
  5
695
100
AcDbEntity
  8
2
370
    25
100
AcDbLine
 10
-87.502455
 20
-99.260197
 30
0.0
 11
-86.42941
 21
-98.187152
 31
0.0
  0
LINE
  5
696
100
AcDbEntity
  8
2
370
    25
100
AcDbLine
 10
-87.219612
 20
-99.260197
 30
0.0
 11
-86.219612
 21
-98.260197
 31
0.0
  0
LINE
  5
697
100
AcDbEntity
  8
2
370
    25
100
AcDbLine
 10
-86.936769
 20
-99.260197
 30
0.0
 11
-85.936769
 21
-98.260197
 31
0.0
  0
LINE
  5
698
100
AcDbEntity
  8
2
370
    25
100
AcDbLine
 10
-86.653927
 20
-99.260197
 30
0.0
 11
-85.653927
 21
-98.260197
 31
0.0
  0
LINE
  5
699
100
AcDbEntity
  8
2
370
    25
100
AcDbLine
 10
-86.371084
 20
-99.260197
 30
0.0
 11
-85.371084
 21
-98.260197
 31
0.0
  0
LINE
  5
69A
100
AcDbEntity
  8
2
370
    25
100
AcDbLine
 10
-86.088241
 20
-99.260197
 30
0.0
 11
-85.088241
 21
-98.260197
 31
0.0
  0
LINE
  5
69B
100
AcDbEntity
  8
2
370
    25
100
AcDbLine
 10
-85.805399
 20
-99.260197
 30
0.0
 11
-84.805399
 21
-98.260197
 31
0.0
  0
LINE
  5
69C
100
AcDbEntity
  8
2
370
    25
100
AcDbLine
 10
-85.522556
 20
-99.260197
 30
0.0
 11
-84.522556
 21
-98.260197
 31
0.0
  0
LINE
  5
69D
100
AcDbEntity
  8
2
370
    25
100
AcDbLine
 10
-85.239713
 20
-99.260197
 30
0.0
 11
-84.239713
 21
-98.260197
 31
0.0
  0
LINE
  5
69E
100
AcDbEntity
  8
2
370
    25
100
AcDbLine
 10
-84.95687
 20
-99.260197
 30
0.0
 11
-83.95687
 21
-98.260197
 31
0.0
  0
LINE
  5
69F
100
AcDbEntity
  8
2
370
    25
100
AcDbLine
 10
-84.674028
 20
-99.260197
 30
0.0
 11
-83.719995
 21
-98.306164
 31
0.0
  0
LINE
  5
6A0
100
AcDbEntity
  8
2
370
    25
100
AcDbLine
 10
-84.391185
 20
-99.260197
 30
0.0
 11
-83.557261
 21
-98.426273
 31
0.0
  0
LINE
  5
6A1
100
AcDbEntity
  8
2
370
    25
100
AcDbLine
 10
-84.108342
 20
-99.260197
 30
0.0
 11
-83.45387
 21
-98.605725
 31
0.0
  0
LINE
  5
6A2
100
AcDbEntity
  8
2
370
    25
100
AcDbLine
 10
-83.811365
 20
-99.246062
 30
0.0
 11
-83.443545
 21
-98.878242
 31
0.0
  0
LINE
  5
6A3
100
AcDbEntity
  8
2
370
    25
100
AcDbLine
 10
-89.42941
 20
-97.227354
 30
0.0
 11
-88.42941
 21
-96.227354
 31
0.0
  0
LINE
  5
6A4
100
AcDbEntity
  8
2
370
    25
100
AcDbLine
 10
-87.42941
 20
-95.227354
 30
0.0
 11
-86.42941
 21
-94.227354
 31
0.0
  0
LINE
  5
6A5
100
AcDbEntity
  8
2
370
    25
100
AcDbLine
 10
-89.42941
 20
-96.944511
 30
0.0
 11
-88.42941
 21
-95.944511
 31
0.0
  0
LINE
  5
6A6
100
AcDbEntity
  8
2
370
    25
100
AcDbLine
 10
-87.42941
 20
-94.944511
 30
0.0
 11
-86.42941
 21
-93.944511
 31
0.0
  0
LINE
  5
6A7
100
AcDbEntity
  8
2
370
    25
100
AcDbLine
 10
-86.437633
 20
-93.669891
 30
0.0
 11
-87.42941
 21
-94.661669
 31
0.0
  0
LINE
  5
6A8
100
AcDbEntity
  8
2
370
    25
100
AcDbLine
 10
-88.42941
 20
-95.661669
 30
0.0
 11
-89.42941
 21
-96.661669
 31
0.0
  0
LINE
  5
6A9
100
AcDbEntity
  8
2
370
    25
100
AcDbLine
 10
-86.521553
 20
-93.470969
 30
0.0
 11
-87.42941
 21
-94.378826
 31
0.0
  0
LINE
  5
6AA
100
AcDbEntity
  8
2
370
    25
100
AcDbLine
 10
-88.42941
 20
-95.378826
 30
0.0
 11
-89.42941
 21
-96.378826
 31
0.0
  0
LINE
  5
6AB
100
AcDbEntity
  8
2
370
    25
100
AcDbLine
 10
-86.66763
 20
-93.334203
 30
0.0
 11
-87.42941
 21
-94.095983
 31
0.0
  0
LINE
  5
6AC
100
AcDbEntity
  8
2
370
    25
100
AcDbLine
 10
-88.450371
 20
-95.116944
 30
0.0
 11
-89.42941
 21
-96.095983
 31
0.0
  0
LINE
  5
6AD
100
AcDbEntity
  8
2
370
    25
100
AcDbLine
 10
-86.879013
 20
-93.262743
 30
0.0
 11
-87.42941
 21
-93.813141
 31
0.0
  0
LINE
  5
6AE
100
AcDbEntity
  8
2
370
    25
100
AcDbLine
 10
-88.550377
 20
-94.934108
 30
0.0
 11
-89.42941
 21
-95.813141
 31
0.0
  0
LINE
  5
6AF
100
AcDbEntity
  8
2
370
    25
100
AcDbLine
 10
-88.710015
 20
-94.810902
 30
0.0
 11
-89.42941
 21
-95.530298
 31
0.0
  0
LINE
  5
6B0
100
AcDbEntity
  8
2
370
    25
100
AcDbLine
 10
-89.429243
 20
-95.247288
 30
0.0
 11
-88.942319
 21
-94.760363
 31
0.0
  0
HATCH
  5
6B1
100
AcDbEntity
  8
2
370
    25
100
AcDbHatch
 10
0.0
 20
0.0
 30
0.0
210
0.0
220
0.0
230
1.0
  2
_U
 70
     0
 71
     1
 91
        1
 92
        1
 93
        3
 72
     1
 10
-83.429410000000004
 20
-101.26019700000001
 11
-90.429410000000004
 21
-101.26019700000001
 72
     1
 10
-90.429410000000004
 20
-101.26019700000001
 11
-86.929410000000004
 21
-107.32237499999999
 72
     1
 10
-86.929410000000004
 20
-107.32237499999999
 11
-83.429410000000004
 21
-101.26019700000001
 97
        3
330
0
330
0
330
0
 75
     0
 76
     0
 52
45.0
 41
1.0
 77
     0
 78
     1
 53
45.0
 43
0.0
 44
0.0
 45
-0.141421
 46
0.141421
 79
     0
 98
        1
 10
0.0
 20
0.0
  0
HATCH
  5
6B2
100
AcDbEntity
  8
2
370
    25
100
AcDbHatch
 10
0.0
 20
0.0
 30
0.0
210
0.0
220
0.0
230
1.0
  2
_U
 70
     0
 71
     1
 91
        1
 92
        1
 93
        4
 72
     1
 10
-89.429410000000004
 20
-111.32237499999999
 11
-82.929410000000004
 21
-111.32237499999999
 72
     1
 10
-82.929410000000004
 20
-111.32237499999999
 11
-82.929410000000004
 21
-108.32237499999999
 72
     1
 10
-82.929410000000004
 20
-108.32237499999999
 11
-89.429410000000004
 21
-108.32237499999999
 72
     2
 10
-89.429410000000004
 20
-109.82237499999999
 40
1.5
 50
90.0
 51
270.0
 73
     1
 97
        4
330
0
330
0
330
0
330
0
 75
     0
 76
     0
 52
45.0
 41
1.0
 77
     0
 78
     1
 53
45.0
 43
0.0
 44
0.0
 45
-0.141421
 46
0.141421
 79
     0
 98
        1
 10
0.0
 20
0.0
  0
LINE
  5
6B3
100
AcDbEntity
  8
2
370
    25
100
AcDbLine
 10
-87.92941
 20
-114.572375
 30
0.0
 11
-86.92941
 21
-113.572375
 31
0.0
  0
LINE
  5
6B4
100
AcDbEntity
  8
2
370
    25
100
AcDbLine
 10
-87.92941
 20
-114.855217
 30
0.0
 11
-86.92941
 21
-113.855217
 31
0.0
  0
LINE
  5
6B5
100
AcDbEntity
  8
2
370
    25
100
AcDbLine
 10
-87.92941
 20
-115.13806
 30
0.0
 11
-86.92941
 21
-114.13806
 31
0.0
  0
LINE
  5
6B6
100
AcDbEntity
  8
2
370
    25
100
AcDbLine
 10
-87.921187
 20
-115.41268
 30
0.0
 11
-86.92941
 21
-114.420903
 31
0.0
  0
LINE
  5
6B7
100
AcDbEntity
  8
2
370
    25
100
AcDbLine
 10
-87.837267
 20
-115.611602
 30
0.0
 11
-86.92941
 21
-114.703746
 31
0.0
  0
LINE
  5
6B8
100
AcDbEntity
  8
2
370
    25
100
AcDbLine
 10
-87.691191
 20
-115.748369
 30
0.0
 11
-86.92941
 21
-114.986588
 31
0.0
  0
LINE
  5
6B9
100
AcDbEntity
  8
2
370
    25
100
AcDbLine
 10
-87.479807
 20
-115.819828
 30
0.0
 11
-86.92941
 21
-115.269431
 31
0.0
  0
LINE
  5
6BA
100
AcDbEntity
  8
2
370
    25
100
AcDbLine
 10
-87.92941
 20
-114.289532
 30
0.0
 11
-86.92941
 21
-113.289532
 31
0.0
  0
LINE
  5
6BB
100
AcDbEntity
  8
2
370
    25
100
AcDbLine
 10
-87.92941
 20
-114.006689
 30
0.0
 11
-86.92941
 21
-113.006689
 31
0.0
  0
LINE
  5
6BC
100
AcDbEntity
  8
2
370
    25
100
AcDbLine
 10
-87.92941
 20
-113.723847
 30
0.0
 11
-86.92941
 21
-112.723847
 31
0.0
  0
LINE
  5
6BD
100
AcDbEntity
  8
2
370
    25
100
AcDbLine
 10
-87.92941
 20
-113.441004
 30
0.0
 11
-86.92941
 21
-112.441004
 31
0.0
  0
LINE
  5
6BE
100
AcDbEntity
  8
2
370
    25
100
AcDbLine
 10
-87.92941
 20
-113.158161
 30
0.0
 11
-86.92941
 21
-112.158161
 31
0.0
  0
LINE
  5
6BF
100
AcDbEntity
  8
2
370
    25
100
AcDbLine
 10
-87.92941
 20
-112.875318
 30
0.0
 11
-86.92941
 21
-111.875318
 31
0.0
  0
LINE
  5
6C0
100
AcDbEntity
  8
2
370
    25
100
AcDbLine
 10
-87.159309
 20
-111.822375
 30
0.0
 11
-87.92941
 21
-112.592476
 31
0.0
  0
LINE
  5
6C1
100
AcDbEntity
  8
2
370
    25
100
AcDbLine
 10
-87.442152
 20
-111.822375
 30
0.0
 11
-87.92941
 21
-112.309633
 31
0.0
  0
LINE
  5
6C2
100
AcDbEntity
  8
2
370
    25
100
AcDbLine
 10
-87.724995
 20
-111.822375
 30
0.0
 11
-87.92941
 21
-112.02679
 31
0.0
  0
LINE
  5
6C3
100
AcDbEntity
  8
2
370
    25
100
AcDbLine
 10
-89.92941
 20
-114.572375
 30
0.0
 11
-88.92941
 21
-113.572375
 31
0.0
  0
LINE
  5
6C4
100
AcDbEntity
  8
2
370
    25
100
AcDbLine
 10
-89.92941
 20
-114.855217
 30
0.0
 11
-88.92941
 21
-113.855217
 31
0.0
  0
LINE
  5
6C5
100
AcDbEntity
  8
2
370
    25
100
AcDbLine
 10
-89.92941
 20
-115.13806
 30
0.0
 11
-88.92941
 21
-114.13806
 31
0.0
  0
LINE
  5
6C6
100
AcDbEntity
  8
2
370
    25
100
AcDbLine
 10
-89.921187
 20
-115.41268
 30
0.0
 11
-88.92941
 21
-114.420903
 31
0.0
  0
LINE
  5
6C7
100
AcDbEntity
  8
2
370
    25
100
AcDbLine
 10
-89.837267
 20
-115.611602
 30
0.0
 11
-88.92941
 21
-114.703746
 31
0.0
  0
LINE
  5
6C8
100
AcDbEntity
  8
2
370
    25
100
AcDbLine
 10
-89.691191
 20
-115.748369
 30
0.0
 11
-88.92941
 21
-114.986588
 31
0.0
  0
LINE
  5
6C9
100
AcDbEntity
  8
2
370
    25
100
AcDbLine
 10
-89.479807
 20
-115.819828
 30
0.0
 11
-88.92941
 21
-115.269431
 31
0.0
  0
LINE
  5
6CA
100
AcDbEntity
  8
2
370
    25
100
AcDbLine
 10
-89.92941
 20
-114.289532
 30
0.0
 11
-88.92941
 21
-113.289532
 31
0.0
  0
LINE
  5
6CB
100
AcDbEntity
  8
2
370
    25
100
AcDbLine
 10
-89.92941
 20
-114.006689
 30
0.0
 11
-88.92941
 21
-113.006689
 31
0.0
  0
LINE
  5
6CC
100
AcDbEntity
  8
2
370
    25
100
AcDbLine
 10
-89.92941
 20
-113.723847
 30
0.0
 11
-88.92941
 21
-112.723847
 31
0.0
  0
LINE
  5
6CD
100
AcDbEntity
  8
2
370
    25
100
AcDbLine
 10
-89.92941
 20
-113.441004
 30
0.0
 11
-88.92941
 21
-112.441004
 31
0.0
  0
LINE
  5
6CE
100
AcDbEntity
  8
2
370
    25
100
AcDbLine
 10
-89.92941
 20
-113.158161
 30
0.0
 11
-88.92941
 21
-112.158161
 31
0.0
  0
LINE
  5
6CF
100
AcDbEntity
  8
2
370
    25
100
AcDbLine
 10
-89.92941
 20
-112.875318
 30
0.0
 11
-88.92941
 21
-111.875318
 31
0.0
  0
LINE
  5
6D0
100
AcDbEntity
  8
2
370
    25
100
AcDbLine
 10
-89.159309
 20
-111.822375
 30
0.0
 11
-89.92941
 21
-112.592476
 31
0.0
  0
LINE
  5
6D1
100
AcDbEntity
  8
2
370
    25
100
AcDbLine
 10
-89.442152
 20
-111.822375
 30
0.0
 11
-89.92941
 21
-112.309633
 31
0.0
  0
LINE
  5
6D2
100
AcDbEntity
  8
2
370
    25
100
AcDbLine
 10
-89.724995
 20
-111.822375
 30
0.0
 11
-89.92941
 21
-112.02679
 31
0.0
  0
LINE
  5
6D3
100
AcDbEntity
  8
2
370
    50
100
AcDbLine
 10
-79.92941
 20
-123.260197
 30
0.0
 11
-80.92941
 21
-123.260197
 31
0.0
  0
LINE
  5
6D4
100
AcDbEntity
  8
2
370
    50
100
AcDbLine
 10
-79.92941
 20
-91.760197
 30
0.0
 11
-80.92941
 21
-91.760197
 31
0.0
  0
LINE
  5
6D5
100
AcDbEntity
  8
2
370
    50
100
AcDbLine
 10
-79.92941
 20
-108.260197
 30
0.0
 11
-79.92941
 21
-129.760197
 31
0.0
  0
LINE
  5
6D6
100
AcDbEntity
  8
2
370
    50
100
AcDbLine
 10
-79.42941
 20
-86.260197
 30
0.0
 11
-78.463353
 21
-86.260197
 31
0.0
  0
LINE
  5
6D7
100
AcDbEntity
  8
2
370
    50
100
AcDbLine
 10
-79.92941
 20
-86.760197
 30
0.0
 11
-79.92941
 21
-108.260197
 31
0.0
  0
ARC
  5
6D8
100
AcDbEntity
  8
2
370
    50
100
AcDbCircle
 10
-79.42941
 20
-86.760197
 30
0.0
 40
0.5
100
AcDbArc
 50
90.0
 51
180.0
  0
LINE
  5
6D9
100
AcDbEntity
  8
2
370
    50
100
AcDbLine
 10
-37.428951
 20
-119.260197
 30
0.0
 11
-37.428951
 21
-97.260197
 31
0.0
  0
LINE
  5
6DA
100
AcDbEntity
  8
2
370
    50
100
AcDbLine
 10
-37.42841
 20
-108.260197
 30
0.0
 11
-37.42841
 21
-119.260564
 31
0.0
  0
LINE
  5
6DB
100
AcDbEntity
  8
2
370
    50
100
AcDbLine
 10
-37.42841
 20
-108.260197
 30
0.0
 11
-37.42841
 21
-97.260564
 31
0.0
  0
LINE
  5
6DC
100
AcDbEntity
  8
2
370
    50
100
AcDbLine
 10
-37.428951
 20
-119.260197
 30
0.0
 11
-39.979194
 21
-128.777835
 31
0.0
  0
LINE
  5
6DD
100
AcDbEntity
  8
2
370
    50
100
AcDbLine
 10
-37.428951
 20
-97.260197
 30
0.0
 11
-39.979194
 21
-87.742559
 31
0.0
  0
ARC
  5
6DE
100
AcDbEntity
  8
2
370
    50
100
AcDbCircle
 10
-41.911046
 20
-88.260197
 30
0.0
 40
2.0
100
AcDbArc
 50
15.0
 51
90.921024
  0
LINE
  5
6DF
100
AcDbEntity
  8
2
370
    50
100
AcDbLine
 10
-79.42941
 20
-130.260197
 30
0.0
 11
-41.911046
 21
-130.260197
 31
0.0
  0
ARC
  5
6E0
100
AcDbEntity
  8
2
370
    50
100
AcDbCircle
 10
-79.42941
 20
-129.760197
 30
0.0
 40
0.5
100
AcDbArc
 50
180.0
 51
270.0
  0
ARC
  5
6E1
100
AcDbEntity
  8
2
370
    50
100
AcDbCircle
 10
-41.911046
 20
-128.260197
 30
0.0
 40
2.0
100
AcDbArc
 50
270.0
 51
345.0
  0
LINE
  5
6E2
100
AcDbEntity
  8
2
370
    50
100
AcDbLine
 10
-44.394965
 20
-81.739962
 30
0.0
 11
-44.394965
 21
-82.68971
 31
0.0
  0
LINE
  5
6E3
100
AcDbEntity
  8
2
370
    50
100
AcDbLine
 10
-77.284225
 20
-81.739962
 30
0.0
 11
-77.284225
 21
-82.68971
 31
0.0
  0
LINE
  5
6E4
100
AcDbEntity
  8
2
370
    50
100
AcDbLine
 10
-46.394965
 20
-84.68971
 30
0.0
 11
-75.284225
 21
-84.68971
 31
0.0
  0
LINE
  5
6E5
100
AcDbEntity
  8
2
370
    50
100
AcDbLine
 10
-46.394965
 20
-79.739962
 30
0.0
 11
-75.284225
 21
-79.739962
 31
0.0
  0
LINE
  5
6E6
100
AcDbEntity
  8
2
370
    50
100
AcDbLine
 10
-44.394965
 20
-84.68971
 30
0.0
 11
-40.696302
 21
-94.526318
 31
0.0
  0
LINE
  5
6E7
100
AcDbEntity
  8
2
370
    50
100
AcDbLine
 10
-77.284225
 20
-84.68971
 30
0.0
 11
-79.92941
 21
-95.37712
 31
0.0
  0
LINE
  5
6E8
100
AcDbEntity
  8
2
370
    50
100
AcDbLine
 10
-40.376392
 20
-128.796265
 30
0.0
 11
-40.376392
 21
-96.286079
 31
0.0
  0
LINE
  5
6E9
100
AcDbEntity
  8
2
370
    50
100
AcDbLine
 10
-40.376392
 20
-92.063789
 30
0.0
 11
-40.376392
 21
-87.764082
 31
0.0
  0
ARC
  5
6EA
100
AcDbEntity
  8
2
370
    50
100
AcDbCircle
 10
-46.394965
 20
-81.739962
 30
0.0
 40
2.0
100
AcDbArc
 50
0.0
 51
90.0
  0
ARC
  5
6EB
100
AcDbEntity
  8
2
370
    50
100
AcDbCircle
 10
-46.394965
 20
-82.68971
 30
0.0
 40
2.0
100
AcDbArc
 50
270.0
 51
360.0
  0
ARC
  5
6EC
100
AcDbEntity
  8
2
370
    50
100
AcDbCircle
 10
-75.284225
 20
-81.739962
 30
0.0
 40
2.0
100
AcDbArc
 50
90.0
 51
180.0
  0
ARC
  5
6ED
100
AcDbEntity
  8
2
370
    50
100
AcDbCircle
 10
-75.284225
 20
-82.68971
 30
0.0
 40
2.0
100
AcDbArc
 50
180.0
 51
270.0
  0
LINE
  5
6EE
100
AcDbEntity
  8
2
370
    50
100
AcDbLine
 10
-44.522929
 20
-81.036058
 30
0.0
 11
-40.376392
 21
-92.063789
 31
0.0
  0
LINE
  5
6EF
100
AcDbEntity
  8
2
370
    50
100
AcDbLine
 10
-77.225645
 20
-81.259452
 30
0.0
 11
-79.92941
 21
-92.183547
 31
0.0
  0
LINE
  5
6F0
100
AcDbEntity
  8
2
370
    50
100
AcDbLine
 10
-41.911046
 20
-86.260197
 30
0.0
 11
-42.5586
 21
-86.260197
 31
0.0
  0
ARC
  5
6F1
100
AcDbEntity
  8
2
370
    50
100
AcDbCircle
 10
-45.376392
 20
-96.286079
 30
0.0
 40
5.0
100
AcDbArc
 50
360.0
 51
20.606759
  0
LINE
  5
6F2
100
AcDbEntity
  8
2
370
    25
100
AcDbLine
 10
-43.056186
 20
-95.37712
 30
0.0
 11
-77.878267
 21
-95.37712
 31
0.0
  0
LINE
  5
6F3
100
AcDbEntity
  8
2
370
    50
100
AcDbLine
 10
222.498075
 20
-2.259677
 30
0.0
 11
225.991978
 21
-2.259677
 31
0.0
  0
POINT
  5
6F4
100
AcDbEntity
  8
2
370
    50
100
AcDbPoint
 10
222.498075
 20
21.740323
 30
0.0
  0
POINT
  5
6F5
100
AcDbEntity
  8
2
370
    50
100
AcDbPoint
 10
225.991978
 20
-2.259677
 30
0.0
  0
LINE
  5
6F6
100
AcDbEntity
  8
2
370
    50
100
AcDbLine
 10
206.851828
 20
42.336317
 30
0.0
 11
200.24695
 21
48.941195
 31
0.0
  0
LINE
  5
6F7
100
AcDbEntity
  8
2
370
    50
100
AcDbLine
 10
201.902081
 20
37.38657
 30
0.0
 11
195.297202
 21
43.991448
 31
0.0
  0
ARC
  5
6F8
100
AcDbEntity
  8
2
370
    50
100
AcDbCircle
 10
222.498075
 20
21.740323
 30
0.0
 40
37.0
100
AcDbArc
 50
132.543714
 51
137.456286
  0
ARC
  5
6F9
100
AcDbEntity
  8
2
370
    50
100
AcDbCircle
 10
198.832736
 20
47.526982
 30
0.0
 40
2.0
100
AcDbArc
 50
45.0
 51
132.543714
  0
ARC
  5
6FA
100
AcDbEntity
  8
2
370
    50
100
AcDbCircle
 10
196.711416
 20
45.405662
 30
0.0
 40
2.0
100
AcDbArc
 50
137.456286
 51
225.0
  0
ARC
  5
6FB
100
AcDbEntity
  8
2
370
    50
100
AcDbCircle
 10
210.387362
 20
45.871851
 30
0.0
 40
5.0
100
AcDbArc
 50
225.0
 51
296.650365
  0
ARC
  5
6FC
100
AcDbEntity
  8
2
370
    50
100
AcDbCircle
 10
198.366547
 20
33.851036
 30
0.0
 40
5.0
100
AcDbArc
 50
333.349635
 51
45.0
  0
ARC
  5
6FD
100
AcDbEntity
  8
2
370
    50
100
AcDbCircle
 10
222.498075
 20
21.740323
 30
0.0
 40
22.0
100
AcDbArc
 50
153.349635
 51
116.650365
  0
LINE
  5
6FE
100
AcDbEntity
  8
2
370
    50
100
AcDbLine
 10
228.648901
 20
14.175283
 30
0.0
 11
230.629803
 21
12.194382
 31
0.0
  0
LINE
  5
6FF
100
AcDbEntity
  8
2
370
    50
100
AcDbLine
 10
230.063115
 20
15.589497
 30
0.0
 11
232.044016
 21
13.608595
 31
0.0
  0
LINE
  5
700
100
AcDbEntity
  8
2
370
    50
100
AcDbLine
 10
232.044016
 20
13.608595
 30
0.0
 11
230.629803
 21
12.194382
 31
0.0
  0
ARC
  5
701
100
AcDbEntity
  8
2
370
    25
100
AcDbCircle
 10
222.498075
 20
21.740323
 30
0.0
 40
10.5
100
AcDbArc
 50
320.465024
 51
309.534976
  0
CIRCLE
  5
702
100
AcDbEntity
  8
2
370
    50
100
AcDbCircle
 10
222.498075
 20
21.740323
 30
0.0
 40
9.75
  0
CIRCLE
  5
703
100
AcDbEntity
  8
2
370
    25
100
AcDbCircle
 10
222.498075
 20
21.740323
 30
0.0
 40
9.25
  0
ARC
  5
704
100
AcDbEntity
  8
2
370
    50
100
AcDbCircle
 10
222.498075
 20
21.740323
 30
0.0
 40
10.0
100
AcDbArc
 50
320.73917
 51
309.26083
  0
ARC
  5
705
100
AcDbEntity
  8
2
370
    50
100
AcDbCircle
 10
222.498075
 20
21.740323
 30
0.0
 40
24.0
100
AcDbArc
 50
144.337183
 51
125.662817
  0
ARC
  5
706
100
AcDbEntity
  8
2
370
    25
  6
DASHED
100
AcDbCircle
 10
199.513893
 20
7.572494
 30
0.0
 40
5.0
100
AcDbArc
 50
320.0
 51
31.650365
  0
LINE
  5
707
100
AcDbEntity
  8
2
370
    25
  6
DASHED
100
AcDbLine
 10
203.344115
 20
4.358556
 30
0.0
 11
197.340023
 21
-2.796841
 31
0.0
  0
ARC
  5
708
100
AcDbEntity
  8
2
370
    25
  6
DASHED
100
AcDbCircle
 10
198.872112
 20
-4.082417
 30
0.0
 40
2.0
100
AcDbArc
 50
140.0
 51
227.543714
  0
ARC
  5
709
100
AcDbEntity
  8
2
370
    25
  6
DASHED
100
AcDbCircle
 10
222.498075
 20
21.740323
 30
0.0
 40
37.0
100
AcDbArc
 50
227.543714
 51
232.456286
  0
ARC
  5
70A
100
AcDbEntity
  8
2
370
    25
  6
DASHED
100
AcDbCircle
 10
201.170245
 20
-6.01078
 30
0.0
 40
2.0
100
AcDbArc
 50
232.456286
 51
320.0
  0
LINE
  5
70B
100
AcDbEntity
  8
2
370
    25
  6
DASHED
100
AcDbLine
 10
208.706426
 20
-0.140957
 30
0.0
 11
202.702334
 21
-7.296355
 31
0.0
  0
ARC
  5
70C
100
AcDbEntity
  8
2
370
    25
  6
DASHED
100
AcDbCircle
 10
212.536648
 20
-3.354895
 30
0.0
 40
5.0
100
AcDbArc
 50
68.349635
 51
140.0
  0
ARC
  5
70D
100
AcDbEntity
  8
2
370
    25
  6
DASHED
100
AcDbCircle
 10
247.593293
 20
31.70175
 30
0.0
 40
5.0
100
AcDbArc
 50
130.0
 51
201.650365
  0
LINE
  5
70E
100
AcDbEntity
  8
2
370
    25
  6
DASHED
100
AcDbLine
 10
244.379355
 20
35.531972
 30
0.0
 11
251.534753
 21
41.536063
 31
0.0
  0
ARC
  5
70F
100
AcDbEntity
  8
2
370
    25
  6
DASHED
100
AcDbCircle
 10
250.249177
 20
43.068152
 30
0.0
 40
2.0
100
AcDbArc
 50
310.0
 51
37.543714
  0
ARC
  5
710
100
AcDbEntity
  8
2
370
    25
  6
DASHED
100
AcDbCircle
 10
222.498075
 20
21.740323
 30
0.0
 40
37.0
100
AcDbArc
 50
37.543714
 51
42.456286
  0
ARC
  5
711
100
AcDbEntity
  8
2
370
    25
  6
DASHED
100
AcDbCircle
 10
248.320814
 20
45.366286
 30
0.0
 40
2.0
100
AcDbArc
 50
42.456286
 51
130.0
  0
LINE
  5
712
100
AcDbEntity
  8
2
370
    25
  6
DASHED
100
AcDbLine
 10
239.879842
 20
40.894283
 30
0.0
 11
247.035239
 21
46.898375
 31
0.0
  0
ARC
  5
713
100
AcDbEntity
  8
2
370
    25
  6
DASHED
100
AcDbCircle
 10
236.665903
 20
44.724505
 30
0.0
 40
5.0
100
AcDbArc
 50
238.349635
 51
310.0
  0
POINT
  5
714
100
AcDbEntity
  8
2
370
    50
100
AcDbPoint
 10
222.498075
 20
21.740323
 30
0.0
  0
ARC
  5
715
100
AcDbEntity
  8
2
370
    50
100
AcDbCircle
 10
-89.930129
 20
72.841384
 30
0.0
 40
0.5
100
AcDbArc
 50
90.0
 51
270.0
  0
LINE
  5
716
100
AcDbEntity
  8
2
370
    50
100
AcDbLine
 10
-89.430129
 20
76.341384
 30
0.0
 11
-89.430129
 21
73.341384
 31
0.0
  0
ARC
  5
717
100
AcDbEntity
  8
2
370
    50
100
AcDbCircle
 10
-88.930129
 20
76.341384
 30
0.0
 40
0.5
100
AcDbArc
 50
0.0
 51
180.0
  0
LINE
  5
718
100
AcDbEntity
  8
2
370
    50
100
AcDbLine
 10
-89.930129
 20
73.341384
 30
0.0
 11
-89.430129
 21
73.341384
 31
0.0
  0
DIMENSION
  5
719
100
AcDbEntity
  8
3
370
    25
100
AcDbDimension
  2
*D0
 10
-113.630493
 20
230.528625
 30
0.0
 11
-163.430129
 21
235.028625
 31
0.0
 71
     0
 72
     0
 41
0.0
 42
0.0
  3
Standard
100
AcDbAlignedDimension
 13
-213.229765
 23
143.241645
 33
0.0
 14
-113.630493
 24
143.241645
 34
0.0
100
AcDbRotatedDimension
  0
DIMENSION
  5
71A
100
AcDbEntity
  8
3
370
    25
100
AcDbDimension
  2
*D1
 10
-43.630129
 20
230.528625
 30
0.0
 11
-78.630311
 21
235.028625
 31
0.0
 71
     0
 72
     0
 41
0.0
 42
0.0
  3
Standard
100
AcDbAlignedDimension
 13
-113.630493
 23
143.241645
 33
0.0
 14
-43.630129
 24
182.741645
 34
0.0
100
AcDbRotatedDimension
  0
TEXT
  5
71B
100
AcDbEntity
  8
3
370
    50
100
AcDbText
 10
-69.562164
 20
11.273834
 30
0.0
 40
7.0
  1
シャワー、パイプ吐水
 72
     5
 11
-0.962164
 21
11.273834
 31
0.0
100
AcDbText
  0
TEXT
  5
71C
100
AcDbEntity
  8
3
370
    50
100
AcDbText
 10
-69.562164
 20
3.273834
 30
0.0
 40
7.0
  1
及び止水位置の表示
 72
     5
 11
-7.962164
 21
3.273834
 31
0.0
100
AcDbText
  0
DIMENSION
  5
71D
100
AcDbEntity
  8
3
370
    25
100
AcDbDimension
  2
*D2
 10
286.898075
 20
-109.710861
 30
0.0
 11
254.698075
 21
-105.210861
 31
0.0
 71
     0
 72
     0
 41
0.0
 42
0.0
  3
Standard
100
AcDbAlignedDimension
 13
222.498075
 23
21.740323
 33
0.0
 14
286.898075
 24
-3.259677
 34
0.0
100
AcDbRotatedDimension
  0
DIMENSION
  5
71E
100
AcDbEntity
  8
3
370
    25
100
AcDbDimension
  2
*D3
 10
79.530426
 20
45.740323
 30
0.0
 11
71.530426
 21
33.740323
 31
0.0
 71
     0
 72
     0
 41
0.0
 42
0.0
  3
Standard
100
AcDbAlignedDimension
 13
222.498075
 23
21.740323
 33
0.0
 14
222.498075
 24
45.740323
 34
0.0
 50
90.0
100
AcDbRotatedDimension
  0
TEXT
  5
71F
100
AcDbEntity
  8
3
370
    50
100
AcDbText
 10
-315.765106
 20
19.290054
 30
0.0
 40
7.0
  1
吐水温度表示
 72
     5
 11
-275.165106
 21
19.290054
 31
0.0
100
AcDbText
  0
LWPOLYLINE
  5
720
100
AcDbEntity
  8
3
370
    25
100
AcDbPolyline
 90
        3
 70
     0
 10
-251.335281
 20
65.678627
 10
-262.81778
 20
22.670784
 10
-272.619995
 20
22.670784
  0
LINE
  5
725
100
AcDbEntity
  8
3
370
    25
100
AcDbLine
 10
-252.331927
 20
61.945679
 30
0.0
 11
-251.331686
 21
61.678629
 31
0.0
  0
LINE
  5
726
100
AcDbEntity
  8
3
370
    25
100
AcDbLine
 10
-251.331686
 20
61.678629
 30
0.0
 11
-251.335281
 21
65.678627
 31
0.0
  0
LINE
  5
727
100
AcDbEntity
  8
3
370
    25
100
AcDbLine
 10
-251.335281
 20
65.678627
 30
0.0
 11
-253.332167
 21
62.212729
 31
0.0
  0
LINE
  5
728
100
AcDbEntity
  8
3
370
    25
100
AcDbLine
 10
-253.332167
 20
62.212729
 30
0.0
 11
-252.331927
 21
61.945679
 31
0.0
  0
TEXT
  5
729
100
AcDbEntity
  8
3
370
    50
100
AcDbText
 10
-315.765106
 20
34.290054
 30
0.0
 40
7.0
  1
安全ボタン
 72
     5
 11
-282.165106
 21
34.290054
 31
0.0
100
AcDbText
  0
LWPOLYLINE
  5
72A
100
AcDbEntity
  8
3
370
    25
100
AcDbPolyline
 90
        3
 70
     0
 10
-240.369345
 20
64.058786
 10
-250.099899
 20
8.949404
 10
-263.496124
 20
8.949404
  0
LINE
  5
72F
100
AcDbEntity
  8
3
370
    25
100
AcDbLine
 10
-241.04116
 20
60.253938
 30
0.0
 11
-240.021654
 21
60.073926
 31
0.0
  0
LINE
  5
730
100
AcDbEntity
  8
3
370
    25
100
AcDbLine
 10
-240.021654
 20
60.073926
 30
0.0
 11
-240.369345
 21
64.058786
 31
0.0
  0
LINE
  5
731
100
AcDbEntity
  8
3
370
    25
100
AcDbLine
 10
-240.369345
 20
64.058786
 30
0.0
 11
-242.060666
 21
60.433951
 31
0.0
  0
LINE
  5
732
100
AcDbEntity
  8
3
370
    25
100
AcDbLine
 10
-242.060666
 20
60.433951
 30
0.0
 11
-241.04116
 21
60.253938
 31
0.0
  0
TEXT
  5
733
100
AcDbEntity
  8
3
370
    50
100
AcDbText
 10
-315.765106
 20
5.290054
 30
0.0
 40
7.0
  1
温度調節の表示
 72
     5
 11
-268.165106
 21
5.290054
 31
0.0
100
AcDbText
  0
LWPOLYLINE
  5
734
100
AcDbEntity
  8
3
370
    25
100
AcDbPolyline
 90
        3
 70
     0
 10
-86.98495
 20
64.37416
 10
-80.268143
 20
14.140873
 10
-71.147133
 20
14.140873
  0
LINE
  5
739
100
AcDbEntity
  8
3
370
    25
100
AcDbLine
 10
-86.472883
 20
60.54454
 30
0.0
 11
-85.446739
 21
60.681748
 31
0.0
  0
LINE
  5
73A
100
AcDbEntity
  8
3
370
    25
100
AcDbLine
 10
-85.446739
 20
60.681748
 30
0.0
 11
-86.98495
 21
64.37416
 31
0.0
  0
LINE
  5
73B
100
AcDbEntity
  8
3
370
    25
100
AcDbLine
 10
-86.98495
 20
64.37416
 30
0.0
 11
-87.499026
 21
60.407332
 31
0.0
  0
LINE
  5
73C
100
AcDbEntity
  8
3
370
    25
100
AcDbLine
 10
-87.499026
 20
60.407332
 30
0.0
 11
-86.472883
 21
60.54454
 31
0.0
  0
TEXT
  5
73D
100
AcDbEntity
  8
3
370
    50
100
AcDbText
 10
290.832582
 20
-240.013492
 30
0.0
 40
6.0
  1
１　２
 72
     5
 11
307.632582
 21
-240.013492
 31
0.0
100
AcDbText
  0
TEXT
  5
73E
100
AcDbEntity
  8
3
370
    50
100
AcDbText
 10
233.411728
 20
-272.25943
 30
0.0
 40
6.0
  1
外観寸法図
 72
     5
 11
262.211728
 21
-272.25943
 31
0.0
100
AcDbText
  0
POINT
  5
73F
100
AcDbEntity
  8
3
370
    50
100
AcDbPoint
 10
-163.630129
 20
134.741387
 30
0.0
  0
LINE
  5
740
100
AcDbEntity
  8
3
370
    50
100
AcDbLine
 10
-132.657169
 20
-173.725546
 30
0.0
 11
-132.657169
 21
-185.725546
 31
0.0
  0
LINE
  5
741
100
AcDbEntity
  8
3
370
    50
100
AcDbLine
 10
-106.657169
 20
-173.725546
 30
0.0
 11
-106.657169
 21
-185.725546
 31
0.0
  0
LINE
  5
742
100
AcDbEntity
  8
3
370
    50
100
AcDbLine
 10
-132.657169
 20
-173.725546
 30
0.0
 11
-106.657169
 21
-173.725546
 31
0.0
  0
LINE
  5
743
100
AcDbEntity
  8
3
370
    50
100
AcDbLine
 10
-132.657169
 20
-185.725546
 30
0.0
 11
-106.657169
 21
-185.725546
 31
0.0
  0
TEXT
  5
744
100
AcDbEntity
  8
3
370
    50
100
AcDbText
 10
-135.869719
 20
-195.221005
 30
0.0
 40
7.0
  1
（製品コードＮＯ及び
 72
     5
 11
-67.269719
 21
-195.221005
 31
0.0
100
AcDbText
  0
TEXT
  5
745
100
AcDbEntity
  8
3
370
    50
100
AcDbText
 10
-135.869719
 20
-202.621005
 30
0.0
 40
7.0
  1
　ロットＮＯの表示）
 72
     5
 11
-67.269719
 21
-202.621005
 31
0.0
100
AcDbText
  0
TEXT
  5
746
100
AcDbEntity
  8
3
370
    50
100
AcDbText
 10
-132.463402
 20
-184.853761
 30
0.0
 40
5.0
  1
７Ｌ０１７
 72
     5
 11
-108.463402
 21
-184.853761
 31
0.0
100
AcDbText
  0
POINT
  5
747
100
AcDbEntity
  8
3
370
    50
100
AcDbPoint
 10
-163.630129
 20
121.741387
 30
0.0
  0
TEXT
  5
748
100
AcDbEntity
  8
3
370
    50
100
AcDbText
 10
-356.953064
 20
220.47258
 30
0.0
 40
7.0
  1
ＰＪ１／２
 72
     5
 11
-323.353064
 21
220.47258
 31
0.0
100
AcDbText
  0
TEXT
  5
749
100
AcDbEntity
  8
3
370
    50
100
AcDbText
 10
-357.428436
 20
208.116257
 30
0.0
 40
7.0
  1
給水栓ネジ
 72
     5
 11
-323.828436
 21
208.116257
 31
0.0
100
AcDbText
  0
DIMENSION
  5
74A
100
AcDbEntity
  8
3
370
    25
100
AcDbDimension
  2
*D4
 10
-261.279967
 20
232.828903
 30
0.0
 11
-284.279967
 21
237.328903
 31
0.0
 70
     1
 71
     0
 72
     0
 41
0.0
 42
0.0
  3
Standard
100
AcDbAlignedDimension
 13
-307.279967
 23
199.541387
 33
0.0
 14
-261.279967
 24
199.541387
 34
0.0
  0
LWPOLYLINE
  5
74B
100
AcDbEntity
  8
3
370
    25
100
AcDbPolyline
 90
        3
 70
     0
 10
-294.811562
 20
207.165695
 10
-320.819916
 20
218.096344
 10
-357.9039
 20
218.096344
  0
LINE
  5
750
100
AcDbEntity
  8
3
370
    25
100
AcDbLine
 10
-298.373478
 20
208.662678
 30
0.0
 11
-298.774594
 21
207.708265
 31
0.0
  0
LINE
  5
751
100
AcDbEntity
  8
3
370
    25
100
AcDbLine
 10
-298.774594
 20
207.708265
 30
0.0
 11
-294.811562
 21
207.165695
 31
0.0
  0
LINE
  5
752
100
AcDbEntity
  8
3
370
    25
100
AcDbLine
 10
-294.811562
 20
207.165695
 30
0.0
 11
-297.972363
 21
209.61709
 31
0.0
  0
LINE
  5
753
100
AcDbEntity
  8
3
370
    25
100
AcDbLine
 10
-297.972363
 20
209.61709
 30
0.0
 11
-298.373478
 21
208.662678
 31
0.0
  0
POINT
  5
754
100
AcDbEntity
  8
3
370
    50
100
AcDbPoint
 10
-163.77941
 20
-84.260197
 30
0.0
  0
TEXT
  5
755
100
AcDbEntity
  8
3
370
    50
100
AcDbText
 10
260.572957
 20
-138.517166
 30
0.0
 40
7.0
  1
（１１１）
 72
     5
 11
294.172957
 21
-138.517166
 31
0.0
100
AcDbText
  0
DIMENSION
  5
756
100
AcDbEntity
  8
3
370
    25
100
AcDbDimension
  2
*D5
 10
333.647839
 20
-139.517166
 30
0.0
 11
278.072957
 21
-137.517166
 31
0.0
 71
     0
 72
     0
 41
0.0
 42
0.0
  3
Standard
100
AcDbAlignedDimension
 13
222.498075
 23
21.740323
 33
0.0
 14
333.647839
 24
-50.725317
 34
0.0
100
AcDbRotatedDimension
  0
TEXT
  5
757
100
AcDbEntity
  8
3
370
    50
100
AcDbText
 10
362.023839
 20
-138.517166
 30
0.0
 40
7.0
  1
（２０）
 72
     5
 11
388.623839
 21
-138.517166
 31
0.0
100
AcDbText
  0
DIMENSION
  5
758
100
AcDbEntity
  8
3
370
    25
100
AcDbDimension
  2
*D6
 10
354.023839
 20
-139.517166
 30
0.0
 11
343.835839
 21
-137.517166
 31
0.0
 71
     0
 72
     0
 41
0.0
 42
0.0
  3
Standard
100
AcDbAlignedDimension
 13
333.647839
 23
-50.725317
 33
0.0
 14
354.023839
 24
-37.356911
 34
0.0
100
AcDbRotatedDimension
  0
TEXT
  5
759
100
AcDbEntity
  8
3
370
    50
100
AcDbText
 10
-202.929679
 20
-246.09021
 30
0.0
 40
7.0
  1
２００（ＭＡＸ２３５）
 72
     5
 11
-127.329679
 21
-246.09021
 31
0.0
100
AcDbText
  0
DIMENSION
  5
75A
100
AcDbEntity
  8
3
370
    25
100
AcDbDimension
  2
*D7
 10
-64.932204
 20
-247.09021
 30
0.0
 11
-164.429679
 21
-245.09021
 31
0.0
 71
     0
 72
     0
 41
0.0
 42
0.0
  3
Standard
100
AcDbAlignedDimension
 13
-263.927154
 23
-155.757692
 33
0.0
 14
-64.932204
 24
-155.757692
 34
0.0
100
AcDbRotatedDimension
  0
POINT
  5
75B
100
AcDbEntity
  8
3
370
    50
100
AcDbPoint
 10
222.498771
 20
-21.065535
 30
0.0
  0
DIMENSION
  5
75C
100
AcDbEntity
  8
3
370
    25
100
AcDbDimension
  2
*D8
 10
6.849665
 20
21.740323
 30
0.0
 11
-1.150335
 21
-22.612439
 31
0.0
 71
     0
 72
     0
 41
0.0
 42
0.0
  3
Standard
100
AcDbAlignedDimension
 13
52.498771
 23
-66.965201
 33
0.0
 14
222.498075
 24
21.740323
 34
0.0
 50
90.0
100
AcDbRotatedDimension
  0
POINT
  5
75D
100
AcDbEntity
  8
3
370
    50
100
AcDbPoint
 10
24.498771
 20
-45.315201
 30
0.0
  0
DIMENSION
  5
75E
100
AcDbEntity
  8
3
370
    25
100
AcDbDimension
  2
*D9
 10
22.295784
 20
21.740323
 30
0.0
 11
14.295784
 21
-11.787439
 31
0.0
 71
     0
 72
     0
 41
0.0
 42
0.0
  3
Standard
100
AcDbAlignedDimension
 13
24.498771
 23
-45.315201
 33
0.0
 14
222.498075
 24
21.740323
 34
0.0
 50
90.0
100
AcDbRotatedDimension
  0
TEXT
  5
75F
100
AcDbEntity
  8
3
370
    50
100
AcDbText
 10
338.789398
 20
-272.022797
 30
0.0
 40
6.0
  1
００２２１５
 72
     5
 11
373.589398
 21
-272.022797
 31
0.0
100
AcDbText
  0
TEXT
  5
760
100
AcDbEntity
  8
3
370
    50
100
AcDbText
 10
64.729218
 20
-236.356476
 30
0.0
 40
6.0
  1
ＭＢ７００ＤＸ
 72
     5
 11
105.529218
 21
-236.356476
 31
0.0
100
AcDbText
  0
TEXT
  5
761
100
AcDbEntity
  8
3
370
    50
100
AcDbText
 10
-133.183433
 20
-178.981403
 30
0.0
 40
5.0
  1
００２２１５
 41
0.9
 72
     5
 11
-107.083433
 21
-178.981403
 31
0.0
100
AcDbText
  0
LWPOLYLINE
  5
762
100
AcDbEntity
  8
3
370
    25
100
AcDbPolyline
 90
        2
 70
     0
 10
-119.996696
 20
-132.387878
 10
-126.849403
 20
-173.65448
  0
LINE
  5
766
100
AcDbEntity
  8
3
370
    25
100
AcDbLine
 10
-120.629633
 20
-136.199387
 30
0.0
 11
-119.608343
 21
-136.368981
 31
0.0
  0
LINE
  5
767
100
AcDbEntity
  8
3
370
    25
100
AcDbLine
 10
-119.608343
 20
-136.368981
 30
0.0
 11
-119.996696
 21
-132.387878
 31
0.0
  0
LINE
  5
768
100
AcDbEntity
  8
3
370
    25
100
AcDbLine
 10
-119.996696
 20
-132.387878
 30
0.0
 11
-121.650924
 21
-136.029792
 31
0.0
  0
LINE
  5
769
100
AcDbEntity
  8
3
370
    25
100
AcDbLine
 10
-121.650924
 20
-136.029792
 30
0.0
 11
-120.629633
 21
-136.199387
 31
0.0
  0
POINT
  5
76A
100
AcDbEntity
  8
3
370
    50
100
AcDbPoint
 10
394.982385
 20
275.028767
 30
0.0
  0
POINT
  5
76B
100
AcDbEntity
  8
3
370
    50
100
AcDbPoint
 10
394.982385
 20
275.028767
 30
0.0
  0
LWPOLYLINE
  5
76C
100
AcDbEntity
  8
3
370
    25
100
AcDbPolyline
 90
        2
 70
     0
 10
-163.252563
 20
111.053436
 10
-196.168335
 20
55.751434
  0
LINE
  5
770
100
AcDbEntity
  8
3
370
    25
100
AcDbLine
 10
-165.228693
 20
107.733328
 30
0.0
 11
-164.339073
 21
107.203826
 31
0.0
  0
LINE
  5
771
100
AcDbEntity
  8
3
370
    25
100
AcDbLine
 10
-164.339073
 20
107.203826
 30
0.0
 11
-163.252563
 21
111.053436
 31
0.0
  0
LINE
  5
772
100
AcDbEntity
  8
3
370
    25
100
AcDbLine
 10
-163.252563
 20
111.053436
 30
0.0
 11
-166.118313
 21
108.262831
 31
0.0
  0
LINE
  5
773
100
AcDbEntity
  8
3
370
    25
100
AcDbLine
 10
-166.118313
 20
108.262831
 30
0.0
 11
-165.228693
 21
107.733328
 31
0.0
  0
TEXT
  5
774
100
AcDbEntity
  8
3
370
    50
100
AcDbText
 10
-217.234406
 20
47.851151
 30
0.0
 40
7.0
  1
（商標表示）
 72
     5
 11
-176.634406
 21
47.851151
 31
0.0
100
AcDbText
  0
POINT
  5
775
100
AcDbEntity
  8
3
370
    50
100
AcDbPoint
 10
-163.630129
 20
121.741387
 30
0.0
  0
TEXT
  5
776
100
AcDbEntity
  8
3
370
    50
100
AcDbText
 10
344.389465
 20
-255.466293
 30
0.0
 40
6.0
  1
０１　　５　２３
 72
     5
 11
391.189465
 21
-255.466293
 31
0.0
100
AcDbText
  0
TEXT
  5
777
100
AcDbEntity
  8
3
370
    50
100
AcDbText
 10
65.37635
 20
-227.562836
 30
0.0
 40
6.0
  1
壁付サ－モスタット湯水混合水栓（シャワバス）
 41
0.95
 72
     5
 11
189.63635
 21
-227.562836
 31
0.0
100
AcDbText
  0
POINT
  5
778
100
AcDbEntity
  8
3
370
    50
100
AcDbPoint
 10
394.982385
 20
275.028767
 30
0.0
  0
POINT
  5
779
100
AcDbEntity
  8
3
370
    50
100
AcDbPoint
 10
394.982385
 20
275.028767
 30
0.0
  0
TEXT
  5
77A
100
AcDbEntity
  8
3
370
    50
100
AcDbText
 10
-184.341324
 20
111.837012
 30
0.0
 40
4.0
  1
１
 72
     5
 11
-181.141324
 21
111.837012
 31
0.0
100
AcDbText
  0
TEXT
  5
77B
100
AcDbEntity
  8
3
370
    50
100
AcDbText
 10
-188.335556
 20
109.353071
 30
0.0
 40
12.0
  1
△
 72
     5
 11
-178.735556
 21
109.353071
 31
0.0
100
AcDbText
  0
POINT
  5
77C
100
AcDbEntity
  8
3
370
    50
100
AcDbPoint
 10
-167.517313
 20
117.034121
 30
0.0
  0
POINT
  5
77D
100
AcDbEntity
  8
3
370
    50
100
AcDbPoint
 10
-167.517313
 20
117.034121
 30
0.0
  0
POINT
  5
77E
100
AcDbEntity
  8
3
370
    50
100
AcDbPoint
 10
-163.630129
 20
116.741387
 30
0.0
  0
LINE
  5
77F
100
AcDbEntity
  8
3
370
    50
100
AcDbLine
 10
-166.180335
 20
113.11627
 30
0.0
 11
-163.817759
 21
113.11627
 31
0.0
  0
LINE
  5
780
100
AcDbEntity
  8
3
370
    50
100
AcDbLine
 10
-166.180335
 20
113.746248
 30
0.0
 11
-163.380245
 21
113.352721
 31
0.0
  0
LINE
  5
781
100
AcDbEntity
  8
3
370
    50
100
AcDbLine
 10
-163.756869
 20
114.289279
 30
0.0
 11
-166.180335
 21
114.629875
 31
0.0
  0
LINE
  5
782
100
AcDbEntity
  8
3
370
    50
100
AcDbLine
 10
-166.180335
 20
114.866326
 30
0.0
 11
-163.380245
 21
114.866326
 31
0.0
  0
ARC
  5
783
100
AcDbEntity
  8
3
370
    50
100
AcDbCircle
 10
-163.817759
 20
115.30384
 30
0.0
 40
0.437514
100
AcDbArc
 50
0.0
 51
90.0
  0
ARC
  5
784
100
AcDbEntity
  8
3
370
    50
100
AcDbCircle
 10
-163.817759
 20
113.856023
 30
0.0
 40
0.437514
100
AcDbArc
 50
360.0
 51
82.0
  0
ARC
  5
785
100
AcDbEntity
  8
3
370
    50
100
AcDbCircle
 10
-163.817759
 20
112.678756
 30
0.0
 40
0.437514
100
AcDbArc
 50
0.0
 51
90.0
  0
LINE
  5
786
100
AcDbEntity
  8
3
370
    50
100
AcDbLine
 10
-162.505217
 20
115.741354
 30
0.0
 11
-162.505217
 21
114.866326
 31
0.0
  0
LINE
  5
787
100
AcDbEntity
  8
3
370
    50
100
AcDbLine
 10
-162.505217
 20
114.866326
 30
0.0
 11
-161.280177
 21
114.866326
 31
0.0
  0
LINE
  5
788
100
AcDbEntity
  8
3
370
    50
100
AcDbLine
 10
-160.405149
 20
115.30384
 30
0.0
 11
-160.405149
 21
114.166304
 31
0.0
  0
LINE
  5
789
100
AcDbEntity
  8
3
370
    50
100
AcDbLine
 10
-161.280177
 20
114.866326
 30
0.0
 11
-161.280177
 21
114.166304
 31
0.0
  0
LINE
  5
78A
100
AcDbEntity
  8
3
370
    50
100
AcDbLine
 10
-162.942731
 20
113.11627
 30
0.0
 11
-162.330211
 21
113.11627
 31
0.0
  0
ARC
  5
78B
100
AcDbEntity
  8
3
370
    50
100
AcDbCircle
 10
-162.330211
 20
114.166304
 30
0.0
 40
1.050034
100
AcDbArc
 50
270.0
 51
360.0
  0
ARC
  5
78C
100
AcDbEntity
  8
3
370
    50
100
AcDbCircle
 10
-159.087241
 20
115.214731
 30
0.0
 40
2.100068
100
AcDbArc
 50
228.524141
 51
272.241513
  0
ARC
  5
78D
100
AcDbEntity
  8
3
370
    50
100
AcDbCircle
 10
-159.087241
 20
115.214731
 30
0.0
 40
2.975096
100
AcDbArc
 50
232.173442
 51
271.582042
  0
LINE
  5
78E
100
AcDbEntity
  8
3
370
    50
100
AcDbLine
 10
-159.375906
 20
114.341309
 30
0.0
 11
-158.365511
 21
114.341309
 31
0.0
  0
LINE
  5
78F
100
AcDbEntity
  8
3
370
    50
100
AcDbLine
 10
-158.56759
 20
115.741354
 30
0.0
 11
-159.375906
 21
114.341309
 31
0.0
  0
LINE
  5
790
100
AcDbEntity
  8
3
370
    50
100
AcDbLine
 10
-158.062392
 20
114.866326
 30
0.0
 11
-158.365511
 21
114.341309
 31
0.0
  0
LINE
  5
791
100
AcDbEntity
  8
3
370
    50
100
AcDbLine
 10
-158.062392
 20
114.866326
 30
0.0
 11
-157.34255
 21
114.866326
 31
0.0
  0
ARC
  5
792
100
AcDbEntity
  8
3
370
    50
100
AcDbCircle
 10
-156.905036
 20
115.30384
 30
0.0
 40
0.437514
100
AcDbArc
 50
0.0
 51
90.0
  0
LINE
  5
793
100
AcDbEntity
  8
3
370
    50
100
AcDbLine
 10
-158.56759
 20
113.11627
 30
0.0
 11
-158.392584
 21
113.11627
 31
0.0
  0
ARC
  5
794
100
AcDbEntity
  8
3
370
    50
100
AcDbCircle
 10
-158.392584
 20
114.166304
 30
0.0
 40
1.925062
100
AcDbArc
 50
270.0
 51
360.0
  0
LINE
  5
795
100
AcDbEntity
  8
3
370
    50
100
AcDbLine
 10
-157.867567
 20
113.641287
 30
0.0
 11
-157.483228
 21
113.641287
 31
0.0
  0
LINE
  5
796
100
AcDbEntity
  8
3
370
    50
100
AcDbLine
 10
-157.867567
 20
114.516315
 30
0.0
 11
-157.34255
 21
114.516315
 31
0.0
  0
LINE
  5
797
100
AcDbEntity
  8
3
370
    50
100
AcDbLine
 10
-157.867567
 20
113.641287
 30
0.0
 11
-157.867567
 21
114.516315
 31
0.0
  0
LINE
  5
798
100
AcDbEntity
  8
3
370
    50
100
AcDbLine
 10
-157.34255
 20
114.866326
 30
0.0
 11
-157.34255
 21
114.516315
 31
0.0
  0
ARC
  5
799
100
AcDbEntity
  8
3
370
    50
100
AcDbCircle
 10
-158.392584
 20
114.166304
 30
0.0
 40
1.050034
100
AcDbArc
 50
270.0
 51
330.0
  0
LINE
  5
79A
100
AcDbEntity
  8
3
370
    50
100
AcDbLine
 10
-156.030008
 20
114.866326
 30
0.0
 11
-153.92994
 21
114.866326
 31
0.0
  0
LINE
  5
79B
100
AcDbEntity
  8
3
370
    50
100
AcDbLine
 10
-156.030008
 20
113.11627
 30
0.0
 11
-154.367454
 21
113.11627
 31
0.0
  0
ARC
  5
79C
100
AcDbEntity
  8
3
370
    50
100
AcDbCircle
 10
-154.367454
 20
115.30384
 30
0.0
 40
0.437514
100
AcDbArc
 50
0.0
 51
90.0
  0
ARC
  5
79D
100
AcDbEntity
  8
3
370
    50
100
AcDbCircle
 10
-154.367454
 20
112.678756
 30
0.0
 40
0.437514
100
AcDbArc
 50
0.0
 51
90.0
  0
ARC
  5
79E
100
AcDbEntity
  8
3
370
    50
100
AcDbCircle
 10
-162.330211
 20
114.166304
 30
0.0
 40
1.925062
100
AcDbArc
 50
270.0
 51
317.461176
  0
ARC
  5
79F
100
AcDbEntity
  8
3
370
    50
100
AcDbCircle
 10
-162.330211
 20
114.166304
 30
0.0
 40
1.925062
100
AcDbArc
 50
344.17338
 51
360.0
  0
CIRCLE
  5
7A0
100
AcDbEntity
  8
3
370
    50
100
AcDbCircle
 10
-159.617624
 20
115.478846
 30
0.0
 40
0.262508
  0
CIRCLE
  5
7A1
100
AcDbEntity
  8
3
370
    50
100
AcDbCircle
 10
-160.142641
 20
115.478846
 30
0.0
 40
0.262508
  0
LINE
  5
7A2
100
AcDbEntity
  8
3
370
    50
100
AcDbLine
 10
-162.942731
 20
113.11627
 30
0.0
 11
-162.942731
 21
112.241241
 31
0.0
  0
LINE
  5
7A3
100
AcDbEntity
  8
3
370
    50
100
AcDbLine
 10
-159.005104
 20
113.11627
 30
0.0
 11
-159.005104
 21
112.241241
 31
0.0
  0
LINE
  5
7A4
100
AcDbEntity
  8
3
370
    50
100
AcDbLine
 10
-158.56759
 20
113.11627
 30
0.0
 11
-158.56759
 21
112.241241
 31
0.0
  0
LINE
  5
7A5
100
AcDbEntity
  8
3
370
    50
100
AcDbLine
 10
-156.467522
 20
115.30384
 30
0.0
 11
-156.467522
 21
114.166304
 31
0.0
  0
LINE
  5
7A6
100
AcDbEntity
  8
3
370
    50
100
AcDbLine
 10
-166.180335
 20
115.741354
 30
0.0
 11
-163.817759
 21
115.741354
 31
0.0
  0
LINE
  5
7A7
100
AcDbEntity
  8
3
370
    50
100
AcDbLine
 10
-162.505217
 20
115.741354
 30
0.0
 11
-160.842663
 21
115.741354
 31
0.0
  0
LINE
  5
7A8
100
AcDbEntity
  8
3
370
    50
100
AcDbLine
 10
-158.56759
 20
115.741354
 30
0.0
 11
-156.905036
 21
115.741354
 31
0.0
  0
LINE
  5
7A9
100
AcDbEntity
  8
3
370
    50
100
AcDbLine
 10
-156.030008
 20
115.741354
 30
0.0
 11
-154.367454
 21
115.741354
 31
0.0
  0
LINE
  5
7AA
100
AcDbEntity
  8
3
370
    50
100
AcDbLine
 10
-156.030008
 20
112.241241
 30
0.0
 11
-153.92994
 21
112.241241
 31
0.0
  0
LINE
  5
7AB
100
AcDbEntity
  8
3
370
    50
100
AcDbLine
 10
-158.56759
 20
112.241241
 30
0.0
 11
-158.392584
 21
112.241241
 31
0.0
  0
LINE
  5
7AC
100
AcDbEntity
  8
3
370
    50
100
AcDbLine
 10
-166.180335
 20
112.241241
 30
0.0
 11
-163.380245
 21
112.241241
 31
0.0
  0
LINE
  5
7AD
100
AcDbEntity
  8
3
370
    50
100
AcDbLine
 10
-163.380245
 20
114.866326
 30
0.0
 11
-163.380245
 21
115.30384
 31
0.0
  0
LINE
  5
7AE
100
AcDbEntity
  8
3
370
    50
100
AcDbLine
 10
-163.380245
 20
112.241241
 30
0.0
 11
-163.380245
 21
112.678756
 31
0.0
  0
LINE
  5
7AF
100
AcDbEntity
  8
3
370
    50
100
AcDbLine
 10
-163.380245
 20
113.352721
 30
0.0
 11
-163.380245
 21
113.856023
 31
0.0
  0
LINE
  5
7B0
100
AcDbEntity
  8
3
370
    50
100
AcDbLine
 10
-166.180335
 20
112.241241
 30
0.0
 11
-166.180335
 21
113.11627
 31
0.0
  0
LINE
  5
7B1
100
AcDbEntity
  8
3
370
    50
100
AcDbLine
 10
-166.180335
 20
113.746248
 30
0.0
 11
-166.180335
 21
114.629875
 31
0.0
  0
LINE
  5
7B2
100
AcDbEntity
  8
3
370
    50
100
AcDbLine
 10
-166.180335
 20
114.866326
 30
0.0
 11
-166.180335
 21
115.741354
 31
0.0
  0
LINE
  5
7B3
100
AcDbEntity
  8
3
370
    50
100
AcDbLine
 10
-153.92994
 20
114.866326
 30
0.0
 11
-153.92994
 21
115.30384
 31
0.0
  0
LINE
  5
7B4
100
AcDbEntity
  8
3
370
    50
100
AcDbLine
 10
-156.030008
 20
112.241241
 30
0.0
 11
-156.030008
 21
113.11627
 31
0.0
  0
LINE
  5
7B5
100
AcDbEntity
  8
3
370
    50
100
AcDbLine
 10
-156.030008
 20
114.866326
 30
0.0
 11
-156.030008
 21
115.741354
 31
0.0
  0
LINE
  5
7B6
100
AcDbEntity
  8
3
370
    50
100
AcDbLine
 10
-162.942731
 20
112.241241
 30
0.0
 11
-162.330211
 21
112.241241
 31
0.0
  0
LINE
  5
7B7
100
AcDbEntity
  8
3
370
    50
100
AcDbLine
 10
-159.18501
 20
112.241241
 30
0.0
 11
-159.005104
 21
112.241241
 31
0.0
  0
ARC
  5
7B8
100
AcDbEntity
  8
3
370
    50
100
AcDbCircle
 10
-160.842663
 20
115.30384
 30
0.0
 40
0.437514
100
AcDbArc
 50
0.0
 51
90.0
  0
LINE
  5
7B9
100
AcDbEntity
  8
3
370
    50
100
AcDbLine
 10
-174.055465
 20
113.203772
 30
0.0
 11
-174.055465
 21
114.778823
 31
0.0
  0
LINE
  5
7BA
100
AcDbEntity
  8
3
370
    50
100
AcDbLine
 10
-173.705454
 20
114.778823
 30
0.0
 11
-173.705454
 21
113.203772
 31
0.0
  0
LINE
  5
7BB
100
AcDbEntity
  8
3
370
    50
100
AcDbLine
 10
-173.705454
 20
114.778823
 30
0.0
 11
-174.055465
 21
114.778823
 31
0.0
  0
LINE
  5
7BC
100
AcDbEntity
  8
3
370
    50
100
AcDbLine
 10
-173.705454
 20
113.203772
 30
0.0
 11
-174.055465
 21
113.203772
 31
0.0
  0
LINE
  5
7BD
100
AcDbEntity
  8
3
370
    50
100
AcDbLine
 10
-174.94469
 20
112.927068
 30
0.0
 11
-175.117937
 21
112.753821
 31
0.0
  0
LINE
  5
7BE
100
AcDbEntity
  8
3
370
    50
100
AcDbLine
 10
-173.005432
 20
114.778823
 30
0.0
 11
-172.795425
 21
114.778823
 31
0.0
  0
LINE
  5
7BF
100
AcDbEntity
  8
3
370
    50
100
AcDbLine
 10
-173.442946
 20
113.203772
 30
0.0
 11
-173.162937
 21
113.203772
 31
0.0
  0
LINE
  5
7C0
100
AcDbEntity
  8
3
370
    50
100
AcDbLine
 10
-173.442946
 20
113.203772
 30
0.0
 11
-173.442946
 21
113.483782
 31
0.0
  0
LINE
  5
7C1
100
AcDbEntity
  8
3
370
    50
100
AcDbLine
 10
-172.795425
 20
114.498814
 30
0.0
 11
-172.795425
 21
114.778823
 31
0.0
  0
LINE
  5
7C2
100
AcDbEntity
  8
3
370
    50
100
AcDbLine
 10
-172.95293
 20
114.498814
 30
0.0
 11
-172.795425
 21
114.498814
 31
0.0
  0
LINE
  5
7C3
100
AcDbEntity
  8
3
370
    50
100
AcDbLine
 10
-173.303356
 20
114.020903
 30
0.0
 11
-173.084352
 21
113.817266
 31
0.0
  0
ARC
  5
7C4
100
AcDbEntity
  8
3
370
    50
100
AcDbCircle
 10
-172.95293
 20
114.323809
 30
0.0
 40
0.175006
100
AcDbArc
 50
90.0
 51
227.082289
  0
LINE
  5
7C5
100
AcDbEntity
  8
3
370
    50
100
AcDbLine
 10
-173.072099
 20
114.195646
 30
0.0
 11
-172.853096
 21
113.992009
 31
0.0
  0
ARC
  5
7C6
100
AcDbEntity
  8
3
370
    50
100
AcDbCircle
 10
-173.162937
 20
113.658787
 30
0.0
 40
0.455015
100
AcDbArc
 50
270.0
 51
47.082289
  0
ARC
  5
7C7
100
AcDbEntity
  8
3
370
    50
100
AcDbCircle
 10
-173.215438
 20
113.676288
 30
0.0
 40
0.192506
100
AcDbArc
 50
270.0
 51
47.082289
  0
ARC
  5
7C8
100
AcDbEntity
  8
3
370
    50
100
AcDbCircle
 10
-173.005432
 20
114.341309
 30
0.0
 40
0.437514
100
AcDbArc
 50
90.0
 51
227.082289
  0
LINE
  5
7C9
100
AcDbEntity
  8
3
370
    50
100
AcDbLine
 10
-173.215438
 20
113.483782
 30
0.0
 11
-173.442946
 21
113.483782
 31
0.0
  0
LINE
  5
7CA
100
AcDbEntity
  8
3
370
    50
100
AcDbLine
 10
-174.685486
 20
113.826793
 30
0.0
 11
-174.685486
 21
114.778823
 31
0.0
  0
LINE
  5
7CB
100
AcDbEntity
  8
3
370
    50
100
AcDbLine
 10
-174.370476
 20
113.826793
 30
0.0
 11
-174.370476
 21
114.778823
 31
0.0
  0
LINE
  5
7CC
100
AcDbEntity
  8
3
370
    50
100
AcDbLine
 10
-174.370476
 20
114.778823
 30
0.0
 11
-174.685486
 21
114.778823
 31
0.0
  0
ARC
  5
7CD
100
AcDbEntity
  8
3
370
    50
100
AcDbCircle
 10
-174.993496
 20
113.826793
 30
0.0
 40
0.62302
100
AcDbArc
 50
190.22669
 51
360.0
  0
ARC
  5
7CE
100
AcDbEntity
  8
3
370
    50
100
AcDbCircle
 10
-175.028497
 20
113.826793
 30
0.0
 40
0.343011
100
AcDbArc
 50
190.573586
 51
360.0
  0
ARC
  5
7CF
100
AcDbEntity
  8
3
370
    50
100
AcDbCircle
 10
-173.88046
 20
113.991298
 30
0.0
 40
1.505049
100
AcDbArc
 50
225.0
 51
188.720397
  0
ARC
  5
7D0
100
AcDbEntity
  8
3
370
    50
100
AcDbCircle
 10
-173.88046
 20
113.991298
 30
0.0
 40
1.750056
100
AcDbArc
 50
225.0
 51
189.066832
  0
LINE
  5
7D1
100
AcDbEntity
  8
3
370
    50
100
AcDbLine
 10
-151.479799
 20
112.241241
 30
0.0
 11
-151.479799
 21
114.57465
 31
0.0
  0
LINE
  5
7D2
100
AcDbEntity
  8
3
370
    50
100
AcDbLine
 10
-152.879844
 20
112.241241
 30
0.0
 11
-152.879844
 21
114.57465
 31
0.0
  0
LINE
  5
7D3
100
AcDbEntity
  8
3
370
    50
100
AcDbLine
 10
-153.229855
 20
112.241241
 30
0.0
 11
-152.529833
 21
112.241241
 31
0.0
  0
LINE
  5
7D4
100
AcDbEntity
  8
3
370
    50
100
AcDbLine
 10
-151.82981
 20
112.241241
 30
0.0
 11
-151.129787
 21
112.241241
 31
0.0
  0
LINE
  5
7D5
100
AcDbEntity
  8
3
370
    50
100
AcDbLine
 10
-175.36811
 20
113.763113
 30
0.0
 11
-175.365684
 21
113.763851
 31
0.0
  0
HATCH
  5
7D6
100
AcDbEntity
  8
3
370
    25
100
AcDbHatch
 10
0.0
 20
0.0
 30
0.0
210
0.0
220
0.0
230
1.0
  2
_U
 70
     0
 71
     1
 91
        1
 92
        1
 93
        4
 72
     1
 10
-173.705454
 20
114.778823
 11
-173.705454
 21
113.203772
 72
     1
 10
-173.705454
 20
113.203772
 11
-174.055465
 21
113.203772
 72
     1
 10
-174.055465
 20
113.203772
 11
-174.055465
 21
114.778823
 72
     1
 10
-174.055465
 20
114.778823
 11
-173.705454
 21
114.778823
 97
        4
330
0
330
0
330
0
330
0
 75
     0
 76
     0
 52
45.0
 41
1.0
 77
     0
 78
     1
 53
45.0
 43
0.0
 44
0.0
 45
-0.282843
 46
0.282843
 79
     0
 98
        1
 10
0.0
 20
0.0
  0
LINE
  5
7D7
100
AcDbEntity
  8
3
370
    25
100
AcDbLine
 10
-172.996477
 20
113.235314
 30
0.0
 11
-172.739463
 21
113.492328
 31
0.0
  0
LINE
  5
7D8
100
AcDbEntity
  8
3
370
    25
100
AcDbLine
 10
-173.442946
 20
113.354531
 30
0.0
 11
-173.313695
 21
113.483782
 31
0.0
  0
LINE
  5
7D9
100
AcDbEntity
  8
3
370
    25
100
AcDbLine
 10
-173.040608
 20
113.756868
 30
0.0
 11
-172.829298
 21
113.968179
 31
0.0
  0
LINE
  5
7DA
100
AcDbEntity
  8
3
370
    25
100
AcDbLine
 10
-172.795425
 20
114.567737
 30
0.0
 11
-172.864348
 21
114.498814
 31
0.0
  0
LINE
  5
7DB
100
AcDbEntity
  8
3
370
    25
100
AcDbLine
 10
-173.112099
 20
114.251062
 30
0.0
 11
-173.322902
 21
114.04026
 31
0.0
  0
LINE
  5
7DC
100
AcDbEntity
  8
3
370
    25
100
AcDbLine
 10
-173.401353
 20
114.527495
 30
0.0
 11
-173.191617
 21
114.73723
 31
0.0
  0
LINE
  5
7DD
100
AcDbEntity
  8
3
370
    25
100
AcDbLine
 10
-174.675878
 20
112.43245
 30
0.0
 11
-174.493315
 21
112.615013
 31
0.0
  0
LINE
  5
7DE
100
AcDbEntity
  8
3
370
    25
100
AcDbLine
 10
-172.504184
 20
114.604144
 30
0.0
 11
-172.321612
 21
114.786716
 31
0.0
  0
LINE
  5
7DF
100
AcDbEntity
  8
3
370
    25
100
AcDbLine
 10
-174.259795
 20
112.282848
 30
0.0
 11
-174.049529
 21
112.493113
 31
0.0
  0
LINE
  5
7E0
100
AcDbEntity
  8
3
370
    25
100
AcDbLine
 10
-172.382284
 20
114.160359
 30
0.0
 11
-172.172009
 21
114.370633
 31
0.0
  0
LINE
  5
7E1
100
AcDbEntity
  8
3
370
    25
100
AcDbLine
 10
-173.729163
 20
112.247794
 30
0.0
 11
-173.423668
 21
112.553289
 31
0.0
  0
LINE
  5
7E2
100
AcDbEntity
  8
3
370
    25
100
AcDbLine
 10
-172.442459
 20
113.534498
 30
0.0
 11
-172.136956
 21
113.840002
 31
0.0
  0
LINE
  5
7E3
100
AcDbEntity
  8
3
370
    25
100
AcDbLine
 10
-172.783824
 20
112.627448
 30
0.0
 11
-172.516609
 21
112.894662
 31
0.0
  0
LINE
  5
7E4
100
AcDbEntity
  8
3
370
    25
100
AcDbLine
 10
-175.015108
 20
112.658905
 30
0.0
 11
-174.841495
 21
112.832519
 31
0.0
  0
LINE
  5
7E5
100
AcDbEntity
  8
3
370
    25
100
AcDbLine
 10
-172.721689
 20
114.952324
 30
0.0
 11
-172.548067
 21
115.125946
 31
0.0
  0
LINE
  5
7E6
100
AcDbEntity
  8
3
370
    25
100
AcDbLine
 10
-175.04711
 20
113.192589
 30
0.0
 11
-174.370476
 21
113.869223
 31
0.0
  0
LINE
  5
7E7
100
AcDbEntity
  8
3
370
    25
100
AcDbLine
 10
-173.016757
 20
115.222942
 30
0.0
 11
-172.840705
 21
115.398994
 31
0.0
  0
LINE
  5
7E8
100
AcDbEntity
  8
3
370
    25
100
AcDbLine
 10
-175.433265
 20
113.372119
 30
0.0
 11
-175.244803
 21
113.560581
 31
0.0
  0
LINE
  5
7E9
100
AcDbEntity
  8
3
370
    25
100
AcDbLine
 10
-174.685486
 20
114.119898
 30
0.0
 11
-174.370476
 21
114.434909
 31
0.0
  0
LINE
  5
7EA
100
AcDbEntity
  8
3
370
    25
100
AcDbLine
 10
-173.392363
 20
115.413021
 30
0.0
 11
-173.201221
 21
115.604163
 31
0.0
  0
LINE
  5
7EB
100
AcDbEntity
  8
3
370
    25
100
AcDbLine
 10
-175.614679
 20
113.756391
 30
0.0
 11
-175.382513
 21
113.988557
 31
0.0
  0
LINE
  5
7EC
100
AcDbEntity
  8
3
370
    25
100
AcDbLine
 10
-174.685486
 20
114.685584
 30
0.0
 11
-174.592246
 21
114.778823
 31
0.0
  0
LINE
  5
7ED
100
AcDbEntity
  8
3
370
    25
100
AcDbLine
 10
-173.877727
 20
115.493343
 30
0.0
 11
-173.645552
 21
115.725517
 31
0.0
  0
LINE
  5
7EE
100
AcDbEntity
  8
3
370
    25
100
AcDbLine
 10
-175.595084
 20
114.341671
 30
0.0
 11
-175.158582
 21
114.778173
 31
0.0
  0
LINE
  5
7EF
100
AcDbEntity
  8
3
370
    25
100
AcDbLine
 10
-174.667343
 20
115.269412
 30
0.0
 11
-174.230833
 21
115.705922
 31
0.0
  0
LINE
  5
7F0
100
AcDbEntity
  8
3
370
    50
100
AcDbLine
 10
-153.92994
 20
112.678756
 30
0.0
 11
-153.92994
 21
112.241241
 31
0.0
  0
LINE
  5
7F1
100
AcDbEntity
  8
3
370
    50
100
AcDbLine
 10
-170.030335
 20
114.57465
 30
0.0
 11
-170.730358
 21
114.57465
 31
0.0
  0
LINE
  5
7F2
100
AcDbEntity
  8
3
370
    50
100
AcDbLine
 10
-151.479799
 20
114.57465
 30
0.0
 11
-152.179821
 21
113.362175
 31
0.0
  0
LINE
  5
7F3
100
AcDbEntity
  8
3
370
    50
100
AcDbLine
 10
-152.879844
 20
114.57465
 30
0.0
 11
-152.179821
 21
113.362175
 31
0.0
  0
LINE
  5
7F4
100
AcDbEntity
  8
3
370
    50
100
AcDbLine
 10
-170.380347
 20
114.57465
 30
0.0
 11
-170.380347
 21
112.941264
 31
0.0
  0
LINE
  5
7F5
100
AcDbEntity
  8
3
370
    50
100
AcDbLine
 10
-167.580256
 20
114.57465
 30
0.0
 11
-166.880234
 21
114.57465
 31
0.0
  0
LINE
  5
7F6
100
AcDbEntity
  8
3
370
    50
100
AcDbLine
 10
-168.980302
 20
114.57465
 30
0.0
 11
-169.680324
 21
114.57465
 31
0.0
  0
LINE
  5
7F7
100
AcDbEntity
  8
3
370
    50
100
AcDbLine
 10
-169.330313
 20
114.57465
 30
0.0
 11
-168.91887
 21
112.241241
 31
0.0
  0
LINE
  5
7F8
100
AcDbEntity
  8
3
370
    50
100
AcDbLine
 10
-168.91887
 20
112.241241
 30
0.0
 11
-168.280279
 21
113.995756
 31
0.0
  0
LINE
  5
7F9
100
AcDbEntity
  8
3
370
    50
100
AcDbLine
 10
-167.641688
 20
112.241241
 30
0.0
 11
-168.280279
 21
113.995756
 31
0.0
  0
LINE
  5
7FA
100
AcDbEntity
  8
3
370
    50
100
AcDbLine
 10
-167.230245
 20
114.57465
 30
0.0
 11
-167.641688
 21
112.241241
 31
0.0
  0
ARC
  5
7FB
100
AcDbEntity
  8
3
370
    50
100
AcDbCircle
 10
-171.080369
 20
112.941264
 30
0.0
 40
0.700023
100
AcDbArc
 50
180.0
 51
360.0
  0
LINE
  5
7FC
100
AcDbEntity
  8
3
370
    50
100
AcDbLine
 10
-175.630516
 20
116.741387
 30
0.0
 11
-151.629741
 21
116.741387
 31
0.0
  0
LINE
  5
7FD
100
AcDbEntity
  8
3
370
    50
100
AcDbLine
 10
-175.630516
 20
111.241209
 30
0.0
 11
-151.629741
 21
111.241209
 31
0.0
  0
POINT
  5
7FE
100
AcDbEntity
  8
3
370
    50
100
AcDbPoint
 10
-173.88046
 20
113.991298
 30
0.0
  0
LINE
  5
7FF
100
AcDbEntity
  8
3
370
    50
100
AcDbLine
 10
-176.630549
 20
112.241241
 30
0.0
 11
-176.630549
 21
115.741354
 31
0.0
  0
LINE
  5
800
100
AcDbEntity
  8
3
370
    50
100
AcDbLine
 10
-150.629709
 20
112.241241
 30
0.0
 11
-150.629709
 21
115.741354
 31
0.0
  0
HATCH
  5
801
100
AcDbEntity
  8
3
370
    25
100
AcDbHatch
 10
0.0
 20
0.0
 30
0.0
210
0.0
220
0.0
230
1.0
  2
_U
 70
     0
 71
     1
 91
        1
 92
        1
 93
        5
 72
     1
 10
-163.380245
 20
114.866326
 11
-163.380245
 21
115.30383999999999
 72
     2
 10
-163.817759
 20
115.30383999999999
 40
0.437514
 50
0.0
 51
90.0
 73
     1
 72
     1
 10
-163.817759
 20
115.741354
 11
-166.18033500000001
 21
115.741354
 72
     1
 10
-166.18033500000001
 20
115.741354
 11
-166.18033500000001
 21
114.866326
 72
     1
 10
-166.18033500000001
 20
114.866326
 11
-163.380245
 21
114.866326
 97
        5
330
0
330
0
330
0
330
0
330
0
 75
     0
 76
     0
 52
45.0
 41
1.0
 77
     0
 78
     1
 53
45.0
 43
0.0
 44
0.0
 45
-0.282843
 46
0.282843
 79
     0
 98
        1
 10
0.0
 20
0.0
  0
HATCH
  5
802
100
AcDbEntity
  8
3
370
    25
100
AcDbHatch
 10
0.0
 20
0.0
 30
0.0
210
0.0
220
0.0
230
1.0
  2
_U
 70
     0
 71
     1
 91
        1
 92
        1
 93
        5
 72
     2
 10
-163.817759
 20
113.85602299999999
 40
0.437514
 50
0.0
 51
82.0
 73
     1
 72
     1
 10
-163.75686899999999
 20
114.28927899999999
 11
-166.18033500000001
 21
114.629875
 72
     1
 10
-166.18033500000001
 20
114.629875
 11
-166.18033500000001
 21
113.74624799999999
 72
     1
 10
-166.18033500000001
 20
113.74624799999999
 11
-163.380245
 21
113.352721
 72
     1
 10
-163.380245
 20
113.352721
 11
-163.380245
 21
113.85602299999999
 97
        5
330
0
330
0
330
0
330
0
330
0
 75
     0
 76
     0
 52
45.0
 41
1.0
 77
     0
 78
     1
 53
45.0
 43
0.0
 44
0.0
 45
-0.282843
 46
0.282843
 79
     0
 98
        1
 10
0.0
 20
0.0
  0
HATCH
  5
803
100
AcDbEntity
  8
3
370
    25
100
AcDbHatch
 10
0.0
 20
0.0
 30
0.0
210
0.0
220
0.0
230
1.0
  2
_U
 70
     0
 71
     1
 91
        1
 92
        1
 93
        5
 72
     2
 10
-163.817759
 20
112.67875600000001
 40
0.437514
 50
0.0
 51
90.0
 73
     1
 72
     1
 10
-163.817759
 20
113.11627
 11
-166.18033500000001
 21
113.11627
 72
     1
 10
-166.18033500000001
 20
113.11627
 11
-166.18033500000001
 21
112.241241
 72
     1
 10
-166.18033500000001
 20
112.241241
 11
-163.380245
 21
112.241241
 72
     1
 10
-163.380245
 20
112.241241
 11
-163.380245
 21
112.67875600000001
 97
        5
330
0
330
0
330
0
330
0
330
0
 75
     0
 76
     0
 52
45.0
 41
1.0
 77
     0
 78
     1
 53
45.0
 43
0.0
 44
0.0
 45
-0.282843
 46
0.282843
 79
     0
 98
        1
 10
0.0
 20
0.0
  0
LINE
  5
804
100
AcDbEntity
  8
3
370
    25
100
AcDbLine
 10
-161.280177
 20
114.866326
 30
0.0
 11
-160.533294
 21
115.613209
 31
0.0
  0
LINE
  5
805
100
AcDbEntity
  8
3
370
    25
100
AcDbLine
 10
-162.942731
 20
112.638087
 30
0.0
 11
-162.464548
 21
113.11627
 31
0.0
  0
LINE
  5
806
100
AcDbEntity
  8
3
370
    25
100
AcDbLine
 10
-161.280177
 20
114.300641
 30
0.0
 11
-160.405149
 21
115.175669
 31
0.0
  0
LINE
  5
807
100
AcDbEntity
  8
3
370
    25
100
AcDbLine
 10
-162.773891
 20
112.241241
 30
0.0
 11
-161.641118
 21
113.374015
 31
0.0
  0
LINE
  5
808
100
AcDbEntity
  8
3
370
    25
100
AcDbLine
 10
-161.537922
 20
113.47721
 30
0.0
 11
-160.405149
 21
114.609984
 31
0.0
  0
LINE
  5
809
100
AcDbEntity
  8
3
370
    25
100
AcDbLine
 10
-162.204068
 20
112.245379
 30
0.0
 11
-160.409286
 21
114.040161
 31
0.0
  0
LINE
  5
80A
100
AcDbEntity
  8
3
370
    25
100
AcDbLine
 10
-161.406343
 20
112.477419
 30
0.0
 11
-160.348312
 21
113.53545
 31
0.0
  0
LINE
  5
80B
100
AcDbEntity
  8
3
370
    25
100
AcDbLine
 10
-160.640615
 20
112.677461
 30
0.0
 11
-159.996411
 21
113.321665
 31
0.0
  0
LINE
  5
80C
100
AcDbEntity
  8
3
370
    25
100
AcDbLine
 10
-160.268147
 20
112.484244
 30
0.0
 11
-159.579274
 21
113.173116
 31
0.0
  0
LINE
  5
80D
100
AcDbEntity
  8
3
370
    25
100
AcDbLine
 10
-159.847889
 20
112.338817
 30
0.0
 11
-159.071987
 21
113.114718
 31
0.0
  0
LINE
  5
80E
100
AcDbEntity
  8
3
370
    25
100
AcDbLine
 10
-159.367733
 20
112.253287
 30
0.0
 11
-159.005104
 21
112.615916
 31
0.0
  0
LINE
  5
80F
100
AcDbEntity
  8
3
370
    25
100
AcDbLine
 10
-160.970834
 20
115.741354
 30
0.0
 11
-161.845863
 21
114.866326
 31
0.0
  0
LINE
  5
810
100
AcDbEntity
  8
3
370
    25
100
AcDbLine
 10
-161.53652
 20
115.741354
 30
0.0
 11
-162.411548
 21
114.866326
 31
0.0
  0
LINE
  5
811
100
AcDbEntity
  8
3
370
    25
100
AcDbLine
 10
-162.102205
 20
115.741354
 30
0.0
 11
-162.505217
 21
115.338343
 31
0.0
  0
HATCH
  5
812
100
AcDbEntity
  8
3
370
    25
100
AcDbHatch
 10
0.0
 20
0.0
 30
0.0
210
0.0
220
0.0
230
1.0
  2
_U
 70
     0
 71
     1
 91
        1
 92
        1
 93
        1
 72
     2
 10
-160.142641
 20
115.478846
 40
0.262508
 50
0.0
 51
360.0
 73
     1
 97
        1
330
0
 75
     0
 76
     0
 52
45.0
 41
1.0
 77
     0
 78
     1
 53
45.0
 43
0.0
 44
0.0
 45
-0.282843
 46
0.282843
 79
     0
 98
        1
 10
0.0
 20
0.0
  0
HATCH
  5
813
100
AcDbEntity
  8
3
370
    25
100
AcDbHatch
 10
0.0
 20
0.0
 30
0.0
210
0.0
220
0.0
230
1.0
  2
_U
 70
     0
 71
     1
 91
        1
 92
        1
 93
        1
 72
     2
 10
-159.61762400000001
 20
115.478846
 40
0.262508
 50
0.0
 51
360.0
 73
     1
 97
        1
330
0
 75
     0
 76
     0
 52
45.0
 41
1.0
 77
     0
 78
     1
 53
45.0
 43
0.0
 44
0.0
 45
-0.282843
 46
0.282843
 79
     0
 98
        1
 10
0.0
 20
0.0
  0
LINE
  5
814
100
AcDbEntity
  8
3
370
    25
100
AcDbLine
 10
-154.804968
 20
114.866326
 30
0.0
 11
-154.058085
 21
115.613209
 31
0.0
  0
LINE
  5
815
100
AcDbEntity
  8
3
370
    25
100
AcDbLine
 10
-154.239283
 20
114.866326
 30
0.0
 11
-153.92994
 21
115.175669
 31
0.0
  0
LINE
  5
816
100
AcDbEntity
  8
3
370
    25
100
AcDbLine
 10
-154.495625
 20
115.741354
 30
0.0
 11
-155.370654
 21
114.866326
 31
0.0
  0
LINE
  5
817
100
AcDbEntity
  8
3
370
    25
100
AcDbLine
 10
-155.061311
 20
115.741354
 30
0.0
 11
-155.936339
 21
114.866326
 31
0.0
  0
LINE
  5
818
100
AcDbEntity
  8
3
370
    25
100
AcDbLine
 10
-155.626996
 20
115.741354
 30
0.0
 11
-156.030008
 21
115.338343
 31
0.0
  0
HATCH
  5
819
100
AcDbEntity
  8
3
370
    25
100
AcDbHatch
 10
0.0
 20
0.0
 30
0.0
210
0.0
220
0.0
230
1.0
  2
_U
 70
     0
 71
     1
 91
        1
 92
        1
 93
        5
 72
     2
 10
-154.36745400000001
 20
112.67875600000001
 40
0.437514
 50
0.0
 51
90.0
 73
     1
 72
     1
 10
-154.36745400000001
 20
113.11627
 11
-156.03000800000001
 21
113.11627
 72
     1
 10
-156.03000800000001
 20
113.11627
 11
-156.03000800000001
 21
112.241241
 72
     1
 10
-156.03000800000001
 20
112.241241
 11
-153.92993999999999
 21
112.241241
 72
     1
 10
-153.92993999999999
 20
112.241241
 11
-153.92993999999999
 21
112.67875600000001
 97
        5
330
0
330
0
330
0
330
0
330
0
 75
     0
 76
     0
 52
45.0
 41
1.0
 77
     0
 78
     1
 53
45.0
 43
0.0
 44
0.0
 45
-0.282843
 46
0.282843
 79
     0
 98
        1
 10
0.0
 20
0.0
  0
LINE
  5
81A
100
AcDbEntity
  8
3
370
    25
100
AcDbLine
 10
-157.867567
 20
114.341309
 30
0.0
 11
-157.692561
 21
114.516315
 31
0.0
  0
LINE
  5
81B
100
AcDbEntity
  8
3
370
    25
100
AcDbLine
 10
-157.34255
 20
114.866326
 30
0.0
 11
-156.595667
 21
115.613209
 31
0.0
  0
LINE
  5
81C
100
AcDbEntity
  8
3
370
    25
100
AcDbLine
 10
-158.56759
 20
113.075601
 30
0.0
 11
-158.526921
 21
113.11627
 31
0.0
  0
LINE
  5
81D
100
AcDbEntity
  8
3
370
    25
100
AcDbLine
 10
-157.867567
 20
113.775624
 30
0.0
 11
-156.467522
 21
115.175669
 31
0.0
  0
LINE
  5
81E
100
AcDbEntity
  8
3
370
    25
100
AcDbLine
 10
-158.56759
 20
112.509916
 30
0.0
 11
-157.703491
 21
113.374015
 31
0.0
  0
LINE
  5
81F
100
AcDbEntity
  8
3
370
    25
100
AcDbLine
 10
-157.600295
 20
113.47721
 30
0.0
 11
-156.467522
 21
114.609984
 31
0.0
  0
LINE
  5
820
100
AcDbEntity
  8
3
370
    25
100
AcDbLine
 10
-158.266441
 20
112.245379
 30
0.0
 11
-156.471659
 21
114.040161
 31
0.0
  0
LINE
  5
821
100
AcDbEntity
  8
3
370
    25
100
AcDbLine
 10
-157.468716
 20
112.477419
 30
0.0
 11
-156.703699
 21
113.242435
 31
0.0
  0
LINE
  5
822
100
AcDbEntity
  8
3
370
    25
100
AcDbLine
 10
-158.433253
 20
114.341309
 30
0.0
 11
-158.272973
 21
114.501588
 31
0.0
  0
LINE
  5
823
100
AcDbEntity
  8
3
370
    25
100
AcDbLine
 10
-157.908236
 20
114.866326
 30
0.0
 11
-157.033207
 21
115.741354
 31
0.0
  0
LINE
  5
824
100
AcDbEntity
  8
3
370
    25
100
AcDbLine
 10
-158.998938
 20
114.341309
 30
0.0
 11
-157.598893
 21
115.741354
 31
0.0
  0
LINE
  5
825
100
AcDbEntity
  8
3
370
    25
100
AcDbLine
 10
-159.118114
 20
114.787819
 30
0.0
 11
-158.164578
 21
115.741354
 31
0.0
  0
ARC
  5
826
100
AcDbEntity
  8
3
370
    50
100
AcDbCircle
 10
-175.630516
 20
115.741354
 30
0.0
 40
1.000032
100
AcDbArc
 50
90.0
 51
180.0
  0
ARC
  5
827
100
AcDbEntity
  8
3
370
    50
100
AcDbCircle
 10
-175.630516
 20
112.241241
 30
0.0
 40
1.000032
100
AcDbArc
 50
180.0
 51
270.0
  0
ARC
  5
828
100
AcDbEntity
  8
3
370
    50
100
AcDbCircle
 10
-151.629741
 20
115.741354
 30
0.0
 40
1.000032
100
AcDbArc
 50
0.0
 51
90.0
  0
ARC
  5
829
100
AcDbEntity
  8
3
370
    50
100
AcDbCircle
 10
-151.629741
 20
112.241241
 30
0.0
 40
1.000032
100
AcDbArc
 50
270.0
 51
360.0
  0
POINT
  5
82A
100
AcDbEntity
  8
3
370
    50
100
AcDbPoint
 10
-163.630129
 20
116.741387
 30
0.0
  0
POINT
  5
82B
100
AcDbEntity
  8
3
370
    50
100
AcDbPoint
 10
-163.630129
 20
121.741387
 30
0.0
  0
POINT
  5
82C
100
AcDbEntity
  8
3
370
    50
100
AcDbPoint
 10
394.982385
 20
275.028767
 30
0.0
  0
TEXT
  5
82D
100
AcDbEntity
  8
3
370
    50
100
AcDbText
 10
-188.335556
 20
99.353071
 30
0.0
 40
12.0
  1
△
 72
     5
 11
-178.735556
 21
99.353071
 31
0.0
100
AcDbText
  0
TEXT
  5
82E
100
AcDbEntity
  8
3
370
    50
100
AcDbText
 10
-184.341324
 20
101.837012
 30
0.0
 40
4.0
  1
２
 72
     5
 11
-181.141324
 21
101.837012
 31
0.0
100
AcDbText
  0
LWPOLYLINE
  5
82F
100
AcDbEntity
  8
3
370
    25
100
AcDbPolyline
 90
        3
 70
     0
 10
-260.577484
 20
64.580299
 10
-267.875946
 20
37.414024
 10
-280.648254
 20
37.414024
  0
LINE
  5
834
100
AcDbEntity
  8
3
370
    25
100
AcDbLine
 10
-261.579955
 20
60.848911
 30
0.0
 11
-260.580132
 21
60.5803
 31
0.0
  0
LINE
  5
835
100
AcDbEntity
  8
3
370
    25
100
AcDbLine
 10
-260.580132
 20
60.5803
 30
0.0
 11
-260.577484
 21
64.580299
 31
0.0
  0
LINE
  5
836
100
AcDbEntity
  8
3
370
    25
100
AcDbLine
 10
-260.577484
 20
64.580299
 30
0.0
 11
-262.579777
 21
61.117523
 31
0.0
  0
LINE
  5
837
100
AcDbEntity
  8
3
370
    25
100
AcDbLine
 10
-262.579777
 20
61.117523
 30
0.0
 11
-261.579955
 21
60.848911
 31
0.0
  0
POINT
  5
838
100
AcDbEntity
  8
3
370
    50
100
AcDbPoint
 10
-30.57996
 20
-108.260197
 30
0.0
  0
POINT
  5
839
100
AcDbEntity
  8
3
370
    50
100
AcDbPoint
 10
-296.979193
 20
-108.260197
 30
0.0
  0
POINT
  5
83A
100
AcDbEntity
  8
3
370
    50
100
AcDbPoint
 10
-163.77941
 20
-84.260197
 30
0.0
  0
TEXT
  5
83B
100
AcDbEntity
  8
3
370
    50
100
AcDbText
 10
-174.279181
 20
-35.931484
 30
0.0
 40
7.0
  1
２５３
 72
     5
 11
-154.679181
 21
-35.931484
 31
0.0
100
AcDbText
  0
DIMENSION
  5
83C
100
AcDbEntity
  8
3
370
    25
100
AcDbDimension
  2
*D10
 10
-37.428951
 20
-36.931484
 30
0.0
 11
-163.779181
 21
-34.931484
 31
0.0
 71
     0
 72
     0
 41
0.0
 42
0.0
  3
Standard
100
AcDbAlignedDimension
 13
-290.12941
 23
-97.25983
 33
0.0
 14
-37.428951
 24
-97.260197
 34
0.0
100
AcDbRotatedDimension
  0
TEXT
  5
83D
100
AcDbEntity
  8
3
370
    50
100
AcDbText
 10
-237.45441
 20
-62.539581
 30
0.0
 40
7.0
  1
１２７
 72
     5
 11
-217.85441
 21
-62.539581
 31
0.0
100
AcDbText
  0
DIMENSION
  5
83E
100
AcDbEntity
  8
3
370
    25
100
AcDbDimension
  2
*D11
 10
-163.77941
 20
-63.539581
 30
0.0
 11
-226.95441
 21
-61.539581
 31
0.0
 71
     0
 72
     0
 41
0.0
 42
0.0
  3
Standard
100
AcDbAlignedDimension
 13
-290.12941
 23
-97.25983
 33
0.0
 14
-163.77941
 24
-84.260197
 34
0.0
100
AcDbRotatedDimension
  0
TEXT
  5
83F
100
AcDbEntity
  8
3
370
    50
100
AcDbText
 10
-111.104181
 20
-62.539581
 30
0.0
 40
7.0
  1
１２６
 72
     5
 11
-91.504181
 21
-62.539581
 31
0.0
100
AcDbText
  0
DIMENSION
  5
840
100
AcDbEntity
  8
3
370
    25
100
AcDbDimension
  2
*D12
 10
-37.428951
 20
-63.539581
 30
0.0
 11
-100.604181
 21
-61.539581
 31
0.0
 71
     0
 72
     0
 41
0.0
 42
0.0
  3
Standard
100
AcDbAlignedDimension
 13
-163.77941
 23
-84.260197
 33
0.0
 14
-37.428951
 24
-97.260197
 34
0.0
100
AcDbRotatedDimension
  0
LINE
  5
841
100
AcDbEntity
  8
3
370
    25
  6
CENTER
100
AcDbLine
 10
254.112477
 20
48.267957
 30
0.0
 11
235.888135
 21
32.975918
 31
0.0
  0
LINE
  5
842
100
AcDbEntity
  8
3
370
    25
  6
CENTER
100
AcDbLine
 10
209.289019
 20
5.998384
 30
0.0
 11
196.361532
 21
-9.407995
 31
0.0
  0
DIMENSION
  5
843
100
AcDbEntity
  8
3
370
    25
100
AcDbDimension
  2
*D13
 10
222.494484
 20
21.743913
 30
0.0
 11
235.246373
 21
73.005709
 31
0.0
 70
     2
 71
     0
 72
     0
 41
0.0
 42
0.0
  3
Standard
100
AcDb2LineAngularDimension
 13
246.832762
 23
42.159551
 33
0.0
 14
222.498075
 24
21.740323
 34
0.0
 15
222.498075
 25
21.740323
 35
0.0
 16
224.712747
 26
72.464664
 36
0.0
1001
ACAD
1000
DSTYLE
1002
{
1070
   275
1070
     0
1070
   179
1070
     0
1002
}
  0
DIMENSION
  5
844
100
AcDbEntity
  8
3
370
    25
100
AcDbDimension
  2
*D14
 10
202.855963
 20
-1.668234
 30
0.0
 11
120.565621
 21
18.288904
 31
0.0
 70
     2
 71
     0
 72
     0
 41
0.0
 42
0.0
  3
Standard
100
AcDb2LineAngularDimension
 13
222.494485
 23
21.743913
 33
0.0
 14
222.498075
 24
21.740323
 34
0.0
 15
222.498075
 25
21.740323
 35
0.0
 16
171.78161
 26
19.525995
 36
0.0
1001
ACAD
1000
DSTYLE
1002
{
1070
   275
1070
     0
1070
   179
1070
     0
1002
}
  0
TEXT
  5
845
100
AcDbEntity
  8
3
370
    50
100
AcDbText
 10
155.962467
 20
-27.323464
 30
0.0
 40
7.0
  1
パイプ吐水
 72
     5
 11
189.562467
 21
-27.323464
 31
0.0
100
AcDbText
  0
TEXT
  5
846
100
AcDbEntity
  8
3
370
    50
100
AcDbText
 10
234.489399
 20
81.174392
 30
0.0
 40
7.0
  1
シャワー吐水
 72
     5
 11
275.089399
 21
81.174392
 31
0.0
100
AcDbText
  0
TEXT
  5
847
100
AcDbEntity
  8
3
370
    50
100
AcDbText
 10
170.791294
 20
61.308731
 30
0.0
 40
7.0
  1
止水
 72
     5
 11
183.391294
 21
61.308731
 31
0.0
100
AcDbText
  0
TEXT
  5
848
100
AcDbEntity
  8
3
370
    50
100
AcDbText
 10
170.771545
 20
14.466179
 30
0.0
 40
7.0
  1
９５゜
 50
87.5
 72
     5
 11
171.626485
 21
34.047524
 31
0.0
100
AcDbText
  0
TEXT
  5
849
100
AcDbEntity
  8
3
370
    50
100
AcDbText
 10
-309.766296
 20
83.563864
 30
0.0
 40
12.0
  1
△
 72
     5
 11
-300.166296
 21
83.563864
 31
0.0
100
AcDbText
  0
TEXT
  5
84A
100
AcDbEntity
  8
3
370
    50
100
AcDbText
 10
-305.772064
 20
86.047804
 30
0.0
 40
4.0
  1
３
 72
     5
 11
-302.572064
 21
86.047804
 31
0.0
100
AcDbText
  0
TEXT
  5
84B
100
AcDbEntity
  8
3
370
    50
100
AcDbText
 10
-301.797748
 20
88.656952
 30
0.0
 40
4.0
  1
１
 72
     5
 11
-298.597748
 21
88.656952
 31
0.0
100
AcDbText
  0
TEXT
  5
84C
100
AcDbEntity
  8
3
370
    50
100
AcDbText
 10
-32.639513
 20
86.205939
 30
0.0
 40
12.0
  1
△
 72
     5
 11
-23.039513
 21
86.205939
 31
0.0
100
AcDbText
  0
TEXT
  5
84D
100
AcDbEntity
  8
3
370
    50
100
AcDbText
 10
-28.645281
 20
88.689879
 30
0.0
 40
4.0
  1
３
 72
     5
 11
-25.445281
 21
88.689879
 31
0.0
100
AcDbText
  0
TEXT
  5
84E
100
AcDbEntity
  8
3
370
    50
100
AcDbText
 10
-24.598424
 20
91.289627
 30
0.0
 40
4.0
  1
２
 72
     5
 11
-21.398424
 21
91.289627
 31
0.0
100
AcDbText
  0
ENDSEC
  0
SECTION
  2
OBJECTS
  0
DICTIONARY
  5
8FC
100
AcDbDictionary
280
     0
281
     1
  3
ACAD_GROUP
350
8FD
  3
ACAD_MLINESTYLE
350
8FE
  0
DICTIONARY
  5
8FD
102
{ACAD_REACTORS
330
8FC
102
}
100
AcDbDictionary
280
     0
281
     1
  0
DICTIONARY
  5
8FE
102
{ACAD_REACTORS
330
8FC
102
}
100
AcDbDictionary
280
     0
281
     1
  3
Standard
350
8FF
  0
MLINESTYLE
  5
8FF
102
{ACAD_REACTORS
330
8FE
102
}
100
AcDbMlineStyle
  2
Standard
 70
     0
  3

 62
     0
 51
90.0
 52
90.0
 71
     2
 49
0.5
 62
   256
  6
ByLayer
 49
-0.5
 62
   256
  6
ByLayer
  0
ENDSEC
  0
EOF
