  0
SECTION
  2
HEADER
  9
$ACADVER
  1
AC1015
  9
$ACADMAINTVER
 70
     6
  9
$DWGCODEPAGE
  3
ANSI_932
  9
$INSBASE
 10
0.0
 20
0.0
 30
0.0
  9
$EXTMIN
 10
-841.0
 20
-594.0
 30
1.000000E+20
  9
$EXTMAX
 10
841.0
 20
594.0
 30
-1.000000E+20
  9
$LIMMIN
 10
-841.0
 20
-594.0
  9
$LIMMAX
 10
841.0
 20
594.0
  9
$ORTHOMODE
 70
     0
  9
$REGENMODE
 70
     1
  9
$FILLMODE
 70
     1
  9
$QTEXTMODE
 70
     0
  9
$MIRRTEXT
 70
     1
  9
$LTSCALE
 40
1.0
  9
$ATTMODE
 70
     1
  9
$TEXTSIZE
 40
0.2
  9
$TRACEWID
 40
0.05
  9
$TEXTSTYLE
  7
STANDARD
  9
$CLAYER
  8
0
  9
$CELTYPE
  6
CONTINUOUS
  9
$CECOLOR
 62
   256
  9
$CELTSCALE
 40
1.0
  9
$DISPSILH
 70
     0
  9
$DIMSCALE
 40
2.0
  9
$DIMASZ
 40
2.0
  9
$DIMEXO
 40
1.0
  9
$DIMDLI
 40
0.38
  9
$DIMRND
 40
0.0
  9
$DIMDLE
 40
0.0
  9
$DIMEXE
 40
2.0
  9
$DIMTP
 40
0.0
  9
$DIMTM
 40
0.0
  9
$DIMTXT
 40
3.5
  9
$DIMCEN
 40
0.09
  9
$DIMTSZ
 40
0.0
  9
$DIMTOL
 70
     0
  9
$DIMLIM
 70
     0
  9
$DIMTIH
 70
     0
  9
$DIMTOH
 70
     0
  9
$DIMSE1
 70
     0
  9
$DIMSE2
 70
     0
  9
$DIMTAD
 70
     1
  9
$DIMZIN
 70
     0
  9
$DIMBLK
  1

  9
$DIMASO
 70
     1
  9
$DIMSHO
 70
     1
  9
$DIMPOST
  1

  9
$DIMAPOST
  1

  9
$DIMALT
 70
     0
  9
$DIMALTD
 70
     2
  9
$DIMALTF
 40
25.4
  9
$DIMLFAC
 40
1.0
  9
$DIMTOFL
 70
     0
  9
$DIMTVP
 40
0.0
  9
$DIMTIX
 70
     0
  9
$DIMSOXD
 70
     0
  9
$DIMSAH
 70
     0
  9
$DIMBLK1
  1

  9
$DIMBLK2
  1

  9
$DIMSTYLE
  2
Standard
  9
$DIMCLRD
 70
     0
  9
$DIMCLRE
 70
     0
  9
$DIMCLRT
 70
     0
  9
$DIMTFAC
 40
1.0
  9
$DIMGAP
 40
0.5
  9
$DIMJUST
 70
     0
  9
$DIMSD1
 70
     0
  9
$DIMSD2
 70
     0
  9
$DIMTOLJ
 70
     1
  9
$DIMTZIN
 70
     0
  9
$DIMALTZ
 70
     0
  9
$DIMALTTZ
 70
     0
  9
$DIMUPT
 70
     0
  9
$DIMDEC
 70
     0
  9
$DIMTDEC
 70
     4
  9
$DIMALTU
 70
     2
  9
$DIMALTTD
 70
     2
  9
$DIMTXSTY
  7
STANDARD
  9
$DIMAUNIT
 70
     0
  9
$DIMADEC
 70
     0
  9
$DIMALTRND
 40
0.0
  9
$DIMAZIN
 70
     0
  9
$DIMDSEP
 70
     0
  9
$DIMATFIT
 70
     3
  9
$DIMFRAC
 70
     0
  9
$DIMLDRBLK
  1

  9
$DIMLUNIT
 70
     2
  9
$DIMLWD
 70
     0
  9
$DIMLWE
 70
     0
  9
$DIMTMOVE
 70
     0
  9
$LUNITS
 70
     2
  9
$LUPREC
 70
     4
  9
$SKETCHINC
 40
0.1
  9
$FILLETRAD
 40
0.0
  9
$AUNITS
 70
     0
  9
$AUPREC
 70
     0
  9
$MENU
  1
acad
  9
$ELEVATION
 40
0.0
  9
$PELEVATION
 40
0.0
  9
$THICKNESS
 40
0.0
  9
$LIMCHECK
 70
     0
  9
$CHAMFERA
 40
0.0
  9
$CHAMFERB
 40
0.0
  9
$CHAMFERC
 40
0.0
  9
$CHAMFERD
 40
0.0
  9
$SKPOLY
 70
     0
  9
$TDCREATE
 40
2453241.000000000
  9
$TDUCREATE
 40
0.000000000
  9
$TDUPDATE
 40
0.000000000
  9
$TDUUPDATE
 40
2447892.625000000
  9
$TDINDWG
 40
0.0000000000
  9
$TDUSRTIMER
 40
0.0000000000
  9
$USRTIMER
 70
     1
  9
$ANGBASE
 50
0.0
  9
$ANGDIR
 70
     0
  9
$PDMODE
 70
     0
  9
$PDSIZE
 40
0.0
  9
$PLINEWID
 40
0.0
  9
$SPLFRAME
 70
     0
  9
$SPLINETYPE
 70
     6
  9
$SPLINESEGS
 70
     8
  9
$HANDSEED
  5
3CC
  9
$SURFTAB1
 70
     6
  9
$SURFTAB2
 70
     6
  9
$SURFTYPE
 70
     6
  9
$SURFU
 70
     6
  9
$SURFV
 70
     6
  9
$UCSBASE
  2

  9
$UCSNAME
  2

  9
$UCSORG
 10
0.0
 20
0.0
 30
0.0
  9
$UCSXDIR
 10
1.0
 20
0.0
 30
0.0
  9
$UCSYDIR
 10
0.0
 20
1.0
 30
0.0
  9
$UCSORTHOREF
  2

  9
$UCSORTHOVIEW
 70
     0
  9
$UCSORGTOP
 10
0.0
 20
0.0
 30
0.0
  9
$UCSORGBOTTOM
 10
0.0
 20
0.0
 30
0.0
  9
$UCSORGLEFT
 10
0.0
 20
0.0
 30
0.0
  9
$UCSORGRIGHT
 10
0.0
 20
0.0
 30
0.0
  9
$UCSORGFRONT
 10
0.0
 20
0.0
 30
0.0
  9
$UCSORGBACK
 10
0.0
 20
0.0
 30
0.0
  9
$PUCSBASE
  2

  9
$PUCSNAME
  2

  9
$PUCSORG
 10
0.0
 20
0.0
 30
0.0
  9
$PUCSXDIR
 10
1.0
 20
0.0
 30
0.0
  9
$PUCSYDIR
 10
0.0
 20
1.0
 30
0.0
  9
$PUCSORTHOREF
  2

  9
$PUCSORTHOVIEW
 70
     0
  9
$PUCSORGTOP
 10
0.0
 20
0.0
 30
0.0
  9
$PUCSORGBOTTOM
 10
0.0
 20
0.0
 30
0.0
  9
$PUCSORGLEFT
 10
0.0
 20
0.0
 30
0.0
  9
$PUCSORGRIGHT
 10
0.0
 20
0.0
 30
0.0
  9
$PUCSORGFRONT
 10
0.0
 20
0.0
 30
0.0
  9
$PUCSORGBACK
 10
0.0
 20
0.0
 30
0.0
  9
$USERI1
 70
     0
  9
$USERI2
 70
     0
  9
$USERI3
 70
     0
  9
$USERI4
 70
     0
  9
$USERI5
 70
     0
  9
$USERR1
 40
0.0
  9
$USERR2
 40
0.0
  9
$USERR3
 40
0.0
  9
$USERR4
 40
0.0
  9
$USERR5
 40
0.0
  9
$WORLDVIEW
 70
     1
  9
$SHADEDGE
 70
     3
  9
$SHADEDIF
 70
    70
  9
$TILEMODE
 70
     1
  9
$MAXACTVP
 70
    16
  9
$PINSBASE
 10
0.0
 20
0.0
 30
0.0
  9
$PLIMCHECK
 70
     0
  9
$PEXTMIN
 10
1.000000E+20
 20
1.000000E+20
 30
1.000000E+20
  9
$PEXTMAX
 10
-1.000000E+20
 20
-1.000000E+20
 30
-1.000000E+20
  9
$PLIMMIN
 10
0.0
 20
0.0
  9
$PLIMMAX
 10
12.0
 20
9.0
  9
$UNITMODE
 70
     0
  9
$VISRETAIN
 70
     0
  9
$PLINEGEN
 70
     1
  9
$PSLTSCALE
 70
     0
  9
$TREEDEPTH
 70
  3020
  9
$CMLSTYLE
  2
Standard
  9
$CMLJUST
 70
     0
  9
$CMLSCALE
 40
1.0
  9
$PROXYGRAPHICS
 70
     0
  9
$MEASUREMENT
 70
     0
  9
$CELWEIGHT
370
     0
  9
$ENDCAPS
280
     0
  9
$JOINSTYLE
280
     0
  9
$LWDISPLAY
290
     0
  9
$INSUNITS
 70
     0
  9
$HYPERLINKBASE
  1

  9
$STYLESHEET
  1

  9
$XEDIT
290
     1
  9
$CEPSNTYPE
380
     0
  9
$PSTYLEMODE
290
     1
  9
$FINGERPRINTGUID
  2

  9
$VERSIONGUID
  2

  9
$EXTNAMES
290
     1
  9
$PSVPSCALE
 40
0.0
  0
ENDSEC
  0
SECTION
  2
CLASSES
  0
CLASS
  1
LWPOLYLINE
  2
AcDbPolyline
  3
AutoCAD 2000
 90
        0
280
     0
281
     1
  0
CLASS
  1
IMAGE
  2
AcDbRasterImage
  3
ISM
 90
      127
280
     0
281
     1
  0
CLASS
  1
OLE2FRAME
  2
AcDbOle2Frame
  3
AutoCAD 2000
 90
        0
280
     0
281
     1
  0
CLASS
  1
HATCH
  2
AcDbHatch
  3
AutoCAD 2000
 90
        0
280
     0
281
     1
  0
CLASS
  1
DICTIONARYVAR
  2
AcDbDictionaryVar
  3
AutoCAD 2000
 90
        0
280
     0
281
     0
  0
CLASS
  1
RASTERVARIABLES
  2
AcDbRasterVariables
  3
ISM
 90
        0
280
     0
281
     0
  0
CLASS
  1
IMAGEDEF
  2
AcDbRasterImageDef
  3
ISM
 90
        0
280
     0
281
     0
  0
CLASS
  1
IMAGEDEF_REACTOR
  2
AcDbRasterImageDefReactor
  3
ISM
 90
        1
280
     0
281
     0
  0
CLASS
  1
IDBUFFER
  2
AcDbIdBuffer
  3
AutoCAD 2000
 90
        0
280
     0
281
     0
  0
CLASS
  1
SPATIAL_FILTER
  2
AcDbSpatialFilter
  3
AutoCAD 2000
 90
        0
280
     0
281
     0
  0
CLASS
  1
XRECORD
  2
AcDbXrecord
  3
AutoCAD 2000
 90
        0
280
     0
281
     0
  0
CLASS
  1
SORTENTSTABLE
  2
AcDbSortentsTable
  3
AutoCAD 2000
 90
        0
280
     0
281
     0
  0
CLASS
  1
LAYER_INDEX
  2
AcDbLayerIndex
  3
AutoCAD 2000
 90
        0
280
     0
281
     0
  0
CLASS
  1
SPATIAL_INDEX
  2
AcDbSpatialIndex
  3
AutoCAD 2000
 90
        0
280
     0
281
     0
  0
CLASS
  1
OBJECT_PTR
  2
CAseDLPNTableRecord
  3
"ASE-LPNTableRecord"
 90
        1
280
     0
281
     0
  0
CLASS
  1
LAYOUT
  2
AcDbLayout
  3
AutoCAD 2000
 90
        0
280
     0
281
     0
  0
CLASS
  1
PLOTSETTINGS
  2
AcDbPlotSettings
  3
AutoCAD 2000
 90
        0
280
     0
281
     0
  0
CLASS
  1
ACDBDICTIONARYWDFLT
  2
AcDbDictionaryWithDefault
  3
AutoCAD 2000
 90
        0
280
     0
281
     0
  0
CLASS
  1
ACDBPLACEHOLDER
  2
AcDbPlaceHolder
  3
AutoCAD 2000
 90
        0
280
     0
281
     0
  0
CLASS
  1
VBA_PROJECT
  2
AcDbVbaProject
  3
acadvba
 90
        0
280
     0
281
     0
  0
CLASS
  1
WIPEOUT
  2
AcDbWipeout
  3
WipeOut|AutoCAD Express Tool|expresstools@autodesk.com
 90
      127
280
     0
281
     1
  0
CLASS
  1
WIPEOUTVARIABLES
  2
AcDbWipeoutVariables
  3
WipeOut|AutoCAD Express Tool|expresstools@autodesk.com
 90
        0
280
     0
281
     0
  0
CLASS
  1
RTEXT
  2
RText
  3
RText|AutoCAD Express Tool|expresstools@autodesk.com
 90
        0
280
     0
281
     1
  0
CLASS
  1
ARCALIGNEDTEXT
  2
AcDbArcAlignedText
  3
ATEXT|AutoCAD Express Tool|expresstools@autodesk.com
 90
        0
280
     0
281
     1
  0
ENDSEC
  0
SECTION
  2
TABLES
  0
TABLE
  2
VPORT
  5
6
100
AcDbSymbolTable
 70
     1
  0
VPORT
  5
19
100
AcDbSymbolTableRecord
100
AcDbViewportTableRecord
  2
*ACTIVE
 70
     0
 10
0.0
 20
0.0
 11
1.0
 21
1.0
 12
0.0
 22
0.0
 13
0.0
 23
0.0
 14
1.0
 24
1.0
 15
0.0
 25
0.0
 16
0.0
 26
0.0
 36
1.0
 17
0.0
 27
0.0
 37
0.0
 40
1188.0
 41
1.415825
 42
50.0
 43
0.0
 44
0.0
 50
0.0
 51
0.0
 71
     0
 72
   500
 73
     1
 74
     1
 75
     0
 76
     0
 77
     0
 78
     0
281
     0
 65
     0
110
0.0
120
0.0
130
0.0
111
1.0
121
0.0
131
0.0
112
0.0
122
1.0
132
0.0
345
0
346
0
 79
     0
146
0.0
  0
ENDTAB
  0
TABLE
  2
LTYPE
  5
3
100
AcDbSymbolTable
 70
     9
  0
LTYPE
  5
C
100
AcDbSymbolTableRecord
100
AcDbLinetypeTableRecord
  2
ByBlock
 70
    64
  3

 72
    65
 73
     0
 40
0.0
  0
LTYPE
  5
D
100
AcDbSymbolTableRecord
100
AcDbLinetypeTableRecord
  2
ByLayer
 70
    64
  3

 72
    65
 73
     0
 40
0.0
  0
LTYPE
  5
E
100
AcDbSymbolTableRecord
100
AcDbLinetypeTableRecord
  2
CONTINUOUS
 70
     0
  3
Solid line
 72
    65
 73
     0
 40
0.0
  0
LTYPE
  5
F
100
AcDbSymbolTableRecord
100
AcDbLinetypeTableRecord
  2
DASHED
 70
     0
  3
__ __ __ __ __ __ __ __ __ __ __ __ __ __ __
 72
    65
 73
     2
 40
2.0
 49
1.2
 74
     0
 49
-0.8
 74
     0
  0
LTYPE
  5
10
100
AcDbSymbolTableRecord
100
AcDbLinetypeTableRecord
  2
CENTER
 70
     0
  3
____ _ ____ _ ____ _ ____ _ ____ _ ____ _ ____
 72
    65
 73
     4
 40
12.0
 49
9.0
 74
     0
 49
-1.0
 74
     0
 49
1.0
 74
     0
 49
-1.0
 74
     0
  0
LTYPE
  5
11
100
AcDbSymbolTableRecord
100
AcDbLinetypeTableRecord
  2
HIDDEN
 70
     0
  3
_ _ _ _ _ _ _ _ _ _ _ _ _ _ _ _ _ _ _ _ _ _ _
 72
    65
 73
     2
 40
3.2
 49
2.4
 74
     0
 49
-0.8
 74
     0
  0
LTYPE
  5
12
100
AcDbSymbolTableRecord
100
AcDbLinetypeTableRecord
  2
PHANTOM
 70
     0
  3
_____ _ _ _____ _ _ _____ _ _ _____ _ _ _____
 72
    65
 73
     6
 40
13.5
 49
9.0
 74
     0
 49
-1.0
 74
     0
 49
1.0
 74
     0
 49
-0.5
 74
     0
 49
1.0
 74
     0
 49
-1.0
 74
     0
  0
LTYPE
  5
13
100
AcDbSymbolTableRecord
100
AcDbLinetypeTableRecord
  2
DOT
 70
     0
  3
...............................................
 72
    65
 73
     2
 40
1.0
 49
0.5
 74
     0
 49
-0.5
 74
     0
  0
LTYPE
  5
14
100
AcDbSymbolTableRecord
100
AcDbLinetypeTableRecord
  2
DASHDOT
 70
     0
  3
__ . __ . __ . __ . __ . __ . __ . __ . __ . __
 72
    65
 73
     4
 40
8.0
 49
5.0
 74
     0
 49
-1.0
 74
     0
 49
1.0
 74
     0
 49
-1.0
 74
     0
  0
ENDTAB
  0
TABLE
  2
LAYER
  5
1
100
AcDbSymbolTable
 70
     4
  0
LAYER
  5
15
100
AcDbSymbolTableRecord
100
AcDbLayerTableRecord
  2
0
 70
     0
 62
     7
  6
CONTINUOUS
290
     1
370
    -3
390
0
  0
LAYER
  5
16
100
AcDbSymbolTableRecord
100
AcDbLayerTableRecord
  2
1
 70
     0
 62
     7
  6
CONTINUOUS
290
     1
370
    -3
390
0
  0
LAYER
  5
17
100
AcDbSymbolTableRecord
100
AcDbLayerTableRecord
  2
2
 70
     0
 62
     7
  6
CONTINUOUS
290
     1
370
    -3
390
0
  0
LAYER
  5
18
100
AcDbSymbolTableRecord
100
AcDbLayerTableRecord
  2
3
 70
     0
 62
     7
  6
CONTINUOUS
290
     1
370
    -3
390
0
  0
ENDTAB
  0
TABLE
  2
STYLE
  5
2
100
AcDbSymbolTable
 70
     1
  0
STYLE
  5
1B
100
AcDbSymbolTableRecord
100
AcDbTextStyleTableRecord
  2
STANDARD
 70
    64
 40
0.0
 41
1.0
 50
0.0
 71
     0
 42
1.0
  3
txt
  4
BIGFONT
  0
ENDTAB
  0
TABLE
  2
VIEW
  5
4
100
AcDbSymbolTable
 70
     0
  0
ENDTAB
  0
TABLE
  2
UCS
  5
5
100
AcDbSymbolTable
 70
     0
  0
ENDTAB
  0
TABLE
  2
APPID
  5
7
100
AcDbSymbolTable
 70
     1
  0
APPID
  5
1A
100
AcDbSymbolTableRecord
100
AcDbRegAppTableRecord
  2
ACAD
 70
     0
  0
ENDTAB
  0
TABLE
  2
DIMSTYLE
  5
8
100
AcDbSymbolTable
 70
     1
100
AcDbDimStyleTable
 71
     0
  0
DIMSTYLE
105
32
100
AcDbSymbolTableRecord
100
AcDbDimStyleTableRecord
  2
Standard
 70
     0
  3

  4

 40
2.0
 41
2.0
 42
1.0
 43
0.38
 44
2.0
 45
0.0
 46
0.0
 47
0.0
 48
0.0
 71
     0
 72
     0
 73
     0
 74
     0
 75
     0
 76
     0
 77
     1
 78
     0
 79
     0
140
3.5
141
0.09
142
0.0
143
25.4
144
1.0
145
0.0
146
1.0
147
0.5
148
0.0
170
     0
171
     2
172
     0
173
     0
174
     0
175
     0
176
     0
177
     0
178
     0
179
     0
271
     0
272
     4
273
     2
274
     2
275
     0
276
     0
277
     2
278
    46
279
     0
280
     0
281
     0
282
     0
283
     1
284
     0
285
     0
286
     0
288
     0
289
     3
340
1B
341
0
342
0
343
0
344
0
371
    -2
372
    -2
  0
ENDTAB
  0
TABLE
  2
BLOCK_RECORD
  5
2D
100
AcDbSymbolTable
 70
    15
  0
BLOCK_RECORD
  5
2B
100
AcDbSymbolTableRecord
100
AcDbBlockTableRecord
  2
*Model_Space
340
0
  0
BLOCK_RECORD
  5
2C
100
AcDbSymbolTableRecord
100
AcDbBlockTableRecord
  2
*Paper_Space
340
0
  0
BLOCK_RECORD
  5
1C
100
AcDbSymbolTableRecord
100
AcDbBlockTableRecord
  2
*D0
340
0
  0
BLOCK_RECORD
  5
1D
100
AcDbSymbolTableRecord
100
AcDbBlockTableRecord
  2
*D1
340
0
  0
BLOCK_RECORD
  5
1E
100
AcDbSymbolTableRecord
100
AcDbBlockTableRecord
  2
*D2
340
0
  0
BLOCK_RECORD
  5
1F
100
AcDbSymbolTableRecord
100
AcDbBlockTableRecord
  2
*D3
340
0
  0
BLOCK_RECORD
  5
20
100
AcDbSymbolTableRecord
100
AcDbBlockTableRecord
  2
*D4
340
0
  0
BLOCK_RECORD
  5
21
100
AcDbSymbolTableRecord
100
AcDbBlockTableRecord
  2
*D5
340
0
  0
BLOCK_RECORD
  5
22
100
AcDbSymbolTableRecord
100
AcDbBlockTableRecord
  2
*D6
340
0
  0
BLOCK_RECORD
  5
23
100
AcDbSymbolTableRecord
100
AcDbBlockTableRecord
  2
*D7
340
0
  0
BLOCK_RECORD
  5
24
100
AcDbSymbolTableRecord
100
AcDbBlockTableRecord
  2
*D8
340
0
  0
BLOCK_RECORD
  5
25
100
AcDbSymbolTableRecord
100
AcDbBlockTableRecord
  2
*D9
340
0
  0
BLOCK_RECORD
  5
26
100
AcDbSymbolTableRecord
100
AcDbBlockTableRecord
  2
*D10
340
0
  0
BLOCK_RECORD
  5
27
100
AcDbSymbolTableRecord
100
AcDbBlockTableRecord
  2
*D11
340
0
  0
BLOCK_RECORD
  5
28
100
AcDbSymbolTableRecord
100
AcDbBlockTableRecord
  2
*D12
340
0
  0
BLOCK_RECORD
  5
29
100
AcDbSymbolTableRecord
100
AcDbBlockTableRecord
  2
*D13
340
0
  0
BLOCK_RECORD
  5
2A
100
AcDbSymbolTableRecord
100
AcDbBlockTableRecord
  2
*D14
340
0
  0
ENDTAB
  0
ENDSEC
  0
SECTION
  2
BLOCKS
  0
BLOCK
  5
2E
100
AcDbEntity
  8
0
390
0
100
AcDbBlockBegin
  2
*Model_Space
 70
     0
 10
0.0
 20
0.0
 30
0.0
  3
*Model_Space
  1

  0
ENDBLK
  5
2F
100
AcDbEntity
  8
0
390
0
100
AcDbBlockEnd
  0
BLOCK
  5
30
100
AcDbEntity
 67
     1
  8
0
390
0
100
AcDbBlockBegin
  2
*Paper_Space
 70
     0
 10
0.0
 20
0.0
 30
0.0
  3
*Paper_Space
  1

  0
ENDBLK
  5
31
100
AcDbEntity
 67
     1
  8
0
390
0
100
AcDbBlockEnd
  0
BLOCK
  5
31B
100
AcDbEntity
  8
3
100
AcDbBlockBegin
  2
*D0
 70
     1
 10
0.0
 20
0.0
 30
0.0
  3
*D0
  1

  0
LINE
  5
31C
100
AcDbEntity
  8
3
370
    25
100
AcDbLine
 10
239.417239
 20
-159.977466
 30
0.0
 11
-22.625851
 21
-159.977466
 31
0.0
  0
LINE
  5
31D
100
AcDbEntity
  8
3
370
    25
100
AcDbLine
 10
-20.625851
 20
-159.977466
 30
0.0
 11
-19.590574
 21
-156.113762
 31
0.0
  0
LINE
  5
31E
100
AcDbEntity
  8
3
370
    25
100
AcDbLine
 10
-20.625851
 20
-159.977466
 30
0.0
 11
-21.661127
 21
-156.113762
 31
0.0
  0
LINE
  5
31F
100
AcDbEntity
  8
3
370
    25
100
AcDbLine
 10
-19.590574
 20
-156.113762
 30
0.0
 11
-21.661127
 21
-156.113762
 31
0.0
  0
LINE
  5
320
100
AcDbEntity
  8
3
370
    25
100
AcDbLine
 10
-20.625851
 20
-159.977466
 30
0.0
 11
-20.625851
 21
-12.877466
 31
0.0
  0
LINE
  5
321
100
AcDbEntity
  8
3
370
    25
100
AcDbLine
 10
-20.625851
 20
-12.877466
 30
0.0
 11
-21.661127
 21
-16.741169
 31
0.0
  0
LINE
  5
322
100
AcDbEntity
  8
3
370
    25
100
AcDbLine
 10
-20.625851
 20
-12.877466
 30
0.0
 11
-19.590574
 21
-16.741169
 31
0.0
  0
LINE
  5
323
100
AcDbEntity
  8
3
370
    25
100
AcDbLine
 10
-21.661127
 20
-16.741169
 30
0.0
 11
-19.590574
 21
-16.741169
 31
0.0
  0
LINE
  5
324
100
AcDbEntity
  8
3
370
    25
100
AcDbLine
 10
158.186318
 20
-12.877466
 30
0.0
 11
-22.625851
 21
-12.877466
 31
0.0
  0
ENDBLK
  5
325
100
AcDbEntity
  8
3
100
AcDbBlockEnd
  0
BLOCK
  5
326
100
AcDbEntity
  8
3
100
AcDbBlockBegin
  2
*D1
 70
     1
 10
0.0
 20
0.0
 30
0.0
  3
*D1
  1

  0
TEXT
  5
327
100
AcDbEntity
  8
3
370
    25
100
AcDbText
 10
138.011318
 20
-204.078873
 30
0.0
 40
7.0
  1
２１２
 72
     5
 11
157.611318
 21
-204.078873
 31
0.0
100
AcDbText
  0
LINE
  5
328
100
AcDbEntity
  8
3
370
    25
100
AcDbLine
 10
42.511318
 20
-117.776581
 30
0.0
 11
42.511318
 21
-207.078873
 31
0.0
  0
LINE
  5
329
100
AcDbEntity
  8
3
370
    25
100
AcDbLine
 10
42.511318
 20
-205.078873
 30
0.0
 11
46.375022
 21
-206.114149
 31
0.0
  0
LINE
  5
32A
100
AcDbEntity
  8
3
370
    25
100
AcDbLine
 10
42.511318
 20
-205.078873
 30
0.0
 11
46.375022
 21
-204.043597
 31
0.0
  0
LINE
  5
32B
100
AcDbEntity
  8
3
370
    25
100
AcDbLine
 10
46.375022
 20
-206.114149
 30
0.0
 11
46.375022
 21
-204.043597
 31
0.0
  0
LINE
  5
32C
100
AcDbEntity
  8
3
370
    25
100
AcDbLine
 10
42.511318
 20
-205.078873
 30
0.0
 11
254.511318
 21
-205.078873
 31
0.0
  0
LINE
  5
32D
100
AcDbEntity
  8
3
370
    25
100
AcDbLine
 10
254.511318
 20
-205.078873
 30
0.0
 11
250.647615
 21
-204.043597
 31
0.0
  0
LINE
  5
32E
100
AcDbEntity
  8
3
370
    25
100
AcDbLine
 10
254.511318
 20
-205.078873
 30
0.0
 11
250.647615
 21
-206.114149
 31
0.0
  0
LINE
  5
32F
100
AcDbEntity
  8
3
370
    25
100
AcDbLine
 10
250.647615
 20
-204.043597
 30
0.0
 11
250.647615
 21
-206.114149
 31
0.0
  0
LINE
  5
330
100
AcDbEntity
  8
3
370
    25
100
AcDbLine
 10
254.511318
 20
-173.503006
 30
0.0
 11
254.511318
 21
-207.078873
 31
0.0
  0
ENDBLK
  5
331
100
AcDbEntity
  8
3
100
AcDbBlockEnd
  0
BLOCK
  5
332
100
AcDbEntity
  8
3
100
AcDbBlockBegin
  2
*D2
 70
     1
 10
0.0
 20
0.0
 30
0.0
  3
*D2
  1

  0
LINE
  5
333
100
AcDbEntity
  8
3
370
    25
100
AcDbLine
 10
-304.081959
 20
-141.332805
 30
0.0
 11
-304.081959
 21
-213.099213
 31
0.0
  0
LINE
  5
334
100
AcDbEntity
  8
3
370
    25
100
AcDbLine
 10
-304.081959
 20
-211.099213
 30
0.0
 11
-300.218256
 21
-212.134489
 31
0.0
  0
LINE
  5
335
100
AcDbEntity
  8
3
370
    25
100
AcDbLine
 10
-304.081959
 20
-211.099213
 30
0.0
 11
-300.218256
 21
-210.063936
 31
0.0
  0
LINE
  5
336
100
AcDbEntity
  8
3
370
    25
100
AcDbLine
 10
-300.218256
 20
-212.134489
 30
0.0
 11
-300.218256
 21
-210.063936
 31
0.0
  0
LINE
  5
337
100
AcDbEntity
  8
3
370
    25
100
AcDbLine
 10
-304.081959
 20
-211.099213
 30
0.0
 11
-83.371281
 21
-211.099213
 31
0.0
  0
LINE
  5
338
100
AcDbEntity
  8
3
370
    25
100
AcDbLine
 10
-83.371281
 20
-211.099213
 30
0.0
 11
-87.234984
 21
-210.063936
 31
0.0
  0
LINE
  5
339
100
AcDbEntity
  8
3
370
    25
100
AcDbLine
 10
-83.371281
 20
-211.099213
 30
0.0
 11
-87.234984
 21
-212.134489
 31
0.0
  0
LINE
  5
33A
100
AcDbEntity
  8
3
370
    25
100
AcDbLine
 10
-87.234984
 20
-210.063936
 30
0.0
 11
-87.234984
 21
-212.134489
 31
0.0
  0
LINE
  5
33B
100
AcDbEntity
  8
3
370
    25
100
AcDbLine
 10
-83.371281
 20
-141.332805
 30
0.0
 11
-83.371281
 21
-213.099213
 31
0.0
  0
ENDBLK
  5
33C
100
AcDbEntity
  8
3
100
AcDbBlockEnd
  0
BLOCK
  5
33D
100
AcDbEntity
  8
3
100
AcDbBlockBegin
  2
*D3
 70
     1
 10
0.0
 20
0.0
 30
0.0
  3
*D3
  1

  0
TEXT
  5
33E
100
AcDbEntity
  8
3
370
    25
100
AcDbText
 10
13.32969
 20
-110.227466
 30
0.0
 40
7.0
  1
６
 50
90.0
 72
     5
 11
13.32969
 21
-104.627466
 31
0.0
100
AcDbText
  0
LINE
  5
33F
100
AcDbEntity
  8
3
370
    25
100
AcDbLine
 10
29.011318
 20
-109.477466
 30
0.0
 11
12.32969
 21
-109.477466
 31
0.0
  0
LINE
  5
340
100
AcDbEntity
  8
3
370
    25
100
AcDbLine
 10
14.32969
 20
-109.477466
 30
0.0
 11
14.32969
 21
-103.977466
 31
0.0
  0
LINE
  5
341
100
AcDbEntity
  8
3
370
    25
100
AcDbLine
 10
19.679915
 20
-103.977466
 30
0.0
 11
12.32969
 21
-103.977466
 31
0.0
  0
CIRCLE
  5
342
100
AcDbEntity
  8
3
370
    25
100
AcDbCircle
 10
14.32969
 20
-109.477466
 30
0.0
 40
1.0
  0
CIRCLE
  5
343
100
AcDbEntity
  8
3
370
    25
100
AcDbCircle
 10
14.32969
 20
-109.477466
 30
0.0
 40
0.6
  0
CIRCLE
  5
344
100
AcDbEntity
  8
3
370
    25
100
AcDbCircle
 10
14.32969
 20
-103.977466
 30
0.0
 40
1.0
  0
CIRCLE
  5
345
100
AcDbEntity
  8
3
370
    25
100
AcDbCircle
 10
14.32969
 20
-103.977466
 30
0.0
 40
0.6
  0
ENDBLK
  5
346
100
AcDbEntity
  8
3
100
AcDbBlockEnd
  0
BLOCK
  5
347
100
AcDbEntity
  8
3
100
AcDbBlockBegin
  2
*D4
 70
     1
 10
0.0
 20
0.0
 30
0.0
  3
*D4
  1

  0
TEXT
  5
348
100
AcDbEntity
  8
3
370
    25
100
AcDbText
 10
127.406926
 20
7.133635
 30
0.0
 40
7.0
  1
２５゜
 50
77.5
 72
     5
 11
131.649143
 21
26.269036
 31
0.0
100
AcDbText
  0
LINE
  5
349
100
AcDbEntity
  8
3
370
    25
100
AcDbLine
 10
189.462072
 20
22.898343
 30
0.0
 11
138.558865
 21
46.634899
 31
0.0
  0
LINE
  5
34A
100
AcDbEntity
  8
3
370
    25
100
AcDbLine
 10
158.186318
 20
-12.877466
 30
0.0
 11
125.365291
 21
-12.877466
 31
0.0
  0
LINE
  5
34B
100
AcDbEntity
  8
3
370
    25
100
AcDbLine
 10
140.37148
 20
45.789662
 30
0.0
 11
137.843221
 21
42.69
 31
0.0
  0
LINE
  5
34C
100
AcDbEntity
  8
3
370
    25
100
AcDbLine
 10
140.37148
 20
45.789662
 30
0.0
 11
139.731775
 21
41.841146
 31
0.0
  0
LINE
  5
34D
100
AcDbEntity
  8
3
370
    25
100
AcDbLine
 10
137.843221
 20
42.69
 30
0.0
 11
139.731775
 21
41.841146
 31
0.0
  0
LINE
  5
34E
100
AcDbEntity
  8
3
370
    25
100
AcDbLine
 10
127.365291
 20
-12.877466
 30
0.0
 11
128.454236
 21
-9.028544
 31
0.0
  0
LINE
  5
34F
100
AcDbEntity
  8
3
370
    25
100
AcDbLine
 10
127.365291
 20
-12.877466
 30
0.0
 11
126.383884
 21
-8.999729
 31
0.0
  0
LINE
  5
350
100
AcDbEntity
  8
3
370
    25
100
AcDbLine
 10
128.454236
 20
-9.028544
 30
0.0
 11
126.383884
 21
-8.999729
 31
0.0
  0
ARC
  5
351
100
AcDbEntity
  8
3
370
    25
100
AcDbCircle
 10
266.183542
 20
-12.877466
 30
0.0
 40
138.818251
100
AcDbArc
 50
155.0
 51
180.0
  0
ENDBLK
  5
352
100
AcDbEntity
  8
3
100
AcDbBlockEnd
  0
BLOCK
  5
353
100
AcDbEntity
  8
3
100
AcDbBlockBegin
  2
*D5
 70
     1
 10
0.0
 20
0.0
 30
0.0
  3
*D5
  1

  0
TEXT
  5
354
100
AcDbEntity
  8
3
370
    25
100
AcDbText
 10
13.32969
 20
-65.427466
 30
0.0
 40
7.0
  1
９１
 50
90.0
 72
     5
 11
13.32969
 21
-52.827466
 31
0.0
100
AcDbText
  0
LINE
  5
355
100
AcDbEntity
  8
3
370
    25
100
AcDbLine
 10
223.246948
 20
-103.977466
 30
0.0
 11
12.32969
 21
-103.977466
 31
0.0
  0
LINE
  5
356
100
AcDbEntity
  8
3
370
    25
100
AcDbLine
 10
14.32969
 20
-103.977466
 30
0.0
 11
14.32969
 21
-12.877466
 31
0.0
  0
LINE
  5
357
100
AcDbEntity
  8
3
370
    25
100
AcDbLine
 10
14.32969
 20
-12.877466
 30
0.0
 11
13.294414
 21
-16.741169
 31
0.0
  0
LINE
  5
358
100
AcDbEntity
  8
3
370
    25
100
AcDbLine
 10
14.32969
 20
-12.877466
 30
0.0
 11
15.364966
 21
-16.741169
 31
0.0
  0
LINE
  5
359
100
AcDbEntity
  8
3
370
    25
100
AcDbLine
 10
13.294414
 20
-16.741169
 30
0.0
 11
15.364966
 21
-16.741169
 31
0.0
  0
LINE
  5
35A
100
AcDbEntity
  8
3
370
    25
100
AcDbLine
 10
158.186318
 20
-12.877466
 30
0.0
 11
12.32969
 21
-12.877466
 31
0.0
  0
CIRCLE
  5
35B
100
AcDbEntity
  8
3
370
    25
100
AcDbCircle
 10
14.32969
 20
-103.977466
 30
0.0
 40
1.0
  0
CIRCLE
  5
35C
100
AcDbEntity
  8
3
370
    25
100
AcDbCircle
 10
14.32969
 20
-103.977466
 30
0.0
 40
0.6
  0
ENDBLK
  5
35D
100
AcDbEntity
  8
3
100
AcDbBlockEnd
  0
BLOCK
  5
35E
100
AcDbEntity
  8
3
100
AcDbBlockBegin
  2
*D6
 70
     1
 10
0.0
 20
0.0
 30
0.0
  3
*D6
  1

  0
TEXT
  5
35F
100
AcDbEntity
  8
3
370
    25
100
AcDbText
 10
-5.140663
 20
-51.462179
 30
0.0
 40
7.0
  1
１２６
 50
90.0
 72
     5
 11
-5.140663
 21
-31.862179
 31
0.0
100
AcDbText
  0
LINE
  5
360
100
AcDbEntity
  8
3
370
    25
100
AcDbLine
 10
223.246948
 20
-103.977466
 30
0.0
 11
-6.140663
 21
-103.977466
 31
0.0
  0
LINE
  5
361
100
AcDbEntity
  8
3
370
    25
100
AcDbLine
 10
-4.140663
 20
-103.977466
 30
0.0
 11
-3.105387
 21
-100.113762
 31
0.0
  0
LINE
  5
362
100
AcDbEntity
  8
3
370
    25
100
AcDbLine
 10
-4.140663
 20
-103.977466
 30
0.0
 11
-5.175939
 21
-100.113762
 31
0.0
  0
LINE
  5
363
100
AcDbEntity
  8
3
370
    25
100
AcDbLine
 10
-3.105387
 20
-100.113762
 30
0.0
 11
-5.175939
 21
-100.113762
 31
0.0
  0
LINE
  5
364
100
AcDbEntity
  8
3
370
    25
100
AcDbLine
 10
-4.140663
 20
-103.977466
 30
0.0
 11
-4.140663
 21
22.053107
 31
0.0
  0
LINE
  5
365
100
AcDbEntity
  8
3
370
    25
100
AcDbLine
 10
-4.140663
 20
22.053107
 30
0.0
 11
-5.175939
 21
18.189404
 31
0.0
  0
LINE
  5
366
100
AcDbEntity
  8
3
370
    25
100
AcDbLine
 10
-4.140663
 20
22.053107
 30
0.0
 11
-3.105387
 21
18.189404
 31
0.0
  0
LINE
  5
367
100
AcDbEntity
  8
3
370
    25
100
AcDbLine
 10
-5.175939
 20
18.189404
 30
0.0
 11
-3.105387
 21
18.189404
 31
0.0
  0
LINE
  5
368
100
AcDbEntity
  8
3
370
    25
100
AcDbLine
 10
189.274688
 20
22.053107
 30
0.0
 11
-6.140663
 21
22.053107
 31
0.0
  0
ENDBLK
  5
369
100
AcDbEntity
  8
3
100
AcDbBlockEnd
  0
BLOCK
  5
36A
100
AcDbEntity
  8
3
100
AcDbBlockBegin
  2
*D7
 70
     1
 10
0.0
 20
0.0
 30
0.0
  3
*D7
  1

  0
LINE
  5
36B
100
AcDbEntity
  8
3
370
    25
100
AcDbLine
 10
345.861318
 20
-162.333466
 30
0.0
 11
381.181702
 21
-162.333466
 31
0.0
  0
LINE
  5
36C
100
AcDbEntity
  8
3
370
    25
100
AcDbLine
 10
379.181702
 20
-162.333466
 30
0.0
 11
380.216978
 21
-158.469762
 31
0.0
  0
LINE
  5
36D
100
AcDbEntity
  8
3
370
    25
100
AcDbLine
 10
379.181702
 20
-162.333466
 30
0.0
 11
378.146425
 21
-158.469762
 31
0.0
  0
LINE
  5
36E
100
AcDbEntity
  8
3
370
    25
100
AcDbLine
 10
380.216978
 20
-158.469762
 30
0.0
 11
378.146425
 21
-158.469762
 31
0.0
  0
LINE
  5
36F
100
AcDbEntity
  8
3
370
    25
100
AcDbLine
 10
379.181702
 20
-162.333466
 30
0.0
 11
379.181702
 21
-116.333466
 31
0.0
  0
LINE
  5
370
100
AcDbEntity
  8
3
370
    25
100
AcDbLine
 10
379.181702
 20
-116.333466
 30
0.0
 11
378.146425
 21
-120.197169
 31
0.0
  0
LINE
  5
371
100
AcDbEntity
  8
3
370
    25
100
AcDbLine
 10
379.181702
 20
-116.333466
 30
0.0
 11
380.216978
 21
-120.197169
 31
0.0
  0
LINE
  5
372
100
AcDbEntity
  8
3
370
    25
100
AcDbLine
 10
378.146425
 20
-120.197169
 30
0.0
 11
380.216978
 21
-120.197169
 31
0.0
  0
LINE
  5
373
100
AcDbEntity
  8
3
370
    25
100
AcDbLine
 10
345.861318
 20
-116.333466
 30
0.0
 11
381.181702
 21
-116.333466
 31
0.0
  0
ENDBLK
  5
374
100
AcDbEntity
  8
3
100
AcDbBlockEnd
  0
BLOCK
  5
375
100
AcDbEntity
  8
3
100
AcDbBlockBegin
  2
*D8
 70
     1
 10
0.0
 20
0.0
 30
0.0
  3
*D8
  1

  0
LINE
  5
376
100
AcDbEntity
  8
3
370
    25
100
AcDbLine
 10
254.511318
 20
-173.503006
 30
0.0
 11
254.511318
 21
-207.078873
 31
0.0
  0
LINE
  5
377
100
AcDbEntity
  8
3
370
    25
100
AcDbLine
 10
254.511318
 20
-205.078873
 30
0.0
 11
258.375022
 21
-206.114149
 31
0.0
  0
LINE
  5
378
100
AcDbEntity
  8
3
370
    25
100
AcDbLine
 10
254.511318
 20
-205.078873
 30
0.0
 11
258.375022
 21
-204.043597
 31
0.0
  0
LINE
  5
379
100
AcDbEntity
  8
3
370
    25
100
AcDbLine
 10
258.375022
 20
-206.114149
 30
0.0
 11
258.375022
 21
-204.043597
 31
0.0
  0
LINE
  5
37A
100
AcDbEntity
  8
3
370
    25
100
AcDbLine
 10
254.511318
 20
-205.078873
 30
0.0
 11
343.861318
 21
-205.078873
 31
0.0
  0
LINE
  5
37B
100
AcDbEntity
  8
3
370
    25
100
AcDbLine
 10
343.861318
 20
-205.078873
 30
0.0
 11
339.997615
 21
-204.043597
 31
0.0
  0
LINE
  5
37C
100
AcDbEntity
  8
3
370
    25
100
AcDbLine
 10
343.861318
 20
-205.078873
 30
0.0
 11
339.997615
 21
-206.114149
 31
0.0
  0
LINE
  5
37D
100
AcDbEntity
  8
3
370
    25
100
AcDbLine
 10
339.997615
 20
-204.043597
 30
0.0
 11
339.997615
 21
-206.114149
 31
0.0
  0
LINE
  5
37E
100
AcDbEntity
  8
3
370
    25
100
AcDbLine
 10
343.861318
 20
-164.333466
 30
0.0
 11
343.861318
 21
-207.078873
 31
0.0
  0
ENDBLK
  5
37F
100
AcDbEntity
  8
3
100
AcDbBlockEnd
  0
BLOCK
  5
380
100
AcDbEntity
  8
3
100
AcDbBlockBegin
  2
*D9
 70
     1
 10
0.0
 20
0.0
 30
0.0
  3
*D9
  1

  0
TEXT
  5
381
100
AcDbEntity
  8
3
370
    25
100
AcDbText
 10
13.32969
 20
-141.727466
 30
0.0
 40
7.0
  1
５１
 50
90.0
 72
     5
 11
13.32969
 21
-129.127466
 31
0.0
100
AcDbText
  0
LINE
  5
382
100
AcDbEntity
  8
3
370
    25
100
AcDbLine
 10
239.417239
 20
-159.977466
 30
0.0
 11
12.32969
 21
-159.977466
 31
0.0
  0
LINE
  5
383
100
AcDbEntity
  8
3
370
    25
100
AcDbLine
 10
14.32969
 20
-159.977466
 30
0.0
 11
15.364966
 21
-156.113762
 31
0.0
  0
LINE
  5
384
100
AcDbEntity
  8
3
370
    25
100
AcDbLine
 10
14.32969
 20
-159.977466
 30
0.0
 11
13.294414
 21
-156.113762
 31
0.0
  0
LINE
  5
385
100
AcDbEntity
  8
3
370
    25
100
AcDbLine
 10
15.364966
 20
-156.113762
 30
0.0
 11
13.294414
 21
-156.113762
 31
0.0
  0
LINE
  5
386
100
AcDbEntity
  8
3
370
    25
100
AcDbLine
 10
14.32969
 20
-159.977466
 30
0.0
 11
14.32969
 21
-109.477466
 31
0.0
  0
LINE
  5
387
100
AcDbEntity
  8
3
370
    25
100
AcDbLine
 10
29.011318
 20
-109.477466
 30
0.0
 11
12.32969
 21
-109.477466
 31
0.0
  0
CIRCLE
  5
388
100
AcDbEntity
  8
3
370
    25
100
AcDbCircle
 10
14.32969
 20
-109.477466
 30
0.0
 40
1.0
  0
CIRCLE
  5
389
100
AcDbEntity
  8
3
370
    25
100
AcDbCircle
 10
14.32969
 20
-109.477466
 30
0.0
 40
0.6
  0
ENDBLK
  5
38A
100
AcDbEntity
  8
3
100
AcDbBlockEnd
  0
BLOCK
  5
38B
100
AcDbEntity
  8
3
100
AcDbBlockBegin
  2
*D10
 70
     1
 10
0.0
 20
0.0
 30
0.0
  3
*D10
  1

  0
TEXT
  5
38C
100
AcDbEntity
  8
3
370
    25
100
AcDbText
 10
-204.22662
 20
249.695709
 30
0.0
 40
7.0
  1
１５０
 72
     5
 11
-184.62662
 21
249.695709
 31
0.0
100
AcDbText
  0
LINE
  5
38D
100
AcDbEntity
  8
3
370
    25
100
AcDbLine
 10
-268.72662
 20
202.343721
 30
0.0
 11
-268.72662
 21
250.695709
 31
0.0
  0
LINE
  5
38E
100
AcDbEntity
  8
3
370
    25
100
AcDbLine
 10
-268.72662
 20
248.695709
 30
0.0
 11
-264.862917
 21
247.660433
 31
0.0
  0
LINE
  5
38F
100
AcDbEntity
  8
3
370
    25
100
AcDbLine
 10
-268.72662
 20
248.695709
 30
0.0
 11
-264.862917
 21
249.730985
 31
0.0
  0
LINE
  5
390
100
AcDbEntity
  8
3
370
    25
100
AcDbLine
 10
-264.862917
 20
247.660433
 30
0.0
 11
-264.862917
 21
249.730985
 31
0.0
  0
LINE
  5
391
100
AcDbEntity
  8
3
370
    25
100
AcDbLine
 10
-268.72662
 20
248.695709
 30
0.0
 11
-118.72662
 21
248.695709
 31
0.0
  0
LINE
  5
392
100
AcDbEntity
  8
3
370
    25
100
AcDbLine
 10
-118.72662
 20
248.695709
 30
0.0
 11
-122.590324
 21
249.730985
 31
0.0
  0
LINE
  5
393
100
AcDbEntity
  8
3
370
    25
100
AcDbLine
 10
-118.72662
 20
248.695709
 30
0.0
 11
-122.590324
 21
247.660433
 31
0.0
  0
LINE
  5
394
100
AcDbEntity
  8
3
370
    25
100
AcDbLine
 10
-122.590324
 20
249.730985
 30
0.0
 11
-122.590324
 21
247.660433
 31
0.0
  0
LINE
  5
395
100
AcDbEntity
  8
3
370
    25
100
AcDbLine
 10
-118.72662
 20
202.343721
 30
0.0
 11
-118.72662
 21
250.695709
 31
0.0
  0
ENDBLK
  5
396
100
AcDbEntity
  8
3
100
AcDbBlockEnd
  0
BLOCK
  5
397
100
AcDbEntity
  8
3
100
AcDbBlockBegin
  2
*D11
 70
     1
 10
0.0
 20
0.0
 30
0.0
  3
*D11
  1

  0
TEXT
  5
398
100
AcDbEntity
  8
3
370
    25
100
AcDbText
 10
372.03699
 20
-204.078873
 30
0.0
 40
7.0
  1
２０
 72
     5
 11
384.63699
 21
-204.078873
 31
0.0
100
AcDbText
  0
LINE
  5
399
100
AcDbEntity
  8
3
370
    25
100
AcDbLine
 10
343.861318
 20
-164.333466
 30
0.0
 11
343.861318
 21
-207.078873
 31
0.0
  0
LINE
  5
39A
100
AcDbEntity
  8
3
370
    25
100
AcDbLine
 10
343.861318
 20
-205.078873
 30
0.0
 11
339.997615
 21
-204.043597
 31
0.0
  0
LINE
  5
39B
100
AcDbEntity
  8
3
370
    25
100
AcDbLine
 10
343.861318
 20
-205.078873
 30
0.0
 11
339.997615
 21
-206.114149
 31
0.0
  0
LINE
  5
39C
100
AcDbEntity
  8
3
370
    25
100
AcDbLine
 10
339.997615
 20
-204.043597
 30
0.0
 11
339.997615
 21
-206.114149
 31
0.0
  0
LINE
  5
39D
100
AcDbEntity
  8
3
370
    25
100
AcDbLine
 10
333.861318
 20
-205.078873
 30
0.0
 11
386.03699
 21
-205.078873
 31
0.0
  0
LINE
  5
39E
100
AcDbEntity
  8
3
370
    25
100
AcDbLine
 10
364.03699
 20
-205.078873
 30
0.0
 11
367.900693
 21
-206.114149
 31
0.0
  0
LINE
  5
39F
100
AcDbEntity
  8
3
370
    25
100
AcDbLine
 10
364.03699
 20
-205.078873
 30
0.0
 11
367.900693
 21
-204.043597
 31
0.0
  0
LINE
  5
3A0
100
AcDbEntity
  8
3
370
    25
100
AcDbLine
 10
367.900693
 20
-206.114149
 30
0.0
 11
367.900693
 21
-204.043597
 31
0.0
  0
LINE
  5
3A1
100
AcDbEntity
  8
3
370
    25
100
AcDbLine
 10
364.03699
 20
-150.96506
 30
0.0
 11
364.03699
 21
-207.078873
 31
0.0
  0
ENDBLK
  5
3A2
100
AcDbEntity
  8
3
100
AcDbBlockEnd
  0
BLOCK
  5
3A3
100
AcDbEntity
  8
3
100
AcDbBlockBegin
  2
*D12
 70
     1
 10
0.0
 20
0.0
 30
0.0
  3
*D12
  1

  0
TEXT
  5
3A4
100
AcDbEntity
  8
3
370
    25
100
AcDbText
 10
-100.72662
 20
249.695709
 30
0.0
 40
7.0
  1
５０
 72
     5
 11
-88.12662
 21
249.695709
 31
0.0
100
AcDbText
  0
LINE
  5
3A5
100
AcDbEntity
  8
3
370
    25
100
AcDbLine
 10
-118.72662
 20
202.343721
 30
0.0
 11
-118.72662
 21
250.695709
 31
0.0
  0
LINE
  5
3A6
100
AcDbEntity
  8
3
370
    25
100
AcDbLine
 10
-118.72662
 20
248.695709
 30
0.0
 11
-114.862917
 21
247.660433
 31
0.0
  0
LINE
  5
3A7
100
AcDbEntity
  8
3
370
    25
100
AcDbLine
 10
-118.72662
 20
248.695709
 30
0.0
 11
-114.862917
 21
249.730985
 31
0.0
  0
LINE
  5
3A8
100
AcDbEntity
  8
3
370
    25
100
AcDbLine
 10
-114.862917
 20
247.660433
 30
0.0
 11
-114.862917
 21
249.730985
 31
0.0
  0
LINE
  5
3A9
100
AcDbEntity
  8
3
370
    25
100
AcDbLine
 10
-118.72662
 20
248.695709
 30
0.0
 11
-68.72662
 21
248.695709
 31
0.0
  0
LINE
  5
3AA
100
AcDbEntity
  8
3
370
    25
100
AcDbLine
 10
-68.72662
 20
248.695709
 30
0.0
 11
-72.590324
 21
249.730985
 31
0.0
  0
LINE
  5
3AB
100
AcDbEntity
  8
3
370
    25
100
AcDbLine
 10
-68.72662
 20
248.695709
 30
0.0
 11
-72.590324
 21
247.660433
 31
0.0
  0
LINE
  5
3AC
100
AcDbEntity
  8
3
370
    25
100
AcDbLine
 10
-72.590324
 20
249.730985
 30
0.0
 11
-72.590324
 21
247.660433
 31
0.0
  0
LINE
  5
3AD
100
AcDbEntity
  8
3
370
    25
100
AcDbLine
 10
-68.72662
 20
243.492965
 30
0.0
 11
-68.72662
 21
250.695709
 31
0.0
  0
ENDBLK
  5
3AE
100
AcDbEntity
  8
3
100
AcDbBlockEnd
  0
BLOCK
  5
3AF
100
AcDbEntity
  8
3
100
AcDbBlockBegin
  2
*D13
 70
     1
 10
0.0
 20
0.0
 30
0.0
  3
*D13
  1

  0
TEXT
  5
3B0
100
AcDbEntity
  8
3
370
    25
100
AcDbText
 10
-300.72662
 20
249.695709
 30
0.0
 40
7.0
  1
５０
 72
     5
 11
-288.12662
 21
249.695709
 31
0.0
100
AcDbText
  0
LINE
  5
3B1
100
AcDbEntity
  8
3
370
    25
100
AcDbLine
 10
-318.72662
 20
243.492965
 30
0.0
 11
-318.72662
 21
250.695709
 31
0.0
  0
LINE
  5
3B2
100
AcDbEntity
  8
3
370
    25
100
AcDbLine
 10
-318.72662
 20
248.695709
 30
0.0
 11
-314.862917
 21
247.660433
 31
0.0
  0
LINE
  5
3B3
100
AcDbEntity
  8
3
370
    25
100
AcDbLine
 10
-318.72662
 20
248.695709
 30
0.0
 11
-314.862917
 21
249.730985
 31
0.0
  0
LINE
  5
3B4
100
AcDbEntity
  8
3
370
    25
100
AcDbLine
 10
-314.862917
 20
247.660433
 30
0.0
 11
-314.862917
 21
249.730985
 31
0.0
  0
LINE
  5
3B5
100
AcDbEntity
  8
3
370
    25
100
AcDbLine
 10
-318.72662
 20
248.695709
 30
0.0
 11
-268.72662
 21
248.695709
 31
0.0
  0
LINE
  5
3B6
100
AcDbEntity
  8
3
370
    25
100
AcDbLine
 10
-268.72662
 20
248.695709
 30
0.0
 11
-272.590324
 21
249.730985
 31
0.0
  0
LINE
  5
3B7
100
AcDbEntity
  8
3
370
    25
100
AcDbLine
 10
-268.72662
 20
248.695709
 30
0.0
 11
-272.590324
 21
247.660433
 31
0.0
  0
LINE
  5
3B8
100
AcDbEntity
  8
3
370
    25
100
AcDbLine
 10
-272.590324
 20
249.730985
 30
0.0
 11
-272.590324
 21
247.660433
 31
0.0
  0
LINE
  5
3B9
100
AcDbEntity
  8
3
370
    25
100
AcDbLine
 10
-268.72662
 20
202.343721
 30
0.0
 11
-268.72662
 21
250.695709
 31
0.0
  0
ENDBLK
  5
3BA
100
AcDbEntity
  8
3
100
AcDbBlockEnd
  0
BLOCK
  5
3BB
100
AcDbEntity
  8
3
100
AcDbBlockBegin
  2
*D14
 70
     1
 10
0.0
 20
0.0
 30
0.0
  3
*D14
  1

  0
TEXT
  5
3BC
100
AcDbEntity
  8
3
370
    25
100
AcDbText
 10
-289.484342
 20
-185.04312
 30
0.0
 40
7.0
  1
５０
 50
45.0
 72
     5
 11
-280.574797
 21
-176.133575
 31
0.0
100
AcDbText
  0
LINE
  5
3BD
100
AcDbEntity
  8
3
370
    25
100
AcDbLine
 10
-302.667746
 20
-140.747018
 30
0.0
 11
-271.806672
 21
-171.608092
 31
0.0
  0
LINE
  5
3BE
100
AcDbEntity
  8
3
370
    25
100
AcDbLine
 10
-273.220886
 20
-170.193878
 30
0.0
 11
-276.684988
 21
-172.193878
 31
0.0
  0
LINE
  5
3BF
100
AcDbEntity
  8
3
370
    25
100
AcDbLine
 10
-273.220886
 20
-170.193878
 30
0.0
 11
-275.220886
 21
-173.65798
 31
0.0
  0
LINE
  5
3C0
100
AcDbEntity
  8
3
370
    25
100
AcDbLine
 10
-276.684988
 20
-172.193878
 30
0.0
 11
-275.220886
 21
-173.65798
 31
0.0
  0
LINE
  5
3C1
100
AcDbEntity
  8
3
370
    25
100
AcDbLine
 10
-288.777235
 20
-185.750227
 30
0.0
 11
-230.794479
 21
-127.767471
 31
0.0
  0
LINE
  5
3C2
100
AcDbEntity
  8
3
370
    25
100
AcDbLine
 10
-237.865547
 20
-134.838539
 30
0.0
 11
-234.401445
 21
-132.838539
 31
0.0
  0
LINE
  5
3C3
100
AcDbEntity
  8
3
370
    25
100
AcDbLine
 10
-237.865547
 20
-134.838539
 30
0.0
 11
-235.865547
 21
-131.374437
 31
0.0
  0
LINE
  5
3C4
100
AcDbEntity
  8
3
370
    25
100
AcDbLine
 10
-234.401445
 20
-132.838539
 30
0.0
 11
-235.865547
 21
-131.374437
 31
0.0
  0
LINE
  5
3C5
100
AcDbEntity
  8
3
370
    25
100
AcDbLine
 10
-267.312407
 20
-105.391679
 30
0.0
 11
-236.451333
 21
-136.252752
 31
0.0
  0
ENDBLK
  5
3C6
100
AcDbEntity
  8
3
100
AcDbBlockEnd
  0
ENDSEC
  0
SECTION
  2
ENTITIES
  0
LINE
  5
33
100
AcDbEntity
  8
1
370
   100
100
AcDbLine
 10
-373.02157
 20
275.028767
 30
0.0
 11
394.982385
 21
275.028767
 31
0.0
  0
LINE
  5
34
100
AcDbEntity
  8
1
370
   100
100
AcDbLine
 10
-373.02157
 20
275.028767
 30
0.0
 11
-373.02157
 21
-277.971881
 31
0.0
  0
LINE
  5
35
100
AcDbEntity
  8
1
370
   100
100
AcDbLine
 10
-373.02157
 20
-277.971881
 30
0.0
 11
394.982385
 21
-277.971881
 31
0.0
  0
LINE
  5
36
100
AcDbEntity
  8
1
370
   100
100
AcDbLine
 10
394.982385
 20
-277.971881
 30
0.0
 11
394.982385
 21
275.028767
 31
0.0
  0
TEXT
  5
37
100
AcDbEntity
  8
1
370
    50
100
AcDbText
 10
359.628442
 20
-226.252857
 30
0.0
 40
6.0
  1
設計
 72
     5
 11
370.428442
 21
-226.252857
 31
0.0
100
AcDbText
  0
TEXT
  5
38
100
AcDbEntity
  8
1
370
    50
100
AcDbText
 10
379.127478
 20
-226.099658
 30
0.0
 40
6.0
  1
製図
 72
     5
 11
389.927478
 21
-226.099658
 31
0.0
100
AcDbText
  0
TEXT
  5
39
100
AcDbEntity
  8
1
370
    50
100
AcDbText
 10
319.005745
 20
-226.252857
 30
0.0
 40
6.0
  1
承認
 72
     5
 11
329.805745
 21
-226.252857
 31
0.0
100
AcDbText
  0
TEXT
  5
3A
100
AcDbEntity
  8
1
370
    50
100
AcDbText
 10
338.989679
 20
-226.19802
 30
0.0
 40
6.0
  1
検図
 72
     5
 11
349.789679
 21
-226.19802
 31
0.0
100
AcDbText
  0
LINE
  5
3B
100
AcDbEntity
  8
1
370
    25
100
AcDbLine
 10
284.982385
 20
-227.971881
 30
0.0
 11
394.982385
 21
-227.971881
 31
0.0
  0
LINE
  5
3C
100
AcDbEntity
  8
1
370
    25
100
AcDbLine
 10
342.482385
 20
-245.971881
 30
0.0
 11
342.482385
 21
-259.971881
 31
0.0
  0
TEXT
  5
3D
100
AcDbEntity
  8
1
370
    50
100
AcDbText
 10
319.55159
 20
-256.012528
 30
0.0
 40
6.0
  1
日　付
 72
     5
 11
336.35159
 21
-256.012528
 31
0.0
100
AcDbText
  0
LINE
  5
3E
100
AcDbEntity
  8
1
370
    50
100
AcDbLine
 10
40.982385
 20
-259.971881
 30
0.0
 11
394.982385
 21
-259.971881
 31
0.0
  0
TEXT
  5
3F
100
AcDbEntity
  8
1
370
    50
100
AcDbText
 10
287.775011
 20
-256.322406
 30
0.0
 40
6.0
  1
第三角法
 72
     5
 11
310.575011
 21
-256.322406
 31
0.0
100
AcDbText
  0
TEXT
  5
40
100
AcDbEntity
  8
1
370
    50
100
AcDbText
 10
291.087419
 20
-225.99802
 30
0.0
 40
6.0
  1
尺　度
 72
     5
 11
307.887419
 21
-225.99802
 31
0.0
100
AcDbText
  0
LINE
  5
41
100
AcDbEntity
  8
1
370
   100
100
AcDbLine
 10
40.982385
 20
-217.971881
 30
0.0
 11
394.982385
 21
-217.971881
 31
0.0
  0
LINE
  5
42
100
AcDbEntity
  8
1
370
    50
100
AcDbLine
 10
211.982385
 20
-217.971881
 30
0.0
 11
211.982385
 21
-277.971881
 31
0.0
  0
LINE
  5
43
100
AcDbEntity
  8
1
370
    25
100
AcDbLine
 10
374.982385
 20
-245.971881
 30
0.0
 11
374.982385
 21
-217.971881
 31
0.0
  0
LINE
  5
44
100
AcDbEntity
  8
1
370
    25
100
AcDbLine
 10
354.982385
 20
-245.971881
 30
0.0
 11
354.982385
 21
-217.971881
 31
0.0
  0
LINE
  5
45
100
AcDbEntity
  8
1
370
    25
100
AcDbLine
 10
334.982385
 20
-245.971881
 30
0.0
 11
334.982385
 21
-217.971881
 31
0.0
  0
LINE
  5
46
100
AcDbEntity
  8
1
370
    50
100
AcDbLine
 10
284.982385
 20
-277.971881
 30
0.0
 11
284.982385
 21
-217.971881
 31
0.0
  0
LINE
  5
47
100
AcDbEntity
  8
1
370
    50
100
AcDbLine
 10
189.982385
 20
-217.971881
 30
0.0
 11
189.982385
 21
-277.971881
 31
0.0
  0
LINE
  5
48
100
AcDbEntity
  8
1
370
    50
100
AcDbLine
 10
62.982385
 20
-217.971881
 30
0.0
 11
62.982385
 21
-259.971881
 31
0.0
  0
LINE
  5
49
100
AcDbEntity
  8
1
370
    50
100
AcDbLine
 10
284.982385
 20
-245.971881
 30
0.0
 11
394.982385
 21
-245.971881
 31
0.0
  0
TEXT
  5
4A
100
AcDbEntity
  8
1
370
    50
100
AcDbText
 10
287.101129
 20
-271.880939
 30
0.0
 40
6.0
  1
コードＮｏ
 41
0.9
 72
     5
 11
313.021129
 21
-271.880939
 31
0.0
100
AcDbText
  0
TEXT
  5
4B
100
AcDbEntity
  8
1
370
   100
100
AcDbText
 10
52.886774
 20
-272.875659
 30
0.0
 40
8.0
  1
ミズタニバルブ工業株式会社
 41
1.2
 72
     5
 11
175.766774
 21
-272.875659
 31
0.0
100
AcDbText
  0
LINE
  5
4C
100
AcDbEntity
  8
1
370
    50
100
AcDbLine
 10
40.982385
 20
-238.971881
 30
0.0
 11
284.982385
 21
-238.971881
 31
0.0
  0
LINE
  5
4D
100
AcDbEntity
  8
1
370
    50
100
AcDbLine
 10
115.482385
 20
-238.971881
 30
0.0
 11
115.482385
 21
-259.971881
 31
0.0
  0
LINE
  5
4E
100
AcDbEntity
  8
1
370
    50
100
AcDbLine
 10
137.482385
 20
-238.971881
 30
0.0
 11
137.482385
 21
-259.971881
 31
0.0
  0
LINE
  5
4F
100
AcDbEntity
  8
1
370
    50
100
AcDbLine
 10
314.982385
 20
-277.971881
 30
0.0
 11
314.982385
 21
-217.971881
 31
0.0
  0
TEXT
  5
50
100
AcDbEntity
  8
1
370
    50
100
AcDbText
 10
345.098131
 20
-256.100293
 30
0.0
 40
6.0
  1
　　・　　・
 72
     5
 11
379.898131
 21
-256.100293
 31
0.0
100
AcDbText
  0
LINE
  5
51
100
AcDbEntity
  8
1
370
   100
100
AcDbLine
 10
40.982385
 20
-217.971881
 30
0.0
 11
40.982385
 21
-277.971881
 31
0.0
  0
TEXT
  5
52
100
AcDbEntity
  8
1
370
    50
100
AcDbText
 10
290.832582
 20
-240.013492
 30
0.0
 40
6.0
  1
　／ 
 72
     5
 11
301.632582
 21
-240.013492
 31
0.0
100
AcDbText
  0
TEXT
  5
53
100
AcDbEntity
  8
1
370
    50
100
AcDbText
 10
193.904123
 20
-272.024909
 30
0.0
 40
6.0
  1
備 考 
 72
     5
 11
207.704123
 21
-272.024909
 31
0.0
100
AcDbText
  0
TEXT
  5
54
100
AcDbEntity
  8
1
370
    50
100
AcDbText
 10
193.512534
 20
-230.89184
 30
0.0
 40
6.0
  1
仕 上
 72
     5
 11
207.312534
 21
-230.89184
 31
0.0
100
AcDbText
  0
TEXT
  5
55
100
AcDbEntity
  8
1
370
    50
100
AcDbText
 10
193.447176
 20
-248.891666
 30
0.0
 40
6.0
  1
表 面
 72
     5
 11
207.247176
 21
-248.891666
 31
0.0
100
AcDbText
  0
TEXT
  5
56
100
AcDbEntity
  8
1
370
    50
100
AcDbText
 10
193.447176
 20
-255.891666
 30
0.0
 40
6.0
  1
処 理
 72
     5
 11
207.247176
 21
-255.891666
 31
0.0
100
AcDbText
  0
TEXT
  5
57
100
AcDbEntity
  8
1
370
    50
100
AcDbText
 10
44.79335
 20
-231.693399
 30
0.0
 40
6.0
  1
品 名
 72
     5
 11
58.59335
 21
-231.693399
 31
0.0
100
AcDbText
  0
TEXT
  5
58
100
AcDbEntity
  8
1
370
    50
100
AcDbText
 10
44.397766
 20
-252.462534
 30
0.0
 40
6.0
  1
材 質
 72
     5
 11
58.197766
 21
-252.462534
 31
0.0
100
AcDbText
  0
TEXT
  5
59
100
AcDbEntity
  8
1
370
    50
100
AcDbText
 10
118.897766
 20
-252.462534
 30
0.0
 40
6.0
  1
規 格
 72
     5
 11
132.697766
 21
-252.462534
 31
0.0
100
AcDbText
  0
LINE
  5
5A
100
AcDbEntity
  8
2
370
    50
100
AcDbLine
 10
-217.22662
 20
-65.977466
 30
0.0
 11
-217.22662
 21
-77.977466
 31
0.0
  0
LINE
  5
5B
100
AcDbEntity
  8
2
370
    50
100
AcDbLine
 10
-170.22662
 20
-65.977466
 30
0.0
 11
-170.22662
 21
-77.977466
 31
0.0
  0
LINE
  5
5C
100
AcDbEntity
  8
2
370
    50
100
AcDbLine
 10
-208.47662
 20
-123.977466
 30
0.0
 11
-273.481868
 21
-117.145139
 31
0.0
  0
LINE
  5
5D
100
AcDbEntity
  8
2
370
    50
100
AcDbLine
 10
-178.97662
 20
-123.977466
 30
0.0
 11
-113.971372
 21
-117.145139
 31
0.0
  0
ARC
  5
5E
100
AcDbEntity
  8
2
370
    50
100
AcDbCircle
 10
-268.72662
 20
-103.977466
 30
0.0
 40
14.0
100
AcDbArc
 50
90.0
 51
250.143804
  0
ARC
  5
5F
100
AcDbEntity
  8
2
370
    50
100
AcDbCircle
 10
-118.72662
 20
-103.977466
 30
0.0
 40
14.0
100
AcDbArc
 50
289.856196
 51
90.0
  0
LINE
  5
60
100
AcDbEntity
  8
2
370
    50
100
AcDbLine
 10
-268.72662
 20
-89.977466
 30
0.0
 11
-229.22662
 21
-89.977466
 31
0.0
  0
LINE
  5
61
100
AcDbEntity
  8
2
370
    50
100
AcDbLine
 10
-158.22662
 20
-89.977466
 30
0.0
 11
-118.72662
 21
-89.977466
 31
0.0
  0
ARC
  5
62
100
AcDbEntity
  8
2
370
    50
100
AcDbCircle
 10
-229.22662
 20
-77.977466
 30
0.0
 40
12.0
100
AcDbArc
 50
270.0
 51
0.0
  0
ARC
  5
63
100
AcDbEntity
  8
2
370
    50
100
AcDbCircle
 10
-158.22662
 20
-77.977466
 30
0.0
 40
12.0
100
AcDbArc
 50
180.0
 51
270.0
  0
LINE
  5
64
100
AcDbEntity
  8
2
370
    50
100
AcDbLine
 10
231.011318
 20
-65.977466
 30
0.0
 11
231.011318
 21
-103.977466
 31
0.0
  0
LINE
  5
65
100
AcDbEntity
  8
2
370
    50
100
AcDbLine
 10
278.011318
 20
-65.977466
 30
0.0
 11
278.011318
 21
-86.656958
 31
0.0
  0
POINT
  5
66
100
AcDbEntity
  8
2
370
    50
100
AcDbPoint
 10
254.511318
 20
-135.977466
 30
0.0
  0
POINT
  5
67
100
AcDbEntity
  8
2
370
    50
100
AcDbPoint
 10
254.511318
 20
-135.977466
 30
0.0
  0
LINE
  5
68
100
AcDbEntity
  8
2
370
    50
100
AcDbLine
 10
239.761318
 20
-123.977466
 30
0.0
 11
241.261318
 21
-125.477466
 31
0.0
  0
LINE
  5
69
100
AcDbEntity
  8
2
370
    50
100
AcDbLine
 10
235.700029
 20
-123.977466
 30
0.0
 11
273.322607
 21
-123.977466
 31
0.0
  0
LINE
  5
6A
100
AcDbEntity
  8
2
370
    25
  6
CENTER
100
AcDbLine
 10
-118.72662
 20
-86.457695
 30
0.0
 11
-118.72662
 21
-121.302078
 31
0.0
  0
LINE
  5
6B
100
AcDbEntity
  8
2
370
    25
  6
CENTER
100
AcDbLine
 10
-268.72662
 20
-86.545952
 30
0.0
 11
-268.72662
 21
-121.302078
 31
0.0
  0
LINE
  5
6C
100
AcDbEntity
  8
2
370
    50
100
AcDbLine
 10
268.511318
 20
-141.477466
 30
0.0
 11
268.511318
 21
-153.477466
 31
0.0
  0
LINE
  5
6D
100
AcDbEntity
  8
2
370
    50
100
AcDbLine
 10
28.511318
 20
-88.477466
 30
0.0
 11
28.511318
 21
-100.477466
 31
0.0
  0
LINE
  5
6E
100
AcDbEntity
  8
2
370
    25
  6
CENTER
100
AcDbLine
 10
42.511318
 20
-79.741325
 30
0.0
 11
42.511318
 21
-115.776581
 31
0.0
  0
LINE
  5
6F
100
AcDbEntity
  8
2
370
    50
100
AcDbLine
 10
262.011318
 20
-159.977466
 30
0.0
 11
241.417239
 21
-159.977466
 31
0.0
  0
LINE
  5
70
100
AcDbEntity
  8
2
370
    50
100
AcDbLine
 10
175.69122
 20
-143.590129
 30
0.0
 11
117.204079
 21
-112.491964
 31
0.0
  0
ARC
  5
71
100
AcDbEntity
  8
2
370
    50
100
AcDbCircle
 10
241.417239
 20
-19.977466
 30
0.0
 40
140.0
100
AcDbArc
 50
242.0
 51
270.0
  0
LINE
  5
72
100
AcDbEntity
  8
2
370
    50
100
AcDbLine
 10
183.202765
 20
-129.462967
 30
0.0
 11
124.715624
 21
-98.364803
 31
0.0
  0
ARC
  5
73
100
AcDbEntity
  8
2
370
    50
100
AcDbCircle
 10
241.417239
 20
-19.977466
 30
0.0
 40
124.0
100
AcDbArc
 50
242.0
 51
269.581404
  0
LINE
  5
74
100
AcDbEntity
  8
2
370
    50
100
AcDbLine
 10
240.511318
 20
-141.477466
 30
0.0
 11
240.511318
 21
-143.974156
 31
0.0
  0
LINE
  5
75
100
AcDbEntity
  8
2
370
    50
100
AcDbLine
 10
35.011318
 20
-81.977466
 30
0.0
 11
58.989605
 21
-81.977466
 31
0.0
  0
ARC
  5
76
100
AcDbEntity
  8
2
370
    50
100
AcDbCircle
 10
58.989605
 20
-221.977466
 30
0.0
 40
140.0
100
AcDbArc
 50
62.0
 51
90.0
  0
ARC
  5
77
100
AcDbEntity
  8
2
370
    50
100
AcDbCircle
 10
35.011318
 20
-88.477466
 30
0.0
 40
6.5
100
AcDbArc
 50
90.0
 51
180.0
  0
ARC
  5
78
100
AcDbEntity
  8
2
370
    50
100
AcDbCircle
 10
262.011318
 20
-153.477466
 30
0.0
 40
6.5
100
AcDbArc
 50
270.0
 51
360.0
  0
ARC
  5
79
100
AcDbEntity
  8
2
370
    50
100
AcDbCircle
 10
58.989605
 20
-221.977466
 30
0.0
 40
124.0
100
AcDbArc
 50
62.0
 51
90.0
  0
LINE
  5
7A
100
AcDbEntity
  8
2
370
    50
100
AcDbLine
 10
58.989605
 20
-97.977466
 30
0.0
 11
56.511318
 21
-97.977466
 31
0.0
  0
LINE
  5
7B
100
AcDbEntity
  8
2
370
    50
100
AcDbLine
 10
56.511318
 20
-97.977466
 30
0.0
 11
56.511318
 21
-100.477466
 31
0.0
  0
LINE
  5
7C
100
AcDbEntity
  8
2
370
    50
100
AcDbLine
 10
244.511318
 20
-141.477466
 30
0.0
 11
244.511318
 21
-140.477466
 31
0.0
  0
LINE
  5
7D
100
AcDbEntity
  8
2
370
    50
100
AcDbLine
 10
244.511318
 20
-141.477466
 30
0.0
 11
246.511318
 21
-141.477466
 31
0.0
  0
LINE
  5
7E
100
AcDbEntity
  8
2
370
    50
100
AcDbLine
 10
244.511318
 20
-141.277466
 30
0.0
 11
244.711318
 21
-141.477466
 31
0.0
  0
LINE
  5
7F
100
AcDbEntity
  8
2
370
    50
100
AcDbLine
 10
239.511318
 20
-125.477466
 30
0.0
 11
239.511318
 21
-140.477466
 31
0.0
  0
LINE
  5
80
100
AcDbEntity
  8
2
370
    50
100
AcDbLine
 10
240.511318
 20
-125.477466
 30
0.0
 11
241.261318
 21
-125.477466
 31
0.0
  0
LINE
  5
81
100
AcDbEntity
  8
2
370
    50
100
AcDbLine
 10
268.511318
 20
-141.477466
 30
0.0
 11
264.511318
 21
-141.477466
 31
0.0
  0
LINE
  5
82
100
AcDbEntity
  8
2
370
    50
100
AcDbLine
 10
268.511318
 20
-141.477466
 30
0.0
 11
240.511318
 21
-141.477466
 31
0.0
  0
LINE
  5
83
100
AcDbEntity
  8
2
370
    50
100
AcDbLine
 10
31.011318
 20
-109.477466
 30
0.0
 11
42.511318
 21
-109.477466
 31
0.0
  0
LINE
  5
84
100
AcDbEntity
  8
2
370
    50
100
AcDbLine
 10
30.511318
 20
-100.977466
 30
0.0
 11
30.511318
 21
-108.977466
 31
0.0
  0
LINE
  5
85
100
AcDbEntity
  8
2
370
    50
100
AcDbLine
 10
30.511318
 20
-108.977466
 30
0.0
 11
31.011318
 21
-109.477466
 31
0.0
  0
LINE
  5
86
100
AcDbEntity
  8
2
370
    50
100
AcDbLine
 10
28.511318
 20
-100.477466
 30
0.0
 11
56.511318
 21
-100.477466
 31
0.0
  0
LINE
  5
87
100
AcDbEntity
  8
2
370
    50
100
AcDbLine
 10
54.761318
 20
-100.477466
 30
0.0
 11
56.511318
 21
-100.477466
 31
0.0
  0
LINE
  5
88
100
AcDbEntity
  8
2
370
    50
100
AcDbLine
 10
-218.72662
 20
-62.177466
 30
0.0
 11
-168.72662
 21
-62.177466
 31
0.0
  0
LINE
  5
89
100
AcDbEntity
  8
2
370
    50
100
AcDbLine
 10
-168.72662
 20
-42.177466
 30
0.0
 11
-168.72662
 21
-62.177466
 31
0.0
  0
LINE
  5
8A
100
AcDbEntity
  8
2
370
    50
100
AcDbLine
 10
-218.72662
 20
-42.177466
 30
0.0
 11
-218.72662
 21
-62.177466
 31
0.0
  0
LINE
  5
8B
100
AcDbEntity
  8
2
370
    50
100
AcDbLine
 10
-203.218412
 20
-12.177466
 30
0.0
 11
-184.234829
 21
-12.177466
 31
0.0
  0
LINE
  5
8C
100
AcDbEntity
  8
2
370
    50
100
AcDbLine
 10
-204.218412
 20
-17.285443
 30
0.0
 11
-204.218412
 21
-13.177466
 31
0.0
  0
LINE
  5
8D
100
AcDbEntity
  8
2
370
    50
100
AcDbLine
 10
-183.234829
 20
-17.285443
 30
0.0
 11
-183.234829
 21
-13.177466
 31
0.0
  0
LINE
  5
8E
100
AcDbEntity
  8
2
370
    50
100
AcDbLine
 10
-203.218412
 20
-18.285443
 30
0.0
 11
-184.234829
 21
-18.285443
 31
0.0
  0
LINE
  5
8F
100
AcDbEntity
  8
2
370
    25
100
AcDbLine
 10
-203.159237
 20
-15.177466
 30
0.0
 11
-184.178723
 21
-15.177466
 31
0.0
  0
ARC
  5
90
100
AcDbEntity
  8
2
370
    50
100
AcDbCircle
 10
-203.218412
 20
-13.177466
 30
0.0
 40
1.0
100
AcDbArc
 50
90.0
 51
180.0
  0
ARC
  5
91
100
AcDbEntity
  8
2
370
    50
100
AcDbCircle
 10
-203.218412
 20
-17.285443
 30
0.0
 40
1.0
100
AcDbArc
 50
180.0
 51
270.0
  0
ARC
  5
92
100
AcDbEntity
  8
2
370
    50
100
AcDbCircle
 10
-184.234829
 20
-17.285443
 30
0.0
 40
1.0
100
AcDbArc
 50
270.0
 51
360.0
  0
ARC
  5
93
100
AcDbEntity
  8
2
370
    50
100
AcDbCircle
 10
-184.234829
 20
-13.177466
 30
0.0
 40
1.0
100
AcDbArc
 50
360.0
 51
90.0
  0
ARC
  5
94
100
AcDbEntity
  8
2
370
    50
100
AcDbCircle
 10
-205.964317
 20
-42.177466
 30
0.0
 40
37.237697
100
AcDbArc
 50
0.0
 51
53.156047
  0
ARC
  5
95
100
AcDbEntity
  8
2
370
    50
100
AcDbCircle
 10
-181.488924
 20
-42.177466
 30
0.0
 40
37.237697
100
AcDbArc
 50
126.843953
 51
180.0
  0
ARC
  5
96
100
AcDbEntity
  8
2
370
    25
100
AcDbCircle
 10
-197.334594
 20
-42.177466
 30
0.0
 40
28.607974
100
AcDbArc
 50
36.181894
 51
60.471174
  0
ARC
  5
97
100
AcDbEntity
  8
2
370
    25
100
AcDbCircle
 10
-190.118647
 20
-42.177466
 30
0.0
 40
28.607974
100
AcDbArc
 50
119.528826
 51
142.584924
  0
CIRCLE
  5
98
100
AcDbEntity
  8
2
370
    50
100
AcDbCircle
 10
-193.72662
 20
-49.177466
 30
0.0
 40
5.0
  0
LINE
  5
99
100
AcDbEntity
  8
2
370
    50
100
AcDbLine
 10
-193.72662
 20
-44.177466
 30
0.0
 11
-193.72662
 21
-54.177466
 31
0.0
  0
LINE
  5
9A
100
AcDbEntity
  8
2
370
    50
100
AcDbLine
 10
230.186318
 20
-62.877466
 30
0.0
 11
255.186318
 21
-62.877466
 31
0.0
  0
LINE
  5
9B
100
AcDbEntity
  8
2
370
    50
100
AcDbLine
 10
230.186318
 20
-46.877466
 30
0.0
 11
230.186318
 21
-62.877466
 31
0.0
  0
LINE
  5
9C
100
AcDbEntity
  8
2
370
    50
100
AcDbLine
 10
160.186318
 20
-12.877466
 30
0.0
 11
160.186318
 21
-15.877466
 31
0.0
  0
ARC
  5
9D
100
AcDbEntity
  8
2
370
    50
100
AcDbCircle
 10
255.186318
 20
-57.877466
 30
0.0
 40
25.0
100
AcDbArc
 50
0.0
 51
66.916396
  0
LINE
  5
9E
100
AcDbEntity
  8
2
370
    50
100
AcDbLine
 10
255.186318
 20
-62.877466
 30
0.0
 11
280.186318
 21
-57.877466
 31
0.0
  0
ARC
  5
9F
100
AcDbEntity
  8
2
370
    50
100
AcDbCircle
 10
157.16785
 20
-287.860899
 30
0.0
 40
275.0
100
AcDbArc
 50
66.916396
 51
89.371095
  0
ARC
  5
A0
100
AcDbEntity
  8
2
370
    50
100
AcDbCircle
 10
215.186318
 20
-46.877466
 30
0.0
 40
15.0
100
AcDbArc
 50
0.0
 51
64.985071
  0
ARC
  5
A1
100
AcDbEntity
  8
2
370
    50
100
AcDbCircle
 10
136.958255
 20
-214.524029
 30
0.0
 40
200.0
100
AcDbArc
 50
64.985071
 51
79.856845
  0
ARC
  5
A2
100
AcDbEntity
  8
2
370
    50
100
AcDbCircle
 10
165.443333
 20
-12.985443
 30
0.0
 40
6.0
100
AcDbArc
 50
208.81635
 51
298.250418
  0
ARC
  5
A3
100
AcDbEntity
  8
2
370
    50
100
AcDbCircle
 10
171.123246
 20
-23.556091
 30
0.0
 40
6.0
100
AcDbArc
 50
79.856845
 51
118.250418
  0
LINE
  5
A4
100
AcDbEntity
  8
2
370
    50
100
AcDbLine
 10
-170.22662
 20
-65.977466
 30
0.0
 11
-216.22662
 21
-65.977466
 31
0.0
  0
LINE
  5
A5
100
AcDbEntity
  8
2
370
    50
100
AcDbLine
 10
-214.72662
 20
-65.977466
 30
0.0
 11
-217.22662
 21
-65.977466
 31
0.0
  0
ARC
  5
A6
100
AcDbEntity
  8
2
370
    50
100
AcDbCircle
 10
-194.216979
 20
-65.311593
 30
0.0
 40
23.0
100
AcDbArc
 50
358.340998
 51
7.831855
  0
ARC
  5
A7
100
AcDbEntity
  8
2
370
    50
100
AcDbCircle
 10
-193.236261
 20
-65.311593
 30
0.0
 40
23.0
100
AcDbArc
 50
172.168145
 51
181.659002
  0
LINE
  5
A8
100
AcDbEntity
  8
2
370
    50
100
AcDbLine
 10
-194.812256
 20
-65.977466
 30
0.0
 11
-171.22662
 21
-65.977466
 31
0.0
  0
POINT
  5
A9
100
AcDbEntity
  8
2
370
    50
100
AcDbPoint
 10
-193.72662
 20
-54.177466
 30
0.0
  0
ARC
  5
AA
100
AcDbEntity
  8
2
370
    50
100
AcDbCircle
 10
254.020959
 20
-65.311593
 30
0.0
 40
23.0
100
AcDbArc
 50
358.340998
 51
16.694471
  0
ARC
  5
AB
100
AcDbEntity
  8
2
370
    50
100
AcDbCircle
 10
255.001677
 20
-65.311593
 30
0.0
 40
23.0
100
AcDbArc
 50
173.924919
 51
181.659002
  0
LINE
  5
AC
100
AcDbEntity
  8
2
370
    50
100
AcDbLine
 10
278.011318
 20
-65.977466
 30
0.0
 11
231.011318
 21
-65.977466
 31
0.0
  0
ARC
  5
AD
100
AcDbEntity
  8
2
370
    50
100
AcDbCircle
 10
235.66206
 20
-49.877466
 30
0.0
 40
7.630625
100
AcDbArc
 50
137.552687
 51
222.447313
  0
LINE
  5
AE
100
AcDbEntity
  8
2
370
    50
100
AcDbLine
 10
230.031435
 20
-44.727466
 30
0.0
 11
230.031435
 21
-54.474396
 31
0.0
  0
LINE
  5
AF
100
AcDbEntity
  8
2
370
    50
100
AcDbLine
 10
230.031435
 20
-46.527466
 30
0.0
 11
230.031435
 21
-53.227466
 31
0.0
  0
LINE
  5
B0
100
AcDbEntity
  8
2
370
    50
100
AcDbLine
 10
230.031435
 20
-54.377466
 30
0.0
 11
230.031435
 21
-55.027466
 31
0.0
  0
LINE
  5
B1
100
AcDbEntity
  8
2
370
    50
100
AcDbLine
 10
269.261318
 20
-123.977466
 30
0.0
 11
267.761318
 21
-125.477466
 31
0.0
  0
LINE
  5
B2
100
AcDbEntity
  8
2
370
    50
100
AcDbLine
 10
264.511318
 20
-141.277466
 30
0.0
 11
264.511318
 21
-140.477466
 31
0.0
  0
LINE
  5
B3
100
AcDbEntity
  8
2
370
    50
100
AcDbLine
 10
269.511318
 20
-125.477466
 30
0.0
 11
269.511318
 21
-140.477466
 31
0.0
  0
LINE
  5
B4
100
AcDbEntity
  8
2
370
    50
100
AcDbLine
 10
269.511318
 20
-140.477466
 30
0.0
 11
239.511318
 21
-140.477466
 31
0.0
  0
LINE
  5
B5
100
AcDbEntity
  8
2
370
    50
100
AcDbLine
 10
264.511318
 20
-141.277466
 30
0.0
 11
264.311318
 21
-141.477466
 31
0.0
  0
LINE
  5
B6
100
AcDbEntity
  8
2
370
    25
  6
CENTER
100
AcDbLine
 10
254.511318
 20
-25.263802
 30
0.0
 11
254.511318
 21
-171.503006
 31
0.0
  0
LINE
  5
B7
100
AcDbEntity
  8
2
370
    50
100
AcDbLine
 10
264.511318
 20
-141.477466
 30
0.0
 11
262.511318
 21
-141.477466
 31
0.0
  0
LINE
  5
B8
100
AcDbEntity
  8
2
370
    50
100
AcDbLine
 10
240.511318
 20
-141.477466
 30
0.0
 11
244.511318
 21
-141.477466
 31
0.0
  0
LINE
  5
B9
100
AcDbEntity
  8
2
370
    50
100
AcDbLine
 10
276.351064
 20
-121.297974
 30
0.0
 11
288.671572
 21
-121.297974
 31
0.0
  0
LINE
  5
BA
100
AcDbEntity
  8
2
370
    50
100
AcDbLine
 10
276.351064
 20
-112.63772
 30
0.0
 11
288.671572
 21
-112.63772
 31
0.0
  0
LINE
  5
BB
100
AcDbEntity
  8
2
370
    50
100
AcDbLine
 10
290.011318
 20
-118.977466
 30
0.0
 11
288.671572
 21
-121.297974
 31
0.0
  0
ARC
  5
BC
100
AcDbEntity
  8
2
370
    50
100
AcDbCircle
 10
282.34385
 20
-116.967847
 30
0.0
 40
7.667468
100
AcDbArc
 50
325.615753
 51
34.384247
  0
ARC
  5
BD
100
AcDbEntity
  8
2
370
    50
100
AcDbCircle
 10
261.351064
 20
-103.977466
 30
0.0
 40
28.660254
100
AcDbArc
 50
342.412046
 51
360.0
  0
LINE
  5
BE
100
AcDbEntity
  8
2
370
    50
100
AcDbLine
 10
290.011318
 20
-118.977466
 30
0.0
 11
290.011318
 21
-88.977466
 31
0.0
  0
LINE
  5
BF
100
AcDbEntity
  8
2
370
    50
100
AcDbLine
 10
276.351064
 20
-86.656958
 30
0.0
 11
288.671572
 21
-86.656958
 31
0.0
  0
LINE
  5
C0
100
AcDbEntity
  8
2
370
    50
100
AcDbLine
 10
276.351064
 20
-95.317212
 30
0.0
 11
288.671572
 21
-95.317212
 31
0.0
  0
LINE
  5
C1
100
AcDbEntity
  8
2
370
    50
100
AcDbLine
 10
290.011318
 20
-88.977466
 30
0.0
 11
288.671572
 21
-86.656958
 31
0.0
  0
ARC
  5
C2
100
AcDbEntity
  8
2
370
    50
100
AcDbCircle
 10
282.34385
 20
-90.987085
 30
0.0
 40
7.667468
100
AcDbArc
 50
325.615753
 51
34.384247
  0
ARC
  5
C3
100
AcDbEntity
  8
2
370
    50
100
AcDbCircle
 10
261.351064
 20
-103.977466
 30
0.0
 40
28.660254
100
AcDbArc
 50
0.0
 51
17.587954
  0
POINT
  5
C4
100
AcDbEntity
  8
2
370
    50
100
AcDbPoint
 10
-193.72662
 20
-135.977466
 30
0.0
  0
POINT
  5
C5
100
AcDbEntity
  8
2
370
    50
100
AcDbPoint
 10
-193.72662
 20
-135.977466
 30
0.0
  0
LINE
  5
C6
100
AcDbEntity
  8
2
370
    50
100
AcDbLine
 10
-208.47662
 20
-123.977466
 30
0.0
 11
-207.72662
 21
-124.727466
 31
0.0
  0
LINE
  5
C7
100
AcDbEntity
  8
2
370
    50
100
AcDbLine
 10
-179.72662
 20
-141.477466
 30
0.0
 11
-179.72662
 21
-153.477466
 31
0.0
  0
LINE
  5
C8
100
AcDbEntity
  8
2
370
    50
100
AcDbLine
 10
-186.22662
 20
-159.977466
 30
0.0
 11
-201.22662
 21
-159.977466
 31
0.0
  0
LINE
  5
C9
100
AcDbEntity
  8
2
370
    50
100
AcDbLine
 10
-208.72662
 20
-125.477466
 30
0.0
 11
-208.72662
 21
-140.477466
 31
0.0
  0
LINE
  5
CA
100
AcDbEntity
  8
2
370
    50
100
AcDbLine
 10
-207.72662
 20
-125.477466
 30
0.0
 11
-207.72662
 21
-133.477466
 31
0.0
  0
LINE
  5
CB
100
AcDbEntity
  8
2
370
    50
100
AcDbLine
 10
-178.97662
 20
-123.977466
 30
0.0
 11
-179.72662
 21
-124.727466
 31
0.0
  0
LINE
  5
CC
100
AcDbEntity
  8
2
370
    50
100
AcDbLine
 10
-178.72662
 20
-125.477466
 30
0.0
 11
-178.72662
 21
-140.477466
 31
0.0
  0
LINE
  5
CD
100
AcDbEntity
  8
2
370
    50
100
AcDbLine
 10
-179.72662
 20
-125.477466
 30
0.0
 11
-179.72662
 21
-133.477466
 31
0.0
  0
LINE
  5
CE
100
AcDbEntity
  8
2
370
    50
100
AcDbLine
 10
-207.72662
 20
-141.477466
 30
0.0
 11
-207.72662
 21
-153.477466
 31
0.0
  0
ARC
  5
CF
100
AcDbEntity
  8
2
370
    50
100
AcDbCircle
 10
-201.22662
 20
-153.477466
 30
0.0
 40
6.5
100
AcDbArc
 50
180.0
 51
270.0
  0
LINE
  5
D0
100
AcDbEntity
  8
2
370
    50
100
AcDbLine
 10
-207.72662
 20
-88.477466
 30
0.0
 11
-207.72662
 21
-153.477466
 31
0.0
  0
LINE
  5
D1
100
AcDbEntity
  8
2
370
    50
100
AcDbLine
 10
-179.72662
 20
-88.477466
 30
0.0
 11
-179.72662
 21
-153.477466
 31
0.0
  0
LINE
  5
D2
100
AcDbEntity
  8
2
370
    50
100
AcDbLine
 10
-178.72662
 20
-140.477466
 30
0.0
 11
-179.72662
 21
-140.477466
 31
0.0
  0
LINE
  5
D3
100
AcDbEntity
  8
2
370
    50
100
AcDbLine
 10
-208.72662
 20
-140.477466
 30
0.0
 11
-207.72662
 21
-140.477466
 31
0.0
  0
ARC
  5
D4
100
AcDbEntity
  8
2
370
    50
100
AcDbCircle
 10
-186.22662
 20
-153.477466
 30
0.0
 40
6.5
100
AcDbArc
 50
270.0
 51
360.0
  0
LINE
  5
D5
100
AcDbEntity
  8
2
370
    50
100
AcDbLine
 10
-186.22662
 20
-81.977466
 30
0.0
 11
-201.22662
 21
-81.977466
 31
0.0
  0
ARC
  5
D6
100
AcDbEntity
  8
2
370
    50
100
AcDbCircle
 10
-201.22662
 20
-88.477466
 30
0.0
 40
6.5
100
AcDbArc
 50
90.0
 51
180.0
  0
ARC
  5
D7
100
AcDbEntity
  8
2
370
    50
100
AcDbCircle
 10
-186.22662
 20
-88.477466
 30
0.0
 40
6.5
100
AcDbArc
 50
0.0
 51
90.0
  0
LINE
  5
D8
100
AcDbEntity
  8
2
370
    50
100
AcDbLine
 10
-179.72662
 20
-100.477466
 30
0.0
 11
-207.72662
 21
-100.477466
 31
0.0
  0
LINE
  5
D9
100
AcDbEntity
  8
2
370
    50
100
AcDbLine
 10
-178.97662
 20
-123.977466
 30
0.0
 11
-179.72662
 21
-123.977466
 31
0.0
  0
LINE
  5
DA
100
AcDbEntity
  8
2
370
    50
100
AcDbLine
 10
-208.47662
 20
-123.977466
 30
0.0
 11
-207.72662
 21
-123.977466
 31
0.0
  0
LINE
  5
DB
100
AcDbEntity
  8
2
370
    50
100
AcDbLine
 10
-178.72662
 20
-125.477466
 30
0.0
 11
-179.72662
 21
-125.477466
 31
0.0
  0
LINE
  5
DC
100
AcDbEntity
  8
2
370
    50
100
AcDbLine
 10
-207.72662
 20
-125.477466
 30
0.0
 11
-208.72662
 21
-125.477466
 31
0.0
  0
POINT
  5
DD
100
AcDbEntity
  8
2
370
    50
100
AcDbPoint
 10
-193.72662
 20
-100.477466
 30
0.0
  0
LINE
  5
DE
100
AcDbEntity
  8
2
370
    50
100
AcDbLine
 10
-193.72662
 20
-109.477466
 30
0.0
 11
-182.72662
 21
-109.477466
 31
0.0
  0
LINE
  5
DF
100
AcDbEntity
  8
2
370
    50
100
AcDbLine
 10
-182.22662
 20
-100.477466
 30
0.0
 11
-182.22662
 21
-100.977466
 31
0.0
  0
LINE
  5
E0
100
AcDbEntity
  8
2
370
    50
100
AcDbLine
 10
-181.72662
 20
-100.977466
 30
0.0
 11
-181.72662
 21
-105.977466
 31
0.0
  0
LINE
  5
E1
100
AcDbEntity
  8
2
370
    50
100
AcDbLine
 10
-193.72662
 20
-100.977466
 30
0.0
 11
-181.72662
 21
-100.977466
 31
0.0
  0
LINE
  5
E2
100
AcDbEntity
  8
2
370
    50
100
AcDbLine
 10
-193.72662
 20
-109.477466
 30
0.0
 11
-204.72662
 21
-109.477466
 31
0.0
  0
LINE
  5
E3
100
AcDbEntity
  8
2
370
    50
100
AcDbLine
 10
-205.22662
 20
-100.477466
 30
0.0
 11
-205.22662
 21
-100.977466
 31
0.0
  0
LINE
  5
E4
100
AcDbEntity
  8
2
370
    50
100
AcDbLine
 10
-205.72662
 20
-100.977466
 30
0.0
 11
-205.72662
 21
-105.977466
 31
0.0
  0
LINE
  5
E5
100
AcDbEntity
  8
2
370
    50
100
AcDbLine
 10
-193.72662
 20
-100.977466
 30
0.0
 11
-205.72662
 21
-100.977466
 31
0.0
  0
LINE
  5
E6
100
AcDbEntity
  8
2
370
    25
100
AcDbLine
 10
-204.72662
 20
-108.977466
 30
0.0
 11
-182.72662
 21
-108.977466
 31
0.0
  0
LINE
  5
E7
100
AcDbEntity
  8
2
370
    50
100
AcDbLine
 10
54.011318
 20
-100.477466
 30
0.0
 11
54.011318
 21
-100.977466
 31
0.0
  0
LINE
  5
E8
100
AcDbEntity
  8
2
370
    50
100
AcDbLine
 10
54.511318
 20
-100.977466
 30
0.0
 11
30.511318
 21
-100.977466
 31
0.0
  0
LINE
  5
E9
100
AcDbEntity
  8
2
370
    50
100
AcDbLine
 10
54.511318
 20
-100.977466
 30
0.0
 11
54.511318
 21
-108.977466
 31
0.0
  0
LINE
  5
EA
100
AcDbEntity
  8
2
370
    50
100
AcDbLine
 10
54.511318
 20
-108.977466
 30
0.0
 11
54.011318
 21
-109.477466
 31
0.0
  0
LINE
  5
EB
100
AcDbEntity
  8
2
370
    50
100
AcDbLine
 10
54.011318
 20
-109.477466
 30
0.0
 11
42.511318
 21
-109.477466
 31
0.0
  0
LINE
  5
EC
100
AcDbEntity
  8
2
370
    50
100
AcDbLine
 10
-204.72662
 20
-105.977466
 30
0.0
 11
-204.72662
 21
-109.477466
 31
0.0
  0
LINE
  5
ED
100
AcDbEntity
  8
2
370
    50
100
AcDbLine
 10
-182.72662
 20
-105.977466
 30
0.0
 11
-182.72662
 21
-109.477466
 31
0.0
  0
LINE
  5
EE
100
AcDbEntity
  8
2
370
    50
100
AcDbLine
 10
-204.72662
 20
-105.977466
 30
0.0
 11
-205.72662
 21
-105.977466
 31
0.0
  0
LINE
  5
EF
100
AcDbEntity
  8
2
370
    50
100
AcDbLine
 10
-181.72662
 20
-105.977466
 30
0.0
 11
-182.72662
 21
-105.977466
 31
0.0
  0
LINE
  5
F0
100
AcDbEntity
  8
2
370
    50
100
AcDbLine
 10
-215.948153
 20
113.903415
 30
0.0
 11
-274.854641
 21
133.302987
 31
0.0
  0
LINE
  5
F1
100
AcDbEntity
  8
2
370
    50
100
AcDbLine
 10
-171.505087
 20
113.903415
 30
0.0
 11
-112.5986
 21
133.302987
 31
0.0
  0
LINE
  5
F2
100
AcDbEntity
  8
2
370
    50
100
AcDbLine
 10
-104.72662
 20
148.80117
 30
0.0
 11
-105.834964
 21
141.333133
 31
0.0
  0
LINE
  5
F3
100
AcDbEntity
  8
2
370
    50
100
AcDbLine
 10
-282.72662
 20
148.80117
 30
0.0
 11
-281.618277
 21
141.333133
 31
0.0
  0
ARC
  5
F4
100
AcDbEntity
  8
2
370
    50
100
AcDbCircle
 10
-115.72662
 20
142.80117
 30
0.0
 40
10.0
100
AcDbArc
 50
288.228176
 51
351.558259
  0
ARC
  5
F5
100
AcDbEntity
  8
2
370
    50
100
AcDbCircle
 10
-271.72662
 20
142.80117
 30
0.0
 40
10.0
100
AcDbArc
 50
188.441741
 51
251.771824
  0
ARC
  5
F6
100
AcDbEntity
  8
2
370
    50
100
AcDbCircle
 10
-199.643171
 20
56.80117
 30
0.0
 40
92.0
100
AcDbArc
 50
71.237763
 51
76.375654
  0
ARC
  5
F7
100
AcDbEntity
  8
2
370
    50
100
AcDbCircle
 10
-124.393675
 20
60.19213
 30
0.0
 40
89.0
100
AcDbArc
 50
95.372392
 51
105.866918
  0
ARC
  5
F8
100
AcDbEntity
  8
2
370
    50
100
AcDbCircle
 10
-177.782276
 20
339.635556
 30
0.0
 40
196.0
100
AcDbArc
 50
272.355536
 51
278.525128
  0
ARC
  5
F9
100
AcDbEntity
  8
2
370
    50
100
AcDbCircle
 10
-187.81007
 20
56.80117
 30
0.0
 40
92.0
100
AcDbArc
 50
103.624347
 51
108.762237
  0
ARC
  5
FA
100
AcDbEntity
  8
2
370
    50
100
AcDbCircle
 10
-209.670964
 20
339.635556
 30
0.0
 40
196.0
100
AcDbArc
 50
261.474872
 51
267.644464
  0
ARC
  5
FB
100
AcDbEntity
  8
2
370
    50
100
AcDbCircle
 10
-263.059565
 20
60.19213
 30
0.0
 40
89.0
100
AcDbArc
 50
74.133082
 51
84.627608
  0
LINE
  5
FC
100
AcDbEntity
  8
2
370
    50
100
AcDbLine
 10
-257.72662
 20
148.80117
 30
0.0
 11
-258.22662
 21
148.80117
 31
0.0
  0
LINE
  5
FD
100
AcDbEntity
  8
2
370
    50
100
AcDbLine
 10
-258.67662
 20
148.80117
 30
0.0
 11
-254.72662
 21
148.80117
 31
0.0
  0
ARC
  5
FE
100
AcDbEntity
  8
2
370
    50
100
AcDbCircle
 10
-193.72662
 20
42.30117
 30
0.0
 40
10.5
100
AcDbArc
 50
182.265692
 51
357.734308
  0
ARC
  5
FF
100
AcDbEntity
  8
2
370
    50
100
AcDbCircle
 10
-193.72662
 20
126.80117
 30
0.0
 40
25.0
100
AcDbArc
 50
342.676306
 51
197.323694
  0
ARC
  5
100
100
AcDbEntity
  8
2
370
    50
100
AcDbCircle
 10
116.530645
 20
30.026022
 30
0.0
 40
300.0
100
AcDbArc
 50
162.676306
 51
177.734308
  0
ARC
  5
101
100
AcDbEntity
  8
2
370
    50
100
AcDbCircle
 10
-503.983886
 20
30.026022
 30
0.0
 40
300.0
100
AcDbArc
 50
2.265692
 51
17.323694
  0
LINE
  5
102
100
AcDbEntity
  8
2
370
    50
100
AcDbLine
 10
-104.72662
 20
148.80117
 30
0.0
 11
-105.834964
 21
141.333133
 31
0.0
  0
ARC
  5
103
100
AcDbEntity
  8
2
370
    50
100
AcDbCircle
 10
-51.801639
 20
-29.423347
 30
0.0
 40
14.0
100
AcDbArc
 50
222.0
 51
42.0
  0
LINE
  5
104
100
AcDbEntity
  8
2
370
    50
100
AcDbLine
 10
-41.397611
 20
-20.055519
 30
0.0
 11
-164.185302
 21
116.314027
 31
0.0
  0
LINE
  5
105
100
AcDbEntity
  8
2
370
    50
100
AcDbLine
 10
-62.205666
 20
-38.791176
 30
0.0
 11
-177.552479
 21
89.314438
 31
0.0
  0
LINE
  5
106
100
AcDbEntity
  8
2
370
    50
100
AcDbLine
 10
-171.505087
 20
113.903415
 30
0.0
 11
-112.5986
 21
133.302987
 31
0.0
  0
LINE
  5
107
100
AcDbEntity
  8
2
370
    50
100
AcDbLine
 10
-104.72662
 20
148.80117
 30
0.0
 11
-105.834964
 21
141.333133
 31
0.0
  0
ARC
  5
108
100
AcDbEntity
  8
2
370
    50
100
AcDbCircle
 10
-115.72662
 20
142.80117
 30
0.0
 40
10.0
100
AcDbArc
 50
288.228176
 51
351.558259
  0
ARC
  5
109
100
AcDbEntity
  8
2
370
    50
100
AcDbCircle
 10
-124.393675
 20
60.19213
 30
0.0
 40
89.0
100
AcDbArc
 50
95.372392
 51
105.866918
  0
LINE
  5
10A
100
AcDbEntity
  8
2
370
    50
100
AcDbLine
 10
-128.77662
 20
148.80117
 30
0.0
 11
-127.02662
 21
148.80117
 31
0.0
  0
LINE
  5
10B
100
AcDbEntity
  8
2
370
    50
100
AcDbLine
 10
-136.047128
 20
150.140916
 30
0.0
 11
-136.047128
 21
162.461424
 31
0.0
  0
LINE
  5
10C
100
AcDbEntity
  8
2
370
    50
100
AcDbLine
 10
-101.406112
 20
150.140916
 30
0.0
 11
-101.406112
 21
162.461424
 31
0.0
  0
LINE
  5
10D
100
AcDbEntity
  8
2
370
    50
100
AcDbLine
 10
-133.72662
 20
148.80117
 30
0.0
 11
-136.047128
 21
150.140916
 31
0.0
  0
LINE
  5
10E
100
AcDbEntity
  8
2
370
    50
100
AcDbLine
 10
-103.72662
 20
148.80117
 30
0.0
 11
-101.406112
 21
150.140916
 31
0.0
  0
LINE
  5
10F
100
AcDbEntity
  8
2
370
    50
100
AcDbLine
 10
-103.72662
 20
163.80117
 30
0.0
 11
-101.406112
 21
162.461424
 31
0.0
  0
LINE
  5
110
100
AcDbEntity
  8
2
370
    50
100
AcDbLine
 10
-133.72662
 20
163.80117
 30
0.0
 11
-136.047128
 21
162.461424
 31
0.0
  0
LINE
  5
111
100
AcDbEntity
  8
2
370
    50
100
AcDbLine
 10
-129.72662
 20
148.80117
 30
0.0
 11
-129.22662
 21
148.80117
 31
0.0
  0
POINT
  5
112
100
AcDbEntity
  8
2
370
    50
100
AcDbPoint
 10
-118.72662
 20
148.80117
 30
0.0
  0
LINE
  5
113
100
AcDbEntity
  8
2
370
    25
  6
CENTER
100
AcDbLine
 10
-68.72662
 20
154.590174
 30
0.0
 11
-68.72662
 21
241.492965
 31
0.0
  0
LINE
  5
114
100
AcDbEntity
  8
2
370
    25
  6
CENTER
100
AcDbLine
 10
-48.761227
 20
188.85117
 30
0.0
 11
-136.056366
 21
188.85117
 31
0.0
  0
LINE
  5
115
100
AcDbEntity
  8
2
370
    25
  6
CENTER
100
AcDbLine
 10
-118.72662
 20
127.291122
 30
0.0
 11
-118.72662
 21
200.343721
 31
0.0
  0
LINE
  5
116
100
AcDbEntity
  8
2
370
    50
100
AcDbLine
 10
-59.095025
 20
237.85117
 30
0.0
 11
-78.295025
 21
237.85117
 31
0.0
  0
LINE
  5
117
100
AcDbEntity
  8
2
370
    50
100
AcDbLine
 10
-59.095025
 20
237.85117
 30
0.0
 11
-58.195025
 21
236.95117
 31
0.0
  0
LINE
  5
118
100
AcDbEntity
  8
2
370
    50
100
AcDbLine
 10
-78.295025
 20
237.85117
 30
0.0
 11
-79.195025
 21
236.95117
 31
0.0
  0
LINE
  5
119
100
AcDbEntity
  8
2
370
    50
100
AcDbLine
 10
-45.72662
 20
217.65117
 30
0.0
 11
-45.72662
 21
214.29229
 31
0.0
  0
LINE
  5
11A
100
AcDbEntity
  8
2
370
    50
100
AcDbLine
 10
-91.72662
 20
217.65117
 30
0.0
 11
-45.72662
 21
217.65117
 31
0.0
  0
ARC
  5
11B
100
AcDbEntity
  8
2
370
    50
100
AcDbCircle
 10
-55.22662
 20
209.65117
 30
0.0
 40
2.0
100
AcDbArc
 50
270.0
 51
294.670512
  0
LINE
  5
11C
100
AcDbEntity
  8
2
370
    50
100
AcDbLine
 10
-46.309221
 20
213.383567
 30
0.0
 11
-54.391821
 21
207.833724
 31
0.0
  0
ARC
  5
11D
100
AcDbEntity
  8
2
370
    50
100
AcDbCircle
 10
-82.22662
 20
209.65117
 30
0.0
 40
2.0
100
AcDbArc
 50
245.329488
 51
270.0
  0
LINE
  5
11E
100
AcDbEntity
  8
2
370
    50
100
AcDbLine
 10
-91.14402
 20
213.383567
 30
0.0
 11
-83.061419
 21
207.833724
 31
0.0
  0
ARC
  5
11F
100
AcDbEntity
  8
2
370
    50
100
AcDbCircle
 10
-46.72662
 20
214.29229
 30
0.0
 40
1.0
100
AcDbArc
 50
294.670512
 51
360.0
  0
LINE
  5
120
100
AcDbEntity
  8
2
370
    50
100
AcDbLine
 10
-52.47662
 20
201.562647
 30
0.0
 11
-52.47662
 21
175.35117
 31
0.0
  0
LINE
  5
121
100
AcDbEntity
  8
2
370
    25
  6
CENTER
100
AcDbLine
 10
-68.72662
 20
154.590174
 30
0.0
 11
-68.72662
 21
241.492965
 31
0.0
  0
LINE
  5
122
100
AcDbEntity
  8
2
370
    50
100
AcDbLine
 10
-104.22662
 20
175.35117
 30
0.0
 11
-52.47662
 21
175.35117
 31
0.0
  0
ARC
  5
123
100
AcDbEntity
  8
2
370
    50
100
AcDbCircle
 10
-49.905906
 20
205.85117
 30
0.0
 40
5.0
100
AcDbArc
 50
224.427004
 51
239.059821
  0
LINE
  5
124
100
AcDbEntity
  8
2
370
    50
100
AcDbLine
 10
-91.72662
 20
214.29229
 30
0.0
 11
-91.72662
 21
217.65117
 31
0.0
  0
LINE
  5
125
100
AcDbEntity
  8
2
370
    50
100
AcDbLine
 10
-91.72662
 20
217.65117
 30
0.0
 11
-79.22662
 21
217.65117
 31
0.0
  0
LINE
  5
126
100
AcDbEntity
  8
2
370
    50
100
AcDbLine
 10
-91.14402
 20
213.383567
 30
0.0
 11
-83.061419
 21
207.833724
 31
0.0
  0
ARC
  5
127
100
AcDbEntity
  8
2
370
    50
100
AcDbCircle
 10
-90.72662
 20
214.29229
 30
0.0
 40
1.0
100
AcDbArc
 50
180.0
 51
245.329488
  0
LINE
  5
128
100
AcDbEntity
  8
2
370
    50
100
AcDbLine
 10
-80.72662
 20
175.35117
 30
0.0
 11
-80.72662
 21
172.517837
 31
0.0
  0
LINE
  5
129
100
AcDbEntity
  8
2
370
    50
100
AcDbLine
 10
-56.72662
 20
175.35117
 30
0.0
 11
-56.72662
 21
172.517837
 31
0.0
  0
LINE
  5
12A
100
AcDbEntity
  8
2
370
    50
100
AcDbLine
 10
-57.37662
 20
173.85117
 30
0.0
 11
-57.37662
 21
172.517837
 31
0.0
  0
LINE
  5
12B
100
AcDbEntity
  8
2
370
    50
100
AcDbLine
 10
-80.07662
 20
173.85117
 30
0.0
 11
-80.07662
 21
172.517837
 31
0.0
  0
LINE
  5
12C
100
AcDbEntity
  8
2
370
    50
100
AcDbLine
 10
-72.47662
 20
157.35117
 30
0.0
 11
-64.97662
 21
157.35117
 31
0.0
  0
LINE
  5
12D
100
AcDbEntity
  8
2
370
    50
100
AcDbLine
 10
-64.97662
 20
157.35117
 30
0.0
 11
-63.97662
 21
158.35117
 31
0.0
  0
LINE
  5
12E
100
AcDbEntity
  8
2
370
    50
100
AcDbLine
 10
-73.47662
 20
158.35117
 30
0.0
 11
-72.47662
 21
157.35117
 31
0.0
  0
LINE
  5
12F
100
AcDbEntity
  8
2
370
    50
100
AcDbLine
 10
-62.72662
 20
160.517837
 30
0.0
 11
-74.72662
 21
160.517837
 31
0.0
  0
LINE
  5
130
100
AcDbEntity
  8
2
370
    50
100
AcDbLine
 10
-73.47662
 20
159.35117
 30
0.0
 11
-63.97662
 21
159.35117
 31
0.0
  0
LINE
  5
131
100
AcDbEntity
  8
2
370
    50
100
AcDbLine
 10
-57.37662
 20
173.85117
 30
0.0
 11
-56.72662
 21
174.977003
 31
0.0
  0
LINE
  5
132
100
AcDbEntity
  8
2
370
    50
100
AcDbLine
 10
-80.07662
 20
173.85117
 30
0.0
 11
-80.72662
 21
174.977003
 31
0.0
  0
LINE
  5
133
100
AcDbEntity
  8
2
370
    25
100
AcDbLine
 10
-130.82662
 20
164.10117
 30
0.0
 11
-130.82662
 21
163.80117
 31
0.0
  0
LINE
  5
134
100
AcDbEntity
  8
2
370
    25
100
AcDbLine
 10
-106.62662
 20
164.10117
 30
0.0
 11
-106.62662
 21
163.80117
 31
0.0
  0
LINE
  5
135
100
AcDbEntity
  8
2
370
    50
100
AcDbLine
 10
-105.72662
 20
173.85117
 30
0.0
 11
-105.72662
 21
163.80117
 31
0.0
  0
LINE
  5
136
100
AcDbEntity
  8
2
370
    50
100
AcDbLine
 10
-130.82662
 20
164.10117
 30
0.0
 11
-131.72662
 21
165.660016
 31
0.0
  0
LINE
  5
137
100
AcDbEntity
  8
2
370
    50
100
AcDbLine
 10
-106.62662
 20
164.10117
 30
0.0
 11
-105.72662
 21
165.660016
 31
0.0
  0
LINE
  5
138
100
AcDbEntity
  8
2
370
    50
100
AcDbLine
 10
-131.72662
 20
195.10117
 30
0.0
 11
-86.62662
 21
195.10117
 31
0.0
  0
LINE
  5
139
100
AcDbEntity
  8
2
370
    50
100
AcDbLine
 10
-131.72662
 20
163.80117
 30
0.0
 11
-131.72662
 21
195.10117
 31
0.0
  0
ARC
  5
13A
100
AcDbEntity
  8
2
370
    50
100
AcDbCircle
 10
-87.697334
 20
205.85117
 30
0.0
 40
5.0
100
AcDbArc
 50
300.940179
 51
315.572996
  0
LINE
  5
13B
100
AcDbEntity
  8
2
370
    50
100
AcDbLine
 10
-85.12662
 20
201.562647
 30
0.0
 11
-85.12662
 21
196.60117
 31
0.0
  0
ARC
  5
13C
100
AcDbEntity
  8
2
370
    50
100
AcDbCircle
 10
-104.22662
 20
173.85117
 30
0.0
 40
1.5
100
AcDbArc
 50
90.0
 51
180.0
  0
ARC
  5
13D
100
AcDbEntity
  8
2
370
    50
100
AcDbCircle
 10
-86.62662
 20
196.60117
 30
0.0
 40
1.5
100
AcDbArc
 50
270.0
 51
360.0
  0
LINE
  5
13E
100
AcDbEntity
  8
2
370
    50
100
AcDbLine
 10
-103.72662
 20
163.80117
 30
0.0
 11
-133.72662
 21
163.80117
 31
0.0
  0
POINT
  5
13F
100
AcDbEntity
  8
2
370
    50
100
AcDbPoint
 10
-268.72662
 20
-103.977466
 30
0.0
  0
ARC
  5
140
100
AcDbEntity
  8
2
370
    50
100
AcDbCircle
 10
-83.371281
 20
-139.332805
 30
0.0
 40
23.0
100
AcDbArc
 50
176.583962
 51
93.416038
  0
CIRCLE
  5
141
100
AcDbEntity
  8
2
370
    50
100
AcDbCircle
 10
-83.371281
 20
-139.332805
 30
0.0
 40
13.0
  0
LINE
  5
142
100
AcDbEntity
  8
2
370
    50
100
AcDbLine
 10
-96.237904
 20
-133.814651
 30
0.0
 11
-88.889435
 21
-126.466182
 31
0.0
  0
POINT
  5
143
100
AcDbEntity
  8
2
370
    50
100
AcDbPoint
 10
-83.371281
 20
-139.332805
 30
0.0
  0
LINE
  5
144
100
AcDbEntity
  8
2
370
    50
100
AcDbLine
 10
-94.583454
 20
-147.71655
 30
0.0
 11
-97.27318
 21
-137.678354
 31
0.0
  0
LINE
  5
145
100
AcDbEntity
  8
2
370
    50
100
AcDbLine
 10
-81.716831
 20
-153.234704
 30
0.0
 11
-91.755027
 21
-150.544977
 31
0.0
  0
LINE
  5
146
100
AcDbEntity
  8
2
370
    50
100
AcDbLine
 10
-70.504658
 20
-144.850958
 30
0.0
 11
-77.853128
 21
-152.199427
 31
0.0
  0
LINE
  5
147
100
AcDbEntity
  8
2
370
    50
100
AcDbLine
 10
-72.159109
 20
-130.949059
 30
0.0
 11
-69.469382
 21
-140.987255
 31
0.0
  0
LINE
  5
148
100
AcDbEntity
  8
2
370
    50
100
AcDbLine
 10
-85.025731
 20
-125.430906
 30
0.0
 11
-74.987536
 21
-128.120632
 31
0.0
  0
ARC
  5
149
100
AcDbEntity
  8
2
370
    50
100
AcDbCircle
 10
-83.371281
 20
-139.332805
 30
0.0
 40
14.0
100
AcDbArc
 50
156.786789
 51
173.213211
  0
ARC
  5
14A
100
AcDbEntity
  8
2
370
    50
100
AcDbCircle
 10
-83.371281
 20
-139.332805
 30
0.0
 40
14.0
100
AcDbArc
 50
216.786789
 51
233.213211
  0
ARC
  5
14B
100
AcDbEntity
  8
2
370
    50
100
AcDbCircle
 10
-83.371281
 20
-139.332805
 30
0.0
 40
14.0
100
AcDbArc
 50
276.786789
 51
293.213211
  0
ARC
  5
14C
100
AcDbEntity
  8
2
370
    50
100
AcDbCircle
 10
-83.371281
 20
-139.332805
 30
0.0
 40
14.0
100
AcDbArc
 50
336.786789
 51
353.213211
  0
ARC
  5
14D
100
AcDbEntity
  8
2
370
    50
100
AcDbCircle
 10
-83.371281
 20
-139.332805
 30
0.0
 40
14.0
100
AcDbArc
 50
36.786789
 51
53.213211
  0
ARC
  5
14E
100
AcDbEntity
  8
2
370
    50
100
AcDbCircle
 10
-83.371281
 20
-139.332805
 30
0.0
 40
14.0
100
AcDbArc
 50
96.786789
 51
113.213211
  0
CIRCLE
  5
14F
100
AcDbEntity
  8
2
370
    50
100
AcDbCircle
 10
-83.371281
 20
-139.332805
 30
0.0
 40
4.75
  0
CIRCLE
  5
150
100
AcDbEntity
  8
2
370
    50
100
AcDbCircle
 10
-83.371281
 20
-139.332805
 30
0.0
 40
6.0
  0
LINE
  5
151
100
AcDbEntity
  8
2
370
    50
100
AcDbLine
 10
-79.380693
 20
-141.909179
 30
0.0
 11
-85.947656
 21
-135.342217
 31
0.0
  0
LINE
  5
152
100
AcDbEntity
  8
2
370
    50
100
AcDbLine
 10
-80.794907
 20
-143.323393
 30
0.0
 11
-87.361869
 21
-136.75643
 31
0.0
  0
ARC
  5
153
100
AcDbEntity
  8
2
370
    50
100
AcDbCircle
 10
-83.371281
 20
-139.332805
 30
0.0
 40
4.25
100
AcDbArc
 50
328.608961
 51
121.391039
  0
ARC
  5
154
100
AcDbEntity
  8
2
370
    50
100
AcDbCircle
 10
-83.371281
 20
-139.332805
 30
0.0
 40
4.25
100
AcDbArc
 50
148.608961
 51
301.391039
  0
ARC
  5
155
100
AcDbEntity
  8
2
370
    50
100
AcDbCircle
 10
-83.371281
 20
-139.332805
 30
0.0
 40
16.4
100
AcDbArc
 50
221.100878
 51
48.899122
  0
LINE
  5
156
100
AcDbEntity
  8
2
370
    50
100
AcDbLine
 10
-72.590138
 20
-126.97453
 30
0.0
 11
-103.897178
 21
-99.662814
 31
0.0
  0
LINE
  5
157
100
AcDbEntity
  8
2
370
    50
100
AcDbLine
 10
-95.729556
 20
-150.113948
 30
0.0
 11
-122.892481
 21
-118.977466
 31
0.0
  0
ARC
  5
158
100
AcDbEntity
  8
2
370
    50
100
AcDbCircle
 10
-304.081959
 20
-139.332805
 30
0.0
 40
23.0
100
AcDbArc
 50
86.583962
 51
3.416038
  0
CIRCLE
  5
159
100
AcDbEntity
  8
2
370
    50
100
AcDbCircle
 10
-304.081959
 20
-139.332805
 30
0.0
 40
13.0
  0
LINE
  5
15A
100
AcDbEntity
  8
2
370
    50
100
AcDbLine
 10
-298.563806
 20
-126.466182
 30
0.0
 11
-291.215336
 21
-133.814651
 31
0.0
  0
POINT
  5
15B
100
AcDbEntity
  8
2
370
    50
100
AcDbPoint
 10
-304.081959
 20
-139.332805
 30
0.0
  0
LINE
  5
15C
100
AcDbEntity
  8
2
370
    50
100
AcDbLine
 10
-312.465705
 20
-128.120632
 30
0.0
 11
-302.427509
 21
-125.430906
 31
0.0
  0
LINE
  5
15D
100
AcDbEntity
  8
2
370
    50
100
AcDbLine
 10
-317.983858
 20
-140.987255
 30
0.0
 11
-315.294132
 21
-130.949059
 31
0.0
  0
LINE
  5
15E
100
AcDbEntity
  8
2
370
    50
100
AcDbLine
 10
-309.600113
 20
-152.199427
 30
0.0
 11
-316.948582
 21
-144.850958
 31
0.0
  0
LINE
  5
15F
100
AcDbEntity
  8
2
370
    50
100
AcDbLine
 10
-295.698214
 20
-150.544977
 30
0.0
 11
-305.736409
 21
-153.234704
 31
0.0
  0
LINE
  5
160
100
AcDbEntity
  8
2
370
    50
100
AcDbLine
 10
-290.18006
 20
-137.678354
 30
0.0
 11
-292.869787
 21
-147.71655
 31
0.0
  0
ARC
  5
161
100
AcDbEntity
  8
2
370
    50
100
AcDbCircle
 10
-304.081959
 20
-139.332805
 30
0.0
 40
14.0
100
AcDbArc
 50
66.786789
 51
83.213211
  0
ARC
  5
162
100
AcDbEntity
  8
2
370
    50
100
AcDbCircle
 10
-304.081959
 20
-139.332805
 30
0.0
 40
14.0
100
AcDbArc
 50
126.786789
 51
143.213211
  0
ARC
  5
163
100
AcDbEntity
  8
2
370
    50
100
AcDbCircle
 10
-304.081959
 20
-139.332805
 30
0.0
 40
14.0
100
AcDbArc
 50
186.786789
 51
203.213211
  0
ARC
  5
164
100
AcDbEntity
  8
2
370
    50
100
AcDbCircle
 10
-304.081959
 20
-139.332805
 30
0.0
 40
14.0
100
AcDbArc
 50
246.786789
 51
263.213211
  0
ARC
  5
165
100
AcDbEntity
  8
2
370
    50
100
AcDbCircle
 10
-304.081959
 20
-139.332805
 30
0.0
 40
14.0
100
AcDbArc
 50
306.786789
 51
323.213211
  0
ARC
  5
166
100
AcDbEntity
  8
2
370
    50
100
AcDbCircle
 10
-304.081959
 20
-139.332805
 30
0.0
 40
14.0
100
AcDbArc
 50
6.786789
 51
23.213211
  0
CIRCLE
  5
167
100
AcDbEntity
  8
2
370
    50
100
AcDbCircle
 10
-304.081959
 20
-139.332805
 30
0.0
 40
4.75
  0
CIRCLE
  5
168
100
AcDbEntity
  8
2
370
    50
100
AcDbCircle
 10
-304.081959
 20
-139.332805
 30
0.0
 40
6.0
  0
LINE
  5
169
100
AcDbEntity
  8
2
370
    50
100
AcDbLine
 10
-306.658334
 20
-143.323393
 30
0.0
 11
-300.091371
 21
-136.75643
 31
0.0
  0
LINE
  5
16A
100
AcDbEntity
  8
2
370
    50
100
AcDbLine
 10
-308.072547
 20
-141.909179
 30
0.0
 11
-301.505585
 21
-135.342217
 31
0.0
  0
ARC
  5
16B
100
AcDbEntity
  8
2
370
    50
100
AcDbCircle
 10
-304.081959
 20
-139.332805
 30
0.0
 40
4.25
100
AcDbArc
 50
238.608961
 51
31.391039
  0
ARC
  5
16C
100
AcDbEntity
  8
2
370
    50
100
AcDbCircle
 10
-304.081959
 20
-139.332805
 30
0.0
 40
4.25
100
AcDbArc
 50
58.608961
 51
211.391039
  0
ARC
  5
16D
100
AcDbEntity
  8
2
370
    50
100
AcDbCircle
 10
-304.081959
 20
-139.332805
 30
0.0
 40
16.4
100
AcDbArc
 50
131.100878
 51
318.899122
  0
LINE
  5
16E
100
AcDbEntity
  8
2
370
    50
100
AcDbLine
 10
-291.723685
 20
-150.113948
 30
0.0
 11
-264.56076
 21
-118.977466
 31
0.0
  0
LINE
  5
16F
100
AcDbEntity
  8
2
370
    50
100
AcDbLine
 10
-314.863103
 20
-126.97453
 30
0.0
 11
-283.556063
 21
-99.662814
 31
0.0
  0
LINE
  5
170
100
AcDbEntity
  8
2
370
    25
  6
CENTER
100
AcDbLine
 10
315.061318
 20
-158.843094
 30
0.0
 11
315.061318
 21
-87.738785
 31
0.0
  0
LINE
  5
171
100
AcDbEntity
  8
2
370
    50
100
AcDbLine
 10
364.061318
 20
-148.96506
 30
0.0
 11
364.061318
 21
-129.76506
 31
0.0
  0
LINE
  5
172
100
AcDbEntity
  8
2
370
    50
100
AcDbLine
 10
363.161318
 20
-128.86506
 30
0.0
 11
343.885646
 21
-128.86506
 31
0.0
  0
LINE
  5
173
100
AcDbEntity
  8
2
370
    50
100
AcDbLine
 10
363.161318
 20
-149.86506
 30
0.0
 11
343.885646
 21
-149.86506
 31
0.0
  0
LINE
  5
174
100
AcDbEntity
  8
2
370
    25
100
AcDbLine
 10
364.061318
 20
-129.76506
 30
0.0
 11
343.885646
 21
-129.76506
 31
0.0
  0
LINE
  5
175
100
AcDbEntity
  8
2
370
    25
100
AcDbLine
 10
364.061318
 20
-148.96506
 30
0.0
 11
343.885646
 21
-148.96506
 31
0.0
  0
LINE
  5
176
100
AcDbEntity
  8
2
370
    50
100
AcDbLine
 10
364.061318
 20
-148.96506
 30
0.0
 11
363.161318
 21
-149.86506
 31
0.0
  0
LINE
  5
177
100
AcDbEntity
  8
2
370
    50
100
AcDbLine
 10
364.061318
 20
-129.76506
 30
0.0
 11
363.161318
 21
-128.86506
 31
0.0
  0
LINE
  5
178
100
AcDbEntity
  8
2
370
    50
100
AcDbLine
 10
333.861318
 20
-127.96506
 30
0.0
 11
332.761318
 21
-127.96506
 31
0.0
  0
LINE
  5
179
100
AcDbEntity
  8
2
370
    50
100
AcDbLine
 10
332.761318
 20
-128.86506
 30
0.0
 11
332.561318
 21
-128.86506
 31
0.0
  0
LINE
  5
17A
100
AcDbEntity
  8
2
370
    50
100
AcDbLine
 10
332.761318
 20
-150.76506
 30
0.0
 11
332.761318
 21
-127.96506
 31
0.0
  0
LINE
  5
17B
100
AcDbEntity
  8
2
370
    50
100
AcDbLine
 10
333.861318
 20
-150.76506
 30
0.0
 11
332.761318
 21
-150.76506
 31
0.0
  0
LINE
  5
17C
100
AcDbEntity
  8
2
370
    50
100
AcDbLine
 10
332.761318
 20
-149.86506
 30
0.0
 11
332.561318
 21
-149.86506
 31
0.0
  0
LINE
  5
17D
100
AcDbEntity
  8
2
370
    50
100
AcDbLine
 10
328.561318
 20
-150.76506
 30
0.0
 11
331.361318
 21
-150.76506
 31
0.0
  0
LINE
  5
17E
100
AcDbEntity
  8
2
370
    50
100
AcDbLine
 10
328.561318
 20
-127.96506
 30
0.0
 11
331.361318
 21
-127.96506
 31
0.0
  0
LINE
  5
17F
100
AcDbEntity
  8
2
370
    50
100
AcDbLine
 10
343.861318
 20
-162.333466
 30
0.0
 11
340.502438
 21
-162.333466
 31
0.0
  0
LINE
  5
180
100
AcDbEntity
  8
2
370
    50
100
AcDbLine
 10
343.861318
 20
-116.333466
 30
0.0
 11
343.861318
 21
-139.333466
 31
0.0
  0
LINE
  5
181
100
AcDbEntity
  8
2
370
    50
100
AcDbLine
 10
343.861318
 20
-139.333466
 30
0.0
 11
343.861318
 21
-162.333466
 31
0.0
  0
ARC
  5
182
100
AcDbEntity
  8
2
370
    50
100
AcDbCircle
 10
335.861318
 20
-152.833466
 30
0.0
 40
2.0
100
AcDbArc
 50
180.0
 51
204.670512
  0
LINE
  5
183
100
AcDbEntity
  8
2
370
    50
100
AcDbLine
 10
339.593715
 20
-161.750865
 30
0.0
 11
334.043872
 21
-153.668265
 31
0.0
  0
ARC
  5
184
100
AcDbEntity
  8
2
370
    50
100
AcDbCircle
 10
335.861318
 20
-125.833466
 30
0.0
 40
2.0
100
AcDbArc
 50
155.329488
 51
180.0
  0
LINE
  5
185
100
AcDbEntity
  8
2
370
    50
100
AcDbLine
 10
339.593715
 20
-116.916066
 30
0.0
 11
334.043872
 21
-124.998667
 31
0.0
  0
ARC
  5
186
100
AcDbEntity
  8
2
370
    50
100
AcDbCircle
 10
340.502438
 20
-161.333466
 30
0.0
 40
1.0
100
AcDbArc
 50
204.670512
 51
270.0
  0
LINE
  5
187
100
AcDbEntity
  8
2
370
    50
100
AcDbLine
 10
331.361318
 20
-139.333466
 30
0.0
 11
331.361318
 21
-123.833466
 31
0.0
  0
LINE
  5
188
100
AcDbEntity
  8
2
370
    50
100
AcDbLine
 10
327.772795
 20
-155.583466
 30
0.0
 11
301.561318
 21
-155.583466
 31
0.0
  0
LINE
  5
189
100
AcDbEntity
  8
2
370
    25
  6
CENTER
100
AcDbLine
 10
280.82465
 20
-139.333466
 30
0.0
 11
365.94245
 21
-139.333466
 31
0.0
  0
LINE
  5
18A
100
AcDbEntity
  8
2
370
    50
100
AcDbLine
 10
332.561318
 20
-139.333466
 30
0.0
 11
332.561318
 21
-152.533466
 31
0.0
  0
LINE
  5
18B
100
AcDbEntity
  8
2
370
    50
100
AcDbLine
 10
332.561318
 20
-139.333466
 30
0.0
 11
332.561318
 21
-123.833466
 31
0.0
  0
LINE
  5
18C
100
AcDbEntity
  8
2
370
    50
100
AcDbLine
 10
332.561318
 20
-123.833466
 30
0.0
 11
331.361318
 21
-123.833466
 31
0.0
  0
LINE
  5
18D
100
AcDbEntity
  8
2
370
    50
100
AcDbLine
 10
332.561318
 20
-152.533466
 30
0.0
 11
331.361318
 21
-152.533466
 31
0.0
  0
LINE
  5
18E
100
AcDbEntity
  8
2
370
    50
100
AcDbLine
 10
331.361318
 20
-139.333466
 30
0.0
 11
331.361318
 21
-152.533466
 31
0.0
  0
LINE
  5
18F
100
AcDbEntity
  8
2
370
    50
100
AcDbLine
 10
301.561318
 20
-155.583466
 30
0.0
 11
301.561318
 21
-139.333466
 31
0.0
  0
LINE
  5
190
100
AcDbEntity
  8
2
370
    50
100
AcDbLine
 10
328.561318
 20
-124.083466
 30
0.0
 11
328.561318
 21
-139.333466
 31
0.0
  0
LINE
  5
191
100
AcDbEntity
  8
2
370
    50
100
AcDbLine
 10
328.561318
 20
-154.583466
 30
0.0
 11
328.561318
 21
-139.333466
 31
0.0
  0
LINE
  5
192
100
AcDbEntity
  8
2
370
    50
100
AcDbLine
 10
301.561318
 20
-118.477466
 30
0.0
 11
301.561318
 21
-139.333466
 31
0.0
  0
ARC
  5
193
100
AcDbEntity
  8
2
370
    50
100
AcDbCircle
 10
332.061318
 20
-158.15418
 30
0.0
 40
5.0
100
AcDbArc
 50
134.427004
 51
149.059821
  0
LINE
  5
194
100
AcDbEntity
  8
2
370
    50
100
AcDbLine
 10
340.502438
 20
-116.333466
 30
0.0
 11
343.861318
 21
-116.333466
 31
0.0
  0
LINE
  5
195
100
AcDbEntity
  8
2
370
    50
100
AcDbLine
 10
343.861318
 20
-116.333466
 30
0.0
 11
343.861318
 21
-128.833466
 31
0.0
  0
LINE
  5
196
100
AcDbEntity
  8
2
370
    50
100
AcDbLine
 10
339.593715
 20
-116.916066
 30
0.0
 11
334.043872
 21
-124.998667
 31
0.0
  0
ARC
  5
197
100
AcDbEntity
  8
2
370
    50
100
AcDbCircle
 10
340.502438
 20
-117.333466
 30
0.0
 40
1.0
100
AcDbArc
 50
90.0
 51
155.329488
  0
LINE
  5
198
100
AcDbEntity
  8
2
370
    50
100
AcDbLine
 10
301.561318
 20
-127.333466
 30
0.0
 11
298.727985
 21
-127.333466
 31
0.0
  0
LINE
  5
199
100
AcDbEntity
  8
2
370
    50
100
AcDbLine
 10
301.561318
 20
-151.333466
 30
0.0
 11
298.727985
 21
-151.333466
 31
0.0
  0
LINE
  5
19A
100
AcDbEntity
  8
2
370
    50
100
AcDbLine
 10
284.561318
 20
-134.583466
 30
0.0
 11
286.727985
 21
-134.583466
 31
0.0
  0
LINE
  5
19B
100
AcDbEntity
  8
2
370
    50
100
AcDbLine
 10
284.561318
 20
-144.083466
 30
0.0
 11
286.727985
 21
-144.083466
 31
0.0
  0
LINE
  5
19C
100
AcDbEntity
  8
2
370
    50
100
AcDbLine
 10
283.561318
 20
-143.083466
 30
0.0
 11
284.561318
 21
-144.083466
 31
0.0
  0
LINE
  5
19D
100
AcDbEntity
  8
2
370
    50
100
AcDbLine
 10
284.561318
 20
-134.583466
 30
0.0
 11
283.561318
 21
-135.583466
 31
0.0
  0
LINE
  5
19E
100
AcDbEntity
  8
2
370
    50
100
AcDbLine
 10
286.727985
 20
-145.333466
 30
0.0
 11
286.727985
 21
-144.083466
 31
0.0
  0
LINE
  5
19F
100
AcDbEntity
  8
2
370
    50
100
AcDbLine
 10
286.727985
 20
-144.083466
 30
0.0
 11
286.727985
 21
-133.333466
 31
0.0
  0
LINE
  5
1A0
100
AcDbEntity
  8
2
370
    50
100
AcDbLine
 10
298.727985
 20
-126.833466
 30
0.0
 11
298.727985
 21
-139.333466
 31
0.0
  0
LINE
  5
1A1
100
AcDbEntity
  8
2
370
    50
100
AcDbLine
 10
298.727985
 20
-151.833466
 30
0.0
 11
298.727985
 21
-139.333466
 31
0.0
  0
LINE
  5
1A2
100
AcDbEntity
  8
2
370
    50
100
AcDbLine
 10
291.727985
 20
-126.833466
 30
0.0
 11
286.727985
 21
-133.333466
 31
0.0
  0
LINE
  5
1A3
100
AcDbEntity
  8
2
370
    50
100
AcDbLine
 10
286.727985
 20
-145.333466
 30
0.0
 11
291.727985
 21
-151.833466
 31
0.0
  0
ARC
  5
1A4
100
AcDbEntity
  8
2
370
    50
100
AcDbCircle
 10
295.227985
 20
-130.166799
 30
0.0
 40
4.833333
100
AcDbArc
 50
43.602819
 51
136.397181
  0
ARC
  5
1A5
100
AcDbEntity
  8
2
370
    50
100
AcDbCircle
 10
295.227985
 20
-148.500132
 30
0.0
 40
4.833333
100
AcDbArc
 50
223.602819
 51
316.397181
  0
LINE
  5
1A6
100
AcDbEntity
  8
2
370
    50
100
AcDbLine
 10
300.061318
 20
-150.683466
 30
0.0
 11
301.187151
 21
-151.333466
 31
0.0
  0
LINE
  5
1A7
100
AcDbEntity
  8
2
370
    50
100
AcDbLine
 10
300.061318
 20
-127.983466
 30
0.0
 11
301.187151
 21
-127.333466
 31
0.0
  0
LINE
  5
1A8
100
AcDbEntity
  8
2
370
    50
100
AcDbLine
 10
301.561318
 20
-134.583466
 30
0.0
 11
301.561318
 21
-131.083466
 31
0.0
  0
LINE
  5
1A9
100
AcDbEntity
  8
2
370
    50
100
AcDbLine
 10
301.561318
 20
-147.583466
 30
0.0
 11
301.561318
 21
-144.083466
 31
0.0
  0
LINE
  5
1AA
100
AcDbEntity
  8
2
370
    25
100
AcDbLine
 10
340.502438
 20
-117.133466
 30
0.0
 11
340.502438
 21
-139.333466
 31
0.0
  0
LINE
  5
1AB
100
AcDbEntity
  8
2
370
    25
100
AcDbLine
 10
340.502438
 20
-161.533466
 30
0.0
 11
340.502438
 21
-139.333466
 31
0.0
  0
LINE
  5
1AC
100
AcDbEntity
  8
2
370
    25
100
AcDbLine
 10
290.311318
 20
-91.877466
 30
0.0
 11
290.011318
 21
-91.877466
 31
0.0
  0
LINE
  5
1AD
100
AcDbEntity
  8
2
370
    25
100
AcDbLine
 10
290.311318
 20
-116.077466
 30
0.0
 11
290.011318
 21
-116.077466
 31
0.0
  0
LINE
  5
1AE
100
AcDbEntity
  8
2
370
    50
100
AcDbLine
 10
300.061318
 20
-116.977466
 30
0.0
 11
290.011318
 21
-116.977466
 31
0.0
  0
LINE
  5
1AF
100
AcDbEntity
  8
2
370
    50
100
AcDbLine
 10
290.311318
 20
-91.877466
 30
0.0
 11
291.870164
 21
-90.977466
 31
0.0
  0
LINE
  5
1B0
100
AcDbEntity
  8
2
370
    50
100
AcDbLine
 10
290.311318
 20
-116.077466
 30
0.0
 11
291.870164
 21
-116.977466
 31
0.0
  0
LINE
  5
1B1
100
AcDbEntity
  8
2
370
    50
100
AcDbLine
 10
321.311318
 20
-90.977466
 30
0.0
 11
321.311318
 21
-121.433466
 31
0.0
  0
LINE
  5
1B2
100
AcDbEntity
  8
2
370
    50
100
AcDbLine
 10
290.011318
 20
-90.977466
 30
0.0
 11
321.311318
 21
-90.977466
 31
0.0
  0
ARC
  5
1B3
100
AcDbEntity
  8
2
370
    50
100
AcDbCircle
 10
332.061318
 20
-120.362751
 30
0.0
 40
5.0
100
AcDbArc
 50
210.940179
 51
225.572996
  0
LINE
  5
1B4
100
AcDbEntity
  8
2
370
    50
100
AcDbLine
 10
327.772795
 20
-122.933466
 30
0.0
 11
322.811318
 21
-122.933466
 31
0.0
  0
ARC
  5
1B5
100
AcDbEntity
  8
2
370
    50
100
AcDbCircle
 10
300.061318
 20
-118.477466
 30
0.0
 40
1.5
100
AcDbArc
 50
360.0
 51
90.0
  0
ARC
  5
1B6
100
AcDbEntity
  8
2
370
    50
100
AcDbCircle
 10
322.811318
 20
-121.433466
 30
0.0
 40
1.5
100
AcDbArc
 50
180.0
 51
270.0
  0
LINE
  5
1B7
100
AcDbEntity
  8
2
370
    50
100
AcDbLine
 10
300.061318
 20
-127.983466
 30
0.0
 11
298.727985
 21
-127.983466
 31
0.0
  0
LINE
  5
1B8
100
AcDbEntity
  8
2
370
    50
100
AcDbLine
 10
300.061318
 20
-150.683466
 30
0.0
 11
298.727985
 21
-150.683466
 31
0.0
  0
LINE
  5
1B9
100
AcDbEntity
  8
2
370
    50
100
AcDbLine
 10
283.561318
 20
-135.583466
 30
0.0
 11
283.561318
 21
-139.333466
 31
0.0
  0
LINE
  5
1BA
100
AcDbEntity
  8
2
370
    50
100
AcDbLine
 10
283.561318
 20
-139.333466
 30
0.0
 11
283.561318
 21
-143.083466
 31
0.0
  0
LINE
  5
1BB
100
AcDbEntity
  8
2
370
    50
100
AcDbLine
 10
333.861318
 20
-125.833466
 30
0.0
 11
333.861318
 21
-152.833466
 31
0.0
  0
LINE
  5
1BC
100
AcDbEntity
  8
2
370
    25
100
AcDbLine
 10
327.772795
 20
-122.933466
 30
0.0
 11
327.772795
 21
-155.583466
 31
0.0
  0
LINE
  5
1BD
100
AcDbEntity
  8
2
370
    50
100
AcDbLine
 10
291.870164
 20
-90.977466
 30
0.0
 11
291.870164
 21
-116.977466
 31
0.0
  0
LINE
  5
1BE
100
AcDbEntity
  8
2
370
    50
100
AcDbLine
 10
290.311318
 20
-91.877466
 30
0.0
 11
290.311318
 21
-116.077466
 31
0.0
  0
ELLIPSE
  5
1BF
100
AcDbEntity
  8
2
370
    50
100
AcDbEllipse
 10
294.95886
 20
-150.488546
 30
0.0
 11
2.9249960000000002
 21
0.0
 31
0.0
210
0.0
220
0.0
230
1.0
 40
0.866027
 41
0.0
 42
6.2831849999999996
  0
ELLIPSE
  5
1C0
100
AcDbEntity
  8
2
370
    50
100
AcDbEllipse
 10
294.95886
 20
-128.534752
 30
0.0
 11
-2.9249960000000002
 21
0.0
 31
0.0
210
0.0
220
0.0
230
1.0
 40
0.866027
 41
0.0
 42
6.2831849999999996
  0
ELLIPSE
  5
1C1
100
AcDbEntity
  8
2
370
    50
100
AcDbEllipse
 10
294.95886
 20
-139.511649
 30
0.0
 11
0.0
 21
5.0660999999999996
 31
0.0
210
0.0
220
0.0
230
1.0
 40
0.577366
 41
0.0
 42
6.2831849999999996
  0
LINE
  5
1C2
100
AcDbEntity
  8
2
370
    50
100
AcDbLine
 10
291.727985
 20
-126.833466
 30
0.0
 11
291.727985
 21
-151.833466
 31
0.0
  0
LINE
  5
1C3
100
AcDbEntity
  8
2
370
    25
100
AcDbLine
 10
284.561318
 20
-134.583466
 30
0.0
 11
284.561318
 21
-144.083466
 31
0.0
  0
LINE
  5
1C4
100
AcDbEntity
  8
2
370
    50
100
AcDbLine
 10
300.061318
 20
-127.333466
 30
0.0
 11
300.061318
 21
-151.333466
 31
0.0
  0
LINE
  5
1C5
100
AcDbEntity
  8
2
370
    50
100
AcDbLine
 10
301.187151
 20
-127.333466
 30
0.0
 11
301.187151
 21
-151.333466
 31
0.0
  0
LINE
  5
1C6
100
AcDbEntity
  8
2
370
    50
100
AcDbLine
 10
363.161318
 20
-128.86506
 30
0.0
 11
363.161318
 21
-149.86506
 31
0.0
  0
LINE
  5
1C7
100
AcDbEntity
  8
2
370
    50
100
AcDbLine
 10
-277.386874
 20
-88.977466
 30
0.0
 11
-260.066366
 21
-88.977466
 31
0.0
  0
POINT
  5
1C8
100
AcDbEntity
  8
2
370
    50
100
AcDbPoint
 10
-268.72662
 20
-103.977466
 30
0.0
  0
LINE
  5
1C9
100
AcDbEntity
  8
2
370
    50
100
AcDbLine
 10
-286.047128
 20
-103.977466
 30
0.0
 11
-277.386874
 21
-88.977466
 31
0.0
  0
LINE
  5
1CA
100
AcDbEntity
  8
2
370
    50
100
AcDbLine
 10
-277.386874
 20
-118.977466
 30
0.0
 11
-286.047128
 21
-103.977466
 31
0.0
  0
LINE
  5
1CB
100
AcDbEntity
  8
2
370
    50
100
AcDbLine
 10
-260.066366
 20
-118.977466
 30
0.0
 11
-277.386874
 21
-118.977466
 31
0.0
  0
LINE
  5
1CC
100
AcDbEntity
  8
2
370
    50
100
AcDbLine
 10
-259.836499
 20
-118.579325
 30
0.0
 11
-260.066366
 21
-118.977466
 31
0.0
  0
LINE
  5
1CD
100
AcDbEntity
  8
2
370
    50
100
AcDbLine
 10
-260.066366
 20
-88.977466
 30
0.0
 11
-259.489016
 21
-89.977466
 31
0.0
  0
LINE
  5
1CE
100
AcDbEntity
  8
2
370
    50
100
AcDbLine
 10
-127.386874
 20
-88.977466
 30
0.0
 11
-110.066366
 21
-88.977466
 31
0.0
  0
LINE
  5
1CF
100
AcDbEntity
  8
2
370
    50
100
AcDbLine
 10
-127.964225
 20
-89.977466
 30
0.0
 11
-127.386874
 21
-88.977466
 31
0.0
  0
LINE
  5
1D0
100
AcDbEntity
  8
2
370
    50
100
AcDbLine
 10
-127.386874
 20
-118.977466
 30
0.0
 11
-127.616741
 21
-118.579325
 31
0.0
  0
LINE
  5
1D1
100
AcDbEntity
  8
2
370
    50
100
AcDbLine
 10
-110.066366
 20
-118.977466
 30
0.0
 11
-127.386874
 21
-118.977466
 31
0.0
  0
LINE
  5
1D2
100
AcDbEntity
  8
2
370
    50
100
AcDbLine
 10
-101.406112
 20
-103.977466
 30
0.0
 11
-110.066366
 21
-118.977466
 31
0.0
  0
LINE
  5
1D3
100
AcDbEntity
  8
2
370
    50
100
AcDbLine
 10
-110.066366
 20
-88.977466
 30
0.0
 11
-101.406112
 21
-103.977466
 31
0.0
  0
POINT
  5
1D4
100
AcDbEntity
  8
2
370
    50
100
AcDbPoint
 10
-118.72662
 20
-103.977466
 30
0.0
  0
ARC
  5
1D5
100
AcDbEntity
  8
2
370
    25
100
AcDbCircle
 10
-268.72662
 20
-103.977466
 30
0.0
 40
15.0
100
AcDbArc
 50
68.96053
 51
289.01824
  0
ARC
  5
1D6
100
AcDbEntity
  8
2
370
    25
100
AcDbCircle
 10
-118.72662
 20
-103.977466
 30
0.0
 40
15.0
100
AcDbArc
 50
250.98176
 51
111.03947
  0
POINT
  5
1D7
100
AcDbEntity
  8
2
370
    50
100
AcDbPoint
 10
-286.40429
 20
-121.655135
 30
0.0
  0
POINT
  5
1D8
100
AcDbEntity
  8
2
370
    50
100
AcDbPoint
 10
-101.048951
 20
-121.655135
 30
0.0
  0
POINT
  5
1D9
100
AcDbEntity
  8
2
370
    50
100
AcDbPoint
 10
-101.048951
 20
-121.655135
 30
0.0
  0
POINT
  5
1DA
100
AcDbEntity
  8
2
370
    50
100
AcDbPoint
 10
-286.40429
 20
-121.655135
 30
0.0
  0
LINE
  5
1DB
100
AcDbEntity
  8
2
370
    50
100
AcDbLine
 10
31.011318
 20
-100.477466
 30
0.0
 11
31.011318
 21
-100.977466
 31
0.0
  0
LINE
  5
1DC
100
AcDbEntity
  8
2
370
    50
100
AcDbLine
 10
-73.47662
 20
158.35117
 30
0.0
 11
-73.47662
 21
160.517837
 31
0.0
  0
LINE
  5
1DD
100
AcDbEntity
  8
2
370
    50
100
AcDbLine
 10
-63.97662
 20
158.35117
 30
0.0
 11
-63.97662
 21
160.517837
 31
0.0
  0
LINE
  5
1DE
100
AcDbEntity
  8
2
370
    50
100
AcDbLine
 10
-80.72662
 20
173.85117
 30
0.0
 11
-56.72662
 21
173.85117
 31
0.0
  0
LINE
  5
1DF
100
AcDbEntity
  8
2
370
    50
100
AcDbLine
 10
-56.72662
 20
174.977003
 30
0.0
 11
-80.72662
 21
174.977003
 31
0.0
  0
LINE
  5
1E0
100
AcDbEntity
  8
2
370
    50
100
AcDbLine
 10
-58.195025
 20
217.65117
 30
0.0
 11
-58.195025
 21
236.95117
 31
0.0
  0
LINE
  5
1E1
100
AcDbEntity
  8
2
370
    50
100
AcDbLine
 10
-79.195025
 20
217.65117
 30
0.0
 11
-79.195025
 21
236.95117
 31
0.0
  0
LINE
  5
1E2
100
AcDbEntity
  8
2
370
    25
100
AcDbLine
 10
-78.295025
 20
217.65117
 30
0.0
 11
-78.295025
 21
237.85117
 31
0.0
  0
LINE
  5
1E3
100
AcDbEntity
  8
2
370
    25
100
AcDbLine
 10
-59.095025
 20
217.65117
 30
0.0
 11
-59.095025
 21
237.85117
 31
0.0
  0
LINE
  5
1E4
100
AcDbEntity
  8
2
370
    50
100
AcDbLine
 10
-82.22662
 20
207.65117
 30
0.0
 11
-55.22662
 21
207.65117
 31
0.0
  0
LINE
  5
1E5
100
AcDbEntity
  8
2
370
    50
100
AcDbLine
 10
-251.406112
 20
150.140916
 30
0.0
 11
-251.406112
 21
162.461424
 31
0.0
  0
LINE
  5
1E6
100
AcDbEntity
  8
2
370
    50
100
AcDbLine
 10
-286.047128
 20
150.140916
 30
0.0
 11
-286.047128
 21
162.461424
 31
0.0
  0
LINE
  5
1E7
100
AcDbEntity
  8
2
370
    50
100
AcDbLine
 10
-253.72662
 20
148.80117
 30
0.0
 11
-251.406112
 21
150.140916
 31
0.0
  0
LINE
  5
1E8
100
AcDbEntity
  8
2
370
    50
100
AcDbLine
 10
-283.72662
 20
148.80117
 30
0.0
 11
-286.047128
 21
150.140916
 31
0.0
  0
LINE
  5
1E9
100
AcDbEntity
  8
2
370
    50
100
AcDbLine
 10
-283.72662
 20
163.80117
 30
0.0
 11
-286.047128
 21
162.461424
 31
0.0
  0
LINE
  5
1EA
100
AcDbEntity
  8
2
370
    50
100
AcDbLine
 10
-253.72662
 20
163.80117
 30
0.0
 11
-251.406112
 21
162.461424
 31
0.0
  0
LINE
  5
1EB
100
AcDbEntity
  8
2
370
    25
  6
CENTER
100
AcDbLine
 10
-318.72662
 20
154.590174
 30
0.0
 11
-318.72662
 21
241.492965
 31
0.0
  0
LINE
  5
1EC
100
AcDbEntity
  8
2
370
    25
  6
CENTER
100
AcDbLine
 10
-338.692013
 20
188.85117
 30
0.0
 11
-251.396874
 21
188.85117
 31
0.0
  0
LINE
  5
1ED
100
AcDbEntity
  8
2
370
    25
  6
CENTER
100
AcDbLine
 10
-268.72662
 20
127.291122
 30
0.0
 11
-268.72662
 21
200.343721
 31
0.0
  0
LINE
  5
1EE
100
AcDbEntity
  8
2
370
    50
100
AcDbLine
 10
-328.358215
 20
237.85117
 30
0.0
 11
-309.158215
 21
237.85117
 31
0.0
  0
LINE
  5
1EF
100
AcDbEntity
  8
2
370
    50
100
AcDbLine
 10
-328.358215
 20
237.85117
 30
0.0
 11
-329.258215
 21
236.95117
 31
0.0
  0
LINE
  5
1F0
100
AcDbEntity
  8
2
370
    50
100
AcDbLine
 10
-309.158215
 20
237.85117
 30
0.0
 11
-308.258215
 21
236.95117
 31
0.0
  0
LINE
  5
1F1
100
AcDbEntity
  8
2
370
    50
100
AcDbLine
 10
-341.72662
 20
217.65117
 30
0.0
 11
-341.72662
 21
214.29229
 31
0.0
  0
LINE
  5
1F2
100
AcDbEntity
  8
2
370
    50
100
AcDbLine
 10
-295.72662
 20
217.65117
 30
0.0
 11
-341.72662
 21
217.65117
 31
0.0
  0
ARC
  5
1F3
100
AcDbEntity
  8
2
370
    50
100
AcDbCircle
 10
-332.22662
 20
209.65117
 30
0.0
 40
2.0
100
AcDbArc
 50
245.329488
 51
270.0
  0
LINE
  5
1F4
100
AcDbEntity
  8
2
370
    50
100
AcDbLine
 10
-341.14402
 20
213.383567
 30
0.0
 11
-333.061419
 21
207.833724
 31
0.0
  0
ARC
  5
1F5
100
AcDbEntity
  8
2
370
    50
100
AcDbCircle
 10
-305.22662
 20
209.65117
 30
0.0
 40
2.0
100
AcDbArc
 50
270.0
 51
294.670512
  0
LINE
  5
1F6
100
AcDbEntity
  8
2
370
    50
100
AcDbLine
 10
-296.309221
 20
213.383567
 30
0.0
 11
-304.391821
 21
207.833724
 31
0.0
  0
ARC
  5
1F7
100
AcDbEntity
  8
2
370
    50
100
AcDbCircle
 10
-340.72662
 20
214.29229
 30
0.0
 40
1.0
100
AcDbArc
 50
180.0
 51
245.329488
  0
LINE
  5
1F8
100
AcDbEntity
  8
2
370
    50
100
AcDbLine
 10
-334.97662
 20
201.562647
 30
0.0
 11
-334.97662
 21
175.35117
 31
0.0
  0
LINE
  5
1F9
100
AcDbEntity
  8
2
370
    25
  6
CENTER
100
AcDbLine
 10
-318.72662
 20
154.590174
 30
0.0
 11
-318.72662
 21
241.492965
 31
0.0
  0
LINE
  5
1FA
100
AcDbEntity
  8
2
370
    50
100
AcDbLine
 10
-283.22662
 20
175.35117
 30
0.0
 11
-334.97662
 21
175.35117
 31
0.0
  0
ARC
  5
1FB
100
AcDbEntity
  8
2
370
    50
100
AcDbCircle
 10
-337.547334
 20
205.85117
 30
0.0
 40
5.0
100
AcDbArc
 50
300.940179
 51
315.572996
  0
LINE
  5
1FC
100
AcDbEntity
  8
2
370
    50
100
AcDbLine
 10
-295.72662
 20
214.29229
 30
0.0
 11
-295.72662
 21
217.65117
 31
0.0
  0
LINE
  5
1FD
100
AcDbEntity
  8
2
370
    50
100
AcDbLine
 10
-295.72662
 20
217.65117
 30
0.0
 11
-308.22662
 21
217.65117
 31
0.0
  0
LINE
  5
1FE
100
AcDbEntity
  8
2
370
    50
100
AcDbLine
 10
-296.309221
 20
213.383567
 30
0.0
 11
-304.391821
 21
207.833724
 31
0.0
  0
ARC
  5
1FF
100
AcDbEntity
  8
2
370
    50
100
AcDbCircle
 10
-296.72662
 20
214.29229
 30
0.0
 40
1.0
100
AcDbArc
 50
294.670512
 51
0.0
  0
LINE
  5
200
100
AcDbEntity
  8
2
370
    50
100
AcDbLine
 10
-306.72662
 20
175.35117
 30
0.0
 11
-306.72662
 21
172.517837
 31
0.0
  0
LINE
  5
201
100
AcDbEntity
  8
2
370
    50
100
AcDbLine
 10
-330.72662
 20
175.35117
 30
0.0
 11
-330.72662
 21
172.517837
 31
0.0
  0
LINE
  5
202
100
AcDbEntity
  8
2
370
    50
100
AcDbLine
 10
-330.07662
 20
173.85117
 30
0.0
 11
-330.07662
 21
172.517837
 31
0.0
  0
LINE
  5
203
100
AcDbEntity
  8
2
370
    50
100
AcDbLine
 10
-307.37662
 20
173.85117
 30
0.0
 11
-307.37662
 21
172.517837
 31
0.0
  0
LINE
  5
204
100
AcDbEntity
  8
2
370
    50
100
AcDbLine
 10
-314.97662
 20
157.35117
 30
0.0
 11
-322.47662
 21
157.35117
 31
0.0
  0
LINE
  5
205
100
AcDbEntity
  8
2
370
    50
100
AcDbLine
 10
-322.47662
 20
157.35117
 30
0.0
 11
-323.47662
 21
158.35117
 31
0.0
  0
LINE
  5
206
100
AcDbEntity
  8
2
370
    50
100
AcDbLine
 10
-313.97662
 20
158.35117
 30
0.0
 11
-314.97662
 21
157.35117
 31
0.0
  0
LINE
  5
207
100
AcDbEntity
  8
2
370
    50
100
AcDbLine
 10
-324.72662
 20
160.517837
 30
0.0
 11
-312.72662
 21
160.517837
 31
0.0
  0
LINE
  5
208
100
AcDbEntity
  8
2
370
    50
100
AcDbLine
 10
-313.97662
 20
159.35117
 30
0.0
 11
-323.47662
 21
159.35117
 31
0.0
  0
LINE
  5
209
100
AcDbEntity
  8
2
370
    50
100
AcDbLine
 10
-330.07662
 20
173.85117
 30
0.0
 11
-330.72662
 21
174.977003
 31
0.0
  0
LINE
  5
20A
100
AcDbEntity
  8
2
370
    50
100
AcDbLine
 10
-307.37662
 20
173.85117
 30
0.0
 11
-306.72662
 21
174.977003
 31
0.0
  0
LINE
  5
20B
100
AcDbEntity
  8
2
370
    25
100
AcDbLine
 10
-256.62662
 20
164.10117
 30
0.0
 11
-256.62662
 21
163.80117
 31
0.0
  0
LINE
  5
20C
100
AcDbEntity
  8
2
370
    25
100
AcDbLine
 10
-280.82662
 20
164.10117
 30
0.0
 11
-280.82662
 21
163.80117
 31
0.0
  0
LINE
  5
20D
100
AcDbEntity
  8
2
370
    50
100
AcDbLine
 10
-281.72662
 20
173.85117
 30
0.0
 11
-281.72662
 21
163.80117
 31
0.0
  0
LINE
  5
20E
100
AcDbEntity
  8
2
370
    50
100
AcDbLine
 10
-256.62662
 20
164.10117
 30
0.0
 11
-255.72662
 21
165.660016
 31
0.0
  0
LINE
  5
20F
100
AcDbEntity
  8
2
370
    50
100
AcDbLine
 10
-280.82662
 20
164.10117
 30
0.0
 11
-281.72662
 21
165.660016
 31
0.0
  0
LINE
  5
210
100
AcDbEntity
  8
2
370
    50
100
AcDbLine
 10
-255.72662
 20
195.10117
 30
0.0
 11
-300.82662
 21
195.10117
 31
0.0
  0
LINE
  5
211
100
AcDbEntity
  8
2
370
    50
100
AcDbLine
 10
-255.72662
 20
163.80117
 30
0.0
 11
-255.72662
 21
195.10117
 31
0.0
  0
ARC
  5
212
100
AcDbEntity
  8
2
370
    50
100
AcDbCircle
 10
-299.755906
 20
205.85117
 30
0.0
 40
5.0
100
AcDbArc
 50
224.427004
 51
239.059821
  0
LINE
  5
213
100
AcDbEntity
  8
2
370
    50
100
AcDbLine
 10
-302.32662
 20
201.562647
 30
0.0
 11
-302.32662
 21
196.60117
 31
0.0
  0
ARC
  5
214
100
AcDbEntity
  8
2
370
    50
100
AcDbCircle
 10
-283.22662
 20
173.85117
 30
0.0
 40
1.5
100
AcDbArc
 50
0.0
 51
90.0
  0
ARC
  5
215
100
AcDbEntity
  8
2
370
    50
100
AcDbCircle
 10
-300.82662
 20
196.60117
 30
0.0
 40
1.5
100
AcDbArc
 50
180.0
 51
270.0
  0
LINE
  5
216
100
AcDbEntity
  8
2
370
    50
100
AcDbLine
 10
-283.72662
 20
163.80117
 30
0.0
 11
-253.72662
 21
163.80117
 31
0.0
  0
LINE
  5
217
100
AcDbEntity
  8
2
370
    50
100
AcDbLine
 10
-281.72662
 20
163.80117
 30
0.0
 11
-283.72662
 21
163.80117
 31
0.0
  0
LINE
  5
218
100
AcDbEntity
  8
2
370
    50
100
AcDbLine
 10
-313.97662
 20
158.35117
 30
0.0
 11
-313.97662
 21
160.517837
 31
0.0
  0
LINE
  5
219
100
AcDbEntity
  8
2
370
    50
100
AcDbLine
 10
-323.47662
 20
158.35117
 30
0.0
 11
-323.47662
 21
160.517837
 31
0.0
  0
LINE
  5
21A
100
AcDbEntity
  8
2
370
    50
100
AcDbLine
 10
-306.72662
 20
173.85117
 30
0.0
 11
-330.72662
 21
173.85117
 31
0.0
  0
LINE
  5
21B
100
AcDbEntity
  8
2
370
    50
100
AcDbLine
 10
-330.72662
 20
174.977003
 30
0.0
 11
-306.72662
 21
174.977003
 31
0.0
  0
LINE
  5
21C
100
AcDbEntity
  8
2
370
    50
100
AcDbLine
 10
-329.258215
 20
217.65117
 30
0.0
 11
-329.258215
 21
236.95117
 31
0.0
  0
LINE
  5
21D
100
AcDbEntity
  8
2
370
    50
100
AcDbLine
 10
-308.258215
 20
217.65117
 30
0.0
 11
-308.258215
 21
236.95117
 31
0.0
  0
LINE
  5
21E
100
AcDbEntity
  8
2
370
    25
100
AcDbLine
 10
-309.158215
 20
217.65117
 30
0.0
 11
-309.158215
 21
237.85117
 31
0.0
  0
LINE
  5
21F
100
AcDbEntity
  8
2
370
    25
100
AcDbLine
 10
-328.358215
 20
217.65117
 30
0.0
 11
-328.358215
 21
237.85117
 31
0.0
  0
LINE
  5
220
100
AcDbEntity
  8
2
370
    50
100
AcDbLine
 10
-305.22662
 20
207.65117
 30
0.0
 11
-332.22662
 21
207.65117
 31
0.0
  0
LINE
  5
221
100
AcDbEntity
  8
2
370
    50
100
AcDbLine
 10
-133.72662
 20
148.80117
 30
0.0
 11
-103.72662
 21
148.80117
 31
0.0
  0
LINE
  5
222
100
AcDbEntity
  8
2
370
    25
100
AcDbLine
 10
-105.72662
 20
164.10117
 30
0.0
 11
-131.72662
 21
164.10117
 31
0.0
  0
LINE
  5
223
100
AcDbEntity
  8
2
370
    25
100
AcDbLine
 10
-105.72662
 20
165.660016
 30
0.0
 11
-131.72662
 21
165.660016
 31
0.0
  0
LINE
  5
224
100
AcDbEntity
  8
2
370
    50
100
AcDbLine
 10
-127.386874
 20
162.461424
 30
0.0
 11
-127.386874
 21
150.140916
 31
0.0
  0
LINE
  5
225
100
AcDbEntity
  8
2
370
    50
100
AcDbLine
 10
-110.066366
 20
162.461424
 30
0.0
 11
-110.066366
 21
150.140916
 31
0.0
  0
LINE
  5
226
100
AcDbEntity
  8
2
370
    50
100
AcDbLine
 10
-62.72662
 20
160.517837
 30
0.0
 11
-74.72662
 21
160.517837
 31
0.0
  0
LINE
  5
227
100
AcDbEntity
  8
2
370
    50
100
AcDbLine
 10
-56.22662
 20
172.517837
 30
0.0
 11
-81.22662
 21
172.517837
 31
0.0
  0
ARC
  5
228
100
AcDbEntity
  8
2
370
    50
100
AcDbCircle
 10
-77.72662
 20
168.947123
 30
0.0
 40
5.0
100
AcDbArc
 50
134.427004
 51
233.565837
  0
LINE
  5
229
100
AcDbEntity
  8
2
370
    50
100
AcDbLine
 10
-80.696114
 20
164.924424
 30
0.0
 11
-74.72662
 21
160.517837
 31
0.0
  0
LINE
  5
22A
100
AcDbEntity
  8
2
370
    25
100
AcDbLine
 10
-68.72662
 20
165.517837
 30
0.0
 11
-80.567545
 21
165.517837
 31
0.0
  0
ELLIPSE
  5
22B
100
AcDbEntity
  8
2
370
    50
100
AcDbEllipse
 10
-79.98495
 20
169.017837
 30
0.0
 11
0.0
 21
-3.0707140000000002
 31
0.0
210
0.0
220
0.0
230
1.0
 40
0.846082
 41
0.0
 42
6.2831849999999996
  0
ELLIPSE
  5
22C
100
AcDbEntity
  8
2
370
    50
100
AcDbEllipse
 10
-68.72662
 20
169.017837
 30
0.0
 11
-5.1961519999999997
 21
0.0
 31
0.0
210
0.0
220
0.0
230
1.0
 40
0.563741
 41
4.7123889999999999
 42
1.5707960000000001
  0
ARC
  5
22D
100
AcDbEntity
  8
2
370
    50
100
AcDbCircle
 10
-59.72662
 20
168.947123
 30
0.0
 40
5.0
100
AcDbArc
 50
306.434163
 51
45.572996
  0
LINE
  5
22E
100
AcDbEntity
  8
2
370
    50
100
AcDbLine
 10
-56.757127
 20
164.924424
 30
0.0
 11
-62.72662
 21
160.517837
 31
0.0
  0
ELLIPSE
  5
22F
100
AcDbEntity
  8
2
370
    50
100
AcDbEllipse
 10
-57.46829
 20
169.017837
 30
0.0
 11
0.0
 21
3.0707140000000002
 31
0.0
210
0.0
220
0.0
230
1.0
 40
0.846082
 41
0.0
 42
6.2831849999999996
  0
ELLIPSE
  5
230
100
AcDbEntity
  8
2
370
    50
100
AcDbEllipse
 10
-68.72662
 20
169.017837
 30
0.0
 11
5.1961519999999997
 21
0.0
 31
0.0
210
0.0
220
0.0
230
1.0
 40
0.563741
 41
4.7123889999999999
 42
1.5707960000000001
  0
LINE
  5
231
100
AcDbEntity
  8
2
370
    25
100
AcDbLine
 10
-68.72662
 20
165.517837
 30
0.0
 11
-56.885695
 21
165.517837
 31
0.0
  0
LINE
  5
232
100
AcDbEntity
  8
2
370
    50
100
AcDbLine
 10
-253.72662
 20
148.80117
 30
0.0
 11
-283.72662
 21
148.80117
 31
0.0
  0
LINE
  5
233
100
AcDbEntity
  8
2
370
    25
100
AcDbLine
 10
-281.72662
 20
164.10117
 30
0.0
 11
-255.72662
 21
164.10117
 31
0.0
  0
LINE
  5
234
100
AcDbEntity
  8
2
370
    25
100
AcDbLine
 10
-281.72662
 20
165.660016
 30
0.0
 11
-255.72662
 21
165.660016
 31
0.0
  0
LINE
  5
235
100
AcDbEntity
  8
2
370
    50
100
AcDbLine
 10
-260.066366
 20
162.461424
 30
0.0
 11
-260.066366
 21
150.140916
 31
0.0
  0
LINE
  5
236
100
AcDbEntity
  8
2
370
    50
100
AcDbLine
 10
-277.386874
 20
162.461424
 30
0.0
 11
-277.386874
 21
150.140916
 31
0.0
  0
LINE
  5
237
100
AcDbEntity
  8
2
370
    50
100
AcDbLine
 10
-324.72662
 20
160.517837
 30
0.0
 11
-312.72662
 21
160.517837
 31
0.0
  0
LINE
  5
238
100
AcDbEntity
  8
2
370
    50
100
AcDbLine
 10
-331.22662
 20
172.517837
 30
0.0
 11
-306.22662
 21
172.517837
 31
0.0
  0
ARC
  5
239
100
AcDbEntity
  8
2
370
    50
100
AcDbCircle
 10
-309.72662
 20
168.947123
 30
0.0
 40
5.0
100
AcDbArc
 50
306.434163
 51
45.572996
  0
LINE
  5
23A
100
AcDbEntity
  8
2
370
    50
100
AcDbLine
 10
-306.757127
 20
164.924424
 30
0.0
 11
-312.72662
 21
160.517837
 31
0.0
  0
LINE
  5
23B
100
AcDbEntity
  8
2
370
    25
100
AcDbLine
 10
-318.72662
 20
165.517837
 30
0.0
 11
-306.885695
 21
165.517837
 31
0.0
  0
ELLIPSE
  5
23C
100
AcDbEntity
  8
2
370
    50
100
AcDbEllipse
 10
-307.46829
 20
169.017837
 30
0.0
 11
0.0
 21
3.0707140000000002
 31
0.0
210
0.0
220
0.0
230
1.0
 40
0.846082
 41
0.0
 42
6.2831849999999996
  0
ELLIPSE
  5
23D
100
AcDbEntity
  8
2
370
    50
100
AcDbEllipse
 10
-318.72662
 20
169.017837
 30
0.0
 11
5.1961519999999997
 21
0.0
 31
0.0
210
0.0
220
0.0
230
1.0
 40
0.563741
 41
4.7123889999999999
 42
1.5707960000000001
  0
ARC
  5
23E
100
AcDbEntity
  8
2
370
    50
100
AcDbCircle
 10
-327.72662
 20
168.947123
 30
0.0
 40
5.0
100
AcDbArc
 50
134.427004
 51
233.565837
  0
LINE
  5
23F
100
AcDbEntity
  8
2
370
    50
100
AcDbLine
 10
-330.696114
 20
164.924424
 30
0.0
 11
-324.72662
 21
160.517837
 31
0.0
  0
ELLIPSE
  5
240
100
AcDbEntity
  8
2
370
    50
100
AcDbEllipse
 10
-329.98495
 20
169.017837
 30
0.0
 11
0.0
 21
-3.0707140000000002
 31
0.0
210
0.0
220
0.0
230
1.0
 40
0.846082
 41
0.0
 42
6.2831849999999996
  0
ELLIPSE
  5
241
100
AcDbEntity
  8
2
370
    50
100
AcDbEllipse
 10
-318.72662
 20
169.017837
 30
0.0
 11
-5.1961519999999997
 21
0.0
 31
0.0
210
0.0
220
0.0
230
1.0
 40
0.563741
 41
4.7123889999999999
 42
1.5707960000000001
  0
LINE
  5
242
100
AcDbEntity
  8
2
370
    25
100
AcDbLine
 10
-318.72662
 20
165.517837
 30
0.0
 11
-330.567545
 21
165.517837
 31
0.0
  0
LINE
  5
243
100
AcDbEntity
  8
2
370
    50
100
AcDbLine
 10
-295.72662
 20
217.65117
 30
0.0
 11
-341.72662
 21
217.65117
 31
0.0
  0
LINE
  5
244
100
AcDbEntity
  8
2
370
    50
100
AcDbLine
 10
-305.22662
 20
207.65117
 30
0.0
 11
-332.22662
 21
207.65117
 31
0.0
  0
LINE
  5
245
100
AcDbEntity
  8
2
370
    50
100
AcDbLine
 10
-80.095025
 20
207.65117
 30
0.0
 11
-80.095025
 21
206.526842
 31
0.0
  0
LINE
  5
246
100
AcDbEntity
  8
2
370
    50
100
AcDbLine
 10
-79.195025
 20
206.526842
 30
0.0
 11
-79.195025
 21
206.35117
 31
0.0
  0
LINE
  5
247
100
AcDbEntity
  8
2
370
    50
100
AcDbLine
 10
-68.72662
 20
206.526842
 30
0.0
 11
-80.095025
 21
206.526842
 31
0.0
  0
LINE
  5
248
100
AcDbEntity
  8
2
370
    50
100
AcDbLine
 10
-57.295025
 20
207.65117
 30
0.0
 11
-57.295025
 21
206.526842
 31
0.0
  0
LINE
  5
249
100
AcDbEntity
  8
2
370
    50
100
AcDbLine
 10
-68.72662
 20
206.526842
 30
0.0
 11
-57.295025
 21
206.526842
 31
0.0
  0
LINE
  5
24A
100
AcDbEntity
  8
2
370
    50
100
AcDbLine
 10
-58.195025
 20
206.526842
 30
0.0
 11
-58.195025
 21
206.35117
 31
0.0
  0
LINE
  5
24B
100
AcDbEntity
  8
2
370
    50
100
AcDbLine
 10
-57.295025
 20
202.35117
 30
0.0
 11
-57.295025
 21
205.15117
 31
0.0
  0
LINE
  5
24C
100
AcDbEntity
  8
2
370
    50
100
AcDbLine
 10
-80.095025
 20
202.35117
 30
0.0
 11
-80.095025
 21
205.15117
 31
0.0
  0
LINE
  5
24D
100
AcDbEntity
  8
2
370
    50
100
AcDbLine
 10
-68.72662
 20
205.15117
 30
0.0
 11
-84.22662
 21
205.15117
 31
0.0
  0
LINE
  5
24E
100
AcDbEntity
  8
2
370
    50
100
AcDbLine
 10
-68.72662
 20
206.35117
 30
0.0
 11
-55.52662
 21
206.35117
 31
0.0
  0
LINE
  5
24F
100
AcDbEntity
  8
2
370
    50
100
AcDbLine
 10
-68.72662
 20
206.35117
 30
0.0
 11
-84.22662
 21
206.35117
 31
0.0
  0
LINE
  5
250
100
AcDbEntity
  8
2
370
    50
100
AcDbLine
 10
-84.22662
 20
206.35117
 30
0.0
 11
-84.22662
 21
205.15117
 31
0.0
  0
LINE
  5
251
100
AcDbEntity
  8
2
370
    50
100
AcDbLine
 10
-55.52662
 20
206.35117
 30
0.0
 11
-55.52662
 21
205.15117
 31
0.0
  0
LINE
  5
252
100
AcDbEntity
  8
2
370
    50
100
AcDbLine
 10
-68.72662
 20
205.15117
 30
0.0
 11
-55.52662
 21
205.15117
 31
0.0
  0
LINE
  5
253
100
AcDbEntity
  8
2
370
    50
100
AcDbLine
 10
-83.97662
 20
202.35117
 30
0.0
 11
-53.47662
 21
202.35117
 31
0.0
  0
ARC
  5
254
100
AcDbEntity
  8
2
370
    50
100
AcDbCircle
 10
-49.905906
 20
205.85117
 30
0.0
 40
5.0
100
AcDbArc
 50
224.427004
 51
239.059821
  0
LINE
  5
255
100
AcDbEntity
  8
2
370
    25
100
AcDbLine
 10
-90.92662
 20
214.29229
 30
0.0
 11
-68.72662
 21
214.29229
 31
0.0
  0
LINE
  5
256
100
AcDbEntity
  8
2
370
    25
100
AcDbLine
 10
-46.52662
 20
214.29229
 30
0.0
 11
-68.72662
 21
214.29229
 31
0.0
  0
LINE
  5
257
100
AcDbEntity
  8
2
370
    25
100
AcDbLine
 10
-85.12662
 20
201.562647
 30
0.0
 11
-52.47662
 21
201.562647
 31
0.0
  0
LINE
  5
258
100
AcDbEntity
  8
2
370
    25
100
AcDbLine
 10
-302.32662
 20
201.562647
 30
0.0
 11
-334.97662
 21
201.562647
 31
0.0
  0
LINE
  5
259
100
AcDbEntity
  8
2
370
    50
100
AcDbLine
 10
-303.32662
 20
202.35117
 30
0.0
 11
-333.97662
 21
202.35117
 31
0.0
  0
LINE
  5
25A
100
AcDbEntity
  8
2
370
    25
100
AcDbLine
 10
-296.52662
 20
214.29229
 30
0.0
 11
-318.72662
 21
214.29229
 31
0.0
  0
LINE
  5
25B
100
AcDbEntity
  8
2
370
    25
100
AcDbLine
 10
-340.92662
 20
214.29229
 30
0.0
 11
-318.72662
 21
214.29229
 31
0.0
  0
LINE
  5
25C
100
AcDbEntity
  8
2
370
    50
100
AcDbLine
 10
-307.358215
 20
202.35117
 30
0.0
 11
-307.358215
 21
205.15117
 31
0.0
  0
LINE
  5
25D
100
AcDbEntity
  8
2
370
    50
100
AcDbLine
 10
-303.22662
 20
206.35117
 30
0.0
 11
-303.22662
 21
205.15117
 31
0.0
  0
LINE
  5
25E
100
AcDbEntity
  8
2
370
    50
100
AcDbLine
 10
-331.92662
 20
206.35117
 30
0.0
 11
-331.92662
 21
205.15117
 31
0.0
  0
LINE
  5
25F
100
AcDbEntity
  8
2
370
    50
100
AcDbLine
 10
-303.22662
 20
205.15117
 30
0.0
 11
-331.92662
 21
205.15117
 31
0.0
  0
LINE
  5
260
100
AcDbEntity
  8
2
370
    50
100
AcDbLine
 10
-307.295025
 20
206.526842
 30
0.0
 11
-330.158215
 21
206.526842
 31
0.0
  0
LINE
  5
261
100
AcDbEntity
  8
2
370
    50
100
AcDbLine
 10
-330.158215
 20
207.65117
 30
0.0
 11
-330.158215
 21
206.526842
 31
0.0
  0
LINE
  5
262
100
AcDbEntity
  8
2
370
    50
100
AcDbLine
 10
-318.72662
 20
206.526842
 30
0.0
 11
-330.158215
 21
206.526842
 31
0.0
  0
LINE
  5
263
100
AcDbEntity
  8
2
370
    50
100
AcDbLine
 10
-329.258215
 20
206.526842
 30
0.0
 11
-329.258215
 21
206.35117
 31
0.0
  0
LINE
  5
264
100
AcDbEntity
  8
2
370
    50
100
AcDbLine
 10
-330.158215
 20
202.35117
 30
0.0
 11
-330.158215
 21
205.15117
 31
0.0
  0
LINE
  5
265
100
AcDbEntity
  8
2
370
    50
100
AcDbLine
 10
-308.195025
 20
206.526842
 30
0.0
 11
-308.195025
 21
206.35117
 31
0.0
  0
LINE
  5
266
100
AcDbEntity
  8
2
370
    50
100
AcDbLine
 10
-307.295025
 20
207.65117
 30
0.0
 11
-307.295025
 21
206.526842
 31
0.0
  0
LINE
  5
267
100
AcDbEntity
  8
2
370
    50
100
AcDbLine
 10
-331.92662
 20
206.35117
 30
0.0
 11
-303.22662
 21
206.35117
 31
0.0
  0
LINE
  5
268
100
AcDbEntity
  8
2
370
    50
100
AcDbLine
 10
237.011318
 20
-89.977466
 30
0.0
 11
275.011318
 21
-89.977466
 31
0.0
  0
ARC
  5
269
100
AcDbEntity
  8
2
370
    50
100
AcDbCircle
 10
276.011318
 20
-103.977466
 30
0.0
 40
45.0
100
AcDbArc
 50
180.0
 51
206.3878
  0
ARC
  5
26A
100
AcDbEntity
  8
2
370
    50
100
AcDbCircle
 10
237.011318
 20
-95.977466
 30
0.0
 40
6.0
100
AcDbArc
 50
90.0
 51
158.847571
  0
LINE
  5
26B
100
AcDbEntity
  8
2
370
    50
100
AcDbLine
 10
239.511318
 20
-125.477466
 30
0.0
 11
269.511318
 21
-125.477466
 31
0.0
  0
LINE
  5
26C
100
AcDbEntity
  8
2
370
    25
  6
CENTER
100
AcDbLine
 10
-193.72662
 20
25.858856
 30
0.0
 11
-193.72662
 21
-163.612465
 31
0.0
  0
LINE
  5
26D
100
AcDbEntity
  8
2
370
    25
  6
CENTER
100
AcDbLine
 10
-193.72662
 20
155.315079
 30
0.0
 11
-193.72662
 21
25.858856
 31
0.0
  0
ARC
  5
26E
100
AcDbEntity
  8
2
370
    50
100
AcDbCircle
 10
72.326005
 20
-225.89086
 30
0.0
 40
275.0
100
AcDbArc
 50
51.819376
 51
64.371095
  0
LINE
  5
26F
100
AcDbEntity
  8
2
370
    50
100
AcDbLine
 10
191.274688
 20
22.053107
 30
0.0
 11
190.006833
 21
19.334184
 31
0.0
  0
ARC
  5
270
100
AcDbEntity
  8
2
370
    50
100
AcDbCircle
 10
195.993528
 20
19.733535
 30
0.0
 40
6.0
100
AcDbArc
 50
183.81635
 51
273.250418
  0
ARC
  5
271
100
AcDbEntity
  8
2
370
    50
100
AcDbCircle
 10
196.673929
 20
7.75284
 30
0.0
 40
6.0
100
AcDbArc
 50
54.856845
 51
93.250418
  0
ARC
  5
272
100
AcDbEntity
  8
2
370
    50
100
AcDbCircle
 10
85.003393
 20
-150.88414
 30
0.0
 40
200.0
100
AcDbArc
 50
42.551584
 51
54.856845
  0
LINE
  5
273
100
AcDbEntity
  8
2
370
    25
  6
CENTER
100
AcDbLine
 10
-291.377472
 20
-103.977466
 30
0.0
 11
-96.918716
 21
-103.977466
 31
0.0
  0
LINE
  5
274
100
AcDbEntity
  8
2
370
    25
  6
CENTER
100
AcDbLine
 10
225.246948
 20
-103.977466
 30
0.0
 11
324.513519
 21
-103.977466
 31
0.0
  0
LINE
  5
275
100
AcDbEntity
  8
2
370
    25
  6
CENTER
100
AcDbLine
 10
-38.568809
 20
-44.119894
 30
0.0
 11
-193.72662
 21
128.200313
 31
0.0
  0
ARC
  5
276
100
AcDbEntity
  8
2
370
    50
100
AcDbCircle
 10
-268.72662
 20
135.140916
 30
0.0
 40
28.660254
100
AcDbArc
 50
72.412046
 51
107.587954
  0
ARC
  5
277
100
AcDbEntity
  8
2
370
    50
100
AcDbCircle
 10
-255.736239
 20
156.133702
 30
0.0
 40
7.667468
100
AcDbArc
 50
64.384247
 51
124.384247
  0
ARC
  5
278
100
AcDbEntity
  8
2
370
    50
100
AcDbCircle
 10
-281.692923
 20
156.211308
 30
0.0
 40
7.589862
100
AcDbArc
 50
55.434907
 51
120.0
  0
ARC
  5
279
100
AcDbEntity
  8
2
370
    50
100
AcDbCircle
 10
-268.72662
 20
177.461424
 30
0.0
 40
28.660254
100
AcDbArc
 50
252.412046
 51
287.587954
  0
ARC
  5
27A
100
AcDbEntity
  8
2
370
    50
100
AcDbCircle
 10
-255.736239
 20
156.468639
 30
0.0
 40
7.667468
100
AcDbArc
 50
235.615753
 51
295.615753
  0
ARC
  5
27B
100
AcDbEntity
  8
2
370
    50
100
AcDbCircle
 10
-281.692923
 20
156.391032
 30
0.0
 40
7.589862
100
AcDbArc
 50
240.0
 51
304.565093
  0
ARC
  5
27C
100
AcDbEntity
  8
2
370
    50
100
AcDbCircle
 10
-118.72662
 20
135.140916
 30
0.0
 40
28.660254
100
AcDbArc
 50
72.412046
 51
107.587954
  0
ARC
  5
27D
100
AcDbEntity
  8
2
370
    50
100
AcDbCircle
 10
-105.760318
 20
156.211308
 30
0.0
 40
7.589862
100
AcDbArc
 50
60.0
 51
124.565093
  0
ARC
  5
27E
100
AcDbEntity
  8
2
370
    50
100
AcDbCircle
 10
-131.692923
 20
156.211308
 30
0.0
 40
7.589862
100
AcDbArc
 50
55.434907
 51
120.0
  0
ARC
  5
27F
100
AcDbEntity
  8
2
370
    50
100
AcDbCircle
 10
-118.72662
 20
177.461424
 30
0.0
 40
28.660254
100
AcDbArc
 50
252.412046
 51
287.587954
  0
ARC
  5
280
100
AcDbEntity
  8
2
370
    50
100
AcDbCircle
 10
-105.760318
 20
156.391032
 30
0.0
 40
7.589862
100
AcDbArc
 50
235.434907
 51
300.0
  0
ARC
  5
281
100
AcDbEntity
  8
2
370
    50
100
AcDbCircle
 10
-131.692923
 20
156.391032
 30
0.0
 40
7.589862
100
AcDbArc
 50
240.0
 51
304.565093
  0
LINE
  5
282
100
AcDbEntity
  8
2
370
    50
100
AcDbLine
 10
-58.195025
 20
236.95117
 30
0.0
 11
-79.195025
 21
236.95117
 31
0.0
  0
LINE
  5
283
100
AcDbEntity
  8
2
370
    50
100
AcDbLine
 10
-308.258215
 20
236.95117
 30
0.0
 11
-329.258215
 21
236.95117
 31
0.0
  0
POINT
  5
284
100
AcDbEntity
  8
2
370
    50
100
AcDbPoint
 10
-51.801639
 20
-29.423347
 30
0.0
  0
POINT
  5
285
100
AcDbEntity
  8
2
370
    50
100
AcDbPoint
 10
-62.205666
 20
-38.791176
 30
0.0
  0
POINT
  5
286
100
AcDbEntity
  8
2
370
    50
100
AcDbPoint
 10
-41.397611
 20
-20.055519
 30
0.0
  0
LINE
  5
287
100
AcDbEntity
  8
2
370
    50
100
AcDbLine
 10
275.011318
 20
-118.977466
 30
0.0
 11
275.011318
 21
-88.977466
 31
0.0
  0
LINE
  5
288
100
AcDbEntity
  8
2
370
    50
100
AcDbLine
 10
275.011318
 20
-88.977466
 30
0.0
 11
276.351064
 21
-86.656958
 31
0.0
  0
LINE
  5
289
100
AcDbEntity
  8
2
370
    50
100
AcDbLine
 10
275.011318
 20
-118.977466
 30
0.0
 11
276.351064
 21
-121.297974
 31
0.0
  0
ARC
  5
28A
100
AcDbEntity
  8
2
370
    50
100
AcDbCircle
 10
282.678786
 20
-116.967847
 30
0.0
 40
7.667468
100
AcDbArc
 50
145.615753
 51
214.384247
  0
ARC
  5
28B
100
AcDbEntity
  8
2
370
    50
100
AcDbCircle
 10
303.671572
 20
-103.977466
 30
0.0
 40
28.660254
100
AcDbArc
 50
162.412046
 51
197.587954
  0
ARC
  5
28C
100
AcDbEntity
  8
2
370
    50
100
AcDbCircle
 10
282.678786
 20
-90.987085
 30
0.0
 40
7.667468
100
AcDbArc
 50
145.615753
 51
214.384247
  0
LINE
  5
28D
100
AcDbEntity
  8
2
370
    50
100
AcDbLine
 10
246.137726
 20
-117.644935
 30
0.0
 11
275.011318
 21
-117.644935
 31
0.0
  0
ARC
  5
28E
100
AcDbEntity
  8
2
370
    50
100
AcDbCircle
 10
324.511318
 20
-103.811201
 30
0.0
 40
60.0
100
AcDbArc
 50
171.658716
 51
188.341284
  0
ARC
  5
28F
100
AcDbEntity
  8
2
370
    50
100
AcDbCircle
 10
271.082556
 20
-95.977466
 30
0.0
 40
6.0
100
AcDbArc
 50
90.0
 51
171.658716
  0
ARC
  5
290
100
AcDbEntity
  8
2
370
    50
100
AcDbCircle
 10
271.082556
 20
-111.644935
 30
0.0
 40
6.0
100
AcDbArc
 50
188.341284
 51
270.0
  0
ARC
  5
291
100
AcDbEntity
  8
2
370
    50
100
AcDbCircle
 10
233.011318
 20
-103.977466
 30
0.0
 40
45.0
100
AcDbArc
 50
333.6122
 51
339.913002
  0
TEXT
  5
292
100
AcDbEntity
  8
3
370
    50
100
AcDbText
 10
289.710449
 20
-239.969086
 30
0.0
 40
6.4
  1
１　２
 72
     5
 11
307.630449
 21
-239.969086
 31
0.0
100
AcDbText
  0
TEXT
  5
293
100
AcDbEntity
  8
3
370
    50
100
AcDbText
 10
229.40271
 20
-272.599091
 30
0.0
 40
6.4
  1
外観寸法図
 72
     5
 11
260.12271
 21
-272.599091
 31
0.0
100
AcDbText
  0
TEXT
  5
294
100
AcDbEntity
  8
3
370
    50
100
AcDbText
 10
336.685852
 20
-272.577759
 30
0.0
 40
6.4
  1
１０１６９６
 72
     5
 11
373.805853
 21
-272.577759
 31
0.0
100
AcDbText
  0
TEXT
  5
295
100
AcDbEntity
  8
3
370
    50
100
AcDbText
 10
68.160233
 20
-235.526505
 30
0.0
 40
6.4
  1
ＭＫ３２０ＢＫ
 72
     5
 11
111.680233
 21
-235.526505
 31
0.0
100
AcDbText
  0
TEXT
  5
296
100
AcDbEntity
  8
3
370
    50
100
AcDbText
 10
68.534645
 20
-227.251663
 30
0.0
 40
6.4
  1
壁付シングルレバ－湯水混合水栓
 72
     5
 11
163.254646
 21
-227.251663
 31
0.0
100
AcDbText
  0
TEXT
  5
297
100
AcDbEntity
  8
3
370
    50
100
AcDbText
 10
-21.625851
 20
-96.927466
 30
0.0
 40
7.0
  1
147
 50
90.0
 41
2.0
 72
     5
 11
-21.625851
 21
-78.727466
 31
0.0
100
AcDbText
  0
DIMENSION
  5
298
100
AcDbEntity
  8
3
370
    25
100
AcDbDimension
  2
*D0
 10
-20.625851
 20
-12.877466
 30
0.0
 11
-23.125851
 21
-86.427466
 31
0.0
 71
     0
 72
     0
 41
0.0
 42
0.0
  3
Standard
100
AcDbAlignedDimension
 13
241.417239
 23
-159.977466
 33
0.0
 14
160.186318
 24
-12.877466
 34
0.0
 50
90.0
100
AcDbRotatedDimension
  0
TEXT
  5
299
100
AcDbEntity
  8
3
370
    50
100
AcDbText
 10
297.131989
 20
-191.939621
 30
0.0
 40
7.0
  1
給水栓ネジ
 72
     5
 11
330.731989
 21
-191.939621
 31
0.0
100
AcDbText
  0
TEXT
  5
29A
100
AcDbEntity
  8
3
370
    50
100
AcDbText
 10
297.317627
 20
-182.785263
 30
0.0
 40
7.0
  1
ＰＪ１／２
 72
     5
 11
330.917627
 21
-182.785263
 31
0.0
100
AcDbText
  0
ARC
  5
29B
100
AcDbEntity
  8
3
370
    50
100
AcDbCircle
 10
-232.964077
 20
141.507474
 30
0.0
 40
3.0
100
AcDbArc
 50
0.0
 51
90.0
  0
LINE
  5
29C
100
AcDbEntity
  8
3
370
    25
100
AcDbLine
 10
-306.773549
 20
-45.292399
 30
0.0
 11
-306.773549
 21
-36.492399
 31
0.0
  0
HATCH
  5
29D
100
AcDbEntity
  8
3
370
    25
100
AcDbHatch
 10
0.0
 20
0.0
 30
0.0
210
0.0
220
0.0
230
1.0
  2
_U
 70
     0
 71
     1
 91
        1
 92
        1
 93
        2
 72
     1
 10
-306.773549
 20
-36.492398999999999
 11
-306.773549
 21
-45.292399000000003
 72
     2
 10
-306.773549
 20
-40.892398999999997
 40
4.4000000000000004
 50
270.0
 51
90.0
 73
     1
 97
        2
330
0
330
0
 75
     0
 76
     0
 52
45.0
 41
1.0
 77
     0
 78
     1
 53
45.0
 43
0.0
 44
0.0
 45
-1.0606599999999999
 46
1.0606599999999999
 79
     0
 98
        1
 10
0.0
 20
0.0
  0
CIRCLE
  5
29E
100
AcDbEntity
  8
3
370
    50
100
AcDbCircle
 10
-306.773549
 20
-40.892399
 30
0.0
 40
4.4
  0
LINE
  5
29F
100
AcDbEntity
  8
3
370
    25
100
AcDbLine
 10
-309.884819
 20
-44.003669
 30
0.0
 11
-306.773549
 21
-40.892399
 31
0.0
  0
LINE
  5
2A0
100
AcDbEntity
  8
3
370
    25
100
AcDbLine
 10
-309.511112
 20
-44.337069
 30
0.0
 11
-306.773549
 21
-41.599506
 31
0.0
  0
LINE
  5
2A1
100
AcDbEntity
  8
3
370
    25
100
AcDbLine
 10
-309.096294
 20
-44.629357
 30
0.0
 11
-306.773549
 21
-42.306613
 31
0.0
  0
LINE
  5
2A2
100
AcDbEntity
  8
3
370
    25
100
AcDbLine
 10
-308.637782
 20
-44.877952
 30
0.0
 11
-306.773549
 21
-43.013719
 31
0.0
  0
LINE
  5
2A3
100
AcDbEntity
  8
3
370
    25
100
AcDbLine
 10
-308.130617
 20
-45.077894
 30
0.0
 11
-306.773549
 21
-43.720826
 31
0.0
  0
LINE
  5
2A4
100
AcDbEntity
  8
3
370
    25
100
AcDbLine
 10
-307.566056
 20
-45.220439
 30
0.0
 11
-306.773549
 21
-44.427933
 31
0.0
  0
LINE
  5
2A5
100
AcDbEntity
  8
3
370
    25
100
AcDbLine
 10
-306.92819
 20
-45.289681
 30
0.0
 11
-306.773549
 21
-45.13504
 31
0.0
  0
LINE
  5
2A6
100
AcDbEntity
  8
3
370
    25
100
AcDbLine
 10
-310.218219
 20
-43.629962
 30
0.0
 11
-306.773549
 21
-40.185292
 31
0.0
  0
LINE
  5
2A7
100
AcDbEntity
  8
3
370
    25
100
AcDbLine
 10
-310.510507
 20
-43.215144
 30
0.0
 11
-306.773549
 21
-39.478185
 31
0.0
  0
LINE
  5
2A8
100
AcDbEntity
  8
3
370
    25
100
AcDbLine
 10
-310.759102
 20
-42.756632
 30
0.0
 11
-306.773549
 21
-38.771079
 31
0.0
  0
LINE
  5
2A9
100
AcDbEntity
  8
3
370
    25
100
AcDbLine
 10
-310.959044
 20
-42.249467
 30
0.0
 11
-306.773549
 21
-38.063972
 31
0.0
  0
LINE
  5
2AA
100
AcDbEntity
  8
3
370
    25
100
AcDbLine
 10
-311.101589
 20
-41.684906
 30
0.0
 11
-306.773549
 21
-37.356865
 31
0.0
  0
LINE
  5
2AB
100
AcDbEntity
  8
3
370
    25
100
AcDbLine
 10
-311.170831
 20
-41.04704
 30
0.0
 11
-306.773549
 21
-36.649758
 31
0.0
  0
LINE
  5
2AC
100
AcDbEntity
  8
3
370
    25
100
AcDbLine
 10
-311.133894
 20
-40.302996
 30
0.0
 11
-307.362952
 21
-36.532055
 31
0.0
  0
LINE
  5
2AD
100
AcDbEntity
  8
3
370
    25
100
AcDbLine
 10
-310.898124
 20
-39.36012
 30
0.0
 11
-308.305828
 21
-36.767824
 31
0.0
  0
TEXT
  5
2AE
100
AcDbEntity
  8
3
370
    50
100
AcDbText
 10
-294.878601
 20
-30.103971
 30
0.0
 40
7.0
  1
青色
 72
     5
 11
-282.278601
 21
-30.103971
 31
0.0
100
AcDbText
  0
TEXT
  5
2AF
100
AcDbEntity
  8
3
370
    50
100
AcDbText
 10
-297.857239
 20
-39.0408
 30
0.0
 40
7.0
  1
（水表示）
 72
     5
 11
-264.257239
 21
-39.0408
 31
0.0
100
AcDbText
  0
TEXT
  5
2B0
100
AcDbEntity
  8
3
370
    50
100
AcDbText
 10
-337.013907
 20
-30.53287
 30
0.0
 40
7.0
  1
赤色
 72
     5
 11
-324.413907
 21
-30.53287
 31
0.0
100
AcDbText
  0
TEXT
  5
2B1
100
AcDbEntity
  8
3
370
    50
100
AcDbText
 10
-354.876105
 20
-39.464114
 30
0.0
 40
7.0
  1
（湯表示）
 72
     5
 11
-321.276105
 21
-39.464114
 31
0.0
100
AcDbText
  0
LWPOLYLINE
  5
2B2
100
AcDbEntity
  8
3
370
    25
100
AcDbPolyline
 90
        3
 70
     0
 10
-309.113866
 20
-40.033766
 10
-315.342885
 20
-28.652616
 10
-320.493871
 20
-28.652616
  0
LINE
  5
2B7
100
AcDbEntity
  8
3
370
    25
100
AcDbLine
 10
-310.968854
 20
-36.644485
 30
0.0
 11
-311.877009
 21
-37.141527
 31
0.0
  0
LINE
  5
2B8
100
AcDbEntity
  8
3
370
    25
100
AcDbLine
 10
-311.877009
 20
-37.141527
 30
0.0
 11
-309.113866
 21
-40.033766
 31
0.0
  0
LINE
  5
2B9
100
AcDbEntity
  8
3
370
    25
100
AcDbLine
 10
-309.113866
 20
-40.033766
 30
0.0
 11
-310.060699
 21
-36.147442
 31
0.0
  0
LINE
  5
2BA
100
AcDbEntity
  8
3
370
    25
100
AcDbLine
 10
-310.060699
 20
-36.147442
 30
0.0
 11
-310.968854
 21
-36.644485
 31
0.0
  0
LWPOLYLINE
  5
2BB
100
AcDbEntity
  8
3
370
    25
100
AcDbPolyline
 90
        3
 70
     0
 10
-304.222916
 20
-39.447523
 10
-299.15358
 20
-28.542509
 10
-294.179901
 20
-28.542509
  0
LINE
  5
2C0
100
AcDbEntity
  8
3
370
    25
100
AcDbLine
 10
-302.594203
 20
-35.943882
 30
0.0
 11
-303.533001
 21
-35.50747
 31
0.0
  0
LINE
  5
2C1
100
AcDbEntity
  8
3
370
    25
100
AcDbLine
 10
-303.533001
 20
-35.50747
 30
0.0
 11
-304.222916
 21
-39.447523
 31
0.0
  0
LINE
  5
2C2
100
AcDbEntity
  8
3
370
    25
100
AcDbLine
 10
-304.222916
 20
-39.447523
 30
0.0
 11
-301.655405
 21
-36.380294
 31
0.0
  0
LINE
  5
2C3
100
AcDbEntity
  8
3
370
    25
100
AcDbLine
 10
-301.655405
 20
-36.380294
 30
0.0
 11
-302.594203
 21
-35.943882
 31
0.0
  0
LWPOLYLINE
  5
2C4
100
AcDbEntity
  8
3
370
    25
100
AcDbPolyline
 90
        2
 70
     0
 10
-196.766769
 20
-48.426025
 10
-301.890503
 20
-41.97934
  0
LINE
  5
2C8
100
AcDbEntity
  8
3
370
    25
100
AcDbLine
 10
-200.623228
 20
-48.189529
 30
0.0
 11
-200.686597
 21
-49.222864
 31
0.0
  0
LINE
  5
2C9
100
AcDbEntity
  8
3
370
    25
100
AcDbLine
 10
-200.686597
 20
-49.222864
 30
0.0
 11
-196.766769
 21
-48.426025
 31
0.0
  0
LINE
  5
2CA
100
AcDbEntity
  8
3
370
    25
100
AcDbLine
 10
-196.766769
 20
-48.426025
 30
0.0
 11
-200.559859
 21
-47.156194
 31
0.0
  0
LINE
  5
2CB
100
AcDbEntity
  8
3
370
    25
100
AcDbLine
 10
-200.559859
 20
-47.156194
 30
0.0
 11
-200.623228
 21
-48.189529
 31
0.0
  0
TEXT
  5
2CC
100
AcDbEntity
  8
3
370
    50
100
AcDbText
 10
-212.092453
 20
-218.856781
 30
0.0
 40
7.0
  1
ＭＡＸ２４５
 72
     5
 11
-171.492453
 21
-218.856781
 31
0.0
100
AcDbText
  0
DIMENSION
  5
2CD
100
AcDbEntity
  8
3
370
    25
100
AcDbDimension
  2
*D1
 10
254.511318
 20
-205.078873
 30
0.0
 11
148.511318
 21
-200.578873
 31
0.0
 71
     0
 72
     0
 41
0.0
 42
0.0
  3
Standard
100
AcDbAlignedDimension
 13
42.511318
 23
-115.776581
 33
0.0
 14
254.511318
 24
-171.503006
 34
0.0
100
AcDbRotatedDimension
  0
TEXT
  5
2CE
100
AcDbEntity
  8
3
370
    50
100
AcDbText
 10
-204.22662
 20
-210.099213
 30
0.0
 40
7.0
  1
２２０
 72
     5
 11
-184.62662
 21
-210.099213
 31
0.0
100
AcDbText
  0
DIMENSION
  5
2CF
100
AcDbEntity
  8
3
370
    25
100
AcDbDimension
  2
*D2
 10
-83.371281
 20
-211.099213
 30
0.0
 11
-193.72662
 21
-209.099213
 31
0.0
 71
     0
 72
     0
 41
0.0
 42
0.0
  3
Standard
100
AcDbAlignedDimension
 13
-304.081959
 23
-139.332805
 33
0.0
 14
-83.371281
 24
-139.332805
 34
0.0
100
AcDbRotatedDimension
  0
TEXT
  5
2D0
100
AcDbEntity
  8
3
370
    50
100
AcDbText
 10
-289.748825
 20
-125.469802
 30
0.0
 40
7.0
  1
湯
 72
     5
 11
-284.148825
 21
-125.469802
 31
0.0
100
AcDbText
  0
CIRCLE
  5
2D1
100
AcDbEntity
  8
3
370
    50
100
AcDbCircle
 10
-286.40429
 20
-121.655135
 30
0.0
 40
5.0
  0
TEXT
  5
2D2
100
AcDbEntity
  8
3
370
    50
100
AcDbText
 10
-104.393486
 20
-125.469802
 30
0.0
 40
7.0
  1
水
 72
     5
 11
-98.793486
 21
-125.469802
 31
0.0
100
AcDbText
  0
CIRCLE
  5
2D3
100
AcDbEntity
  8
3
370
    50
100
AcDbCircle
 10
-101.048951
 20
-121.655135
 30
0.0
 40
5.0
  0
DIMENSION
  5
2D4
100
AcDbEntity
  8
3
370
    25
100
AcDbDimension
  2
*D3
 10
14.32969
 20
-103.977466
 30
0.0
 11
9.82969
 21
-103.227466
 31
0.0
 71
     0
 72
     0
 41
0.0
 42
0.0
  3
Standard
100
AcDbAlignedDimension
 13
31.011318
 23
-109.477466
 33
0.0
 14
21.679915
 24
-103.977466
 34
0.0
 50
90.0
100
AcDbRotatedDimension
  0
TEXT
  5
2D5
100
AcDbEntity
  8
3
370
    50
100
AcDbText
 10
-103.975189
 20
-80.06897
 30
0.0
 40
7.0
  1
（水側用偏心の表示）
 72
     5
 11
-35.375189
 21
-80.06897
 31
0.0
100
AcDbText
  0
LWPOLYLINE
  5
2D6
100
AcDbEntity
  8
3
370
    25
100
AcDbPolyline
 90
        2
 70
     0
 10
-99.478677
 20
-116.908111
 10
-87.524956
 20
-82.337044
  0
LINE
  5
2DA
100
AcDbEntity
  8
3
370
    25
100
AcDbLine
 10
-98.216063
 20
-113.256535
 30
0.0
 11
-99.194499
 21
-112.918218
 31
0.0
  0
LINE
  5
2DB
100
AcDbEntity
  8
3
370
    25
100
AcDbLine
 10
-99.194499
 20
-112.918218
 30
0.0
 11
-99.478677
 21
-116.908111
 31
0.0
  0
LINE
  5
2DC
100
AcDbEntity
  8
3
370
    25
100
AcDbLine
 10
-99.478677
 20
-116.908111
 30
0.0
 11
-97.237626
 21
-113.594851
 31
0.0
  0
LINE
  5
2DD
100
AcDbEntity
  8
3
370
    25
100
AcDbLine
 10
-97.237626
 20
-113.594851
 30
0.0
 11
-98.216063
 21
-113.256535
 31
0.0
  0
TEXT
  5
2DE
100
AcDbEntity
  8
3
370
    50
100
AcDbText
 10
-347.875488
 20
-87.387123
 30
0.0
 40
7.0
  1
（湯側用偏心の表示）
 72
     5
 11
-279.275488
 21
-87.387123
 31
0.0
100
AcDbText
  0
LWPOLYLINE
  5
2DF
100
AcDbEntity
  8
3
370
    25
100
AcDbPolyline
 90
        2
 70
     0
 10
-289.173863
 20
-117.492268
 10
-312.83783
 20
-89.679817
  0
LINE
  5
2E3
100
AcDbEntity
  8
3
370
    25
100
AcDbLine
 10
-291.677621
 20
-114.549582
 30
0.0
 11
-292.466111
 21
-115.220462
 31
0.0
  0
LINE
  5
2E4
100
AcDbEntity
  8
3
370
    25
100
AcDbLine
 10
-292.466111
 20
-115.220462
 30
0.0
 11
-289.173863
 21
-117.492268
 31
0.0
  0
LINE
  5
2E5
100
AcDbEntity
  8
3
370
    25
100
AcDbLine
 10
-289.173863
 20
-117.492268
 30
0.0
 11
-290.88913
 21
-113.878702
 31
0.0
  0
LINE
  5
2E6
100
AcDbEntity
  8
3
370
    25
100
AcDbLine
 10
-290.88913
 20
-113.878702
 30
0.0
 11
-291.677621
 21
-114.549582
 31
0.0
  0
POINT
  5
2E7
100
AcDbEntity
  8
3
370
    50
100
AcDbPoint
 10
254.511318
 20
-65.527466
 30
0.0
  0
DIMENSION
  5
2E8
100
AcDbEntity
  8
3
370
    25
100
AcDbDimension
  2
*D4
 10
193.007345
 20
-12.877466
 30
0.0
 11
131.952158
 21
27.635851
 31
0.0
 70
     2
 71
     0
 72
     0
 41
0.0
 42
0.0
  3
Standard
100
AcDb2LineAngularDimension
 13
242.177895
 23
-1.683448
 33
0.0
 14
266.183542
 24
-12.877466
 34
0.0
 15
266.183542
 25
-12.877466
 35
0.0
 16
130.655838
 26
17.168303
 36
0.0
1001
ACAD
1000
DSTYLE
1002
{
1070
   275
1070
     0
1070
   179
1070
     0
1002
}
  0
TEXT
  5
2E9
100
AcDbEntity
  8
3
370
    50
100
AcDbText
 10
197.69635
 20
25.089676
 30
0.0
 40
7.0
  1
吐水
 72
     5
 11
210.29635
 21
25.089676
 31
0.0
100
AcDbText
  0
TEXT
  5
2EA
100
AcDbEntity
  8
3
370
    50
100
AcDbText
 10
162.697296
 20
-8.972505
 30
0.0
 40
7.0
  1
止水
 72
     5
 11
175.297296
 21
-8.972505
 31
0.0
100
AcDbText
  0
POINT
  5
2EB
100
AcDbEntity
  8
3
370
    50
100
AcDbPoint
 10
160.186318
 20
-12.877466
 30
0.0
  0
DIMENSION
  5
2EC
100
AcDbEntity
  8
3
370
    25
100
AcDbDimension
  2
*D5
 10
14.32969
 20
-12.877466
 30
0.0
 11
6.32969
 21
-58.427466
 31
0.0
 71
     0
 72
     0
 41
0.0
 42
0.0
  3
Standard
100
AcDbAlignedDimension
 13
225.246948
 23
-103.977466
 33
0.0
 14
160.186318
 24
-12.877466
 34
0.0
 50
90.0
100
AcDbRotatedDimension
  0
POINT
  5
2ED
100
AcDbEntity
  8
3
370
    50
100
AcDbPoint
 10
191.274688
 20
22.053107
 30
0.0
  0
DIMENSION
  5
2EE
100
AcDbEntity
  8
3
370
    25
100
AcDbDimension
  2
*D6
 10
-4.140663
 20
22.053107
 30
0.0
 11
-15.640663
 21
-44.462179
 31
0.0
 71
     0
 72
     0
 41
0.0
 42
0.0
  3
Standard
100
AcDbAlignedDimension
 13
225.246948
 23
-103.977466
 33
0.0
 14
191.274688
 24
22.053107
 34
0.0
 50
90.0
100
AcDbRotatedDimension
  0
TEXT
  5
2EF
100
AcDbEntity
  8
3
370
    50
100
AcDbText
 10
378.181702
 20
-149.833466
 30
0.0
 40
7.0
  1
φ４６
 50
90.0
 72
     5
 11
378.181702
 21
-130.233466
 31
0.0
100
AcDbText
  0
DIMENSION
  5
2F0
100
AcDbEntity
  8
3
370
    25
100
AcDbDimension
  2
*D7
 10
379.181702
 20
-116.333466
 30
0.0
 11
376.681702
 21
-139.333466
 31
0.0
 71
     0
 72
     0
 41
0.0
 42
0.0
  3
Standard
100
AcDbAlignedDimension
 13
343.861318
 23
-162.333466
 33
0.0
 14
343.861318
 24
-116.333466
 34
0.0
 50
90.0
100
AcDbRotatedDimension
  0
TEXT
  5
2F1
100
AcDbEntity
  8
3
370
    50
100
AcDbText
 10
274.686318
 20
-204.078873
 30
0.0
 40
7.0
  1
（８６～８９）
 72
     5
 11
322.286318
 21
-204.078873
 31
0.0
100
AcDbText
  0
DIMENSION
  5
2F2
100
AcDbEntity
  8
3
370
    25
100
AcDbDimension
  2
*D8
 10
343.861318
 20
-205.078873
 30
0.0
 11
299.186318
 21
-203.078873
 31
0.0
 71
     0
 72
     0
 41
0.0
 42
0.0
  3
Standard
100
AcDbAlignedDimension
 13
254.511318
 23
-171.503006
 33
0.0
 14
343.861318
 24
-162.333466
 34
0.0
100
AcDbRotatedDimension
  0
LWPOLYLINE
  5
2F3
100
AcDbEntity
  8
3
370
    25
100
AcDbPolyline
 90
        3
 70
     0
 10
353.798218
 20
-149.86506
 10
346.738068
 20
-183.759827
 10
296.952454
 20
-183.759827
  0
LINE
  5
2F8
100
AcDbEntity
  8
3
370
    25
100
AcDbLine
 10
353.010334
 20
-153.647578
 30
0.0
 11
354.023856
 21
-153.858691
 31
0.0
  0
LINE
  5
2F9
100
AcDbEntity
  8
3
370
    25
100
AcDbLine
 10
354.023856
 20
-153.858691
 30
0.0
 11
353.798218
 21
-149.86506
 31
0.0
  0
LINE
  5
2FA
100
AcDbEntity
  8
3
370
    25
100
AcDbLine
 10
353.798218
 20
-149.86506
 30
0.0
 11
351.996811
 21
-153.436465
 31
0.0
  0
LINE
  5
2FB
100
AcDbEntity
  8
3
370
    25
100
AcDbLine
 10
351.996811
 20
-153.436465
 30
0.0
 11
353.010334
 21
-153.647578
 31
0.0
  0
DIMENSION
  5
2FC
100
AcDbEntity
  8
3
370
    25
100
AcDbDimension
  2
*D9
 10
14.32969
 20
-109.477466
 30
0.0
 11
6.32969
 21
-134.727466
 31
0.0
 71
     0
 72
     0
 41
0.0
 42
0.0
  3
Standard
100
AcDbAlignedDimension
 13
241.417239
 23
-159.977466
 33
0.0
 14
31.011318
 24
-109.477466
 34
0.0
 50
90.0
100
AcDbRotatedDimension
  0
DIMENSION
  5
2FD
100
AcDbEntity
  8
3
370
    25
100
AcDbDimension
  2
*D10
 10
-118.72662
 20
248.695709
 30
0.0
 11
-193.72662
 21
253.195709
 31
0.0
 71
     0
 72
     0
 41
0.0
 42
0.0
  3
Standard
100
AcDbAlignedDimension
 13
-268.72662
 23
200.343721
 33
0.0
 14
-118.72662
 24
200.343721
 34
0.0
100
AcDbRotatedDimension
  0
DIMENSION
  5
2FE
100
AcDbEntity
  8
3
370
    25
100
AcDbDimension
  2
*D11
 10
364.03699
 20
-205.078873
 30
0.0
 11
379.03699
 21
-200.578873
 31
0.0
 71
     0
 72
     0
 41
0.0
 42
0.0
  3
Standard
100
AcDbAlignedDimension
 13
343.861318
 23
-162.333466
 33
0.0
 14
364.03699
 24
-148.96506
 34
0.0
100
AcDbRotatedDimension
  0
DIMENSION
  5
2FF
100
AcDbEntity
  8
3
370
    25
100
AcDbDimension
  2
*D12
 10
-68.72662
 20
248.695709
 30
0.0
 11
-93.72662
 21
253.195709
 31
0.0
 71
     0
 72
     0
 41
0.0
 42
0.0
  3
Standard
100
AcDbAlignedDimension
 13
-118.72662
 23
200.343721
 33
0.0
 14
-68.72662
 24
241.492965
 34
0.0
100
AcDbRotatedDimension
  0
DIMENSION
  5
300
100
AcDbEntity
  8
3
370
    25
100
AcDbDimension
  2
*D13
 10
-268.72662
 20
248.695709
 30
0.0
 11
-293.72662
 21
253.195709
 31
0.0
 71
     0
 72
     0
 41
0.0
 42
0.0
  3
Standard
100
AcDbAlignedDimension
 13
-318.72662
 23
241.492965
 33
0.0
 14
-268.72662
 24
200.343721
 34
0.0
100
AcDbRotatedDimension
  0
TEXT
  5
301
100
AcDbEntity
  8
3
370
    50
100
AcDbText
 10
-252.901566
 20
206.201767
 30
0.0
 40
6.4
  1
逆止弁内蔵
 72
     5
 11
-222.181565
 21
206.201767
 31
0.0
100
AcDbText
  0
LWPOLYLINE
  5
302
100
AcDbEntity
  8
3
370
    25
100
AcDbPolyline
 90
        2
 70
     0
 10
-264.794769
 20
182.116119
 10
-247.360184
 20
203.558426
  0
LINE
  5
306
100
AcDbEntity
  8
3
370
    25
100
AcDbLine
 10
-262.357276
 20
185.113924
 30
0.0
 11
-263.160535
 21
185.767048
 31
0.0
  0
LINE
  5
307
100
AcDbEntity
  8
3
370
    25
100
AcDbLine
 10
-263.160535
 20
185.767048
 30
0.0
 11
-264.794769
 21
182.116119
 31
0.0
  0
LINE
  5
308
100
AcDbEntity
  8
3
370
    25
100
AcDbLine
 10
-264.794769
 20
182.116119
 30
0.0
 11
-261.554017
 21
184.460799
 31
0.0
  0
LINE
  5
309
100
AcDbEntity
  8
3
370
    25
100
AcDbLine
 10
-261.554017
 20
184.460799
 30
0.0
 11
-262.357276
 21
185.113924
 31
0.0
  0
TEXT
  5
30A
100
AcDbEntity
  8
3
370
    50
100
AcDbText
 10
-182.582275
 20
206.093423
 30
0.0
 40
6.4
  1
逆止弁内蔵
 72
     5
 11
-151.862275
 21
206.093423
 31
0.0
100
AcDbText
  0
LWPOLYLINE
  5
30B
100
AcDbEntity
  8
3
370
    25
100
AcDbPolyline
 90
        2
 70
     0
 10
-125.634583
 20
178.943146
 10
-148.765411
 20
204.861801
  0
LINE
  5
30F
100
AcDbEntity
  8
3
370
    25
100
AcDbLine
 10
-128.2072
 20
181.825826
 30
0.0
 11
-128.979611
 21
181.136495
 31
0.0
  0
LINE
  5
310
100
AcDbEntity
  8
3
370
    25
100
AcDbLine
 10
-128.979611
 20
181.136495
 30
0.0
 11
-125.634583
 21
178.943146
 31
0.0
  0
LINE
  5
311
100
AcDbEntity
  8
3
370
    25
100
AcDbLine
 10
-125.634583
 20
178.943146
 30
0.0
 11
-127.434788
 21
182.515156
 31
0.0
  0
LINE
  5
312
100
AcDbEntity
  8
3
370
    25
100
AcDbLine
 10
-127.434788
 20
182.515156
 30
0.0
 11
-128.2072
 21
181.825826
 31
0.0
  0
TEXT
  5
313
100
AcDbEntity
  8
3
370
    50
100
AcDbText
 10
-182.582275
 20
213.493423
 30
0.0
 40
6.4
  1
内圧逃がし機能付
 72
     5
 11
-132.662275
 21
213.493423
 31
0.0
100
AcDbText
  0
DIMENSION
  5
314
100
AcDbEntity
  8
3
370
    25
100
AcDbDimension
  2
*D14
 10
-237.865547
 20
-134.838539
 30
0.0
 11
-284.534595
 21
-182.568247
 31
0.0
 70
     1
 71
     0
 72
     0
 41
0.0
 42
0.0
  3
Standard
100
AcDbAlignedDimension
 13
-304.081959
 23
-139.332805
 33
0.0
 14
-268.72662
 24
-103.977466
 34
0.0
 50
45.0
  0
TEXT
  5
315
100
AcDbEntity
  8
3
370
    50
100
AcDbText
 10
67.578712
 20
-125.695229
 30
0.0
 40
7.0
  1
Ｍ２４×１
 72
     5
 11
101.178712
 21
-125.695229
 31
0.0
100
AcDbText
  0
LWPOLYLINE
  5
316
100
AcDbEntity
  8
3
370
    25
100
AcDbPolyline
 90
        3
 70
     0
 10
54.472965
 20
-106.622482
 10
66.615089
 20
-128.00708
 10
101.692169
 20
-128.00708
  0
ENDSEC
  0
SECTION
  2
OBJECTS
  0
DICTIONARY
  5
3C7
100
AcDbDictionary
280
     0
281
     1
  3
ACAD_GROUP
350
3C8
  3
ACAD_MLINESTYLE
350
3C9
  0
DICTIONARY
  5
3C8
102
{ACAD_REACTORS
330
3C7
102
}
100
AcDbDictionary
280
     0
281
     1
  0
DICTIONARY
  5
3C9
102
{ACAD_REACTORS
330
3C7
102
}
100
AcDbDictionary
280
     0
281
     1
  3
Standard
350
3CA
  0
MLINESTYLE
  5
3CA
102
{ACAD_REACTORS
330
3C9
102
}
100
AcDbMlineStyle
  2
Standard
 70
     0
  3

 62
     0
 51
90.0
 52
90.0
 71
     2
 49
0.5
 62
   256
  6
ByLayer
 49
-0.5
 62
   256
  6
ByLayer
  0
ENDSEC
  0
EOF
