  0
SECTION
  2
HEADER
  9
$ACADVER
  1
AC1015
  9
$ACADMAINTVER
 70
     6
  9
$DWGCODEPAGE
  3
ANSI_932
  9
$INSBASE
 10
0.0
 20
0.0
 30
0.0
  9
$EXTMIN
 10
-841.0
 20
-594.0
 30
1.000000E+20
  9
$EXTMAX
 10
841.0
 20
594.0
 30
-1.000000E+20
  9
$LIMMIN
 10
-841.0
 20
-594.0
  9
$LIMMAX
 10
841.0
 20
594.0
  9
$ORTHOMODE
 70
     0
  9
$REGENMODE
 70
     1
  9
$FILLMODE
 70
     1
  9
$QTEXTMODE
 70
     0
  9
$MIRRTEXT
 70
     1
  9
$LTSCALE
 40
1.0
  9
$ATTMODE
 70
     1
  9
$TEXTSIZE
 40
0.2
  9
$TRACEWID
 40
0.05
  9
$TEXTSTYLE
  7
STANDARD
  9
$CLAYER
  8
0
  9
$CELTYPE
  6
CONTINUOUS
  9
$CECOLOR
 62
   256
  9
$CELTSCALE
 40
1.0
  9
$DISPSILH
 70
     0
  9
$DIMSCALE
 40
2.0
  9
$DIMASZ
 40
2.0
  9
$DIMEXO
 40
1.0
  9
$DIMDLI
 40
0.38
  9
$DIMRND
 40
0.0
  9
$DIMDLE
 40
0.0
  9
$DIMEXE
 40
2.0
  9
$DIMTP
 40
0.0
  9
$DIMTM
 40
0.0
  9
$DIMTXT
 40
3.5
  9
$DIMCEN
 40
0.09
  9
$DIMTSZ
 40
0.0
  9
$DIMTOL
 70
     0
  9
$DIMLIM
 70
     0
  9
$DIMTIH
 70
     0
  9
$DIMTOH
 70
     0
  9
$DIMSE1
 70
     0
  9
$DIMSE2
 70
     0
  9
$DIMTAD
 70
     1
  9
$DIMZIN
 70
     0
  9
$DIMBLK
  1

  9
$DIMASO
 70
     1
  9
$DIMSHO
 70
     1
  9
$DIMPOST
  1

  9
$DIMAPOST
  1

  9
$DIMALT
 70
     0
  9
$DIMALTD
 70
     2
  9
$DIMALTF
 40
25.4
  9
$DIMLFAC
 40
1.0
  9
$DIMTOFL
 70
     0
  9
$DIMTVP
 40
0.0
  9
$DIMTIX
 70
     0
  9
$DIMSOXD
 70
     0
  9
$DIMSAH
 70
     0
  9
$DIMBLK1
  1

  9
$DIMBLK2
  1

  9
$DIMSTYLE
  2
Standard
  9
$DIMCLRD
 70
     0
  9
$DIMCLRE
 70
     0
  9
$DIMCLRT
 70
     0
  9
$DIMTFAC
 40
1.0
  9
$DIMGAP
 40
0.5
  9
$DIMJUST
 70
     0
  9
$DIMSD1
 70
     0
  9
$DIMSD2
 70
     0
  9
$DIMTOLJ
 70
     1
  9
$DIMTZIN
 70
     0
  9
$DIMALTZ
 70
     0
  9
$DIMALTTZ
 70
     0
  9
$DIMUPT
 70
     0
  9
$DIMDEC
 70
     3
  9
$DIMTDEC
 70
     4
  9
$DIMALTU
 70
     2
  9
$DIMALTTD
 70
     2
  9
$DIMTXSTY
  7
STANDARD
  9
$DIMAUNIT
 70
     0
  9
$DIMADEC
 70
     0
  9
$DIMALTRND
 40
0.0
  9
$DIMAZIN
 70
     0
  9
$DIMDSEP
 70
     0
  9
$DIMATFIT
 70
     3
  9
$DIMFRAC
 70
     0
  9
$DIMLDRBLK
  1

  9
$DIMLUNIT
 70
     2
  9
$DIMLWD
 70
     0
  9
$DIMLWE
 70
     0
  9
$DIMTMOVE
 70
     0
  9
$LUNITS
 70
     2
  9
$LUPREC
 70
     4
  9
$SKETCHINC
 40
0.1
  9
$FILLETRAD
 40
0.0
  9
$AUNITS
 70
     0
  9
$AUPREC
 70
     0
  9
$MENU
  1
acad
  9
$ELEVATION
 40
0.0
  9
$PELEVATION
 40
0.0
  9
$THICKNESS
 40
0.0
  9
$LIMCHECK
 70
     0
  9
$CHAMFERA
 40
0.0
  9
$CHAMFERB
 40
0.0
  9
$CHAMFERC
 40
0.0
  9
$CHAMFERD
 40
0.0
  9
$SKPOLY
 70
     0
  9
$TDCREATE
 40
2453383.000000000
  9
$TDUCREATE
 40
0.000000000
  9
$TDUPDATE
 40
0.000000000
  9
$TDUUPDATE
 40
2447892.625000000
  9
$TDINDWG
 40
0.0000000000
  9
$TDUSRTIMER
 40
0.0000000000
  9
$USRTIMER
 70
     1
  9
$ANGBASE
 50
0.0
  9
$ANGDIR
 70
     0
  9
$PDMODE
 70
     0
  9
$PDSIZE
 40
0.0
  9
$PLINEWID
 40
0.0
  9
$SPLFRAME
 70
     0
  9
$SPLINETYPE
 70
     6
  9
$SPLINESEGS
 70
     8
  9
$HANDSEED
  5
298
  9
$SURFTAB1
 70
     6
  9
$SURFTAB2
 70
     6
  9
$SURFTYPE
 70
     6
  9
$SURFU
 70
     6
  9
$SURFV
 70
     6
  9
$UCSBASE
  2

  9
$UCSNAME
  2

  9
$UCSORG
 10
0.0
 20
0.0
 30
0.0
  9
$UCSXDIR
 10
1.0
 20
0.0
 30
0.0
  9
$UCSYDIR
 10
0.0
 20
1.0
 30
0.0
  9
$UCSORTHOREF
  2

  9
$UCSORTHOVIEW
 70
     0
  9
$UCSORGTOP
 10
0.0
 20
0.0
 30
0.0
  9
$UCSORGBOTTOM
 10
0.0
 20
0.0
 30
0.0
  9
$UCSORGLEFT
 10
0.0
 20
0.0
 30
0.0
  9
$UCSORGRIGHT
 10
0.0
 20
0.0
 30
0.0
  9
$UCSORGFRONT
 10
0.0
 20
0.0
 30
0.0
  9
$UCSORGBACK
 10
0.0
 20
0.0
 30
0.0
  9
$PUCSBASE
  2

  9
$PUCSNAME
  2

  9
$PUCSORG
 10
0.0
 20
0.0
 30
0.0
  9
$PUCSXDIR
 10
1.0
 20
0.0
 30
0.0
  9
$PUCSYDIR
 10
0.0
 20
1.0
 30
0.0
  9
$PUCSORTHOREF
  2

  9
$PUCSORTHOVIEW
 70
     0
  9
$PUCSORGTOP
 10
0.0
 20
0.0
 30
0.0
  9
$PUCSORGBOTTOM
 10
0.0
 20
0.0
 30
0.0
  9
$PUCSORGLEFT
 10
0.0
 20
0.0
 30
0.0
  9
$PUCSORGRIGHT
 10
0.0
 20
0.0
 30
0.0
  9
$PUCSORGFRONT
 10
0.0
 20
0.0
 30
0.0
  9
$PUCSORGBACK
 10
0.0
 20
0.0
 30
0.0
  9
$USERI1
 70
     0
  9
$USERI2
 70
     0
  9
$USERI3
 70
     0
  9
$USERI4
 70
     0
  9
$USERI5
 70
     0
  9
$USERR1
 40
0.0
  9
$USERR2
 40
0.0
  9
$USERR3
 40
0.0
  9
$USERR4
 40
0.0
  9
$USERR5
 40
0.0
  9
$WORLDVIEW
 70
     1
  9
$SHADEDGE
 70
     3
  9
$SHADEDIF
 70
    70
  9
$TILEMODE
 70
     1
  9
$MAXACTVP
 70
    16
  9
$PINSBASE
 10
0.0
 20
0.0
 30
0.0
  9
$PLIMCHECK
 70
     0
  9
$PEXTMIN
 10
1.000000E+20
 20
1.000000E+20
 30
1.000000E+20
  9
$PEXTMAX
 10
-1.000000E+20
 20
-1.000000E+20
 30
-1.000000E+20
  9
$PLIMMIN
 10
0.0
 20
0.0
  9
$PLIMMAX
 10
12.0
 20
9.0
  9
$UNITMODE
 70
     0
  9
$VISRETAIN
 70
     0
  9
$PLINEGEN
 70
     1
  9
$PSLTSCALE
 70
     0
  9
$TREEDEPTH
 70
  3020
  9
$CMLSTYLE
  2
Standard
  9
$CMLJUST
 70
     0
  9
$CMLSCALE
 40
1.0
  9
$PROXYGRAPHICS
 70
     0
  9
$MEASUREMENT
 70
     0
  9
$CELWEIGHT
370
     0
  9
$ENDCAPS
280
     0
  9
$JOINSTYLE
280
     0
  9
$LWDISPLAY
290
     0
  9
$INSUNITS
 70
     0
  9
$HYPERLINKBASE
  1

  9
$STYLESHEET
  1

  9
$XEDIT
290
     1
  9
$CEPSNTYPE
380
     0
  9
$PSTYLEMODE
290
     1
  9
$FINGERPRINTGUID
  2

  9
$VERSIONGUID
  2

  9
$EXTNAMES
290
     1
  9
$PSVPSCALE
 40
0.0
  0
ENDSEC
  0
SECTION
  2
CLASSES
  0
CLASS
  1
LWPOLYLINE
  2
AcDbPolyline
  3
AutoCAD 2000
 90
        0
280
     0
281
     1
  0
CLASS
  1
IMAGE
  2
AcDbRasterImage
  3
ISM
 90
      127
280
     0
281
     1
  0
CLASS
  1
OLE2FRAME
  2
AcDbOle2Frame
  3
AutoCAD 2000
 90
        0
280
     0
281
     1
  0
CLASS
  1
HATCH
  2
AcDbHatch
  3
AutoCAD 2000
 90
        0
280
     0
281
     1
  0
CLASS
  1
DICTIONARYVAR
  2
AcDbDictionaryVar
  3
AutoCAD 2000
 90
        0
280
     0
281
     0
  0
CLASS
  1
RASTERVARIABLES
  2
AcDbRasterVariables
  3
ISM
 90
        0
280
     0
281
     0
  0
CLASS
  1
IMAGEDEF
  2
AcDbRasterImageDef
  3
ISM
 90
        0
280
     0
281
     0
  0
CLASS
  1
IMAGEDEF_REACTOR
  2
AcDbRasterImageDefReactor
  3
ISM
 90
        1
280
     0
281
     0
  0
CLASS
  1
IDBUFFER
  2
AcDbIdBuffer
  3
AutoCAD 2000
 90
        0
280
     0
281
     0
  0
CLASS
  1
SPATIAL_FILTER
  2
AcDbSpatialFilter
  3
AutoCAD 2000
 90
        0
280
     0
281
     0
  0
CLASS
  1
XRECORD
  2
AcDbXrecord
  3
AutoCAD 2000
 90
        0
280
     0
281
     0
  0
CLASS
  1
SORTENTSTABLE
  2
AcDbSortentsTable
  3
AutoCAD 2000
 90
        0
280
     0
281
     0
  0
CLASS
  1
LAYER_INDEX
  2
AcDbLayerIndex
  3
AutoCAD 2000
 90
        0
280
     0
281
     0
  0
CLASS
  1
SPATIAL_INDEX
  2
AcDbSpatialIndex
  3
AutoCAD 2000
 90
        0
280
     0
281
     0
  0
CLASS
  1
OBJECT_PTR
  2
CAseDLPNTableRecord
  3
"ASE-LPNTableRecord"
 90
        1
280
     0
281
     0
  0
CLASS
  1
LAYOUT
  2
AcDbLayout
  3
AutoCAD 2000
 90
        0
280
     0
281
     0
  0
CLASS
  1
PLOTSETTINGS
  2
AcDbPlotSettings
  3
AutoCAD 2000
 90
        0
280
     0
281
     0
  0
CLASS
  1
ACDBDICTIONARYWDFLT
  2
AcDbDictionaryWithDefault
  3
AutoCAD 2000
 90
        0
280
     0
281
     0
  0
CLASS
  1
ACDBPLACEHOLDER
  2
AcDbPlaceHolder
  3
AutoCAD 2000
 90
        0
280
     0
281
     0
  0
CLASS
  1
VBA_PROJECT
  2
AcDbVbaProject
  3
acadvba
 90
        0
280
     0
281
     0
  0
CLASS
  1
WIPEOUT
  2
AcDbWipeout
  3
WipeOut|AutoCAD Express Tool|expresstools@autodesk.com
 90
      127
280
     0
281
     1
  0
CLASS
  1
WIPEOUTVARIABLES
  2
AcDbWipeoutVariables
  3
WipeOut|AutoCAD Express Tool|expresstools@autodesk.com
 90
        0
280
     0
281
     0
  0
CLASS
  1
RTEXT
  2
RText
  3
RText|AutoCAD Express Tool|expresstools@autodesk.com
 90
        0
280
     0
281
     1
  0
CLASS
  1
ARCALIGNEDTEXT
  2
AcDbArcAlignedText
  3
ATEXT|AutoCAD Express Tool|expresstools@autodesk.com
 90
        0
280
     0
281
     1
  0
ENDSEC
  0
SECTION
  2
TABLES
  0
TABLE
  2
VPORT
  5
6
100
AcDbSymbolTable
 70
     1
  0
VPORT
  5
19
100
AcDbSymbolTableRecord
100
AcDbViewportTableRecord
  2
*ACTIVE
 70
     0
 10
0.0
 20
0.0
 11
1.0
 21
1.0
 12
0.0
 22
0.0
 13
0.0
 23
0.0
 14
1.0
 24
1.0
 15
0.0
 25
0.0
 16
0.0
 26
0.0
 36
1.0
 17
0.0
 27
0.0
 37
0.0
 40
1188.0
 41
1.415825
 42
50.0
 43
0.0
 44
0.0
 50
0.0
 51
0.0
 71
     0
 72
   500
 73
     1
 74
     1
 75
     0
 76
     0
 77
     0
 78
     0
281
     0
 65
     0
110
0.0
120
0.0
130
0.0
111
1.0
121
0.0
131
0.0
112
0.0
122
1.0
132
0.0
345
0
346
0
 79
     0
146
0.0
  0
ENDTAB
  0
TABLE
  2
LTYPE
  5
3
100
AcDbSymbolTable
 70
     9
  0
LTYPE
  5
C
100
AcDbSymbolTableRecord
100
AcDbLinetypeTableRecord
  2
ByBlock
 70
    64
  3

 72
    65
 73
     0
 40
0.0
  0
LTYPE
  5
D
100
AcDbSymbolTableRecord
100
AcDbLinetypeTableRecord
  2
ByLayer
 70
    64
  3

 72
    65
 73
     0
 40
0.0
  0
LTYPE
  5
E
100
AcDbSymbolTableRecord
100
AcDbLinetypeTableRecord
  2
CONTINUOUS
 70
     0
  3
Solid line
 72
    65
 73
     0
 40
0.0
  0
LTYPE
  5
F
100
AcDbSymbolTableRecord
100
AcDbLinetypeTableRecord
  2
DASHED
 70
     0
  3
__ __ __ __ __ __ __ __ __ __ __ __ __ __ __
 72
    65
 73
     2
 40
2.0
 49
1.2
 74
     0
 49
-0.8
 74
     0
  0
LTYPE
  5
10
100
AcDbSymbolTableRecord
100
AcDbLinetypeTableRecord
  2
CENTER
 70
     0
  3
____ _ ____ _ ____ _ ____ _ ____ _ ____ _ ____
 72
    65
 73
     4
 40
12.0
 49
9.0
 74
     0
 49
-1.0
 74
     0
 49
1.0
 74
     0
 49
-1.0
 74
     0
  0
LTYPE
  5
11
100
AcDbSymbolTableRecord
100
AcDbLinetypeTableRecord
  2
HIDDEN
 70
     0
  3
_ _ _ _ _ _ _ _ _ _ _ _ _ _ _ _ _ _ _ _ _ _ _
 72
    65
 73
     2
 40
3.2
 49
2.4
 74
     0
 49
-0.8
 74
     0
  0
LTYPE
  5
12
100
AcDbSymbolTableRecord
100
AcDbLinetypeTableRecord
  2
PHANTOM
 70
     0
  3
_____ _ _ _____ _ _ _____ _ _ _____ _ _ _____
 72
    65
 73
     6
 40
13.5
 49
9.0
 74
     0
 49
-1.0
 74
     0
 49
1.0
 74
     0
 49
-0.5
 74
     0
 49
1.0
 74
     0
 49
-1.0
 74
     0
  0
LTYPE
  5
13
100
AcDbSymbolTableRecord
100
AcDbLinetypeTableRecord
  2
DOT
 70
     0
  3
...............................................
 72
    65
 73
     2
 40
1.0
 49
0.5
 74
     0
 49
-0.5
 74
     0
  0
LTYPE
  5
14
100
AcDbSymbolTableRecord
100
AcDbLinetypeTableRecord
  2
DASHDOT
 70
     0
  3
__ . __ . __ . __ . __ . __ . __ . __ . __ . __
 72
    65
 73
     4
 40
8.0
 49
5.0
 74
     0
 49
-1.0
 74
     0
 49
1.0
 74
     0
 49
-1.0
 74
     0
  0
ENDTAB
  0
TABLE
  2
LAYER
  5
1
100
AcDbSymbolTable
 70
     4
  0
LAYER
  5
15
100
AcDbSymbolTableRecord
100
AcDbLayerTableRecord
  2
0
 70
     0
 62
     7
  6
CONTINUOUS
290
     1
370
    -3
390
0
  0
LAYER
  5
16
100
AcDbSymbolTableRecord
100
AcDbLayerTableRecord
  2
1
 70
     0
 62
     7
  6
CONTINUOUS
290
     1
370
    -3
390
0
  0
LAYER
  5
17
100
AcDbSymbolTableRecord
100
AcDbLayerTableRecord
  2
2
 70
     0
 62
     7
  6
CONTINUOUS
290
     1
370
    -3
390
0
  0
LAYER
  5
18
100
AcDbSymbolTableRecord
100
AcDbLayerTableRecord
  2
3
 70
     0
 62
     7
  6
CONTINUOUS
290
     1
370
    -3
390
0
  0
ENDTAB
  0
TABLE
  2
STYLE
  5
2
100
AcDbSymbolTable
 70
     1
  0
STYLE
  5
1B
100
AcDbSymbolTableRecord
100
AcDbTextStyleTableRecord
  2
STANDARD
 70
    64
 40
0.0
 41
1.0
 50
0.0
 71
     0
 42
1.0
  3
txt
  4
BIGFONT
  0
ENDTAB
  0
TABLE
  2
VIEW
  5
4
100
AcDbSymbolTable
 70
     0
  0
ENDTAB
  0
TABLE
  2
UCS
  5
5
100
AcDbSymbolTable
 70
     0
  0
ENDTAB
  0
TABLE
  2
APPID
  5
7
100
AcDbSymbolTable
 70
     1
  0
APPID
  5
1A
100
AcDbSymbolTableRecord
100
AcDbRegAppTableRecord
  2
ACAD
 70
     0
  0
ENDTAB
  0
TABLE
  2
DIMSTYLE
  5
8
100
AcDbSymbolTable
 70
     1
100
AcDbDimStyleTable
 71
     0
  0
DIMSTYLE
105
2E
100
AcDbSymbolTableRecord
100
AcDbDimStyleTableRecord
  2
Standard
 70
     0
  3

  4

 40
2.0
 41
2.0
 42
1.0
 43
0.38
 44
2.0
 45
0.0
 46
0.0
 47
0.0
 48
0.0
 71
     0
 72
     0
 73
     0
 74
     0
 75
     0
 76
     0
 77
     1
 78
     0
 79
     0
140
3.5
141
0.09
142
0.0
143
25.4
144
1.0
145
0.0
146
1.0
147
0.5
148
0.0
170
     0
171
     2
172
     0
173
     0
174
     0
175
     0
176
     0
177
     0
178
     0
179
     0
271
     3
272
     4
273
     2
274
     2
275
     0
276
     0
277
     2
278
    46
279
     0
280
     0
281
     0
282
     0
283
     1
284
     0
285
     0
286
     0
288
     0
289
     3
340
1B
341
0
342
0
343
0
344
0
371
    -2
372
    -2
  0
ENDTAB
  0
TABLE
  2
BLOCK_RECORD
  5
29
100
AcDbSymbolTable
 70
    11
  0
BLOCK_RECORD
  5
27
100
AcDbSymbolTableRecord
100
AcDbBlockTableRecord
  2
*Model_Space
340
0
  0
BLOCK_RECORD
  5
28
100
AcDbSymbolTableRecord
100
AcDbBlockTableRecord
  2
*Paper_Space
340
0
  0
BLOCK_RECORD
  5
1C
100
AcDbSymbolTableRecord
100
AcDbBlockTableRecord
  2
*D0
340
0
  0
BLOCK_RECORD
  5
1D
100
AcDbSymbolTableRecord
100
AcDbBlockTableRecord
  2
*D1
340
0
  0
BLOCK_RECORD
  5
1E
100
AcDbSymbolTableRecord
100
AcDbBlockTableRecord
  2
*D2
340
0
  0
BLOCK_RECORD
  5
1F
100
AcDbSymbolTableRecord
100
AcDbBlockTableRecord
  2
*D3
340
0
  0
BLOCK_RECORD
  5
20
100
AcDbSymbolTableRecord
100
AcDbBlockTableRecord
  2
*D4
340
0
  0
BLOCK_RECORD
  5
21
100
AcDbSymbolTableRecord
100
AcDbBlockTableRecord
  2
*D5
340
0
  0
BLOCK_RECORD
  5
22
100
AcDbSymbolTableRecord
100
AcDbBlockTableRecord
  2
*D6
340
0
  0
BLOCK_RECORD
  5
23
100
AcDbSymbolTableRecord
100
AcDbBlockTableRecord
  2
*D7
340
0
  0
BLOCK_RECORD
  5
24
100
AcDbSymbolTableRecord
100
AcDbBlockTableRecord
  2
*D8
340
0
  0
BLOCK_RECORD
  5
25
100
AcDbSymbolTableRecord
100
AcDbBlockTableRecord
  2
*D9
340
0
  0
BLOCK_RECORD
  5
26
100
AcDbSymbolTableRecord
100
AcDbBlockTableRecord
  2
*D10
340
0
  0
ENDTAB
  0
ENDSEC
  0
SECTION
  2
BLOCKS
  0
BLOCK
  5
2A
100
AcDbEntity
  8
0
390
0
100
AcDbBlockBegin
  2
*Model_Space
 70
     0
 10
0.0
 20
0.0
 30
0.0
  3
*Model_Space
  1

  0
ENDBLK
  5
2B
100
AcDbEntity
  8
0
390
0
100
AcDbBlockEnd
  0
BLOCK
  5
2C
100
AcDbEntity
 67
     1
  8
0
390
0
100
AcDbBlockBegin
  2
*Paper_Space
 70
     0
 10
0.0
 20
0.0
 30
0.0
  3
*Paper_Space
  1

  0
ENDBLK
  5
2D
100
AcDbEntity
 67
     1
  8
0
390
0
100
AcDbBlockEnd
  0
BLOCK
  5
215
100
AcDbEntity
  8
3
100
AcDbBlockBegin
  2
*D0
 70
     1
 10
0.0
 20
0.0
 30
0.0
  3
*D0
  1

  0
TEXT
  5
216
100
AcDbEntity
  8
3
370
    25
100
AcDbText
 10
147.882524
 20
-131.504763
 30
0.0
 40
7.0
  1
１７０
 72
     5
 11
167.482524
 21
-131.504763
 31
0.0
100
AcDbText
  0
LINE
  5
217
100
AcDbEntity
  8
3
370
    25
100
AcDbLine
 10
73.382524
 20
-109.414201
 30
0.0
 11
73.382524
 21
-134.504763
 31
0.0
  0
LINE
  5
218
100
AcDbEntity
  8
3
370
    25
100
AcDbLine
 10
73.382524
 20
-132.504763
 30
0.0
 11
77.246227
 21
-133.540039
 31
0.0
  0
LINE
  5
219
100
AcDbEntity
  8
3
370
    25
100
AcDbLine
 10
73.382524
 20
-132.504763
 30
0.0
 11
77.246227
 21
-131.469486
 31
0.0
  0
LINE
  5
21A
100
AcDbEntity
  8
3
370
    25
100
AcDbLine
 10
77.246227
 20
-133.540039
 30
0.0
 11
77.246227
 21
-131.469486
 31
0.0
  0
LINE
  5
21B
100
AcDbEntity
  8
3
370
    25
100
AcDbLine
 10
73.382524
 20
-132.504763
 30
0.0
 11
243.382524
 21
-132.504763
 31
0.0
  0
LINE
  5
21C
100
AcDbEntity
  8
3
370
    25
100
AcDbLine
 10
243.382524
 20
-132.504763
 30
0.0
 11
239.518821
 21
-131.469486
 31
0.0
  0
LINE
  5
21D
100
AcDbEntity
  8
3
370
    25
100
AcDbLine
 10
243.382524
 20
-132.504763
 30
0.0
 11
239.518821
 21
-133.540039
 31
0.0
  0
LINE
  5
21E
100
AcDbEntity
  8
3
370
    25
100
AcDbLine
 10
239.518821
 20
-131.469486
 30
0.0
 11
239.518821
 21
-133.540039
 31
0.0
  0
LINE
  5
21F
100
AcDbEntity
  8
3
370
    25
100
AcDbLine
 10
243.382524
 20
-71.57863
 30
0.0
 11
243.382524
 21
-134.504763
 31
0.0
  0
ENDBLK
  5
220
100
AcDbEntity
  8
3
100
AcDbBlockEnd
  0
BLOCK
  5
221
100
AcDbEntity
  8
3
100
AcDbBlockBegin
  2
*D1
 70
     1
 10
0.0
 20
0.0
 30
0.0
  3
*D1
  1

  0
LINE
  5
222
100
AcDbEntity
  8
3
370
    25
100
AcDbLine
 10
216.073274
 20
-15.079414
 30
0.0
 11
33.618634
 21
-15.079414
 31
0.0
  0
LINE
  5
223
100
AcDbEntity
  8
3
370
    25
100
AcDbLine
 10
35.618634
 20
-15.079414
 30
0.0
 11
36.65391
 21
-11.215711
 31
0.0
  0
LINE
  5
224
100
AcDbEntity
  8
3
370
    25
100
AcDbLine
 10
35.618634
 20
-15.079414
 30
0.0
 11
34.583358
 21
-11.215711
 31
0.0
  0
LINE
  5
225
100
AcDbEntity
  8
3
370
    25
100
AcDbLine
 10
36.65391
 20
-11.215711
 30
0.0
 11
34.583358
 21
-11.215711
 31
0.0
  0
LINE
  5
226
100
AcDbEntity
  8
3
370
    25
100
AcDbLine
 10
35.618634
 20
-15.079414
 30
0.0
 11
35.618634
 21
130.593088
 31
0.0
  0
LINE
  5
227
100
AcDbEntity
  8
3
370
    25
100
AcDbLine
 10
35.618634
 20
130.593088
 30
0.0
 11
34.583358
 21
126.729384
 31
0.0
  0
LINE
  5
228
100
AcDbEntity
  8
3
370
    25
100
AcDbLine
 10
35.618634
 20
130.593088
 30
0.0
 11
36.65391
 21
126.729384
 31
0.0
  0
LINE
  5
229
100
AcDbEntity
  8
3
370
    25
100
AcDbLine
 10
34.583358
 20
126.729384
 30
0.0
 11
36.65391
 21
126.729384
 31
0.0
  0
LINE
  5
22A
100
AcDbEntity
  8
3
370
    25
100
AcDbLine
 10
178.221932
 20
130.593088
 30
0.0
 11
33.618634
 21
130.593088
 31
0.0
  0
ENDBLK
  5
22B
100
AcDbEntity
  8
3
100
AcDbBlockEnd
  0
BLOCK
  5
22C
100
AcDbEntity
  8
3
100
AcDbBlockBegin
  2
*D2
 70
     1
 10
0.0
 20
0.0
 30
0.0
  3
*D2
  1

  0
LINE
  5
22D
100
AcDbEntity
  8
3
370
    25
100
AcDbLine
 10
216.073274
 20
-15.079414
 30
0.0
 11
64.392166
 21
-15.079414
 31
0.0
  0
LINE
  5
22E
100
AcDbEntity
  8
3
370
    25
100
AcDbLine
 10
66.392166
 20
-15.079414
 30
0.0
 11
67.427442
 21
-11.215711
 31
0.0
  0
LINE
  5
22F
100
AcDbEntity
  8
3
370
    25
100
AcDbLine
 10
66.392166
 20
-15.079414
 30
0.0
 11
65.35689
 21
-11.215711
 31
0.0
  0
LINE
  5
230
100
AcDbEntity
  8
3
370
    25
100
AcDbLine
 10
67.427442
 20
-11.215711
 30
0.0
 11
65.35689
 21
-11.215711
 31
0.0
  0
LINE
  5
231
100
AcDbEntity
  8
3
370
    25
100
AcDbLine
 10
66.392166
 20
-15.079414
 30
0.0
 11
66.392166
 21
88.421255
 31
0.0
  0
LINE
  5
232
100
AcDbEntity
  8
3
370
    25
100
AcDbLine
 10
66.392166
 20
88.421255
 30
0.0
 11
65.35689
 21
84.557552
 31
0.0
  0
LINE
  5
233
100
AcDbEntity
  8
3
370
    25
100
AcDbLine
 10
66.392166
 20
88.421255
 30
0.0
 11
67.427442
 21
84.557552
 31
0.0
  0
LINE
  5
234
100
AcDbEntity
  8
3
370
    25
100
AcDbLine
 10
65.35689
 20
84.557552
 30
0.0
 11
67.427442
 21
84.557552
 31
0.0
  0
LINE
  5
235
100
AcDbEntity
  8
3
370
    25
100
AcDbLine
 10
141.382524
 20
88.421255
 30
0.0
 11
64.392166
 21
88.421255
 31
0.0
  0
ENDBLK
  5
236
100
AcDbEntity
  8
3
100
AcDbBlockEnd
  0
BLOCK
  5
237
100
AcDbEntity
  8
3
100
AcDbBlockBegin
  2
*D3
 70
     1
 10
0.0
 20
0.0
 30
0.0
  3
*D3
  1

  0
LINE
  5
238
100
AcDbEntity
  8
3
370
    25
100
AcDbLine
 10
-277.653549
 20
-59.065709
 30
0.0
 11
-277.653549
 21
-163.809967
 31
0.0
  0
LINE
  5
239
100
AcDbEntity
  8
3
370
    25
100
AcDbLine
 10
-277.653549
 20
-161.809967
 30
0.0
 11
-273.789846
 21
-162.845243
 31
0.0
  0
LINE
  5
23A
100
AcDbEntity
  8
3
370
    25
100
AcDbLine
 10
-277.653549
 20
-161.809967
 30
0.0
 11
-273.789846
 21
-160.774691
 31
0.0
  0
LINE
  5
23B
100
AcDbEntity
  8
3
370
    25
100
AcDbLine
 10
-273.789846
 20
-162.845243
 30
0.0
 11
-273.789846
 21
-160.774691
 31
0.0
  0
LINE
  5
23C
100
AcDbEntity
  8
3
370
    25
100
AcDbLine
 10
-277.653549
 20
-161.809967
 30
0.0
 11
-92.800735
 21
-161.809967
 31
0.0
  0
LINE
  5
23D
100
AcDbEntity
  8
3
370
    25
100
AcDbLine
 10
-92.800735
 20
-161.809967
 30
0.0
 11
-96.664439
 21
-160.774691
 31
0.0
  0
LINE
  5
23E
100
AcDbEntity
  8
3
370
    25
100
AcDbLine
 10
-92.800735
 20
-161.809967
 30
0.0
 11
-96.664439
 21
-162.845243
 31
0.0
  0
LINE
  5
23F
100
AcDbEntity
  8
3
370
    25
100
AcDbLine
 10
-96.664439
 20
-160.774691
 30
0.0
 11
-96.664439
 21
-162.845243
 31
0.0
  0
LINE
  5
240
100
AcDbEntity
  8
3
370
    25
100
AcDbLine
 10
-92.800735
 20
-59.065709
 30
0.0
 11
-92.800735
 21
-163.809967
 31
0.0
  0
ENDBLK
  5
241
100
AcDbEntity
  8
3
100
AcDbBlockEnd
  0
BLOCK
  5
242
100
AcDbEntity
  8
3
100
AcDbBlockBegin
  2
*D4
 70
     1
 10
0.0
 20
0.0
 30
0.0
  3
*D4
  1

  0
LINE
  5
243
100
AcDbEntity
  8
3
370
    25
100
AcDbLine
 10
317.582524
 20
-82.504655
 30
0.0
 11
317.582524
 21
-134.504763
 31
0.0
  0
LINE
  5
244
100
AcDbEntity
  8
3
370
    25
100
AcDbLine
 10
317.582524
 20
-132.504763
 30
0.0
 11
321.446227
 21
-133.540039
 31
0.0
  0
LINE
  5
245
100
AcDbEntity
  8
3
370
    25
100
AcDbLine
 10
317.582524
 20
-132.504763
 30
0.0
 11
321.446227
 21
-131.469486
 31
0.0
  0
LINE
  5
246
100
AcDbEntity
  8
3
370
    25
100
AcDbLine
 10
321.446227
 20
-133.540039
 30
0.0
 11
321.446227
 21
-131.469486
 31
0.0
  0
LINE
  5
247
100
AcDbEntity
  8
3
370
    25
100
AcDbLine
 10
317.582524
 20
-132.504763
 30
0.0
 11
336.582524
 21
-132.504763
 31
0.0
  0
LINE
  5
248
100
AcDbEntity
  8
3
370
    25
100
AcDbLine
 10
336.582524
 20
-132.504763
 30
0.0
 11
332.718821
 21
-131.469486
 31
0.0
  0
LINE
  5
249
100
AcDbEntity
  8
3
370
    25
100
AcDbLine
 10
336.582524
 20
-132.504763
 30
0.0
 11
332.718821
 21
-133.540039
 31
0.0
  0
LINE
  5
24A
100
AcDbEntity
  8
3
370
    25
100
AcDbLine
 10
332.718821
 20
-131.469486
 30
0.0
 11
332.718821
 21
-133.540039
 31
0.0
  0
LINE
  5
24B
100
AcDbEntity
  8
3
370
    25
100
AcDbLine
 10
336.582524
 20
-68.804655
 30
0.0
 11
336.582524
 21
-134.504763
 31
0.0
  0
ENDBLK
  5
24C
100
AcDbEntity
  8
3
100
AcDbBlockEnd
  0
BLOCK
  5
24D
100
AcDbEntity
  8
3
100
AcDbBlockBegin
  2
*D5
 70
     1
 10
0.0
 20
0.0
 30
0.0
  3
*D5
  1

  0
TEXT
  5
24E
100
AcDbEntity
  8
3
370
    25
100
AcDbText
 10
134.232165
 20
111.059026
 30
0.0
 40
7.0
  1
２５゜
 50
77.5
 72
     5
 11
138.474382
 21
130.194428
 31
0.0
100
AcDbText
  0
LINE
  5
24F
100
AcDbEntity
  8
3
370
    25
100
AcDbLine
 10
176.616204
 20
132.274466
 30
0.0
 11
143.386992
 21
147.769502
 31
0.0
  0
LINE
  5
250
100
AcDbEntity
  8
3
370
    25
100
AcDbLine
 10
137.759933
 20
94.421255
 30
0.0
 11
131.55997
 21
94.421255
 31
0.0
  0
LINE
  5
251
100
AcDbEntity
  8
3
370
    25
100
AcDbLine
 10
145.199607
 20
146.924266
 30
0.0
 11
142.676416
 21
143.820477
 31
0.0
  0
LINE
  5
252
100
AcDbEntity
  8
3
370
    25
100
AcDbLine
 10
145.199607
 20
146.924266
 30
0.0
 11
144.566355
 21
142.97471
 31
0.0
  0
LINE
  5
253
100
AcDbEntity
  8
3
370
    25
100
AcDbLine
 10
142.676416
 20
143.820477
 30
0.0
 11
144.566355
 21
142.97471
 31
0.0
  0
LINE
  5
254
100
AcDbEntity
  8
3
370
    25
100
AcDbLine
 10
133.55997
 20
94.421255
 30
0.0
 11
134.655203
 21
98.268393
 31
0.0
  0
LINE
  5
255
100
AcDbEntity
  8
3
370
    25
100
AcDbLine
 10
133.55997
 20
94.421255
 30
0.0
 11
132.584901
 21
98.30059
 31
0.0
  0
LINE
  5
256
100
AcDbEntity
  8
3
370
    25
100
AcDbLine
 10
134.655203
 20
98.268393
 30
0.0
 11
132.584901
 21
98.30059
 31
0.0
  0
ARC
  5
257
100
AcDbEntity
  8
3
370
    25
100
AcDbCircle
 10
257.792677
 20
94.421255
 30
0.0
 40
124.232707
100
AcDbArc
 50
155.0
 51
180.0
  0
ENDBLK
  5
258
100
AcDbEntity
  8
3
100
AcDbBlockEnd
  0
BLOCK
  5
259
100
AcDbEntity
  8
3
100
AcDbBlockBegin
  2
*D6
 70
     1
 10
0.0
 20
0.0
 30
0.0
  3
*D6
  1

  0
TEXT
  5
25A
100
AcDbEntity
  8
3
370
    25
100
AcDbText
 10
-284.851267
 20
-17.341079
 30
0.0
 40
7.0
  1
６０
 50
45.0
 72
     5
 11
-275.941722
 21
-8.431534
 31
0.0
100
AcDbText
  0
LINE
  5
25B
100
AcDbEntity
  8
3
370
    25
100
AcDbLine
 10
-236.641356
 20
-13.225089
 30
0.0
 11
-259.395423
 21
9.528978
 31
0.0
  0
LINE
  5
25C
100
AcDbEntity
  8
3
370
    25
100
AcDbLine
 10
-257.981209
 20
8.114765
 30
0.0
 11
-261.445311
 21
6.114765
 31
0.0
  0
LINE
  5
25D
100
AcDbEntity
  8
3
370
    25
100
AcDbLine
 10
-257.981209
 20
8.114765
 30
0.0
 11
-259.981209
 21
4.650663
 31
0.0
  0
LINE
  5
25E
100
AcDbEntity
  8
3
370
    25
100
AcDbLine
 10
-261.445311
 20
6.114765
 30
0.0
 11
-259.981209
 21
4.650663
 31
0.0
  0
LINE
  5
25F
100
AcDbEntity
  8
3
370
    25
100
AcDbLine
 10
-257.981209
 20
8.114765
 30
0.0
 11
-300.407616
 21
-34.311642
 31
0.0
  0
LINE
  5
260
100
AcDbEntity
  8
3
370
    25
100
AcDbLine
 10
-300.407616
 20
-34.311642
 30
0.0
 11
-296.943515
 21
-32.311642
 31
0.0
  0
LINE
  5
261
100
AcDbEntity
  8
3
370
    25
100
AcDbLine
 10
-300.407616
 20
-34.311642
 30
0.0
 11
-298.407616
 21
-30.847541
 31
0.0
  0
LINE
  5
262
100
AcDbEntity
  8
3
370
    25
100
AcDbLine
 10
-296.943515
 20
-32.311642
 30
0.0
 11
-298.407616
 21
-30.847541
 31
0.0
  0
LINE
  5
263
100
AcDbEntity
  8
3
370
    25
100
AcDbLine
 10
-279.067763
 20
-55.651496
 30
0.0
 11
-301.82183
 21
-32.897429
 31
0.0
  0
ENDBLK
  5
264
100
AcDbEntity
  8
3
100
AcDbBlockEnd
  0
BLOCK
  5
265
100
AcDbEntity
  8
3
100
AcDbBlockBegin
  2
*D7
 70
     1
 10
0.0
 20
0.0
 30
0.0
  3
*D7
  1

  0
TEXT
  5
266
100
AcDbEntity
  8
3
370
    25
100
AcDbText
 10
356.933197
 20
-68.004655
 30
0.0
 40
7.0
  1
φ４６
 50
90.0
 72
     5
 11
356.933197
 21
-48.404655
 31
0.0
100
AcDbText
  0
LINE
  5
267
100
AcDbEntity
  8
3
370
    25
100
AcDbLine
 10
319.582524
 20
-80.504655
 30
0.0
 11
359.933197
 21
-80.504655
 31
0.0
  0
LINE
  5
268
100
AcDbEntity
  8
3
370
    25
100
AcDbLine
 10
357.933197
 20
-80.504655
 30
0.0
 11
358.968473
 21
-76.640952
 31
0.0
  0
LINE
  5
269
100
AcDbEntity
  8
3
370
    25
100
AcDbLine
 10
357.933197
 20
-80.504655
 30
0.0
 11
356.897921
 21
-76.640952
 31
0.0
  0
LINE
  5
26A
100
AcDbEntity
  8
3
370
    25
100
AcDbLine
 10
358.968473
 20
-76.640952
 30
0.0
 11
356.897921
 21
-76.640952
 31
0.0
  0
LINE
  5
26B
100
AcDbEntity
  8
3
370
    25
100
AcDbLine
 10
357.933197
 20
-80.504655
 30
0.0
 11
357.933197
 21
-34.504655
 31
0.0
  0
LINE
  5
26C
100
AcDbEntity
  8
3
370
    25
100
AcDbLine
 10
357.933197
 20
-34.504655
 30
0.0
 11
356.897921
 21
-38.368358
 31
0.0
  0
LINE
  5
26D
100
AcDbEntity
  8
3
370
    25
100
AcDbLine
 10
357.933197
 20
-34.504655
 30
0.0
 11
358.968473
 21
-38.368358
 31
0.0
  0
LINE
  5
26E
100
AcDbEntity
  8
3
370
    25
100
AcDbLine
 10
356.897921
 20
-38.368358
 30
0.0
 11
358.968473
 21
-38.368358
 31
0.0
  0
LINE
  5
26F
100
AcDbEntity
  8
3
370
    25
100
AcDbLine
 10
319.582524
 20
-34.504655
 30
0.0
 11
359.933197
 21
-34.504655
 31
0.0
  0
ENDBLK
  5
270
100
AcDbEntity
  8
3
100
AcDbBlockEnd
  0
BLOCK
  5
271
100
AcDbEntity
  8
3
100
AcDbBlockBegin
  2
*D8
 70
     1
 10
0.0
 20
0.0
 30
0.0
  3
*D8
  1

  0
LINE
  5
272
100
AcDbEntity
  8
3
370
    25
100
AcDbLine
 10
243.382524
 20
-71.57863
 30
0.0
 11
243.382524
 21
-134.504763
 31
0.0
  0
LINE
  5
273
100
AcDbEntity
  8
3
370
    25
100
AcDbLine
 10
243.382524
 20
-132.504763
 30
0.0
 11
247.246227
 21
-133.540039
 31
0.0
  0
LINE
  5
274
100
AcDbEntity
  8
3
370
    25
100
AcDbLine
 10
243.382524
 20
-132.504763
 30
0.0
 11
247.246227
 21
-131.469486
 31
0.0
  0
LINE
  5
275
100
AcDbEntity
  8
3
370
    25
100
AcDbLine
 10
247.246227
 20
-133.540039
 30
0.0
 11
247.246227
 21
-131.469486
 31
0.0
  0
LINE
  5
276
100
AcDbEntity
  8
3
370
    25
100
AcDbLine
 10
243.382524
 20
-132.504763
 30
0.0
 11
317.582524
 21
-132.504763
 31
0.0
  0
LINE
  5
277
100
AcDbEntity
  8
3
370
    25
100
AcDbLine
 10
317.582524
 20
-132.504763
 30
0.0
 11
313.718821
 21
-131.469486
 31
0.0
  0
LINE
  5
278
100
AcDbEntity
  8
3
370
    25
100
AcDbLine
 10
317.582524
 20
-132.504763
 30
0.0
 11
313.718821
 21
-133.540039
 31
0.0
  0
LINE
  5
279
100
AcDbEntity
  8
3
370
    25
100
AcDbLine
 10
313.718821
 20
-131.469486
 30
0.0
 11
313.718821
 21
-133.540039
 31
0.0
  0
LINE
  5
27A
100
AcDbEntity
  8
3
370
    25
100
AcDbLine
 10
317.582524
 20
-82.504655
 30
0.0
 11
317.582524
 21
-134.504763
 31
0.0
  0
ENDBLK
  5
27B
100
AcDbEntity
  8
3
100
AcDbBlockEnd
  0
BLOCK
  5
27C
100
AcDbEntity
  8
3
100
AcDbBlockBegin
  2
*D9
 70
     1
 10
0.0
 20
0.0
 30
0.0
  3
*D9
  1

  0
LINE
  5
27D
100
AcDbEntity
  8
3
370
    25
100
AcDbLine
 10
61.059557
 20
-106.17863
 30
0.0
 11
33.618634
 21
-106.17863
 31
0.0
  0
LINE
  5
27E
100
AcDbEntity
  8
3
370
    25
100
AcDbLine
 10
35.618634
 20
-106.17863
 30
0.0
 11
36.65391
 21
-102.314926
 31
0.0
  0
LINE
  5
27F
100
AcDbEntity
  8
3
370
    25
100
AcDbLine
 10
35.618634
 20
-106.17863
 30
0.0
 11
34.583358
 21
-102.314926
 31
0.0
  0
LINE
  5
280
100
AcDbEntity
  8
3
370
    25
100
AcDbLine
 10
36.65391
 20
-102.314926
 30
0.0
 11
34.583358
 21
-102.314926
 31
0.0
  0
LINE
  5
281
100
AcDbEntity
  8
3
370
    25
100
AcDbLine
 10
35.618634
 20
-106.17863
 30
0.0
 11
35.618634
 21
-15.078248
 31
0.0
  0
LINE
  5
282
100
AcDbEntity
  8
3
370
    25
100
AcDbLine
 10
35.618634
 20
-15.078248
 30
0.0
 11
34.583358
 21
-18.941951
 31
0.0
  0
LINE
  5
283
100
AcDbEntity
  8
3
370
    25
100
AcDbLine
 10
35.618634
 20
-15.078248
 30
0.0
 11
36.65391
 21
-18.941951
 31
0.0
  0
LINE
  5
284
100
AcDbEntity
  8
3
370
    25
100
AcDbLine
 10
34.583358
 20
-18.941951
 30
0.0
 11
36.65391
 21
-18.941951
 31
0.0
  0
LINE
  5
285
100
AcDbEntity
  8
3
370
    25
100
AcDbLine
 10
216.626589
 20
-15.078248
 30
0.0
 11
33.618634
 21
-15.078248
 31
0.0
  0
ENDBLK
  5
286
100
AcDbEntity
  8
3
100
AcDbBlockEnd
  0
BLOCK
  5
287
100
AcDbEntity
  8
3
100
AcDbBlockBegin
  2
*D10
 70
     1
 10
0.0
 20
0.0
 30
0.0
  3
*D10
  1

  0
TEXT
  5
288
100
AcDbEntity
  8
3
370
    25
100
AcDbText
 10
-195.727142
 20
-134.862412
 30
0.0
 40
7.0
  1
１００
 72
     5
 11
-176.127142
 21
-134.862412
 31
0.0
100
AcDbText
  0
LINE
  5
289
100
AcDbEntity
  8
3
370
    25
100
AcDbLine
 10
-235.227142
 20
-16.639303
 30
0.0
 11
-235.227142
 21
-137.862412
 31
0.0
  0
LINE
  5
28A
100
AcDbEntity
  8
3
370
    25
100
AcDbLine
 10
-235.227142
 20
-135.862412
 30
0.0
 11
-231.363439
 21
-136.897688
 31
0.0
  0
LINE
  5
28B
100
AcDbEntity
  8
3
370
    25
100
AcDbLine
 10
-235.227142
 20
-135.862412
 30
0.0
 11
-231.363439
 21
-134.827135
 31
0.0
  0
LINE
  5
28C
100
AcDbEntity
  8
3
370
    25
100
AcDbLine
 10
-231.363439
 20
-136.897688
 30
0.0
 11
-231.363439
 21
-134.827135
 31
0.0
  0
LINE
  5
28D
100
AcDbEntity
  8
3
370
    25
100
AcDbLine
 10
-235.227142
 20
-135.862412
 30
0.0
 11
-135.227142
 21
-135.862412
 31
0.0
  0
LINE
  5
28E
100
AcDbEntity
  8
3
370
    25
100
AcDbLine
 10
-135.227142
 20
-135.862412
 30
0.0
 11
-139.090845
 21
-134.827135
 31
0.0
  0
LINE
  5
28F
100
AcDbEntity
  8
3
370
    25
100
AcDbLine
 10
-135.227142
 20
-135.862412
 30
0.0
 11
-139.090845
 21
-136.897688
 31
0.0
  0
LINE
  5
290
100
AcDbEntity
  8
3
370
    25
100
AcDbLine
 10
-139.090845
 20
-134.827135
 30
0.0
 11
-139.090845
 21
-136.897688
 31
0.0
  0
LINE
  5
291
100
AcDbEntity
  8
3
370
    25
100
AcDbLine
 10
-135.227142
 20
-16.639303
 30
0.0
 11
-135.227142
 21
-137.862412
 31
0.0
  0
ENDBLK
  5
292
100
AcDbEntity
  8
3
100
AcDbBlockEnd
  0
ENDSEC
  0
SECTION
  2
ENTITIES
  0
LINE
  5
2F
100
AcDbEntity
  8
1
370
   100
100
AcDbLine
 10
-373.02157
 20
275.028767
 30
0.0
 11
394.982385
 21
275.028767
 31
0.0
  0
LINE
  5
30
100
AcDbEntity
  8
1
370
   100
100
AcDbLine
 10
-373.02157
 20
275.028767
 30
0.0
 11
-373.02157
 21
-277.971881
 31
0.0
  0
LINE
  5
31
100
AcDbEntity
  8
1
370
   100
100
AcDbLine
 10
-373.02157
 20
-277.971881
 30
0.0
 11
394.982385
 21
-277.971881
 31
0.0
  0
LINE
  5
32
100
AcDbEntity
  8
1
370
   100
100
AcDbLine
 10
394.982385
 20
-277.971881
 30
0.0
 11
394.982385
 21
275.028767
 31
0.0
  0
TEXT
  5
33
100
AcDbEntity
  8
1
370
    50
100
AcDbText
 10
359.628442
 20
-226.252857
 30
0.0
 40
6.0
  1
設計
 72
     5
 11
370.428442
 21
-226.252857
 31
0.0
100
AcDbText
  0
TEXT
  5
34
100
AcDbEntity
  8
1
370
    50
100
AcDbText
 10
379.127478
 20
-226.099658
 30
0.0
 40
6.0
  1
製図
 72
     5
 11
389.927478
 21
-226.099658
 31
0.0
100
AcDbText
  0
TEXT
  5
35
100
AcDbEntity
  8
1
370
    50
100
AcDbText
 10
319.005745
 20
-226.252857
 30
0.0
 40
6.0
  1
承認
 72
     5
 11
329.805745
 21
-226.252857
 31
0.0
100
AcDbText
  0
TEXT
  5
36
100
AcDbEntity
  8
1
370
    50
100
AcDbText
 10
338.989679
 20
-226.19802
 30
0.0
 40
6.0
  1
検図
 72
     5
 11
349.789679
 21
-226.19802
 31
0.0
100
AcDbText
  0
LINE
  5
37
100
AcDbEntity
  8
1
370
    25
100
AcDbLine
 10
284.982385
 20
-227.971881
 30
0.0
 11
394.982385
 21
-227.971881
 31
0.0
  0
LINE
  5
38
100
AcDbEntity
  8
1
370
    25
100
AcDbLine
 10
342.482385
 20
-245.971881
 30
0.0
 11
342.482385
 21
-259.971881
 31
0.0
  0
TEXT
  5
39
100
AcDbEntity
  8
1
370
    50
100
AcDbText
 10
319.55159
 20
-256.012528
 30
0.0
 40
6.0
  1
日　付
 72
     5
 11
336.35159
 21
-256.012528
 31
0.0
100
AcDbText
  0
LINE
  5
3A
100
AcDbEntity
  8
1
370
    50
100
AcDbLine
 10
40.982385
 20
-259.971881
 30
0.0
 11
394.982385
 21
-259.971881
 31
0.0
  0
TEXT
  5
3B
100
AcDbEntity
  8
1
370
    50
100
AcDbText
 10
287.775011
 20
-256.322406
 30
0.0
 40
6.0
  1
第三角法
 72
     5
 11
310.575011
 21
-256.322406
 31
0.0
100
AcDbText
  0
TEXT
  5
3C
100
AcDbEntity
  8
1
370
    50
100
AcDbText
 10
291.087419
 20
-225.99802
 30
0.0
 40
6.0
  1
尺　度
 72
     5
 11
307.887419
 21
-225.99802
 31
0.0
100
AcDbText
  0
LINE
  5
3D
100
AcDbEntity
  8
1
370
   100
100
AcDbLine
 10
40.982385
 20
-217.971881
 30
0.0
 11
394.982385
 21
-217.971881
 31
0.0
  0
LINE
  5
3E
100
AcDbEntity
  8
1
370
    50
100
AcDbLine
 10
211.982385
 20
-217.971881
 30
0.0
 11
211.982385
 21
-277.971881
 31
0.0
  0
LINE
  5
3F
100
AcDbEntity
  8
1
370
    25
100
AcDbLine
 10
374.982385
 20
-245.971881
 30
0.0
 11
374.982385
 21
-217.971881
 31
0.0
  0
LINE
  5
40
100
AcDbEntity
  8
1
370
    25
100
AcDbLine
 10
354.982385
 20
-245.971881
 30
0.0
 11
354.982385
 21
-217.971881
 31
0.0
  0
LINE
  5
41
100
AcDbEntity
  8
1
370
    25
100
AcDbLine
 10
334.982385
 20
-245.971881
 30
0.0
 11
334.982385
 21
-217.971881
 31
0.0
  0
LINE
  5
42
100
AcDbEntity
  8
1
370
    50
100
AcDbLine
 10
284.982385
 20
-277.971881
 30
0.0
 11
284.982385
 21
-217.971881
 31
0.0
  0
LINE
  5
43
100
AcDbEntity
  8
1
370
    50
100
AcDbLine
 10
189.982385
 20
-217.971881
 30
0.0
 11
189.982385
 21
-277.971881
 31
0.0
  0
LINE
  5
44
100
AcDbEntity
  8
1
370
    50
100
AcDbLine
 10
62.982385
 20
-217.971881
 30
0.0
 11
62.982385
 21
-259.971881
 31
0.0
  0
LINE
  5
45
100
AcDbEntity
  8
1
370
    50
100
AcDbLine
 10
284.982385
 20
-245.971881
 30
0.0
 11
394.982385
 21
-245.971881
 31
0.0
  0
TEXT
  5
46
100
AcDbEntity
  8
1
370
    50
100
AcDbText
 10
287.101129
 20
-271.880939
 30
0.0
 40
6.0
  1
コードＮｏ
 41
0.9
 72
     5
 11
313.021129
 21
-271.880939
 31
0.0
100
AcDbText
  0
TEXT
  5
47
100
AcDbEntity
  8
1
370
   100
100
AcDbText
 10
52.886774
 20
-272.875659
 30
0.0
 40
8.0
  1
ミズタニバルブ工業株式会社
 41
1.2
 72
     5
 11
175.766774
 21
-272.875659
 31
0.0
100
AcDbText
  0
LINE
  5
48
100
AcDbEntity
  8
1
370
    50
100
AcDbLine
 10
40.982385
 20
-238.971881
 30
0.0
 11
284.982385
 21
-238.971881
 31
0.0
  0
LINE
  5
49
100
AcDbEntity
  8
1
370
    50
100
AcDbLine
 10
115.482385
 20
-238.971881
 30
0.0
 11
115.482385
 21
-259.971881
 31
0.0
  0
LINE
  5
4A
100
AcDbEntity
  8
1
370
    50
100
AcDbLine
 10
137.482385
 20
-238.971881
 30
0.0
 11
137.482385
 21
-259.971881
 31
0.0
  0
LINE
  5
4B
100
AcDbEntity
  8
1
370
    50
100
AcDbLine
 10
314.982385
 20
-277.971881
 30
0.0
 11
314.982385
 21
-217.971881
 31
0.0
  0
TEXT
  5
4C
100
AcDbEntity
  8
1
370
    50
100
AcDbText
 10
345.098131
 20
-256.100293
 30
0.0
 40
6.0
  1
　　・　　・
 72
     5
 11
379.898131
 21
-256.100293
 31
0.0
100
AcDbText
  0
LINE
  5
4D
100
AcDbEntity
  8
1
370
   100
100
AcDbLine
 10
40.982385
 20
-217.971881
 30
0.0
 11
40.982385
 21
-277.971881
 31
0.0
  0
TEXT
  5
4E
100
AcDbEntity
  8
1
370
    50
100
AcDbText
 10
290.832582
 20
-240.013492
 30
0.0
 40
6.0
  1
　／ 
 72
     5
 11
301.632582
 21
-240.013492
 31
0.0
100
AcDbText
  0
TEXT
  5
4F
100
AcDbEntity
  8
1
370
    50
100
AcDbText
 10
193.904123
 20
-272.024909
 30
0.0
 40
6.0
  1
備 考 
 72
     5
 11
207.704123
 21
-272.024909
 31
0.0
100
AcDbText
  0
TEXT
  5
50
100
AcDbEntity
  8
1
370
    50
100
AcDbText
 10
193.512534
 20
-230.89184
 30
0.0
 40
6.0
  1
仕 上
 72
     5
 11
207.312534
 21
-230.89184
 31
0.0
100
AcDbText
  0
TEXT
  5
51
100
AcDbEntity
  8
1
370
    50
100
AcDbText
 10
193.447176
 20
-248.891666
 30
0.0
 40
6.0
  1
表 面
 72
     5
 11
207.247176
 21
-248.891666
 31
0.0
100
AcDbText
  0
TEXT
  5
52
100
AcDbEntity
  8
1
370
    50
100
AcDbText
 10
193.447176
 20
-255.891666
 30
0.0
 40
6.0
  1
処 理
 72
     5
 11
207.247176
 21
-255.891666
 31
0.0
100
AcDbText
  0
TEXT
  5
53
100
AcDbEntity
  8
1
370
    50
100
AcDbText
 10
44.79335
 20
-231.693399
 30
0.0
 40
6.0
  1
品 名
 72
     5
 11
58.59335
 21
-231.693399
 31
0.0
100
AcDbText
  0
TEXT
  5
54
100
AcDbEntity
  8
1
370
    50
100
AcDbText
 10
44.397766
 20
-252.462534
 30
0.0
 40
6.0
  1
材 質
 72
     5
 11
58.197766
 21
-252.462534
 31
0.0
100
AcDbText
  0
TEXT
  5
55
100
AcDbEntity
  8
1
370
    50
100
AcDbText
 10
118.897766
 20
-252.462534
 30
0.0
 40
6.0
  1
規 格
 72
     5
 11
132.697766
 21
-252.462534
 31
0.0
100
AcDbText
  0
LINE
  5
56
100
AcDbEntity
  8
2
370
    50
100
AcDbLine
 10
-206.278178
 20
27.360697
 30
0.0
 11
-164.176107
 21
27.360697
 31
0.0
  0
POINT
  5
57
100
AcDbEntity
  8
2
370
    50
100
AcDbPoint
 10
-185.227142
 20
-41.139303
 30
0.0
  0
POINT
  5
58
100
AcDbEntity
  8
2
370
    50
100
AcDbPoint
 10
-167.227142
 20
-32.639303
 30
0.0
  0
POINT
  5
59
100
AcDbEntity
  8
2
370
    50
100
AcDbPoint
 10
-203.227142
 20
-32.639303
 30
0.0
  0
POINT
  5
5A
100
AcDbEntity
  8
2
370
    50
100
AcDbPoint
 10
-185.227142
 20
-41.139303
 30
0.0
  0
LINE
  5
5B
100
AcDbEntity
  8
2
370
    50
100
AcDbLine
 10
-172.227142
 20
-32.639303
 30
0.0
 11
-167.227142
 21
-32.639303
 31
0.0
  0
LINE
  5
5C
100
AcDbEntity
  8
2
370
    50
100
AcDbLine
 10
-203.227142
 20
-32.639303
 30
0.0
 11
-198.227142
 21
-32.639303
 31
0.0
  0
POINT
  5
5D
100
AcDbEntity
  8
2
370
    50
100
AcDbPoint
 10
-185.227142
 20
-30.63857
 30
0.0
  0
ARC
  5
5E
100
AcDbEntity
  8
2
370
    50
100
AcDbCircle
 10
-136.227142
 20
-14.639303
 30
0.0
 40
14.5
100
AcDbArc
 50
279.774188
 51
87.0
  0
ARC
  5
5F
100
AcDbEntity
  8
2
370
    50
100
AcDbCircle
 10
-234.227142
 20
-14.639303
 30
0.0
 40
14.5
100
AcDbArc
 50
93.0
 51
259.332032
  0
ARC
  5
60
100
AcDbEntity
  8
2
370
    50
100
AcDbCircle
 10
-181.299895
 20
247.006827
 30
0.0
 40
280.0
100
AcDbArc
 50
272.88089
 51
279.774188
  0
POINT
  5
61
100
AcDbEntity
  8
2
370
    50
100
AcDbPoint
 10
-133.765542
 20
-28.928827
 30
0.0
  0
ARC
  5
62
100
AcDbEntity
  8
2
370
    50
100
AcDbCircle
 10
-189.15439
 20
247.006827
 30
0.0
 40
280.0
100
AcDbArc
 50
260.225812
 51
267.11911
  0
POINT
  5
63
100
AcDbEntity
  8
2
370
    50
100
AcDbPoint
 10
-236.688743
 20
-28.928827
 30
0.0
  0
POINT
  5
64
100
AcDbEntity
  8
2
370
    50
100
AcDbPoint
 10
-185.227142
 20
27.360697
 30
0.0
  0
LINE
  5
65
100
AcDbEntity
  8
2
370
    50
100
AcDbLine
 10
-172.827142
 20
-34.639303
 30
0.0
 11
-172.227142
 21
-34.039303
 31
0.0
  0
LINE
  5
66
100
AcDbEntity
  8
2
370
    50
100
AcDbLine
 10
-197.627142
 20
-34.639303
 30
0.0
 11
-198.227142
 21
-34.039303
 31
0.0
  0
POINT
  5
67
100
AcDbEntity
  8
2
370
    50
100
AcDbPoint
 10
-185.227142
 20
-30.63857
 30
0.0
  0
POINT
  5
68
100
AcDbEntity
  8
2
370
    50
100
AcDbPoint
 10
-185.227142
 20
-41.139303
 30
0.0
  0
LINE
  5
69
100
AcDbEntity
  8
2
370
    50
100
AcDbLine
 10
-163.177477
 20
26.413033
 30
0.0
 11
-162.210793
 21
7.967595
 31
0.0
  0
LINE
  5
6A
100
AcDbEntity
  8
2
370
    50
100
AcDbLine
 10
-135.468271
 20
-0.159174
 30
0.0
 11
-155.113591
 21
0.870393
 31
0.0
  0
ARC
  5
6B
100
AcDbEntity
  8
2
370
    50
100
AcDbCircle
 10
-154.721071
 20
8.360115
 30
0.0
 40
7.5
100
AcDbArc
 50
183.0
 51
267.0
  0
ARC
  5
6C
100
AcDbEntity
  8
2
370
    50
100
AcDbCircle
 10
-215.733213
 20
8.360115
 30
0.0
 40
7.5
100
AcDbArc
 50
273.0
 51
357.0
  0
LINE
  5
6D
100
AcDbEntity
  8
2
370
    50
100
AcDbLine
 10
-234.986014
 20
-0.159174
 30
0.0
 11
-215.340693
 21
0.870393
 31
0.0
  0
LINE
  5
6E
100
AcDbEntity
  8
2
370
    50
100
AcDbLine
 10
-207.276807
 20
26.413033
 30
0.0
 11
-208.243492
 21
7.967595
 31
0.0
  0
POINT
  5
6F
100
AcDbEntity
  8
2
370
    50
100
AcDbPoint
 10
-208.596918
 20
1.22382
 30
0.0
  0
LINE
  5
70
100
AcDbEntity
  8
2
370
    25
  6
CENTER
100
AcDbLine
 10
-185.227142
 20
-109.987734
 30
0.0
 11
-185.227142
 21
97.476015
 31
0.0
  0
POINT
  5
71
100
AcDbEntity
  8
2
370
    50
100
AcDbPoint
 10
-185.227142
 20
27.360697
 30
0.0
  0
ARC
  5
72
100
AcDbEntity
  8
2
370
    50
100
AcDbCircle
 10
-164.176107
 20
26.360697
 30
0.0
 40
1.0
100
AcDbArc
 50
3.0
 51
90.0
  0
ARC
  5
73
100
AcDbEntity
  8
2
370
    50
100
AcDbCircle
 10
-206.278178
 20
26.360697
 30
0.0
 40
1.0
100
AcDbArc
 50
90.0
 51
177.0
  0
LINE
  5
74
100
AcDbEntity
  8
2
370
    50
100
AcDbLine
 10
-163.727142
 20
32.860201
 30
0.0
 11
-206.727142
 21
32.860201
 31
0.0
  0
CIRCLE
  5
75
100
AcDbEntity
  8
2
370
    50
100
AcDbCircle
 10
-185.227142
 20
45.860201
 30
0.0
 40
5.0
  0
POINT
  5
76
100
AcDbEntity
  8
2
370
    50
100
AcDbPoint
 10
-185.227142
 20
50.360201
 30
0.0
  0
LINE
  5
77
100
AcDbEntity
  8
2
370
    50
100
AcDbLine
 10
-206.727142
 20
51.935882
 30
0.0
 11
-206.727142
 21
32.860201
 31
0.0
  0
LINE
  5
78
100
AcDbEntity
  8
2
370
    50
100
AcDbLine
 10
-163.727142
 20
51.935882
 30
0.0
 11
-163.727142
 21
32.860201
 31
0.0
  0
ARC
  5
79
100
AcDbEntity
  8
2
370
    50
100
AcDbCircle
 10
-185.227142
 20
56.438641
 30
0.0
 40
38.263071
100
AcDbArc
 50
79.986433
 51
100.013567
  0
LINE
  5
7A
100
AcDbEntity
  8
2
370
    50
100
AcDbLine
 10
-195.887415
 20
90.29967
 30
0.0
 11
-204.957142
 21
50.262221
 31
0.0
  0
ARC
  5
7B
100
AcDbEntity
  8
2
370
    50
100
AcDbCircle
 10
-198.249725
 20
51.935882
 30
0.0
 40
8.477417
100
AcDbArc
 50
149.878537
 51
180.0
  0
ARC
  5
7C
100
AcDbEntity
  8
2
370
    50
100
AcDbCircle
 10
-242.040768
 20
77.342583
 30
0.0
 40
42.150203
100
AcDbArc
 50
329.878537
 51
347.236145
  0
ARC
  5
7D
100
AcDbEntity
  8
2
370
    50
100
AcDbCircle
 10
-128.413516
 20
77.342583
 30
0.0
 40
42.150203
100
AcDbArc
 50
192.763855
 51
210.121463
  0
ARC
  5
7E
100
AcDbEntity
  8
2
370
    50
100
AcDbCircle
 10
-172.20456
 20
51.935882
 30
0.0
 40
8.477417
100
AcDbArc
 50
360.0
 51
30.121463
  0
ARC
  5
7F
100
AcDbEntity
  8
2
370
    50
100
AcDbCircle
 10
-191.01097
 20
89.195003
 30
0.0
 40
5.0
100
AcDbArc
 50
100.013567
 51
167.236145
  0
ARC
  5
80
100
AcDbEntity
  8
2
370
    50
100
AcDbCircle
 10
-179.443314
 20
89.195003
 30
0.0
 40
5.0
100
AcDbArc
 50
12.763855
 51
79.986433
  0
LINE
  5
81
100
AcDbEntity
  8
2
370
    50
100
AcDbLine
 10
-174.56687
 20
90.29967
 30
0.0
 11
-165.497142
 21
50.262221
 31
0.0
  0
LINE
  5
82
100
AcDbEntity
  8
2
370
    50
100
AcDbLine
 10
-194.066009
 20
88.951509
 30
0.0
 11
-175.503403
 21
88.951509
 31
0.0
  0
ARC
  5
83
100
AcDbEntity
  8
2
370
    25
100
AcDbCircle
 10
-185.227142
 20
16.736915
 30
0.0
 40
38.900116
100
AcDbArc
 50
66.010861
 51
113.805803
  0
ARC
  5
84
100
AcDbEntity
  8
2
370
    50
100
AcDbCircle
 10
-205.727142
 20
28.360262
 30
0.0
 40
1.0
100
AcDbArc
 50
179.975044
 51
270.0
  0
ARC
  5
85
100
AcDbEntity
  8
2
370
    50
100
AcDbCircle
 10
-113.268882
 20
-7.213922
 30
0.0
 40
100.0
100
AcDbArc
 50
156.375476
 51
159.160816
  0
ARC
  5
86
100
AcDbEntity
  8
2
370
    50
100
AcDbCircle
 10
-257.185403
 20
-7.213922
 30
0.0
 40
100.0
100
AcDbArc
 50
20.839184
 51
23.624524
  0
POINT
  5
87
100
AcDbEntity
  8
2
370
    50
100
AcDbPoint
 10
-163.727142
 20
28.360697
 30
0.0
  0
ARC
  5
88
100
AcDbEntity
  8
2
370
    50
100
AcDbCircle
 10
-164.727142
 20
28.360262
 30
0.0
 40
1.0
100
AcDbArc
 50
270.0
 51
0.024956
  0
LINE
  5
89
100
AcDbEntity
  8
2
370
    50
100
AcDbLine
 10
-197.627142
 20
-34.639303
 30
0.0
 11
-172.827142
 21
-34.639303
 31
0.0
  0
LINE
  5
8A
100
AcDbEntity
  8
2
370
    50
100
AcDbLine
 10
-198.227142
 20
-32.639303
 30
0.0
 11
-172.227142
 21
-32.639303
 31
0.0
  0
POINT
  5
8B
100
AcDbEntity
  8
2
370
    50
100
AcDbPoint
 10
-135.227142
 20
-14.639303
 30
0.0
  0
POINT
  5
8C
100
AcDbEntity
  8
2
370
    50
100
AcDbPoint
 10
-235.227142
 20
-14.639303
 30
0.0
  0
LINE
  5
8D
100
AcDbEntity
  8
2
370
    50
100
AcDbLine
 10
-240.794907
 20
0.360697
 30
0.0
 11
-229.659378
 21
0.360697
 31
0.0
  0
POINT
  5
8E
100
AcDbEntity
  8
2
370
    50
100
AcDbPoint
 10
-235.227142
 20
-14.639303
 30
0.0
  0
LINE
  5
8F
100
AcDbEntity
  8
2
370
    50
100
AcDbLine
 10
-251.001405
 20
-11.961128
 30
0.0
 11
-245.433641
 21
-2.317477
 31
0.0
  0
LINE
  5
90
100
AcDbEntity
  8
2
370
    50
100
AcDbLine
 10
-245.433641
 20
-26.961128
 30
0.0
 11
-251.001405
 21
-17.317477
 31
0.0
  0
LINE
  5
91
100
AcDbEntity
  8
2
370
    50
100
AcDbLine
 10
-232.362249
 20
-29.639303
 30
0.0
 11
-240.794907
 21
-29.639303
 31
0.0
  0
ARC
  5
92
100
AcDbEntity
  8
2
370
    50
100
AcDbCircle
 10
-235.227142
 20
-14.639303
 30
0.0
 40
16.0
100
AcDbArc
 50
110.364135
 51
129.635865
  0
ARC
  5
93
100
AcDbEntity
  8
2
370
    50
100
AcDbCircle
 10
-235.227142
 20
-14.639303
 30
0.0
 40
16.0
100
AcDbArc
 50
170.364135
 51
189.635865
  0
ARC
  5
94
100
AcDbEntity
  8
2
370
    50
100
AcDbCircle
 10
-235.227142
 20
-14.639303
 30
0.0
 40
16.0
100
AcDbArc
 50
230.364135
 51
249.635865
  0
ARC
  5
95
100
AcDbEntity
  8
2
370
    50
100
AcDbCircle
 10
-235.227142
 20
-14.639303
 30
0.0
 40
16.0
100
AcDbArc
 50
67.552449
 51
69.635865
  0
LINE
  5
96
100
AcDbEntity
  8
2
370
    50
100
AcDbLine
 10
-140.794907
 20
0.360697
 30
0.0
 11
-129.659378
 21
0.360697
 31
0.0
  0
POINT
  5
97
100
AcDbEntity
  8
2
370
    50
100
AcDbPoint
 10
-135.227142
 20
-14.639303
 30
0.0
  0
LINE
  5
98
100
AcDbEntity
  8
2
370
    50
100
AcDbLine
 10
-129.659378
 20
-29.639303
 30
0.0
 11
-138.092035
 21
-29.639303
 31
0.0
  0
LINE
  5
99
100
AcDbEntity
  8
2
370
    50
100
AcDbLine
 10
-119.452879
 20
-17.317477
 30
0.0
 11
-125.020643
 21
-26.961128
 31
0.0
  0
LINE
  5
9A
100
AcDbEntity
  8
2
370
    50
100
AcDbLine
 10
-125.020643
 20
-2.317477
 30
0.0
 11
-119.452879
 21
-11.961128
 31
0.0
  0
ARC
  5
9B
100
AcDbEntity
  8
2
370
    50
100
AcDbCircle
 10
-135.227142
 20
-14.639303
 30
0.0
 40
16.0
100
AcDbArc
 50
110.364135
 51
112.447551
  0
ARC
  5
9C
100
AcDbEntity
  8
2
370
    50
100
AcDbCircle
 10
-135.227142
 20
-14.639303
 30
0.0
 40
16.0
100
AcDbArc
 50
290.364135
 51
309.635865
  0
ARC
  5
9D
100
AcDbEntity
  8
2
370
    50
100
AcDbCircle
 10
-135.227142
 20
-14.639303
 30
0.0
 40
16.0
100
AcDbArc
 50
350.364135
 51
9.635865
  0
ARC
  5
9E
100
AcDbEntity
  8
2
370
    50
100
AcDbCircle
 10
-135.227142
 20
-14.639303
 30
0.0
 40
16.0
100
AcDbArc
 50
50.364135
 51
69.635865
  0
LINE
  5
9F
100
AcDbEntity
  8
2
370
    50
100
AcDbLine
 10
-121.292303
 20
-8.775152
 30
0.0
 11
-82.90124
 21
-47.166214
 31
0.0
  0
LINE
  5
A0
100
AcDbEntity
  8
2
370
    50
100
AcDbLine
 10
-139.769363
 20
-29.896071
 30
0.0
 11
-102.70023
 21
-66.965204
 31
0.0
  0
ARC
  5
A1
100
AcDbEntity
  8
2
370
    50
100
AcDbCircle
 10
-92.800735
 20
-57.065709
 30
0.0
 40
14.0
100
AcDbArc
 50
225.0
 51
45.0
  0
LINE
  5
A2
100
AcDbEntity
  8
2
370
    50
100
AcDbLine
 10
-249.161981
 20
-8.775152
 30
0.0
 11
-287.553044
 21
-47.166214
 31
0.0
  0
LINE
  5
A3
100
AcDbEntity
  8
2
370
    50
100
AcDbLine
 10
-230.684921
 20
-29.896071
 30
0.0
 11
-267.754054
 21
-66.965204
 31
0.0
  0
ARC
  5
A4
100
AcDbEntity
  8
2
370
    50
100
AcDbCircle
 10
-277.653549
 20
-57.065709
 30
0.0
 40
14.0
100
AcDbArc
 50
135.0
 51
315.0
  0
POINT
  5
A5
100
AcDbEntity
  8
2
370
    50
100
AcDbPoint
 10
-92.800735
 20
-57.065709
 30
0.0
  0
POINT
  5
A6
100
AcDbEntity
  8
2
370
    50
100
AcDbPoint
 10
-277.653549
 20
-57.065709
 30
0.0
  0
ARC
  5
A7
100
AcDbEntity
  8
2
370
    50
100
AcDbCircle
 10
-92.800735
 20
-57.065709
 30
0.0
 40
23.0
100
AcDbArc
 50
172.49525
 51
97.50475
  0
ARC
  5
A8
100
AcDbEntity
  8
2
370
    50
100
AcDbCircle
 10
-277.653549
 20
-57.065709
 30
0.0
 40
23.0
100
AcDbArc
 50
82.49525
 51
7.50475
  0
CIRCLE
  5
A9
100
AcDbEntity
  8
2
370
    50
100
AcDbCircle
 10
-262.178848
 20
-40.879742
 30
0.0
 40
6.0
  0
TEXT
  5
AA
100
AcDbEntity
  8
2
370
    50
100
AcDbText
 10
-268.401373
 20
-40.919185
 30
0.0
 40
9.37024
  1
湯
 50
315.0
 72
     5
 11
-263.100765
 21
-46.219794
 31
0.0
100
AcDbText
  0
LINE
  5
AB
100
AcDbEntity
  8
2
370
    25
  6
CENTER
100
AcDbLine
 10
-190.770427
 20
45.860201
 30
0.0
 11
-179.901575
 21
45.860201
 31
0.0
  0
LINE
  5
AC
100
AcDbEntity
  8
2
370
    50
100
AcDbLine
 10
-186.674535
 20
47.601976
 30
0.0
 11
-189.26727
 21
46.120413
 31
0.0
  0
ARC
  5
AD
100
AcDbEntity
  8
2
370
    50
100
AcDbCircle
 10
-186.525842
 20
47.341764
 30
0.0
 40
0.2997
100
AcDbArc
 50
0.0
 51
119.744881
  0
LINE
  5
AE
100
AcDbEntity
  8
2
370
    50
100
AcDbLine
 10
-186.226142
 20
47.341764
 30
0.0
 11
-186.226142
 21
44.378638
 31
0.0
  0
ARC
  5
AF
100
AcDbEntity
  8
2
370
    50
100
AcDbCircle
 10
-186.525842
 20
44.378638
 30
0.0
 40
0.2997
100
AcDbArc
 50
240.255119
 51
360.0
  0
LINE
  5
B0
100
AcDbEntity
  8
2
370
    50
100
AcDbLine
 10
-186.674535
 20
44.118425
 30
0.0
 11
-189.26727
 21
45.599988
 31
0.0
  0
ARC
  5
B1
100
AcDbEntity
  8
2
370
    50
100
AcDbCircle
 10
-189.118578
 20
45.860201
 30
0.0
 40
0.2997
100
AcDbArc
 50
119.744881
 51
240.255119
  0
ARC
  5
B2
100
AcDbEntity
  8
2
370
    50
100
AcDbCircle
 10
-183.928442
 20
47.341764
 30
0.0
 40
0.2997
100
AcDbArc
 50
60.255119
 51
180.0
  0
LINE
  5
B3
100
AcDbEntity
  8
2
370
    50
100
AcDbLine
 10
-184.228142
 20
47.341764
 30
0.0
 11
-184.228142
 21
44.378638
 31
0.0
  0
LINE
  5
B4
100
AcDbEntity
  8
2
370
    50
100
AcDbLine
 10
-183.779749
 20
47.601976
 30
0.0
 11
-181.187014
 21
46.120413
 31
0.0
  0
ARC
  5
B5
100
AcDbEntity
  8
2
370
    50
100
AcDbCircle
 10
-181.335707
 20
45.860201
 30
0.0
 40
0.2997
100
AcDbArc
 50
299.744881
 51
60.255119
  0
LINE
  5
B6
100
AcDbEntity
  8
2
370
    50
100
AcDbLine
 10
-183.779749
 20
44.118425
 30
0.0
 11
-181.187014
 21
45.599988
 31
0.0
  0
ARC
  5
B7
100
AcDbEntity
  8
2
370
    50
100
AcDbCircle
 10
-183.928442
 20
44.378638
 30
0.0
 40
0.2997
100
AcDbArc
 50
180.0
 51
299.744881
  0
LINE
  5
B8
100
AcDbEntity
  8
2
370
    50
100
AcDbLine
 10
-172.227142
 20
-32.63967
 30
0.0
 11
-172.227142
 21
-34.639235
 31
0.0
  0
LINE
  5
B9
100
AcDbEntity
  8
2
370
    50
100
AcDbLine
 10
-198.227142
 20
-32.63967
 30
0.0
 11
-198.227142
 21
-34.639235
 31
0.0
  0
LINE
  5
BA
100
AcDbEntity
  8
2
370
    50
100
AcDbLine
 10
-172.827142
 20
-34.639235
 30
0.0
 11
-172.227142
 21
-34.039235
 31
0.0
  0
LINE
  5
BB
100
AcDbEntity
  8
2
370
    50
100
AcDbLine
 10
-197.627142
 20
-34.639235
 30
0.0
 11
-198.227142
 21
-34.039235
 31
0.0
  0
POINT
  5
BC
100
AcDbEntity
  8
2
370
    50
100
AcDbPoint
 10
-185.227142
 20
-40.639235
 30
0.0
  0
POINT
  5
BD
100
AcDbEntity
  8
2
370
    50
100
AcDbPoint
 10
-185.227142
 20
-34.63967
 30
0.0
  0
LINE
  5
BE
100
AcDbEntity
  8
2
370
    50
100
AcDbLine
 10
-195.859847
 20
-106.178235
 30
0.0
 11
-174.594438
 21
-106.178235
 31
0.0
  0
LINE
  5
BF
100
AcDbEntity
  8
2
370
    50
100
AcDbLine
 10
-197.227142
 20
-94.878235
 30
0.0
 11
-197.227142
 21
-102.678235
 31
0.0
  0
LINE
  5
C0
100
AcDbEntity
  8
2
370
    50
100
AcDbLine
 10
-173.227142
 20
-94.878235
 30
0.0
 11
-173.227142
 21
-102.678235
 31
0.0
  0
LINE
  5
C1
100
AcDbEntity
  8
2
370
    50
100
AcDbLine
 10
-173.227142
 20
-102.678235
 30
0.0
 11
-173.604488
 21
-105.319656
 31
0.0
  0
LINE
  5
C2
100
AcDbEntity
  8
2
370
    50
100
AcDbLine
 10
-197.227142
 20
-102.678235
 30
0.0
 11
-196.849796
 21
-105.319656
 31
0.0
  0
ARC
  5
C3
100
AcDbEntity
  8
2
370
    50
100
AcDbCircle
 10
-174.594438
 20
-105.178235
 30
0.0
 40
1.0
100
AcDbArc
 50
270.0
 51
351.869898
  0
ARC
  5
C4
100
AcDbEntity
  8
2
370
    50
100
AcDbCircle
 10
-195.859847
 20
-105.178235
 30
0.0
 40
1.0
100
AcDbArc
 50
188.130102
 51
270.0
  0
LINE
  5
C5
100
AcDbEntity
  8
2
370
    25
100
AcDbLine
 10
-196.660858
 20
-102.678235
 30
0.0
 11
-174.058685
 21
-102.678235
 31
0.0
  0
LINE
  5
C6
100
AcDbEntity
  8
2
370
    50
100
AcDbLine
 10
-177.327142
 20
-44.639235
 30
0.0
 11
-177.327142
 21
-59.827157
 31
0.0
  0
LINE
  5
C7
100
AcDbEntity
  8
2
370
    50
100
AcDbLine
 10
-193.127142
 20
-44.639235
 30
0.0
 11
-193.127142
 21
-59.827157
 31
0.0
  0
LINE
  5
C8
100
AcDbEntity
  8
2
370
    50
100
AcDbLine
 10
-197.027142
 20
-94.678235
 30
0.0
 11
-173.427142
 21
-94.678235
 31
0.0
  0
LINE
  5
C9
100
AcDbEntity
  8
2
370
    50
100
AcDbLine
 10
-173.427142
 20
-94.678235
 30
0.0
 11
-173.227142
 21
-94.878235
 31
0.0
  0
LINE
  5
CA
100
AcDbEntity
  8
2
370
    50
100
AcDbLine
 10
-197.027142
 20
-94.678235
 30
0.0
 11
-197.227142
 21
-94.878235
 31
0.0
  0
ARC
  5
CB
100
AcDbEntity
  8
2
370
    50
100
AcDbCircle
 10
-172.977142
 20
-69.578235
 30
0.0
 40
25.0
100
AcDbArc
 50
166.204472
 51
180.0
  0
ARC
  5
CC
100
AcDbEntity
  8
2
370
    50
100
AcDbCircle
 10
-185.227142
 20
-72.578235
 30
0.0
 40
15.0
100
AcDbArc
 50
36.686015
 51
143.313985
  0
ARC
  5
CD
100
AcDbEntity
  8
2
370
    50
100
AcDbCircle
 10
-197.477142
 20
-69.578235
 30
0.0
 40
25.0
100
AcDbArc
 50
0.0
 51
13.795528
  0
LINE
  5
CE
100
AcDbEntity
  8
2
370
    50
100
AcDbLine
 10
-172.477142
 20
-69.578235
 30
0.0
 11
-172.477142
 21
-91.078235
 31
0.0
  0
LINE
  5
CF
100
AcDbEntity
  8
2
370
    50
100
AcDbLine
 10
-197.977142
 20
-69.578235
 30
0.0
 11
-197.977142
 21
-91.078235
 31
0.0
  0
LINE
  5
D0
100
AcDbEntity
  8
2
370
    25
100
AcDbLine
 10
-197.227142
 20
-91.078235
 30
0.0
 11
-197.227142
 21
-63.578235
 31
0.0
  0
LINE
  5
D1
100
AcDbEntity
  8
2
370
    50
100
AcDbLine
 10
-197.977142
 20
-91.078235
 30
0.0
 11
-197.321825
 21
-93.699503
 31
0.0
  0
LINE
  5
D2
100
AcDbEntity
  8
2
370
    50
100
AcDbLine
 10
-172.477142
 20
-91.078235
 30
0.0
 11
-173.132459
 21
-93.699503
 31
0.0
  0
LINE
  5
D3
100
AcDbEntity
  8
2
370
    25
100
AcDbLine
 10
-173.227142
 20
-91.078235
 30
0.0
 11
-173.227142
 21
-63.578235
 31
0.0
  0
LINE
  5
D4
100
AcDbEntity
  8
2
370
    50
100
AcDbLine
 10
-174.477142
 20
-94.678235
 30
0.0
 11
-174.477142
 21
-94.078235
 31
0.0
  0
LINE
  5
D5
100
AcDbEntity
  8
2
370
    50
100
AcDbLine
 10
-195.977142
 20
-94.678235
 30
0.0
 11
-195.977142
 21
-94.078235
 31
0.0
  0
LINE
  5
D6
100
AcDbEntity
  8
2
370
    50
100
AcDbLine
 10
-173.61753
 20
-94.078235
 30
0.0
 11
-196.836754
 21
-94.078235
 31
0.0
  0
LINE
  5
D7
100
AcDbEntity
  8
2
370
    25
  6
CENTER
100
AcDbLine
 10
-200.368427
 20
-69.578235
 30
0.0
 11
-170.585966
 21
-69.578235
 31
0.0
  0
ARC
  5
D8
100
AcDbEntity
  8
2
370
    50
100
AcDbCircle
 10
-196.836754
 20
-93.578235
 30
0.0
 40
0.5
100
AcDbArc
 50
194.036243
 51
270.0
  0
ARC
  5
D9
100
AcDbEntity
  8
2
370
    50
100
AcDbCircle
 10
-173.61753
 20
-93.578235
 30
0.0
 40
0.5
100
AcDbArc
 50
270.0
 51
345.963757
  0
LINE
  5
DA
100
AcDbEntity
  8
2
370
    50
100
AcDbLine
 10
-174.952142
 20
-44.639235
 30
0.0
 11
-195.502142
 21
-44.639235
 31
0.0
  0
LINE
  5
DB
100
AcDbEntity
  8
2
370
    50
100
AcDbLine
 10
-171.651529
 20
-34.639235
 30
0.0
 11
-198.802755
 21
-34.639235
 31
0.0
  0
ARC
  5
DC
100
AcDbEntity
  8
2
370
    50
100
AcDbCircle
 10
-195.502142
 20
-39.639235
 30
0.0
 40
5.0
100
AcDbArc
 50
180.0
 51
270.0
  0
ARC
  5
DD
100
AcDbEntity
  8
2
370
    50
100
AcDbCircle
 10
-192.296856
 20
-39.639235
 30
0.0
 40
8.205286
100
AcDbArc
 50
142.456522
 51
180.0
  0
ELLIPSE
  5
DE
100
AcDbEntity
  8
2
370
    50
100
AcDbEllipse
 10
-185.227142
 20
-39.11043
 30
0.0
 11
-6.10947
 21
0.0
 31
0.0
210
0.0
220
0.0
230
1.0
 40
0.632482
 41
0.0
 42
6.2831849999999996
  0
ELLIPSE
  5
DF
100
AcDbEntity
  8
2
370
    50
100
AcDbEllipse
 10
-173.102787
 20
-39.11043
 30
0.0
 11
0.0
 21
3.8641269999999999
 31
0.0
210
0.0
220
0.0
230
1.0
 40
0.790537
 41
0.0
 42
6.2831849999999996
  0
ARC
  5
E0
100
AcDbEntity
  8
2
370
    50
100
AcDbCircle
 10
-174.952142
 20
-39.639235
 30
0.0
 40
5.0
100
AcDbArc
 50
270.0
 51
0.0
  0
ARC
  5
E1
100
AcDbEntity
  8
2
370
    50
100
AcDbCircle
 10
-178.157428
 20
-39.639235
 30
0.0
 40
8.205286
100
AcDbArc
 50
0.0
 51
37.543478
  0
ELLIPSE
  5
E2
100
AcDbEntity
  8
2
370
    50
100
AcDbEllipse
 10
-197.351498
 20
-39.11043
 30
0.0
 11
0.0
 21
-3.8641269999999999
 31
0.0
210
0.0
220
0.0
230
1.0
 40
0.790537
 41
0.0
 42
6.2831849999999996
  0
POINT
  5
E3
100
AcDbEntity
  8
2
370
    50
100
AcDbPoint
 10
-185.227142
 20
-44.639235
 30
0.0
  0
POINT
  5
E4
100
AcDbEntity
  8
2
370
    50
100
AcDbPoint
 10
-185.227142
 20
-44.639235
 30
0.0
  0
POINT
  5
E5
100
AcDbEntity
  8
2
370
    50
100
AcDbPoint
 10
-185.227142
 20
24.360697
 30
0.0
  0
POINT
  5
E6
100
AcDbEntity
  8
2
370
    50
100
AcDbPoint
 10
-185.227142
 20
24.360697
 30
0.0
  0
POINT
  5
E7
100
AcDbEntity
  8
2
370
    50
100
AcDbPoint
 10
243.382524
 20
-41.078248
 30
0.0
  0
POINT
  5
E8
100
AcDbEntity
  8
2
370
    50
100
AcDbPoint
 10
243.382524
 20
-41.078248
 30
0.0
  0
POINT
  5
E9
100
AcDbEntity
  8
2
370
    50
100
AcDbPoint
 10
243.382524
 20
-33.578248
 30
0.0
  0
POINT
  5
EA
100
AcDbEntity
  8
2
370
    50
100
AcDbPoint
 10
265.382524
 20
-20.578684
 30
0.0
  0
LINE
  5
EB
100
AcDbEntity
  8
2
370
    50
100
AcDbLine
 10
263.55796
 20
26.921752
 30
0.0
 11
264.382524
 21
26.921752
 31
0.0
  0
LINE
  5
EC
100
AcDbEntity
  8
2
370
    50
100
AcDbLine
 10
143.382524
 20
89.512564
 30
0.0
 11
143.382524
 21
93.283224
 31
0.0
  0
LINE
  5
ED
100
AcDbEntity
  8
2
370
    50
100
AcDbLine
 10
144.46968
 20
88.516369
 30
0.0
 11
150.691551
 21
89.060712
 31
0.0
  0
ARC
  5
EE
100
AcDbEntity
  8
2
370
    50
100
AcDbCircle
 10
206.88253
 20
55.198086
 30
0.0
 40
15.0
100
AcDbArc
 50
0.000001
 51
64.279919
  0
ARC
  5
EF
100
AcDbEntity
  8
2
370
    50
100
AcDbCircle
 10
144.382524
 20
89.512564
 30
0.0
 40
1.0
100
AcDbArc
 50
180.0
 51
275.0
  0
ARC
  5
F0
100
AcDbEntity
  8
2
370
    50
100
AcDbCircle
 10
151.12733
 20
84.079739
 30
0.0
 40
5.0
100
AcDbArc
 50
79.123693
 51
95.0
  0
LINE
  5
F1
100
AcDbEntity
  8
2
370
    50
100
AcDbLine
 10
221.882524
 20
55.198086
 30
0.0
 11
221.882524
 21
32.421255
 31
0.0
  0
LINE
  5
F2
100
AcDbEntity
  8
2
370
    50
100
AcDbLine
 10
221.882524
 20
32.421255
 30
0.0
 11
243.382524
 21
32.421255
 31
0.0
  0
LINE
  5
F3
100
AcDbEntity
  8
2
370
    50
100
AcDbLine
 10
264.882524
 20
45.909466
 30
0.0
 11
264.882524
 21
40.246615
 31
0.0
  0
ARC
  5
F4
100
AcDbEntity
  8
2
370
    50
100
AcDbCircle
 10
104.898434
 20
-156.519283
 30
0.0
 40
250.0
100
AcDbArc
 50
64.279919
 51
79.123693
  0
ARC
  5
F5
100
AcDbEntity
  8
2
370
    50
100
AcDbCircle
 10
109.926249
 20
-168.038378
 30
0.0
 40
264.583411
100
AcDbArc
 50
54.261314
 51
82.488657
  0
ARC
  5
F6
100
AcDbEntity
  8
2
370
    50
100
AcDbCircle
 10
263.882524
 20
45.909466
 30
0.0
 40
1.0
100
AcDbArc
 50
360.0
 51
54.261314
  0
ARC
  5
F7
100
AcDbEntity
  8
2
370
    50
100
AcDbCircle
 10
144.382524
 20
93.283224
 30
0.0
 40
1.0
100
AcDbArc
 50
82.488657
 51
180.0
  0
LINE
  5
F8
100
AcDbEntity
  8
2
370
    50
100
AcDbLine
 10
243.382524
 20
32.421255
 30
0.0
 11
264.882524
 21
40.246615
 31
0.0
  0
POINT
  5
F9
100
AcDbEntity
  8
2
370
    50
100
AcDbPoint
 10
222.882524
 20
32.421255
 30
0.0
  0
LINE
  5
FA
100
AcDbEntity
  8
2
370
    50
100
AcDbLine
 10
222.168825
 20
26.921752
 30
0.0
 11
227.007524
 21
26.921752
 31
0.0
  0
POINT
  5
FB
100
AcDbEntity
  8
2
370
    50
100
AcDbPoint
 10
243.382524
 20
34.921438
 30
0.0
  0
POINT
  5
FC
100
AcDbEntity
  8
2
370
    50
100
AcDbPoint
 10
221.882524
 20
32.421255
 30
0.0
  0
POINT
  5
FD
100
AcDbEntity
  8
2
370
    50
100
AcDbPoint
 10
273.632524
 20
-15.078248
 30
0.0
  0
POINT
  5
FE
100
AcDbEntity
  8
2
370
    50
100
AcDbPoint
 10
267.382524
 20
-15.078248
 30
0.0
  0
LINE
  5
FF
100
AcDbEntity
  8
2
370
    50
100
AcDbLine
 10
266.582524
 20
-4.578248
 30
0.0
 11
265.366693
 21
-4.578248
 31
0.0
  0
LINE
  5
100
100
AcDbEntity
  8
2
370
    50
100
AcDbLine
 10
266.582524
 20
-25.578248
 30
0.0
 11
265.382524
 21
-25.578248
 31
0.0
  0
POINT
  5
101
100
AcDbEntity
  8
2
370
    50
100
AcDbPoint
 10
336.582524
 20
-57.504655
 30
0.0
  0
POINT
  5
102
100
AcDbEntity
  8
2
370
    50
100
AcDbPoint
 10
243.382524
 20
-41.078248
 30
0.0
  0
POINT
  5
103
100
AcDbEntity
  8
2
370
    50
100
AcDbPoint
 10
243.382524
 20
-33.578248
 30
0.0
  0
LINE
  5
104
100
AcDbEntity
  8
2
370
    50
100
AcDbLine
 10
243.382524
 20
-33.078684
 30
0.0
 11
264.382524
 21
-33.078684
 31
0.0
  0
LINE
  5
105
100
AcDbEntity
  8
2
370
    50
100
AcDbLine
 10
243.382524
 20
26.921316
 30
0.0
 11
222.298855
 21
26.921316
 31
0.0
  0
POINT
  5
106
100
AcDbEntity
  8
2
370
    50
100
AcDbPoint
 10
243.382524
 20
-41.078248
 30
0.0
  0
LINE
  5
107
100
AcDbEntity
  8
2
370
    50
100
AcDbLine
 10
255.782524
 20
-35.078248
 30
0.0
 11
256.382524
 21
-34.478248
 31
0.0
  0
LINE
  5
108
100
AcDbEntity
  8
2
370
    50
100
AcDbLine
 10
230.982524
 20
-35.078248
 30
0.0
 11
230.382524
 21
-34.478248
 31
0.0
  0
POINT
  5
109
100
AcDbEntity
  8
2
370
    50
100
AcDbPoint
 10
243.382524
 20
-33.578248
 30
0.0
  0
LINE
  5
10A
100
AcDbEntity
  8
2
370
    50
100
AcDbLine
 10
226.910274
 20
-33.078684
 30
0.0
 11
243.382524
 21
-33.078684
 31
0.0
  0
LINE
  5
10B
100
AcDbEntity
  8
2
370
    50
100
AcDbLine
 10
265.382524
 20
-32.078684
 30
0.0
 11
265.382524
 21
25.921316
 31
0.0
  0
POINT
  5
10C
100
AcDbEntity
  8
2
370
    50
100
AcDbPoint
 10
265.382524
 20
-20.578684
 30
0.0
  0
POINT
  5
10D
100
AcDbEntity
  8
2
370
    50
100
AcDbPoint
 10
243.382524
 20
26.921316
 30
0.0
  0
POINT
  5
10E
100
AcDbEntity
  8
2
370
    50
100
AcDbPoint
 10
243.382524
 20
26.921316
 30
0.0
  0
ARC
  5
10F
100
AcDbEntity
  8
2
370
    50
100
AcDbCircle
 10
264.382524
 20
25.921316
 30
0.0
 40
1.0
100
AcDbArc
 50
0.0
 51
90.0
  0
ARC
  5
110
100
AcDbEntity
  8
2
370
    50
100
AcDbCircle
 10
264.382524
 20
-32.078684
 30
0.0
 40
1.0
100
AcDbArc
 50
270.0
 51
360.0
  0
ARC
  5
111
100
AcDbEntity
  8
2
370
    50
100
AcDbCircle
 10
263.382524
 20
-7.466187
 30
0.0
 40
45.0
100
AcDbArc
 50
179.874484
 51
214.012581
  0
LINE
  5
112
100
AcDbEntity
  8
2
370
    50
100
AcDbLine
 10
221.30266
 20
26.008472
 30
0.0
 11
218.382632
 21
-7.367606
 31
0.0
  0
ARC
  5
113
100
AcDbEntity
  8
2
370
    50
100
AcDbCircle
 10
222.298855
 20
25.921316
 30
0.0
 40
1.0
100
AcDbArc
 50
90.0
 51
175.0
  0
ARC
  5
114
100
AcDbEntity
  8
2
370
    50
100
AcDbCircle
 10
226.910274
 20
-32.078684
 30
0.0
 40
1.0
100
AcDbArc
 50
214.012581
 51
270.0
  0
POINT
  5
115
100
AcDbEntity
  8
2
370
    50
100
AcDbPoint
 10
243.382524
 20
34.921438
 30
0.0
  0
POINT
  5
116
100
AcDbEntity
  8
2
370
    50
100
AcDbPoint
 10
243.382524
 20
34.921438
 30
0.0
  0
LINE
  5
117
100
AcDbEntity
  8
2
370
    50
100
AcDbLine
 10
336.582524
 20
-48.204655
 30
0.0
 11
336.582524
 21
-66.804655
 31
0.0
  0
LINE
  5
118
100
AcDbEntity
  8
2
370
    50
100
AcDbLine
 10
317.582524
 20
-68.004655
 30
0.0
 11
335.382524
 21
-68.004655
 31
0.0
  0
LINE
  5
119
100
AcDbEntity
  8
2
370
    50
100
AcDbLine
 10
317.582524
 20
-47.004655
 30
0.0
 11
335.382524
 21
-47.004655
 31
0.0
  0
LINE
  5
11A
100
AcDbEntity
  8
2
370
    25
100
AcDbLine
 10
317.582524
 20
-66.804655
 30
0.0
 11
336.582524
 21
-66.804655
 31
0.0
  0
LINE
  5
11B
100
AcDbEntity
  8
2
370
    25
100
AcDbLine
 10
317.582524
 20
-48.204655
 30
0.0
 11
336.582524
 21
-48.204655
 31
0.0
  0
LINE
  5
11C
100
AcDbEntity
  8
2
370
    50
100
AcDbLine
 10
336.582524
 20
-66.804655
 30
0.0
 11
335.382524
 21
-68.004655
 31
0.0
  0
LINE
  5
11D
100
AcDbEntity
  8
2
370
    50
100
AcDbLine
 10
336.582524
 20
-48.204655
 30
0.0
 11
335.382524
 21
-47.004655
 31
0.0
  0
LINE
  5
11E
100
AcDbEntity
  8
2
370
    50
100
AcDbLine
 10
307.582524
 20
-68.004655
 30
0.0
 11
307.582524
 21
-69.004655
 31
0.0
  0
LINE
  5
11F
100
AcDbEntity
  8
2
370
    50
100
AcDbLine
 10
307.582524
 20
-46.004655
 30
0.0
 11
307.582524
 21
-68.004655
 31
0.0
  0
LINE
  5
120
100
AcDbEntity
  8
2
370
    50
100
AcDbLine
 10
335.382524
 20
-47.004655
 30
0.0
 11
335.382524
 21
-68.004655
 31
0.0
  0
LINE
  5
121
100
AcDbEntity
  8
2
370
    50
100
AcDbLine
 10
281.782524
 20
1.421345
 30
0.0
 11
267.582524
 21
1.421345
 31
0.0
  0
LINE
  5
122
100
AcDbEntity
  8
2
370
    50
100
AcDbLine
 10
281.782524
 20
-31.578655
 30
0.0
 11
267.582524
 21
-31.578655
 31
0.0
  0
LINE
  5
123
100
AcDbEntity
  8
2
370
    50
100
AcDbLine
 10
282.782524
 20
-29.828655
 30
0.0
 11
282.782524
 21
-2.290493
 31
0.0
  0
LINE
  5
124
100
AcDbEntity
  8
2
370
    50
100
AcDbLine
 10
266.582524
 20
-29.828655
 30
0.0
 11
266.582524
 21
-27.866817
 31
0.0
  0
LINE
  5
125
100
AcDbEntity
  8
2
370
    50
100
AcDbLine
 10
267.382524
 20
1.071345
 30
0.0
 11
267.582524
 21
1.421345
 31
0.0
  0
LINE
  5
126
100
AcDbEntity
  8
2
370
    50
100
AcDbLine
 10
266.582524
 20
-29.828655
 30
0.0
 11
267.582524
 21
-31.578655
 31
0.0
  0
LINE
  5
127
100
AcDbEntity
  8
2
370
    50
100
AcDbLine
 10
281.782524
 20
-31.578655
 30
0.0
 11
282.782524
 21
-29.828655
 31
0.0
  0
LINE
  5
128
100
AcDbEntity
  8
2
370
    50
100
AcDbLine
 10
286.582524
 20
-29.078655
 30
0.0
 11
286.582524
 21
-25.978655
 31
0.0
  0
LINE
  5
129
100
AcDbEntity
  8
2
370
    50
100
AcDbLine
 10
286.582524
 20
-25.978655
 30
0.0
 11
286.582524
 21
-1.078655
 31
0.0
  0
LINE
  5
12A
100
AcDbEntity
  8
2
370
    50
100
AcDbLine
 10
267.582524
 20
-7.683555
 30
0.0
 11
281.782524
 21
-7.683555
 31
0.0
  0
LINE
  5
12B
100
AcDbEntity
  8
2
370
    50
100
AcDbLine
 10
267.582524
 20
-6.00233
 30
0.0
 11
281.782524
 21
-6.00233
 31
0.0
  0
LINE
  5
12C
100
AcDbEntity
  8
2
370
    50
100
AcDbLine
 10
267.582524
 20
-22.473755
 30
0.0
 11
281.782524
 21
-22.473755
 31
0.0
  0
LINE
  5
12D
100
AcDbEntity
  8
2
370
    50
100
AcDbLine
 10
267.582524
 20
-24.15498
 30
0.0
 11
281.782524
 21
-24.15498
 31
0.0
  0
ARC
  5
12E
100
AcDbEntity
  8
2
370
    50
100
AcDbCircle
 10
254.938774
 20
-15.078655
 30
0.0
 40
27.84375
100
AcDbArc
 50
344.59782
 51
15.40218
  0
LINE
  5
12F
100
AcDbEntity
  8
2
370
    50
100
AcDbLine
 10
281.782524
 20
-24.15498
 30
0.0
 11
281.782524
 21
-22.473755
 31
0.0
  0
LINE
  5
130
100
AcDbEntity
  8
2
370
    50
100
AcDbLine
 10
281.782524
 20
-7.683555
 30
0.0
 11
281.782524
 21
-6.00233
 31
0.0
  0
ARC
  5
131
100
AcDbEntity
  8
2
370
    50
100
AcDbCircle
 10
275.393655
 20
-27.866817
 30
0.0
 40
7.388869
100
AcDbArc
 50
329.844052
 51
30.155948
  0
ARC
  5
132
100
AcDbEntity
  8
2
370
    50
100
AcDbCircle
 10
275.393655
 20
-2.290493
 30
0.0
 40
7.388869
100
AcDbArc
 50
329.844052
 51
30.155948
  0
ARC
  5
133
100
AcDbEntity
  8
2
370
    50
100
AcDbCircle
 10
273.971393
 20
-2.290493
 30
0.0
 40
7.388869
100
AcDbArc
 50
206.908673
 51
210.155948
  0
LINE
  5
134
100
AcDbEntity
  8
2
370
    50
100
AcDbLine
 10
267.582524
 20
-24.15498
 30
0.0
 11
267.582524
 21
-22.473755
 31
0.0
  0
LINE
  5
135
100
AcDbEntity
  8
2
370
    50
100
AcDbLine
 10
267.582524
 20
-7.683555
 30
0.0
 11
267.582524
 21
-6.00233
 31
0.0
  0
LINE
  5
136
100
AcDbEntity
  8
2
370
    50
100
AcDbLine
 10
317.582524
 20
-34.504655
 30
0.0
 11
314.223644
 21
-34.504655
 31
0.0
  0
LINE
  5
137
100
AcDbEntity
  8
2
370
    50
100
AcDbLine
 10
317.582524
 20
-80.504655
 30
0.0
 11
317.582524
 21
-57.504655
 31
0.0
  0
LINE
  5
138
100
AcDbEntity
  8
2
370
    50
100
AcDbLine
 10
317.582524
 20
-57.504655
 30
0.0
 11
317.582524
 21
-34.504655
 31
0.0
  0
ARC
  5
139
100
AcDbEntity
  8
2
370
    50
100
AcDbCircle
 10
309.582524
 20
-44.004655
 30
0.0
 40
2.0
100
AcDbArc
 50
155.329488
 51
180.0
  0
LINE
  5
13A
100
AcDbEntity
  8
2
370
    50
100
AcDbLine
 10
313.314921
 20
-35.087256
 30
0.0
 11
307.765078
 21
-43.169856
 31
0.0
  0
ARC
  5
13B
100
AcDbEntity
  8
2
370
    50
100
AcDbCircle
 10
309.582524
 20
-71.004655
 30
0.0
 40
2.0
100
AcDbArc
 50
180.0
 51
204.670512
  0
LINE
  5
13C
100
AcDbEntity
  8
2
370
    50
100
AcDbLine
 10
313.314921
 20
-79.922054
 30
0.0
 11
307.765078
 21
-71.839454
 31
0.0
  0
ARC
  5
13D
100
AcDbEntity
  8
2
370
    50
100
AcDbCircle
 10
314.223644
 20
-35.504655
 30
0.0
 40
1.0
100
AcDbArc
 50
90.0
 51
155.329488
  0
LINE
  5
13E
100
AcDbEntity
  8
2
370
    50
100
AcDbLine
 10
317.582524
 20
-80.504655
 30
0.0
 11
317.582524
 21
-68.004655
 31
0.0
  0
LINE
  5
13F
100
AcDbEntity
  8
2
370
    50
100
AcDbLine
 10
313.314921
 20
-79.922054
 30
0.0
 11
307.765078
 21
-71.839454
 31
0.0
  0
LINE
  5
140
100
AcDbEntity
  8
2
370
    25
100
AcDbLine
 10
314.223644
 20
-79.704655
 30
0.0
 11
314.223644
 21
-57.504655
 31
0.0
  0
LINE
  5
141
100
AcDbEntity
  8
2
370
    25
100
AcDbLine
 10
314.223644
 20
-35.304655
 30
0.0
 11
314.223644
 21
-57.504655
 31
0.0
  0
LINE
  5
142
100
AcDbEntity
  8
2
370
    50
100
AcDbLine
 10
307.582524
 20
-71.004655
 30
0.0
 11
307.582524
 21
-44.004655
 31
0.0
  0
ARC
  5
143
100
AcDbEntity
  8
2
370
    50
100
AcDbCircle
 10
294.426274
 20
-15.078655
 30
0.0
 40
27.84375
100
AcDbArc
 50
164.59782
 51
166.232214
  0
ARC
  5
144
100
AcDbEntity
  8
2
370
    50
100
AcDbCircle
 10
294.426274
 20
-15.078655
 30
0.0
 40
27.84375
100
AcDbArc
 50
193.767786
 51
195.40218
  0
ARC
  5
145
100
AcDbEntity
  8
2
370
    50
100
AcDbCircle
 10
273.971393
 20
-27.866817
 30
0.0
 40
7.388869
100
AcDbArc
 50
149.844052
 51
157.786468
  0
ARC
  5
146
100
AcDbEntity
  8
2
370
    50
100
AcDbCircle
 10
273.971393
 20
-27.866817
 30
0.0
 40
7.388869
100
AcDbArc
 50
186.52386
 51
210.155948
  0
LINE
  5
147
100
AcDbEntity
  8
2
370
    50
100
AcDbLine
 10
305.582524
 20
-2.078655
 30
0.0
 11
305.582524
 21
-43.506655
 31
0.0
  0
LINE
  5
148
100
AcDbEntity
  8
2
370
    50
100
AcDbLine
 10
286.582524
 20
-1.078655
 30
0.0
 11
304.582524
 21
-1.078655
 31
0.0
  0
LINE
  5
149
100
AcDbEntity
  8
2
370
    50
100
AcDbLine
 10
288.582524
 20
-35.078655
 30
0.0
 11
288.582524
 21
-68.506655
 31
0.0
  0
LINE
  5
14A
100
AcDbEntity
  8
2
370
    50
100
AcDbLine
 10
305.582524
 20
-71.506655
 30
0.0
 11
291.582524
 21
-71.506655
 31
0.0
  0
ARC
  5
14B
100
AcDbEntity
  8
2
370
    50
100
AcDbCircle
 10
291.582524
 20
-68.506655
 30
0.0
 40
3.0
100
AcDbArc
 50
180.0
 51
270.0
  0
ARC
  5
14C
100
AcDbEntity
  8
2
370
    50
100
AcDbCircle
 10
304.582524
 20
-2.078655
 30
0.0
 40
1.0
100
AcDbArc
 50
0.0
 51
90.0
  0
LINE
  5
14D
100
AcDbEntity
  8
2
370
    50
100
AcDbLine
 10
307.582524
 20
-68.006655
 30
0.0
 11
307.582524
 21
-69.506655
 31
0.0
  0
ARC
  5
14E
100
AcDbEntity
  8
2
370
    50
100
AcDbCircle
 10
278.582524
 20
-35.078655
 30
0.0
 40
10.0
100
AcDbArc
 50
0.0
 51
36.869898
  0
LINE
  5
14F
100
AcDbEntity
  8
2
370
    50
100
AcDbLine
 10
282.782524
 20
-2.290493
 30
0.0
 11
282.782524
 21
-1.878655
 31
0.0
  0
LINE
  5
150
100
AcDbEntity
  8
2
370
    50
100
AcDbLine
 10
286.582524
 20
-28.278655
 30
0.0
 11
286.582524
 21
-29.078655
 31
0.0
  0
LINE
  5
151
100
AcDbEntity
  8
2
370
    50
100
AcDbLine
 10
307.582524
 20
-69.506655
 30
0.0
 11
305.582524
 21
-71.506655
 31
0.0
  0
LINE
  5
152
100
AcDbEntity
  8
2
370
    50
100
AcDbLine
 10
307.582524
 20
-45.506655
 30
0.0
 11
305.582524
 21
-43.506655
 31
0.0
  0
POINT
  5
153
100
AcDbEntity
  8
2
370
    50
100
AcDbPoint
 10
336.582524
 20
-57.504655
 30
0.0
  0
LINE
  5
154
100
AcDbEntity
  8
2
370
    50
100
AcDbLine
 10
317.582524
 20
-80.504655
 30
0.0
 11
314.223644
 21
-80.504655
 31
0.0
  0
ARC
  5
155
100
AcDbEntity
  8
2
370
    50
100
AcDbCircle
 10
314.223644
 20
-79.504655
 30
0.0
 40
1.0
100
AcDbArc
 50
204.670512
 51
270.0
  0
ARC
  5
156
100
AcDbEntity
  8
2
370
    50
100
AcDbCircle
 10
273.971393
 20
-2.290493
 30
0.0
 40
7.388869
100
AcDbArc
 50
149.844052
 51
210.155948
  0
ARC
  5
157
100
AcDbEntity
  8
2
370
    50
100
AcDbCircle
 10
294.426274
 20
-15.078655
 30
0.0
 40
27.84375
100
AcDbArc
 50
164.59782
 51
195.40218
  0
ARC
  5
158
100
AcDbEntity
  8
2
370
    50
100
AcDbCircle
 10
273.971393
 20
-27.866817
 30
0.0
 40
7.388869
100
AcDbArc
 50
149.844052
 51
210.155948
  0
LINE
  5
159
100
AcDbEntity
  8
2
370
    50
100
AcDbLine
 10
267.582524
 20
-31.578655
 30
0.0
 11
266.582524
 21
-29.828655
 31
0.0
  0
LINE
  5
15A
100
AcDbEntity
  8
2
370
    50
100
AcDbLine
 10
266.582524
 20
-27.866817
 30
0.0
 11
266.582524
 21
-2.290493
 31
0.0
  0
LINE
  5
15B
100
AcDbEntity
  8
2
370
    50
100
AcDbLine
 10
263.632524
 20
26.921752
 30
0.0
 11
259.757524
 21
26.921752
 31
0.0
  0
LINE
  5
15C
100
AcDbEntity
  8
2
370
    50
100
AcDbLine
 10
243.382524
 20
26.921752
 30
0.0
 11
259.757524
 21
26.921752
 31
0.0
  0
LINE
  5
15D
100
AcDbEntity
  8
2
370
    50
100
AcDbLine
 10
227.007524
 20
26.921752
 30
0.0
 11
227.382524
 21
26.921752
 31
0.0
  0
LINE
  5
15E
100
AcDbEntity
  8
2
370
    50
100
AcDbLine
 10
223.132524
 20
26.921752
 30
0.0
 11
227.007524
 21
26.921752
 31
0.0
  0
ARC
  5
15F
100
AcDbEntity
  8
2
370
    50
100
AcDbCircle
 10
223.132524
 20
27.921752
 30
0.0
 40
1.0
100
AcDbArc
 50
159.772974
 51
270.0
  0
POINT
  5
160
100
AcDbEntity
  8
2
370
    50
100
AcDbPoint
 10
222.132524
 20
27.921752
 30
0.0
  0
POINT
  5
161
100
AcDbEntity
  8
2
370
    50
100
AcDbPoint
 10
222.132524
 20
27.921752
 30
0.0
  0
LINE
  5
162
100
AcDbEntity
  8
2
370
    50
100
AcDbLine
 10
259.757524
 20
26.921752
 30
0.0
 11
259.382524
 21
26.921752
 31
0.0
  0
LINE
  5
163
100
AcDbEntity
  8
2
370
    50
100
AcDbLine
 10
263.632524
 20
26.921752
 30
0.0
 11
259.757524
 21
26.921752
 31
0.0
  0
ARC
  5
164
100
AcDbEntity
  8
2
370
    50
100
AcDbCircle
 10
263.632524
 20
27.921752
 30
0.0
 40
1.0
100
AcDbArc
 50
270.0
 51
22.322634
  0
POINT
  5
165
100
AcDbEntity
  8
2
370
    50
100
AcDbPoint
 10
264.632524
 20
27.921752
 30
0.0
  0
POINT
  5
166
100
AcDbEntity
  8
2
370
    50
100
AcDbPoint
 10
264.632524
 20
27.921752
 30
0.0
  0
ARC
  5
167
100
AcDbEntity
  8
2
370
    50
100
AcDbCircle
 10
172.051609
 20
-9.680589
 30
0.0
 40
100.0
100
AcDbArc
 50
22.322634
 51
28.723244
  0
ARC
  5
168
100
AcDbEntity
  8
2
370
    50
100
AcDbCircle
 10
314.713439
 20
-9.680589
 30
0.0
 40
100.0
100
AcDbArc
 50
155.101097
 51
157.677366
  0
LINE
  5
169
100
AcDbEntity
  8
2
370
    50
100
AcDbLine
 10
282.782524
 20
-1.879414
 30
0.0
 11
286.582524
 21
-1.879414
 31
0.0
  0
LINE
  5
16A
100
AcDbEntity
  8
2
370
    50
100
AcDbLine
 10
282.782524
 20
-28.279414
 30
0.0
 11
286.582524
 21
-28.279414
 31
0.0
  0
LINE
  5
16B
100
AcDbEntity
  8
2
370
    25
100
AcDbLine
 10
282.782524
 20
-3.079414
 30
0.0
 11
286.582524
 21
-3.079414
 31
0.0
  0
LINE
  5
16C
100
AcDbEntity
  8
2
370
    25
100
AcDbLine
 10
282.782524
 20
-27.079414
 30
0.0
 11
286.582524
 21
-27.079414
 31
0.0
  0
LINE
  5
16D
100
AcDbEntity
  8
2
370
    50
100
AcDbLine
 10
143.382524
 20
89.512564
 30
0.0
 11
143.382524
 21
93.283224
 31
0.0
  0
LINE
  5
16E
100
AcDbEntity
  8
2
370
    50
100
AcDbLine
 10
144.46968
 20
88.516369
 30
0.0
 11
150.691551
 21
89.060712
 31
0.0
  0
ARC
  5
16F
100
AcDbEntity
  8
2
370
    50
100
AcDbCircle
 10
144.382524
 20
89.512564
 30
0.0
 40
1.0
100
AcDbArc
 50
180.0
 51
275.0
  0
ARC
  5
170
100
AcDbEntity
  8
2
370
    50
100
AcDbCircle
 10
151.12733
 20
84.079739
 30
0.0
 40
5.0
100
AcDbArc
 50
79.123693
 51
95.0
  0
POINT
  5
171
100
AcDbEntity
  8
2
370
    50
100
AcDbPoint
 10
243.382524
 20
32.421255
 30
0.0
  0
POINT
  5
172
100
AcDbEntity
  8
2
370
    50
100
AcDbPoint
 10
243.382524
 20
32.421255
 30
0.0
  0
ARC
  5
173
100
AcDbEntity
  8
2
370
    50
100
AcDbCircle
 10
104.898434
 20
-156.519283
 30
0.0
 40
250.0
100
AcDbArc
 50
64.279919
 51
79.123693
  0
POINT
  5
174
100
AcDbEntity
  8
2
370
    50
100
AcDbPoint
 10
221.882524
 20
64.421258
 30
0.0
  0
POINT
  5
175
100
AcDbEntity
  8
2
370
    50
100
AcDbPoint
 10
243.382524
 20
60.421255
 30
0.0
  0
ARC
  5
176
100
AcDbEntity
  8
2
370
    50
100
AcDbCircle
 10
144.382524
 20
93.283224
 30
0.0
 40
1.0
100
AcDbArc
 50
82.488657
 51
180.0
  0
POINT
  5
177
100
AcDbEntity
  8
2
370
    50
100
AcDbPoint
 10
159.583586
 20
87.426478
 30
0.0
  0
POINT
  5
178
100
AcDbEntity
  8
2
370
    50
100
AcDbPoint
 10
202.670617
 20
73.568962
 30
0.0
  0
POINT
  5
179
100
AcDbEntity
  8
2
370
    50
100
AcDbPoint
 10
160.411144
 20
91.683891
 30
0.0
  0
POINT
  5
17A
100
AcDbEntity
  8
2
370
    50
100
AcDbPoint
 10
204.744463
 20
78.971516
 30
0.0
  0
POINT
  5
17B
100
AcDbEntity
  8
2
370
    50
100
AcDbPoint
 10
151.382524
 20
89.121165
 30
0.0
  0
POINT
  5
17C
100
AcDbEntity
  8
2
370
    50
100
AcDbPoint
 10
143.382524
 20
94.421255
 30
0.0
  0
LINE
  5
17D
100
AcDbEntity
  8
2
370
    50
100
AcDbLine
 10
178.14743
 20
126.144302
 30
0.0
 11
179.74098
 21
129.561681
 31
0.0
  0
LINE
  5
17E
100
AcDbEntity
  8
2
370
    50
100
AcDbLine
 10
178.711717
 20
124.781991
 30
0.0
 11
184.580697
 21
122.645857
 31
0.0
  0
ARC
  5
17F
100
AcDbEntity
  8
2
370
    50
100
AcDbCircle
 10
179.053737
 20
125.721684
 30
0.0
 40
1.0
100
AcDbArc
 50
155.0
 51
250.0
  0
ARC
  5
180
100
AcDbEntity
  8
2
370
    50
100
AcDbCircle
 10
182.870596
 20
117.947394
 30
0.0
 40
5.0
100
AcDbArc
 50
54.123693
 51
70.0
  0
ARC
  5
181
100
AcDbEntity
  8
2
370
    50
100
AcDbCircle
 10
39.291448
 20
-80.572197
 30
0.0
 40
250.0
100
AcDbArc
 50
39.279919
 51
54.123693
  0
ARC
  5
182
100
AcDbEntity
  8
2
370
    50
100
AcDbCircle
 10
38.980015
 20
-93.136889
 30
0.0
 40
264.583411
100
AcDbArc
 50
38.733524
 51
57.488657
  0
ARC
  5
183
100
AcDbEntity
  8
2
370
    50
100
AcDbCircle
 10
180.647287
 20
129.139063
 30
0.0
 40
1.0
100
AcDbArc
 50
57.488657
 51
155.0
  0
LINE
  5
184
100
AcDbEntity
  8
2
370
    50
100
AcDbLine
 10
178.14743
 20
126.144302
 30
0.0
 11
179.74098
 21
129.561681
 31
0.0
  0
LINE
  5
185
100
AcDbEntity
  8
2
370
    50
100
AcDbLine
 10
178.711717
 20
124.781991
 30
0.0
 11
184.580697
 21
122.645857
 31
0.0
  0
ARC
  5
186
100
AcDbEntity
  8
2
370
    50
100
AcDbCircle
 10
179.053737
 20
125.721684
 30
0.0
 40
1.0
100
AcDbArc
 50
155.0
 51
250.0
  0
ARC
  5
187
100
AcDbEntity
  8
2
370
    50
100
AcDbCircle
 10
182.870596
 20
117.947394
 30
0.0
 40
5.0
100
AcDbArc
 50
54.123693
 51
70.0
  0
ARC
  5
188
100
AcDbEntity
  8
2
370
    50
100
AcDbCircle
 10
39.291448
 20
-80.572197
 30
0.0
 40
250.0
100
AcDbArc
 50
39.279919
 51
54.123693
  0
ARC
  5
189
100
AcDbEntity
  8
2
370
    50
100
AcDbCircle
 10
180.647287
 20
129.139063
 30
0.0
 40
1.0
100
AcDbArc
 50
57.488657
 51
155.0
  0
POINT
  5
18A
100
AcDbEntity
  8
2
370
    50
100
AcDbPoint
 10
191.948961
 20
117.406802
 30
0.0
  0
POINT
  5
18B
100
AcDbEntity
  8
2
370
    50
100
AcDbPoint
 10
225.142633
 20
86.638261
 30
0.0
  0
POINT
  5
18C
100
AcDbEntity
  8
2
370
    50
100
AcDbPoint
 10
229.305394
 20
90.658192
 30
0.0
  0
POINT
  5
18D
100
AcDbEntity
  8
2
370
    50
100
AcDbPoint
 10
185.232479
 20
122.408628
 30
0.0
  0
POINT
  5
18E
100
AcDbEntity
  8
2
370
    50
100
AcDbPoint
 10
180.221932
 20
130.593088
 30
0.0
  0
POINT
  5
18F
100
AcDbEntity
  8
2
370
    50
100
AcDbPoint
 10
143.382524
 20
88.421255
 30
0.0
  0
POINT
  5
190
100
AcDbEntity
  8
2
370
    50
100
AcDbPoint
 10
177.686223
 20
125.155241
 30
0.0
  0
LINE
  5
191
100
AcDbEntity
  8
2
370
    50
100
AcDbLine
 10
256.382524
 20
-33.079315
 30
0.0
 11
256.382524
 21
-35.079213
 31
0.0
  0
LINE
  5
192
100
AcDbEntity
  8
2
370
    50
100
AcDbLine
 10
230.382524
 20
-33.079315
 30
0.0
 11
230.382524
 21
-35.079213
 31
0.0
  0
LINE
  5
193
100
AcDbEntity
  8
2
370
    50
100
AcDbLine
 10
255.782524
 20
-35.07888
 30
0.0
 11
256.382524
 21
-34.47888
 31
0.0
  0
LINE
  5
194
100
AcDbEntity
  8
2
370
    50
100
AcDbLine
 10
230.982524
 20
-35.07888
 30
0.0
 11
230.382524
 21
-34.47888
 31
0.0
  0
ARC
  5
195
100
AcDbEntity
  8
2
370
    50
100
AcDbCircle
 10
233.107524
 20
-40.079213
 30
0.0
 40
5.0
100
AcDbArc
 50
221.840901
 51
270.0
  0
ARC
  5
196
100
AcDbEntity
  8
2
370
    50
100
AcDbCircle
 10
250.452238
 20
-40.079213
 30
0.0
 40
8.205286
100
AcDbArc
 50
32.369572
 51
37.543478
  0
ARC
  5
197
100
AcDbEntity
  8
2
370
    50
100
AcDbCircle
 10
253.657524
 20
-40.079213
 30
0.0
 40
5.0
100
AcDbArc
 50
270.0
 51
318.159099
  0
ARC
  5
198
100
AcDbEntity
  8
2
370
    50
100
AcDbCircle
 10
236.31281
 20
-40.079213
 30
0.0
 40
8.205286
100
AcDbArc
 50
142.456522
 51
147.630428
  0
LINE
  5
199
100
AcDbEntity
  8
2
370
    50
100
AcDbLine
 10
257.382524
 20
-43.414536
 30
0.0
 11
257.382524
 21
-35.686281
 31
0.0
  0
LINE
  5
19A
100
AcDbEntity
  8
2
370
    50
100
AcDbLine
 10
229.382524
 20
-43.414536
 30
0.0
 11
229.382524
 21
-35.686281
 31
0.0
  0
LINE
  5
19B
100
AcDbEntity
  8
2
370
    50
100
AcDbLine
 10
229.806911
 20
-35.079213
 30
0.0
 11
256.958137
 21
-35.079213
 31
0.0
  0
LINE
  5
19C
100
AcDbEntity
  8
2
370
    50
100
AcDbLine
 10
233.107524
 20
-45.079213
 30
0.0
 11
253.657524
 21
-45.079213
 31
0.0
  0
ELLIPSE
  5
19D
100
AcDbEntity
  8
2
370
    50
100
AcDbEllipse
 10
236.382524
 20
-39.550408
 30
0.0
 11
5.5560780000000003
 21
0.0
 31
0.0
210
0.0
220
0.0
230
1.0
 40
0.695478
 41
0.0
 42
6.2831849999999996
  0
ELLIPSE
  5
19E
100
AcDbEntity
  8
2
370
    50
100
AcDbEllipse
 10
250.382524
 20
-39.550408
 30
0.0
 11
5.5560780000000003
 21
0.0
 31
0.0
210
0.0
220
0.0
230
1.0
 40
0.695478
 41
0.0
 42
6.2831849999999996
  0
ARC
  5
19F
100
AcDbEntity
  8
2
370
    25
100
AcDbCircle
 10
85.382524
 20
-86.500376
 30
0.0
 40
7.578254
100
AcDbArc
 50
219.737283
 51
252.332056
  0
ARC
  5
1A0
100
AcDbEntity
  8
2
370
    25
100
AcDbCircle
 10
61.382524
 20
-86.500376
 30
0.0
 40
7.578254
100
AcDbArc
 50
281.13592
 51
320.262717
  0
LINE
  5
1A1
100
AcDbEntity
  8
2
370
    25
100
AcDbLine
 10
67.421524
 20
-91.07863
 30
0.0
 11
79.343524
 21
-91.07863
 31
0.0
  0
ARC
  5
1A2
100
AcDbEntity
  8
2
370
    25
100
AcDbCircle
 10
93.382524
 20
-89.57863
 30
0.0
 40
25.961
100
AcDbArc
 50
90.0
 51
180.0
  0
LINE
  5
1A3
100
AcDbEntity
  8
2
370
    25
100
AcDbLine
 10
93.382524
 20
-63.61763
 30
0.0
 11
117.382524
 21
-63.61763
 31
0.0
  0
LINE
  5
1A4
100
AcDbEntity
  8
2
370
    25
100
AcDbLine
 10
117.382524
 20
-75.540071
 30
0.0
 11
93.271198
 21
-75.540071
 31
0.0
  0
ARC
  5
1A5
100
AcDbEntity
  8
2
370
    25
100
AcDbCircle
 10
93.382524
 20
-89.57863
 30
0.0
 40
14.039
100
AcDbArc
 50
90.0
 51
180.0
  0
LINE
  5
1A6
100
AcDbEntity
  8
2
370
    25
100
AcDbLine
 10
67.421524
 20
-89.57863
 30
0.0
 11
67.421524
 21
-91.07863
 31
0.0
  0
LINE
  5
1A7
100
AcDbEntity
  8
2
370
    50
100
AcDbLine
 10
121.382524
 20
-61.62863
 30
0.0
 11
223.382524
 21
-61.62863
 31
0.0
  0
LINE
  5
1A8
100
AcDbEntity
  8
2
370
    50
100
AcDbLine
 10
121.382524
 20
-77.52863
 30
0.0
 11
223.382524
 21
-77.52863
 31
0.0
  0
LINE
  5
1A9
100
AcDbEntity
  8
2
370
    50
100
AcDbLine
 10
85.382524
 20
-89.57863
 30
0.0
 11
85.382524
 21
-93.57863
 31
0.0
  0
ARC
  5
1AA
100
AcDbEntity
  8
2
370
    50
100
AcDbCircle
 10
84.632524
 20
-94.57863
 30
0.0
 40
0.5
100
AcDbArc
 50
90.0
 51
180.0
  0
LINE
  5
1AB
100
AcDbEntity
  8
2
370
    50
100
AcDbLine
 10
121.382524
 20
-58.57863
 30
0.0
 11
121.382524
 21
-80.57863
 31
0.0
  0
LINE
  5
1AC
100
AcDbEntity
  8
2
370
    50
100
AcDbLine
 10
93.382524
 20
-81.57863
 30
0.0
 11
117.382524
 21
-81.57863
 31
0.0
  0
ARC
  5
1AD
100
AcDbEntity
  8
2
370
    50
100
AcDbCircle
 10
93.382524
 20
-89.57863
 30
0.0
 40
8.0
100
AcDbArc
 50
90.0
 51
180.0
  0
ARC
  5
1AE
100
AcDbEntity
  8
2
370
    50
100
AcDbCircle
 10
84.882524
 20
-93.57863
 30
0.0
 40
0.5
100
AcDbArc
 50
270.0
 51
360.0
  0
LINE
  5
1AF
100
AcDbEntity
  8
2
370
    50
100
AcDbLine
 10
84.132524
 20
-94.57863
 30
0.0
 11
84.132524
 21
-94.67863
 31
0.0
  0
ARC
  5
1B0
100
AcDbEntity
  8
2
370
    50
100
AcDbCircle
 10
117.382524
 20
-73.07863
 30
0.0
 40
8.5
100
AcDbArc
 50
270.0
 51
298.072487
  0
LINE
  5
1B1
100
AcDbEntity
  8
2
370
    50
100
AcDbLine
 10
93.382524
 20
-57.57863
 30
0.0
 11
117.382524
 21
-57.57863
 31
0.0
  0
ARC
  5
1B2
100
AcDbEntity
  8
2
370
    50
100
AcDbCircle
 10
93.382524
 20
-89.57863
 30
0.0
 40
32.0
100
AcDbArc
 50
90.0
 51
180.0
  0
LINE
  5
1B3
100
AcDbEntity
  8
2
370
    50
100
AcDbLine
 10
61.382524
 20
-89.57863
 30
0.0
 11
61.382524
 21
-93.57863
 31
0.0
  0
ARC
  5
1B4
100
AcDbEntity
  8
2
370
    50
100
AcDbCircle
 10
61.882524
 20
-93.57863
 30
0.0
 40
0.5
100
AcDbArc
 50
180.0
 51
270.0
  0
LINE
  5
1B5
100
AcDbEntity
  8
2
370
    50
100
AcDbLine
 10
61.882524
 20
-94.07863
 30
0.0
 11
84.882524
 21
-94.07863
 31
0.0
  0
LINE
  5
1B6
100
AcDbEntity
  8
2
370
    50
100
AcDbLine
 10
62.632524
 20
-94.57863
 30
0.0
 11
62.632524
 21
-94.67863
 31
0.0
  0
ARC
  5
1B7
100
AcDbEntity
  8
2
370
    50
100
AcDbCircle
 10
62.132524
 20
-94.57863
 30
0.0
 40
0.5
100
AcDbArc
 50
0.0
 51
90.0
  0
ARC
  5
1B8
100
AcDbEntity
  8
2
370
    50
100
AcDbCircle
 10
117.382524
 20
-66.07863
 30
0.0
 40
8.5
100
AcDbArc
 50
61.927513
 51
90.0
  0
LINE
  5
1B9
100
AcDbEntity
  8
2
370
    50
100
AcDbLine
 10
63.059557
 20
-106.17863
 30
0.0
 11
83.705491
 21
-106.17863
 31
0.0
  0
LINE
  5
1BA
100
AcDbEntity
  8
2
370
    50
100
AcDbLine
 10
61.382524
 20
-94.87863
 30
0.0
 11
61.382524
 21
-103.67863
 31
0.0
  0
LINE
  5
1BB
100
AcDbEntity
  8
2
370
    50
100
AcDbLine
 10
85.382524
 20
-94.87863
 30
0.0
 11
85.382524
 21
-103.67863
 31
0.0
  0
LINE
  5
1BC
100
AcDbEntity
  8
2
370
    50
100
AcDbLine
 10
85.382524
 20
-94.87863
 30
0.0
 11
85.182524
 21
-94.67863
 31
0.0
  0
LINE
  5
1BD
100
AcDbEntity
  8
2
370
    50
100
AcDbLine
 10
61.382524
 20
-94.87863
 30
0.0
 11
61.582524
 21
-94.67863
 31
0.0
  0
LINE
  5
1BE
100
AcDbEntity
  8
2
370
    50
100
AcDbLine
 10
61.582524
 20
-94.67863
 30
0.0
 11
85.182524
 21
-94.67863
 31
0.0
  0
LINE
  5
1BF
100
AcDbEntity
  8
2
370
    50
100
AcDbLine
 10
85.382524
 20
-103.67863
 30
0.0
 11
84.633968
 21
-105.55002
 31
0.0
  0
LINE
  5
1C0
100
AcDbEntity
  8
2
370
    50
100
AcDbLine
 10
61.382524
 20
-103.67863
 30
0.0
 11
62.13108
 21
-105.55002
 31
0.0
  0
ARC
  5
1C1
100
AcDbEntity
  8
2
370
    50
100
AcDbCircle
 10
63.059557
 20
-105.17863
 30
0.0
 40
1.0
100
AcDbArc
 50
201.801409
 51
270.0
  0
ARC
  5
1C2
100
AcDbEntity
  8
2
370
    50
100
AcDbCircle
 10
83.705491
 20
-105.17863
 30
0.0
 40
1.0
100
AcDbArc
 50
270.0
 51
338.198591
  0
POINT
  5
1C3
100
AcDbEntity
  8
2
370
    50
100
AcDbPoint
 10
243.382524
 20
-45.079213
 30
0.0
  0
LINE
  5
1C4
100
AcDbEntity
  8
2
370
    25
100
AcDbLine
 10
84.261082
 20
-103.67863
 30
0.0
 11
62.374041
 21
-103.67863
 31
0.0
  0
POINT
  5
1C5
100
AcDbEntity
  8
2
370
    50
100
AcDbPoint
 10
73.382524
 20
-106.17863
 30
0.0
  0
LINE
  5
1C6
100
AcDbEntity
  8
2
370
    50
100
AcDbLine
 10
235.432524
 20
-49.57863
 30
0.0
 11
235.432524
 21
-45.079213
 31
0.0
  0
LINE
  5
1C7
100
AcDbEntity
  8
2
370
    50
100
AcDbLine
 10
251.332524
 20
-49.57863
 30
0.0
 11
251.332524
 21
-45.079213
 31
0.0
  0
ARC
  5
1C8
100
AcDbEntity
  8
2
370
    50
100
AcDbCircle
 10
223.382524
 20
-49.57863
 30
0.0
 40
12.05
100
AcDbArc
 50
270.0
 51
0.0
  0
ARC
  5
1C9
100
AcDbEntity
  8
2
370
    50
100
AcDbCircle
 10
223.382524
 20
-49.57863
 30
0.0
 40
27.95
100
AcDbArc
 50
270.0
 51
0.0
  0
POINT
  5
1CA
100
AcDbEntity
  8
2
370
    50
100
AcDbPoint
 10
73.382524
 20
-106.17863
 30
0.0
  0
LINE
  5
1CB
100
AcDbEntity
  8
2
370
    25
  6
CENTER
100
AcDbLine
 10
218.626589
 20
-15.078248
 30
0.0
 11
307.993334
 21
-15.078248
 31
0.0
  0
POINT
  5
1CC
100
AcDbEntity
  8
3
370
    50
100
AcDbPoint
 10
394.982385
 20
48.028119
 30
0.0
  0
TEXT
  5
1CD
100
AcDbEntity
  8
3
370
    50
100
AcDbText
 10
290.832582
 20
-240.013492
 30
0.0
 40
6.0
  1
１　２
 72
     5
 11
307.632582
 21
-240.013492
 31
0.0
100
AcDbText
  0
TEXT
  5
1CE
100
AcDbEntity
  8
3
370
    50
100
AcDbText
 10
325.345331
 20
-273.370594
 30
0.0
 40
10.0
  1
１０１６９９
 72
     5
 11
383.345331
 21
-273.370594
 31
0.0
100
AcDbText
  0
TEXT
  5
1CF
100
AcDbEntity
  8
3
370
    50
100
AcDbText
 10
64.863625
 20
-236.598251
 30
0.0
 40
7.0
  1
ＭＫ３１５Ｅ
 72
     5
 11
105.463625
 21
-236.598251
 31
0.0
100
AcDbText
  0
TEXT
  5
1D0
100
AcDbEntity
  8
3
370
    50
100
AcDbText
 10
65.721176
 20
-227.630386
 30
0.0
 40
7.0
  1
壁付シングルレバー湯水混合水栓
 72
     5
 11
169.321176
 21
-227.630386
 31
0.0
100
AcDbText
  0
TEXT
  5
1D1
100
AcDbEntity
  8
3
370
    50
100
AcDbText
 10
-247.652124
 20
-66.509199
 30
0.0
 40
7.0
  1
逆止弁内蔵
 72
     5
 11
-214.052124
 21
-66.509199
 31
0.0
100
AcDbText
  0
DIMENSION
  5
1D2
100
AcDbEntity
  8
3
370
    25
100
AcDbDimension
  2
*D0
 10
243.382524
 20
-132.504763
 30
0.0
 11
158.382524
 21
-128.004763
 31
0.0
 71
     0
 72
     0
 41
0.0
 42
0.0
  3
Standard
100
AcDbAlignedDimension
 13
73.382524
 23
-107.414201
 33
0.0
 14
243.382524
 24
-69.57863
 34
0.0
100
AcDbRotatedDimension
  0
TEXT
  5
1D3
100
AcDbEntity
  8
3
370
    50
100
AcDbText
 10
149.579432
 20
95.614117
 30
0.0
 40
7.0
  1
止水
 72
     5
 11
162.179432
 21
95.614117
 31
0.0
100
AcDbText
  0
TEXT
  5
1D4
100
AcDbEntity
  8
3
370
    50
100
AcDbText
 10
186.609606
 20
129.132208
 30
0.0
 40
7.0
  1
吐水
 72
     5
 11
199.209606
 21
129.132208
 31
0.0
100
AcDbText
  0
TEXT
  5
1D5
100
AcDbEntity
  8
3
370
    50
100
AcDbText
 10
34.618634
 20
47.256837
 30
0.0
 40
7.0
  1
１４６
 50
90.0
 72
     5
 11
34.618634
 21
66.856837
 31
0.0
100
AcDbText
  0
DIMENSION
  5
1D6
100
AcDbEntity
  8
3
370
    25
100
AcDbDimension
  2
*D1
 10
35.618634
 20
130.593088
 30
0.0
 11
33.118634
 21
57.756837
 31
0.0
 71
     0
 72
     0
 41
0.0
 42
0.0
  3
Standard
100
AcDbAlignedDimension
 13
218.073274
 23
-15.079414
 33
0.0
 14
180.221932
 24
130.593088
 34
0.0
 50
90.0
100
AcDbRotatedDimension
  0
TEXT
  5
1D7
100
AcDbEntity
  8
3
370
    50
100
AcDbText
 10
65.392166
 20
26.170921
 30
0.0
 40
7.0
  1
１０４
 50
90.0
 72
     5
 11
65.392166
 21
45.770921
 31
0.0
100
AcDbText
  0
DIMENSION
  5
1D8
100
AcDbEntity
  8
3
370
    25
100
AcDbDimension
  2
*D2
 10
66.392166
 20
88.421255
 30
0.0
 11
63.892166
 21
36.670921
 31
0.0
 71
     0
 72
     0
 41
0.0
 42
0.0
  3
Standard
100
AcDbAlignedDimension
 13
218.073274
 23
-15.079414
 33
0.0
 14
143.382524
 24
88.421255
 34
0.0
 50
90.0
100
AcDbRotatedDimension
  0
TEXT
  5
1D9
100
AcDbEntity
  8
3
370
    50
100
AcDbText
 10
-223.727142
 20
-160.809967
 30
0.0
 40
7.0
  1
１８５（ＭＡＸ２１５）
 72
     5
 11
-148.127142
 21
-160.809967
 31
0.0
100
AcDbText
  0
DIMENSION
  5
1DA
100
AcDbEntity
  8
3
370
    25
100
AcDbDimension
  2
*D3
 10
-92.800735
 20
-161.809967
 30
0.0
 11
-185.227142
 21
-159.809967
 31
0.0
 71
     0
 72
     0
 41
0.0
 42
0.0
  3
Standard
100
AcDbAlignedDimension
 13
-277.653549
 23
-57.065709
 33
0.0
 14
-92.800735
 24
-57.065709
 34
0.0
100
AcDbRotatedDimension
  0
TEXT
  5
1DB
100
AcDbEntity
  8
3
370
    50
100
AcDbText
 10
313.082524
 20
-131.504763
 30
0.0
 40
7.0
  1
（１９）
 72
     5
 11
339.682524
 21
-131.504763
 31
0.0
100
AcDbText
  0
DIMENSION
  5
1DC
100
AcDbEntity
  8
3
370
    25
100
AcDbDimension
  2
*D4
 10
336.582524
 20
-132.504763
 30
0.0
 11
327.082524
 21
-130.504763
 31
0.0
 71
     0
 72
     0
 41
0.0
 42
0.0
  3
Standard
100
AcDbAlignedDimension
 13
317.582524
 23
-80.504655
 33
0.0
 14
336.582524
 24
-66.804655
 34
0.0
100
AcDbRotatedDimension
  0
DIMENSION
  5
1DD
100
AcDbEntity
  8
3
370
    25
100
AcDbDimension
  2
*D5
 10
145.959895
 20
94.421255
 30
0.0
 11
138.777397
 21
131.561242
 31
0.0
 70
     2
 71
     0
 72
     0
 41
0.0
 42
0.0
  3
Standard
100
AcDb2LineAngularDimension
 13
211.658032
 23
115.934194
 33
0.0
 14
257.792677
 24
94.421255
 34
0.0
 15
257.792677
 25
94.421255
 35
0.0
 16
136.504781
 26
121.310134
 36
0.0
1001
ACAD
1000
DSTYLE
1002
{
1070
   275
1070
     0
1070
   179
1070
     0
1002
}
  0
DIMENSION
  5
1DE
100
AcDbEntity
  8
3
370
    25
100
AcDbDimension
  2
*D6
 10
-300.407616
 20
-34.311642
 30
0.0
 11
-279.90152
 21
-14.866206
 31
0.0
 70
     1
 71
     0
 72
     0
 41
0.0
 42
0.0
  3
Standard
100
AcDbAlignedDimension
 13
-235.227142
 23
-14.639303
 33
0.0
 14
-277.653549
 24
-57.065709
 34
0.0
 50
45.0
  0
LWPOLYLINE
  5
1DF
100
AcDbEntity
  8
3
370
    25
100
AcDbPolyline
 90
        2
 70
     0
 10
-250.960569
 20
-40.570276
 10
-240.252439
 20
-58.267496
  0
LINE
  5
1E3
100
AcDbEntity
  8
3
370
    25
  6
CENTER
100
AcDbLine
 10
-279.489012
 20
77.027905
 30
0.0
 11
-279.489012
 21
67.075403
 31
0.0
  0
LINE
  5
1E4
100
AcDbEntity
  8
3
370
    25
  6
CENTER
100
AcDbLine
 10
-285.032296
 20
71.44901
 30
0.0
 11
-274.163444
 21
71.44901
 31
0.0
  0
ARC
  5
1E5
100
AcDbEntity
  8
3
370
    50
100
AcDbCircle
 10
-279.489012
 20
71.44901
 30
0.0
 40
4.8951
100
AcDbArc
 50
305.281262
 51
234.718738
  0
LINE
  5
1E6
100
AcDbEntity
  8
3
370
    50
100
AcDbLine
 10
-282.316376
 20
67.45301
 30
0.0
 11
-276.661647
 21
67.45301
 31
0.0
  0
LINE
  5
1E7
100
AcDbEntity
  8
3
370
    50
100
AcDbLine
 10
-280.936404
 20
73.190786
 30
0.0
 11
-283.52914
 21
71.709223
 31
0.0
  0
ARC
  5
1E8
100
AcDbEntity
  8
3
370
    50
100
AcDbCircle
 10
-280.787712
 20
72.930573
 30
0.0
 40
0.2997
100
AcDbArc
 50
0.0
 51
119.744881
  0
LINE
  5
1E9
100
AcDbEntity
  8
3
370
    50
100
AcDbLine
 10
-280.488012
 20
72.930573
 30
0.0
 11
-280.488012
 21
69.967447
 31
0.0
  0
ARC
  5
1EA
100
AcDbEntity
  8
3
370
    50
100
AcDbCircle
 10
-280.787712
 20
69.967447
 30
0.0
 40
0.2997
100
AcDbArc
 50
240.255119
 51
360.0
  0
LINE
  5
1EB
100
AcDbEntity
  8
3
370
    50
100
AcDbLine
 10
-280.936404
 20
69.707235
 30
0.0
 11
-283.52914
 21
71.188798
 31
0.0
  0
ARC
  5
1EC
100
AcDbEntity
  8
3
370
    50
100
AcDbCircle
 10
-283.380447
 20
71.44901
 30
0.0
 40
0.2997
100
AcDbArc
 50
119.744881
 51
240.255119
  0
ARC
  5
1ED
100
AcDbEntity
  8
3
370
    50
100
AcDbCircle
 10
-278.190312
 20
72.930573
 30
0.0
 40
0.2997
100
AcDbArc
 50
60.255119
 51
180.0
  0
LINE
  5
1EE
100
AcDbEntity
  8
3
370
    50
100
AcDbLine
 10
-278.490012
 20
72.930573
 30
0.0
 11
-278.490012
 21
69.967447
 31
0.0
  0
LINE
  5
1EF
100
AcDbEntity
  8
3
370
    50
100
AcDbLine
 10
-278.041619
 20
73.190786
 30
0.0
 11
-275.448883
 21
71.709223
 31
0.0
  0
ARC
  5
1F0
100
AcDbEntity
  8
3
370
    50
100
AcDbCircle
 10
-275.597576
 20
71.44901
 30
0.0
 40
0.2997
100
AcDbArc
 50
299.744881
 51
60.255119
  0
LINE
  5
1F1
100
AcDbEntity
  8
3
370
    50
100
AcDbLine
 10
-278.041619
 20
69.707235
 30
0.0
 11
-275.448883
 21
71.188798
 31
0.0
  0
ARC
  5
1F2
100
AcDbEntity
  8
3
370
    50
100
AcDbCircle
 10
-278.190312
 20
69.967447
 30
0.0
 40
0.2997
100
AcDbArc
 50
180.0
 51
299.744881
  0
LWPOLYLINE
  5
1F3
100
AcDbEntity
  8
3
370
    25
100
AcDbPolyline
 90
        3
 70
     0
 10
-277.529663
 20
72.059647
 10
-272.046234
 20
80.494789
 10
-237.437042
 20
80.494789
  0
LWPOLYLINE
  5
1F8
100
AcDbEntity
  8
3
370
    25
100
AcDbPolyline
 90
        3
 70
     0
 10
-281.44836
 20
72.059647
 10
-286.931789
 20
80.494789
 10
-320.808533
 20
80.494789
  0
TEXT
  5
1FD
100
AcDbEntity
  8
3
370
    50
100
AcDbText
 10
-270.396942
 20
81.199936
 30
0.0
 40
7.0
  1
青色
 72
     5
 11
-257.796942
 21
81.199936
 31
0.0
100
AcDbText
  0
TEXT
  5
1FE
100
AcDbEntity
  8
3
370
    50
100
AcDbText
 10
-270.396942
 20
73.199936
 30
0.0
 40
7.0
  1
（水表示）
 72
     5
 11
-236.796942
 21
73.199936
 31
0.0
100
AcDbText
  0
TEXT
  5
1FF
100
AcDbEntity
  8
3
370
    50
100
AcDbText
 10
-320.999573
 20
73.113678
 30
0.0
 40
7.0
  1
（湯表示）
 72
     5
 11
-287.399573
 21
73.113678
 31
0.0
100
AcDbText
  0
TEXT
  5
200
100
AcDbEntity
  8
3
370
    50
100
AcDbText
 10
-301.999573
 20
81.113678
 30
0.0
 40
7.0
  1
赤色
 72
     5
 11
-289.399573
 21
81.113678
 31
0.0
100
AcDbText
  0
LWPOLYLINE
  5
201
100
AcDbEntity
  8
3
370
    25
100
AcDbPolyline
 90
        2
 70
     0
 10
-189.145493
 20
48.197121
 10
-276.583496
 20
68.786636
  0
DIMENSION
  5
205
100
AcDbEntity
  8
3
370
    25
100
AcDbDimension
  2
*D7
 10
357.933197
 20
-34.504655
 30
0.0
 11
346.433197
 21
-61.004655
 31
0.0
 71
     0
 72
     0
 41
0.0
 42
0.0
  3
Standard
100
AcDbAlignedDimension
 13
317.582524
 23
-80.504655
 33
0.0
 14
317.582524
 24
-34.504655
 34
0.0
 50
90.0
100
AcDbRotatedDimension
  0
TEXT
  5
206
100
AcDbEntity
  8
3
370
    50
100
AcDbText
 10
352.727478
 20
-18.535861
 30
0.0
 40
7.0
  1
ＰＪ１／２
 72
     5
 11
386.327478
 21
-18.535861
 31
0.0
100
AcDbText
  0
LWPOLYLINE
  5
207
100
AcDbEntity
  8
3
370
    25
100
AcDbPolyline
 90
        3
 70
     0
 10
324.956635
 20
-47.004655
 10
347.183624
 20
-18.769472
 10
386.536346
 20
-18.769472
  0
LINE
  5
20C
100
AcDbEntity
  8
3
370
    25
100
AcDbLine
 10
327.346518
 20
-43.96876
 30
0.0
 11
326.533053
 21
-43.328393
 31
0.0
  0
LINE
  5
20D
100
AcDbEntity
  8
3
370
    25
100
AcDbLine
 10
326.533053
 20
-43.328393
 30
0.0
 11
324.956635
 21
-47.004655
 31
0.0
  0
LINE
  5
20E
100
AcDbEntity
  8
3
370
    25
100
AcDbLine
 10
324.956635
 20
-47.004655
 30
0.0
 11
328.159984
 21
-44.609127
 31
0.0
  0
LINE
  5
20F
100
AcDbEntity
  8
3
370
    25
100
AcDbLine
 10
328.159984
 20
-44.609127
 30
0.0
 11
327.346518
 21
-43.96876
 31
0.0
  0
TEXT
  5
210
100
AcDbEntity
  8
3
370
    50
100
AcDbText
 10
266.482524
 20
-131.504763
 30
0.0
 40
7.0
  1
（７４）
 72
     5
 11
293.082524
 21
-131.504763
 31
0.0
100
AcDbText
  0
DIMENSION
  5
211
100
AcDbEntity
  8
3
370
    25
100
AcDbDimension
  2
*D8
 10
317.582524
 20
-132.504763
 30
0.0
 11
280.482524
 21
-130.504763
 31
0.0
 71
     0
 72
     0
 41
0.0
 42
0.0
  3
Standard
100
AcDbAlignedDimension
 13
243.382524
 23
-69.57863
 33
0.0
 14
317.582524
 24
-80.504655
 34
0.0
100
AcDbRotatedDimension
  0
TEXT
  5
212
100
AcDbEntity
  8
3
370
    50
100
AcDbText
 10
34.618634
 20
-67.628439
 30
0.0
 40
7.0
  1
９１
 50
90.0
 72
     5
 11
34.618634
 21
-55.028439
 31
0.0
100
AcDbText
  0
DIMENSION
  5
213
100
AcDbEntity
  8
3
370
    25
100
AcDbDimension
  2
*D9
 10
35.618634
 20
-15.078248
 30
0.0
 11
33.118634
 21
-60.628439
 31
0.0
 71
     0
 72
     0
 41
0.0
 42
0.0
  3
Standard
100
AcDbAlignedDimension
 13
63.059557
 23
-106.17863
 33
0.0
 14
218.626589
 24
-15.078248
 34
0.0
 50
90.0
100
AcDbRotatedDimension
  0
DIMENSION
  5
214
100
AcDbEntity
  8
3
370
    25
100
AcDbDimension
  2
*D10
 10
-135.227142
 20
-135.862412
 30
0.0
 11
-185.227142
 21
-131.362412
 31
0.0
 71
     0
 72
     0
 41
0.0
 42
0.0
  3
Standard
100
AcDbAlignedDimension
 13
-235.227142
 23
-14.639303
 33
0.0
 14
-135.227142
 24
-14.639303
 34
0.0
100
AcDbRotatedDimension
  0
ENDSEC
  0
SECTION
  2
OBJECTS
  0
DICTIONARY
  5
293
100
AcDbDictionary
280
     0
281
     1
  3
ACAD_GROUP
350
294
  3
ACAD_MLINESTYLE
350
295
  0
DICTIONARY
  5
294
102
{ACAD_REACTORS
330
293
102
}
100
AcDbDictionary
280
     0
281
     1
  0
DICTIONARY
  5
295
102
{ACAD_REACTORS
330
293
102
}
100
AcDbDictionary
280
     0
281
     1
  3
Standard
350
296
  0
MLINESTYLE
  5
296
102
{ACAD_REACTORS
330
295
102
}
100
AcDbMlineStyle
  2
Standard
 70
     0
  3

 62
     0
 51
90.0
 52
90.0
 71
     2
 49
0.5
 62
   256
  6
ByLayer
 49
-0.5
 62
   256
  6
ByLayer
  0
ENDSEC
  0
EOF
