  0
SECTION
  2
HEADER
  9
$ACADVER
  1
AC1015
  9
$ACADMAINTVER
 70
     6
  9
$DWGCODEPAGE
  3
ANSI_932
  9
$INSBASE
 10
0.0
 20
0.0
 30
0.0
  9
$EXTMIN
 10
-841.0
 20
-594.0
 30
1.000000E+20
  9
$EXTMAX
 10
841.0
 20
594.0
 30
-1.000000E+20
  9
$LIMMIN
 10
-841.0
 20
-594.0
  9
$LIMMAX
 10
841.0
 20
594.0
  9
$ORTHOMODE
 70
     0
  9
$REGENMODE
 70
     1
  9
$FILLMODE
 70
     1
  9
$QTEXTMODE
 70
     0
  9
$MIRRTEXT
 70
     1
  9
$LTSCALE
 40
1.0
  9
$ATTMODE
 70
     1
  9
$TEXTSIZE
 40
0.2
  9
$TRACEWID
 40
0.05
  9
$TEXTSTYLE
  7
STANDARD
  9
$CLAYER
  8
0
  9
$CELTYPE
  6
CONTINUOUS
  9
$CECOLOR
 62
   256
  9
$CELTSCALE
 40
1.0
  9
$DISPSILH
 70
     0
  9
$DIMSCALE
 40
2.0
  9
$DIMASZ
 40
2.0
  9
$DIMEXO
 40
1.0
  9
$DIMDLI
 40
0.38
  9
$DIMRND
 40
0.0
  9
$DIMDLE
 40
0.0
  9
$DIMEXE
 40
2.0
  9
$DIMTP
 40
0.0
  9
$DIMTM
 40
0.0
  9
$DIMTXT
 40
3.5
  9
$DIMCEN
 40
0.09
  9
$DIMTSZ
 40
0.0
  9
$DIMTOL
 70
     0
  9
$DIMLIM
 70
     0
  9
$DIMTIH
 70
     0
  9
$DIMTOH
 70
     0
  9
$DIMSE1
 70
     0
  9
$DIMSE2
 70
     0
  9
$DIMTAD
 70
     1
  9
$DIMZIN
 70
     0
  9
$DIMBLK
  1

  9
$DIMASO
 70
     1
  9
$DIMSHO
 70
     1
  9
$DIMPOST
  1

  9
$DIMAPOST
  1

  9
$DIMALT
 70
     0
  9
$DIMALTD
 70
     2
  9
$DIMALTF
 40
25.4
  9
$DIMLFAC
 40
1.0
  9
$DIMTOFL
 70
     0
  9
$DIMTVP
 40
0.0
  9
$DIMTIX
 70
     0
  9
$DIMSOXD
 70
     0
  9
$DIMSAH
 70
     0
  9
$DIMBLK1
  1

  9
$DIMBLK2
  1

  9
$DIMSTYLE
  2
Standard
  9
$DIMCLRD
 70
     0
  9
$DIMCLRE
 70
     0
  9
$DIMCLRT
 70
     0
  9
$DIMTFAC
 40
1.0
  9
$DIMGAP
 40
0.5
  9
$DIMJUST
 70
     0
  9
$DIMSD1
 70
     0
  9
$DIMSD2
 70
     0
  9
$DIMTOLJ
 70
     1
  9
$DIMTZIN
 70
     0
  9
$DIMALTZ
 70
     0
  9
$DIMALTTZ
 70
     0
  9
$DIMUPT
 70
     0
  9
$DIMDEC
 70
     3
  9
$DIMTDEC
 70
     4
  9
$DIMALTU
 70
     2
  9
$DIMALTTD
 70
     2
  9
$DIMTXSTY
  7
STANDARD
  9
$DIMAUNIT
 70
     0
  9
$DIMADEC
 70
     0
  9
$DIMALTRND
 40
0.0
  9
$DIMAZIN
 70
     0
  9
$DIMDSEP
 70
     0
  9
$DIMATFIT
 70
     3
  9
$DIMFRAC
 70
     0
  9
$DIMLDRBLK
  1

  9
$DIMLUNIT
 70
     2
  9
$DIMLWD
 70
     0
  9
$DIMLWE
 70
     0
  9
$DIMTMOVE
 70
     0
  9
$LUNITS
 70
     2
  9
$LUPREC
 70
     4
  9
$SKETCHINC
 40
0.1
  9
$FILLETRAD
 40
0.0
  9
$AUNITS
 70
     0
  9
$AUPREC
 70
     0
  9
$MENU
  1
acad
  9
$ELEVATION
 40
0.0
  9
$PELEVATION
 40
0.0
  9
$THICKNESS
 40
0.0
  9
$LIMCHECK
 70
     0
  9
$CHAMFERA
 40
0.0
  9
$CHAMFERB
 40
0.0
  9
$CHAMFERC
 40
0.0
  9
$CHAMFERD
 40
0.0
  9
$SKPOLY
 70
     0
  9
$TDCREATE
 40
2453383.000000000
  9
$TDUCREATE
 40
0.000000000
  9
$TDUPDATE
 40
0.000000000
  9
$TDUUPDATE
 40
2447892.625000000
  9
$TDINDWG
 40
0.0000000000
  9
$TDUSRTIMER
 40
0.0000000000
  9
$USRTIMER
 70
     1
  9
$ANGBASE
 50
0.0
  9
$ANGDIR
 70
     0
  9
$PDMODE
 70
     0
  9
$PDSIZE
 40
0.0
  9
$PLINEWID
 40
0.0
  9
$SPLFRAME
 70
     0
  9
$SPLINETYPE
 70
     6
  9
$SPLINESEGS
 70
     8
  9
$HANDSEED
  5
34C
  9
$SURFTAB1
 70
     6
  9
$SURFTAB2
 70
     6
  9
$SURFTYPE
 70
     6
  9
$SURFU
 70
     6
  9
$SURFV
 70
     6
  9
$UCSBASE
  2

  9
$UCSNAME
  2

  9
$UCSORG
 10
0.0
 20
0.0
 30
0.0
  9
$UCSXDIR
 10
1.0
 20
0.0
 30
0.0
  9
$UCSYDIR
 10
0.0
 20
1.0
 30
0.0
  9
$UCSORTHOREF
  2

  9
$UCSORTHOVIEW
 70
     0
  9
$UCSORGTOP
 10
0.0
 20
0.0
 30
0.0
  9
$UCSORGBOTTOM
 10
0.0
 20
0.0
 30
0.0
  9
$UCSORGLEFT
 10
0.0
 20
0.0
 30
0.0
  9
$UCSORGRIGHT
 10
0.0
 20
0.0
 30
0.0
  9
$UCSORGFRONT
 10
0.0
 20
0.0
 30
0.0
  9
$UCSORGBACK
 10
0.0
 20
0.0
 30
0.0
  9
$PUCSBASE
  2

  9
$PUCSNAME
  2

  9
$PUCSORG
 10
0.0
 20
0.0
 30
0.0
  9
$PUCSXDIR
 10
1.0
 20
0.0
 30
0.0
  9
$PUCSYDIR
 10
0.0
 20
1.0
 30
0.0
  9
$PUCSORTHOREF
  2

  9
$PUCSORTHOVIEW
 70
     0
  9
$PUCSORGTOP
 10
0.0
 20
0.0
 30
0.0
  9
$PUCSORGBOTTOM
 10
0.0
 20
0.0
 30
0.0
  9
$PUCSORGLEFT
 10
0.0
 20
0.0
 30
0.0
  9
$PUCSORGRIGHT
 10
0.0
 20
0.0
 30
0.0
  9
$PUCSORGFRONT
 10
0.0
 20
0.0
 30
0.0
  9
$PUCSORGBACK
 10
0.0
 20
0.0
 30
0.0
  9
$USERI1
 70
     0
  9
$USERI2
 70
     0
  9
$USERI3
 70
     0
  9
$USERI4
 70
     0
  9
$USERI5
 70
     0
  9
$USERR1
 40
0.0
  9
$USERR2
 40
0.0
  9
$USERR3
 40
0.0
  9
$USERR4
 40
0.0
  9
$USERR5
 40
0.0
  9
$WORLDVIEW
 70
     1
  9
$SHADEDGE
 70
     3
  9
$SHADEDIF
 70
    70
  9
$TILEMODE
 70
     1
  9
$MAXACTVP
 70
    16
  9
$PINSBASE
 10
0.0
 20
0.0
 30
0.0
  9
$PLIMCHECK
 70
     0
  9
$PEXTMIN
 10
1.000000E+20
 20
1.000000E+20
 30
1.000000E+20
  9
$PEXTMAX
 10
-1.000000E+20
 20
-1.000000E+20
 30
-1.000000E+20
  9
$PLIMMIN
 10
0.0
 20
0.0
  9
$PLIMMAX
 10
12.0
 20
9.0
  9
$UNITMODE
 70
     0
  9
$VISRETAIN
 70
     0
  9
$PLINEGEN
 70
     1
  9
$PSLTSCALE
 70
     0
  9
$TREEDEPTH
 70
  3020
  9
$CMLSTYLE
  2
Standard
  9
$CMLJUST
 70
     0
  9
$CMLSCALE
 40
1.0
  9
$PROXYGRAPHICS
 70
     0
  9
$MEASUREMENT
 70
     0
  9
$CELWEIGHT
370
     0
  9
$ENDCAPS
280
     0
  9
$JOINSTYLE
280
     0
  9
$LWDISPLAY
290
     0
  9
$INSUNITS
 70
     0
  9
$HYPERLINKBASE
  1

  9
$STYLESHEET
  1

  9
$XEDIT
290
     1
  9
$CEPSNTYPE
380
     0
  9
$PSTYLEMODE
290
     1
  9
$FINGERPRINTGUID
  2

  9
$VERSIONGUID
  2

  9
$EXTNAMES
290
     1
  9
$PSVPSCALE
 40
0.0
  0
ENDSEC
  0
SECTION
  2
CLASSES
  0
CLASS
  1
LWPOLYLINE
  2
AcDbPolyline
  3
AutoCAD 2000
 90
        0
280
     0
281
     1
  0
CLASS
  1
IMAGE
  2
AcDbRasterImage
  3
ISM
 90
      127
280
     0
281
     1
  0
CLASS
  1
OLE2FRAME
  2
AcDbOle2Frame
  3
AutoCAD 2000
 90
        0
280
     0
281
     1
  0
CLASS
  1
HATCH
  2
AcDbHatch
  3
AutoCAD 2000
 90
        0
280
     0
281
     1
  0
CLASS
  1
DICTIONARYVAR
  2
AcDbDictionaryVar
  3
AutoCAD 2000
 90
        0
280
     0
281
     0
  0
CLASS
  1
RASTERVARIABLES
  2
AcDbRasterVariables
  3
ISM
 90
        0
280
     0
281
     0
  0
CLASS
  1
IMAGEDEF
  2
AcDbRasterImageDef
  3
ISM
 90
        0
280
     0
281
     0
  0
CLASS
  1
IMAGEDEF_REACTOR
  2
AcDbRasterImageDefReactor
  3
ISM
 90
        1
280
     0
281
     0
  0
CLASS
  1
IDBUFFER
  2
AcDbIdBuffer
  3
AutoCAD 2000
 90
        0
280
     0
281
     0
  0
CLASS
  1
SPATIAL_FILTER
  2
AcDbSpatialFilter
  3
AutoCAD 2000
 90
        0
280
     0
281
     0
  0
CLASS
  1
XRECORD
  2
AcDbXrecord
  3
AutoCAD 2000
 90
        0
280
     0
281
     0
  0
CLASS
  1
SORTENTSTABLE
  2
AcDbSortentsTable
  3
AutoCAD 2000
 90
        0
280
     0
281
     0
  0
CLASS
  1
LAYER_INDEX
  2
AcDbLayerIndex
  3
AutoCAD 2000
 90
        0
280
     0
281
     0
  0
CLASS
  1
SPATIAL_INDEX
  2
AcDbSpatialIndex
  3
AutoCAD 2000
 90
        0
280
     0
281
     0
  0
CLASS
  1
OBJECT_PTR
  2
CAseDLPNTableRecord
  3
"ASE-LPNTableRecord"
 90
        1
280
     0
281
     0
  0
CLASS
  1
LAYOUT
  2
AcDbLayout
  3
AutoCAD 2000
 90
        0
280
     0
281
     0
  0
CLASS
  1
PLOTSETTINGS
  2
AcDbPlotSettings
  3
AutoCAD 2000
 90
        0
280
     0
281
     0
  0
CLASS
  1
ACDBDICTIONARYWDFLT
  2
AcDbDictionaryWithDefault
  3
AutoCAD 2000
 90
        0
280
     0
281
     0
  0
CLASS
  1
ACDBPLACEHOLDER
  2
AcDbPlaceHolder
  3
AutoCAD 2000
 90
        0
280
     0
281
     0
  0
CLASS
  1
VBA_PROJECT
  2
AcDbVbaProject
  3
acadvba
 90
        0
280
     0
281
     0
  0
CLASS
  1
WIPEOUT
  2
AcDbWipeout
  3
WipeOut|AutoCAD Express Tool|expresstools@autodesk.com
 90
      127
280
     0
281
     1
  0
CLASS
  1
WIPEOUTVARIABLES
  2
AcDbWipeoutVariables
  3
WipeOut|AutoCAD Express Tool|expresstools@autodesk.com
 90
        0
280
     0
281
     0
  0
CLASS
  1
RTEXT
  2
RText
  3
RText|AutoCAD Express Tool|expresstools@autodesk.com
 90
        0
280
     0
281
     1
  0
CLASS
  1
ARCALIGNEDTEXT
  2
AcDbArcAlignedText
  3
ATEXT|AutoCAD Express Tool|expresstools@autodesk.com
 90
        0
280
     0
281
     1
  0
ENDSEC
  0
SECTION
  2
TABLES
  0
TABLE
  2
VPORT
  5
6
100
AcDbSymbolTable
 70
     1
  0
VPORT
  5
19
100
AcDbSymbolTableRecord
100
AcDbViewportTableRecord
  2
*ACTIVE
 70
     0
 10
0.0
 20
0.0
 11
1.0
 21
1.0
 12
0.0
 22
0.0
 13
0.0
 23
0.0
 14
1.0
 24
1.0
 15
0.0
 25
0.0
 16
0.0
 26
0.0
 36
1.0
 17
0.0
 27
0.0
 37
0.0
 40
1188.0
 41
1.415825
 42
50.0
 43
0.0
 44
0.0
 50
0.0
 51
0.0
 71
     0
 72
   500
 73
     1
 74
     1
 75
     0
 76
     0
 77
     0
 78
     0
281
     0
 65
     0
110
0.0
120
0.0
130
0.0
111
1.0
121
0.0
131
0.0
112
0.0
122
1.0
132
0.0
345
0
346
0
 79
     0
146
0.0
  0
ENDTAB
  0
TABLE
  2
LTYPE
  5
3
100
AcDbSymbolTable
 70
     9
  0
LTYPE
  5
C
100
AcDbSymbolTableRecord
100
AcDbLinetypeTableRecord
  2
ByBlock
 70
    64
  3

 72
    65
 73
     0
 40
0.0
  0
LTYPE
  5
D
100
AcDbSymbolTableRecord
100
AcDbLinetypeTableRecord
  2
ByLayer
 70
    64
  3

 72
    65
 73
     0
 40
0.0
  0
LTYPE
  5
E
100
AcDbSymbolTableRecord
100
AcDbLinetypeTableRecord
  2
CONTINUOUS
 70
     0
  3
Solid line
 72
    65
 73
     0
 40
0.0
  0
LTYPE
  5
F
100
AcDbSymbolTableRecord
100
AcDbLinetypeTableRecord
  2
DASHED
 70
     0
  3
__ __ __ __ __ __ __ __ __ __ __ __ __ __ __
 72
    65
 73
     2
 40
2.0
 49
1.2
 74
     0
 49
-0.8
 74
     0
  0
LTYPE
  5
10
100
AcDbSymbolTableRecord
100
AcDbLinetypeTableRecord
  2
CENTER
 70
     0
  3
____ _ ____ _ ____ _ ____ _ ____ _ ____ _ ____
 72
    65
 73
     4
 40
12.0
 49
9.0
 74
     0
 49
-1.0
 74
     0
 49
1.0
 74
     0
 49
-1.0
 74
     0
  0
LTYPE
  5
11
100
AcDbSymbolTableRecord
100
AcDbLinetypeTableRecord
  2
HIDDEN
 70
     0
  3
_ _ _ _ _ _ _ _ _ _ _ _ _ _ _ _ _ _ _ _ _ _ _
 72
    65
 73
     2
 40
3.2
 49
2.4
 74
     0
 49
-0.8
 74
     0
  0
LTYPE
  5
12
100
AcDbSymbolTableRecord
100
AcDbLinetypeTableRecord
  2
PHANTOM
 70
     0
  3
_____ _ _ _____ _ _ _____ _ _ _____ _ _ _____
 72
    65
 73
     6
 40
13.5
 49
9.0
 74
     0
 49
-1.0
 74
     0
 49
1.0
 74
     0
 49
-0.5
 74
     0
 49
1.0
 74
     0
 49
-1.0
 74
     0
  0
LTYPE
  5
13
100
AcDbSymbolTableRecord
100
AcDbLinetypeTableRecord
  2
DOT
 70
     0
  3
...............................................
 72
    65
 73
     2
 40
1.0
 49
0.5
 74
     0
 49
-0.5
 74
     0
  0
LTYPE
  5
14
100
AcDbSymbolTableRecord
100
AcDbLinetypeTableRecord
  2
DASHDOT
 70
     0
  3
__ . __ . __ . __ . __ . __ . __ . __ . __ . __
 72
    65
 73
     4
 40
8.0
 49
5.0
 74
     0
 49
-1.0
 74
     0
 49
1.0
 74
     0
 49
-1.0
 74
     0
  0
ENDTAB
  0
TABLE
  2
LAYER
  5
1
100
AcDbSymbolTable
 70
     4
  0
LAYER
  5
15
100
AcDbSymbolTableRecord
100
AcDbLayerTableRecord
  2
0
 70
     0
 62
     7
  6
CONTINUOUS
290
     1
370
    -3
390
0
  0
LAYER
  5
16
100
AcDbSymbolTableRecord
100
AcDbLayerTableRecord
  2
1
 70
     0
 62
     7
  6
CONTINUOUS
290
     1
370
    -3
390
0
  0
LAYER
  5
17
100
AcDbSymbolTableRecord
100
AcDbLayerTableRecord
  2
2
 70
     0
 62
     7
  6
CONTINUOUS
290
     1
370
    -3
390
0
  0
LAYER
  5
18
100
AcDbSymbolTableRecord
100
AcDbLayerTableRecord
  2
3
 70
     0
 62
     7
  6
CONTINUOUS
290
     1
370
    -3
390
0
  0
ENDTAB
  0
TABLE
  2
STYLE
  5
2
100
AcDbSymbolTable
 70
     1
  0
STYLE
  5
1B
100
AcDbSymbolTableRecord
100
AcDbTextStyleTableRecord
  2
STANDARD
 70
    64
 40
0.0
 41
1.0
 50
0.0
 71
     0
 42
1.0
  3
txt
  4
BIGFONT
  0
ENDTAB
  0
TABLE
  2
VIEW
  5
4
100
AcDbSymbolTable
 70
     0
  0
ENDTAB
  0
TABLE
  2
UCS
  5
5
100
AcDbSymbolTable
 70
     0
  0
ENDTAB
  0
TABLE
  2
APPID
  5
7
100
AcDbSymbolTable
 70
     1
  0
APPID
  5
1A
100
AcDbSymbolTableRecord
100
AcDbRegAppTableRecord
  2
ACAD
 70
     0
  0
ENDTAB
  0
TABLE
  2
DIMSTYLE
  5
8
100
AcDbSymbolTable
 70
     1
100
AcDbDimStyleTable
 71
     0
  0
DIMSTYLE
105
2E
100
AcDbSymbolTableRecord
100
AcDbDimStyleTableRecord
  2
Standard
 70
     0
  3

  4

 40
2.0
 41
2.0
 42
1.0
 43
0.38
 44
2.0
 45
0.0
 46
0.0
 47
0.0
 48
0.0
 71
     0
 72
     0
 73
     0
 74
     0
 75
     0
 76
     0
 77
     1
 78
     0
 79
     0
140
3.5
141
0.09
142
0.0
143
25.4
144
1.0
145
0.0
146
1.0
147
0.5
148
0.0
170
     0
171
     2
172
     0
173
     0
174
     0
175
     0
176
     0
177
     0
178
     0
179
     0
271
     3
272
     4
273
     2
274
     2
275
     0
276
     0
277
     2
278
    46
279
     0
280
     0
281
     0
282
     0
283
     1
284
     0
285
     0
286
     0
288
     0
289
     3
340
1B
341
0
342
0
343
0
344
0
371
    -2
372
    -2
  0
ENDTAB
  0
TABLE
  2
BLOCK_RECORD
  5
29
100
AcDbSymbolTable
 70
    11
  0
BLOCK_RECORD
  5
27
100
AcDbSymbolTableRecord
100
AcDbBlockTableRecord
  2
*Model_Space
340
0
  0
BLOCK_RECORD
  5
28
100
AcDbSymbolTableRecord
100
AcDbBlockTableRecord
  2
*Paper_Space
340
0
  0
BLOCK_RECORD
  5
1C
100
AcDbSymbolTableRecord
100
AcDbBlockTableRecord
  2
*D0
340
0
  0
BLOCK_RECORD
  5
1D
100
AcDbSymbolTableRecord
100
AcDbBlockTableRecord
  2
*D1
340
0
  0
BLOCK_RECORD
  5
1E
100
AcDbSymbolTableRecord
100
AcDbBlockTableRecord
  2
*D2
340
0
  0
BLOCK_RECORD
  5
1F
100
AcDbSymbolTableRecord
100
AcDbBlockTableRecord
  2
*D3
340
0
  0
BLOCK_RECORD
  5
20
100
AcDbSymbolTableRecord
100
AcDbBlockTableRecord
  2
*D4
340
0
  0
BLOCK_RECORD
  5
21
100
AcDbSymbolTableRecord
100
AcDbBlockTableRecord
  2
*D5
340
0
  0
BLOCK_RECORD
  5
22
100
AcDbSymbolTableRecord
100
AcDbBlockTableRecord
  2
*D6
340
0
  0
BLOCK_RECORD
  5
23
100
AcDbSymbolTableRecord
100
AcDbBlockTableRecord
  2
*D7
340
0
  0
BLOCK_RECORD
  5
24
100
AcDbSymbolTableRecord
100
AcDbBlockTableRecord
  2
*D8
340
0
  0
BLOCK_RECORD
  5
25
100
AcDbSymbolTableRecord
100
AcDbBlockTableRecord
  2
*D9
340
0
  0
BLOCK_RECORD
  5
26
100
AcDbSymbolTableRecord
100
AcDbBlockTableRecord
  2
*D10
340
0
  0
ENDTAB
  0
ENDSEC
  0
SECTION
  2
BLOCKS
  0
BLOCK
  5
2A
100
AcDbEntity
  8
0
390
0
100
AcDbBlockBegin
  2
*Model_Space
 70
     0
 10
0.0
 20
0.0
 30
0.0
  3
*Model_Space
  1

  0
ENDBLK
  5
2B
100
AcDbEntity
  8
0
390
0
100
AcDbBlockEnd
  0
BLOCK
  5
2C
100
AcDbEntity
 67
     1
  8
0
390
0
100
AcDbBlockBegin
  2
*Paper_Space
 70
     0
 10
0.0
 20
0.0
 30
0.0
  3
*Paper_Space
  1

  0
ENDBLK
  5
2D
100
AcDbEntity
 67
     1
  8
0
390
0
100
AcDbBlockEnd
  0
BLOCK
  5
2C5
100
AcDbEntity
  8
3
100
AcDbBlockBegin
  2
*D0
 70
     1
 10
0.0
 20
0.0
 30
0.0
  3
*D0
  1

  0
TEXT
  5
2C6
100
AcDbEntity
  8
3
370
    25
100
AcDbText
 10
129.13844
 20
132.871787
 30
0.0
 40
7.0
  1
３０゜
 50
64.197115
 72
     5
 11
137.669858
 21
150.517606
 31
0.0
100
AcDbText
  0
LINE
  5
2C7
100
AcDbEntity
  8
3
370
    25
100
AcDbLine
 10
189.936598
 20
148.788275
 30
0.0
 11
155.252521
 21
178.729815
 31
0.0
  0
LINE
  5
2C8
100
AcDbEntity
  8
3
370
    25
100
AcDbLine
 10
142.341239
 20
98.291515
 30
0.0
 11
118.556382
 21
102.829961
 31
0.0
  0
LINE
  5
2C9
100
AcDbEntity
  8
3
370
    25
100
AcDbLine
 10
156.766445
 20
177.422898
 30
0.0
 11
153.485247
 21
175.135162
 31
0.0
  0
LINE
  5
2CA
100
AcDbEntity
  8
3
370
    25
100
AcDbLine
 10
156.766445
 20
177.422898
 30
0.0
 11
155.068712
 21
173.801061
 31
0.0
  0
LINE
  5
2CB
100
AcDbEntity
  8
3
370
    25
100
AcDbLine
 10
153.485247
 20
175.135162
 30
0.0
 11
155.068712
 21
173.801061
 31
0.0
  0
LINE
  5
2CC
100
AcDbEntity
  8
3
370
    25
100
AcDbLine
 10
120.520938
 20
102.455099
 30
0.0
 11
122.305165
 21
106.035118
 31
0.0
  0
LINE
  5
2CD
100
AcDbEntity
  8
3
370
    25
100
AcDbLine
 10
120.520938
 20
102.455099
 30
0.0
 11
120.276114
 21
106.4476
 31
0.0
  0
LINE
  5
2CE
100
AcDbEntity
  8
3
370
    25
100
AcDbLine
 10
122.305165
 20
106.035118
 30
0.0
 11
120.276114
 21
106.4476
 31
0.0
  0
ARC
  5
2CF
100
AcDbEntity
  8
3
370
    25
100
AcDbCircle
 10
278.535508
 20
72.303961
 30
0.0
 40
160.865458
100
AcDbArc
 50
139.197115
 51
169.197115
  0
ENDBLK
  5
2D0
100
AcDbEntity
  8
3
100
AcDbBlockEnd
  0
BLOCK
  5
2D1
100
AcDbEntity
  8
3
100
AcDbBlockBegin
  2
*D1
 70
     1
 10
0.0
 20
0.0
 30
0.0
  3
*D1
  1

  0
TEXT
  5
2D2
100
AcDbEntity
  8
3
370
    25
100
AcDbText
 10
75.799568
 20
40.966007
 30
0.0
 40
7.0
  1
１０９
 50
90.0
 72
     5
 11
75.799568
 21
60.566007
 31
0.0
100
AcDbText
  0
LINE
  5
2D3
100
AcDbEntity
  8
3
370
    25
100
AcDbLine
 10
263.367154
 20
-2.974128
 30
0.0
 11
74.799568
 21
-2.974128
 31
0.0
  0
LINE
  5
2D4
100
AcDbEntity
  8
3
370
    25
100
AcDbLine
 10
76.799568
 20
-2.974128
 30
0.0
 11
77.834844
 21
0.889575
 31
0.0
  0
LINE
  5
2D5
100
AcDbEntity
  8
3
370
    25
100
AcDbLine
 10
76.799568
 20
-2.974128
 30
0.0
 11
75.764292
 21
0.889575
 31
0.0
  0
LINE
  5
2D6
100
AcDbEntity
  8
3
370
    25
100
AcDbLine
 10
77.834844
 20
0.889575
 30
0.0
 11
75.764292
 21
0.889575
 31
0.0
  0
LINE
  5
2D7
100
AcDbEntity
  8
3
370
    25
100
AcDbLine
 10
76.799568
 20
-2.974128
 30
0.0
 11
76.799568
 21
105.906142
 31
0.0
  0
LINE
  5
2D8
100
AcDbEntity
  8
3
370
    25
100
AcDbLine
 10
76.799568
 20
105.906142
 30
0.0
 11
75.764292
 21
102.042439
 31
0.0
  0
LINE
  5
2D9
100
AcDbEntity
  8
3
370
    25
100
AcDbLine
 10
76.799568
 20
105.906142
 30
0.0
 11
77.834844
 21
102.042439
 31
0.0
  0
LINE
  5
2DA
100
AcDbEntity
  8
3
370
    25
100
AcDbLine
 10
75.764292
 20
102.042439
 30
0.0
 11
77.834844
 21
102.042439
 31
0.0
  0
LINE
  5
2DB
100
AcDbEntity
  8
3
370
    25
100
AcDbLine
 10
154.058636
 20
105.906142
 30
0.0
 11
74.799568
 21
105.906142
 31
0.0
  0
ENDBLK
  5
2DC
100
AcDbEntity
  8
3
100
AcDbBlockEnd
  0
BLOCK
  5
2DD
100
AcDbEntity
  8
3
100
AcDbBlockBegin
  2
*D2
 70
     1
 10
0.0
 20
0.0
 30
0.0
  3
*D2
  1

  0
TEXT
  5
2DE
100
AcDbEntity
  8
3
370
    25
100
AcDbText
 10
34.957335
 20
64.475423
 30
0.0
 40
7.0
  1
１５６
 50
90.0
 72
     5
 11
34.957335
 21
84.075423
 31
0.0
100
AcDbText
  0
LINE
  5
2DF
100
AcDbEntity
  8
3
370
    25
100
AcDbLine
 10
263.367154
 20
-2.974128
 30
0.0
 11
33.957335
 21
-2.974128
 31
0.0
  0
LINE
  5
2E0
100
AcDbEntity
  8
3
370
    25
100
AcDbLine
 10
35.957335
 20
-2.974128
 30
0.0
 11
36.992611
 21
0.889575
 31
0.0
  0
LINE
  5
2E1
100
AcDbEntity
  8
3
370
    25
100
AcDbLine
 10
35.957335
 20
-2.974128
 30
0.0
 11
34.922058
 21
0.889575
 31
0.0
  0
LINE
  5
2E2
100
AcDbEntity
  8
3
370
    25
100
AcDbLine
 10
36.992611
 20
0.889575
 30
0.0
 11
34.922058
 21
0.889575
 31
0.0
  0
LINE
  5
2E3
100
AcDbEntity
  8
3
370
    25
100
AcDbLine
 10
35.957335
 20
-2.974128
 30
0.0
 11
35.957335
 21
152.924975
 31
0.0
  0
LINE
  5
2E4
100
AcDbEntity
  8
3
370
    25
100
AcDbLine
 10
35.957335
 20
152.924975
 30
0.0
 11
34.922058
 21
149.061272
 31
0.0
  0
LINE
  5
2E5
100
AcDbEntity
  8
3
370
    25
100
AcDbLine
 10
35.957335
 20
152.924975
 30
0.0
 11
36.992611
 21
149.061272
 31
0.0
  0
LINE
  5
2E6
100
AcDbEntity
  8
3
370
    25
100
AcDbLine
 10
34.922058
 20
149.061272
 30
0.0
 11
36.992611
 21
149.061272
 31
0.0
  0
LINE
  5
2E7
100
AcDbEntity
  8
3
370
    25
100
AcDbLine
 10
192.089435
 20
152.924975
 30
0.0
 11
33.957335
 21
152.924975
 31
0.0
  0
ENDBLK
  5
2E8
100
AcDbEntity
  8
3
100
AcDbBlockEnd
  0
BLOCK
  5
2E9
100
AcDbEntity
  8
3
100
AcDbBlockBegin
  2
*D3
 70
     1
 10
0.0
 20
0.0
 30
0.0
  3
*D3
  1

  0
TEXT
  5
2EA
100
AcDbEntity
  8
3
370
    25
100
AcDbText
 10
153.367988
 20
-125.316223
 30
0.0
 40
7.0
  1
１７０
 72
     5
 11
172.967988
 21
-125.316223
 31
0.0
100
AcDbText
  0
LINE
  5
2EB
100
AcDbEntity
  8
3
370
    25
100
AcDbLine
 10
78.867988
 20
-96.074128
 30
0.0
 11
78.867988
 21
-128.316223
 31
0.0
  0
LINE
  5
2EC
100
AcDbEntity
  8
3
370
    25
100
AcDbLine
 10
78.867988
 20
-126.316223
 30
0.0
 11
82.731692
 21
-127.351499
 31
0.0
  0
LINE
  5
2ED
100
AcDbEntity
  8
3
370
    25
100
AcDbLine
 10
78.867988
 20
-126.316223
 30
0.0
 11
82.731692
 21
-125.280947
 31
0.0
  0
LINE
  5
2EE
100
AcDbEntity
  8
3
370
    25
100
AcDbLine
 10
82.731692
 20
-127.351499
 30
0.0
 11
82.731692
 21
-125.280947
 31
0.0
  0
LINE
  5
2EF
100
AcDbEntity
  8
3
370
    25
100
AcDbLine
 10
78.867988
 20
-126.316223
 30
0.0
 11
248.867988
 21
-126.316223
 31
0.0
  0
LINE
  5
2F0
100
AcDbEntity
  8
3
370
    25
100
AcDbLine
 10
248.867988
 20
-126.316223
 30
0.0
 11
245.004285
 21
-125.280947
 31
0.0
  0
LINE
  5
2F1
100
AcDbEntity
  8
3
370
    25
100
AcDbLine
 10
248.867988
 20
-126.316223
 30
0.0
 11
245.004285
 21
-127.351499
 31
0.0
  0
LINE
  5
2F2
100
AcDbEntity
  8
3
370
    25
100
AcDbLine
 10
245.004285
 20
-125.280947
 30
0.0
 11
245.004285
 21
-127.351499
 31
0.0
  0
LINE
  5
2F3
100
AcDbEntity
  8
3
370
    25
100
AcDbLine
 10
248.867988
 20
-34.974712
 30
0.0
 11
248.867988
 21
-128.316223
 31
0.0
  0
ENDBLK
  5
2F4
100
AcDbEntity
  8
3
100
AcDbBlockEnd
  0
BLOCK
  5
2F5
100
AcDbEntity
  8
3
100
AcDbBlockBegin
  2
*D4
 70
     1
 10
0.0
 20
0.0
 30
0.0
  3
*D4
  1

  0
LINE
  5
2F6
100
AcDbEntity
  8
3
370
    25
100
AcDbLine
 10
-224.197168
 20
-135.017686
 30
0.0
 11
-224.197168
 21
-236.96962
 31
0.0
  0
LINE
  5
2F7
100
AcDbEntity
  8
3
370
    25
100
AcDbLine
 10
-224.197168
 20
-234.96962
 30
0.0
 11
-220.333465
 21
-236.004896
 31
0.0
  0
LINE
  5
2F8
100
AcDbEntity
  8
3
370
    25
100
AcDbLine
 10
-224.197168
 20
-234.96962
 30
0.0
 11
-220.333465
 21
-233.934344
 31
0.0
  0
LINE
  5
2F9
100
AcDbEntity
  8
3
370
    25
100
AcDbLine
 10
-220.333465
 20
-236.004896
 30
0.0
 11
-220.333465
 21
-233.934344
 31
0.0
  0
LINE
  5
2FA
100
AcDbEntity
  8
3
370
    25
100
AcDbLine
 10
-224.197168
 20
-234.96962
 30
0.0
 11
-102.983965
 21
-234.96962
 31
0.0
  0
LINE
  5
2FB
100
AcDbEntity
  8
3
370
    25
100
AcDbLine
 10
-102.983965
 20
-234.96962
 30
0.0
 11
-106.847668
 21
-233.934344
 31
0.0
  0
LINE
  5
2FC
100
AcDbEntity
  8
3
370
    25
100
AcDbLine
 10
-102.983965
 20
-234.96962
 30
0.0
 11
-106.847668
 21
-236.004896
 31
0.0
  0
LINE
  5
2FD
100
AcDbEntity
  8
3
370
    25
100
AcDbLine
 10
-106.847668
 20
-233.934344
 30
0.0
 11
-106.847668
 21
-236.004896
 31
0.0
  0
LINE
  5
2FE
100
AcDbEntity
  8
3
370
    25
100
AcDbLine
 10
-102.983965
 20
-135.017686
 30
0.0
 11
-102.983965
 21
-236.96962
 31
0.0
  0
ENDBLK
  5
2FF
100
AcDbEntity
  8
3
100
AcDbBlockEnd
  0
BLOCK
  5
300
100
AcDbEntity
  8
3
100
AcDbBlockBegin
  2
*D5
 70
     1
 10
0.0
 20
0.0
 30
0.0
  3
*D5
  1

  0
TEXT
  5
301
100
AcDbEntity
  8
3
370
    25
100
AcDbText
 10
34.957334
 20
-89.774128
 30
0.0
 40
7.0
  1
３６．６
 50
90.0
 72
     5
 11
34.957334
 21
-63.174128
 31
0.0
100
AcDbText
  0
LINE
  5
302
100
AcDbEntity
  8
3
370
    25
100
AcDbLine
 10
76.867988
 20
-94.074128
 30
0.0
 11
33.957335
 21
-94.074128
 31
0.0
  0
LINE
  5
303
100
AcDbEntity
  8
3
370
    25
100
AcDbLine
 10
35.957335
 20
-94.074128
 30
0.0
 11
36.992611
 21
-90.210425
 31
0.0
  0
LINE
  5
304
100
AcDbEntity
  8
3
370
    25
100
AcDbLine
 10
35.957335
 20
-94.074128
 30
0.0
 11
34.922058
 21
-90.210425
 31
0.0
  0
LINE
  5
305
100
AcDbEntity
  8
3
370
    25
100
AcDbLine
 10
36.992611
 20
-90.210425
 30
0.0
 11
34.922058
 21
-90.210425
 31
0.0
  0
LINE
  5
306
100
AcDbEntity
  8
3
370
    25
100
AcDbLine
 10
35.957335
 20
-94.074128
 30
0.0
 11
35.957335
 21
-57.474128
 31
0.0
  0
LINE
  5
307
100
AcDbEntity
  8
3
370
    25
100
AcDbLine
 10
35.957335
 20
-57.474128
 30
0.0
 11
34.922058
 21
-61.337831
 31
0.0
  0
LINE
  5
308
100
AcDbEntity
  8
3
370
    25
100
AcDbLine
 10
35.957335
 20
-57.474128
 30
0.0
 11
36.992611
 21
-61.337831
 31
0.0
  0
LINE
  5
309
100
AcDbEntity
  8
3
370
    25
100
AcDbLine
 10
34.922058
 20
-61.337831
 30
0.0
 11
36.992611
 21
-61.337831
 31
0.0
  0
LINE
  5
30A
100
AcDbEntity
  8
3
370
    25
100
AcDbLine
 10
124.867988
 20
-57.474128
 30
0.0
 11
33.957335
 21
-57.474128
 31
0.0
  0
ENDBLK
  5
30B
100
AcDbEntity
  8
3
100
AcDbBlockEnd
  0
BLOCK
  5
30C
100
AcDbEntity
  8
3
100
AcDbBlockBegin
  2
*D6
 70
     1
 10
0.0
 20
0.0
 30
0.0
  3
*D6
  1

  0
TEXT
  5
30D
100
AcDbEntity
  8
3
370
    25
100
AcDbText
 10
34.957335
 20
-44.224128
 30
0.0
 40
7.0
  1
５４．５
 50
90.0
 72
     5
 11
34.957335
 21
-17.624128
 31
0.0
100
AcDbText
  0
LINE
  5
30E
100
AcDbEntity
  8
3
370
    25
100
AcDbLine
 10
124.867988
 20
-57.474128
 30
0.0
 11
33.957335
 21
-57.474128
 31
0.0
  0
LINE
  5
30F
100
AcDbEntity
  8
3
370
    25
100
AcDbLine
 10
35.957335
 20
-57.474128
 30
0.0
 11
36.992611
 21
-53.610425
 31
0.0
  0
LINE
  5
310
100
AcDbEntity
  8
3
370
    25
100
AcDbLine
 10
35.957335
 20
-57.474128
 30
0.0
 11
34.922058
 21
-53.610425
 31
0.0
  0
LINE
  5
311
100
AcDbEntity
  8
3
370
    25
100
AcDbLine
 10
36.992611
 20
-53.610425
 30
0.0
 11
34.922058
 21
-53.610425
 31
0.0
  0
LINE
  5
312
100
AcDbEntity
  8
3
370
    25
100
AcDbLine
 10
35.957335
 20
-57.474128
 30
0.0
 11
35.957335
 21
-2.974128
 31
0.0
  0
LINE
  5
313
100
AcDbEntity
  8
3
370
    25
100
AcDbLine
 10
35.957335
 20
-2.974128
 30
0.0
 11
34.922058
 21
-6.837831
 31
0.0
  0
LINE
  5
314
100
AcDbEntity
  8
3
370
    25
100
AcDbLine
 10
35.957335
 20
-2.974128
 30
0.0
 11
36.992611
 21
-6.837831
 31
0.0
  0
LINE
  5
315
100
AcDbEntity
  8
3
370
    25
100
AcDbLine
 10
34.922058
 20
-6.837831
 30
0.0
 11
36.992611
 21
-6.837831
 31
0.0
  0
LINE
  5
316
100
AcDbEntity
  8
3
370
    25
100
AcDbLine
 10
263.367154
 20
-2.974128
 30
0.0
 11
33.957335
 21
-2.974128
 31
0.0
  0
ENDBLK
  5
317
100
AcDbEntity
  8
3
100
AcDbBlockEnd
  0
BLOCK
  5
318
100
AcDbEntity
  8
3
100
AcDbBlockBegin
  2
*D7
 70
     1
 10
0.0
 20
0.0
 30
0.0
  3
*D7
  1

  0
LINE
  5
319
100
AcDbEntity
  8
3
370
    25
100
AcDbLine
 10
248.867988
 20
-34.974712
 30
0.0
 11
248.867988
 21
-128.316223
 31
0.0
  0
LINE
  5
31A
100
AcDbEntity
  8
3
370
    25
100
AcDbLine
 10
248.867988
 20
-126.316223
 30
0.0
 11
252.731692
 21
-127.351499
 31
0.0
  0
LINE
  5
31B
100
AcDbEntity
  8
3
370
    25
100
AcDbLine
 10
248.867988
 20
-126.316223
 30
0.0
 11
252.731692
 21
-125.280947
 31
0.0
  0
LINE
  5
31C
100
AcDbEntity
  8
3
370
    25
100
AcDbLine
 10
252.731692
 20
-127.351499
 30
0.0
 11
252.731692
 21
-125.280947
 31
0.0
  0
LINE
  5
31D
100
AcDbEntity
  8
3
370
    25
100
AcDbLine
 10
248.867988
 20
-126.316223
 30
0.0
 11
317.367406
 21
-126.316223
 31
0.0
  0
LINE
  5
31E
100
AcDbEntity
  8
3
370
    25
100
AcDbLine
 10
317.367406
 20
-126.316223
 30
0.0
 11
313.503703
 21
-125.280947
 31
0.0
  0
LINE
  5
31F
100
AcDbEntity
  8
3
370
    25
100
AcDbLine
 10
317.367406
 20
-126.316223
 30
0.0
 11
313.503703
 21
-127.351499
 31
0.0
  0
LINE
  5
320
100
AcDbEntity
  8
3
370
    25
100
AcDbLine
 10
313.503703
 20
-125.280947
 30
0.0
 11
313.503703
 21
-127.351499
 31
0.0
  0
LINE
  5
321
100
AcDbEntity
  8
3
370
    25
100
AcDbLine
 10
317.367406
 20
-19.959066
 30
0.0
 11
317.367406
 21
-128.316223
 31
0.0
  0
ENDBLK
  5
322
100
AcDbEntity
  8
3
100
AcDbBlockEnd
  0
BLOCK
  5
323
100
AcDbEntity
  8
3
100
AcDbBlockBegin
  2
*D8
 70
     1
 10
0.0
 20
0.0
 30
0.0
  3
*D8
  1

  0
TEXT
  5
324
100
AcDbEntity
  8
3
370
    25
100
AcDbText
 10
-174.090566
 20
245.583755
 30
0.0
 40
7.0
  1
１００
 72
     5
 11
-154.490566
 21
245.583755
 31
0.0
100
AcDbText
  0
LINE
  5
325
100
AcDbEntity
  8
3
370
    25
100
AcDbLine
 10
-213.590408
 20
176.315539
 30
0.0
 11
-213.590408
 21
246.583755
 31
0.0
  0
LINE
  5
326
100
AcDbEntity
  8
3
370
    25
100
AcDbLine
 10
-213.590408
 20
244.583755
 30
0.0
 11
-209.726705
 21
243.548479
 31
0.0
  0
LINE
  5
327
100
AcDbEntity
  8
3
370
    25
100
AcDbLine
 10
-213.590408
 20
244.583755
 30
0.0
 11
-209.726705
 21
245.619032
 31
0.0
  0
LINE
  5
328
100
AcDbEntity
  8
3
370
    25
100
AcDbLine
 10
-209.726705
 20
243.548479
 30
0.0
 11
-209.726705
 21
245.619032
 31
0.0
  0
LINE
  5
329
100
AcDbEntity
  8
3
370
    25
100
AcDbLine
 10
-213.590408
 20
244.583755
 30
0.0
 11
-113.590725
 21
244.583755
 31
0.0
  0
LINE
  5
32A
100
AcDbEntity
  8
3
370
    25
100
AcDbLine
 10
-113.590725
 20
244.583755
 30
0.0
 11
-117.454428
 21
245.619032
 31
0.0
  0
LINE
  5
32B
100
AcDbEntity
  8
3
370
    25
100
AcDbLine
 10
-113.590725
 20
244.583755
 30
0.0
 11
-117.454428
 21
243.548479
 31
0.0
  0
LINE
  5
32C
100
AcDbEntity
  8
3
370
    25
100
AcDbLine
 10
-117.454428
 20
245.619032
 30
0.0
 11
-117.454428
 21
243.548479
 31
0.0
  0
LINE
  5
32D
100
AcDbEntity
  8
3
370
    25
100
AcDbLine
 10
-113.590725
 20
176.315539
 30
0.0
 11
-113.590725
 21
246.583755
 31
0.0
  0
ENDBLK
  5
32E
100
AcDbEntity
  8
3
100
AcDbBlockEnd
  0
BLOCK
  5
32F
100
AcDbEntity
  8
3
100
AcDbBlockBegin
  2
*D9
 70
     1
 10
0.0
 20
0.0
 30
0.0
  3
*D9
  1

  0
TEXT
  5
330
100
AcDbEntity
  8
3
370
    25
100
AcDbText
 10
-90.590737
 20
245.583755
 30
0.0
 40
7.0
  1
１５
 72
     5
 11
-77.990737
 21
245.583755
 31
0.0
100
AcDbText
  0
LINE
  5
331
100
AcDbEntity
  8
3
370
    25
100
AcDbLine
 10
-113.590725
 20
176.315539
 30
0.0
 11
-113.590725
 21
246.583755
 31
0.0
  0
LINE
  5
332
100
AcDbEntity
  8
3
370
    25
100
AcDbLine
 10
-113.590725
 20
244.583755
 30
0.0
 11
-117.454428
 21
245.619032
 31
0.0
  0
LINE
  5
333
100
AcDbEntity
  8
3
370
    25
100
AcDbLine
 10
-113.590725
 20
244.583755
 30
0.0
 11
-117.454428
 21
243.548479
 31
0.0
  0
LINE
  5
334
100
AcDbEntity
  8
3
370
    25
100
AcDbLine
 10
-117.454428
 20
245.619032
 30
0.0
 11
-117.454428
 21
243.548479
 31
0.0
  0
LINE
  5
335
100
AcDbEntity
  8
3
370
    25
100
AcDbLine
 10
-123.590725
 20
244.583755
 30
0.0
 11
-76.590737
 21
244.583755
 31
0.0
  0
LINE
  5
336
100
AcDbEntity
  8
3
370
    25
100
AcDbLine
 10
-98.590737
 20
244.583755
 30
0.0
 11
-94.727034
 21
243.548479
 31
0.0
  0
LINE
  5
337
100
AcDbEntity
  8
3
370
    25
100
AcDbLine
 10
-98.590737
 20
244.583755
 30
0.0
 11
-94.727034
 21
245.619032
 31
0.0
  0
LINE
  5
338
100
AcDbEntity
  8
3
370
    25
100
AcDbLine
 10
-94.727034
 20
243.548479
 30
0.0
 11
-94.727034
 21
245.619032
 31
0.0
  0
LINE
  5
339
100
AcDbEntity
  8
3
370
    25
100
AcDbLine
 10
-98.590737
 20
201.815791
 30
0.0
 11
-98.590737
 21
246.583755
 31
0.0
  0
ENDBLK
  5
33A
100
AcDbEntity
  8
3
100
AcDbBlockEnd
  0
BLOCK
  5
33B
100
AcDbEntity
  8
3
100
AcDbBlockBegin
  2
*D10
 70
     1
 10
0.0
 20
0.0
 30
0.0
  3
*D10
  1

  0
TEXT
  5
33C
100
AcDbEntity
  8
3
370
    25
100
AcDbText
 10
-250.590396
 20
245.583755
 30
0.0
 40
7.0
  1
１５
 72
     5
 11
-237.990396
 21
245.583755
 31
0.0
100
AcDbText
  0
LINE
  5
33D
100
AcDbEntity
  8
3
370
    25
100
AcDbLine
 10
-228.590396
 20
201.815791
 30
0.0
 11
-228.590396
 21
246.583755
 31
0.0
  0
LINE
  5
33E
100
AcDbEntity
  8
3
370
    25
100
AcDbLine
 10
-228.590396
 20
244.583755
 30
0.0
 11
-232.454099
 21
245.619032
 31
0.0
  0
LINE
  5
33F
100
AcDbEntity
  8
3
370
    25
100
AcDbLine
 10
-228.590396
 20
244.583755
 30
0.0
 11
-232.454099
 21
243.548479
 31
0.0
  0
LINE
  5
340
100
AcDbEntity
  8
3
370
    25
100
AcDbLine
 10
-232.454099
 20
245.619032
 30
0.0
 11
-232.454099
 21
243.548479
 31
0.0
  0
LINE
  5
341
100
AcDbEntity
  8
3
370
    25
100
AcDbLine
 10
-250.590396
 20
244.583755
 30
0.0
 11
-203.590408
 21
244.583755
 31
0.0
  0
LINE
  5
342
100
AcDbEntity
  8
3
370
    25
100
AcDbLine
 10
-213.590408
 20
244.583755
 30
0.0
 11
-209.726705
 21
243.548479
 31
0.0
  0
LINE
  5
343
100
AcDbEntity
  8
3
370
    25
100
AcDbLine
 10
-213.590408
 20
244.583755
 30
0.0
 11
-209.726705
 21
245.619032
 31
0.0
  0
LINE
  5
344
100
AcDbEntity
  8
3
370
    25
100
AcDbLine
 10
-209.726705
 20
243.548479
 30
0.0
 11
-209.726705
 21
245.619032
 31
0.0
  0
LINE
  5
345
100
AcDbEntity
  8
3
370
    25
100
AcDbLine
 10
-213.590408
 20
176.315539
 30
0.0
 11
-213.590408
 21
246.583755
 31
0.0
  0
ENDBLK
  5
346
100
AcDbEntity
  8
3
100
AcDbBlockEnd
  0
ENDSEC
  0
SECTION
  2
ENTITIES
  0
LINE
  5
2F
100
AcDbEntity
  8
1
370
   100
100
AcDbLine
 10
-373.02157
 20
275.028767
 30
0.0
 11
394.982385
 21
275.028767
 31
0.0
  0
LINE
  5
30
100
AcDbEntity
  8
1
370
   100
100
AcDbLine
 10
-373.02157
 20
275.028767
 30
0.0
 11
-373.02157
 21
-277.971881
 31
0.0
  0
LINE
  5
31
100
AcDbEntity
  8
1
370
   100
100
AcDbLine
 10
-373.02157
 20
-277.971881
 30
0.0
 11
394.982385
 21
-277.971881
 31
0.0
  0
LINE
  5
32
100
AcDbEntity
  8
1
370
   100
100
AcDbLine
 10
394.982385
 20
-277.971881
 30
0.0
 11
394.982385
 21
275.028767
 31
0.0
  0
TEXT
  5
33
100
AcDbEntity
  8
1
370
    50
100
AcDbText
 10
359.628442
 20
-226.252857
 30
0.0
 40
6.0
  1
設計
 72
     5
 11
370.428442
 21
-226.252857
 31
0.0
100
AcDbText
  0
TEXT
  5
34
100
AcDbEntity
  8
1
370
    50
100
AcDbText
 10
379.127478
 20
-226.099658
 30
0.0
 40
6.0
  1
製図
 72
     5
 11
389.927478
 21
-226.099658
 31
0.0
100
AcDbText
  0
TEXT
  5
35
100
AcDbEntity
  8
1
370
    50
100
AcDbText
 10
319.005745
 20
-226.252857
 30
0.0
 40
6.0
  1
承認
 72
     5
 11
329.805745
 21
-226.252857
 31
0.0
100
AcDbText
  0
TEXT
  5
36
100
AcDbEntity
  8
1
370
    50
100
AcDbText
 10
338.989679
 20
-226.19802
 30
0.0
 40
6.0
  1
検図
 72
     5
 11
349.789679
 21
-226.19802
 31
0.0
100
AcDbText
  0
LINE
  5
37
100
AcDbEntity
  8
1
370
    25
100
AcDbLine
 10
284.982385
 20
-227.971881
 30
0.0
 11
394.982385
 21
-227.971881
 31
0.0
  0
LINE
  5
38
100
AcDbEntity
  8
1
370
    25
100
AcDbLine
 10
342.482385
 20
-245.971881
 30
0.0
 11
342.482385
 21
-259.971881
 31
0.0
  0
TEXT
  5
39
100
AcDbEntity
  8
1
370
    50
100
AcDbText
 10
319.55159
 20
-256.012528
 30
0.0
 40
6.0
  1
日　付
 72
     5
 11
336.35159
 21
-256.012528
 31
0.0
100
AcDbText
  0
LINE
  5
3A
100
AcDbEntity
  8
1
370
    50
100
AcDbLine
 10
40.982385
 20
-259.971881
 30
0.0
 11
394.982385
 21
-259.971881
 31
0.0
  0
TEXT
  5
3B
100
AcDbEntity
  8
1
370
    50
100
AcDbText
 10
287.775011
 20
-256.322406
 30
0.0
 40
6.0
  1
第三角法
 72
     5
 11
310.575011
 21
-256.322406
 31
0.0
100
AcDbText
  0
TEXT
  5
3C
100
AcDbEntity
  8
1
370
    50
100
AcDbText
 10
291.087419
 20
-225.99802
 30
0.0
 40
6.0
  1
尺　度
 72
     5
 11
307.887419
 21
-225.99802
 31
0.0
100
AcDbText
  0
LINE
  5
3D
100
AcDbEntity
  8
1
370
   100
100
AcDbLine
 10
40.982385
 20
-217.971881
 30
0.0
 11
394.982385
 21
-217.971881
 31
0.0
  0
LINE
  5
3E
100
AcDbEntity
  8
1
370
    50
100
AcDbLine
 10
211.982385
 20
-217.971881
 30
0.0
 11
211.982385
 21
-277.971881
 31
0.0
  0
LINE
  5
3F
100
AcDbEntity
  8
1
370
    25
100
AcDbLine
 10
374.982385
 20
-245.971881
 30
0.0
 11
374.982385
 21
-217.971881
 31
0.0
  0
LINE
  5
40
100
AcDbEntity
  8
1
370
    25
100
AcDbLine
 10
354.982385
 20
-245.971881
 30
0.0
 11
354.982385
 21
-217.971881
 31
0.0
  0
LINE
  5
41
100
AcDbEntity
  8
1
370
    25
100
AcDbLine
 10
334.982385
 20
-245.971881
 30
0.0
 11
334.982385
 21
-217.971881
 31
0.0
  0
LINE
  5
42
100
AcDbEntity
  8
1
370
    50
100
AcDbLine
 10
284.982385
 20
-277.971881
 30
0.0
 11
284.982385
 21
-217.971881
 31
0.0
  0
LINE
  5
43
100
AcDbEntity
  8
1
370
    50
100
AcDbLine
 10
189.982385
 20
-217.971881
 30
0.0
 11
189.982385
 21
-277.971881
 31
0.0
  0
LINE
  5
44
100
AcDbEntity
  8
1
370
    50
100
AcDbLine
 10
62.982385
 20
-217.971881
 30
0.0
 11
62.982385
 21
-259.971881
 31
0.0
  0
LINE
  5
45
100
AcDbEntity
  8
1
370
    50
100
AcDbLine
 10
284.982385
 20
-245.971881
 30
0.0
 11
394.982385
 21
-245.971881
 31
0.0
  0
TEXT
  5
46
100
AcDbEntity
  8
1
370
    50
100
AcDbText
 10
287.101129
 20
-271.880939
 30
0.0
 40
6.0
  1
コードＮｏ
 41
0.9
 72
     5
 11
313.021129
 21
-271.880939
 31
0.0
100
AcDbText
  0
TEXT
  5
47
100
AcDbEntity
  8
1
370
   100
100
AcDbText
 10
52.886774
 20
-272.875659
 30
0.0
 40
8.0
  1
ミズタニバルブ工業株式会社
 41
1.2
 72
     5
 11
175.766774
 21
-272.875659
 31
0.0
100
AcDbText
  0
LINE
  5
48
100
AcDbEntity
  8
1
370
    50
100
AcDbLine
 10
40.982385
 20
-238.971881
 30
0.0
 11
284.982385
 21
-238.971881
 31
0.0
  0
LINE
  5
49
100
AcDbEntity
  8
1
370
    50
100
AcDbLine
 10
115.482385
 20
-238.971881
 30
0.0
 11
115.482385
 21
-259.971881
 31
0.0
  0
LINE
  5
4A
100
AcDbEntity
  8
1
370
    50
100
AcDbLine
 10
137.482385
 20
-238.971881
 30
0.0
 11
137.482385
 21
-259.971881
 31
0.0
  0
LINE
  5
4B
100
AcDbEntity
  8
1
370
    50
100
AcDbLine
 10
314.982385
 20
-277.971881
 30
0.0
 11
314.982385
 21
-217.971881
 31
0.0
  0
TEXT
  5
4C
100
AcDbEntity
  8
1
370
    50
100
AcDbText
 10
345.098131
 20
-256.100293
 30
0.0
 40
6.0
  1
　　・　　・
 72
     5
 11
379.898131
 21
-256.100293
 31
0.0
100
AcDbText
  0
LINE
  5
4D
100
AcDbEntity
  8
1
370
   100
100
AcDbLine
 10
40.982385
 20
-217.971881
 30
0.0
 11
40.982385
 21
-277.971881
 31
0.0
  0
TEXT
  5
4E
100
AcDbEntity
  8
1
370
    50
100
AcDbText
 10
290.832582
 20
-240.013492
 30
0.0
 40
6.0
  1
　／ 
 72
     5
 11
301.632582
 21
-240.013492
 31
0.0
100
AcDbText
  0
TEXT
  5
4F
100
AcDbEntity
  8
1
370
    50
100
AcDbText
 10
193.904123
 20
-272.024909
 30
0.0
 40
6.0
  1
備 考 
 72
     5
 11
207.704123
 21
-272.024909
 31
0.0
100
AcDbText
  0
TEXT
  5
50
100
AcDbEntity
  8
1
370
    50
100
AcDbText
 10
193.512534
 20
-230.89184
 30
0.0
 40
6.0
  1
仕 上
 72
     5
 11
207.312534
 21
-230.89184
 31
0.0
100
AcDbText
  0
TEXT
  5
51
100
AcDbEntity
  8
1
370
    50
100
AcDbText
 10
193.447176
 20
-248.891666
 30
0.0
 40
6.0
  1
表 面
 72
     5
 11
207.247176
 21
-248.891666
 31
0.0
100
AcDbText
  0
TEXT
  5
52
100
AcDbEntity
  8
1
370
    50
100
AcDbText
 10
193.447176
 20
-255.891666
 30
0.0
 40
6.0
  1
処 理
 72
     5
 11
207.247176
 21
-255.891666
 31
0.0
100
AcDbText
  0
TEXT
  5
53
100
AcDbEntity
  8
1
370
    50
100
AcDbText
 10
44.79335
 20
-231.693399
 30
0.0
 40
6.0
  1
品 名
 72
     5
 11
58.59335
 21
-231.693399
 31
0.0
100
AcDbText
  0
TEXT
  5
54
100
AcDbEntity
  8
1
370
    50
100
AcDbText
 10
44.397766
 20
-252.462534
 30
0.0
 40
6.0
  1
材 質
 72
     5
 11
58.197766
 21
-252.462534
 31
0.0
100
AcDbText
  0
TEXT
  5
55
100
AcDbEntity
  8
1
370
    50
100
AcDbText
 10
118.897766
 20
-252.462534
 30
0.0
 40
6.0
  1
規 格
 72
     5
 11
132.697766
 21
-252.462534
 31
0.0
100
AcDbText
  0
LINE
  5
56
100
AcDbEntity
  8
2
370
    50
100
AcDbLine
 10
285.867154
 20
15.025622
 30
0.0
 11
285.867154
 21
10.040934
 31
0.0
  0
LINE
  5
57
100
AcDbEntity
  8
2
370
    50
100
AcDbLine
 10
231.867371
 20
-20.974814
 30
0.0
 11
265.51575
 21
-20.974814
 31
0.0
  0
ARC
  5
58
100
AcDbEntity
  8
2
370
    50
100
AcDbCircle
 10
231.867371
 20
-2.974597
 30
0.0
 40
18.000217
100
AcDbArc
 50
90.0
 51
270.0
  0
LINE
  5
59
100
AcDbEntity
  8
2
370
    50
100
AcDbLine
 10
261.867988
 20
-20.974814
 30
0.0
 11
261.867988
 21
-22.974712
 31
0.0
  0
LINE
  5
5A
100
AcDbEntity
  8
2
370
    50
100
AcDbLine
 10
235.867988
 20
-20.974814
 30
0.0
 11
235.867988
 21
-22.974712
 31
0.0
  0
LINE
  5
5B
100
AcDbEntity
  8
2
370
    50
100
AcDbLine
 10
261.267988
 20
-22.974378
 30
0.0
 11
261.867988
 21
-22.374378
 31
0.0
  0
LINE
  5
5C
100
AcDbEntity
  8
2
370
    50
100
AcDbLine
 10
236.467988
 20
-22.974378
 30
0.0
 11
235.867988
 21
-22.374378
 31
0.0
  0
LINE
  5
5D
100
AcDbEntity
  8
2
370
    50
100
AcDbLine
 10
269.394584
 20
-18.138507
 30
0.0
 11
266.142468
 21
-20.75406
 31
0.0
  0
ARC
  5
5E
100
AcDbEntity
  8
2
370
    50
100
AcDbCircle
 10
265.51575
 20
-19.974814
 30
0.0
 40
1.0
100
AcDbArc
 50
270.0
 51
308.808394
  0
LINE
  5
5F
100
AcDbEntity
  8
2
370
    50
100
AcDbLine
 10
235.067154
 20
15.32573
 30
0.0
 11
285.667154
 21
15.32573
 31
0.0
  0
LINE
  5
60
100
AcDbEntity
  8
2
370
    50
100
AcDbLine
 10
284.367154
 20
15.32573
 30
0.0
 11
284.367154
 21
15.025868
 31
0.0
  0
LINE
  5
61
100
AcDbEntity
  8
2
370
    50
100
AcDbLine
 10
236.367154
 20
15.32573
 30
0.0
 11
236.367154
 21
15.025623
 31
0.0
  0
LINE
  5
62
100
AcDbEntity
  8
2
370
    50
100
AcDbLine
 10
234.867154
 20
15.52573
 30
0.0
 11
234.867154
 21
29.184734
 31
0.0
  0
LINE
  5
63
100
AcDbEntity
  8
2
370
    50
100
AcDbLine
 10
285.867154
 20
15.52573
 30
0.0
 11
285.867154
 21
29.184734
 31
0.0
  0
LINE
  5
64
100
AcDbEntity
  8
2
370
    50
100
AcDbLine
 10
283.367154
 20
37.525325
 30
0.0
 11
283.367154
 21
29.825551
 31
0.0
  0
LINE
  5
65
100
AcDbEntity
  8
2
370
    50
100
AcDbLine
 10
237.367154
 20
32.171439
 30
0.0
 11
237.367154
 21
29.825551
 31
0.0
  0
LINE
  5
66
100
AcDbEntity
  8
2
370
    50
100
AcDbLine
 10
237.367154
 20
29.825551
 30
0.0
 11
235.064116
 21
29.419463
 31
0.0
  0
LINE
  5
67
100
AcDbEntity
  8
2
370
    50
100
AcDbLine
 10
283.367154
 20
29.825551
 30
0.0
 11
285.670193
 21
29.419463
 31
0.0
  0
LINE
  5
68
100
AcDbEntity
  8
2
370
    50
100
AcDbLine
 10
285.667154
 20
15.32573
 30
0.0
 11
285.867154
 21
15.52573
 31
0.0
  0
LINE
  5
69
100
AcDbEntity
  8
2
370
    50
100
AcDbLine
 10
235.067154
 20
15.32573
 30
0.0
 11
234.867154
 21
15.52573
 31
0.0
  0
ARC
  5
6A
100
AcDbEntity
  8
2
370
    50
100
AcDbCircle
 10
260.367154
 20
37.525325
 30
0.0
 40
23.0
100
AcDbArc
 50
0.0
 51
9.953366
  0
LINE
  5
6B
100
AcDbEntity
  8
2
370
    50
100
AcDbLine
 10
285.867154
 20
29.184734
 30
0.0
 11
285.670193
 21
29.419463
 31
0.0
  0
LINE
  5
6C
100
AcDbEntity
  8
2
370
    50
100
AcDbLine
 10
234.867154
 20
29.184734
 30
0.0
 11
235.064116
 21
29.419463
 31
0.0
  0
LINE
  5
6D
100
AcDbEntity
  8
2
370
    50
100
AcDbLine
 10
231.867371
 20
15.0256
 30
0.0
 11
285.867154
 21
15.025876
 31
0.0
  0
LINE
  5
6E
100
AcDbEntity
  8
2
370
    50
100
AcDbLine
 10
-137.090566
 20
-87.182302
 30
0.0
 11
-190.090566
 21
-87.182302
 31
0.0
  0
LINE
  5
6F
100
AcDbEntity
  8
2
370
    50
100
AcDbLine
 10
-188.558028
 20
-56.591721
 30
0.0
 11
-190.090566
 21
-87.182302
 31
0.0
  0
LINE
  5
70
100
AcDbEntity
  8
2
370
    50
100
AcDbLine
 10
-138.623105
 20
-56.591721
 30
0.0
 11
-137.090566
 21
-87.182302
 31
0.0
  0
LINE
  5
71
100
AcDbEntity
  8
2
370
    50
100
AcDbLine
 10
-192.590566
 20
-16.262324
 30
0.0
 11
-192.590566
 21
-20.0281
 31
0.0
  0
LINE
  5
72
100
AcDbEntity
  8
2
370
    50
100
AcDbLine
 10
-134.590566
 20
-16.262324
 30
0.0
 11
-134.590566
 21
-20.0281
 31
0.0
  0
ARC
  5
73
100
AcDbEntity
  8
2
370
    50
100
AcDbCircle
 10
-163.590566
 20
-536.19668
 30
0.0
 40
500.0
100
AcDbArc
 50
88.048466
 51
91.951403
  0
ARC
  5
74
100
AcDbEntity
  8
2
370
    50
100
AcDbCircle
 10
-136.590566
 20
-20.0281
 30
0.0
 40
2.0
100
AcDbArc
 50
266.916867
 51
360.0
  0
ARC
  5
75
100
AcDbEntity
  8
2
370
    50
100
AcDbCircle
 10
-163.590566
 20
-521.301479
 30
0.0
 40
500.0
100
AcDbArc
 50
86.916867
 51
93.083133
  0
ARC
  5
76
100
AcDbEntity
  8
2
370
    50
100
AcDbCircle
 10
-190.590566
 20
-20.0281
 30
0.0
 40
2.0
100
AcDbArc
 50
180.0
 51
273.083133
  0
ARC
  5
77
100
AcDbEntity
  8
2
370
    50
100
AcDbCircle
 10
-190.590566
 20
-16.262324
 30
0.0
 40
2.0
100
AcDbArc
 50
93.107922
 51
180.0
  0
ARC
  5
78
100
AcDbEntity
  8
2
370
    50
100
AcDbCircle
 10
-163.590566
 20
-513.529858
 30
0.0
 40
500.0
100
AcDbArc
 50
86.892078
 51
93.107922
  0
ARC
  5
79
100
AcDbEntity
  8
2
370
    50
100
AcDbCircle
 10
-136.590566
 20
-16.262324
 30
0.0
 40
2.0
100
AcDbArc
 50
0.0
 51
86.892078
  0
ARC
  5
7A
100
AcDbEntity
  8
2
370
    50
100
AcDbCircle
 10
-163.590566
 20
-515.741684
 30
0.0
 40
500.0
100
AcDbArc
 50
86.892078
 51
93.107922
  0
ARC
  5
7B
100
AcDbEntity
  8
2
370
    50
100
AcDbCircle
 10
-1680.231356
 20
-213.278123
 30
0.0
 40
1510.0
100
AcDbArc
 50
6.471945
 51
7.290578
  0
ARC
  5
7C
100
AcDbEntity
  8
2
370
    50
100
AcDbCircle
 10
1353.063139
 20
-213.178261
 30
0.0
 40
1510.0
100
AcDbArc
 50
172.713243
 51
173.531817
  0
ARC
  5
7D
100
AcDbEntity
  8
2
370
    50
100
AcDbCircle
 10
-136.590566
 20
-18.474151
 30
0.0
 40
2.0
100
AcDbArc
 50
0.0
 51
86.892078
  0
ARC
  5
7E
100
AcDbEntity
  8
2
370
    50
100
AcDbCircle
 10
-190.590566
 20
-18.474151
 30
0.0
 40
2.0
100
AcDbArc
 50
93.107922
 51
180.0
  0
LINE
  5
7F
100
AcDbEntity
  8
2
370
    50
100
AcDbLine
 10
-136.084736
 20
-26.660913
 30
0.0
 11
-134.590566
 21
-20.0281
 31
0.0
  0
LINE
  5
80
100
AcDbEntity
  8
2
370
    50
100
AcDbLine
 10
-192.590566
 20
-20.0281
 30
0.0
 11
-191.096397
 21
-26.660913
 31
0.0
  0
LINE
  5
81
100
AcDbEntity
  8
2
370
    25
100
AcDbLine
 10
-148.101898
 20
-41.434302
 30
0.0
 11
-163.590566
 21
-41.434302
 31
0.0
  0
LINE
  5
82
100
AcDbEntity
  8
2
370
    25
100
AcDbLine
 10
-163.590566
 20
-41.434302
 30
0.0
 11
-179.144348
 21
-41.434302
 31
0.0
  0
LINE
  5
83
100
AcDbEntity
  8
2
370
    50
100
AcDbLine
 10
-166.090566
 20
-54.709106
 30
0.0
 11
-166.090566
 21
-55.33442
 31
0.0
  0
LINE
  5
84
100
AcDbEntity
  8
2
370
    50
100
AcDbLine
 10
-161.090566
 20
-54.709106
 30
0.0
 11
-161.090566
 21
-55.33442
 31
0.0
  0
LINE
  5
85
100
AcDbEntity
  8
2
370
    50
100
AcDbLine
 10
-166.090566
 20
-55.33442
 30
0.0
 11
-161.090566
 21
-55.33442
 31
0.0
  0
LINE
  5
86
100
AcDbEntity
  8
2
370
    50
100
AcDbLine
 10
-153.590566
 20
-36.29669
 30
0.0
 11
-154.532174
 21
-52.173638
 31
0.0
  0
LINE
  5
87
100
AcDbEntity
  8
2
370
    50
100
AcDbLine
 10
-173.590566
 20
-36.29669
 30
0.0
 11
-172.648959
 21
-52.173638
 31
0.0
  0
ARC
  5
88
100
AcDbEntity
  8
2
370
    50
100
AcDbCircle
 10
-163.590566
 20
-29.83442
 30
0.0
 40
25.0
100
AcDbArc
 50
251.23147
 51
288.76853
  0
ARC
  5
89
100
AcDbEntity
  8
2
370
    50
100
AcDbCircle
 10
-156.029543
 20
-52.084834
 30
0.0
 40
1.5
100
AcDbArc
 50
288.76853
 51
356.605959
  0
ARC
  5
8A
100
AcDbEntity
  8
2
370
    50
100
AcDbCircle
 10
-171.15159
 20
-52.084834
 30
0.0
 40
1.5
100
AcDbArc
 50
183.394041
 51
251.23147
  0
ARC
  5
8B
100
AcDbEntity
  8
2
370
    50
100
AcDbCircle
 10
-298.407277
 20
-50.834765
 30
0.0
 40
110.0
100
AcDbArc
 50
357.0
 51
12.695072
  0
ARC
  5
8C
100
AcDbEntity
  8
2
370
    50
100
AcDbCircle
 10
-28.773856
 20
-50.834765
 30
0.0
 40
110.0
100
AcDbArc
 50
167.304928
 51
183.0
  0
ARC
  5
8D
100
AcDbEntity
  8
2
370
    25
100
AcDbCircle
 10
-159.84485
 20
-41.655148
 30
0.0
 40
12.6
100
AcDbArc
 50
325.265523
 51
336.866841
  0
ARC
  5
8E
100
AcDbEntity
  8
2
370
    50
100
AcDbCircle
 10
-159.84485
 20
-41.655148
 30
0.0
 40
12.6
100
AcDbArc
 50
336.866841
 51
353.531817
  0
ARC
  5
8F
100
AcDbEntity
  8
2
370
    50
100
AcDbCircle
 10
-167.334634
 20
-41.65567
 30
0.0
 40
12.6
100
AcDbArc
 50
186.471945
 51
203.130575
  0
ARC
  5
90
100
AcDbEntity
  8
2
370
    25
100
AcDbCircle
 10
-167.334634
 20
-41.65567
 30
0.0
 40
12.6
100
AcDbArc
 50
203.130575
 51
214.731586
  0
LINE
  5
91
100
AcDbEntity
  8
2
370
    50
100
AcDbLine
 10
-163.590566
 20
-36.19668
 30
0.0
 11
-163.590566
 21
-54.83442
 31
0.0
  0
LINE
  5
92
100
AcDbEntity
  8
2
370
    50
100
AcDbLine
 10
-163.590566
 20
-104.411107
 30
0.0
 11
-226.090566
 21
-104.411107
 31
0.0
  0
LINE
  5
93
100
AcDbEntity
  8
2
370
    50
100
AcDbLine
 10
-227.090566
 20
-105.411107
 30
0.0
 11
-227.090566
 21
-139.411147
 31
0.0
  0
LINE
  5
94
100
AcDbEntity
  8
2
370
    50
100
AcDbLine
 10
-150.590566
 20
-140.411147
 30
0.0
 11
-150.590566
 21
-142.410712
 31
0.0
  0
LINE
  5
95
100
AcDbEntity
  8
2
370
    50
100
AcDbLine
 10
-176.590566
 20
-140.411147
 30
0.0
 11
-176.590566
 21
-142.410712
 31
0.0
  0
LINE
  5
96
100
AcDbEntity
  8
2
370
    50
100
AcDbLine
 10
-151.190566
 20
-142.410712
 30
0.0
 11
-150.590566
 21
-141.810712
 31
0.0
  0
LINE
  5
97
100
AcDbEntity
  8
2
370
    50
100
AcDbLine
 10
-175.990566
 20
-142.410712
 30
0.0
 11
-176.590566
 21
-141.810712
 31
0.0
  0
LINE
  5
98
100
AcDbEntity
  8
2
370
    50
100
AcDbLine
 10
-163.590566
 20
-104.411431
 30
0.0
 11
-101.090566
 21
-104.411431
 31
0.0
  0
LINE
  5
99
100
AcDbEntity
  8
2
370
    50
100
AcDbLine
 10
-100.090566
 20
-139.411147
 30
0.0
 11
-100.090566
 21
-105.411431
 31
0.0
  0
ARC
  5
9A
100
AcDbEntity
  8
2
370
    50
100
AcDbCircle
 10
-101.090566
 20
-105.411431
 30
0.0
 40
1.0
100
AcDbArc
 50
0.0
 51
90.0
  0
ARC
  5
9B
100
AcDbEntity
  8
2
370
    50
100
AcDbCircle
 10
-101.090566
 20
-139.411147
 30
0.0
 40
1.0
100
AcDbArc
 50
270.0
 51
360.0
  0
ARC
  5
9C
100
AcDbEntity
  8
2
370
    50
100
AcDbCircle
 10
-226.090566
 20
-105.411107
 30
0.0
 40
1.0
100
AcDbArc
 50
90.0
 51
180.0
  0
ARC
  5
9D
100
AcDbEntity
  8
2
370
    50
100
AcDbCircle
 10
-226.090566
 20
-139.411147
 30
0.0
 40
1.0
100
AcDbArc
 50
180.0
 51
270.0
  0
LINE
  5
9E
100
AcDbEntity
  8
2
370
    50
100
AcDbLine
 10
-188.890566
 20
-104.111107
 30
0.0
 11
-138.290566
 21
-104.111107
 31
0.0
  0
LINE
  5
9F
100
AcDbEntity
  8
2
370
    50
100
AcDbLine
 10
-139.590566
 20
-104.111107
 30
0.0
 11
-139.590566
 21
-104.411431
 31
0.0
  0
LINE
  5
A0
100
AcDbEntity
  8
2
370
    50
100
AcDbLine
 10
-187.590566
 20
-104.111107
 30
0.0
 11
-187.590566
 21
-104.411107
 31
0.0
  0
LINE
  5
A1
100
AcDbEntity
  8
2
370
    50
100
AcDbLine
 10
-189.090566
 20
-103.911107
 30
0.0
 11
-189.090566
 21
-90.252103
 31
0.0
  0
LINE
  5
A2
100
AcDbEntity
  8
2
370
    50
100
AcDbLine
 10
-138.090566
 20
-103.911107
 30
0.0
 11
-138.090566
 21
-90.252103
 31
0.0
  0
LINE
  5
A3
100
AcDbEntity
  8
2
370
    50
100
AcDbLine
 10
-140.590566
 20
-87.18194
 30
0.0
 11
-140.590566
 21
-89.611285
 31
0.0
  0
LINE
  5
A4
100
AcDbEntity
  8
2
370
    50
100
AcDbLine
 10
-186.590566
 20
-87.18194
 30
0.0
 11
-186.590566
 21
-89.611285
 31
0.0
  0
LINE
  5
A5
100
AcDbEntity
  8
2
370
    50
100
AcDbLine
 10
-186.590566
 20
-89.611285
 30
0.0
 11
-188.893605
 21
-90.017373
 31
0.0
  0
LINE
  5
A6
100
AcDbEntity
  8
2
370
    50
100
AcDbLine
 10
-140.590566
 20
-89.611285
 30
0.0
 11
-138.287528
 21
-90.017373
 31
0.0
  0
LINE
  5
A7
100
AcDbEntity
  8
2
370
    50
100
AcDbLine
 10
-138.290566
 20
-104.111107
 30
0.0
 11
-138.090566
 21
-103.911107
 31
0.0
  0
LINE
  5
A8
100
AcDbEntity
  8
2
370
    50
100
AcDbLine
 10
-188.890566
 20
-104.111107
 30
0.0
 11
-189.090566
 21
-103.911107
 31
0.0
  0
LINE
  5
A9
100
AcDbEntity
  8
2
370
    50
100
AcDbLine
 10
-138.090566
 20
-90.252103
 30
0.0
 11
-138.287528
 21
-90.017373
 31
0.0
  0
LINE
  5
AA
100
AcDbEntity
  8
2
370
    50
100
AcDbLine
 10
-189.090566
 20
-90.252103
 30
0.0
 11
-188.893605
 21
-90.017373
 31
0.0
  0
LINE
  5
AB
100
AcDbEntity
  8
2
370
    25
100
AcDbLine
 10
-140.590566
 20
-89.611285
 30
0.0
 11
-186.590566
 21
-89.611285
 31
0.0
  0
LINE
  5
AC
100
AcDbEntity
  8
2
370
    25
100
AcDbLine
 10
-138.090566
 20
-90.252103
 30
0.0
 11
-189.090566
 21
-90.252103
 31
0.0
  0
LINE
  5
AD
100
AcDbEntity
  8
2
370
    50
100
AcDbLine
 10
-138.090566
 20
-103.911107
 30
0.0
 11
-189.090566
 21
-103.911107
 31
0.0
  0
LINE
  5
AE
100
AcDbEntity
  8
2
370
    50
100
AcDbLine
 10
-229.36483
 20
-119.73291
 30
0.0
 11
-227.090566
 21
-115.79377
 31
0.0
  0
LINE
  5
AF
100
AcDbEntity
  8
2
370
    50
100
AcDbLine
 10
-227.090566
 20
-129.028399
 30
0.0
 11
-229.36483
 21
-125.089259
 31
0.0
  0
ARC
  5
B0
100
AcDbEntity
  8
2
370
    50
100
AcDbCircle
 10
-213.590566
 20
-122.411084
 30
0.0
 40
16.0
100
AcDbArc
 50
170.364135
 51
189.635865
  0
ARC
  5
B1
100
AcDbEntity
  8
2
370
    50
100
AcDbCircle
 10
-213.590566
 20
-122.411084
 30
0.0
 40
14.55
100
AcDbArc
 50
158.099815
 51
201.900185
  0
LINE
  5
B2
100
AcDbEntity
  8
2
370
    50
100
AcDbLine
 10
-97.816303
 20
-119.73291
 30
0.0
 11
-100.090566
 21
-115.79377
 31
0.0
  0
LINE
  5
B3
100
AcDbEntity
  8
2
370
    50
100
AcDbLine
 10
-100.090566
 20
-129.028399
 30
0.0
 11
-97.816303
 21
-125.089259
 31
0.0
  0
ARC
  5
B4
100
AcDbEntity
  8
2
370
    50
100
AcDbCircle
 10
-113.590566
 20
-122.411084
 30
0.0
 40
16.0
100
AcDbArc
 50
350.364135
 51
9.635865
  0
ARC
  5
B5
100
AcDbEntity
  8
2
370
    50
100
AcDbCircle
 10
-113.590566
 20
-122.411084
 30
0.0
 40
14.55
100
AcDbArc
 50
338.099815
 51
21.900185
  0
LINE
  5
B6
100
AcDbEntity
  8
2
370
    50
100
AcDbLine
 10
265.367154
 20
7.525625
 30
0.0
 11
267.367154
 21
7.525625
 31
0.0
  0
LINE
  5
B7
100
AcDbEntity
  8
2
370
    50
100
AcDbLine
 10
265.367154
 20
-13.474375
 30
0.0
 11
267.367154
 21
-13.474375
 31
0.0
  0
LINE
  5
B8
100
AcDbEntity
  8
2
370
    50
100
AcDbLine
 10
267.367154
 20
-17.224375
 30
0.0
 11
267.367154
 21
11.275625
 31
0.0
  0
ARC
  5
B9
100
AcDbEntity
  8
2
370
    50
100
AcDbCircle
 10
274.117154
 20
-0.989672
 30
0.0
 40
14.0
100
AcDbArc
 50
61.174551
 51
118.825449
  0
LINE
  5
BA
100
AcDbEntity
  8
2
370
    50
100
AcDbLine
 10
280.867154
 20
-17.224375
 30
0.0
 11
280.867154
 21
11.275625
 31
0.0
  0
ARC
  5
BB
100
AcDbEntity
  8
2
370
    50
100
AcDbCircle
 10
274.117154
 20
-4.959079
 30
0.0
 40
14.0
100
AcDbArc
 50
241.174551
 51
298.825449
  0
ELLIPSE
  5
BC
100
AcDbEntity
  8
2
370
    50
100
AcDbEllipse
 10
274.117154
 20
-15.964509
 30
0.0
 11
4.25
 21
0.0
 31
0.0
210
0.0
220
0.0
230
1.0
 40
0.655059
 41
0.0
 42
6.2831849999999996
  0
ELLIPSE
  5
BD
100
AcDbEntity
  8
2
370
    50
100
AcDbEllipse
 10
274.117154
 20
-2.974128
 30
0.0
 11
0.0
 21
-5.5679999999999996
 31
0.0
210
0.0
220
0.0
230
1.0
 40
0.76329
 41
0.0
 42
6.2831849999999996
  0
ELLIPSE
  5
BE
100
AcDbEntity
  8
2
370
    50
100
AcDbEllipse
 10
274.117154
 20
10.016253
 30
0.0
 11
-4.25
 21
0.0
 31
0.0
210
0.0
220
0.0
230
1.0
 40
0.655059
 41
0.0
 42
6.2831849999999996
  0
LINE
  5
BF
100
AcDbEntity
  8
2
370
    25
100
AcDbLine
 10
283.116425
 20
29.825551
 30
0.0
 11
237.891373
 21
29.825551
 31
0.0
  0
LINE
  5
C0
100
AcDbEntity
  8
2
370
    25
100
AcDbLine
 10
284.678406
 20
29.384734
 30
0.0
 11
236.045441
 21
29.384734
 31
0.0
  0
LINE
  5
C1
100
AcDbEntity
  8
2
370
    50
100
AcDbLine
 10
285.867154
 20
15.52573
 30
0.0
 11
234.867154
 21
15.52573
 31
0.0
  0
LINE
  5
C2
100
AcDbEntity
  8
2
370
    50
100
AcDbLine
 10
265.367154
 20
-20.974814
 30
0.0
 11
265.367154
 21
15.025771
 31
0.0
  0
POINT
  5
C3
100
AcDbEntity
  8
2
370
    50
100
AcDbPoint
 10
265.367154
 20
-2.974128
 30
0.0
  0
ARC
  5
C4
100
AcDbEntity
  8
2
370
    50
100
AcDbCircle
 10
238.592988
 20
-27.974712
 30
0.0
 40
5.0
100
AcDbArc
 50
221.840901
 51
270.0
  0
ARC
  5
C5
100
AcDbEntity
  8
2
370
    50
100
AcDbCircle
 10
255.937702
 20
-27.974712
 30
0.0
 40
8.205286
100
AcDbArc
 50
32.369572
 51
37.543478
  0
ARC
  5
C6
100
AcDbEntity
  8
2
370
    50
100
AcDbCircle
 10
259.142988
 20
-27.974712
 30
0.0
 40
5.0
100
AcDbArc
 50
270.0
 51
318.159099
  0
ARC
  5
C7
100
AcDbEntity
  8
2
370
    50
100
AcDbCircle
 10
241.798274
 20
-27.974712
 30
0.0
 40
8.205286
100
AcDbArc
 50
142.456522
 51
147.630428
  0
LINE
  5
C8
100
AcDbEntity
  8
2
370
    50
100
AcDbLine
 10
262.867988
 20
-31.310034
 30
0.0
 11
262.867988
 21
-23.581779
 31
0.0
  0
LINE
  5
C9
100
AcDbEntity
  8
2
370
    50
100
AcDbLine
 10
234.867988
 20
-31.310034
 30
0.0
 11
234.867988
 21
-23.581779
 31
0.0
  0
LINE
  5
CA
100
AcDbEntity
  8
2
370
    50
100
AcDbLine
 10
235.292375
 20
-22.974712
 30
0.0
 11
262.443601
 21
-22.974712
 31
0.0
  0
LINE
  5
CB
100
AcDbEntity
  8
2
370
    50
100
AcDbLine
 10
238.592988
 20
-32.974712
 30
0.0
 11
259.142988
 21
-32.974712
 31
0.0
  0
ELLIPSE
  5
CC
100
AcDbEntity
  8
2
370
    50
100
AcDbEllipse
 10
241.867988
 20
-27.445907
 30
0.0
 11
5.5560780000000003
 21
0.0
 31
0.0
210
0.0
220
0.0
230
1.0
 40
0.695478
 41
0.0
 42
6.2831849999999996
  0
ELLIPSE
  5
CD
100
AcDbEntity
  8
2
370
    50
100
AcDbEllipse
 10
255.867988
 20
-27.445907
 30
0.0
 11
5.5560780000000003
 21
0.0
 31
0.0
210
0.0
220
0.0
230
1.0
 40
0.695478
 41
0.0
 42
6.2831849999999996
  0
ARC
  5
CE
100
AcDbEntity
  8
2
370
    50
100
AcDbCircle
 10
-173.865566
 20
-147.410712
 30
0.0
 40
5.0
100
AcDbArc
 50
180.0
 51
270.0
  0
ARC
  5
CF
100
AcDbEntity
  8
2
370
    50
100
AcDbCircle
 10
-170.66028
 20
-147.410712
 30
0.0
 40
8.205286
100
AcDbArc
 50
142.456522
 51
180.0
  0
ARC
  5
D0
100
AcDbEntity
  8
2
370
    50
100
AcDbCircle
 10
-153.315566
 20
-147.410712
 30
0.0
 40
5.0
100
AcDbArc
 50
270.0
 51
0.0
  0
ARC
  5
D1
100
AcDbEntity
  8
2
370
    50
100
AcDbCircle
 10
-156.520853
 20
-147.410712
 30
0.0
 40
8.205286
100
AcDbArc
 50
0.0
 51
37.543478
  0
LINE
  5
D2
100
AcDbEntity
  8
2
370
    50
100
AcDbLine
 10
-174.223271
 20
-213.510128
 30
0.0
 11
-152.957862
 21
-213.510128
 31
0.0
  0
LINE
  5
D3
100
AcDbEntity
  8
2
370
    50
100
AcDbLine
 10
-175.590566
 20
-202.210128
 30
0.0
 11
-175.590566
 21
-210.010128
 31
0.0
  0
LINE
  5
D4
100
AcDbEntity
  8
2
370
    50
100
AcDbLine
 10
-151.590566
 20
-202.210128
 30
0.0
 11
-151.590566
 21
-210.010128
 31
0.0
  0
LINE
  5
D5
100
AcDbEntity
  8
2
370
    50
100
AcDbLine
 10
-151.590566
 20
-210.010128
 30
0.0
 11
-151.967912
 21
-212.651549
 31
0.0
  0
LINE
  5
D6
100
AcDbEntity
  8
2
370
    50
100
AcDbLine
 10
-175.590566
 20
-210.010128
 30
0.0
 11
-175.213221
 21
-212.651549
 31
0.0
  0
ARC
  5
D7
100
AcDbEntity
  8
2
370
    50
100
AcDbCircle
 10
-152.957862
 20
-212.510128
 30
0.0
 40
1.0
100
AcDbArc
 50
270.0
 51
351.869898
  0
ARC
  5
D8
100
AcDbEntity
  8
2
370
    50
100
AcDbCircle
 10
-174.223271
 20
-212.510128
 30
0.0
 40
1.0
100
AcDbArc
 50
188.130102
 51
270.0
  0
LINE
  5
D9
100
AcDbEntity
  8
2
370
    25
100
AcDbLine
 10
-175.024282
 20
-210.010128
 30
0.0
 11
-152.422109
 21
-210.010128
 31
0.0
  0
LINE
  5
DA
100
AcDbEntity
  8
2
370
    50
100
AcDbLine
 10
-155.690566
 20
-152.410712
 30
0.0
 11
-155.690566
 21
-167.15905
 31
0.0
  0
LINE
  5
DB
100
AcDbEntity
  8
2
370
    50
100
AcDbLine
 10
-171.490566
 20
-152.410712
 30
0.0
 11
-171.490566
 21
-167.15905
 31
0.0
  0
LINE
  5
DC
100
AcDbEntity
  8
2
370
    50
100
AcDbLine
 10
-175.390566
 20
-202.010128
 30
0.0
 11
-151.790566
 21
-202.010128
 31
0.0
  0
LINE
  5
DD
100
AcDbEntity
  8
2
370
    50
100
AcDbLine
 10
-151.790566
 20
-202.010128
 30
0.0
 11
-151.590566
 21
-202.210128
 31
0.0
  0
LINE
  5
DE
100
AcDbEntity
  8
2
370
    50
100
AcDbLine
 10
-175.390566
 20
-202.010128
 30
0.0
 11
-175.590566
 21
-202.210128
 31
0.0
  0
ARC
  5
DF
100
AcDbEntity
  8
2
370
    50
100
AcDbCircle
 10
-151.340566
 20
-176.910128
 30
0.0
 40
25.0
100
AcDbArc
 50
166.204472
 51
180.0
  0
ARC
  5
E0
100
AcDbEntity
  8
2
370
    50
100
AcDbCircle
 10
-163.590566
 20
-179.910128
 30
0.0
 40
15.0
100
AcDbArc
 50
36.686015
 51
143.313985
  0
ARC
  5
E1
100
AcDbEntity
  8
2
370
    50
100
AcDbCircle
 10
-175.840566
 20
-176.910128
 30
0.0
 40
25.0
100
AcDbArc
 50
0.0
 51
13.795528
  0
LINE
  5
E2
100
AcDbEntity
  8
2
370
    50
100
AcDbLine
 10
-150.840566
 20
-176.910128
 30
0.0
 11
-150.840566
 21
-198.410128
 31
0.0
  0
LINE
  5
E3
100
AcDbEntity
  8
2
370
    50
100
AcDbLine
 10
-176.340566
 20
-176.910128
 30
0.0
 11
-176.340566
 21
-198.410128
 31
0.0
  0
LINE
  5
E4
100
AcDbEntity
  8
2
370
    25
100
AcDbLine
 10
-175.590566
 20
-198.410128
 30
0.0
 11
-175.590566
 21
-170.910128
 31
0.0
  0
LINE
  5
E5
100
AcDbEntity
  8
2
370
    50
100
AcDbLine
 10
-176.340566
 20
-198.410128
 30
0.0
 11
-175.68525
 21
-201.031396
 31
0.0
  0
LINE
  5
E6
100
AcDbEntity
  8
2
370
    50
100
AcDbLine
 10
-150.840566
 20
-198.410128
 30
0.0
 11
-151.495883
 21
-201.031396
 31
0.0
  0
LINE
  5
E7
100
AcDbEntity
  8
2
370
    25
100
AcDbLine
 10
-151.590566
 20
-198.410128
 30
0.0
 11
-151.590566
 21
-170.910128
 31
0.0
  0
LINE
  5
E8
100
AcDbEntity
  8
2
370
    50
100
AcDbLine
 10
-152.840566
 20
-202.010128
 30
0.0
 11
-152.840566
 21
-201.410128
 31
0.0
  0
LINE
  5
E9
100
AcDbEntity
  8
2
370
    50
100
AcDbLine
 10
-174.340566
 20
-202.010128
 30
0.0
 11
-174.340566
 21
-201.410128
 31
0.0
  0
LINE
  5
EA
100
AcDbEntity
  8
2
370
    50
100
AcDbLine
 10
-151.980955
 20
-201.410128
 30
0.0
 11
-175.200178
 21
-201.410128
 31
0.0
  0
ARC
  5
EB
100
AcDbEntity
  8
2
370
    50
100
AcDbCircle
 10
-175.200178
 20
-200.910128
 30
0.0
 40
0.5
100
AcDbArc
 50
194.036243
 51
270.0
  0
ARC
  5
EC
100
AcDbEntity
  8
2
370
    50
100
AcDbCircle
 10
-151.980955
 20
-200.910128
 30
0.0
 40
0.5
100
AcDbArc
 50
270.0
 51
345.963757
  0
ARC
  5
ED
100
AcDbEntity
  8
2
370
    25
100
AcDbCircle
 10
90.867988
 20
-74.395875
 30
0.0
 40
7.578254
100
AcDbArc
 50
219.737283
 51
252.332056
  0
ARC
  5
EE
100
AcDbEntity
  8
2
370
    25
100
AcDbCircle
 10
66.867988
 20
-74.395875
 30
0.0
 40
7.578254
100
AcDbArc
 50
281.13592
 51
320.262717
  0
LINE
  5
EF
100
AcDbEntity
  8
2
370
    25
100
AcDbLine
 10
72.906988
 20
-78.974128
 30
0.0
 11
84.828988
 21
-78.974128
 31
0.0
  0
ARC
  5
F0
100
AcDbEntity
  8
2
370
    25
100
AcDbCircle
 10
98.867988
 20
-77.474128
 30
0.0
 40
25.961
100
AcDbArc
 50
90.0
 51
180.0
  0
LINE
  5
F1
100
AcDbEntity
  8
2
370
    25
100
AcDbLine
 10
98.867988
 20
-51.513128
 30
0.0
 11
122.867988
 21
-51.513128
 31
0.0
  0
LINE
  5
F2
100
AcDbEntity
  8
2
370
    25
100
AcDbLine
 10
122.867988
 20
-63.435569
 30
0.0
 11
98.756662
 21
-63.435569
 31
0.0
  0
ARC
  5
F3
100
AcDbEntity
  8
2
370
    25
100
AcDbCircle
 10
98.867988
 20
-77.474128
 30
0.0
 40
14.039
100
AcDbArc
 50
90.0
 51
180.0
  0
LINE
  5
F4
100
AcDbEntity
  8
2
370
    25
100
AcDbLine
 10
72.906988
 20
-77.474128
 30
0.0
 11
72.906988
 21
-78.974128
 31
0.0
  0
LINE
  5
F5
100
AcDbEntity
  8
2
370
    50
100
AcDbLine
 10
126.867988
 20
-49.524128
 30
0.0
 11
228.867988
 21
-49.524128
 31
0.0
  0
LINE
  5
F6
100
AcDbEntity
  8
2
370
    50
100
AcDbLine
 10
126.867988
 20
-65.424128
 30
0.0
 11
228.867988
 21
-65.424128
 31
0.0
  0
LINE
  5
F7
100
AcDbEntity
  8
2
370
    50
100
AcDbLine
 10
90.867988
 20
-77.474128
 30
0.0
 11
90.867988
 21
-81.474128
 31
0.0
  0
ARC
  5
F8
100
AcDbEntity
  8
2
370
    50
100
AcDbCircle
 10
90.117988
 20
-82.474128
 30
0.0
 40
0.5
100
AcDbArc
 50
90.0
 51
180.0
  0
LINE
  5
F9
100
AcDbEntity
  8
2
370
    50
100
AcDbLine
 10
126.867988
 20
-46.474128
 30
0.0
 11
126.867988
 21
-68.474128
 31
0.0
  0
LINE
  5
FA
100
AcDbEntity
  8
2
370
    50
100
AcDbLine
 10
98.867988
 20
-69.474128
 30
0.0
 11
122.867988
 21
-69.474128
 31
0.0
  0
ARC
  5
FB
100
AcDbEntity
  8
2
370
    50
100
AcDbCircle
 10
98.867988
 20
-77.474128
 30
0.0
 40
8.0
100
AcDbArc
 50
90.0
 51
180.0
  0
ARC
  5
FC
100
AcDbEntity
  8
2
370
    50
100
AcDbCircle
 10
90.367988
 20
-81.474128
 30
0.0
 40
0.5
100
AcDbArc
 50
270.0
 51
360.0
  0
LINE
  5
FD
100
AcDbEntity
  8
2
370
    50
100
AcDbLine
 10
89.617988
 20
-82.474128
 30
0.0
 11
89.617988
 21
-82.574128
 31
0.0
  0
ARC
  5
FE
100
AcDbEntity
  8
2
370
    50
100
AcDbCircle
 10
122.867988
 20
-60.974128
 30
0.0
 40
8.5
100
AcDbArc
 50
270.0
 51
298.072487
  0
LINE
  5
FF
100
AcDbEntity
  8
2
370
    50
100
AcDbLine
 10
98.867988
 20
-45.474128
 30
0.0
 11
122.867988
 21
-45.474128
 31
0.0
  0
ARC
  5
100
100
AcDbEntity
  8
2
370
    50
100
AcDbCircle
 10
98.867988
 20
-77.474128
 30
0.0
 40
32.0
100
AcDbArc
 50
90.0
 51
180.0
  0
LINE
  5
101
100
AcDbEntity
  8
2
370
    50
100
AcDbLine
 10
66.867988
 20
-77.474128
 30
0.0
 11
66.867988
 21
-81.474128
 31
0.0
  0
ARC
  5
102
100
AcDbEntity
  8
2
370
    50
100
AcDbCircle
 10
67.367988
 20
-81.474128
 30
0.0
 40
0.5
100
AcDbArc
 50
180.0
 51
270.0
  0
LINE
  5
103
100
AcDbEntity
  8
2
370
    50
100
AcDbLine
 10
67.367988
 20
-81.974128
 30
0.0
 11
90.367988
 21
-81.974128
 31
0.0
  0
LINE
  5
104
100
AcDbEntity
  8
2
370
    50
100
AcDbLine
 10
68.117988
 20
-82.474128
 30
0.0
 11
68.117988
 21
-82.574128
 31
0.0
  0
ARC
  5
105
100
AcDbEntity
  8
2
370
    50
100
AcDbCircle
 10
67.617988
 20
-82.474128
 30
0.0
 40
0.5
100
AcDbArc
 50
0.0
 51
90.0
  0
ARC
  5
106
100
AcDbEntity
  8
2
370
    50
100
AcDbCircle
 10
122.867988
 20
-53.974128
 30
0.0
 40
8.5
100
AcDbArc
 50
61.927513
 51
90.0
  0
LINE
  5
107
100
AcDbEntity
  8
2
370
    50
100
AcDbLine
 10
68.545021
 20
-94.074128
 30
0.0
 11
89.190955
 21
-94.074128
 31
0.0
  0
LINE
  5
108
100
AcDbEntity
  8
2
370
    50
100
AcDbLine
 10
66.867988
 20
-82.774128
 30
0.0
 11
66.867988
 21
-91.574128
 31
0.0
  0
LINE
  5
109
100
AcDbEntity
  8
2
370
    50
100
AcDbLine
 10
90.867988
 20
-82.774128
 30
0.0
 11
90.867988
 21
-91.574128
 31
0.0
  0
LINE
  5
10A
100
AcDbEntity
  8
2
370
    50
100
AcDbLine
 10
90.867988
 20
-82.774128
 30
0.0
 11
90.667988
 21
-82.574128
 31
0.0
  0
LINE
  5
10B
100
AcDbEntity
  8
2
370
    50
100
AcDbLine
 10
66.867988
 20
-82.774128
 30
0.0
 11
67.067988
 21
-82.574128
 31
0.0
  0
LINE
  5
10C
100
AcDbEntity
  8
2
370
    50
100
AcDbLine
 10
67.067988
 20
-82.574128
 30
0.0
 11
90.667988
 21
-82.574128
 31
0.0
  0
LINE
  5
10D
100
AcDbEntity
  8
2
370
    50
100
AcDbLine
 10
90.867988
 20
-91.574128
 30
0.0
 11
90.119432
 21
-93.445519
 31
0.0
  0
LINE
  5
10E
100
AcDbEntity
  8
2
370
    50
100
AcDbLine
 10
66.867988
 20
-91.574128
 30
0.0
 11
67.616545
 21
-93.445519
 31
0.0
  0
ARC
  5
10F
100
AcDbEntity
  8
2
370
    50
100
AcDbCircle
 10
68.545021
 20
-93.074128
 30
0.0
 40
1.0
100
AcDbArc
 50
201.801409
 51
270.0
  0
ARC
  5
110
100
AcDbEntity
  8
2
370
    50
100
AcDbCircle
 10
89.190955
 20
-93.074128
 30
0.0
 40
1.0
100
AcDbArc
 50
270.0
 51
338.198591
  0
POINT
  5
111
100
AcDbEntity
  8
2
370
    50
100
AcDbPoint
 10
248.867988
 20
-32.974712
 30
0.0
  0
LINE
  5
112
100
AcDbEntity
  8
2
370
    25
100
AcDbLine
 10
89.746546
 20
-91.574128
 30
0.0
 11
67.859505
 21
-91.574128
 31
0.0
  0
POINT
  5
113
100
AcDbEntity
  8
2
370
    50
100
AcDbPoint
 10
78.867988
 20
-94.074128
 30
0.0
  0
LINE
  5
114
100
AcDbEntity
  8
2
370
    50
100
AcDbLine
 10
-226.090566
 20
-140.411147
 30
0.0
 11
-101.090566
 21
-140.411147
 31
0.0
  0
LINE
  5
115
100
AcDbEntity
  8
2
370
    50
100
AcDbLine
 10
-177.166179
 20
-142.410712
 30
0.0
 11
-150.014954
 21
-142.410712
 31
0.0
  0
ELLIPSE
  5
116
100
AcDbEntity
  8
2
370
    50
100
AcDbEllipse
 10
-151.466211
 20
-146.881907
 30
0.0
 11
0.0
 21
3.8641269999999999
 31
0.0
210
0.0
220
0.0
230
1.0
 40
0.790537
 41
0.0
 42
6.2831849999999996
  0
ELLIPSE
  5
117
100
AcDbEntity
  8
2
370
    50
100
AcDbEllipse
 10
-175.714922
 20
-146.881907
 30
0.0
 11
0.0
 21
-3.8641269999999999
 31
0.0
210
0.0
220
0.0
230
1.0
 40
0.790537
 41
0.0
 42
6.2831849999999996
  0
POINT
  5
118
100
AcDbEntity
  8
2
370
    50
100
AcDbPoint
 10
260.367154
 20
34.725746
 30
0.0
  0
ARC
  5
119
100
AcDbEntity
  8
2
370
    50
100
AcDbCircle
 10
57.001229
 20
-394.40226
 30
0.0
 40
500.0
100
AcDbArc
 50
70.266103
 51
78.450142
  0
LINE
  5
11A
100
AcDbEntity
  8
2
370
    50
100
AcDbLine
 10
259.129769
 20
31.791571
 30
0.0
 11
232.928569
 21
32.248915
 31
0.0
  0
LINE
  5
11B
100
AcDbEntity
  8
2
370
    50
100
AcDbLine
 10
261.007413
 20
32.156548
 30
0.0
 11
285.130128
 21
42.396033
 31
0.0
  0
ARC
  5
11C
100
AcDbEntity
  8
2
370
    50
100
AcDbCircle
 10
285.012909
 20
42.672184
 30
0.0
 40
0.3
100
AcDbArc
 50
293.0
 51
1.579148
  0
ARC
  5
11D
100
AcDbEntity
  8
2
370
    50
100
AcDbCircle
 10
282.318389
 20
60.579841
 30
0.0
 40
2.5
100
AcDbArc
 50
1.579148
 51
53.184173
  0
ARC
  5
11E
100
AcDbEntity
  8
2
370
    50
100
AcDbCircle
 10
245.501651
 20
78.594344
 30
0.0
 40
3.0
100
AcDbArc
 50
69.470338
 51
97.744647
  0
ARC
  5
11F
100
AcDbEntity
  8
2
370
    50
100
AcDbCircle
 10
259.21005
 20
36.39087
 30
0.0
 40
4.6
100
AcDbArc
 50
269.0
 51
293.0
  0
LINE
  5
120
100
AcDbEntity
  8
2
370
    50
100
AcDbLine
 10
285.312795
 20
42.680452
 30
0.0
 11
284.81744
 21
60.648735
 31
0.0
  0
ARC
  5
121
100
AcDbEntity
  8
2
370
    50
100
AcDbCircle
 10
166.219179
 20
-3.623595
 30
0.0
 40
110.0
100
AcDbArc
 50
95.299884
 51
101.319359
  0
LINE
  5
122
100
AcDbEntity
  8
2
370
    50
100
AcDbLine
 10
142.327503
 20
101.025296
 30
0.0
 11
142.704536
 21
102.432405
 31
0.0
  0
ARC
  5
123
100
AcDbEntity
  8
2
370
    50
100
AcDbCircle
 10
57.001229
 20
-394.40226
 30
0.0
 40
500.0
100
AcDbArc
 50
78.450142
 51
79.944087
  0
ARC
  5
124
100
AcDbEntity
  8
2
370
    50
100
AcDbCircle
 10
217.899576
 20
-25.48099
 30
0.0
 40
110.0
100
AcDbArc
 50
53.184173
 51
67.905627
  0
ARC
  5
125
100
AcDbEntity
  8
2
370
    50
100
AcDbCircle
 10
166.18088
 20
118.304775
 30
0.0
 40
16.0
100
AcDbArc
 50
230.771799
 51
258.85705
  0
LINE
  5
126
100
AcDbEntity
  8
2
370
    50
100
AcDbLine
 10
240.150895
 20
80.894264
 30
0.0
 11
245.097375
 21
81.566979
 31
0.0
  0
ARC
  5
127
100
AcDbEntity
  8
2
370
    50
100
AcDbCircle
 10
66.460004
 20
-387.967629
 30
0.0
 40
500.0
100
AcDbArc
 50
69.672743
 51
78.85705
  0
ARC
  5
128
100
AcDbEntity
  8
2
370
    50
100
AcDbCircle
 10
71.2076
 20
-386.841564
 30
0.0
 40
500.0
100
AcDbArc
 50
67.905627
 51
69.470338
  0
ARC
  5
129
100
AcDbEntity
  8
2
370
    50
100
AcDbCircle
 10
145.119351
 20
101.785358
 30
0.0
 40
2.5
100
AcDbArc
 50
101.319359
 51
165.0
  0
ARC
  5
12A
100
AcDbEntity
  8
2
370
    50
100
AcDbCircle
 10
144.742317
 20
100.378248
 30
0.0
 40
2.5
100
AcDbArc
 50
165.0
 51
259.944087
  0
LINE
  5
12B
100
AcDbEntity
  8
2
370
    50
100
AcDbLine
 10
259.130152
 20
31.791564
 30
0.0
 11
248.863055
 21
54.851842
 31
0.0
  0
ARC
  5
12C
100
AcDbEntity
  8
2
370
    50
100
AcDbCircle
 10
212.321236
 20
38.582376
 30
0.0
 40
40.0
100
AcDbArc
 50
24.0
 51
70.266103
  0
LINE
  5
12D
100
AcDbEntity
  8
2
370
    50
100
AcDbLine
 10
232.633805
 20
32.548869
 30
0.0
 11
232.633805
 21
63.224417
 31
0.0
  0
ARC
  5
12E
100
AcDbEntity
  8
2
370
    50
100
AcDbCircle
 10
217.633805
 20
63.224417
 30
0.0
 40
15.0
100
AcDbArc
 50
0.0
 51
70.658301
  0
ARC
  5
12F
100
AcDbEntity
  8
2
370
    50
100
AcDbCircle
 10
232.933805
 20
32.548869
 30
0.0
 40
0.3
100
AcDbArc
 50
180.0
 51
269.0
  0
ARC
  5
130
100
AcDbEntity
  8
2
370
    25
100
AcDbCircle
 10
73.176319
 20
-391.165972
 30
0.0
 40
500.0
100
AcDbArc
 50
65.019107
 51
81.820694
  0
POINT
  5
131
100
AcDbEntity
  8
2
370
    50
100
AcDbPoint
 10
232.633805
 20
32.25406
 30
0.0
  0
ARC
  5
132
100
AcDbEntity
  8
2
370
    50
  6
DASHED
100
AcDbCircle
 10
-130.316906
 20
-235.227046
 30
0.0
 40
500.0
100
AcDbArc
 50
43.701039
 51
48.450142
  0
ARC
  5
133
100
AcDbEntity
  8
2
370
    50
  6
DASHED
100
AcDbCircle
 10
159.657946
 20
48.58823
 30
0.0
 40
110.0
100
AcDbArc
 50
65.299884
 51
71.319359
  0
LINE
  5
134
100
AcDbEntity
  8
2
370
    50
  6
DASHED
100
AcDbLine
 10
191.291592
 20
151.162666
 30
0.0
 11
192.321668
 21
152.192742
 31
0.0
  0
ARC
  5
135
100
AcDbEntity
  8
2
370
    50
  6
DASHED
100
AcDbCircle
 10
-130.316906
 20
-235.227046
 30
0.0
 40
500.0
100
AcDbArc
 50
48.450142
 51
49.944087
  0
ARC
  5
136
100
AcDbEntity
  8
2
370
    50
  6
DASHED
100
AcDbCircle
 10
220.588962
 20
154.200446
 30
0.0
 40
16.0
100
AcDbArc
 50
200.771799
 51
228.85705
  0
ARC
  5
137
100
AcDbEntity
  8
2
370
    50
  6
DASHED
100
AcDbCircle
 10
-118.908051
 20
-234.38388
 30
0.0
 40
500.0
100
AcDbArc
 50
44.822136
 51
48.85705
  0
ARC
  5
138
100
AcDbEntity
  8
2
370
    50
  6
DASHED
100
AcDbCircle
 10
194.089435
 20
150.424975
 30
0.0
 40
2.5
100
AcDbArc
 50
71.319359
 51
135.0
  0
ARC
  5
139
100
AcDbEntity
  8
2
370
    50
  6
DASHED
100
AcDbCircle
 10
193.059359
 20
149.394899
 30
0.0
 40
2.5
100
AcDbArc
 50
135.0
 51
229.944087
  0
LINE
  5
13A
100
AcDbEntity
  8
2
370
    50
100
AcDbLine
 10
240.917988
 20
-37.474128
 30
0.0
 11
240.917988
 21
-32.974712
 31
0.0
  0
LINE
  5
13B
100
AcDbEntity
  8
2
370
    50
100
AcDbLine
 10
256.817988
 20
-37.474128
 30
0.0
 11
256.817988
 21
-32.974712
 31
0.0
  0
ARC
  5
13C
100
AcDbEntity
  8
2
370
    50
100
AcDbCircle
 10
228.867988
 20
-37.474128
 30
0.0
 40
12.05
100
AcDbArc
 50
270.0
 51
0.0
  0
ARC
  5
13D
100
AcDbEntity
  8
2
370
    50
100
AcDbCircle
 10
228.867988
 20
-37.474128
 30
0.0
 40
27.95
100
AcDbArc
 50
270.0
 51
0.0
  0
LINE
  5
13E
100
AcDbEntity
  8
2
370
    50
100
AcDbLine
 10
-153.315566
 20
-152.410712
 30
0.0
 11
-173.865566
 21
-152.410712
 31
0.0
  0
ELLIPSE
  5
13F
100
AcDbEntity
  8
2
370
    50
100
AcDbEllipse
 10
-163.590566
 20
-146.881907
 30
0.0
 11
-6.10947
 21
0.0
 31
0.0
210
0.0
220
0.0
230
1.0
 40
0.632482
 41
0.0
 42
6.2831849999999996
  0
LINE
  5
140
100
AcDbEntity
  8
2
370
    50
100
AcDbLine
 10
-228.491331
 20
-118.219966
 30
0.0
 11
-236.365132
 21
-126.093767
 31
0.0
  0
LINE
  5
141
100
AcDbEntity
  8
2
370
    50
100
AcDbLine
 10
-212.498746
 20
-140.411147
 30
0.0
 11
-217.273249
 21
-145.18565
 31
0.0
  0
ARC
  5
142
100
AcDbEntity
  8
2
370
    50
100
AcDbCircle
 10
-224.197168
 20
-133.017686
 30
0.0
 40
14.0
100
AcDbArc
 50
150.358886
 51
299.641114
  0
LINE
  5
143
100
AcDbEntity
  8
2
370
    50
100
AcDbLine
 10
-213.205853
 20
-140.411147
 30
0.0
 11
-217.578688
 21
-144.783982
 31
0.0
  0
ARC
  5
144
100
AcDbEntity
  8
2
370
    50
100
AcDbCircle
 10
-224.197168
 20
-133.017686
 30
0.0
 40
13.5
100
AcDbArc
 50
150.642471
 51
299.357529
  0
LINE
  5
145
100
AcDbEntity
  8
2
370
    50
100
AcDbLine
 10
-229.378408
 20
-119.814149
 30
0.0
 11
-235.963464
 21
-126.399206
 31
0.0
  0
LINE
  5
146
100
AcDbEntity
  8
2
370
    50
100
AcDbLine
 10
-98.689802
 20
-118.219966
 30
0.0
 11
-90.816001
 21
-126.093767
 31
0.0
  0
LINE
  5
147
100
AcDbEntity
  8
2
370
    50
100
AcDbLine
 10
-114.682387
 20
-140.411147
 30
0.0
 11
-109.907884
 21
-145.18565
 31
0.0
  0
ARC
  5
148
100
AcDbEntity
  8
2
370
    50
100
AcDbCircle
 10
-102.983965
 20
-133.017686
 30
0.0
 40
14.0
100
AcDbArc
 50
240.358886
 51
29.641114
  0
LINE
  5
149
100
AcDbEntity
  8
2
370
    50
100
AcDbLine
 10
-113.97528
 20
-140.411147
 30
0.0
 11
-109.602445
 21
-144.783982
 31
0.0
  0
ARC
  5
14A
100
AcDbEntity
  8
2
370
    50
100
AcDbCircle
 10
-102.983965
 20
-133.017686
 30
0.0
 40
13.5
100
AcDbArc
 50
240.642471
 51
29.357529
  0
LINE
  5
14B
100
AcDbEntity
  8
2
370
    50
100
AcDbLine
 10
-97.802725
 20
-119.814149
 30
0.0
 11
-91.217669
 21
-126.399206
 31
0.0
  0
LINE
  5
14C
100
AcDbEntity
  8
2
370
    25
100
AcDbLine
 10
282.367406
 20
-14.93805
 30
0.0
 11
280.867154
 21
-14.93805
 31
0.0
  0
LINE
  5
14D
100
AcDbEntity
  8
2
370
    50
100
AcDbLine
 10
282.367406
 20
-14.93805
 30
0.0
 11
284.135858
 21
-15.959066
 31
0.0
  0
LINE
  5
14E
100
AcDbEntity
  8
2
370
    50
100
AcDbLine
 10
290.367406
 20
-15.959066
 30
0.0
 11
280.867154
 21
-15.959066
 31
0.0
  0
LINE
  5
14F
100
AcDbEntity
  8
2
370
    50
100
AcDbLine
 10
290.367406
 20
-31.459066
 30
0.0
 11
290.367406
 21
10.540934
 31
0.0
  0
LINE
  5
150
100
AcDbEntity
  8
2
370
    50
100
AcDbLine
 10
306.367406
 20
-31.459066
 30
0.0
 11
306.367406
 21
10.540934
 31
0.0
  0
LINE
  5
151
100
AcDbEntity
  8
2
370
    50
100
AcDbLine
 10
305.867406
 20
-31.959066
 30
0.0
 11
290.867406
 21
-31.959066
 31
0.0
  0
LINE
  5
152
100
AcDbEntity
  8
2
370
    50
100
AcDbLine
 10
290.867406
 20
11.040934
 30
0.0
 11
305.867406
 21
11.040934
 31
0.0
  0
LINE
  5
153
100
AcDbEntity
  8
2
370
    50
100
AcDbLine
 10
280.949432
 20
10.040934
 30
0.0
 11
290.367406
 21
10.040934
 31
0.0
  0
LINE
  5
154
100
AcDbEntity
  8
2
370
    50
100
AcDbLine
 10
306.367406
 20
-31.459066
 30
0.0
 11
305.867406
 21
-31.959066
 31
0.0
  0
LINE
  5
155
100
AcDbEntity
  8
2
370
    50
100
AcDbLine
 10
290.867406
 20
-31.959066
 30
0.0
 11
290.367406
 21
-31.459066
 31
0.0
  0
LINE
  5
156
100
AcDbEntity
  8
2
370
    50
100
AcDbLine
 10
290.367406
 20
10.540934
 30
0.0
 11
290.867406
 21
11.040934
 31
0.0
  0
LINE
  5
157
100
AcDbEntity
  8
2
370
    50
100
AcDbLine
 10
305.867406
 20
11.040934
 30
0.0
 11
306.367406
 21
10.540934
 31
0.0
  0
LINE
  5
158
100
AcDbEntity
  8
2
370
    50
100
AcDbLine
 10
308.867406
 20
-29.459066
 30
0.0
 11
306.367406
 21
-29.459066
 31
0.0
  0
LINE
  5
159
100
AcDbEntity
  8
2
370
    50
100
AcDbLine
 10
308.867406
 20
-6.459066
 30
0.0
 11
306.367406
 21
-6.459066
 31
0.0
  0
LINE
  5
15A
100
AcDbEntity
  8
2
370
    50
100
AcDbLine
 10
309.367406
 20
-28.959066
 30
0.0
 11
308.867406
 21
-29.459066
 31
0.0
  0
LINE
  5
15B
100
AcDbEntity
  8
2
370
    50
100
AcDbLine
 10
309.367406
 20
-6.959066
 30
0.0
 11
308.867406
 21
-6.459066
 31
0.0
  0
LINE
  5
15C
100
AcDbEntity
  8
2
370
    50
100
AcDbLine
 10
310.388423
 20
-4.959066
 30
0.0
 11
316.367406
 21
-4.959066
 31
0.0
  0
LINE
  5
15D
100
AcDbEntity
  8
2
370
    25
100
AcDbLine
 10
309.367406
 20
-5.98005
 30
0.0
 11
317.367406
 21
-5.98005
 31
0.0
  0
LINE
  5
15E
100
AcDbEntity
  8
2
370
    50
100
AcDbLine
 10
317.367406
 20
-29.959066
 30
0.0
 11
317.367406
 21
-5.959066
 31
0.0
  0
LINE
  5
15F
100
AcDbEntity
  8
2
370
    25
100
AcDbLine
 10
309.367406
 20
-29.93805
 30
0.0
 11
317.367406
 21
-29.93805
 31
0.0
  0
LINE
  5
160
100
AcDbEntity
  8
2
370
    50
100
AcDbLine
 10
316.367406
 20
-30.959066
 30
0.0
 11
310.388423
 21
-30.959066
 31
0.0
  0
LINE
  5
161
100
AcDbEntity
  8
2
370
    50
100
AcDbLine
 10
316.367406
 20
-4.959066
 30
0.0
 11
317.367406
 21
-5.959066
 31
0.0
  0
LINE
  5
162
100
AcDbEntity
  8
2
370
    50
100
AcDbLine
 10
316.367406
 20
-30.959066
 30
0.0
 11
317.367406
 21
-29.959066
 31
0.0
  0
LINE
  5
163
100
AcDbEntity
  8
2
370
    50
100
AcDbLine
 10
309.367406
 20
-29.93805
 30
0.0
 11
310.388423
 21
-30.959066
 31
0.0
  0
LINE
  5
164
100
AcDbEntity
  8
2
370
    50
100
AcDbLine
 10
309.367406
 20
-5.980083
 30
0.0
 11
310.388423
 21
-4.959066
 31
0.0
  0
LINE
  5
165
100
AcDbEntity
  8
2
370
    50
100
AcDbLine
 10
309.367406
 20
-5.98005
 30
0.0
 11
309.367406
 21
-29.93805
 31
0.0
  0
LINE
  5
166
100
AcDbEntity
  8
2
370
    50
100
AcDbLine
 10
316.367406
 20
-4.959066
 30
0.0
 11
316.367406
 21
-30.959066
 31
0.0
  0
LINE
  5
167
100
AcDbEntity
  8
2
370
    50
100
AcDbLine
 10
310.388423
 20
-30.959066
 30
0.0
 11
310.388423
 21
-4.959066
 31
0.0
  0
LINE
  5
168
100
AcDbEntity
  8
2
370
    50
100
AcDbLine
 10
308.867406
 20
-6.459066
 30
0.0
 11
308.867406
 21
-29.459066
 31
0.0
  0
LINE
  5
169
100
AcDbEntity
  8
2
370
    50
100
AcDbLine
 10
282.367406
 20
9.019917
 30
0.0
 11
282.367406
 21
-14.93805
 31
0.0
  0
LINE
  5
16A
100
AcDbEntity
  8
2
370
    50
100
AcDbLine
 10
282.367406
 20
9.019917
 30
0.0
 11
284.135858
 21
10.040934
 31
0.0
  0
LINE
  5
16B
100
AcDbEntity
  8
2
370
    25
100
AcDbLine
 10
282.367406
 20
9.019917
 30
0.0
 11
280.867154
 21
9.019917
 31
0.0
  0
POINT
  5
16C
100
AcDbEntity
  8
2
370
    50
100
AcDbPoint
 10
-163.590566
 20
149.316539
 30
0.0
  0
LINE
  5
16D
100
AcDbEntity
  8
2
370
    50
100
AcDbLine
 10
-192.226332
 20
160.315539
 30
0.0
 11
-197.716276
 21
160.315539
 31
0.0
  0
POINT
  5
16E
100
AcDbEntity
  8
2
370
    50
100
AcDbPoint
 10
-163.59056
 20
149.315859
 30
0.0
  0
LINE
  5
16F
100
AcDbEntity
  8
2
370
    50
100
AcDbLine
 10
-227.090752
 20
109.316539
 30
0.0
 11
-227.090752
 21
159.815539
 31
0.0
  0
LINE
  5
170
100
AcDbEntity
  8
2
370
    50
100
AcDbLine
 10
-100.090381
 20
109.316539
 30
0.0
 11
-100.090381
 21
159.815539
 31
0.0
  0
ARC
  5
171
100
AcDbEntity
  8
2
370
    50
100
AcDbCircle
 10
-192.226332
 20
165.315539
 30
0.0
 40
5.0
100
AcDbArc
 50
270.0
 51
304.217569
  0
ARC
  5
172
100
AcDbEntity
  8
2
370
    50
100
AcDbCircle
 10
-134.954813
 20
165.315539
 30
0.0
 40
5.0
100
AcDbArc
 50
235.782632
 51
270.0
  0
LINE
  5
173
100
AcDbEntity
  8
2
370
    50
100
AcDbLine
 10
-129.464869
 20
160.315539
 30
0.0
 11
-129.464869
 21
159.815539
 31
0.0
  0
LINE
  5
174
100
AcDbEntity
  8
2
370
    50
100
AcDbLine
 10
-134.954813
 20
160.315539
 30
0.0
 11
-129.464869
 21
160.315539
 31
0.0
  0
LINE
  5
175
100
AcDbEntity
  8
2
370
    50
100
AcDbLine
 10
-227.090764
 20
159.815539
 30
0.0
 11
-197.716276
 21
159.815539
 31
0.0
  0
LINE
  5
176
100
AcDbEntity
  8
2
370
    50
100
AcDbLine
 10
-197.716276
 20
160.315539
 30
0.0
 11
-197.716276
 21
159.815539
 31
0.0
  0
ARC
  5
177
100
AcDbEntity
  8
2
370
    50
100
AcDbCircle
 10
-226.090752
 20
109.316539
 30
0.0
 40
1.0
100
AcDbArc
 50
180.0
 51
270.0
  0
ARC
  5
178
100
AcDbEntity
  8
2
370
    50
100
AcDbCircle
 10
-101.090381
 20
109.316539
 30
0.0
 40
1.0
100
AcDbArc
 50
270.0
 51
360.0
  0
LINE
  5
179
100
AcDbEntity
  8
2
370
    50
100
AcDbLine
 10
-190.090566
 20
155.519911
 30
0.0
 11
-190.090566
 21
130.293962
 31
0.0
  0
LINE
  5
17A
100
AcDbEntity
  8
2
370
    50
100
AcDbLine
 10
-137.090566
 20
155.519911
 30
0.0
 11
-137.090566
 21
133.21677
 31
0.0
  0
ARC
  5
17B
100
AcDbEntity
  8
2
370
    50
100
AcDbCircle
 10
-174.590566
 20
46.650322
 30
0.0
 40
18.0
100
AcDbArc
 50
180.0
 51
257.787475
  0
ARC
  5
17C
100
AcDbEntity
  8
2
370
    50
100
AcDbCircle
 10
-152.590566
 20
46.650322
 30
0.0
 40
18.0
100
AcDbArc
 50
282.212525
 51
360.0
  0
ARC
  5
17D
100
AcDbEntity
  8
2
370
    50
100
AcDbCircle
 10
-163.590566
 20
97.473545
 30
0.0
 40
50.0
100
AcDbArc
 50
255.571633
 51
284.428367
  0
ARC
  5
17E
100
AcDbEntity
  8
2
370
    25
100
AcDbCircle
 10
-163.590566
 20
97.473545
 30
0.0
 40
58.0
100
AcDbArc
 50
254.897285
 51
285.102715
  0
ARC
  5
17F
100
AcDbEntity
  8
2
370
    50
100
AcDbCircle
 10
-1688.000551
 20
163.906354
 30
0.0
 40
1500.0
100
AcDbArc
 50
355.516575
 51
359.460053
  0
ARC
  5
180
100
AcDbEntity
  8
2
370
    50
100
AcDbCircle
 10
1360.819418
 20
163.906354
 30
0.0
 40
1500.0
100
AcDbArc
 50
180.539947
 51
184.483425
  0
LINE
  5
181
100
AcDbEntity
  8
2
370
    50
100
AcDbLine
 10
-173.590566
 20
137.473545
 30
0.0
 11
-173.590566
 21
121.745238
 31
0.0
  0
LINE
  5
182
100
AcDbEntity
  8
2
370
    50
100
AcDbLine
 10
-153.590566
 20
137.473545
 30
0.0
 11
-153.590566
 21
121.745238
 31
0.0
  0
ARC
  5
183
100
AcDbEntity
  8
2
370
    50
100
AcDbCircle
 10
-163.590566
 20
137.473545
 30
0.0
 40
10.0
100
AcDbArc
 50
360.0
 51
180.0
  0
ARC
  5
184
100
AcDbEntity
  8
2
370
    50
100
AcDbCircle
 10
-1690.090566
 20
133.21677
 30
0.0
 40
1500.0
100
AcDbArc
 50
356.691567
 51
0.0
  0
ARC
  5
185
100
AcDbEntity
  8
2
370
    50
100
AcDbCircle
 10
1362.909434
 20
133.21677
 30
0.0
 40
1500.0
100
AcDbArc
 50
180.0
 51
183.308433
  0
ARC
  5
186
100
AcDbEntity
  8
2
370
    25
100
AcDbCircle
 10
-176.61808
 20
49.200531
 30
0.0
 40
8.0
100
AcDbArc
 50
175.660139
 51
254.897285
  0
ARC
  5
187
100
AcDbEntity
  8
2
370
    25
100
AcDbCircle
 10
-1688.271298
 20
163.919965
 30
0.0
 40
1508.0
100
AcDbArc
 50
355.660139
 51
358.573999
  0
ARC
  5
188
100
AcDbEntity
  8
2
370
    25
100
AcDbCircle
 10
1361.090165
 20
163.919965
 30
0.0
 40
1508.0
100
AcDbArc
 50
181.426001
 51
184.339861
  0
ARC
  5
189
100
AcDbEntity
  8
2
370
    25
100
AcDbCircle
 10
-150.563053
 20
49.200531
 30
0.0
 40
8.0
100
AcDbArc
 50
285.102715
 51
4.339861
  0
ARC
  5
18A
100
AcDbEntity
  8
2
370
    50
100
AcDbCircle
 10
-1688.271298
 20
163.919965
 30
0.0
 40
1510.0
100
AcDbArc
 50
355.953407
 51
358.252294
  0
ARC
  5
18B
100
AcDbEntity
  8
2
370
    50
100
AcDbCircle
 10
1361.090165
 20
163.919965
 30
0.0
 40
1510.0
100
AcDbArc
 50
181.747706
 51
184.046593
  0
ARC
  5
18C
100
AcDbEntity
  8
2
370
    50
100
AcDbCircle
 10
-174.055681
 20
56.798228
 30
0.0
 40
8.0
100
AcDbArc
 50
175.953407
 51
255.571633
  0
ARC
  5
18D
100
AcDbEntity
  8
2
370
    50
100
AcDbCircle
 10
-153.125452
 20
56.798228
 30
0.0
 40
8.0
100
AcDbArc
 50
284.428367
 51
4.046593
  0
ELLIPSE
  5
18E
100
AcDbEntity
  8
2
370
    50
100
AcDbEllipse
 10
-163.590566
 20
150.836259
 30
0.0
 11
-24.5
 21
0.0
 31
0.0
210
0.0
220
0.0
230
1.0
 40
0.995093
 41
3.0978750000000002
 42
0.043718
  0
ELLIPSE
  5
18F
100
AcDbEntity
  8
2
370
    50
100
AcDbEllipse
 10
-163.590566
 20
155.519911
 30
0.0
 11
-26.5
 21
0.0
 31
0.0
210
0.0
220
0.0
230
1.0
 40
0.951923
 41
3.1415929999999999
 42
0.0
  0
ARC
  5
190
100
AcDbEntity
  8
2
370
    50
100
AcDbCircle
 10
-163.590566
 20
97.473545
 30
0.0
 40
70.0
100
AcDbArc
 50
257.787475
 51
282.212525
  0
LINE
  5
191
100
AcDbEntity
  8
2
370
    50
100
AcDbLine
 10
-152.205541
 20
121.745238
 30
0.0
 11
-174.975591
 21
121.745238
 31
0.0
  0
ARC
  5
192
100
AcDbEntity
  8
2
370
    25
100
AcDbCircle
 10
-176.739565
 20
126.292562
 30
0.0
 40
4.0
100
AcDbArc
 50
106.609532
 51
178.573999
  0
ARC
  5
193
100
AcDbEntity
  8
2
370
    25
100
AcDbCircle
 10
-150.441568
 20
126.292562
 30
0.0
 40
4.0
100
AcDbArc
 50
1.426001
 51
73.390468
  0
ARC
  5
194
100
AcDbEntity
  8
2
370
    25
100
AcDbCircle
 10
-163.590566
 20
82.211911
 30
0.0
 40
50.0
100
AcDbArc
 50
73.390468
 51
78.463041
  0
ARC
  5
195
100
AcDbEntity
  8
2
370
    25
100
AcDbCircle
 10
-163.590566
 20
82.211911
 30
0.0
 40
50.0
100
AcDbArc
 50
101.536959
 51
106.609532
  0
ARC
  5
196
100
AcDbEntity
  8
2
370
    50
100
AcDbCircle
 10
-174.975591
 20
117.745238
 30
0.0
 40
4.0
100
AcDbArc
 50
90.0
 51
178.252294
  0
ARC
  5
197
100
AcDbEntity
  8
2
370
    50
100
AcDbCircle
 10
-152.205541
 20
117.745238
 30
0.0
 40
4.0
100
AcDbArc
 50
1.747706
 51
90.0
  0
LINE
  5
198
100
AcDbEntity
  8
2
370
    50
100
AcDbLine
 10
-163.59056
 20
108.316539
 30
0.0
 11
-147.885733
 21
108.316539
 31
0.0
  0
LINE
  5
199
100
AcDbEntity
  8
2
370
    50
100
AcDbLine
 10
-136.883878
 20
108.316539
 30
0.0
 11
-101.090381
 21
108.316539
 31
0.0
  0
LINE
  5
19A
100
AcDbEntity
  8
2
370
    50
100
AcDbLine
 10
-226.090752
 20
108.316539
 30
0.0
 11
-190.297255
 21
108.316539
 31
0.0
  0
LINE
  5
19B
100
AcDbEntity
  8
2
370
    50
100
AcDbLine
 10
-179.2954
 20
108.316539
 30
0.0
 11
-163.59056
 21
108.316539
 31
0.0
  0
LINE
  5
19C
100
AcDbEntity
  8
2
370
    50
100
AcDbLine
 10
-163.590566
 20
147.473545
 30
0.0
 11
-163.590566
 21
121.745238
 31
0.0
  0
POINT
  5
19D
100
AcDbEntity
  8
2
370
    50
100
AcDbPoint
 10
-283.798719
 20
23.109386
 30
0.0
  0
LINE
  5
19E
100
AcDbEntity
  8
2
370
    50
100
AcDbLine
 10
-190.351434
 20
105.242963
 30
0.0
 11
-244.200535
 21
51.393862
 31
0.0
  0
LINE
  5
19F
100
AcDbEntity
  8
2
370
    50
100
AcDbLine
 10
-209.905275
 20
108.316539
 30
0.0
 11
-255.514244
 21
62.70757
 31
0.0
  0
LINE
  5
1A0
100
AcDbEntity
  8
2
370
    50
100
AcDbLine
 10
-292.814127
 20
32.125202
 30
0.0
 11
-261.701428
 21
63.2379
 31
0.0
  0
LINE
  5
1A1
100
AcDbEntity
  8
2
370
    50
100
AcDbLine
 10
-274.782904
 20
14.093979
 30
0.0
 11
-243.670205
 21
45.206677
 31
0.0
  0
LINE
  5
1A2
100
AcDbEntity
  8
2
370
    50
100
AcDbLine
 10
-258.165894
 20
65.359221
 30
0.0
 11
-241.548885
 21
48.742211
 31
0.0
  0
ARC
  5
1A3
100
AcDbEntity
  8
2
370
    50
100
AcDbCircle
 10
-281.677195
 20
25.230911
 30
0.0
 40
15.0
100
AcDbArc
 50
171.686015
 51
278.313985
  0
ARC
  5
1A4
100
AcDbEntity
  8
2
370
    50
100
AcDbCircle
 10
-275.136457
 20
14.447532
 30
0.0
 40
25.0
100
AcDbArc
 50
135.0
 51
148.795528
  0
ARC
  5
1A5
100
AcDbEntity
  8
2
370
    50
100
AcDbCircle
 10
-292.460573
 20
31.771649
 30
0.0
 40
25.0
100
AcDbArc
 50
301.204472
 51
315.0
  0
LINE
  5
1A6
100
AcDbEntity
  8
2
370
    25
100
AcDbLine
 10
-295.005621
 20
28.873047
 30
0.0
 11
-261.171098
 21
62.70757
 31
0.0
  0
LINE
  5
1A7
100
AcDbEntity
  8
2
370
    25
100
AcDbLine
 10
-277.915976
 20
12.021567
 30
0.0
 11
-244.200535
 21
45.737008
 31
0.0
  0
ARC
  5
1A8
100
AcDbEntity
  8
2
370
    50
100
AcDbCircle
 10
-255.691021
 20
57.227493
 30
0.0
 40
8.5
100
AcDbArc
 50
106.927513
 51
135.0
  0
ARC
  5
1A9
100
AcDbEntity
  8
2
370
    50
100
AcDbCircle
 10
-249.680613
 20
51.217085
 30
0.0
 40
8.5
100
AcDbArc
 50
315.0
 51
343.072487
  0
LINE
  5
1AA
100
AcDbEntity
  8
2
370
    50
100
AcDbLine
 10
-203.090569
 20
159.815539
 30
0.0
 11
-203.090569
 21
161.815539
 31
0.0
  0
LINE
  5
1AB
100
AcDbEntity
  8
2
370
    50
100
AcDbLine
 10
-224.090569
 20
159.815539
 30
0.0
 11
-224.090569
 21
161.815539
 31
0.0
  0
LINE
  5
1AC
100
AcDbEntity
  8
2
370
    50
100
AcDbLine
 10
-199.062938
 20
174.315539
 30
0.0
 11
-228.117878
 21
174.315539
 31
0.0
  0
ARC
  5
1AD
100
AcDbEntity
  8
2
370
    50
100
AcDbCircle
 10
-215.590408
 20
168.065539
 30
0.0
 40
14.0
100
AcDbArc
 50
153.485225
 51
206.514775
  0
ARC
  5
1AE
100
AcDbEntity
  8
2
370
    50
100
AcDbCircle
 10
-211.590408
 20
168.065539
 30
0.0
 40
14.0
100
AcDbArc
 50
333.485225
 51
26.514775
  0
ELLIPSE
  5
1AF
100
AcDbEntity
  8
2
370
    50
100
AcDbEllipse
 10
-213.590408
 20
168.065539
 30
0.0
 11
-5.5679999999999996
 21
0.0
 31
0.0
210
0.0
220
0.0
230
1.0
 40
0.76329
 41
0.0
 42
6.2831849999999996
  0
ELLIPSE
  5
1B0
100
AcDbEntity
  8
2
370
    50
100
AcDbEllipse
 10
-226.580789
 20
168.065539
 30
0.0
 11
0.0
 21
-4.25
 31
0.0
210
0.0
220
0.0
230
1.0
 40
0.655059
 41
0.0
 42
6.2831849999999996
  0
LINE
  5
1B1
100
AcDbEntity
  8
2
370
    50
100
AcDbLine
 10
-199.062938
 20
161.815539
 30
0.0
 11
-228.117878
 21
161.815539
 31
0.0
  0
ELLIPSE
  5
1B2
100
AcDbEntity
  8
2
370
    50
100
AcDbEllipse
 10
-200.600027
 20
168.065539
 30
0.0
 11
0.0
 21
4.25
 31
0.0
210
0.0
220
0.0
230
1.0
 40
0.655059
 41
0.0
 42
6.2831849999999996
  0
LINE
  5
1B3
100
AcDbEntity
  8
2
370
    25
100
AcDbLine
 10
-225.56938
 20
175.815791
 30
0.0
 11
-225.56938
 21
174.315539
 31
0.0
  0
LINE
  5
1B4
100
AcDbEntity
  8
2
370
    25
100
AcDbLine
 10
-201.61138
 20
175.815791
 30
0.0
 11
-201.61138
 21
174.315539
 31
0.0
  0
LINE
  5
1B5
100
AcDbEntity
  8
2
370
    50
100
AcDbLine
 10
-225.56938
 20
175.815791
 30
0.0
 11
-226.590396
 21
177.584243
 31
0.0
  0
LINE
  5
1B6
100
AcDbEntity
  8
2
370
    50
100
AcDbLine
 10
-201.61138
 20
175.815791
 30
0.0
 11
-200.590396
 21
177.584186
 31
0.0
  0
LINE
  5
1B7
100
AcDbEntity
  8
2
370
    50
100
AcDbLine
 10
-226.590396
 20
183.815791
 30
0.0
 11
-226.590396
 21
174.315539
 31
0.0
  0
LINE
  5
1B8
100
AcDbEntity
  8
2
370
    50
100
AcDbLine
 10
-242.090396
 20
183.815791
 30
0.0
 11
-200.090396
 21
183.815791
 31
0.0
  0
LINE
  5
1B9
100
AcDbEntity
  8
2
370
    50
100
AcDbLine
 10
-242.090396
 20
199.815791
 30
0.0
 11
-200.090396
 21
199.815791
 31
0.0
  0
LINE
  5
1BA
100
AcDbEntity
  8
2
370
    50
100
AcDbLine
 10
-242.590396
 20
199.315791
 30
0.0
 11
-242.590396
 21
184.315791
 31
0.0
  0
LINE
  5
1BB
100
AcDbEntity
  8
2
370
    50
100
AcDbLine
 10
-199.590396
 20
184.315791
 30
0.0
 11
-199.590396
 21
199.315791
 31
0.0
  0
LINE
  5
1BC
100
AcDbEntity
  8
2
370
    50
100
AcDbLine
 10
-200.590396
 20
174.315539
 30
0.0
 11
-200.590396
 21
183.815791
 31
0.0
  0
LINE
  5
1BD
100
AcDbEntity
  8
2
370
    50
100
AcDbLine
 10
-242.090396
 20
199.815791
 30
0.0
 11
-242.590396
 21
199.315791
 31
0.0
  0
LINE
  5
1BE
100
AcDbEntity
  8
2
370
    50
100
AcDbLine
 10
-242.590396
 20
184.315791
 30
0.0
 11
-242.090396
 21
183.815791
 31
0.0
  0
LINE
  5
1BF
100
AcDbEntity
  8
2
370
    50
100
AcDbLine
 10
-200.090396
 20
183.815791
 30
0.0
 11
-199.590396
 21
184.315791
 31
0.0
  0
LINE
  5
1C0
100
AcDbEntity
  8
2
370
    50
100
AcDbLine
 10
-199.590396
 20
199.315791
 30
0.0
 11
-200.090396
 21
199.815791
 31
0.0
  0
LINE
  5
1C1
100
AcDbEntity
  8
2
370
    50
100
AcDbLine
 10
-240.090396
 20
202.315791
 30
0.0
 11
-240.090396
 21
199.815791
 31
0.0
  0
LINE
  5
1C2
100
AcDbEntity
  8
2
370
    50
100
AcDbLine
 10
-217.090396
 20
202.315791
 30
0.0
 11
-217.090396
 21
199.815791
 31
0.0
  0
LINE
  5
1C3
100
AcDbEntity
  8
2
370
    50
100
AcDbLine
 10
-239.590396
 20
202.815791
 30
0.0
 11
-240.090396
 21
202.315791
 31
0.0
  0
LINE
  5
1C4
100
AcDbEntity
  8
2
370
    50
100
AcDbLine
 10
-217.590396
 20
202.815791
 30
0.0
 11
-217.090396
 21
202.315791
 31
0.0
  0
LINE
  5
1C5
100
AcDbEntity
  8
2
370
    50
100
AcDbLine
 10
-215.590396
 20
203.836807
 30
0.0
 11
-215.590396
 21
209.815791
 31
0.0
  0
LINE
  5
1C6
100
AcDbEntity
  8
2
370
    25
100
AcDbLine
 10
-216.61138
 20
202.815791
 30
0.0
 11
-216.61138
 21
210.815791
 31
0.0
  0
LINE
  5
1C7
100
AcDbEntity
  8
2
370
    50
100
AcDbLine
 10
-240.590396
 20
210.815791
 30
0.0
 11
-216.590396
 21
210.815791
 31
0.0
  0
LINE
  5
1C8
100
AcDbEntity
  8
2
370
    25
100
AcDbLine
 10
-240.56938
 20
202.815791
 30
0.0
 11
-240.56938
 21
210.815791
 31
0.0
  0
LINE
  5
1C9
100
AcDbEntity
  8
2
370
    50
100
AcDbLine
 10
-241.590396
 20
209.815791
 30
0.0
 11
-241.590396
 21
203.836807
 31
0.0
  0
LINE
  5
1CA
100
AcDbEntity
  8
2
370
    50
100
AcDbLine
 10
-215.590396
 20
209.815791
 30
0.0
 11
-216.590396
 21
210.815791
 31
0.0
  0
LINE
  5
1CB
100
AcDbEntity
  8
2
370
    50
100
AcDbLine
 10
-241.590396
 20
209.815791
 30
0.0
 11
-240.590396
 21
210.815791
 31
0.0
  0
LINE
  5
1CC
100
AcDbEntity
  8
2
370
    50
100
AcDbLine
 10
-240.56938
 20
202.815791
 30
0.0
 11
-241.590396
 21
203.836807
 31
0.0
  0
LINE
  5
1CD
100
AcDbEntity
  8
2
370
    50
100
AcDbLine
 10
-216.611412
 20
202.815791
 30
0.0
 11
-215.590396
 21
203.836807
 31
0.0
  0
LINE
  5
1CE
100
AcDbEntity
  8
2
370
    50
100
AcDbLine
 10
-216.61138
 20
202.815791
 30
0.0
 11
-240.56938
 21
202.815791
 31
0.0
  0
LINE
  5
1CF
100
AcDbEntity
  8
2
370
    50
100
AcDbLine
 10
-215.590396
 20
209.815791
 30
0.0
 11
-241.590396
 21
209.815791
 31
0.0
  0
LINE
  5
1D0
100
AcDbEntity
  8
2
370
    50
100
AcDbLine
 10
-241.590396
 20
203.836807
 30
0.0
 11
-215.590396
 21
203.836807
 31
0.0
  0
LINE
  5
1D1
100
AcDbEntity
  8
2
370
    50
100
AcDbLine
 10
-217.090396
 20
202.315791
 30
0.0
 11
-240.090396
 21
202.315791
 31
0.0
  0
LINE
  5
1D2
100
AcDbEntity
  8
2
370
    50
100
AcDbLine
 10
-302.132039
 20
196.315791
 30
0.0
 11
-285.132039
 21
196.315791
 31
0.0
  0
LINE
  5
1D3
100
AcDbEntity
  8
2
370
    50
100
AcDbLine
 10
-302.132039
 20
196.315791
 30
0.0
 11
-302.632039
 21
196.815791
 31
0.0
  0
LINE
  5
1D4
100
AcDbEntity
  8
2
370
    50
100
AcDbLine
 10
-302.632039
 20
196.815791
 30
0.0
 11
-302.632039
 21
199.815791
 31
0.0
  0
LINE
  5
1D5
100
AcDbEntity
  8
2
370
    50
100
AcDbLine
 10
-284.632039
 20
196.815791
 30
0.0
 11
-284.632039
 21
199.815791
 31
0.0
  0
LINE
  5
1D6
100
AcDbEntity
  8
2
370
    50
100
AcDbLine
 10
-285.132039
 20
196.315791
 30
0.0
 11
-284.632039
 21
196.815791
 31
0.0
  0
LINE
  5
1D7
100
AcDbEntity
  8
2
370
    50
100
AcDbLine
 10
-280.332039
 20
202.815791
 30
0.0
 11
-306.932039
 21
202.815791
 31
0.0
  0
LINE
  5
1D8
100
AcDbEntity
  8
2
370
    25
100
AcDbLine
 10
-302.132039
 20
196.315791
 30
0.0
 11
-302.132039
 21
200.315791
 31
0.0
  0
LINE
  5
1D9
100
AcDbEntity
  8
2
370
    25
100
AcDbLine
 10
-285.132039
 20
196.315791
 30
0.0
 11
-285.132039
 21
200.315791
 31
0.0
  0
LINE
  5
1DA
100
AcDbEntity
  8
2
370
    50
100
AcDbLine
 10
-302.132039
 20
200.315791
 30
0.0
 11
-302.632039
 21
199.815791
 31
0.0
  0
LINE
  5
1DB
100
AcDbEntity
  8
2
370
    50
100
AcDbLine
 10
-285.132039
 20
200.315791
 30
0.0
 11
-284.632039
 21
199.815791
 31
0.0
  0
LINE
  5
1DC
100
AcDbEntity
  8
2
370
    50
100
AcDbLine
 10
-285.132039
 20
200.315791
 30
0.0
 11
-293.632039
 21
200.315791
 31
0.0
  0
LINE
  5
1DD
100
AcDbEntity
  8
2
370
    50
100
AcDbLine
 10
-293.632039
 20
200.315791
 30
0.0
 11
-302.132039
 21
200.315791
 31
0.0
  0
LINE
  5
1DE
100
AcDbEntity
  8
2
370
    50
100
AcDbLine
 10
-302.632039
 20
199.815791
 30
0.0
 11
-284.632039
 21
199.815791
 31
0.0
  0
LINE
  5
1DF
100
AcDbEntity
  8
2
370
    50
100
AcDbLine
 10
-302.632039
 20
196.815791
 30
0.0
 11
-284.632039
 21
196.815791
 31
0.0
  0
LINE
  5
1E0
100
AcDbEntity
  8
2
370
    50
100
AcDbLine
 10
-307.632039
 20
203.515791
 30
0.0
 11
-307.632039
 21
210.115791
 31
0.0
  0
LINE
  5
1E1
100
AcDbEntity
  8
2
370
    25
100
AcDbLine
 10
-306.932039
 20
202.815791
 30
0.0
 11
-306.932039
 21
210.815791
 31
0.0
  0
LINE
  5
1E2
100
AcDbEntity
  8
2
370
    50
100
AcDbLine
 10
-306.932039
 20
202.815791
 30
0.0
 11
-307.632039
 21
203.515791
 31
0.0
  0
LINE
  5
1E3
100
AcDbEntity
  8
2
370
    50
100
AcDbLine
 10
-306.932039
 20
210.815791
 30
0.0
 11
-307.632039
 21
210.115791
 31
0.0
  0
LINE
  5
1E4
100
AcDbEntity
  8
2
370
    50
100
AcDbLine
 10
-307.632039
 20
210.115791
 30
0.0
 11
-279.632039
 21
210.115791
 31
0.0
  0
LINE
  5
1E5
100
AcDbEntity
  8
2
370
    50
100
AcDbLine
 10
-307.632039
 20
203.515791
 30
0.0
 11
-279.632039
 21
203.515791
 31
0.0
  0
LINE
  5
1E6
100
AcDbEntity
  8
2
370
    50
100
AcDbLine
 10
-279.632039
 20
203.515791
 30
0.0
 11
-279.632039
 21
210.115791
 31
0.0
  0
LINE
  5
1E7
100
AcDbEntity
  8
2
370
    25
100
AcDbLine
 10
-280.332039
 20
202.815791
 30
0.0
 11
-280.332039
 21
210.815791
 31
0.0
  0
LINE
  5
1E8
100
AcDbEntity
  8
2
370
    50
100
AcDbLine
 10
-280.332039
 20
210.815791
 30
0.0
 11
-279.632039
 21
210.115791
 31
0.0
  0
LINE
  5
1E9
100
AcDbEntity
  8
2
370
    50
100
AcDbLine
 10
-280.332039
 20
202.815791
 30
0.0
 11
-279.632039
 21
203.515791
 31
0.0
  0
LINE
  5
1EA
100
AcDbEntity
  8
2
370
    50
100
AcDbLine
 10
-284.632039
 20
202.515791
 30
0.0
 11
-302.632039
 21
202.515791
 31
0.0
  0
LINE
  5
1EB
100
AcDbEntity
  8
2
370
    50
100
AcDbLine
 10
-284.632039
 20
200.615791
 30
0.0
 11
-302.632039
 21
200.615791
 31
0.0
  0
ARC
  5
1EC
100
AcDbEntity
  8
2
370
    50
100
AcDbCircle
 10
-302.632039
 20
201.565791
 30
0.0
 40
0.95
100
AcDbArc
 50
90.0
 51
270.0
  0
LINE
  5
1ED
100
AcDbEntity
  8
2
370
    50
100
AcDbLine
 10
-301.682039
 20
200.315791
 30
0.0
 11
-301.682039
 21
200.615791
 31
0.0
  0
LINE
  5
1EE
100
AcDbEntity
  8
2
370
    50
100
AcDbLine
 10
-301.682039
 20
202.515791
 30
0.0
 11
-301.682039
 21
202.815791
 31
0.0
  0
ARC
  5
1EF
100
AcDbEntity
  8
2
370
    50
100
AcDbCircle
 10
-284.632039
 20
201.565791
 30
0.0
 40
0.95
100
AcDbArc
 50
270.0
 51
90.0
  0
LINE
  5
1F0
100
AcDbEntity
  8
2
370
    50
100
AcDbLine
 10
-285.582039
 20
200.315791
 30
0.0
 11
-285.582039
 21
200.615791
 31
0.0
  0
LINE
  5
1F1
100
AcDbEntity
  8
2
370
    50
100
AcDbLine
 10
-285.582039
 20
202.515791
 30
0.0
 11
-285.582039
 21
202.815791
 31
0.0
  0
LINE
  5
1F2
100
AcDbEntity
  8
2
370
    25
100
AcDbLine
 10
-295.532039
 20
200.615791
 30
0.0
 11
-293.632039
 21
202.515791
 31
0.0
  0
LINE
  5
1F3
100
AcDbEntity
  8
2
370
    25
100
AcDbLine
 10
-294.117826
 20
200.615791
 30
0.0
 11
-292.217826
 21
202.515791
 31
0.0
  0
LINE
  5
1F4
100
AcDbEntity
  8
2
370
    25
100
AcDbLine
 10
-292.703612
 20
200.615791
 30
0.0
 11
-290.803612
 21
202.515791
 31
0.0
  0
LINE
  5
1F5
100
AcDbEntity
  8
2
370
    25
100
AcDbLine
 10
-291.289398
 20
200.615791
 30
0.0
 11
-289.389398
 21
202.515791
 31
0.0
  0
LINE
  5
1F6
100
AcDbEntity
  8
2
370
    25
100
AcDbLine
 10
-289.875185
 20
200.615791
 30
0.0
 11
-287.975185
 21
202.515791
 31
0.0
  0
LINE
  5
1F7
100
AcDbEntity
  8
2
370
    25
100
AcDbLine
 10
-288.460971
 20
200.615791
 30
0.0
 11
-286.560971
 21
202.515791
 31
0.0
  0
LINE
  5
1F8
100
AcDbEntity
  8
2
370
    25
100
AcDbLine
 10
-287.046758
 20
200.615791
 30
0.0
 11
-285.146758
 21
202.515791
 31
0.0
  0
LINE
  5
1F9
100
AcDbEntity
  8
2
370
    25
100
AcDbLine
 10
-285.632544
 20
200.615791
 30
0.0
 11
-283.986015
 21
202.26232
 31
0.0
  0
LINE
  5
1FA
100
AcDbEntity
  8
2
370
    25
100
AcDbLine
 10
-296.946253
 20
200.615791
 30
0.0
 11
-295.046253
 21
202.515791
 31
0.0
  0
LINE
  5
1FB
100
AcDbEntity
  8
2
370
    25
100
AcDbLine
 10
-298.360466
 20
200.615791
 30
0.0
 11
-296.460466
 21
202.515791
 31
0.0
  0
LINE
  5
1FC
100
AcDbEntity
  8
2
370
    25
100
AcDbLine
 10
-299.77468
 20
200.615791
 30
0.0
 11
-297.87468
 21
202.515791
 31
0.0
  0
LINE
  5
1FD
100
AcDbEntity
  8
2
370
    25
100
AcDbLine
 10
-301.188893
 20
200.615791
 30
0.0
 11
-299.288893
 21
202.515791
 31
0.0
  0
LINE
  5
1FE
100
AcDbEntity
  8
2
370
    25
100
AcDbLine
 10
-302.603107
 20
200.615791
 30
0.0
 11
-300.703107
 21
202.515791
 31
0.0
  0
LINE
  5
1FF
100
AcDbEntity
  8
2
370
    25
100
AcDbLine
 10
-303.485197
 20
201.147914
 30
0.0
 11
-302.11732
 21
202.515791
 31
0.0
  0
LINE
  5
200
100
AcDbEntity
  8
2
370
    50
100
AcDbLine
 10
-250.611217
 20
203.565791
 30
0.0
 11
-255.611217
 21
208.565791
 31
0.0
  0
LINE
  5
201
100
AcDbEntity
  8
2
370
    50
100
AcDbLine
 10
-250.611217
 20
203.565791
 30
0.0
 11
-255.611217
 21
198.565791
 31
0.0
  0
LINE
  5
202
100
AcDbEntity
  8
2
370
    50
100
AcDbLine
 10
-270.611217
 20
203.565791
 30
0.0
 11
-265.611217
 21
208.565791
 31
0.0
  0
LINE
  5
203
100
AcDbEntity
  8
2
370
    50
100
AcDbLine
 10
-270.611217
 20
203.565791
 30
0.0
 11
-265.611217
 21
198.565791
 31
0.0
  0
LINE
  5
204
100
AcDbEntity
  8
2
370
    50
100
AcDbLine
 10
-265.611217
 20
198.565791
 30
0.0
 11
-265.611217
 21
200.565791
 31
0.0
  0
LINE
  5
205
100
AcDbEntity
  8
2
370
    50
100
AcDbLine
 10
-265.611217
 20
206.565791
 30
0.0
 11
-265.611217
 21
208.565791
 31
0.0
  0
LINE
  5
206
100
AcDbEntity
  8
2
370
    50
100
AcDbLine
 10
-255.611217
 20
198.565791
 30
0.0
 11
-255.611217
 21
200.565791
 31
0.0
  0
LINE
  5
207
100
AcDbEntity
  8
2
370
    50
100
AcDbLine
 10
-255.611217
 20
206.565791
 30
0.0
 11
-255.611217
 21
208.565791
 31
0.0
  0
LINE
  5
208
100
AcDbEntity
  8
2
370
    50
100
AcDbLine
 10
-255.611217
 20
200.565791
 30
0.0
 11
-265.611217
 21
200.565791
 31
0.0
  0
LINE
  5
209
100
AcDbEntity
  8
2
370
    50
100
AcDbLine
 10
-255.611217
 20
206.565791
 30
0.0
 11
-265.611217
 21
206.565791
 31
0.0
  0
LINE
  5
20A
100
AcDbEntity
  8
2
370
    50
100
AcDbLine
 10
-201.61138
 20
175.815791
 30
0.0
 11
-225.56938
 21
175.815791
 31
0.0
  0
LINE
  5
20B
100
AcDbEntity
  8
2
370
    50
100
AcDbLine
 10
-306.63178
 20
212.315791
 30
0.0
 11
-306.63178
 21
210.815791
 31
0.0
  0
LINE
  5
20C
100
AcDbEntity
  8
2
370
    50
100
AcDbLine
 10
-280.63178
 20
212.315791
 30
0.0
 11
-280.63178
 21
210.815791
 31
0.0
  0
LINE
  5
20D
100
AcDbEntity
  8
2
370
    50
100
AcDbLine
 10
-306.632039
 20
212.315791
 30
0.0
 11
-280.63178
 21
212.315791
 31
0.0
  0
LINE
  5
20E
100
AcDbEntity
  8
2
370
    50
100
AcDbLine
 10
-306.932039
 20
210.815791
 30
0.0
 11
-280.332039
 21
210.815791
 31
0.0
  0
HATCH
  5
20F
100
AcDbEntity
  8
2
370
    25
100
AcDbHatch
 10
0.0
 20
0.0
 30
0.0
210
0.0
220
0.0
230
1.0
  2
_U
 70
     0
 71
     1
 91
        1
 92
        1
 93
        4
 72
     1
 10
-306.63177999999999
 20
212.31579099999999
 11
-280.63177999999999
 21
212.31579099999999
 72
     1
 10
-280.63177999999999
 20
212.31579099999999
 11
-280.63177999999999
 21
210.81579099999999
 72
     1
 10
-280.63177999999999
 20
210.81579099999999
 11
-306.63177999999999
 21
210.81579099999999
 72
     1
 10
-306.63177999999999
 20
210.81579099999999
 11
-306.63177999999999
 21
212.31579099999999
 97
        4
330
0
330
0
330
0
330
0
 75
     0
 76
     0
 52
45.0
 41
1.0
 77
     0
 78
     1
 53
45.0
 43
0.0
 44
0.0
 45
-0.707107
 46
0.707107
 79
     0
 98
        1
 10
0.0
 20
0.0
  0
LINE
  5
210
100
AcDbEntity
  8
2
370
    50
100
AcDbLine
 10
-216.590137
 20
210.815791
 30
0.0
 11
-240.590137
 21
210.815791
 31
0.0
  0
LINE
  5
211
100
AcDbEntity
  8
2
370
    50
100
AcDbLine
 10
-240.590137
 20
213.815791
 30
0.0
 11
-240.590137
 21
210.815791
 31
0.0
  0
LINE
  5
212
100
AcDbEntity
  8
2
370
    50
100
AcDbLine
 10
-216.590137
 20
213.815791
 30
0.0
 11
-216.590137
 21
210.815791
 31
0.0
  0
LINE
  5
213
100
AcDbEntity
  8
2
370
    50
100
AcDbLine
 10
-240.590396
 20
213.815791
 30
0.0
 11
-216.590137
 21
213.815791
 31
0.0
  0
HATCH
  5
214
100
AcDbEntity
  8
2
370
    25
100
AcDbHatch
 10
0.0
 20
0.0
 30
0.0
210
0.0
220
0.0
230
1.0
  2
_U
 70
     0
 71
     1
 91
        1
 92
        1
 93
        4
 72
     1
 10
-216.590137
 20
213.81579099999999
 11
-240.590396
 21
213.81579099999999
 72
     1
 10
-240.590396
 20
213.81579099999999
 11
-240.590137
 21
210.81579099999999
 72
     1
 10
-240.590137
 20
210.81579099999999
 11
-216.590396
 21
210.81579099999999
 72
     1
 10
-216.590396
 20
210.81579099999999
 11
-216.590137
 21
213.81579099999999
 97
        4
330
0
330
0
330
0
330
0
 75
     0
 76
     0
 52
45.0
 41
1.0
 77
     0
 78
     1
 53
45.0
 43
0.0
 44
0.0
 45
-0.707107
 46
0.707107
 79
     0
 98
        1
 10
0.0
 20
0.0
  0
LINE
  5
215
100
AcDbEntity
  8
2
370
    50
100
AcDbLine
 10
-100.090369
 20
159.815539
 30
0.0
 11
-129.464857
 21
159.815539
 31
0.0
  0
LINE
  5
216
100
AcDbEntity
  8
2
370
    50
100
AcDbLine
 10
-124.090563
 20
159.815539
 30
0.0
 11
-124.090563
 21
161.815539
 31
0.0
  0
LINE
  5
217
100
AcDbEntity
  8
2
370
    50
100
AcDbLine
 10
-103.090563
 20
159.815539
 30
0.0
 11
-103.090563
 21
161.815539
 31
0.0
  0
LINE
  5
218
100
AcDbEntity
  8
2
370
    50
100
AcDbLine
 10
-128.118195
 20
174.315539
 30
0.0
 11
-99.063255
 21
174.315539
 31
0.0
  0
ARC
  5
219
100
AcDbEntity
  8
2
370
    50
100
AcDbCircle
 10
-111.590725
 20
168.065539
 30
0.0
 40
14.0
100
AcDbArc
 50
333.485225
 51
26.514775
  0
ARC
  5
21A
100
AcDbEntity
  8
2
370
    50
100
AcDbCircle
 10
-115.590725
 20
168.065539
 30
0.0
 40
14.0
100
AcDbArc
 50
153.485225
 51
206.514775
  0
ELLIPSE
  5
21B
100
AcDbEntity
  8
2
370
    50
100
AcDbEllipse
 10
-113.590725
 20
168.065539
 30
0.0
 11
5.5679999999999996
 21
0.0
 31
0.0
210
0.0
220
0.0
230
1.0
 40
0.76329
 41
0.0
 42
6.2831849999999996
  0
ELLIPSE
  5
21C
100
AcDbEntity
  8
2
370
    50
100
AcDbEllipse
 10
-100.600344
 20
168.065539
 30
0.0
 11
0.0
 21
4.25
 31
0.0
210
0.0
220
0.0
230
1.0
 40
0.655059
 41
0.0
 42
6.2831849999999996
  0
LINE
  5
21D
100
AcDbEntity
  8
2
370
    50
100
AcDbLine
 10
-128.118195
 20
161.815539
 30
0.0
 11
-99.063255
 21
161.815539
 31
0.0
  0
ELLIPSE
  5
21E
100
AcDbEntity
  8
2
370
    50
100
AcDbEllipse
 10
-126.581106
 20
168.065539
 30
0.0
 11
0.0
 21
-4.25
 31
0.0
210
0.0
220
0.0
230
1.0
 40
0.655059
 41
0.0
 42
6.2831849999999996
  0
LINE
  5
21F
100
AcDbEntity
  8
2
370
    25
100
AcDbLine
 10
-101.611753
 20
175.815791
 30
0.0
 11
-101.611753
 21
174.315539
 31
0.0
  0
LINE
  5
220
100
AcDbEntity
  8
2
370
    25
100
AcDbLine
 10
-125.569753
 20
175.815791
 30
0.0
 11
-125.569753
 21
174.315539
 31
0.0
  0
LINE
  5
221
100
AcDbEntity
  8
2
370
    50
100
AcDbLine
 10
-101.611753
 20
175.815791
 30
0.0
 11
-100.590737
 21
177.584243
 31
0.0
  0
LINE
  5
222
100
AcDbEntity
  8
2
370
    50
100
AcDbLine
 10
-125.569753
 20
175.815791
 30
0.0
 11
-126.590737
 21
177.584186
 31
0.0
  0
LINE
  5
223
100
AcDbEntity
  8
2
370
    50
100
AcDbLine
 10
-100.590737
 20
183.815791
 30
0.0
 11
-100.590737
 21
174.315539
 31
0.0
  0
LINE
  5
224
100
AcDbEntity
  8
2
370
    50
100
AcDbLine
 10
-85.090737
 20
183.815791
 30
0.0
 11
-127.090737
 21
183.815791
 31
0.0
  0
LINE
  5
225
100
AcDbEntity
  8
2
370
    50
100
AcDbLine
 10
-85.090737
 20
199.815791
 30
0.0
 11
-127.090737
 21
199.815791
 31
0.0
  0
LINE
  5
226
100
AcDbEntity
  8
2
370
    50
100
AcDbLine
 10
-84.590737
 20
199.315791
 30
0.0
 11
-84.590737
 21
184.315791
 31
0.0
  0
LINE
  5
227
100
AcDbEntity
  8
2
370
    50
100
AcDbLine
 10
-127.590737
 20
184.315791
 30
0.0
 11
-127.590737
 21
199.315791
 31
0.0
  0
LINE
  5
228
100
AcDbEntity
  8
2
370
    50
100
AcDbLine
 10
-126.590737
 20
174.315539
 30
0.0
 11
-126.590737
 21
183.815791
 31
0.0
  0
LINE
  5
229
100
AcDbEntity
  8
2
370
    50
100
AcDbLine
 10
-85.090737
 20
199.815791
 30
0.0
 11
-84.590737
 21
199.315791
 31
0.0
  0
LINE
  5
22A
100
AcDbEntity
  8
2
370
    50
100
AcDbLine
 10
-84.590737
 20
184.315791
 30
0.0
 11
-85.090737
 21
183.815791
 31
0.0
  0
LINE
  5
22B
100
AcDbEntity
  8
2
370
    50
100
AcDbLine
 10
-127.090737
 20
183.815791
 30
0.0
 11
-127.590737
 21
184.315791
 31
0.0
  0
LINE
  5
22C
100
AcDbEntity
  8
2
370
    50
100
AcDbLine
 10
-127.590737
 20
199.315791
 30
0.0
 11
-127.090737
 21
199.815791
 31
0.0
  0
LINE
  5
22D
100
AcDbEntity
  8
2
370
    50
100
AcDbLine
 10
-87.090737
 20
202.315791
 30
0.0
 11
-87.090737
 21
199.815791
 31
0.0
  0
LINE
  5
22E
100
AcDbEntity
  8
2
370
    50
100
AcDbLine
 10
-110.090737
 20
202.315791
 30
0.0
 11
-110.090737
 21
199.815791
 31
0.0
  0
LINE
  5
22F
100
AcDbEntity
  8
2
370
    50
100
AcDbLine
 10
-87.590737
 20
202.815791
 30
0.0
 11
-87.090737
 21
202.315791
 31
0.0
  0
LINE
  5
230
100
AcDbEntity
  8
2
370
    50
100
AcDbLine
 10
-109.590737
 20
202.815791
 30
0.0
 11
-110.090737
 21
202.315791
 31
0.0
  0
LINE
  5
231
100
AcDbEntity
  8
2
370
    50
100
AcDbLine
 10
-111.590737
 20
203.836807
 30
0.0
 11
-111.590737
 21
209.815791
 31
0.0
  0
LINE
  5
232
100
AcDbEntity
  8
2
370
    25
100
AcDbLine
 10
-110.569753
 20
202.815791
 30
0.0
 11
-110.569753
 21
210.815791
 31
0.0
  0
LINE
  5
233
100
AcDbEntity
  8
2
370
    50
100
AcDbLine
 10
-86.590737
 20
210.815791
 30
0.0
 11
-110.590737
 21
210.815791
 31
0.0
  0
LINE
  5
234
100
AcDbEntity
  8
2
370
    25
100
AcDbLine
 10
-86.611753
 20
202.815791
 30
0.0
 11
-86.611753
 21
210.815791
 31
0.0
  0
LINE
  5
235
100
AcDbEntity
  8
2
370
    50
100
AcDbLine
 10
-85.590737
 20
209.815791
 30
0.0
 11
-85.590737
 21
203.836807
 31
0.0
  0
LINE
  5
236
100
AcDbEntity
  8
2
370
    50
100
AcDbLine
 10
-111.590737
 20
209.815791
 30
0.0
 11
-110.590737
 21
210.815791
 31
0.0
  0
LINE
  5
237
100
AcDbEntity
  8
2
370
    50
100
AcDbLine
 10
-85.590737
 20
209.815791
 30
0.0
 11
-86.590737
 21
210.815791
 31
0.0
  0
LINE
  5
238
100
AcDbEntity
  8
2
370
    50
100
AcDbLine
 10
-86.611753
 20
202.815791
 30
0.0
 11
-85.590737
 21
203.836807
 31
0.0
  0
LINE
  5
239
100
AcDbEntity
  8
2
370
    50
100
AcDbLine
 10
-110.569721
 20
202.815791
 30
0.0
 11
-111.590737
 21
203.836807
 31
0.0
  0
LINE
  5
23A
100
AcDbEntity
  8
2
370
    50
100
AcDbLine
 10
-110.569753
 20
202.815791
 30
0.0
 11
-86.611753
 21
202.815791
 31
0.0
  0
LINE
  5
23B
100
AcDbEntity
  8
2
370
    50
100
AcDbLine
 10
-111.590737
 20
209.815791
 30
0.0
 11
-85.590737
 21
209.815791
 31
0.0
  0
LINE
  5
23C
100
AcDbEntity
  8
2
370
    50
100
AcDbLine
 10
-85.590737
 20
203.836807
 30
0.0
 11
-111.590737
 21
203.836807
 31
0.0
  0
LINE
  5
23D
100
AcDbEntity
  8
2
370
    50
100
AcDbLine
 10
-110.090737
 20
202.315791
 30
0.0
 11
-87.090737
 21
202.315791
 31
0.0
  0
LINE
  5
23E
100
AcDbEntity
  8
2
370
    50
100
AcDbLine
 10
-25.049094
 20
196.315791
 30
0.0
 11
-42.049094
 21
196.315791
 31
0.0
  0
LINE
  5
23F
100
AcDbEntity
  8
2
370
    50
100
AcDbLine
 10
-25.049094
 20
196.315791
 30
0.0
 11
-24.549094
 21
196.815791
 31
0.0
  0
LINE
  5
240
100
AcDbEntity
  8
2
370
    50
100
AcDbLine
 10
-24.549094
 20
196.815791
 30
0.0
 11
-24.549094
 21
199.815791
 31
0.0
  0
LINE
  5
241
100
AcDbEntity
  8
2
370
    50
100
AcDbLine
 10
-42.549094
 20
196.815791
 30
0.0
 11
-42.549094
 21
199.815791
 31
0.0
  0
LINE
  5
242
100
AcDbEntity
  8
2
370
    50
100
AcDbLine
 10
-42.049094
 20
196.315791
 30
0.0
 11
-42.549094
 21
196.815791
 31
0.0
  0
LINE
  5
243
100
AcDbEntity
  8
2
370
    50
100
AcDbLine
 10
-46.849094
 20
202.815791
 30
0.0
 11
-20.249094
 21
202.815791
 31
0.0
  0
LINE
  5
244
100
AcDbEntity
  8
2
370
    25
100
AcDbLine
 10
-25.049094
 20
196.315791
 30
0.0
 11
-25.049094
 21
200.315791
 31
0.0
  0
LINE
  5
245
100
AcDbEntity
  8
2
370
    25
100
AcDbLine
 10
-42.049094
 20
196.315791
 30
0.0
 11
-42.049094
 21
200.315791
 31
0.0
  0
LINE
  5
246
100
AcDbEntity
  8
2
370
    50
100
AcDbLine
 10
-25.049094
 20
200.315791
 30
0.0
 11
-24.549094
 21
199.815791
 31
0.0
  0
LINE
  5
247
100
AcDbEntity
  8
2
370
    50
100
AcDbLine
 10
-42.049094
 20
200.315791
 30
0.0
 11
-42.549094
 21
199.815791
 31
0.0
  0
LINE
  5
248
100
AcDbEntity
  8
2
370
    50
100
AcDbLine
 10
-42.049094
 20
200.315791
 30
0.0
 11
-33.549094
 21
200.315791
 31
0.0
  0
LINE
  5
249
100
AcDbEntity
  8
2
370
    50
100
AcDbLine
 10
-33.549094
 20
200.315791
 30
0.0
 11
-25.049094
 21
200.315791
 31
0.0
  0
LINE
  5
24A
100
AcDbEntity
  8
2
370
    50
100
AcDbLine
 10
-24.549094
 20
199.815791
 30
0.0
 11
-42.549094
 21
199.815791
 31
0.0
  0
LINE
  5
24B
100
AcDbEntity
  8
2
370
    50
100
AcDbLine
 10
-24.549094
 20
196.815791
 30
0.0
 11
-42.549094
 21
196.815791
 31
0.0
  0
LINE
  5
24C
100
AcDbEntity
  8
2
370
    50
100
AcDbLine
 10
-19.549094
 20
203.515791
 30
0.0
 11
-19.549094
 21
210.115791
 31
0.0
  0
LINE
  5
24D
100
AcDbEntity
  8
2
370
    25
100
AcDbLine
 10
-20.249094
 20
202.815791
 30
0.0
 11
-20.249094
 21
210.815791
 31
0.0
  0
LINE
  5
24E
100
AcDbEntity
  8
2
370
    50
100
AcDbLine
 10
-20.249094
 20
202.815791
 30
0.0
 11
-19.549094
 21
203.515791
 31
0.0
  0
LINE
  5
24F
100
AcDbEntity
  8
2
370
    50
100
AcDbLine
 10
-20.249094
 20
210.815791
 30
0.0
 11
-19.549094
 21
210.115791
 31
0.0
  0
LINE
  5
250
100
AcDbEntity
  8
2
370
    50
100
AcDbLine
 10
-19.549094
 20
210.115791
 30
0.0
 11
-47.549094
 21
210.115791
 31
0.0
  0
LINE
  5
251
100
AcDbEntity
  8
2
370
    50
100
AcDbLine
 10
-19.549094
 20
203.515791
 30
0.0
 11
-47.549094
 21
203.515791
 31
0.0
  0
LINE
  5
252
100
AcDbEntity
  8
2
370
    50
100
AcDbLine
 10
-47.549094
 20
203.515791
 30
0.0
 11
-47.549094
 21
210.115791
 31
0.0
  0
LINE
  5
253
100
AcDbEntity
  8
2
370
    25
100
AcDbLine
 10
-46.849094
 20
202.815791
 30
0.0
 11
-46.849094
 21
210.815791
 31
0.0
  0
LINE
  5
254
100
AcDbEntity
  8
2
370
    50
100
AcDbLine
 10
-46.849094
 20
210.815791
 30
0.0
 11
-47.549094
 21
210.115791
 31
0.0
  0
LINE
  5
255
100
AcDbEntity
  8
2
370
    50
100
AcDbLine
 10
-46.849094
 20
202.815791
 30
0.0
 11
-47.549094
 21
203.515791
 31
0.0
  0
LINE
  5
256
100
AcDbEntity
  8
2
370
    50
100
AcDbLine
 10
-42.549094
 20
202.515791
 30
0.0
 11
-24.549094
 21
202.515791
 31
0.0
  0
LINE
  5
257
100
AcDbEntity
  8
2
370
    50
100
AcDbLine
 10
-42.549094
 20
200.615791
 30
0.0
 11
-24.549094
 21
200.615791
 31
0.0
  0
ARC
  5
258
100
AcDbEntity
  8
2
370
    50
100
AcDbCircle
 10
-24.549094
 20
201.565791
 30
0.0
 40
0.95
100
AcDbArc
 50
270.0
 51
90.0
  0
LINE
  5
259
100
AcDbEntity
  8
2
370
    50
100
AcDbLine
 10
-25.499094
 20
200.315791
 30
0.0
 11
-25.499094
 21
200.615791
 31
0.0
  0
LINE
  5
25A
100
AcDbEntity
  8
2
370
    50
100
AcDbLine
 10
-25.499094
 20
202.515791
 30
0.0
 11
-25.499094
 21
202.815791
 31
0.0
  0
ARC
  5
25B
100
AcDbEntity
  8
2
370
    50
100
AcDbCircle
 10
-42.549094
 20
201.565791
 30
0.0
 40
0.95
100
AcDbArc
 50
90.0
 51
270.0
  0
LINE
  5
25C
100
AcDbEntity
  8
2
370
    50
100
AcDbLine
 10
-41.599094
 20
200.315791
 30
0.0
 11
-41.599094
 21
200.615791
 31
0.0
  0
LINE
  5
25D
100
AcDbEntity
  8
2
370
    50
100
AcDbLine
 10
-41.599094
 20
202.515791
 30
0.0
 11
-41.599094
 21
202.815791
 31
0.0
  0
HATCH
  5
25E
100
AcDbEntity
  8
2
370
    25
100
AcDbHatch
 10
0.0
 20
0.0
 30
0.0
210
0.0
220
0.0
230
1.0
  2
_U
 70
     0
 71
     1
 91
        1
 92
        1
 93
        4
 72
     1
 10
-24.549094
 20
202.51579100000001
 11
-42.549093999999997
 21
202.51579100000001
 72
     2
 10
-42.549093999999997
 20
201.56579099999999
 40
0.95
 50
90.0
 51
270.0
 73
     1
 72
     1
 10
-42.549093999999997
 20
200.615791
 11
-24.549094
 21
200.615791
 72
     2
 10
-24.549094
 20
201.56579099999999
 40
0.95
 50
270.0
 51
90.0
 73
     1
 97
        4
330
0
330
0
330
0
330
0
 75
     0
 76
     0
 52
45.0
 41
1.0
 77
     0
 78
     1
 53
45.0
 43
0.0
 44
0.0
 45
-0.707107
 46
0.707107
 79
     0
 98
        1
 10
0.0
 20
0.0
  0
LINE
  5
25F
100
AcDbEntity
  8
2
370
    50
100
AcDbLine
 10
-76.569915
 20
203.565791
 30
0.0
 11
-71.569915
 21
208.565791
 31
0.0
  0
LINE
  5
260
100
AcDbEntity
  8
2
370
    50
100
AcDbLine
 10
-76.569915
 20
203.565791
 30
0.0
 11
-71.569915
 21
198.565791
 31
0.0
  0
LINE
  5
261
100
AcDbEntity
  8
2
370
    50
100
AcDbLine
 10
-56.569915
 20
203.565791
 30
0.0
 11
-61.569915
 21
208.565791
 31
0.0
  0
LINE
  5
262
100
AcDbEntity
  8
2
370
    50
100
AcDbLine
 10
-56.569915
 20
203.565791
 30
0.0
 11
-61.569915
 21
198.565791
 31
0.0
  0
LINE
  5
263
100
AcDbEntity
  8
2
370
    50
100
AcDbLine
 10
-61.569915
 20
198.565791
 30
0.0
 11
-61.569915
 21
200.565791
 31
0.0
  0
LINE
  5
264
100
AcDbEntity
  8
2
370
    50
100
AcDbLine
 10
-61.569915
 20
206.565791
 30
0.0
 11
-61.569915
 21
208.565791
 31
0.0
  0
LINE
  5
265
100
AcDbEntity
  8
2
370
    50
100
AcDbLine
 10
-71.569915
 20
198.565791
 30
0.0
 11
-71.569915
 21
200.565791
 31
0.0
  0
LINE
  5
266
100
AcDbEntity
  8
2
370
    50
100
AcDbLine
 10
-71.569915
 20
206.565791
 30
0.0
 11
-71.569915
 21
208.565791
 31
0.0
  0
LINE
  5
267
100
AcDbEntity
  8
2
370
    50
100
AcDbLine
 10
-71.569915
 20
200.565791
 30
0.0
 11
-61.569915
 21
200.565791
 31
0.0
  0
LINE
  5
268
100
AcDbEntity
  8
2
370
    50
100
AcDbLine
 10
-71.569915
 20
206.565791
 30
0.0
 11
-61.569915
 21
206.565791
 31
0.0
  0
LINE
  5
269
100
AcDbEntity
  8
2
370
    50
100
AcDbLine
 10
-125.569753
 20
175.815791
 30
0.0
 11
-101.611753
 21
175.815791
 31
0.0
  0
LINE
  5
26A
100
AcDbEntity
  8
2
370
    50
100
AcDbLine
 10
-20.549353
 20
212.315791
 30
0.0
 11
-20.549353
 21
210.815791
 31
0.0
  0
LINE
  5
26B
100
AcDbEntity
  8
2
370
    50
100
AcDbLine
 10
-46.549353
 20
212.315791
 30
0.0
 11
-46.549353
 21
210.815791
 31
0.0
  0
LINE
  5
26C
100
AcDbEntity
  8
2
370
    50
100
AcDbLine
 10
-20.549094
 20
212.315791
 30
0.0
 11
-46.549353
 21
212.315791
 31
0.0
  0
LINE
  5
26D
100
AcDbEntity
  8
2
370
    50
100
AcDbLine
 10
-20.249094
 20
210.815791
 30
0.0
 11
-46.849094
 21
210.815791
 31
0.0
  0
HATCH
  5
26E
100
AcDbEntity
  8
2
370
    25
100
AcDbHatch
 10
0.0
 20
0.0
 30
0.0
210
0.0
220
0.0
230
1.0
  2
_U
 70
     0
 71
     1
 91
        1
 92
        1
 93
        4
 72
     1
 10
-20.549353
 20
212.31579099999999
 11
-46.549353000000004
 21
212.31579099999999
 72
     1
 10
-46.549353000000004
 20
212.31579099999999
 11
-46.549353000000004
 21
210.81579099999999
 72
     1
 10
-46.549353000000004
 20
210.81579099999999
 11
-20.549353
 21
210.81579099999999
 72
     1
 10
-20.549353
 20
210.81579099999999
 11
-20.549353
 21
212.31579099999999
 97
        4
330
0
330
0
330
0
330
0
 75
     0
 76
     0
 52
45.0
 41
1.0
 77
     0
 78
     1
 53
45.0
 43
0.0
 44
0.0
 45
-0.707107
 46
0.707107
 79
     0
 98
        1
 10
0.0
 20
0.0
  0
LINE
  5
26F
100
AcDbEntity
  8
2
370
    50
100
AcDbLine
 10
-110.590996
 20
210.815791
 30
0.0
 11
-86.590996
 21
210.815791
 31
0.0
  0
LINE
  5
270
100
AcDbEntity
  8
2
370
    50
100
AcDbLine
 10
-86.590996
 20
213.815791
 30
0.0
 11
-86.590996
 21
210.815791
 31
0.0
  0
LINE
  5
271
100
AcDbEntity
  8
2
370
    50
100
AcDbLine
 10
-110.590996
 20
213.815791
 30
0.0
 11
-110.590996
 21
210.815791
 31
0.0
  0
LINE
  5
272
100
AcDbEntity
  8
2
370
    50
100
AcDbLine
 10
-86.590737
 20
213.815791
 30
0.0
 11
-110.590996
 21
213.815791
 31
0.0
  0
HATCH
  5
273
100
AcDbEntity
  8
2
370
    25
100
AcDbHatch
 10
0.0
 20
0.0
 30
0.0
210
0.0
220
0.0
230
1.0
  2
_U
 70
     0
 71
     1
 91
        1
 92
        1
 93
        4
 72
     1
 10
-110.590996
 20
213.81579099999999
 11
-86.590737000000004
 21
213.81579099999999
 72
     1
 10
-86.590737000000004
 20
213.81579099999999
 11
-86.590996000000004
 21
210.81579099999999
 72
     1
 10
-86.590996000000004
 20
210.81579099999999
 11
-110.590737
 21
210.81579099999999
 72
     1
 10
-110.590737
 20
210.81579099999999
 11
-110.590996
 21
213.81579099999999
 97
        4
330
0
330
0
330
0
330
0
 75
     0
 76
     0
 52
45.0
 41
1.0
 77
     0
 78
     1
 53
45.0
 43
0.0
 44
0.0
 45
-0.707107
 46
0.707107
 79
     0
 98
        1
 10
0.0
 20
0.0
  0
TEXT
  5
274
100
AcDbEntity
  8
3
370
    50
100
AcDbText
 10
138.36998
 20
113.621948
 30
0.0
 40
7.0
  1
止水
 72
     5
 11
150.96998
 21
113.621948
 31
0.0
100
AcDbText
  0
DIMENSION
  5
275
100
AcDbEntity
  8
3
370
    25
100
AcDbDimension
  2
*D0
 10
168.090651
 20
93.378208
 30
0.0
 11
138.279245
 21
151.778021
 31
0.0
 70
     2
 71
     0
 72
     0
 41
0.0
 42
0.0
  3
Standard
100
AcDb2LineAngularDimension
 13
226.134599
 23
117.539817
 33
0.0
 14
278.535508
 24
72.303961
 34
0.0
 15
278.535508
 25
72.303961
 35
0.0
 16
133.708842
 26
142.324904
 36
0.0
1001
ACAD
1000
DSTYLE
1002
{
1070
   275
1070
     0
1070
   179
1070
     0
1002
}
  0
TEXT
  5
276
100
AcDbEntity
  8
3
370
    50
100
AcDbText
 10
201.029663
 20
160.237595
 30
0.0
 40
7.0
  1
吐水
 72
     5
 11
213.629663
 21
160.237595
 31
0.0
100
AcDbText
  0
DIMENSION
  5
277
100
AcDbEntity
  8
3
370
    25
100
AcDbDimension
  2
*D1
 10
76.799568
 20
105.906142
 30
0.0
 11
65.299568
 21
47.966007
 31
0.0
 71
     0
 72
     0
 41
0.0
 42
0.0
  3
Standard
100
AcDbAlignedDimension
 13
265.367154
 23
-2.974128
 33
0.0
 14
156.058636
 24
105.906142
 34
0.0
 50
90.0
100
AcDbRotatedDimension
  0
DIMENSION
  5
278
100
AcDbEntity
  8
3
370
    25
100
AcDbDimension
  2
*D2
 10
35.957335
 20
152.924975
 30
0.0
 11
24.457335
 21
71.475423
 31
0.0
 71
     0
 72
     0
 41
0.0
 42
0.0
  3
Standard
100
AcDbAlignedDimension
 13
265.367154
 23
-2.974128
 33
0.0
 14
194.089435
 24
152.924975
 34
0.0
 50
90.0
100
AcDbRotatedDimension
  0
DIMENSION
  5
279
100
AcDbEntity
  8
3
370
    25
100
AcDbDimension
  2
*D3
 10
248.867988
 20
-126.316223
 30
0.0
 11
163.867988
 21
-121.816223
 31
0.0
 71
     0
 72
     0
 41
0.0
 42
0.0
  3
Standard
100
AcDbAlignedDimension
 13
78.867988
 23
-94.074128
 33
0.0
 14
248.867988
 24
-32.974712
 34
0.0
100
AcDbRotatedDimension
  0
TEXT
  5
27A
100
AcDbEntity
  8
3
370
    50
100
AcDbText
 10
290.832582
 20
-240.013492
 30
0.0
 40
6.0
  1
１　２
 72
     5
 11
307.632582
 21
-240.013492
 31
0.0
100
AcDbText
  0
POINT
  5
27B
100
AcDbEntity
  8
3
370
    50
100
AcDbPoint
 10
280.867154
 20
-2.974375
 30
0.0
  0
TEXT
  5
27C
100
AcDbEntity
  8
3
370
    50
100
AcDbText
 10
68.853722
 20
-227.247314
 30
0.0
 40
6.0
  1
壁付シングル湯水混合水栓
 72
     5
 11
139.653722
 21
-227.247314
 31
0.0
100
AcDbText
  0
TEXT
  5
27D
100
AcDbEntity
  8
3
370
    50
100
AcDbText
 10
68.561089
 20
-236.529404
 30
0.0
 40
6.0
  1
ＭＫ３００ＭＧＲ
 72
     5
 11
115.361089
 21
-236.529404
 31
0.0
100
AcDbText
  0
TEXT
  5
27E
100
AcDbEntity
  8
3
370
    50
100
AcDbText
 10
336.070276
 20
-271.880939
 30
0.0
 40
6.4
  1
１０１６９０
 72
     5
 11
373.190276
 21
-271.880939
 31
0.0
100
AcDbText
  0
TEXT
  5
27F
100
AcDbEntity
  8
3
370
    50
100
AcDbText
 10
233.753326
 20
-272.129395
 30
0.0
 40
6.0
  1
外観寸法図
 72
     5
 11
262.553326
 21
-272.129395
 31
0.0
100
AcDbText
  0
POINT
  5
280
100
AcDbEntity
  8
3
370
    50
100
AcDbPoint
 10
-102.983965
 20
-133.017686
 30
0.0
  0
POINT
  5
281
100
AcDbEntity
  8
3
370
    50
100
AcDbPoint
 10
-224.197168
 20
-133.017686
 30
0.0
  0
TEXT
  5
282
100
AcDbEntity
  8
3
370
    50
100
AcDbText
 10
-202.090566
 20
-233.96962
 30
0.0
 40
7.0
  1
１２０（ＭＡＸ１２５）
 72
     5
 11
-126.490566
 21
-233.96962
 31
0.0
100
AcDbText
  0
DIMENSION
  5
283
100
AcDbEntity
  8
3
370
    25
100
AcDbDimension
  2
*D4
 10
-102.983965
 20
-234.96962
 30
0.0
 11
-163.590566
 21
-232.96962
 31
0.0
 71
     0
 72
     0
 41
0.0
 42
0.0
  3
Standard
100
AcDbAlignedDimension
 13
-224.197168
 23
-133.017686
 33
0.0
 14
-102.983965
 24
-133.017686
 34
0.0
100
AcDbRotatedDimension
  0
DIMENSION
  5
284
100
AcDbEntity
  8
3
370
    25
100
AcDbDimension
  2
*D5
 10
35.957335
 20
-57.474128
 30
0.0
 11
20.957334
 21
-82.774128
 31
0.0
 71
     0
 72
     0
 41
0.0
 42
0.0
  3
Standard
100
AcDbAlignedDimension
 13
78.867988
 23
-94.074128
 33
0.0
 14
126.867988
 24
-57.474128
 34
0.0
 50
90.0
100
AcDbRotatedDimension
  0
DIMENSION
  5
285
100
AcDbEntity
  8
3
370
    25
100
AcDbDimension
  2
*D6
 10
35.957335
 20
-2.974128
 30
0.0
 11
20.957335
 21
-37.224128
 31
0.0
 71
     0
 72
     0
 41
0.0
 42
0.0
  3
Standard
100
AcDbAlignedDimension
 13
126.867988
 23
-57.474128
 33
0.0
 14
265.367154
 24
-2.974128
 34
0.0
 50
90.0
100
AcDbRotatedDimension
  0
POINT
  5
286
100
AcDbEntity
  8
3
370
    50
100
AcDbPoint
 10
317.367406
 20
-17.959066
 30
0.0
  0
TEXT
  5
287
100
AcDbEntity
  8
3
370
    50
100
AcDbText
 10
269.117697
 20
-125.316223
 30
0.0
 40
7.0
  1
６８．５
 72
     5
 11
295.717697
 21
-125.316223
 31
0.0
100
AcDbText
  0
DIMENSION
  5
288
100
AcDbEntity
  8
3
370
    25
100
AcDbDimension
  2
*D7
 10
317.367406
 20
-126.316223
 30
0.0
 11
283.117697
 21
-124.316223
 31
0.0
 71
     0
 72
     0
 41
0.0
 42
0.0
  3
Standard
100
AcDbAlignedDimension
 13
248.867988
 23
-32.974712
 33
0.0
 14
317.367406
 24
-17.959066
 34
0.0
100
AcDbRotatedDimension
  0
POINT
  5
289
100
AcDbEntity
  8
3
370
    50
100
AcDbPoint
 10
126.867988
 20
-57.474128
 30
0.0
  0
TEXT
  5
28A
100
AcDbEntity
  8
3
370
    50
100
AcDbText
 10
-71.236176
 20
224.602617
 30
0.0
 40
7.0
  1
Ｇ３／４
 72
     5
 11
-44.636176
 21
224.602617
 31
0.0
100
AcDbText
  0
LWPOLYLINE
  5
28B
100
AcDbEntity
  8
3
370
    25
100
AcDbPolyline
 90
        3
 70
     0
 10
-85.590737
 20
206.900927
 10
-72.208771
 20
223.435518
 10
-42.737926
 20
223.435518
  0
LINE
  5
290
100
AcDbEntity
  8
3
370
    25
100
AcDbLine
 10
-83.160051
 20
209.904253
 30
0.0
 11
-83.964789
 21
210.555553
 31
0.0
  0
LINE
  5
291
100
AcDbEntity
  8
3
370
    25
100
AcDbLine
 10
-83.964789
 20
210.555553
 30
0.0
 11
-85.590737
 21
206.900927
 31
0.0
  0
LINE
  5
292
100
AcDbEntity
  8
3
370
    25
100
AcDbLine
 10
-85.590737
 20
206.900927
 30
0.0
 11
-82.355312
 21
209.252952
 31
0.0
  0
LINE
  5
293
100
AcDbEntity
  8
3
370
    25
100
AcDbLine
 10
-82.355312
 20
209.252952
 30
0.0
 11
-83.160051
 21
209.904253
 31
0.0
  0
LWPOLYLINE
  5
294
100
AcDbEntity
  8
3
370
    25
100
AcDbPolyline
 90
        3
 70
     0
 10
-19.529051
 20
207.271145
 10
-3.131715
 20
221.254696
 10
40.814167
 20
221.254696
  0
LINE
  5
299
100
AcDbEntity
  8
3
370
    25
100
AcDbLine
 10
-16.589201
 20
209.778232
 30
0.0
 11
-17.260973
 21
210.565962
 31
0.0
  0
LINE
  5
29A
100
AcDbEntity
  8
3
370
    25
100
AcDbLine
 10
-17.260973
 20
210.565962
 30
0.0
 11
-19.529051
 21
207.271145
 31
0.0
  0
LINE
  5
29B
100
AcDbEntity
  8
3
370
    25
100
AcDbLine
 10
-19.529051
 20
207.271145
 30
0.0
 11
-15.917429
 21
208.990501
 31
0.0
  0
LINE
  5
29C
100
AcDbEntity
  8
3
370
    25
100
AcDbLine
 10
-15.917429
 20
208.990501
 30
0.0
 11
-16.589201
 21
209.778232
 31
0.0
  0
TEXT
  5
29D
100
AcDbEntity
  8
3
370
    50
100
AcDbText
 10
-2.669052
 20
222.533657
 30
0.0
 40
7.0
  1
Ｗ２８山１８
 72
     5
 11
37.930948
 21
222.533657
 31
0.0
100
AcDbText
  0
POINT
  5
29E
100
AcDbEntity
  8
3
370
    50
100
AcDbPoint
 10
-113.590725
 20
174.315539
 30
0.0
  0
POINT
  5
29F
100
AcDbEntity
  8
3
370
    50
100
AcDbPoint
 10
-213.590408
 20
174.315539
 30
0.0
  0
DIMENSION
  5
2A0
100
AcDbEntity
  8
3
370
    25
100
AcDbDimension
  2
*D8
 10
-113.590725
 20
244.583755
 30
0.0
 11
-163.590566
 21
249.083755
 31
0.0
 71
     0
 72
     0
 41
0.0
 42
0.0
  3
Standard
100
AcDbAlignedDimension
 13
-213.590408
 23
174.315539
 33
0.0
 14
-113.590725
 24
174.315539
 34
0.0
100
AcDbRotatedDimension
  0
POINT
  5
2A1
100
AcDbEntity
  8
3
370
    50
100
AcDbPoint
 10
-98.590737
 20
199.815791
 30
0.0
  0
POINT
  5
2A2
100
AcDbEntity
  8
3
370
    50
100
AcDbPoint
 10
-228.590396
 20
199.815791
 30
0.0
  0
DIMENSION
  5
2A3
100
AcDbEntity
  8
3
370
    25
100
AcDbDimension
  2
*D9
 10
-98.590737
 20
244.583755
 30
0.0
 11
-83.590737
 21
249.083755
 31
0.0
 71
     0
 72
     0
 41
0.0
 42
0.0
  3
Standard
100
AcDbAlignedDimension
 13
-113.590725
 23
174.315539
 33
0.0
 14
-98.590737
 24
199.815791
 34
0.0
100
AcDbRotatedDimension
  0
DIMENSION
  5
2A4
100
AcDbEntity
  8
3
370
    25
100
AcDbDimension
  2
*D10
 10
-213.590408
 20
244.583755
 30
0.0
 11
-243.590396
 21
249.083755
 31
0.0
 71
     0
 72
     0
 41
0.0
 42
0.0
  3
Standard
100
AcDbAlignedDimension
 13
-228.590396
 23
199.815791
 33
0.0
 14
-213.590408
 24
174.315539
 34
0.0
100
AcDbRotatedDimension
  0
LWPOLYLINE
  5
2A5
100
AcDbEntity
  8
3
370
    25
100
AcDbPolyline
 90
        3
 70
     0
 10
-158.405441
 20
129.833862
 10
-145.621201
 20
141.005371
 10
-87.973892
 20
141.005371
  0
LINE
  5
2AA
100
AcDbEntity
  8
3
370
    25
100
AcDbLine
 10
-155.496051
 20
132.376233
 30
0.0
 11
-156.177277
 21
133.155802
 31
0.0
  0
LINE
  5
2AB
100
AcDbEntity
  8
3
370
    25
100
AcDbLine
 10
-156.177277
 20
133.155802
 30
0.0
 11
-158.405441
 21
129.833862
 31
0.0
  0
LINE
  5
2AC
100
AcDbEntity
  8
3
370
    25
100
AcDbLine
 10
-158.405441
 20
129.833862
 30
0.0
 11
-154.814825
 21
131.596664
 31
0.0
  0
LINE
  5
2AD
100
AcDbEntity
  8
3
370
    25
100
AcDbLine
 10
-154.814825
 20
131.596664
 30
0.0
 11
-155.496051
 21
132.376233
 31
0.0
  0
LWPOLYLINE
  5
2AE
100
AcDbEntity
  8
3
370
    25
100
AcDbPolyline
 90
        3
 70
     0
 10
-168.567261
 20
129.929413
 10
-146.722488
 20
157.214584
 10
-88.151878
 20
157.214584
  0
LINE
  5
2B3
100
AcDbEntity
  8
3
370
    25
100
AcDbLine
 10
-166.152503
 20
132.945561
 30
0.0
 11
-166.960678
 21
133.592593
 31
0.0
  0
LINE
  5
2B4
100
AcDbEntity
  8
3
370
    25
100
AcDbLine
 10
-166.960678
 20
133.592593
 30
0.0
 11
-168.567261
 21
129.929413
 31
0.0
  0
LINE
  5
2B5
100
AcDbEntity
  8
3
370
    25
100
AcDbLine
 10
-168.567261
 20
129.929413
 30
0.0
 11
-165.344329
 21
132.298529
 31
0.0
  0
LINE
  5
2B6
100
AcDbEntity
  8
3
370
    25
100
AcDbLine
 10
-165.344329
 20
132.298529
 30
0.0
 11
-166.152503
 21
132.945561
 31
0.0
  0
TEXT
  5
2B7
100
AcDbEntity
  8
3
370
    50
100
AcDbText
 10
-84.598444
 20
154.708445
 30
0.0
 40
6.0
  1
赤色
 72
     5
 11
-73.798444
 21
154.708445
 31
0.0
100
AcDbText
  0
TEXT
  5
2B8
100
AcDbEntity
  8
3
370
    50
100
AcDbText
 10
-84.598444
 20
147.708445
 30
0.0
 40
6.0
  1
（湯表示）
 72
     5
 11
-55.798444
 21
147.708445
 31
0.0
100
AcDbText
  0
TEXT
  5
2B9
100
AcDbEntity
  8
3
370
    50
100
AcDbText
 10
-85.595026
 20
137.521541
 30
0.0
 40
6.0
  1
青色
 72
     5
 11
-74.795026
 21
137.521541
 31
0.0
100
AcDbText
  0
TEXT
  5
2BA
100
AcDbEntity
  8
3
370
    50
100
AcDbText
 10
-85.595026
 20
130.521541
 30
0.0
 40
6.0
  1
（水表示）
 72
     5
 11
-56.795026
 21
130.521541
 31
0.0
100
AcDbText
  0
LINE
  5
2BB
100
AcDbEntity
  8
3
370
    50
100
AcDbLine
 10
-167.590566
 20
124.745238
 30
0.0
 11
-169.590566
 21
124.745238
 31
0.0
  0
LINE
  5
2BC
100
AcDbEntity
  8
3
370
    50
100
AcDbLine
 10
-169.590566
 20
129.745238
 30
0.0
 11
-169.590566
 21
124.745238
 31
0.0
  0
LINE
  5
2BD
100
AcDbEntity
  8
3
370
    50
100
AcDbLine
 10
-167.590566
 20
129.745238
 30
0.0
 11
-167.590566
 21
124.745238
 31
0.0
  0
LINE
  5
2BE
100
AcDbEntity
  8
3
370
    50
100
AcDbLine
 10
-159.590566
 20
124.745238
 30
0.0
 11
-157.590566
 21
124.745238
 31
0.0
  0
LINE
  5
2BF
100
AcDbEntity
  8
3
370
    50
100
AcDbLine
 10
-157.590566
 20
129.745238
 30
0.0
 11
-157.590566
 21
124.745238
 31
0.0
  0
LINE
  5
2C0
100
AcDbEntity
  8
3
370
    50
100
AcDbLine
 10
-159.590566
 20
129.745238
 30
0.0
 11
-159.590566
 21
124.745238
 31
0.0
  0
LINE
  5
2C1
100
AcDbEntity
  8
3
370
    50
100
AcDbLine
 10
-157.590566
 20
129.745238
 30
0.0
 11
-159.590566
 21
129.745238
 31
0.0
  0
LINE
  5
2C2
100
AcDbEntity
  8
3
370
    50
100
AcDbLine
 10
-167.590566
 20
129.745238
 30
0.0
 11
-169.590566
 21
129.745238
 31
0.0
  0
HATCH
  5
2C3
100
AcDbEntity
  8
3
370
    25
100
AcDbHatch
 10
0.0
 20
0.0
 30
0.0
210
0.0
220
0.0
230
1.0
  2
_U
 70
     0
 71
     1
 91
        1
 92
        1
 93
        4
 72
     1
 10
-159.590566
 20
129.745238
 11
-157.590566
 21
129.745238
 72
     1
 10
-157.590566
 20
129.745238
 11
-157.590566
 21
124.745238
 72
     1
 10
-157.590566
 20
124.745238
 11
-159.590566
 21
124.745238
 72
     1
 10
-159.590566
 20
124.745238
 11
-159.590566
 21
129.745238
 97
        4
330
0
330
0
330
0
330
0
 75
     0
 76
     0
 52
45.0
 41
1.0
 77
     0
 78
     1
 53
45.0
 43
0.0
 44
0.0
 45
-0.707107
 46
0.707107
 79
     0
 98
        1
 10
0.0
 20
0.0
  0
HATCH
  5
2C4
100
AcDbEntity
  8
3
370
    25
100
AcDbHatch
 10
0.0
 20
0.0
 30
0.0
210
0.0
220
0.0
230
1.0
  2
_U
 70
     0
 71
     1
 91
        1
 92
        1
 93
        4
 72
     1
 10
-169.590566
 20
129.745238
 11
-167.590566
 21
129.745238
 72
     1
 10
-167.590566
 20
129.745238
 11
-167.590566
 21
124.745238
 72
     1
 10
-167.590566
 20
124.745238
 11
-169.590566
 21
124.745238
 72
     1
 10
-169.590566
 20
124.745238
 11
-169.590566
 21
129.745238
 97
        4
330
0
330
0
330
0
330
0
 75
     0
 76
     0
 52
45.0
 41
1.0
 77
     0
 78
     1
 53
45.0
 43
0.0
 44
0.0
 45
-0.141421
 46
0.141421
 79
     0
 98
        1
 10
0.0
 20
0.0
  0
ENDSEC
  0
SECTION
  2
OBJECTS
  0
DICTIONARY
  5
347
100
AcDbDictionary
280
     0
281
     1
  3
ACAD_GROUP
350
348
  3
ACAD_MLINESTYLE
350
349
  0
DICTIONARY
  5
348
102
{ACAD_REACTORS
330
347
102
}
100
AcDbDictionary
280
     0
281
     1
  0
DICTIONARY
  5
349
102
{ACAD_REACTORS
330
347
102
}
100
AcDbDictionary
280
     0
281
     1
  3
Standard
350
34A
  0
MLINESTYLE
  5
34A
102
{ACAD_REACTORS
330
349
102
}
100
AcDbMlineStyle
  2
Standard
 70
     0
  3

 62
     0
 51
90.0
 52
90.0
 71
     2
 49
0.5
 62
   256
  6
ByLayer
 49
-0.5
 62
   256
  6
ByLayer
  0
ENDSEC
  0
EOF
