  0
SECTION
  2
HEADER
  9
$ACADVER
  1
AC1015
  9
$ACADMAINTVER
 70
     6
  9
$DWGCODEPAGE
  3
ANSI_932
  9
$INSBASE
 10
0.0
 20
0.0
 30
0.0
  9
$EXTMIN
 10
-841.0
 20
-594.0
 30
1.000000E+20
  9
$EXTMAX
 10
841.0
 20
594.0
 30
-1.000000E+20
  9
$LIMMIN
 10
-841.0
 20
-594.0
  9
$LIMMAX
 10
841.0
 20
594.0
  9
$ORTHOMODE
 70
     0
  9
$REGENMODE
 70
     1
  9
$FILLMODE
 70
     1
  9
$QTEXTMODE
 70
     0
  9
$MIRRTEXT
 70
     1
  9
$LTSCALE
 40
1.0
  9
$ATTMODE
 70
     1
  9
$TEXTSIZE
 40
0.2
  9
$TRACEWID
 40
0.05
  9
$TEXTSTYLE
  7
STANDARD
  9
$CLAYER
  8
0
  9
$CELTYPE
  6
CONTINUOUS
  9
$CECOLOR
 62
   256
  9
$CELTSCALE
 40
1.0
  9
$DISPSILH
 70
     0
  9
$DIMSCALE
 40
2.0
  9
$DIMASZ
 40
2.0
  9
$DIMEXO
 40
1.0
  9
$DIMDLI
 40
0.38
  9
$DIMRND
 40
0.0
  9
$DIMDLE
 40
0.0
  9
$DIMEXE
 40
2.0
  9
$DIMTP
 40
0.0
  9
$DIMTM
 40
0.0
  9
$DIMTXT
 40
3.5
  9
$DIMCEN
 40
0.09
  9
$DIMTSZ
 40
0.0
  9
$DIMTOL
 70
     0
  9
$DIMLIM
 70
     0
  9
$DIMTIH
 70
     0
  9
$DIMTOH
 70
     0
  9
$DIMSE1
 70
     0
  9
$DIMSE2
 70
     0
  9
$DIMTAD
 70
     1
  9
$DIMZIN
 70
     0
  9
$DIMBLK
  1

  9
$DIMASO
 70
     1
  9
$DIMSHO
 70
     1
  9
$DIMPOST
  1

  9
$DIMAPOST
  1

  9
$DIMALT
 70
     0
  9
$DIMALTD
 70
     2
  9
$DIMALTF
 40
25.4
  9
$DIMLFAC
 40
1.0
  9
$DIMTOFL
 70
     0
  9
$DIMTVP
 40
0.0
  9
$DIMTIX
 70
     0
  9
$DIMSOXD
 70
     0
  9
$DIMSAH
 70
     0
  9
$DIMBLK1
  1

  9
$DIMBLK2
  1

  9
$DIMSTYLE
  2
Standard
  9
$DIMCLRD
 70
     0
  9
$DIMCLRE
 70
     0
  9
$DIMCLRT
 70
     0
  9
$DIMTFAC
 40
1.0
  9
$DIMGAP
 40
0.5
  9
$DIMJUST
 70
     0
  9
$DIMSD1
 70
     0
  9
$DIMSD2
 70
     0
  9
$DIMTOLJ
 70
     1
  9
$DIMTZIN
 70
     0
  9
$DIMALTZ
 70
     0
  9
$DIMALTTZ
 70
     0
  9
$DIMUPT
 70
     0
  9
$DIMDEC
 70
     3
  9
$DIMTDEC
 70
     4
  9
$DIMALTU
 70
     2
  9
$DIMALTTD
 70
     2
  9
$DIMTXSTY
  7
STANDARD
  9
$DIMAUNIT
 70
     0
  9
$DIMADEC
 70
     0
  9
$DIMALTRND
 40
0.0
  9
$DIMAZIN
 70
     0
  9
$DIMDSEP
 70
     0
  9
$DIMATFIT
 70
     3
  9
$DIMFRAC
 70
     0
  9
$DIMLDRBLK
  1

  9
$DIMLUNIT
 70
     2
  9
$DIMLWD
 70
     0
  9
$DIMLWE
 70
     0
  9
$DIMTMOVE
 70
     0
  9
$LUNITS
 70
     2
  9
$LUPREC
 70
     4
  9
$SKETCHINC
 40
0.1
  9
$FILLETRAD
 40
0.0
  9
$AUNITS
 70
     0
  9
$AUPREC
 70
     0
  9
$MENU
  1
acad
  9
$ELEVATION
 40
0.0
  9
$PELEVATION
 40
0.0
  9
$THICKNESS
 40
0.0
  9
$LIMCHECK
 70
     0
  9
$CHAMFERA
 40
0.0
  9
$CHAMFERB
 40
0.0
  9
$CHAMFERC
 40
0.0
  9
$CHAMFERD
 40
0.0
  9
$SKPOLY
 70
     0
  9
$TDCREATE
 40
2453383.000000000
  9
$TDUCREATE
 40
0.000000000
  9
$TDUPDATE
 40
0.000000000
  9
$TDUUPDATE
 40
2447892.625000000
  9
$TDINDWG
 40
0.0000000000
  9
$TDUSRTIMER
 40
0.0000000000
  9
$USRTIMER
 70
     1
  9
$ANGBASE
 50
0.0
  9
$ANGDIR
 70
     0
  9
$PDMODE
 70
     0
  9
$PDSIZE
 40
0.0
  9
$PLINEWID
 40
0.0
  9
$SPLFRAME
 70
     0
  9
$SPLINETYPE
 70
     6
  9
$SPLINESEGS
 70
     8
  9
$HANDSEED
  5
224
  9
$SURFTAB1
 70
     6
  9
$SURFTAB2
 70
     6
  9
$SURFTYPE
 70
     6
  9
$SURFU
 70
     6
  9
$SURFV
 70
     6
  9
$UCSBASE
  2

  9
$UCSNAME
  2

  9
$UCSORG
 10
0.0
 20
0.0
 30
0.0
  9
$UCSXDIR
 10
1.0
 20
0.0
 30
0.0
  9
$UCSYDIR
 10
0.0
 20
1.0
 30
0.0
  9
$UCSORTHOREF
  2

  9
$UCSORTHOVIEW
 70
     0
  9
$UCSORGTOP
 10
0.0
 20
0.0
 30
0.0
  9
$UCSORGBOTTOM
 10
0.0
 20
0.0
 30
0.0
  9
$UCSORGLEFT
 10
0.0
 20
0.0
 30
0.0
  9
$UCSORGRIGHT
 10
0.0
 20
0.0
 30
0.0
  9
$UCSORGFRONT
 10
0.0
 20
0.0
 30
0.0
  9
$UCSORGBACK
 10
0.0
 20
0.0
 30
0.0
  9
$PUCSBASE
  2

  9
$PUCSNAME
  2

  9
$PUCSORG
 10
0.0
 20
0.0
 30
0.0
  9
$PUCSXDIR
 10
1.0
 20
0.0
 30
0.0
  9
$PUCSYDIR
 10
0.0
 20
1.0
 30
0.0
  9
$PUCSORTHOREF
  2

  9
$PUCSORTHOVIEW
 70
     0
  9
$PUCSORGTOP
 10
0.0
 20
0.0
 30
0.0
  9
$PUCSORGBOTTOM
 10
0.0
 20
0.0
 30
0.0
  9
$PUCSORGLEFT
 10
0.0
 20
0.0
 30
0.0
  9
$PUCSORGRIGHT
 10
0.0
 20
0.0
 30
0.0
  9
$PUCSORGFRONT
 10
0.0
 20
0.0
 30
0.0
  9
$PUCSORGBACK
 10
0.0
 20
0.0
 30
0.0
  9
$USERI1
 70
     0
  9
$USERI2
 70
     0
  9
$USERI3
 70
     0
  9
$USERI4
 70
     0
  9
$USERI5
 70
     0
  9
$USERR1
 40
0.0
  9
$USERR2
 40
0.0
  9
$USERR3
 40
0.0
  9
$USERR4
 40
0.0
  9
$USERR5
 40
0.0
  9
$WORLDVIEW
 70
     1
  9
$SHADEDGE
 70
     3
  9
$SHADEDIF
 70
    70
  9
$TILEMODE
 70
     1
  9
$MAXACTVP
 70
    16
  9
$PINSBASE
 10
0.0
 20
0.0
 30
0.0
  9
$PLIMCHECK
 70
     0
  9
$PEXTMIN
 10
1.000000E+20
 20
1.000000E+20
 30
1.000000E+20
  9
$PEXTMAX
 10
-1.000000E+20
 20
-1.000000E+20
 30
-1.000000E+20
  9
$PLIMMIN
 10
0.0
 20
0.0
  9
$PLIMMAX
 10
12.0
 20
9.0
  9
$UNITMODE
 70
     0
  9
$VISRETAIN
 70
     0
  9
$PLINEGEN
 70
     1
  9
$PSLTSCALE
 70
     0
  9
$TREEDEPTH
 70
  3020
  9
$CMLSTYLE
  2
Standard
  9
$CMLJUST
 70
     0
  9
$CMLSCALE
 40
1.0
  9
$PROXYGRAPHICS
 70
     0
  9
$MEASUREMENT
 70
     0
  9
$CELWEIGHT
370
     0
  9
$ENDCAPS
280
     0
  9
$JOINSTYLE
280
     0
  9
$LWDISPLAY
290
     0
  9
$INSUNITS
 70
     0
  9
$HYPERLINKBASE
  1

  9
$STYLESHEET
  1

  9
$XEDIT
290
     1
  9
$CEPSNTYPE
380
     0
  9
$PSTYLEMODE
290
     1
  9
$FINGERPRINTGUID
  2

  9
$VERSIONGUID
  2

  9
$EXTNAMES
290
     1
  9
$PSVPSCALE
 40
0.0
  0
ENDSEC
  0
SECTION
  2
CLASSES
  0
CLASS
  1
LWPOLYLINE
  2
AcDbPolyline
  3
AutoCAD 2000
 90
        0
280
     0
281
     1
  0
CLASS
  1
IMAGE
  2
AcDbRasterImage
  3
ISM
 90
      127
280
     0
281
     1
  0
CLASS
  1
OLE2FRAME
  2
AcDbOle2Frame
  3
AutoCAD 2000
 90
        0
280
     0
281
     1
  0
CLASS
  1
HATCH
  2
AcDbHatch
  3
AutoCAD 2000
 90
        0
280
     0
281
     1
  0
CLASS
  1
DICTIONARYVAR
  2
AcDbDictionaryVar
  3
AutoCAD 2000
 90
        0
280
     0
281
     0
  0
CLASS
  1
RASTERVARIABLES
  2
AcDbRasterVariables
  3
ISM
 90
        0
280
     0
281
     0
  0
CLASS
  1
IMAGEDEF
  2
AcDbRasterImageDef
  3
ISM
 90
        0
280
     0
281
     0
  0
CLASS
  1
IMAGEDEF_REACTOR
  2
AcDbRasterImageDefReactor
  3
ISM
 90
        1
280
     0
281
     0
  0
CLASS
  1
IDBUFFER
  2
AcDbIdBuffer
  3
AutoCAD 2000
 90
        0
280
     0
281
     0
  0
CLASS
  1
SPATIAL_FILTER
  2
AcDbSpatialFilter
  3
AutoCAD 2000
 90
        0
280
     0
281
     0
  0
CLASS
  1
XRECORD
  2
AcDbXrecord
  3
AutoCAD 2000
 90
        0
280
     0
281
     0
  0
CLASS
  1
SORTENTSTABLE
  2
AcDbSortentsTable
  3
AutoCAD 2000
 90
        0
280
     0
281
     0
  0
CLASS
  1
LAYER_INDEX
  2
AcDbLayerIndex
  3
AutoCAD 2000
 90
        0
280
     0
281
     0
  0
CLASS
  1
SPATIAL_INDEX
  2
AcDbSpatialIndex
  3
AutoCAD 2000
 90
        0
280
     0
281
     0
  0
CLASS
  1
OBJECT_PTR
  2
CAseDLPNTableRecord
  3
"ASE-LPNTableRecord"
 90
        1
280
     0
281
     0
  0
CLASS
  1
LAYOUT
  2
AcDbLayout
  3
AutoCAD 2000
 90
        0
280
     0
281
     0
  0
CLASS
  1
PLOTSETTINGS
  2
AcDbPlotSettings
  3
AutoCAD 2000
 90
        0
280
     0
281
     0
  0
CLASS
  1
ACDBDICTIONARYWDFLT
  2
AcDbDictionaryWithDefault
  3
AutoCAD 2000
 90
        0
280
     0
281
     0
  0
CLASS
  1
ACDBPLACEHOLDER
  2
AcDbPlaceHolder
  3
AutoCAD 2000
 90
        0
280
     0
281
     0
  0
CLASS
  1
VBA_PROJECT
  2
AcDbVbaProject
  3
acadvba
 90
        0
280
     0
281
     0
  0
CLASS
  1
WIPEOUT
  2
AcDbWipeout
  3
WipeOut|AutoCAD Express Tool|expresstools@autodesk.com
 90
      127
280
     0
281
     1
  0
CLASS
  1
WIPEOUTVARIABLES
  2
AcDbWipeoutVariables
  3
WipeOut|AutoCAD Express Tool|expresstools@autodesk.com
 90
        0
280
     0
281
     0
  0
CLASS
  1
RTEXT
  2
RText
  3
RText|AutoCAD Express Tool|expresstools@autodesk.com
 90
        0
280
     0
281
     1
  0
CLASS
  1
ARCALIGNEDTEXT
  2
AcDbArcAlignedText
  3
ATEXT|AutoCAD Express Tool|expresstools@autodesk.com
 90
        0
280
     0
281
     1
  0
ENDSEC
  0
SECTION
  2
TABLES
  0
TABLE
  2
VPORT
  5
6
100
AcDbSymbolTable
 70
     1
  0
VPORT
  5
19
100
AcDbSymbolTableRecord
100
AcDbViewportTableRecord
  2
*ACTIVE
 70
     0
 10
0.0
 20
0.0
 11
1.0
 21
1.0
 12
0.0
 22
0.0
 13
0.0
 23
0.0
 14
1.0
 24
1.0
 15
0.0
 25
0.0
 16
0.0
 26
0.0
 36
1.0
 17
0.0
 27
0.0
 37
0.0
 40
1188.0
 41
1.415825
 42
50.0
 43
0.0
 44
0.0
 50
0.0
 51
0.0
 71
     0
 72
   500
 73
     1
 74
     1
 75
     0
 76
     0
 77
     0
 78
     0
281
     0
 65
     0
110
0.0
120
0.0
130
0.0
111
1.0
121
0.0
131
0.0
112
0.0
122
1.0
132
0.0
345
0
346
0
 79
     0
146
0.0
  0
ENDTAB
  0
TABLE
  2
LTYPE
  5
3
100
AcDbSymbolTable
 70
     9
  0
LTYPE
  5
C
100
AcDbSymbolTableRecord
100
AcDbLinetypeTableRecord
  2
ByBlock
 70
    64
  3

 72
    65
 73
     0
 40
0.0
  0
LTYPE
  5
D
100
AcDbSymbolTableRecord
100
AcDbLinetypeTableRecord
  2
ByLayer
 70
    64
  3

 72
    65
 73
     0
 40
0.0
  0
LTYPE
  5
E
100
AcDbSymbolTableRecord
100
AcDbLinetypeTableRecord
  2
CONTINUOUS
 70
     0
  3
Solid line
 72
    65
 73
     0
 40
0.0
  0
LTYPE
  5
F
100
AcDbSymbolTableRecord
100
AcDbLinetypeTableRecord
  2
DASHED
 70
     0
  3
__ __ __ __ __ __ __ __ __ __ __ __ __ __ __
 72
    65
 73
     2
 40
2.0
 49
1.2
 74
     0
 49
-0.8
 74
     0
  0
LTYPE
  5
10
100
AcDbSymbolTableRecord
100
AcDbLinetypeTableRecord
  2
CENTER
 70
     0
  3
____ _ ____ _ ____ _ ____ _ ____ _ ____ _ ____
 72
    65
 73
     4
 40
12.0
 49
9.0
 74
     0
 49
-1.0
 74
     0
 49
1.0
 74
     0
 49
-1.0
 74
     0
  0
LTYPE
  5
11
100
AcDbSymbolTableRecord
100
AcDbLinetypeTableRecord
  2
HIDDEN
 70
     0
  3
_ _ _ _ _ _ _ _ _ _ _ _ _ _ _ _ _ _ _ _ _ _ _
 72
    65
 73
     2
 40
3.2
 49
2.4
 74
     0
 49
-0.8
 74
     0
  0
LTYPE
  5
12
100
AcDbSymbolTableRecord
100
AcDbLinetypeTableRecord
  2
PHANTOM
 70
     0
  3
_____ _ _ _____ _ _ _____ _ _ _____ _ _ _____
 72
    65
 73
     6
 40
13.5
 49
9.0
 74
     0
 49
-1.0
 74
     0
 49
1.0
 74
     0
 49
-0.5
 74
     0
 49
1.0
 74
     0
 49
-1.0
 74
     0
  0
LTYPE
  5
13
100
AcDbSymbolTableRecord
100
AcDbLinetypeTableRecord
  2
DOT
 70
     0
  3
...............................................
 72
    65
 73
     2
 40
1.0
 49
0.5
 74
     0
 49
-0.5
 74
     0
  0
LTYPE
  5
14
100
AcDbSymbolTableRecord
100
AcDbLinetypeTableRecord
  2
DASHDOT
 70
     0
  3
__ . __ . __ . __ . __ . __ . __ . __ . __ . __
 72
    65
 73
     4
 40
8.0
 49
5.0
 74
     0
 49
-1.0
 74
     0
 49
1.0
 74
     0
 49
-1.0
 74
     0
  0
ENDTAB
  0
TABLE
  2
LAYER
  5
1
100
AcDbSymbolTable
 70
     4
  0
LAYER
  5
15
100
AcDbSymbolTableRecord
100
AcDbLayerTableRecord
  2
0
 70
     0
 62
     7
  6
CONTINUOUS
290
     1
370
    -3
390
0
  0
LAYER
  5
16
100
AcDbSymbolTableRecord
100
AcDbLayerTableRecord
  2
1
 70
     0
 62
     7
  6
CONTINUOUS
290
     1
370
    -3
390
0
  0
LAYER
  5
17
100
AcDbSymbolTableRecord
100
AcDbLayerTableRecord
  2
2
 70
     0
 62
     7
  6
CONTINUOUS
290
     1
370
    -3
390
0
  0
LAYER
  5
18
100
AcDbSymbolTableRecord
100
AcDbLayerTableRecord
  2
3
 70
     0
 62
     7
  6
CONTINUOUS
290
     1
370
    -3
390
0
  0
ENDTAB
  0
TABLE
  2
STYLE
  5
2
100
AcDbSymbolTable
 70
     1
  0
STYLE
  5
1B
100
AcDbSymbolTableRecord
100
AcDbTextStyleTableRecord
  2
STANDARD
 70
    64
 40
0.0
 41
1.0
 50
0.0
 71
     0
 42
1.0
  3
txt
  4
BIGFONT
  0
ENDTAB
  0
TABLE
  2
VIEW
  5
4
100
AcDbSymbolTable
 70
     0
  0
ENDTAB
  0
TABLE
  2
UCS
  5
5
100
AcDbSymbolTable
 70
     0
  0
ENDTAB
  0
TABLE
  2
APPID
  5
7
100
AcDbSymbolTable
 70
     1
  0
APPID
  5
1A
100
AcDbSymbolTableRecord
100
AcDbRegAppTableRecord
  2
ACAD
 70
     0
  0
ENDTAB
  0
TABLE
  2
DIMSTYLE
  5
8
100
AcDbSymbolTable
 70
     1
100
AcDbDimStyleTable
 71
     0
  0
DIMSTYLE
105
2C
100
AcDbSymbolTableRecord
100
AcDbDimStyleTableRecord
  2
Standard
 70
     0
  3

  4

 40
2.0
 41
2.0
 42
1.0
 43
0.38
 44
2.0
 45
0.0
 46
0.0
 47
0.0
 48
0.0
 71
     0
 72
     0
 73
     0
 74
     0
 75
     0
 76
     0
 77
     1
 78
     0
 79
     0
140
3.5
141
0.09
142
0.0
143
25.4
144
1.0
145
0.0
146
1.0
147
0.5
148
0.0
170
     0
171
     2
172
     0
173
     0
174
     0
175
     0
176
     0
177
     0
178
     0
179
     0
271
     3
272
     4
273
     2
274
     2
275
     0
276
     0
277
     2
278
    46
279
     0
280
     0
281
     0
282
     0
283
     1
284
     0
285
     0
286
     0
288
     0
289
     3
340
1B
341
0
342
0
343
0
344
0
371
    -2
372
    -2
  0
ENDTAB
  0
TABLE
  2
BLOCK_RECORD
  5
27
100
AcDbSymbolTable
 70
     9
  0
BLOCK_RECORD
  5
25
100
AcDbSymbolTableRecord
100
AcDbBlockTableRecord
  2
*Model_Space
340
0
  0
BLOCK_RECORD
  5
26
100
AcDbSymbolTableRecord
100
AcDbBlockTableRecord
  2
*Paper_Space
340
0
  0
BLOCK_RECORD
  5
1C
100
AcDbSymbolTableRecord
100
AcDbBlockTableRecord
  2
*D0
340
0
  0
BLOCK_RECORD
  5
1D
100
AcDbSymbolTableRecord
100
AcDbBlockTableRecord
  2
*D1
340
0
  0
BLOCK_RECORD
  5
1E
100
AcDbSymbolTableRecord
100
AcDbBlockTableRecord
  2
*D2
340
0
  0
BLOCK_RECORD
  5
1F
100
AcDbSymbolTableRecord
100
AcDbBlockTableRecord
  2
*D3
340
0
  0
BLOCK_RECORD
  5
20
100
AcDbSymbolTableRecord
100
AcDbBlockTableRecord
  2
*D4
340
0
  0
BLOCK_RECORD
  5
21
100
AcDbSymbolTableRecord
100
AcDbBlockTableRecord
  2
*D5
340
0
  0
BLOCK_RECORD
  5
22
100
AcDbSymbolTableRecord
100
AcDbBlockTableRecord
  2
*D6
340
0
  0
BLOCK_RECORD
  5
23
100
AcDbSymbolTableRecord
100
AcDbBlockTableRecord
  2
*D7
340
0
  0
BLOCK_RECORD
  5
24
100
AcDbSymbolTableRecord
100
AcDbBlockTableRecord
  2
*D8
340
0
  0
ENDTAB
  0
ENDSEC
  0
SECTION
  2
BLOCKS
  0
BLOCK
  5
28
100
AcDbEntity
  8
0
390
0
100
AcDbBlockBegin
  2
*Model_Space
 70
     0
 10
0.0
 20
0.0
 30
0.0
  3
*Model_Space
  1

  0
ENDBLK
  5
29
100
AcDbEntity
  8
0
390
0
100
AcDbBlockEnd
  0
BLOCK
  5
2A
100
AcDbEntity
 67
     1
  8
0
390
0
100
AcDbBlockBegin
  2
*Paper_Space
 70
     0
 10
0.0
 20
0.0
 30
0.0
  3
*Paper_Space
  1

  0
ENDBLK
  5
2B
100
AcDbEntity
 67
     1
  8
0
390
0
100
AcDbBlockEnd
  0
BLOCK
  5
1B5
100
AcDbEntity
  8
3
100
AcDbBlockBegin
  2
*D0
 70
     1
 10
0.0
 20
0.0
 30
0.0
  3
*D0
  1

  0
LINE
  5
1B6
100
AcDbEntity
  8
3
370
    25
100
AcDbLine
 10
-260.016973
 20
-47.401491
 30
0.0
 11
-260.016973
 21
-142.258789
 31
0.0
  0
LINE
  5
1B7
100
AcDbEntity
  8
3
370
    25
100
AcDbLine
 10
-260.016973
 20
-140.258789
 30
0.0
 11
-256.15327
 21
-141.294065
 31
0.0
  0
LINE
  5
1B8
100
AcDbEntity
  8
3
370
    25
100
AcDbLine
 10
-260.016973
 20
-140.258789
 30
0.0
 11
-256.15327
 21
-139.223513
 31
0.0
  0
LINE
  5
1B9
100
AcDbEntity
  8
3
370
    25
100
AcDbLine
 10
-256.15327
 20
-141.294065
 30
0.0
 11
-256.15327
 21
-139.223513
 31
0.0
  0
LINE
  5
1BA
100
AcDbEntity
  8
3
370
    25
100
AcDbLine
 10
-260.016973
 20
-140.258789
 30
0.0
 11
-75.16416
 21
-140.258789
 31
0.0
  0
LINE
  5
1BB
100
AcDbEntity
  8
3
370
    25
100
AcDbLine
 10
-75.16416
 20
-140.258789
 30
0.0
 11
-79.027863
 21
-139.223513
 31
0.0
  0
LINE
  5
1BC
100
AcDbEntity
  8
3
370
    25
100
AcDbLine
 10
-75.16416
 20
-140.258789
 30
0.0
 11
-79.027863
 21
-141.294065
 31
0.0
  0
LINE
  5
1BD
100
AcDbEntity
  8
3
370
    25
100
AcDbLine
 10
-79.027863
 20
-139.223513
 30
0.0
 11
-79.027863
 21
-141.294065
 31
0.0
  0
LINE
  5
1BE
100
AcDbEntity
  8
3
370
    25
100
AcDbLine
 10
-75.16416
 20
-47.401491
 30
0.0
 11
-75.16416
 21
-142.258789
 31
0.0
  0
ENDBLK
  5
1BF
100
AcDbEntity
  8
3
100
AcDbBlockEnd
  0
BLOCK
  5
1C0
100
AcDbEntity
  8
3
100
AcDbBlockBegin
  2
*D1
 70
     1
 10
0.0
 20
0.0
 30
0.0
  3
*D1
  1

  0
TEXT
  5
1C1
100
AcDbEntity
  8
3
370
    25
100
AcDbText
 10
-178.090566
 20
-111.763
 30
0.0
 40
7.0
  1
１００
 72
     5
 11
-158.490566
 21
-111.763
 31
0.0
100
AcDbText
  0
LINE
  5
1C2
100
AcDbEntity
  8
3
370
    25
100
AcDbLine
 10
-217.590566
 20
-4.975084
 30
0.0
 11
-217.590566
 21
-114.763
 31
0.0
  0
LINE
  5
1C3
100
AcDbEntity
  8
3
370
    25
100
AcDbLine
 10
-217.590566
 20
-112.763
 30
0.0
 11
-213.726863
 21
-113.798277
 31
0.0
  0
LINE
  5
1C4
100
AcDbEntity
  8
3
370
    25
100
AcDbLine
 10
-217.590566
 20
-112.763
 30
0.0
 11
-213.726863
 21
-111.727724
 31
0.0
  0
LINE
  5
1C5
100
AcDbEntity
  8
3
370
    25
100
AcDbLine
 10
-213.726863
 20
-113.798277
 30
0.0
 11
-213.726863
 21
-111.727724
 31
0.0
  0
LINE
  5
1C6
100
AcDbEntity
  8
3
370
    25
100
AcDbLine
 10
-217.590566
 20
-112.763
 30
0.0
 11
-117.590566
 21
-112.763
 31
0.0
  0
LINE
  5
1C7
100
AcDbEntity
  8
3
370
    25
100
AcDbLine
 10
-117.590566
 20
-112.763
 30
0.0
 11
-121.45427
 21
-111.727724
 31
0.0
  0
LINE
  5
1C8
100
AcDbEntity
  8
3
370
    25
100
AcDbLine
 10
-117.590566
 20
-112.763
 30
0.0
 11
-121.45427
 21
-113.798277
 31
0.0
  0
LINE
  5
1C9
100
AcDbEntity
  8
3
370
    25
100
AcDbLine
 10
-121.45427
 20
-111.727724
 30
0.0
 11
-121.45427
 21
-113.798277
 31
0.0
  0
LINE
  5
1CA
100
AcDbEntity
  8
3
370
    25
100
AcDbLine
 10
-117.590566
 20
-4.975084
 30
0.0
 11
-117.590566
 21
-114.763
 31
0.0
  0
ENDBLK
  5
1CB
100
AcDbEntity
  8
3
100
AcDbBlockEnd
  0
BLOCK
  5
1CC
100
AcDbEntity
  8
3
100
AcDbBlockBegin
  2
*D2
 70
     1
 10
0.0
 20
0.0
 30
0.0
  3
*D2
  1

  0
TEXT
  5
1CD
100
AcDbEntity
  8
3
370
    25
100
AcDbText
 10
-278.718307
 20
5.826754
 30
0.0
 40
7.0
  1
６０
 50
45.0
 72
     5
 11
-269.808762
 21
14.7363
 31
0.0
100
AcDbText
  0
LINE
  5
1CE
100
AcDbEntity
  8
3
370
    25
100
AcDbLine
 10
-219.00478
 20
-1.560871
 30
0.0
 11
-253.262463
 21
32.696812
 31
0.0
  0
LINE
  5
1CF
100
AcDbEntity
  8
3
370
    25
100
AcDbLine
 10
-251.848249
 20
31.282598
 30
0.0
 11
-255.312351
 21
29.282598
 31
0.0
  0
LINE
  5
1D0
100
AcDbEntity
  8
3
370
    25
100
AcDbLine
 10
-251.848249
 20
31.282598
 30
0.0
 11
-253.848249
 21
27.818497
 31
0.0
  0
LINE
  5
1D1
100
AcDbEntity
  8
3
370
    25
100
AcDbLine
 10
-255.312351
 20
29.282598
 30
0.0
 11
-253.848249
 21
27.818497
 31
0.0
  0
LINE
  5
1D2
100
AcDbEntity
  8
3
370
    25
100
AcDbLine
 10
-251.848249
 20
31.282598
 30
0.0
 11
-294.274656
 21
-11.143808
 31
0.0
  0
LINE
  5
1D3
100
AcDbEntity
  8
3
370
    25
100
AcDbLine
 10
-294.274656
 20
-11.143808
 30
0.0
 11
-290.810555
 21
-9.143808
 31
0.0
  0
LINE
  5
1D4
100
AcDbEntity
  8
3
370
    25
100
AcDbLine
 10
-294.274656
 20
-11.143808
 30
0.0
 11
-292.274656
 21
-7.679707
 31
0.0
  0
LINE
  5
1D5
100
AcDbEntity
  8
3
370
    25
100
AcDbLine
 10
-290.810555
 20
-9.143808
 30
0.0
 11
-292.274656
 21
-7.679707
 31
0.0
  0
LINE
  5
1D6
100
AcDbEntity
  8
3
370
    25
100
AcDbLine
 10
-261.431187
 20
-43.987278
 30
0.0
 11
-295.68887
 21
-9.729595
 31
0.0
  0
ENDBLK
  5
1D7
100
AcDbEntity
  8
3
100
AcDbBlockEnd
  0
BLOCK
  5
1D8
100
AcDbEntity
  8
3
100
AcDbBlockBegin
  2
*D3
 70
     1
 10
0.0
 20
0.0
 30
0.0
  3
*D3
  1

  0
LINE
  5
1D9
100
AcDbEntity
  8
3
370
    25
100
AcDbLine
 10
231.867988
 20
-67.474378
 30
0.0
 11
231.867988
 21
-128.316223
 31
0.0
  0
LINE
  5
1DA
100
AcDbEntity
  8
3
370
    25
100
AcDbLine
 10
231.867988
 20
-126.316223
 30
0.0
 11
235.731692
 21
-127.351499
 31
0.0
  0
LINE
  5
1DB
100
AcDbEntity
  8
3
370
    25
100
AcDbLine
 10
231.867988
 20
-126.316223
 30
0.0
 11
235.731692
 21
-125.280947
 31
0.0
  0
LINE
  5
1DC
100
AcDbEntity
  8
3
370
    25
100
AcDbLine
 10
235.731692
 20
-127.351499
 30
0.0
 11
235.731692
 21
-125.280947
 31
0.0
  0
LINE
  5
1DD
100
AcDbEntity
  8
3
370
    25
100
AcDbLine
 10
231.867988
 20
-126.316223
 30
0.0
 11
318.866903
 21
-126.316223
 31
0.0
  0
LINE
  5
1DE
100
AcDbEntity
  8
3
370
    25
100
AcDbLine
 10
318.866903
 20
-126.316223
 30
0.0
 11
315.003199
 21
-125.280947
 31
0.0
  0
LINE
  5
1DF
100
AcDbEntity
  8
3
370
    25
100
AcDbLine
 10
318.866903
 20
-126.316223
 30
0.0
 11
315.003199
 21
-127.351499
 31
0.0
  0
LINE
  5
1E0
100
AcDbEntity
  8
3
370
    25
100
AcDbLine
 10
315.003199
 20
-125.280947
 30
0.0
 11
315.003199
 21
-127.351499
 31
0.0
  0
LINE
  5
1E1
100
AcDbEntity
  8
3
370
    25
100
AcDbLine
 10
318.866903
 20
-87.94278
 30
0.0
 11
318.866903
 21
-128.316223
 31
0.0
  0
ENDBLK
  5
1E2
100
AcDbEntity
  8
3
100
AcDbBlockEnd
  0
BLOCK
  5
1E3
100
AcDbEntity
  8
3
100
AcDbBlockBegin
  2
*D4
 70
     1
 10
0.0
 20
0.0
 30
0.0
  3
*D4
  1

  0
TEXT
  5
1E4
100
AcDbEntity
  8
3
370
    25
100
AcDbText
 10
112.13844
 20
132.871787
 30
0.0
 40
7.0
  1
３０゜
 50
64.197115
 72
     5
 11
120.669858
 21
150.517606
 31
0.0
100
AcDbText
  0
LINE
  5
1E5
100
AcDbEntity
  8
3
370
    25
100
AcDbLine
 10
172.936598
 20
148.788275
 30
0.0
 11
138.252521
 21
178.729815
 31
0.0
  0
LINE
  5
1E6
100
AcDbEntity
  8
3
370
    25
100
AcDbLine
 10
125.341239
 20
98.291515
 30
0.0
 11
101.556382
 21
102.829961
 31
0.0
  0
LINE
  5
1E7
100
AcDbEntity
  8
3
370
    25
100
AcDbLine
 10
139.766445
 20
177.422898
 30
0.0
 11
136.485247
 21
175.135162
 31
0.0
  0
LINE
  5
1E8
100
AcDbEntity
  8
3
370
    25
100
AcDbLine
 10
139.766445
 20
177.422898
 30
0.0
 11
138.068712
 21
173.801061
 31
0.0
  0
LINE
  5
1E9
100
AcDbEntity
  8
3
370
    25
100
AcDbLine
 10
136.485247
 20
175.135162
 30
0.0
 11
138.068712
 21
173.801061
 31
0.0
  0
LINE
  5
1EA
100
AcDbEntity
  8
3
370
    25
100
AcDbLine
 10
103.520938
 20
102.455099
 30
0.0
 11
105.305165
 21
106.035118
 31
0.0
  0
LINE
  5
1EB
100
AcDbEntity
  8
3
370
    25
100
AcDbLine
 10
103.520938
 20
102.455099
 30
0.0
 11
103.276114
 21
106.4476
 31
0.0
  0
LINE
  5
1EC
100
AcDbEntity
  8
3
370
    25
100
AcDbLine
 10
105.305165
 20
106.035118
 30
0.0
 11
103.276114
 21
106.4476
 31
0.0
  0
ARC
  5
1ED
100
AcDbEntity
  8
3
370
    25
100
AcDbCircle
 10
261.535508
 20
72.303961
 30
0.0
 40
160.865458
100
AcDbArc
 50
139.197115
 51
169.197115
  0
ENDBLK
  5
1EE
100
AcDbEntity
  8
3
100
AcDbBlockEnd
  0
BLOCK
  5
1EF
100
AcDbEntity
  8
3
100
AcDbBlockBegin
  2
*D5
 70
     1
 10
0.0
 20
0.0
 30
0.0
  3
*D5
  1

  0
TEXT
  5
1F0
100
AcDbEntity
  8
3
370
    25
100
AcDbText
 10
-0.845678
 20
40.966007
 30
0.0
 40
7.0
  1
１０９
 50
90.0
 72
     5
 11
-0.845678
 21
60.566007
 31
0.0
100
AcDbText
  0
LINE
  5
1F1
100
AcDbEntity
  8
3
370
    25
100
AcDbLine
 10
246.367154
 20
-2.974128
 30
0.0
 11
-1.845678
 21
-2.974128
 31
0.0
  0
LINE
  5
1F2
100
AcDbEntity
  8
3
370
    25
100
AcDbLine
 10
0.154322
 20
-2.974128
 30
0.0
 11
1.189599
 21
0.889575
 31
0.0
  0
LINE
  5
1F3
100
AcDbEntity
  8
3
370
    25
100
AcDbLine
 10
0.154322
 20
-2.974128
 30
0.0
 11
-0.880954
 21
0.889575
 31
0.0
  0
LINE
  5
1F4
100
AcDbEntity
  8
3
370
    25
100
AcDbLine
 10
1.189599
 20
0.889575
 30
0.0
 11
-0.880954
 21
0.889575
 31
0.0
  0
LINE
  5
1F5
100
AcDbEntity
  8
3
370
    25
100
AcDbLine
 10
0.154322
 20
-2.974128
 30
0.0
 11
0.154322
 21
105.906142
 31
0.0
  0
LINE
  5
1F6
100
AcDbEntity
  8
3
370
    25
100
AcDbLine
 10
0.154322
 20
105.906142
 30
0.0
 11
-0.880954
 21
102.042439
 31
0.0
  0
LINE
  5
1F7
100
AcDbEntity
  8
3
370
    25
100
AcDbLine
 10
0.154322
 20
105.906142
 30
0.0
 11
1.189599
 21
102.042439
 31
0.0
  0
LINE
  5
1F8
100
AcDbEntity
  8
3
370
    25
100
AcDbLine
 10
-0.880954
 20
102.042439
 30
0.0
 11
1.189599
 21
102.042439
 31
0.0
  0
LINE
  5
1F9
100
AcDbEntity
  8
3
370
    25
100
AcDbLine
 10
137.058636
 20
105.906142
 30
0.0
 11
-1.845678
 21
105.906142
 31
0.0
  0
ENDBLK
  5
1FA
100
AcDbEntity
  8
3
100
AcDbBlockEnd
  0
BLOCK
  5
1FB
100
AcDbEntity
  8
3
100
AcDbBlockBegin
  2
*D6
 70
     1
 10
0.0
 20
0.0
 30
0.0
  3
*D6
  1

  0
TEXT
  5
1FC
100
AcDbEntity
  8
3
370
    25
100
AcDbText
 10
-43.315949
 20
64.475423
 30
0.0
 40
7.0
  1
１５６
 50
90.0
 72
     5
 11
-43.315949
 21
84.075423
 31
0.0
100
AcDbText
  0
LINE
  5
1FD
100
AcDbEntity
  8
3
370
    25
100
AcDbLine
 10
246.367154
 20
-2.974128
 30
0.0
 11
-44.315948
 21
-2.974128
 31
0.0
  0
LINE
  5
1FE
100
AcDbEntity
  8
3
370
    25
100
AcDbLine
 10
-42.315948
 20
-2.974128
 30
0.0
 11
-41.280672
 21
0.889575
 31
0.0
  0
LINE
  5
1FF
100
AcDbEntity
  8
3
370
    25
100
AcDbLine
 10
-42.315948
 20
-2.974128
 30
0.0
 11
-43.351225
 21
0.889575
 31
0.0
  0
LINE
  5
200
100
AcDbEntity
  8
3
370
    25
100
AcDbLine
 10
-41.280672
 20
0.889575
 30
0.0
 11
-43.351225
 21
0.889575
 31
0.0
  0
LINE
  5
201
100
AcDbEntity
  8
3
370
    25
100
AcDbLine
 10
-42.315948
 20
-2.974128
 30
0.0
 11
-42.315948
 21
152.924975
 31
0.0
  0
LINE
  5
202
100
AcDbEntity
  8
3
370
    25
100
AcDbLine
 10
-42.315948
 20
152.924975
 30
0.0
 11
-43.351225
 21
149.061272
 31
0.0
  0
LINE
  5
203
100
AcDbEntity
  8
3
370
    25
100
AcDbLine
 10
-42.315948
 20
152.924975
 30
0.0
 11
-41.280672
 21
149.061272
 31
0.0
  0
LINE
  5
204
100
AcDbEntity
  8
3
370
    25
100
AcDbLine
 10
-43.351225
 20
149.061272
 30
0.0
 11
-41.280672
 21
149.061272
 31
0.0
  0
LINE
  5
205
100
AcDbEntity
  8
3
370
    25
100
AcDbLine
 10
175.089435
 20
152.924975
 30
0.0
 11
-44.315948
 21
152.924975
 31
0.0
  0
ENDBLK
  5
206
100
AcDbEntity
  8
3
100
AcDbBlockEnd
  0
BLOCK
  5
207
100
AcDbEntity
  8
3
100
AcDbBlockBegin
  2
*D7
 70
     1
 10
0.0
 20
0.0
 30
0.0
  3
*D7
  1

  0
TEXT
  5
208
100
AcDbEntity
  8
3
370
    25
100
AcDbText
 10
136.367988
 20
-125.316223
 30
0.0
 40
7.0
  1
１７０
 72
     5
 11
155.967988
 21
-125.316223
 31
0.0
100
AcDbText
  0
LINE
  5
209
100
AcDbEntity
  8
3
370
    25
100
AcDbLine
 10
61.867988
 20
-80.874378
 30
0.0
 11
61.867988
 21
-128.316223
 31
0.0
  0
LINE
  5
20A
100
AcDbEntity
  8
3
370
    25
100
AcDbLine
 10
61.867988
 20
-126.316223
 30
0.0
 11
65.731692
 21
-127.351499
 31
0.0
  0
LINE
  5
20B
100
AcDbEntity
  8
3
370
    25
100
AcDbLine
 10
61.867988
 20
-126.316223
 30
0.0
 11
65.731692
 21
-125.280947
 31
0.0
  0
LINE
  5
20C
100
AcDbEntity
  8
3
370
    25
100
AcDbLine
 10
65.731692
 20
-127.351499
 30
0.0
 11
65.731692
 21
-125.280947
 31
0.0
  0
LINE
  5
20D
100
AcDbEntity
  8
3
370
    25
100
AcDbLine
 10
61.867988
 20
-126.316223
 30
0.0
 11
231.867988
 21
-126.316223
 31
0.0
  0
LINE
  5
20E
100
AcDbEntity
  8
3
370
    25
100
AcDbLine
 10
231.867988
 20
-126.316223
 30
0.0
 11
228.004285
 21
-125.280947
 31
0.0
  0
LINE
  5
20F
100
AcDbEntity
  8
3
370
    25
100
AcDbLine
 10
231.867988
 20
-126.316223
 30
0.0
 11
228.004285
 21
-127.351499
 31
0.0
  0
LINE
  5
210
100
AcDbEntity
  8
3
370
    25
100
AcDbLine
 10
228.004285
 20
-125.280947
 30
0.0
 11
228.004285
 21
-127.351499
 31
0.0
  0
LINE
  5
211
100
AcDbEntity
  8
3
370
    25
100
AcDbLine
 10
231.867988
 20
-24.974712
 30
0.0
 11
231.867988
 21
-128.316223
 31
0.0
  0
ENDBLK
  5
212
100
AcDbEntity
  8
3
100
AcDbBlockEnd
  0
BLOCK
  5
213
100
AcDbEntity
  8
3
100
AcDbBlockBegin
  2
*D8
 70
     1
 10
0.0
 20
0.0
 30
0.0
  3
*D8
  1

  0
TEXT
  5
214
100
AcDbEntity
  8
3
370
    25
100
AcDbText
 10
-0.845678
 20
-47.924253
 30
0.0
 40
7.0
  1
７６
 50
90.0
 72
     5
 11
-0.845678
 21
-35.324253
 31
0.0
100
AcDbText
  0
LINE
  5
215
100
AcDbEntity
  8
3
370
    25
100
AcDbLine
 10
59.867988
 20
-78.874378
 30
0.0
 11
-1.845678
 21
-78.874378
 31
0.0
  0
LINE
  5
216
100
AcDbEntity
  8
3
370
    25
100
AcDbLine
 10
0.154322
 20
-78.874378
 30
0.0
 11
1.189599
 21
-75.010675
 31
0.0
  0
LINE
  5
217
100
AcDbEntity
  8
3
370
    25
100
AcDbLine
 10
0.154322
 20
-78.874378
 30
0.0
 11
-0.880954
 21
-75.010675
 31
0.0
  0
LINE
  5
218
100
AcDbEntity
  8
3
370
    25
100
AcDbLine
 10
1.189599
 20
-75.010675
 30
0.0
 11
-0.880954
 21
-75.010675
 31
0.0
  0
LINE
  5
219
100
AcDbEntity
  8
3
370
    25
100
AcDbLine
 10
0.154322
 20
-78.874378
 30
0.0
 11
0.154322
 21
-2.974128
 31
0.0
  0
LINE
  5
21A
100
AcDbEntity
  8
3
370
    25
100
AcDbLine
 10
0.154322
 20
-2.974128
 30
0.0
 11
-0.880954
 21
-6.837831
 31
0.0
  0
LINE
  5
21B
100
AcDbEntity
  8
3
370
    25
100
AcDbLine
 10
0.154322
 20
-2.974128
 30
0.0
 11
1.189599
 21
-6.837831
 31
0.0
  0
LINE
  5
21C
100
AcDbEntity
  8
3
370
    25
100
AcDbLine
 10
-0.880954
 20
-6.837831
 30
0.0
 11
1.189599
 21
-6.837831
 31
0.0
  0
LINE
  5
21D
100
AcDbEntity
  8
3
370
    25
100
AcDbLine
 10
246.367154
 20
-2.974128
 30
0.0
 11
-1.845678
 21
-2.974128
 31
0.0
  0
ENDBLK
  5
21E
100
AcDbEntity
  8
3
100
AcDbBlockEnd
  0
ENDSEC
  0
SECTION
  2
ENTITIES
  0
LINE
  5
2D
100
AcDbEntity
  8
1
370
   100
100
AcDbLine
 10
-373.02157
 20
275.028767
 30
0.0
 11
394.982385
 21
275.028767
 31
0.0
  0
LINE
  5
2E
100
AcDbEntity
  8
1
370
   100
100
AcDbLine
 10
-373.02157
 20
275.028767
 30
0.0
 11
-373.02157
 21
-277.971881
 31
0.0
  0
LINE
  5
2F
100
AcDbEntity
  8
1
370
   100
100
AcDbLine
 10
-373.02157
 20
-277.971881
 30
0.0
 11
394.982385
 21
-277.971881
 31
0.0
  0
LINE
  5
30
100
AcDbEntity
  8
1
370
   100
100
AcDbLine
 10
394.982385
 20
-277.971881
 30
0.0
 11
394.982385
 21
275.028767
 31
0.0
  0
TEXT
  5
31
100
AcDbEntity
  8
1
370
    50
100
AcDbText
 10
359.628442
 20
-226.252857
 30
0.0
 40
6.0
  1
設計
 72
     5
 11
370.428442
 21
-226.252857
 31
0.0
100
AcDbText
  0
TEXT
  5
32
100
AcDbEntity
  8
1
370
    50
100
AcDbText
 10
379.127478
 20
-226.099658
 30
0.0
 40
6.0
  1
製図
 72
     5
 11
389.927478
 21
-226.099658
 31
0.0
100
AcDbText
  0
TEXT
  5
33
100
AcDbEntity
  8
1
370
    50
100
AcDbText
 10
319.005745
 20
-226.252857
 30
0.0
 40
6.0
  1
承認
 72
     5
 11
329.805745
 21
-226.252857
 31
0.0
100
AcDbText
  0
TEXT
  5
34
100
AcDbEntity
  8
1
370
    50
100
AcDbText
 10
338.989679
 20
-226.19802
 30
0.0
 40
6.0
  1
検図
 72
     5
 11
349.789679
 21
-226.19802
 31
0.0
100
AcDbText
  0
LINE
  5
35
100
AcDbEntity
  8
1
370
    25
100
AcDbLine
 10
284.982385
 20
-227.971881
 30
0.0
 11
394.982385
 21
-227.971881
 31
0.0
  0
LINE
  5
36
100
AcDbEntity
  8
1
370
    25
100
AcDbLine
 10
342.482385
 20
-245.971881
 30
0.0
 11
342.482385
 21
-259.971881
 31
0.0
  0
TEXT
  5
37
100
AcDbEntity
  8
1
370
    50
100
AcDbText
 10
319.55159
 20
-256.012528
 30
0.0
 40
6.0
  1
日　付
 72
     5
 11
336.35159
 21
-256.012528
 31
0.0
100
AcDbText
  0
LINE
  5
38
100
AcDbEntity
  8
1
370
    50
100
AcDbLine
 10
40.982385
 20
-259.971881
 30
0.0
 11
394.982385
 21
-259.971881
 31
0.0
  0
TEXT
  5
39
100
AcDbEntity
  8
1
370
    50
100
AcDbText
 10
287.775011
 20
-256.322406
 30
0.0
 40
6.0
  1
第三角法
 72
     5
 11
310.575011
 21
-256.322406
 31
0.0
100
AcDbText
  0
TEXT
  5
3A
100
AcDbEntity
  8
1
370
    50
100
AcDbText
 10
291.087419
 20
-225.99802
 30
0.0
 40
6.0
  1
尺　度
 72
     5
 11
307.887419
 21
-225.99802
 31
0.0
100
AcDbText
  0
LINE
  5
3B
100
AcDbEntity
  8
1
370
   100
100
AcDbLine
 10
40.982385
 20
-217.971881
 30
0.0
 11
394.982385
 21
-217.971881
 31
0.0
  0
LINE
  5
3C
100
AcDbEntity
  8
1
370
    50
100
AcDbLine
 10
211.982385
 20
-217.971881
 30
0.0
 11
211.982385
 21
-277.971881
 31
0.0
  0
LINE
  5
3D
100
AcDbEntity
  8
1
370
    25
100
AcDbLine
 10
374.982385
 20
-245.971881
 30
0.0
 11
374.982385
 21
-217.971881
 31
0.0
  0
LINE
  5
3E
100
AcDbEntity
  8
1
370
    25
100
AcDbLine
 10
354.982385
 20
-245.971881
 30
0.0
 11
354.982385
 21
-217.971881
 31
0.0
  0
LINE
  5
3F
100
AcDbEntity
  8
1
370
    25
100
AcDbLine
 10
334.982385
 20
-245.971881
 30
0.0
 11
334.982385
 21
-217.971881
 31
0.0
  0
LINE
  5
40
100
AcDbEntity
  8
1
370
    50
100
AcDbLine
 10
284.982385
 20
-277.971881
 30
0.0
 11
284.982385
 21
-217.971881
 31
0.0
  0
LINE
  5
41
100
AcDbEntity
  8
1
370
    50
100
AcDbLine
 10
189.982385
 20
-217.971881
 30
0.0
 11
189.982385
 21
-277.971881
 31
0.0
  0
LINE
  5
42
100
AcDbEntity
  8
1
370
    50
100
AcDbLine
 10
62.982385
 20
-217.971881
 30
0.0
 11
62.982385
 21
-259.971881
 31
0.0
  0
LINE
  5
43
100
AcDbEntity
  8
1
370
    50
100
AcDbLine
 10
284.982385
 20
-245.971881
 30
0.0
 11
394.982385
 21
-245.971881
 31
0.0
  0
TEXT
  5
44
100
AcDbEntity
  8
1
370
    50
100
AcDbText
 10
287.101129
 20
-271.880939
 30
0.0
 40
6.0
  1
コードＮｏ
 41
0.9
 72
     5
 11
313.021129
 21
-271.880939
 31
0.0
100
AcDbText
  0
TEXT
  5
45
100
AcDbEntity
  8
1
370
   100
100
AcDbText
 10
52.886774
 20
-272.875659
 30
0.0
 40
8.0
  1
ミズタニバルブ工業株式会社
 41
1.2
 72
     5
 11
175.766774
 21
-272.875659
 31
0.0
100
AcDbText
  0
LINE
  5
46
100
AcDbEntity
  8
1
370
    50
100
AcDbLine
 10
40.982385
 20
-238.971881
 30
0.0
 11
284.982385
 21
-238.971881
 31
0.0
  0
LINE
  5
47
100
AcDbEntity
  8
1
370
    50
100
AcDbLine
 10
115.482385
 20
-238.971881
 30
0.0
 11
115.482385
 21
-259.971881
 31
0.0
  0
LINE
  5
48
100
AcDbEntity
  8
1
370
    50
100
AcDbLine
 10
137.482385
 20
-238.971881
 30
0.0
 11
137.482385
 21
-259.971881
 31
0.0
  0
LINE
  5
49
100
AcDbEntity
  8
1
370
    50
100
AcDbLine
 10
314.982385
 20
-277.971881
 30
0.0
 11
314.982385
 21
-217.971881
 31
0.0
  0
TEXT
  5
4A
100
AcDbEntity
  8
1
370
    50
100
AcDbText
 10
345.098131
 20
-256.100293
 30
0.0
 40
6.0
  1
　　・　　・
 72
     5
 11
379.898131
 21
-256.100293
 31
0.0
100
AcDbText
  0
LINE
  5
4B
100
AcDbEntity
  8
1
370
   100
100
AcDbLine
 10
40.982385
 20
-217.971881
 30
0.0
 11
40.982385
 21
-277.971881
 31
0.0
  0
TEXT
  5
4C
100
AcDbEntity
  8
1
370
    50
100
AcDbText
 10
290.832582
 20
-240.013492
 30
0.0
 40
6.0
  1
　／ 
 72
     5
 11
301.632582
 21
-240.013492
 31
0.0
100
AcDbText
  0
TEXT
  5
4D
100
AcDbEntity
  8
1
370
    50
100
AcDbText
 10
193.904123
 20
-272.024909
 30
0.0
 40
6.0
  1
備 考 
 72
     5
 11
207.704123
 21
-272.024909
 31
0.0
100
AcDbText
  0
TEXT
  5
4E
100
AcDbEntity
  8
1
370
    50
100
AcDbText
 10
193.512534
 20
-230.89184
 30
0.0
 40
6.0
  1
仕 上
 72
     5
 11
207.312534
 21
-230.89184
 31
0.0
100
AcDbText
  0
TEXT
  5
4F
100
AcDbEntity
  8
1
370
    50
100
AcDbText
 10
193.447176
 20
-248.891666
 30
0.0
 40
6.0
  1
表 面
 72
     5
 11
207.247176
 21
-248.891666
 31
0.0
100
AcDbText
  0
TEXT
  5
50
100
AcDbEntity
  8
1
370
    50
100
AcDbText
 10
193.447176
 20
-255.891666
 30
0.0
 40
6.0
  1
処 理
 72
     5
 11
207.247176
 21
-255.891666
 31
0.0
100
AcDbText
  0
TEXT
  5
51
100
AcDbEntity
  8
1
370
    50
100
AcDbText
 10
44.79335
 20
-231.693399
 30
0.0
 40
6.0
  1
品 名
 72
     5
 11
58.59335
 21
-231.693399
 31
0.0
100
AcDbText
  0
TEXT
  5
52
100
AcDbEntity
  8
1
370
    50
100
AcDbText
 10
44.397766
 20
-252.462534
 30
0.0
 40
6.0
  1
材 質
 72
     5
 11
58.197766
 21
-252.462534
 31
0.0
100
AcDbText
  0
TEXT
  5
53
100
AcDbEntity
  8
1
370
    50
100
AcDbText
 10
118.897766
 20
-252.462534
 30
0.0
 40
6.0
  1
規 格
 72
     5
 11
132.697766
 21
-252.462534
 31
0.0
100
AcDbText
  0
LINE
  5
54
100
AcDbEntity
  8
2
370
    50
100
AcDbLine
 10
268.867154
 20
15.025622
 30
0.0
 11
268.867154
 21
10.025625
 31
0.0
  0
LINE
  5
55
100
AcDbEntity
  8
2
370
    50
100
AcDbLine
 10
214.867371
 20
-20.974814
 30
0.0
 11
248.51575
 21
-20.974814
 31
0.0
  0
ARC
  5
56
100
AcDbEntity
  8
2
370
    50
100
AcDbCircle
 10
214.867371
 20
-2.974597
 30
0.0
 40
18.000217
100
AcDbArc
 50
90.0
 51
270.0
  0
LINE
  5
57
100
AcDbEntity
  8
2
370
    50
100
AcDbLine
 10
244.867988
 20
-20.974814
 30
0.0
 11
244.867988
 21
-22.974712
 31
0.0
  0
LINE
  5
58
100
AcDbEntity
  8
2
370
    50
100
AcDbLine
 10
218.867988
 20
-20.974814
 30
0.0
 11
218.867988
 21
-22.974712
 31
0.0
  0
LINE
  5
59
100
AcDbEntity
  8
2
370
    50
100
AcDbLine
 10
252.394584
 20
-18.138507
 30
0.0
 11
249.142468
 21
-20.75406
 31
0.0
  0
ARC
  5
5A
100
AcDbEntity
  8
2
370
    50
100
AcDbCircle
 10
248.51575
 20
-19.974814
 30
0.0
 40
1.0
100
AcDbArc
 50
270.0
 51
308.808394
  0
LINE
  5
5B
100
AcDbEntity
  8
2
370
    50
100
AcDbLine
 10
218.067154
 20
15.32573
 30
0.0
 11
268.667154
 21
15.32573
 31
0.0
  0
LINE
  5
5C
100
AcDbEntity
  8
2
370
    50
100
AcDbLine
 10
267.367154
 20
15.32573
 30
0.0
 11
267.367154
 21
15.025868
 31
0.0
  0
LINE
  5
5D
100
AcDbEntity
  8
2
370
    50
100
AcDbLine
 10
219.367154
 20
15.32573
 30
0.0
 11
219.367154
 21
15.025623
 31
0.0
  0
LINE
  5
5E
100
AcDbEntity
  8
2
370
    50
100
AcDbLine
 10
217.867154
 20
15.52573
 30
0.0
 11
217.867154
 21
29.184734
 31
0.0
  0
LINE
  5
5F
100
AcDbEntity
  8
2
370
    50
100
AcDbLine
 10
268.867154
 20
15.52573
 30
0.0
 11
268.867154
 21
29.184734
 31
0.0
  0
LINE
  5
60
100
AcDbEntity
  8
2
370
    50
100
AcDbLine
 10
266.367154
 20
37.525325
 30
0.0
 11
266.367154
 21
29.825551
 31
0.0
  0
LINE
  5
61
100
AcDbEntity
  8
2
370
    50
100
AcDbLine
 10
220.367154
 20
32.171439
 30
0.0
 11
220.367154
 21
29.825551
 31
0.0
  0
LINE
  5
62
100
AcDbEntity
  8
2
370
    50
100
AcDbLine
 10
220.367154
 20
29.825551
 30
0.0
 11
218.064116
 21
29.419463
 31
0.0
  0
LINE
  5
63
100
AcDbEntity
  8
2
370
    50
100
AcDbLine
 10
266.367154
 20
29.825551
 30
0.0
 11
268.670193
 21
29.419463
 31
0.0
  0
LINE
  5
64
100
AcDbEntity
  8
2
370
    50
100
AcDbLine
 10
268.667154
 20
15.32573
 30
0.0
 11
268.867154
 21
15.52573
 31
0.0
  0
LINE
  5
65
100
AcDbEntity
  8
2
370
    50
100
AcDbLine
 10
218.067154
 20
15.32573
 30
0.0
 11
217.867154
 21
15.52573
 31
0.0
  0
ARC
  5
66
100
AcDbEntity
  8
2
370
    50
100
AcDbCircle
 10
243.367154
 20
37.525325
 30
0.0
 40
23.0
100
AcDbArc
 50
0.0
 51
9.953366
  0
LINE
  5
67
100
AcDbEntity
  8
2
370
    50
100
AcDbLine
 10
268.867154
 20
29.184734
 30
0.0
 11
268.670193
 21
29.419463
 31
0.0
  0
LINE
  5
68
100
AcDbEntity
  8
2
370
    50
100
AcDbLine
 10
217.867154
 20
29.184734
 30
0.0
 11
218.064116
 21
29.419463
 31
0.0
  0
LINE
  5
69
100
AcDbEntity
  8
2
370
    50
100
AcDbLine
 10
214.867371
 20
15.0256
 30
0.0
 11
268.867154
 21
15.025876
 31
0.0
  0
LINE
  5
6A
100
AcDbEntity
  8
2
370
    50
100
AcDbLine
 10
-141.090566
 20
32.253698
 30
0.0
 11
-194.090566
 21
32.253698
 31
0.0
  0
LINE
  5
6B
100
AcDbEntity
  8
2
370
    50
100
AcDbLine
 10
-192.558028
 20
62.844279
 30
0.0
 11
-194.090566
 21
32.253698
 31
0.0
  0
LINE
  5
6C
100
AcDbEntity
  8
2
370
    50
100
AcDbLine
 10
-142.623105
 20
62.844279
 30
0.0
 11
-141.090566
 21
32.253698
 31
0.0
  0
LINE
  5
6D
100
AcDbEntity
  8
2
370
    50
100
AcDbLine
 10
-196.590566
 20
103.173676
 30
0.0
 11
-196.590566
 21
99.4079
 31
0.0
  0
LINE
  5
6E
100
AcDbEntity
  8
2
370
    50
100
AcDbLine
 10
-138.590566
 20
103.173676
 30
0.0
 11
-138.590566
 21
99.4079
 31
0.0
  0
ARC
  5
6F
100
AcDbEntity
  8
2
370
    50
100
AcDbCircle
 10
-167.590566
 20
-416.76068
 30
0.0
 40
500.0
100
AcDbArc
 50
88.048466
 51
91.951403
  0
ARC
  5
70
100
AcDbEntity
  8
2
370
    50
100
AcDbCircle
 10
-140.590566
 20
99.4079
 30
0.0
 40
2.0
100
AcDbArc
 50
266.916867
 51
360.0
  0
ARC
  5
71
100
AcDbEntity
  8
2
370
    50
100
AcDbCircle
 10
-167.590566
 20
-401.865479
 30
0.0
 40
500.0
100
AcDbArc
 50
86.916867
 51
93.083133
  0
ARC
  5
72
100
AcDbEntity
  8
2
370
    50
100
AcDbCircle
 10
-194.590566
 20
99.4079
 30
0.0
 40
2.0
100
AcDbArc
 50
180.0
 51
273.083133
  0
ARC
  5
73
100
AcDbEntity
  8
2
370
    50
100
AcDbCircle
 10
-194.590566
 20
103.173676
 30
0.0
 40
2.0
100
AcDbArc
 50
93.107922
 51
180.0
  0
ARC
  5
74
100
AcDbEntity
  8
2
370
    50
100
AcDbCircle
 10
-167.590566
 20
-394.093858
 30
0.0
 40
500.0
100
AcDbArc
 50
86.892078
 51
93.107922
  0
ARC
  5
75
100
AcDbEntity
  8
2
370
    50
100
AcDbCircle
 10
-140.590566
 20
103.173676
 30
0.0
 40
2.0
100
AcDbArc
 50
0.0
 51
86.892078
  0
ARC
  5
76
100
AcDbEntity
  8
2
370
    50
100
AcDbCircle
 10
-167.590566
 20
-396.305684
 30
0.0
 40
500.0
100
AcDbArc
 50
86.892078
 51
93.107922
  0
ARC
  5
77
100
AcDbEntity
  8
2
370
    50
100
AcDbCircle
 10
-1684.231356
 20
-93.842123
 30
0.0
 40
1510.0
100
AcDbArc
 50
6.471945
 51
7.290578
  0
ARC
  5
78
100
AcDbEntity
  8
2
370
    50
100
AcDbCircle
 10
1349.063139
 20
-93.742261
 30
0.0
 40
1510.0
100
AcDbArc
 50
172.713243
 51
173.531817
  0
ARC
  5
79
100
AcDbEntity
  8
2
370
    50
100
AcDbCircle
 10
-140.590566
 20
100.961849
 30
0.0
 40
2.0
100
AcDbArc
 50
0.0
 51
86.892078
  0
ARC
  5
7A
100
AcDbEntity
  8
2
370
    50
100
AcDbCircle
 10
-194.590566
 20
100.961849
 30
0.0
 40
2.0
100
AcDbArc
 50
93.107922
 51
180.0
  0
LINE
  5
7B
100
AcDbEntity
  8
2
370
    50
100
AcDbLine
 10
-140.084736
 20
92.775087
 30
0.0
 11
-138.590566
 21
99.4079
 31
0.0
  0
LINE
  5
7C
100
AcDbEntity
  8
2
370
    50
100
AcDbLine
 10
-196.590566
 20
99.4079
 30
0.0
 11
-195.096397
 21
92.775087
 31
0.0
  0
LINE
  5
7D
100
AcDbEntity
  8
2
370
    25
100
AcDbLine
 10
-152.101898
 20
78.001698
 30
0.0
 11
-167.590566
 21
78.001698
 31
0.0
  0
LINE
  5
7E
100
AcDbEntity
  8
2
370
    25
100
AcDbLine
 10
-167.590566
 20
78.001698
 30
0.0
 11
-183.144348
 21
78.001698
 31
0.0
  0
LINE
  5
7F
100
AcDbEntity
  8
2
370
    50
100
AcDbLine
 10
-170.090566
 20
64.726894
 30
0.0
 11
-170.090566
 21
64.10158
 31
0.0
  0
LINE
  5
80
100
AcDbEntity
  8
2
370
    50
100
AcDbLine
 10
-165.090566
 20
64.726894
 30
0.0
 11
-165.090566
 21
64.10158
 31
0.0
  0
LINE
  5
81
100
AcDbEntity
  8
2
370
    50
100
AcDbLine
 10
-170.090566
 20
64.10158
 30
0.0
 11
-165.090566
 21
64.10158
 31
0.0
  0
LINE
  5
82
100
AcDbEntity
  8
2
370
    50
100
AcDbLine
 10
-157.590566
 20
83.13931
 30
0.0
 11
-158.532174
 21
67.262362
 31
0.0
  0
LINE
  5
83
100
AcDbEntity
  8
2
370
    50
100
AcDbLine
 10
-177.590566
 20
83.13931
 30
0.0
 11
-176.648959
 21
67.262362
 31
0.0
  0
ARC
  5
84
100
AcDbEntity
  8
2
370
    50
100
AcDbCircle
 10
-167.590566
 20
89.60158
 30
0.0
 40
25.0
100
AcDbArc
 50
251.23147
 51
288.76853
  0
ARC
  5
85
100
AcDbEntity
  8
2
370
    50
100
AcDbCircle
 10
-160.029543
 20
67.351166
 30
0.0
 40
1.5
100
AcDbArc
 50
288.76853
 51
356.605959
  0
ARC
  5
86
100
AcDbEntity
  8
2
370
    50
100
AcDbCircle
 10
-175.15159
 20
67.351166
 30
0.0
 40
1.5
100
AcDbArc
 50
183.394041
 51
251.23147
  0
ARC
  5
87
100
AcDbEntity
  8
2
370
    50
100
AcDbCircle
 10
-302.407277
 20
68.601235
 30
0.0
 40
110.0
100
AcDbArc
 50
357.0
 51
12.695072
  0
ARC
  5
88
100
AcDbEntity
  8
2
370
    50
100
AcDbCircle
 10
-32.773856
 20
68.601235
 30
0.0
 40
110.0
100
AcDbArc
 50
167.304928
 51
183.0
  0
ARC
  5
89
100
AcDbEntity
  8
2
370
    25
100
AcDbCircle
 10
-163.84485
 20
77.780852
 30
0.0
 40
12.6
100
AcDbArc
 50
325.265523
 51
336.866841
  0
ARC
  5
8A
100
AcDbEntity
  8
2
370
    50
100
AcDbCircle
 10
-163.84485
 20
77.780852
 30
0.0
 40
12.6
100
AcDbArc
 50
336.866841
 51
353.531817
  0
ARC
  5
8B
100
AcDbEntity
  8
2
370
    50
100
AcDbCircle
 10
-171.334634
 20
77.78033
 30
0.0
 40
12.6
100
AcDbArc
 50
186.471945
 51
203.130575
  0
ARC
  5
8C
100
AcDbEntity
  8
2
370
    25
100
AcDbCircle
 10
-171.334634
 20
77.78033
 30
0.0
 40
12.6
100
AcDbArc
 50
203.130575
 51
214.731586
  0
LINE
  5
8D
100
AcDbEntity
  8
2
370
    50
100
AcDbLine
 10
-167.590566
 20
83.23932
 30
0.0
 11
-167.590566
 21
64.60158
 31
0.0
  0
ARC
  5
8E
100
AcDbEntity
  8
2
370
    50
100
AcDbCircle
 10
-75.16416
 20
-45.401491
 30
0.0
 40
23.0
100
AcDbArc
 50
177.234583
 51
92.765417
  0
POINT
  5
8F
100
AcDbEntity
  8
2
370
    50
100
AcDbPoint
 10
-75.16416
 20
-45.401491
 30
0.0
  0
CIRCLE
  5
90
100
AcDbEntity
  8
2
370
    50
100
AcDbCircle
 10
-75.16416
 20
-45.401491
 30
0.0
 40
16.4
  0
CIRCLE
  5
91
100
AcDbEntity
  8
2
370
    50
100
AcDbCircle
 10
-75.16416
 20
-45.401491
 30
0.0
 40
4.425
  0
LINE
  5
92
100
AcDbEntity
  8
2
370
    50
100
AcDbLine
 10
-78.919268
 20
-47.742386
 30
0.0
 11
-72.823265
 21
-41.646383
 31
0.0
  0
LINE
  5
93
100
AcDbEntity
  8
2
370
    50
100
AcDbLine
 10
-77.505054
 20
-49.1566
 30
0.0
 11
-71.409051
 21
-43.060597
 31
0.0
  0
CIRCLE
  5
94
100
AcDbEntity
  8
2
370
    50
100
AcDbCircle
 10
-75.16416
 20
-45.401491
 30
0.0
 40
11.5
  0
LINE
  5
95
100
AcDbEntity
  8
2
370
    50
100
AcDbLine
 10
-86.46425
 20
-43.266553
 30
0.0
 11
-77.299098
 21
-34.101401
 31
0.0
  0
LINE
  5
96
100
AcDbEntity
  8
2
370
    50
100
AcDbLine
 10
-73.029221
 20
-56.701581
 30
0.0
 11
-63.864069
 21
-47.53643
 31
0.0
  0
CIRCLE
  5
97
100
AcDbEntity
  8
2
370
    50
100
AcDbCircle
 10
-75.16416
 20
-45.401491
 30
0.0
 40
13.8
  0
CIRCLE
  5
98
100
AcDbEntity
  8
2
370
    50
100
AcDbCircle
 10
-75.16416
 20
-45.401491
 30
0.0
 40
15.4
  0
LINE
  5
99
100
AcDbEntity
  8
2
370
    50
100
AcDbLine
 10
-118.949573
 20
-20.974943
 30
0.0
 11
-87.399215
 21
-56.322271
 31
0.0
  0
LINE
  5
9A
100
AcDbEntity
  8
2
370
    50
100
AcDbLine
 10
-102.611276
 20
1.080024
 30
0.0
 11
-64.24338
 21
-33.166436
 31
0.0
  0
LINE
  5
9B
100
AcDbEntity
  8
2
370
    50
100
AcDbLine
 10
-167.590566
 20
15.024893
 30
0.0
 11
-230.090566
 21
15.024893
 31
0.0
  0
LINE
  5
9C
100
AcDbEntity
  8
2
370
    50
100
AcDbLine
 10
-231.090566
 20
14.024893
 30
0.0
 11
-231.090566
 21
-19.975147
 31
0.0
  0
LINE
  5
9D
100
AcDbEntity
  8
2
370
    50
100
AcDbLine
 10
-167.590566
 20
15.024569
 30
0.0
 11
-105.090566
 21
15.024569
 31
0.0
  0
LINE
  5
9E
100
AcDbEntity
  8
2
370
    50
100
AcDbLine
 10
-104.090566
 20
-19.975147
 30
0.0
 11
-104.090566
 21
14.024569
 31
0.0
  0
ARC
  5
9F
100
AcDbEntity
  8
2
370
    50
100
AcDbCircle
 10
-105.090566
 20
14.024569
 30
0.0
 40
1.0
100
AcDbArc
 50
0.0
 51
90.0
  0
ARC
  5
A0
100
AcDbEntity
  8
2
370
    50
100
AcDbCircle
 10
-105.090566
 20
-19.975147
 30
0.0
 40
1.0
100
AcDbArc
 50
270.0
 51
360.0
  0
ARC
  5
A1
100
AcDbEntity
  8
2
370
    50
100
AcDbCircle
 10
-230.090566
 20
14.024893
 30
0.0
 40
1.0
100
AcDbArc
 50
90.0
 51
180.0
  0
ARC
  5
A2
100
AcDbEntity
  8
2
370
    50
100
AcDbCircle
 10
-230.090566
 20
-19.975147
 30
0.0
 40
1.0
100
AcDbArc
 50
180.0
 51
270.0
  0
POINT
  5
A3
100
AcDbEntity
  8
2
370
    50
100
AcDbPoint
 10
-117.590566
 20
-2.975084
 30
0.0
  0
POINT
  5
A4
100
AcDbEntity
  8
2
370
    50
100
AcDbPoint
 10
-217.590566
 20
-2.975084
 30
0.0
  0
LINE
  5
A5
100
AcDbEntity
  8
2
370
    50
100
AcDbLine
 10
-192.890566
 20
15.324893
 30
0.0
 11
-142.290566
 21
15.324893
 31
0.0
  0
LINE
  5
A6
100
AcDbEntity
  8
2
370
    50
100
AcDbLine
 10
-143.590566
 20
15.324893
 30
0.0
 11
-143.590566
 21
15.024569
 31
0.0
  0
LINE
  5
A7
100
AcDbEntity
  8
2
370
    50
100
AcDbLine
 10
-191.590566
 20
15.324893
 30
0.0
 11
-191.590566
 21
15.024893
 31
0.0
  0
LINE
  5
A8
100
AcDbEntity
  8
2
370
    50
100
AcDbLine
 10
-193.090566
 20
15.524893
 30
0.0
 11
-193.090566
 21
29.183897
 31
0.0
  0
LINE
  5
A9
100
AcDbEntity
  8
2
370
    50
100
AcDbLine
 10
-142.090566
 20
15.524893
 30
0.0
 11
-142.090566
 21
29.183897
 31
0.0
  0
LINE
  5
AA
100
AcDbEntity
  8
2
370
    50
100
AcDbLine
 10
-144.590566
 20
32.25406
 30
0.0
 11
-144.590566
 21
29.824715
 31
0.0
  0
LINE
  5
AB
100
AcDbEntity
  8
2
370
    50
100
AcDbLine
 10
-190.590566
 20
32.25406
 30
0.0
 11
-190.590566
 21
29.824715
 31
0.0
  0
LINE
  5
AC
100
AcDbEntity
  8
2
370
    50
100
AcDbLine
 10
-190.590566
 20
29.824715
 30
0.0
 11
-192.893605
 21
29.418627
 31
0.0
  0
LINE
  5
AD
100
AcDbEntity
  8
2
370
    50
100
AcDbLine
 10
-144.590566
 20
29.824715
 30
0.0
 11
-142.287528
 21
29.418627
 31
0.0
  0
LINE
  5
AE
100
AcDbEntity
  8
2
370
    50
100
AcDbLine
 10
-142.290566
 20
15.324893
 30
0.0
 11
-142.090566
 21
15.524893
 31
0.0
  0
LINE
  5
AF
100
AcDbEntity
  8
2
370
    50
100
AcDbLine
 10
-192.890566
 20
15.324893
 30
0.0
 11
-193.090566
 21
15.524893
 31
0.0
  0
LINE
  5
B0
100
AcDbEntity
  8
2
370
    50
100
AcDbLine
 10
-142.090566
 20
29.183897
 30
0.0
 11
-142.287528
 21
29.418627
 31
0.0
  0
LINE
  5
B1
100
AcDbEntity
  8
2
370
    50
100
AcDbLine
 10
-193.090566
 20
29.183897
 30
0.0
 11
-192.893605
 21
29.418627
 31
0.0
  0
LINE
  5
B2
100
AcDbEntity
  8
2
370
    25
100
AcDbLine
 10
-144.590566
 20
29.824715
 30
0.0
 11
-190.590566
 21
29.824715
 31
0.0
  0
LINE
  5
B3
100
AcDbEntity
  8
2
370
    25
100
AcDbLine
 10
-142.090566
 20
29.183897
 30
0.0
 11
-193.090566
 21
29.183897
 31
0.0
  0
LINE
  5
B4
100
AcDbEntity
  8
2
370
    50
100
AcDbLine
 10
-142.090566
 20
15.524893
 30
0.0
 11
-193.090566
 21
15.524893
 31
0.0
  0
ARC
  5
B5
100
AcDbEntity
  8
2
370
    50
100
AcDbCircle
 10
-260.016973
 20
-45.401491
 30
0.0
 40
23.0
100
AcDbArc
 50
87.234583
 51
2.765417
  0
POINT
  5
B6
100
AcDbEntity
  8
2
370
    50
100
AcDbPoint
 10
-260.016973
 20
-45.401491
 30
0.0
  0
CIRCLE
  5
B7
100
AcDbEntity
  8
2
370
    50
100
AcDbCircle
 10
-260.016973
 20
-45.401491
 30
0.0
 40
16.4
  0
CIRCLE
  5
B8
100
AcDbEntity
  8
2
370
    50
100
AcDbCircle
 10
-260.016973
 20
-45.401491
 30
0.0
 40
4.425
  0
LINE
  5
B9
100
AcDbEntity
  8
2
370
    50
100
AcDbLine
 10
-256.261865
 20
-47.742386
 30
0.0
 11
-262.357868
 21
-41.646383
 31
0.0
  0
LINE
  5
BA
100
AcDbEntity
  8
2
370
    50
100
AcDbLine
 10
-257.676079
 20
-49.1566
 30
0.0
 11
-263.772082
 21
-43.060597
 31
0.0
  0
CIRCLE
  5
BB
100
AcDbEntity
  8
2
370
    50
100
AcDbCircle
 10
-260.016973
 20
-45.401491
 30
0.0
 40
11.5
  0
LINE
  5
BC
100
AcDbEntity
  8
2
370
    50
100
AcDbLine
 10
-248.716883
 20
-43.266553
 30
0.0
 11
-257.882035
 21
-34.101401
 31
0.0
  0
LINE
  5
BD
100
AcDbEntity
  8
2
370
    50
100
AcDbLine
 10
-262.151912
 20
-56.701581
 30
0.0
 11
-271.317063
 21
-47.53643
 31
0.0
  0
CIRCLE
  5
BE
100
AcDbEntity
  8
2
370
    50
100
AcDbCircle
 10
-260.016973
 20
-45.401491
 30
0.0
 40
13.8
  0
CIRCLE
  5
BF
100
AcDbEntity
  8
2
370
    50
100
AcDbCircle
 10
-260.016973
 20
-45.401491
 30
0.0
 40
15.4
  0
LINE
  5
C0
100
AcDbEntity
  8
2
370
    50
100
AcDbLine
 10
-216.23156
 20
-20.974943
 30
0.0
 11
-247.781918
 21
-56.322271
 31
0.0
  0
LINE
  5
C1
100
AcDbEntity
  8
2
370
    50
100
AcDbLine
 10
-232.569857
 20
1.080024
 30
0.0
 11
-270.937753
 21
-33.166436
 31
0.0
  0
LINE
  5
C2
100
AcDbEntity
  8
2
370
    50
100
AcDbLine
 10
-233.36483
 20
-0.29691
 30
0.0
 11
-231.090566
 21
3.64223
 31
0.0
  0
LINE
  5
C3
100
AcDbEntity
  8
2
370
    50
100
AcDbLine
 10
-231.090566
 20
-9.592399
 30
0.0
 11
-233.36483
 21
-5.653259
 31
0.0
  0
ARC
  5
C4
100
AcDbEntity
  8
2
370
    50
100
AcDbCircle
 10
-217.590566
 20
-2.975084
 30
0.0
 40
16.0
100
AcDbArc
 50
170.364135
 51
189.635865
  0
ARC
  5
C5
100
AcDbEntity
  8
2
370
    50
100
AcDbCircle
 10
-217.590566
 20
-2.975084
 30
0.0
 40
14.55
100
AcDbArc
 50
158.099815
 51
201.900185
  0
LINE
  5
C6
100
AcDbEntity
  8
2
370
    50
100
AcDbLine
 10
-101.816303
 20
-0.29691
 30
0.0
 11
-104.090566
 21
3.64223
 31
0.0
  0
LINE
  5
C7
100
AcDbEntity
  8
2
370
    50
100
AcDbLine
 10
-104.090566
 20
-9.592399
 30
0.0
 11
-101.816303
 21
-5.653259
 31
0.0
  0
ARC
  5
C8
100
AcDbEntity
  8
2
370
    50
100
AcDbCircle
 10
-117.590566
 20
-2.975084
 30
0.0
 40
16.0
100
AcDbArc
 50
350.364135
 51
9.635865
  0
ARC
  5
C9
100
AcDbEntity
  8
2
370
    50
100
AcDbCircle
 10
-117.590566
 20
-2.975084
 30
0.0
 40
14.55
100
AcDbArc
 50
338.099815
 51
21.900185
  0
LINE
  5
CA
100
AcDbEntity
  8
2
370
    50
100
AcDbLine
 10
340.366575
 20
-72.574375
 30
0.0
 11
340.366575
 21
-53.374375
 31
0.0
  0
LINE
  5
CB
100
AcDbEntity
  8
2
370
    50
100
AcDbLine
 10
339.466575
 20
-52.474375
 30
0.0
 11
318.866903
 21
-52.474375
 31
0.0
  0
LINE
  5
CC
100
AcDbEntity
  8
2
370
    50
100
AcDbLine
 10
339.466575
 20
-73.474375
 30
0.0
 11
318.866903
 21
-73.474375
 31
0.0
  0
LINE
  5
CD
100
AcDbEntity
  8
2
370
    25
100
AcDbLine
 10
340.366575
 20
-53.374375
 30
0.0
 11
318.866903
 21
-53.374375
 31
0.0
  0
LINE
  5
CE
100
AcDbEntity
  8
2
370
    25
100
AcDbLine
 10
340.366575
 20
-72.574375
 30
0.0
 11
318.866903
 21
-72.574375
 31
0.0
  0
LINE
  5
CF
100
AcDbEntity
  8
2
370
    50
100
AcDbLine
 10
340.366575
 20
-72.574375
 30
0.0
 11
339.466575
 21
-73.474375
 31
0.0
  0
LINE
  5
D0
100
AcDbEntity
  8
2
370
    50
100
AcDbLine
 10
340.366575
 20
-53.374375
 30
0.0
 11
339.466575
 21
-52.474375
 31
0.0
  0
LINE
  5
D1
100
AcDbEntity
  8
2
370
    50
100
AcDbLine
 10
318.866903
 20
-85.94278
 30
0.0
 11
315.508023
 21
-85.94278
 31
0.0
  0
LINE
  5
D2
100
AcDbEntity
  8
2
370
    50
100
AcDbLine
 10
318.866903
 20
-39.94278
 30
0.0
 11
318.866903
 21
-85.94278
 31
0.0
  0
ARC
  5
D3
100
AcDbEntity
  8
2
370
    50
100
AcDbCircle
 10
310.866903
 20
-76.44278
 30
0.0
 40
2.0
100
AcDbArc
 50
180.0
 51
204.670512
  0
LINE
  5
D4
100
AcDbEntity
  8
2
370
    50
100
AcDbLine
 10
314.5993
 20
-85.36018
 30
0.0
 11
309.049457
 21
-77.277579
 31
0.0
  0
ARC
  5
D5
100
AcDbEntity
  8
2
370
    50
100
AcDbCircle
 10
310.866903
 20
-49.44278
 30
0.0
 40
2.0
100
AcDbArc
 50
155.329488
 51
180.0
  0
LINE
  5
D6
100
AcDbEntity
  8
2
370
    50
100
AcDbLine
 10
314.5993
 20
-40.525381
 30
0.0
 11
309.049457
 21
-48.607981
 31
0.0
  0
ARC
  5
D7
100
AcDbEntity
  8
2
370
    50
100
AcDbCircle
 10
315.508023
 20
-84.94278
 30
0.0
 40
1.0
100
AcDbArc
 50
204.670512
 51
270.0
  0
LINE
  5
D8
100
AcDbEntity
  8
2
370
    50
100
AcDbLine
 10
307.666903
 20
-76.14278
 30
0.0
 11
307.666903
 21
-47.44278
 31
0.0
  0
LINE
  5
D9
100
AcDbEntity
  8
2
370
    50
100
AcDbLine
 10
308.866903
 20
-76.14278
 30
0.0
 11
308.866903
 21
-47.44278
 31
0.0
  0
LINE
  5
DA
100
AcDbEntity
  8
2
370
    50
100
AcDbLine
 10
308.866903
 20
-47.44278
 30
0.0
 11
307.666903
 21
-47.44278
 31
0.0
  0
LINE
  5
DB
100
AcDbEntity
  8
2
370
    50
100
AcDbLine
 10
308.866903
 20
-76.14278
 30
0.0
 11
307.666903
 21
-76.14278
 31
0.0
  0
LINE
  5
DC
100
AcDbEntity
  8
2
370
    50
100
AcDbLine
 10
304.866903
 20
-78.37478
 30
0.0
 11
304.866903
 21
-47.54278
 31
0.0
  0
LINE
  5
DD
100
AcDbEntity
  8
2
370
    50
100
AcDbLine
 10
314.5993
 20
-40.525381
 30
0.0
 11
309.049457
 21
-48.607981
 31
0.0
  0
LINE
  5
DE
100
AcDbEntity
  8
2
370
    50
100
AcDbLine
 10
268.366903
 20
-51.44278
 30
0.0
 11
274.366903
 21
-51.44278
 31
0.0
  0
LINE
  5
DF
100
AcDbEntity
  8
2
370
    50
100
AcDbLine
 10
268.366903
 20
-74.44278
 30
0.0
 11
274.366903
 21
-74.44278
 31
0.0
  0
LINE
  5
E0
100
AcDbEntity
  8
2
370
    50
100
AcDbLine
 10
266.866903
 20
-58.51778
 30
0.0
 11
267.366903
 21
-58.51778
 31
0.0
  0
LINE
  5
E1
100
AcDbEntity
  8
2
370
    50
100
AcDbLine
 10
266.866903
 20
-67.36778
 30
0.0
 11
267.366903
 21
-67.36778
 31
0.0
  0
LINE
  5
E2
100
AcDbEntity
  8
2
370
    50
100
AcDbLine
 10
265.866903
 20
-61.94278
 30
0.0
 11
267.366903
 21
-61.94278
 31
0.0
  0
LINE
  5
E3
100
AcDbEntity
  8
2
370
    50
100
AcDbLine
 10
265.866903
 20
-63.94278
 30
0.0
 11
267.366903
 21
-63.94278
 31
0.0
  0
LINE
  5
E4
100
AcDbEntity
  8
2
370
    50
100
AcDbLine
 10
265.866903
 20
-59.51778
 30
0.0
 11
266.866903
 21
-58.51778
 31
0.0
  0
LINE
  5
E5
100
AcDbEntity
  8
2
370
    50
100
AcDbLine
 10
265.866903
 20
-66.36778
 30
0.0
 11
266.866903
 21
-67.36778
 31
0.0
  0
LINE
  5
E6
100
AcDbEntity
  8
2
370
    50
100
AcDbLine
 10
265.866903
 20
-66.36778
 30
0.0
 11
265.866903
 21
-63.94278
 31
0.0
  0
LINE
  5
E7
100
AcDbEntity
  8
2
370
    50
100
AcDbLine
 10
265.866903
 20
-61.94278
 30
0.0
 11
265.866903
 21
-59.51778
 31
0.0
  0
LINE
  5
E8
100
AcDbEntity
  8
2
370
    50
100
AcDbLine
 10
267.366903
 20
-73.44278
 30
0.0
 11
267.366903
 21
-52.44278
 31
0.0
  0
ARC
  5
E9
100
AcDbEntity
  8
2
370
    50
100
AcDbCircle
 10
268.366903
 20
-52.44278
 30
0.0
 40
1.0
100
AcDbArc
 50
90.0
 51
180.0
  0
ARC
  5
EA
100
AcDbEntity
  8
2
370
    50
100
AcDbCircle
 10
268.366903
 20
-73.44278
 30
0.0
 40
1.0
100
AcDbArc
 50
180.0
 51
270.0
  0
LINE
  5
EB
100
AcDbEntity
  8
2
370
    50
100
AcDbLine
 10
299.166903
 20
-62.94278
 30
0.0
 11
299.166903
 21
8.025625
 31
0.0
  0
LINE
  5
EC
100
AcDbEntity
  8
2
370
    50
100
AcDbLine
 10
275.366903
 20
-79.37478
 30
0.0
 11
303.866903
 21
-79.37478
 31
0.0
  0
LINE
  5
ED
100
AcDbEntity
  8
2
370
    50
100
AcDbLine
 10
275.366903
 20
-46.54278
 30
0.0
 11
274.366903
 21
-47.54278
 31
0.0
  0
LINE
  5
EE
100
AcDbEntity
  8
2
370
    50
100
AcDbLine
 10
274.366903
 20
-78.37478
 30
0.0
 11
275.366903
 21
-79.37478
 31
0.0
  0
LINE
  5
EF
100
AcDbEntity
  8
2
370
    50
100
AcDbLine
 10
304.866903
 20
-47.54278
 30
0.0
 11
303.866903
 21
-46.54278
 31
0.0
  0
LINE
  5
F0
100
AcDbEntity
  8
2
370
    50
100
AcDbLine
 10
303.866903
 20
-79.37478
 30
0.0
 11
304.866903
 21
-78.37478
 31
0.0
  0
LINE
  5
F1
100
AcDbEntity
  8
2
370
    50
100
AcDbLine
 10
275.366903
 20
-46.54278
 30
0.0
 11
276.366903
 21
-46.54278
 31
0.0
  0
LINE
  5
F2
100
AcDbEntity
  8
2
370
    50
100
AcDbLine
 10
300.166903
 20
-46.54278
 30
0.0
 11
303.866903
 21
-46.54278
 31
0.0
  0
LINE
  5
F3
100
AcDbEntity
  8
2
370
    50
100
AcDbLine
 10
277.366903
 20
-17.974375
 30
0.0
 11
277.366903
 21
-62.94278
 31
0.0
  0
ARC
  5
F4
100
AcDbEntity
  8
2
370
    50
100
AcDbCircle
 10
276.366903
 20
-45.54278
 30
0.0
 40
1.0
100
AcDbArc
 50
270.0
 51
360.0
  0
ARC
  5
F5
100
AcDbEntity
  8
2
370
    50
100
AcDbCircle
 10
300.166903
 20
-45.54278
 30
0.0
 40
1.0
100
AcDbArc
 50
180.0
 51
270.0
  0
LINE
  5
F6
100
AcDbEntity
  8
2
370
    50
100
AcDbLine
 10
274.366903
 20
-78.37478
 30
0.0
 11
274.366903
 21
-47.54278
 31
0.0
  0
LINE
  5
F7
100
AcDbEntity
  8
2
370
    50
100
AcDbLine
 10
304.866903
 20
-51.54278
 30
0.0
 11
307.466903
 21
-51.54278
 31
0.0
  0
LINE
  5
F8
100
AcDbEntity
  8
2
370
    50
100
AcDbLine
 10
304.866903
 20
-74.34278
 30
0.0
 11
307.466903
 21
-74.34278
 31
0.0
  0
LINE
  5
F9
100
AcDbEntity
  8
2
370
    50
100
AcDbLine
 10
307.466903
 20
-74.34278
 30
0.0
 11
307.666903
 21
-74.14278
 31
0.0
  0
LINE
  5
FA
100
AcDbEntity
  8
2
370
    50
100
AcDbLine
 10
307.466903
 20
-51.54278
 30
0.0
 11
307.666903
 21
-51.74278
 31
0.0
  0
LINE
  5
FB
100
AcDbEntity
  8
2
370
    50
100
AcDbLine
 10
303.866903
 20
-46.54278
 30
0.0
 11
303.866903
 21
-79.37478
 31
0.0
  0
LINE
  5
FC
100
AcDbEntity
  8
2
370
    50
100
AcDbLine
 10
275.366903
 20
-46.54278
 30
0.0
 11
275.366903
 21
-79.37478
 31
0.0
  0
LINE
  5
FD
100
AcDbEntity
  8
2
370
    50
100
AcDbLine
 10
308.866903
 20
-49.44278
 30
0.0
 11
308.866903
 21
-76.44278
 31
0.0
  0
LINE
  5
FE
100
AcDbEntity
  8
2
370
    25
100
AcDbLine
 10
339.466575
 20
-52.474375
 30
0.0
 11
339.466575
 21
-73.474375
 31
0.0
  0
LINE
  5
FF
100
AcDbEntity
  8
2
370
    50
100
AcDbLine
 10
314.999337
 20
-40.682062
 30
0.0
 11
314.999337
 21
-85.102671
 31
0.0
  0
LINE
  5
100
100
AcDbEntity
  8
2
370
    50
100
AcDbLine
 10
272.866903
 20
-69.42328
 30
0.0
 11
272.866903
 21
-56.46228
 31
0.0
  0
LINE
  5
101
100
AcDbEntity
  8
2
370
    50
100
AcDbLine
 10
267.366903
 20
-56.46228
 30
0.0
 11
272.866903
 21
-56.46228
 31
0.0
  0
LINE
  5
102
100
AcDbEntity
  8
2
370
    50
100
AcDbLine
 10
267.366903
 20
-69.42328
 30
0.0
 11
272.866903
 21
-69.42328
 31
0.0
  0
LINE
  5
103
100
AcDbEntity
  8
2
370
    50
100
AcDbLine
 10
248.367154
 20
7.525625
 30
0.0
 11
250.367154
 21
7.525625
 31
0.0
  0
LINE
  5
104
100
AcDbEntity
  8
2
370
    50
100
AcDbLine
 10
248.367154
 20
-13.474375
 30
0.0
 11
250.367154
 21
-13.474375
 31
0.0
  0
LINE
  5
105
100
AcDbEntity
  8
2
370
    50
100
AcDbLine
 10
250.367154
 20
-17.224375
 30
0.0
 11
250.367154
 21
11.275625
 31
0.0
  0
ARC
  5
106
100
AcDbEntity
  8
2
370
    50
100
AcDbCircle
 10
257.117154
 20
-0.989672
 30
0.0
 40
14.0
100
AcDbArc
 50
61.174551
 51
118.825449
  0
LINE
  5
107
100
AcDbEntity
  8
2
370
    50
100
AcDbLine
 10
263.867154
 20
-17.224375
 30
0.0
 11
263.867154
 21
11.275625
 31
0.0
  0
ARC
  5
108
100
AcDbEntity
  8
2
370
    50
100
AcDbCircle
 10
257.117154
 20
-4.959079
 30
0.0
 40
14.0
100
AcDbArc
 50
241.174551
 51
298.825449
  0
POINT
  5
109
100
AcDbEntity
  8
2
370
    50
100
AcDbPoint
 10
267.366903
 20
-62.974375
 30
0.0
  0
LINE
  5
10A
100
AcDbEntity
  8
2
370
    50
100
AcDbLine
 10
263.867154
 20
10.025625
 30
0.0
 11
297.166903
 21
10.025625
 31
0.0
  0
ARC
  5
10B
100
AcDbEntity
  8
2
370
    50
100
AcDbCircle
 10
297.166903
 20
8.025625
 30
0.0
 40
2.0
100
AcDbArc
 50
360.0
 51
90.0
  0
LINE
  5
10C
100
AcDbEntity
  8
2
370
    50
100
AcDbLine
 10
275.366903
 20
-15.974375
 30
0.0
 11
263.867154
 21
-15.974375
 31
0.0
  0
ARC
  5
10D
100
AcDbEntity
  8
2
370
    50
100
AcDbCircle
 10
275.366903
 20
-17.974375
 30
0.0
 40
2.0
100
AcDbArc
 50
360.0
 51
90.0
  0
LINE
  5
10E
100
AcDbEntity
  8
2
370
    50
100
AcDbLine
 10
264.366903
 20
-15.074375
 30
0.0
 11
265.925748
 21
-15.974375
 31
0.0
  0
LINE
  5
10F
100
AcDbEntity
  8
2
370
    50
100
AcDbLine
 10
264.366903
 20
9.125625
 30
0.0
 11
265.925748
 21
10.025625
 31
0.0
  0
LINE
  5
110
100
AcDbEntity
  8
2
370
    25
100
AcDbLine
 10
264.366903
 20
9.125625
 30
0.0
 11
263.867154
 21
9.125625
 31
0.0
  0
LINE
  5
111
100
AcDbEntity
  8
2
370
    25
100
AcDbLine
 10
264.366903
 20
-15.074375
 30
0.0
 11
263.867154
 21
-15.074375
 31
0.0
  0
LINE
  5
112
100
AcDbEntity
  8
2
370
    50
100
AcDbLine
 10
264.366903
 20
-15.074375
 30
0.0
 11
264.366903
 21
9.125625
 31
0.0
  0
ELLIPSE
  5
113
100
AcDbEntity
  8
2
370
    50
100
AcDbEllipse
 10
257.117154
 20
-15.964509
 30
0.0
 11
4.25
 21
0.0
 31
0.0
210
0.0
220
0.0
230
1.0
 40
0.655059
 41
0.0
 42
6.2831849999999996
  0
ELLIPSE
  5
114
100
AcDbEntity
  8
2
370
    50
100
AcDbEllipse
 10
257.117154
 20
-2.974128
 30
0.0
 11
0.0
 21
-5.5679999999999996
 31
0.0
210
0.0
220
0.0
230
1.0
 40
0.76329
 41
0.0
 42
6.2831849999999996
  0
ELLIPSE
  5
115
100
AcDbEntity
  8
2
370
    50
100
AcDbEllipse
 10
257.117154
 20
10.016253
 30
0.0
 11
-4.25
 21
0.0
 31
0.0
210
0.0
220
0.0
230
1.0
 40
0.655059
 41
0.0
 42
6.2831849999999996
  0
LINE
  5
116
100
AcDbEntity
  8
2
370
    25
100
AcDbLine
 10
266.116425
 20
29.825551
 30
0.0
 11
220.891373
 21
29.825551
 31
0.0
  0
LINE
  5
117
100
AcDbEntity
  8
2
370
    25
100
AcDbLine
 10
267.678406
 20
29.384734
 30
0.0
 11
219.045441
 21
29.384734
 31
0.0
  0
LINE
  5
118
100
AcDbEntity
  8
2
370
    50
100
AcDbLine
 10
268.867154
 20
15.52573
 30
0.0
 11
217.867154
 21
15.52573
 31
0.0
  0
LINE
  5
119
100
AcDbEntity
  8
2
370
    50
100
AcDbLine
 10
248.367154
 20
-20.974814
 30
0.0
 11
248.367154
 21
15.025771
 31
0.0
  0
POINT
  5
11A
100
AcDbEntity
  8
2
370
    50
100
AcDbPoint
 10
248.367154
 20
-2.974128
 30
0.0
  0
LINE
  5
11B
100
AcDbEntity
  8
2
370
    50
100
AcDbLine
 10
318.866903
 20
-40.00597
 30
0.0
 11
315.508023
 21
-40.00597
 31
0.0
  0
ARC
  5
11C
100
AcDbEntity
  8
2
370
    50
100
AcDbCircle
 10
315.508023
 20
-41.00597
 30
0.0
 40
1.0
100
AcDbArc
 50
90.0
 51
155.329488
  0
LINE
  5
11D
100
AcDbEntity
  8
2
370
    50
100
AcDbLine
 10
-230.090566
 20
-20.975147
 30
0.0
 11
-105.090566
 21
-20.975147
 31
0.0
  0
POINT
  5
11E
100
AcDbEntity
  8
2
370
    50
100
AcDbPoint
 10
243.367154
 20
34.725746
 30
0.0
  0
ARC
  5
11F
100
AcDbEntity
  8
2
370
    50
100
AcDbCircle
 10
40.001229
 20
-394.40226
 30
0.0
 40
500.0
100
AcDbArc
 50
70.266103
 51
78.450142
  0
LINE
  5
120
100
AcDbEntity
  8
2
370
    50
100
AcDbLine
 10
242.129769
 20
31.791571
 30
0.0
 11
215.928569
 21
32.248915
 31
0.0
  0
LINE
  5
121
100
AcDbEntity
  8
2
370
    50
100
AcDbLine
 10
244.007413
 20
32.156548
 30
0.0
 11
268.130128
 21
42.396033
 31
0.0
  0
ARC
  5
122
100
AcDbEntity
  8
2
370
    50
100
AcDbCircle
 10
268.012909
 20
42.672184
 30
0.0
 40
0.3
100
AcDbArc
 50
293.0
 51
1.579148
  0
ARC
  5
123
100
AcDbEntity
  8
2
370
    50
100
AcDbCircle
 10
265.318389
 20
60.579841
 30
0.0
 40
2.5
100
AcDbArc
 50
1.579148
 51
53.184173
  0
ARC
  5
124
100
AcDbEntity
  8
2
370
    50
100
AcDbCircle
 10
228.501651
 20
78.594344
 30
0.0
 40
3.0
100
AcDbArc
 50
69.470338
 51
97.744647
  0
ARC
  5
125
100
AcDbEntity
  8
2
370
    50
100
AcDbCircle
 10
242.21005
 20
36.39087
 30
0.0
 40
4.6
100
AcDbArc
 50
269.0
 51
293.0
  0
LINE
  5
126
100
AcDbEntity
  8
2
370
    50
100
AcDbLine
 10
268.312795
 20
42.680452
 30
0.0
 11
267.81744
 21
60.648735
 31
0.0
  0
ARC
  5
127
100
AcDbEntity
  8
2
370
    50
100
AcDbCircle
 10
149.219179
 20
-3.623595
 30
0.0
 40
110.0
100
AcDbArc
 50
95.299884
 51
101.319359
  0
LINE
  5
128
100
AcDbEntity
  8
2
370
    50
100
AcDbLine
 10
125.327503
 20
101.025296
 30
0.0
 11
125.704536
 21
102.432405
 31
0.0
  0
ARC
  5
129
100
AcDbEntity
  8
2
370
    50
100
AcDbCircle
 10
40.001229
 20
-394.40226
 30
0.0
 40
500.0
100
AcDbArc
 50
78.450142
 51
79.944087
  0
ARC
  5
12A
100
AcDbEntity
  8
2
370
    50
100
AcDbCircle
 10
200.899576
 20
-25.48099
 30
0.0
 40
110.0
100
AcDbArc
 50
53.184173
 51
67.905627
  0
ARC
  5
12B
100
AcDbEntity
  8
2
370
    50
100
AcDbCircle
 10
149.18088
 20
118.304775
 30
0.0
 40
16.0
100
AcDbArc
 50
230.771799
 51
258.85705
  0
LINE
  5
12C
100
AcDbEntity
  8
2
370
    50
100
AcDbLine
 10
223.150895
 20
80.894264
 30
0.0
 11
228.097375
 21
81.566979
 31
0.0
  0
ARC
  5
12D
100
AcDbEntity
  8
2
370
    50
100
AcDbCircle
 10
49.460004
 20
-387.967629
 30
0.0
 40
500.0
100
AcDbArc
 50
69.672743
 51
78.85705
  0
ARC
  5
12E
100
AcDbEntity
  8
2
370
    50
100
AcDbCircle
 10
54.2076
 20
-386.841564
 30
0.0
 40
500.0
100
AcDbArc
 50
67.905627
 51
69.470338
  0
ARC
  5
12F
100
AcDbEntity
  8
2
370
    50
100
AcDbCircle
 10
128.119351
 20
101.785358
 30
0.0
 40
2.5
100
AcDbArc
 50
101.319359
 51
165.0
  0
ARC
  5
130
100
AcDbEntity
  8
2
370
    50
100
AcDbCircle
 10
127.742317
 20
100.378248
 30
0.0
 40
2.5
100
AcDbArc
 50
165.0
 51
259.944087
  0
LINE
  5
131
100
AcDbEntity
  8
2
370
    50
100
AcDbLine
 10
242.130152
 20
31.791564
 30
0.0
 11
231.863055
 21
54.851842
 31
0.0
  0
ARC
  5
132
100
AcDbEntity
  8
2
370
    50
100
AcDbCircle
 10
195.321236
 20
38.582376
 30
0.0
 40
40.0
100
AcDbArc
 50
24.0
 51
70.266103
  0
LINE
  5
133
100
AcDbEntity
  8
2
370
    50
100
AcDbLine
 10
215.633805
 20
32.548869
 30
0.0
 11
215.633805
 21
63.224417
 31
0.0
  0
ARC
  5
134
100
AcDbEntity
  8
2
370
    50
100
AcDbCircle
 10
200.633805
 20
63.224417
 30
0.0
 40
15.0
100
AcDbArc
 50
0.0
 51
70.658301
  0
ARC
  5
135
100
AcDbEntity
  8
2
370
    50
100
AcDbCircle
 10
215.933805
 20
32.548869
 30
0.0
 40
0.3
100
AcDbArc
 50
180.0
 51
269.0
  0
ARC
  5
136
100
AcDbEntity
  8
2
370
    25
100
AcDbCircle
 10
56.176319
 20
-391.165972
 30
0.0
 40
500.0
100
AcDbArc
 50
65.019107
 51
81.820694
  0
POINT
  5
137
100
AcDbEntity
  8
2
370
    50
100
AcDbPoint
 10
215.633805
 20
32.25406
 30
0.0
  0
ARC
  5
138
100
AcDbEntity
  8
2
370
    50
100
AcDbCircle
 10
-147.316906
 20
-235.227046
 30
0.0
 40
500.0
100
AcDbArc
 50
43.701039
 51
48.450142
  0
ARC
  5
139
100
AcDbEntity
  8
2
370
    50
100
AcDbCircle
 10
142.657946
 20
48.58823
 30
0.0
 40
110.0
100
AcDbArc
 50
65.299884
 51
71.319359
  0
LINE
  5
13A
100
AcDbEntity
  8
2
370
    50
100
AcDbLine
 10
174.291592
 20
151.162666
 30
0.0
 11
175.321668
 21
152.192742
 31
0.0
  0
ARC
  5
13B
100
AcDbEntity
  8
2
370
    50
100
AcDbCircle
 10
-147.316906
 20
-235.227046
 30
0.0
 40
500.0
100
AcDbArc
 50
48.450142
 51
49.944087
  0
ARC
  5
13C
100
AcDbEntity
  8
2
370
    50
100
AcDbCircle
 10
203.588962
 20
154.200446
 30
0.0
 40
16.0
100
AcDbArc
 50
200.771799
 51
228.85705
  0
ARC
  5
13D
100
AcDbEntity
  8
2
370
    50
100
AcDbCircle
 10
-135.908051
 20
-234.38388
 30
0.0
 40
500.0
100
AcDbArc
 50
44.822136
 51
48.85705
  0
ARC
  5
13E
100
AcDbEntity
  8
2
370
    50
100
AcDbCircle
 10
177.089435
 20
150.424975
 30
0.0
 40
2.5
100
AcDbArc
 50
71.319359
 51
135.0
  0
ARC
  5
13F
100
AcDbEntity
  8
2
370
    50
100
AcDbCircle
 10
176.059359
 20
149.394899
 30
0.0
 40
2.5
100
AcDbArc
 50
135.0
 51
229.944087
  0
POINT
  5
140
100
AcDbEntity
  8
2
370
    50
100
AcDbPoint
 10
231.867988
 20
-22.974712
 30
0.0
  0
LINE
  5
141
100
AcDbEntity
  8
2
370
    50
100
AcDbLine
 10
242.367988
 20
-32.974712
 30
0.0
 11
221.367988
 21
-32.974712
 31
0.0
  0
ARC
  5
142
100
AcDbEntity
  8
2
370
    50
100
AcDbCircle
 10
241.519668
 20
-27.289332
 30
0.0
 40
5.74832
100
AcDbArc
 50
278.486542
 51
48.64134
  0
ARC
  5
143
100
AcDbEntity
  8
2
370
    50
100
AcDbCircle
 10
222.216309
 20
-27.289332
 30
0.0
 40
5.74832
100
AcDbArc
 50
131.35866
 51
261.513458
  0
ELLIPSE
  5
144
100
AcDbEntity
  8
2
370
    50
100
AcDbEllipse
 10
231.867988
 20
-27.224712
 30
0.0
 11
-6.4154999999999998
 21
0.0
 31
0.0
210
0.0
220
0.0
230
1.0
 40
0.62349
 41
0.0
 42
6.2831849999999996
  0
ELLIPSE
  5
145
100
AcDbEntity
  8
2
370
    50
100
AcDbEllipse
 10
244.003541
 20
-27.224712
 30
0.0
 11
0.0
 21
-4.0
 31
0.0
210
0.0
220
0.0
230
1.0
 40
0.810375
 41
0.0
 42
6.2831849999999996
  0
ELLIPSE
  5
146
100
AcDbEntity
  8
2
370
    50
100
AcDbEllipse
 10
219.732436
 20
-27.224712
 30
0.0
 11
0.0
 21
-4.0
 31
0.0
210
0.0
220
0.0
230
1.0
 40
0.810375
 41
0.0
 42
6.2831849999999996
  0
LINE
  5
147
100
AcDbEntity
  8
2
370
    50
100
AcDbLine
 10
245.317988
 20
-22.974712
 30
0.0
 11
218.417988
 21
-22.974712
 31
0.0
  0
LINE
  5
148
100
AcDbEntity
  8
2
370
    50
100
AcDbLine
 10
218.367988
 20
-34.474378
 30
0.0
 11
245.367988
 21
-34.474378
 31
0.0
  0
LINE
  5
149
100
AcDbEntity
  8
2
370
    50
100
AcDbLine
 10
79.868456
 20
-49.474378
 30
0.0
 11
217.867988
 21
-49.474378
 31
0.0
  0
LINE
  5
14A
100
AcDbEntity
  8
2
370
    50
100
AcDbLine
 10
217.867988
 20
-49.474378
 30
0.0
 11
217.867988
 21
-34.974378
 31
0.0
  0
LINE
  5
14B
100
AcDbEntity
  8
2
370
    50
100
AcDbLine
 10
245.867988
 20
-60.474378
 30
0.0
 11
245.867988
 21
-49.474378
 31
0.0
  0
LINE
  5
14C
100
AcDbEntity
  8
2
370
    50
100
AcDbLine
 10
218.367988
 20
-34.474378
 30
0.0
 11
217.867988
 21
-34.974378
 31
0.0
  0
LINE
  5
14D
100
AcDbEntity
  8
2
370
    50
100
AcDbLine
 10
245.867988
 20
-34.974378
 30
0.0
 11
245.367988
 21
-34.474378
 31
0.0
  0
ARC
  5
14E
100
AcDbEntity
  8
2
370
    50
100
AcDbCircle
 10
240.867988
 20
-60.474378
 30
0.0
 40
5.0
100
AcDbArc
 50
270.0
 51
360.0
  0
LINE
  5
14F
100
AcDbEntity
  8
2
370
    50
100
AcDbLine
 10
245.867988
 20
-34.974378
 30
0.0
 11
245.867988
 21
-49.474378
 31
0.0
  0
LINE
  5
150
100
AcDbEntity
  8
2
370
    50
100
AcDbLine
 10
79.868456
 20
-65.474378
 30
0.0
 11
240.867988
 21
-65.474378
 31
0.0
  0
LINE
  5
151
100
AcDbEntity
  8
2
370
    50
100
AcDbLine
 10
239.817988
 20
-34.474378
 30
0.0
 11
239.817988
 21
-32.974712
 31
0.0
  0
LINE
  5
152
100
AcDbEntity
  8
2
370
    50
100
AcDbLine
 10
223.917988
 20
-34.474378
 30
0.0
 11
223.917988
 21
-32.974712
 31
0.0
  0
LINE
  5
153
100
AcDbEntity
  8
2
370
    50
100
AcDbLine
 10
51.235284
 20
-78.874378
 30
0.0
 11
72.500693
 21
-78.874378
 31
0.0
  0
LINE
  5
154
100
AcDbEntity
  8
2
370
    50
100
AcDbLine
 10
49.867988
 20
-68.574378
 30
0.0
 11
49.867988
 21
-75.374378
 31
0.0
  0
LINE
  5
155
100
AcDbEntity
  8
2
370
    50
100
AcDbLine
 10
73.867988
 20
-68.574378
 30
0.0
 11
73.867988
 21
-75.374378
 31
0.0
  0
LINE
  5
156
100
AcDbEntity
  8
2
370
    50
100
AcDbLine
 10
73.867988
 20
-75.374378
 30
0.0
 11
73.490642
 21
-78.0158
 31
0.0
  0
LINE
  5
157
100
AcDbEntity
  8
2
370
    50
100
AcDbLine
 10
49.867988
 20
-75.374378
 30
0.0
 11
50.245334
 21
-78.0158
 31
0.0
  0
ARC
  5
158
100
AcDbEntity
  8
2
370
    50
100
AcDbCircle
 10
72.500693
 20
-77.874378
 30
0.0
 40
1.0
100
AcDbArc
 50
270.0
 51
351.869898
  0
ARC
  5
159
100
AcDbEntity
  8
2
370
    50
100
AcDbCircle
 10
51.235284
 20
-77.874378
 30
0.0
 40
1.0
100
AcDbArc
 50
188.130102
 51
270.0
  0
POINT
  5
15A
100
AcDbEntity
  8
2
370
    50
100
AcDbPoint
 10
61.867988
 20
-78.874378
 30
0.0
  0
LINE
  5
15B
100
AcDbEntity
  8
2
370
    50
100
AcDbLine
 10
45.217988
 20
-45.874378
 30
0.0
 11
76.868456
 21
-45.874378
 31
0.0
  0
ARC
  5
15C
100
AcDbEntity
  8
2
370
    50
100
AcDbCircle
 10
76.868456
 20
-50.874378
 30
0.0
 40
5.0
100
AcDbArc
 50
53.130102
 51
90.0
  0
ARC
  5
15D
100
AcDbEntity
  8
2
370
    50
100
AcDbCircle
 10
76.868456
 20
-63.574378
 30
0.0
 40
5.0
100
AcDbArc
 50
269.994637
 51
306.869898
  0
ARC
  5
15E
100
AcDbEntity
  8
2
370
    50
100
AcDbCircle
 10
45.217988
 20
-57.224378
 30
0.0
 40
11.35
100
AcDbArc
 50
90.0
 51
270.0
  0
LINE
  5
15F
100
AcDbEntity
  8
2
370
    50
100
AcDbLine
 10
79.868456
 20
-67.574378
 30
0.0
 11
79.868456
 21
-46.874378
 31
0.0
  0
LINE
  5
160
100
AcDbEntity
  8
2
370
    50
100
AcDbLine
 10
45.217988
 20
-68.574378
 30
0.0
 11
76.868456
 21
-68.574378
 31
0.0
  0
LINE
  5
161
100
AcDbEntity
  8
2
370
    25
100
AcDbLine
 10
73.302933
 20
-75.374378
 30
0.0
 11
50.259968
 21
-75.374378
 31
0.0
  0
LINE
  5
162
100
AcDbEntity
  8
2
370
    50
100
AcDbLine
 10
245.867988
 20
-34.974378
 30
0.0
 11
217.867988
 21
-34.974378
 31
0.0
  0
ARC
  5
163
100
AcDbEntity
  8
2
370
    25
100
AcDbCircle
 10
280.832654
 20
28.213786
 30
0.0
 40
100.0
100
AcDbArc
 50
233.365977
 51
243.303759
  0
POINT
  5
164
100
AcDbEntity
  8
2
370
    50
100
AcDbPoint
 10
-167.590566
 20
-20.975147
 30
0.0
  0
LINE
  5
165
100
AcDbEntity
  8
2
370
    50
100
AcDbLine
 10
-154.390566
 20
-20.975147
 30
0.0
 11
-154.390566
 21
-22.03654
 31
0.0
  0
LINE
  5
166
100
AcDbEntity
  8
2
370
    50
100
AcDbLine
 10
-180.790566
 20
-20.975147
 30
0.0
 11
-180.790566
 21
-22.03654
 31
0.0
  0
LINE
  5
167
100
AcDbEntity
  8
2
370
    50
100
AcDbLine
 10
-154.737336
 20
-22.03654
 30
0.0
 11
-154.390566
 21
-21.435917
 31
0.0
  0
LINE
  5
168
100
AcDbEntity
  8
2
370
    50
100
AcDbLine
 10
-157.315566
 20
-32.03654
 30
0.0
 11
-177.865566
 21
-32.03654
 31
0.0
  0
LINE
  5
169
100
AcDbEntity
  8
2
370
    50
100
AcDbLine
 10
-154.014954
 20
-22.03654
 30
0.0
 11
-181.166179
 21
-22.03654
 31
0.0
  0
ARC
  5
16A
100
AcDbEntity
  8
2
370
    50
100
AcDbCircle
 10
-177.865566
 20
-27.03654
 30
0.0
 40
5.0
100
AcDbArc
 50
180.0
 51
270.0
  0
ARC
  5
16B
100
AcDbEntity
  8
2
370
    50
100
AcDbCircle
 10
-174.66028
 20
-27.03654
 30
0.0
 40
8.205286
100
AcDbArc
 50
142.456522
 51
180.0
  0
ELLIPSE
  5
16C
100
AcDbEntity
  8
2
370
    50
100
AcDbEllipse
 10
-167.590566
 20
-26.507735
 30
0.0
 11
-6.10947
 21
0.0
 31
0.0
210
0.0
220
0.0
230
1.0
 40
0.632482
 41
0.0
 42
6.2831849999999996
  0
ELLIPSE
  5
16D
100
AcDbEntity
  8
2
370
    50
100
AcDbEllipse
 10
-155.466211
 20
-26.507735
 30
0.0
 11
0.0
 21
3.8641269999999999
 31
0.0
210
0.0
220
0.0
230
1.0
 40
0.790537
 41
0.0
 42
6.2831849999999996
  0
ARC
  5
16E
100
AcDbEntity
  8
2
370
    50
100
AcDbCircle
 10
-157.315566
 20
-27.03654
 30
0.0
 40
5.0
100
AcDbArc
 50
270.0
 51
0.0
  0
ARC
  5
16F
100
AcDbEntity
  8
2
370
    50
100
AcDbCircle
 10
-160.520853
 20
-27.03654
 30
0.0
 40
8.205286
100
AcDbArc
 50
0.0
 51
37.543478
  0
ELLIPSE
  5
170
100
AcDbEntity
  8
2
370
    50
100
AcDbEllipse
 10
-179.714922
 20
-26.507735
 30
0.0
 11
0.0
 21
-3.8641269999999999
 31
0.0
210
0.0
220
0.0
230
1.0
 40
0.790537
 41
0.0
 42
6.2831849999999996
  0
LINE
  5
171
100
AcDbEntity
  8
2
370
    50
100
AcDbLine
 10
-180.443797
 20
-22.03654
 30
0.0
 11
-180.790566
 21
-21.435917
 31
0.0
  0
POINT
  5
172
100
AcDbEntity
  8
2
370
    50
100
AcDbPoint
 10
-167.590566
 20
-32.03654
 30
0.0
  0
LINE
  5
173
100
AcDbEntity
  8
2
370
    50
100
AcDbLine
 10
-175.590566
 20
-32.03654
 30
0.0
 11
-175.590566
 21
-33.537163
 31
0.0
  0
LINE
  5
174
100
AcDbEntity
  8
2
370
    50
100
AcDbLine
 10
-159.590566
 20
-32.03654
 30
0.0
 11
-159.590566
 21
-33.537163
 31
0.0
  0
LINE
  5
175
100
AcDbEntity
  8
2
370
    50
100
AcDbLine
 10
-153.590566
 20
-34.037163
 30
0.0
 11
-153.590566
 21
-47.623941
 31
0.0
  0
LINE
  5
176
100
AcDbEntity
  8
2
370
    50
100
AcDbLine
 10
-181.590566
 20
-34.037163
 30
0.0
 11
-181.590566
 21
-47.623941
 31
0.0
  0
LINE
  5
177
100
AcDbEntity
  8
2
370
    50
100
AcDbLine
 10
-154.090566
 20
-33.537163
 30
0.0
 11
-181.090566
 21
-33.537163
 31
0.0
  0
LINE
  5
178
100
AcDbEntity
  8
2
370
    50
100
AcDbLine
 10
-181.090566
 20
-33.537163
 30
0.0
 11
-181.590566
 21
-34.037163
 31
0.0
  0
LINE
  5
179
100
AcDbEntity
  8
2
370
    50
100
AcDbLine
 10
-153.590566
 20
-34.037163
 30
0.0
 11
-181.590566
 21
-34.037163
 31
0.0
  0
POINT
  5
17A
100
AcDbEntity
  8
2
370
    50
100
AcDbPoint
 10
-167.590566
 20
-77.937163
 30
0.0
  0
LINE
  5
17B
100
AcDbEntity
  8
2
370
    50
100
AcDbLine
 10
-178.223271
 20
-77.937163
 30
0.0
 11
-156.957862
 21
-77.937163
 31
0.0
  0
LINE
  5
17C
100
AcDbEntity
  8
2
370
    50
100
AcDbLine
 10
-179.590566
 20
-67.637163
 30
0.0
 11
-179.590566
 21
-74.437163
 31
0.0
  0
LINE
  5
17D
100
AcDbEntity
  8
2
370
    50
100
AcDbLine
 10
-155.590566
 20
-67.637163
 30
0.0
 11
-155.590566
 21
-74.437163
 31
0.0
  0
LINE
  5
17E
100
AcDbEntity
  8
2
370
    50
100
AcDbLine
 10
-155.590566
 20
-74.437163
 30
0.0
 11
-155.967912
 21
-77.078584
 31
0.0
  0
LINE
  5
17F
100
AcDbEntity
  8
2
370
    50
100
AcDbLine
 10
-179.590566
 20
-74.437163
 30
0.0
 11
-179.213221
 21
-77.078584
 31
0.0
  0
ARC
  5
180
100
AcDbEntity
  8
2
370
    50
100
AcDbCircle
 10
-156.957862
 20
-76.937163
 30
0.0
 40
1.0
100
AcDbArc
 50
270.0
 51
351.869898
  0
ARC
  5
181
100
AcDbEntity
  8
2
370
    50
100
AcDbCircle
 10
-178.223271
 20
-76.937163
 30
0.0
 40
1.0
100
AcDbArc
 50
188.130102
 51
270.0
  0
LINE
  5
182
100
AcDbEntity
  8
2
370
    25
100
AcDbLine
 10
-179.024282
 20
-74.437163
 30
0.0
 11
-156.422109
 21
-74.437163
 31
0.0
  0
POINT
  5
183
100
AcDbEntity
  8
2
370
    50
100
AcDbPoint
 10
-167.590566
 20
-56.537163
 30
0.0
  0
ARC
  5
184
100
AcDbEntity
  8
2
370
    50
100
AcDbCircle
 10
-160.643291
 20
-55.537163
 30
0.0
 40
10.6
100
AcDbArc
 50
17.132207
 51
90.0
  0
LINE
  5
185
100
AcDbEntity
  8
2
370
    50
100
AcDbLine
 10
-174.537842
 20
-44.937163
 30
0.0
 11
-160.643291
 21
-44.937163
 31
0.0
  0
ARC
  5
186
100
AcDbEntity
  8
2
370
    50
100
AcDbCircle
 10
-174.537842
 20
-55.537163
 30
0.0
 40
10.6
100
AcDbArc
 50
90.0
 51
162.867793
  0
ARC
  5
187
100
AcDbEntity
  8
2
370
    50
100
AcDbCircle
 10
-167.488022
 20
-56.239601
 30
0.0
 40
17.4
100
AcDbArc
 50
322.393772
 51
12.698773
  0
LINE
  5
188
100
AcDbEntity
  8
2
370
    50
100
AcDbLine
 10
-179.89335
 20
-67.637163
 30
0.0
 11
-155.287783
 21
-67.637163
 31
0.0
  0
ARC
  5
189
100
AcDbEntity
  8
2
370
    50
100
AcDbCircle
 10
-167.693111
 20
-56.239601
 30
0.0
 40
17.4
100
AcDbArc
 50
167.301227
 51
217.606228
  0
ARC
  5
18A
100
AcDbEntity
  8
2
370
    50
100
AcDbCircle
 10
-155.287783
 20
-65.637163
 30
0.0
 40
2.0
100
AcDbArc
 50
270.0
 51
322.393772
  0
ARC
  5
18B
100
AcDbEntity
  8
2
370
    50
100
AcDbCircle
 10
-179.89335
 20
-65.637163
 30
0.0
 40
2.0
100
AcDbArc
 50
217.606228
 51
270.0
  0
TEXT
  5
18C
100
AcDbEntity
  8
3
370
    50
100
AcDbText
 10
-206.090566
 20
-139.258789
 30
0.0
 40
7.0
  1
１８５（ＭＡＸ２１５）
 72
     5
 11
-130.490566
 21
-139.258789
 31
0.0
100
AcDbText
  0
DIMENSION
  5
18D
100
AcDbEntity
  8
3
370
    25
100
AcDbDimension
  2
*D0
 10
-75.16416
 20
-140.258789
 30
0.0
 11
-167.590566
 21
-138.258789
 31
0.0
 71
     0
 72
     0
 41
0.0
 42
0.0
  3
Standard
100
AcDbAlignedDimension
 13
-260.016973
 23
-45.401491
 33
0.0
 14
-75.16416
 24
-45.401491
 34
0.0
100
AcDbRotatedDimension
  0
TEXT
  5
18E
100
AcDbEntity
  8
3
370
    50
100
AcDbText
 10
121.36998
 20
113.621948
 30
0.0
 40
7.0
  1
止水
 72
     5
 11
133.96998
 21
113.621948
 31
0.0
100
AcDbText
  0
DIMENSION
  5
18F
100
AcDbEntity
  8
3
370
    25
100
AcDbDimension
  2
*D1
 10
-117.590566
 20
-112.763
 30
0.0
 11
-167.590566
 21
-108.263
 31
0.0
 71
     0
 72
     0
 41
0.0
 42
0.0
  3
Standard
100
AcDbAlignedDimension
 13
-217.590566
 23
-2.975084
 33
0.0
 14
-117.590566
 24
-2.975084
 34
0.0
100
AcDbRotatedDimension
  0
DIMENSION
  5
190
100
AcDbEntity
  8
3
370
    25
100
AcDbDimension
  2
*D2
 10
-294.274656
 20
-11.143808
 30
0.0
 11
-273.76856
 21
8.301628
 31
0.0
 70
     1
 71
     0
 72
     0
 41
0.0
 42
0.0
  3
Standard
100
AcDbAlignedDimension
 13
-217.590566
 23
-2.975084
 33
0.0
 14
-260.016973
 24
-45.401491
 34
0.0
 50
45.0
  0
TEXT
  5
191
100
AcDbEntity
  8
3
370
    50
100
AcDbText
 10
250.867446
 20
-125.316223
 30
0.0
 40
7.0
  1
（８４～８７）
 72
     5
 11
298.467446
 21
-125.316223
 31
0.0
100
AcDbText
  0
DIMENSION
  5
192
100
AcDbEntity
  8
3
370
    25
100
AcDbDimension
  2
*D3
 10
318.866903
 20
-126.316223
 30
0.0
 11
275.367446
 21
-124.316223
 31
0.0
 71
     0
 72
     0
 41
0.0
 42
0.0
  3
Standard
100
AcDbAlignedDimension
 13
231.867988
 23
-65.474378
 33
0.0
 14
318.866903
 24
-85.94278
 34
0.0
100
AcDbRotatedDimension
  0
DIMENSION
  5
193
100
AcDbEntity
  8
3
370
    25
100
AcDbDimension
  2
*D4
 10
151.090651
 20
93.378208
 30
0.0
 11
121.279245
 21
151.778021
 31
0.0
 70
     2
 71
     0
 72
     0
 41
0.0
 42
0.0
  3
Standard
100
AcDb2LineAngularDimension
 13
209.134599
 23
117.539817
 33
0.0
 14
261.535508
 24
72.303961
 34
0.0
 15
261.535508
 25
72.303961
 35
0.0
 16
116.708842
 26
142.324904
 36
0.0
1001
ACAD
1000
DSTYLE
1002
{
1070
   275
1070
     0
1070
   179
1070
     0
1002
}
  0
TEXT
  5
194
100
AcDbEntity
  8
3
370
    50
100
AcDbText
 10
184.029663
 20
160.237595
 30
0.0
 40
7.0
  1
吐水
 72
     5
 11
196.629663
 21
160.237595
 31
0.0
100
AcDbText
  0
DIMENSION
  5
195
100
AcDbEntity
  8
3
370
    25
100
AcDbDimension
  2
*D5
 10
0.154322
 20
105.906142
 30
0.0
 11
-11.345678
 21
47.966007
 31
0.0
 71
     0
 72
     0
 41
0.0
 42
0.0
  3
Standard
100
AcDbAlignedDimension
 13
248.367154
 23
-2.974128
 33
0.0
 14
139.058636
 24
105.906142
 34
0.0
 50
90.0
100
AcDbRotatedDimension
  0
DIMENSION
  5
196
100
AcDbEntity
  8
3
370
    25
100
AcDbDimension
  2
*D6
 10
-42.315948
 20
152.924975
 30
0.0
 11
-53.815949
 21
71.475423
 31
0.0
 71
     0
 72
     0
 41
0.0
 42
0.0
  3
Standard
100
AcDbAlignedDimension
 13
248.367154
 23
-2.974128
 33
0.0
 14
177.089435
 24
152.924975
 34
0.0
 50
90.0
100
AcDbRotatedDimension
  0
TEXT
  5
197
100
AcDbEntity
  8
3
370
    50
100
AcDbText
 10
349.727814
 20
-29.936386
 30
0.0
 40
7.0
  1
ＰＪ１／２
 72
     5
 11
383.327814
 21
-29.936386
 31
0.0
100
AcDbText
  0
LWPOLYLINE
  5
198
100
AcDbEntity
  8
3
370
    25
100
AcDbPolyline
 90
        3
 70
     0
 10
327.442169
 20
-52.474375
 10
348.591553
 20
-31.451439
 10
384.192841
 20
-31.451439
  0
LINE
  5
19D
100
AcDbEntity
  8
3
370
    25
100
AcDbLine
 10
330.182399
 20
-49.750528
 30
0.0
 11
329.452547
 21
-49.016286
 31
0.0
  0
LINE
  5
19E
100
AcDbEntity
  8
3
370
    25
100
AcDbLine
 10
329.452547
 20
-49.016286
 30
0.0
 11
327.442169
 21
-52.474375
 31
0.0
  0
LINE
  5
19F
100
AcDbEntity
  8
3
370
    25
100
AcDbLine
 10
327.442169
 20
-52.474375
 30
0.0
 11
330.912252
 21
-50.484771
 31
0.0
  0
LINE
  5
1A0
100
AcDbEntity
  8
3
370
    25
100
AcDbLine
 10
330.912252
 20
-50.484771
 30
0.0
 11
330.182399
 21
-49.750528
 31
0.0
  0
TEXT
  5
1A1
100
AcDbEntity
  8
3
370
    50
100
AcDbText
 10
-201.824829
 20
133.24173
 30
0.0
 40
7.0
  1
赤色
 72
     5
 11
-189.224829
 21
133.24173
 31
0.0
100
AcDbText
  0
TEXT
  5
1A2
100
AcDbEntity
  8
3
370
    50
100
AcDbText
 10
-202.356979
 20
124.227646
 30
0.0
 40
7.0
  1
（湯表示）
 72
     5
 11
-168.756979
 21
124.227646
 31
0.0
100
AcDbText
  0
TEXT
  5
1A3
100
AcDbEntity
  8
3
370
    50
100
AcDbText
 10
-150.814438
 20
134.00087
 30
0.0
 40
7.0
  1
青色
 72
     5
 11
-138.214438
 21
134.00087
 31
0.0
100
AcDbText
  0
TEXT
  5
1A4
100
AcDbEntity
  8
3
370
    50
100
AcDbText
 10
-150.886841
 20
125.614105
 30
0.0
 40
7.0
  1
（水表示）
 72
     5
 11
-117.286841
 21
125.614105
 31
0.0
100
AcDbText
  0
LWPOLYLINE
  5
1A5
100
AcDbEntity
  8
3
370
    25
100
AcDbPolyline
 90
        2
 70
     0
 10
-162.994693
 20
83.218198
 10
-146.098236
 20
123.465202
  0
LWPOLYLINE
  5
1A9
100
AcDbEntity
  8
3
370
    25
100
AcDbPolyline
 90
        2
 70
     0
 10
-173.562653
 20
83.203653
 10
-190.113907
 20
121.70433
  0
TEXT
  5
1AD
100
AcDbEntity
  8
3
370
    50
100
AcDbText
 10
290.832582
 20
-240.013492
 30
0.0
 40
6.0
  1
１　２
 72
     5
 11
307.632582
 21
-240.013492
 31
0.0
100
AcDbText
  0
TEXT
  5
1AE
100
AcDbEntity
  8
3
370
    50
100
AcDbText
 10
68.853722
 20
-227.247314
 30
0.0
 40
6.0
  1
壁付シングルレバ－湯水混合水栓
 72
     5
 11
157.653722
 21
-227.247314
 31
0.0
100
AcDbText
  0
DIMENSION
  5
1AF
100
AcDbEntity
  8
3
370
    25
100
AcDbDimension
  2
*D7
 10
231.867988
 20
-126.316223
 30
0.0
 11
146.867988
 21
-121.816223
 31
0.0
 71
     0
 72
     0
 41
0.0
 42
0.0
  3
Standard
100
AcDbAlignedDimension
 13
61.867988
 23
-78.874378
 33
0.0
 14
231.867988
 24
-22.974712
 34
0.0
100
AcDbRotatedDimension
  0
DIMENSION
  5
1B0
100
AcDbEntity
  8
3
370
    25
100
AcDbDimension
  2
*D8
 10
0.154322
 20
-2.974128
 30
0.0
 11
-7.845678
 21
-40.924253
 31
0.0
 71
     0
 72
     0
 41
0.0
 42
0.0
  3
Standard
100
AcDbAlignedDimension
 13
61.867988
 23
-78.874378
 33
0.0
 14
248.367154
 24
-2.974128
 34
0.0
 50
90.0
100
AcDbRotatedDimension
  0
TEXT
  5
1B1
100
AcDbEntity
  8
3
370
    50
100
AcDbText
 10
68.561089
 20
-236.529404
 30
0.0
 40
6.0
  1
ＭＫ３００ＤＸ
 72
     5
 11
109.361089
 21
-236.529404
 31
0.0
100
AcDbText
  0
TEXT
  5
1B2
100
AcDbEntity
  8
3
370
    50
100
AcDbText
 10
336.070276
 20
-271.880939
 30
0.0
 40
6.4
  1
１０１５７７
 72
     5
 11
373.190276
 21
-271.880939
 31
0.0
100
AcDbText
  0
CIRCLE
  5
1B3
100
AcDbEntity
  8
3
370
    50
100
AcDbCircle
 10
-95.081306
 20
-24.811825
 30
0.0
 40
6.0
  0
TEXT
  5
1B4
100
AcDbEntity
  8
3
370
    50
100
AcDbText
 10
-94.855461
 20
-30.998344
 30
0.0
 40
9.37024
  1
水
 50
50.0
 72
     5
 11
-90.037001
 21
-25.255928
 31
0.0
100
AcDbText
  0
ENDSEC
  0
SECTION
  2
OBJECTS
  0
DICTIONARY
  5
21F
100
AcDbDictionary
280
     0
281
     1
  3
ACAD_GROUP
350
220
  3
ACAD_MLINESTYLE
350
221
  0
DICTIONARY
  5
220
102
{ACAD_REACTORS
330
21F
102
}
100
AcDbDictionary
280
     0
281
     1
  0
DICTIONARY
  5
221
102
{ACAD_REACTORS
330
21F
102
}
100
AcDbDictionary
280
     0
281
     1
  3
Standard
350
222
  0
MLINESTYLE
  5
222
102
{ACAD_REACTORS
330
221
102
}
100
AcDbMlineStyle
  2
Standard
 70
     0
  3

 62
     0
 51
90.0
 52
90.0
 71
     2
 49
0.5
 62
   256
  6
ByLayer
 49
-0.5
 62
   256
  6
ByLayer
  0
ENDSEC
  0
EOF
