  0
SECTION
  2
HEADER
  9
$ACADVER
  1
AC1015
  9
$ACADMAINTVER
 70
     6
  9
$DWGCODEPAGE
  3
ANSI_932
  9
$INSBASE
 10
0.0
 20
0.0
 30
0.0
  9
$EXTMIN
 10
-841.0
 20
-594.0
 30
1.000000E+20
  9
$EXTMAX
 10
841.0
 20
594.0
 30
-1.000000E+20
  9
$LIMMIN
 10
-841.0
 20
-594.0
  9
$LIMMAX
 10
841.0
 20
594.0
  9
$ORTHOMODE
 70
     0
  9
$REGENMODE
 70
     1
  9
$FILLMODE
 70
     1
  9
$QTEXTMODE
 70
     0
  9
$MIRRTEXT
 70
     1
  9
$LTSCALE
 40
1.0
  9
$ATTMODE
 70
     1
  9
$TEXTSIZE
 40
0.2
  9
$TRACEWID
 40
0.05
  9
$TEXTSTYLE
  7
STANDARD
  9
$CLAYER
  8
0
  9
$CELTYPE
  6
CONTINUOUS
  9
$CECOLOR
 62
   256
  9
$CELTSCALE
 40
1.0
  9
$DISPSILH
 70
     0
  9
$DIMSCALE
 40
2.0
  9
$DIMASZ
 40
2.0
  9
$DIMEXO
 40
1.0
  9
$DIMDLI
 40
0.38
  9
$DIMRND
 40
0.0
  9
$DIMDLE
 40
0.0
  9
$DIMEXE
 40
2.0
  9
$DIMTP
 40
0.0
  9
$DIMTM
 40
0.0
  9
$DIMTXT
 40
3.5
  9
$DIMCEN
 40
0.09
  9
$DIMTSZ
 40
0.0
  9
$DIMTOL
 70
     0
  9
$DIMLIM
 70
     0
  9
$DIMTIH
 70
     0
  9
$DIMTOH
 70
     0
  9
$DIMSE1
 70
     0
  9
$DIMSE2
 70
     0
  9
$DIMTAD
 70
     1
  9
$DIMZIN
 70
     0
  9
$DIMBLK
  1

  9
$DIMASO
 70
     1
  9
$DIMSHO
 70
     1
  9
$DIMPOST
  1

  9
$DIMAPOST
  1

  9
$DIMALT
 70
     0
  9
$DIMALTD
 70
     2
  9
$DIMALTF
 40
25.4
  9
$DIMLFAC
 40
1.0
  9
$DIMTOFL
 70
     0
  9
$DIMTVP
 40
0.0
  9
$DIMTIX
 70
     0
  9
$DIMSOXD
 70
     0
  9
$DIMSAH
 70
     0
  9
$DIMBLK1
  1

  9
$DIMBLK2
  1

  9
$DIMSTYLE
  2
Standard
  9
$DIMCLRD
 70
     0
  9
$DIMCLRE
 70
     0
  9
$DIMCLRT
 70
     0
  9
$DIMTFAC
 40
1.0
  9
$DIMGAP
 40
0.5
  9
$DIMJUST
 70
     0
  9
$DIMSD1
 70
     0
  9
$DIMSD2
 70
     0
  9
$DIMTOLJ
 70
     1
  9
$DIMTZIN
 70
     0
  9
$DIMALTZ
 70
     0
  9
$DIMALTTZ
 70
     0
  9
$DIMUPT
 70
     0
  9
$DIMDEC
 70
     3
  9
$DIMTDEC
 70
     4
  9
$DIMALTU
 70
     2
  9
$DIMALTTD
 70
     2
  9
$DIMTXSTY
  7
STANDARD
  9
$DIMAUNIT
 70
     0
  9
$DIMADEC
 70
     0
  9
$DIMALTRND
 40
0.0
  9
$DIMAZIN
 70
     0
  9
$DIMDSEP
 70
     0
  9
$DIMATFIT
 70
     3
  9
$DIMFRAC
 70
     0
  9
$DIMLDRBLK
  1

  9
$DIMLUNIT
 70
     2
  9
$DIMLWD
 70
     0
  9
$DIMLWE
 70
     0
  9
$DIMTMOVE
 70
     0
  9
$LUNITS
 70
     2
  9
$LUPREC
 70
     4
  9
$SKETCHINC
 40
0.1
  9
$FILLETRAD
 40
0.0
  9
$AUNITS
 70
     0
  9
$AUPREC
 70
     0
  9
$MENU
  1
acad
  9
$ELEVATION
 40
0.0
  9
$PELEVATION
 40
0.0
  9
$THICKNESS
 40
0.0
  9
$LIMCHECK
 70
     0
  9
$CHAMFERA
 40
0.0
  9
$CHAMFERB
 40
0.0
  9
$CHAMFERC
 40
0.0
  9
$CHAMFERD
 40
0.0
  9
$SKPOLY
 70
     0
  9
$TDCREATE
 40
2453383.000000000
  9
$TDUCREATE
 40
0.000000000
  9
$TDUPDATE
 40
0.000000000
  9
$TDUUPDATE
 40
2447892.625000000
  9
$TDINDWG
 40
0.0000000000
  9
$TDUSRTIMER
 40
0.0000000000
  9
$USRTIMER
 70
     1
  9
$ANGBASE
 50
0.0
  9
$ANGDIR
 70
     0
  9
$PDMODE
 70
     0
  9
$PDSIZE
 40
0.0
  9
$PLINEWID
 40
0.0
  9
$SPLFRAME
 70
     0
  9
$SPLINETYPE
 70
     6
  9
$SPLINESEGS
 70
     8
  9
$HANDSEED
  5
26B
  9
$SURFTAB1
 70
     6
  9
$SURFTAB2
 70
     6
  9
$SURFTYPE
 70
     6
  9
$SURFU
 70
     6
  9
$SURFV
 70
     6
  9
$UCSBASE
  2

  9
$UCSNAME
  2

  9
$UCSORG
 10
0.0
 20
0.0
 30
0.0
  9
$UCSXDIR
 10
1.0
 20
0.0
 30
0.0
  9
$UCSYDIR
 10
0.0
 20
1.0
 30
0.0
  9
$UCSORTHOREF
  2

  9
$UCSORTHOVIEW
 70
     0
  9
$UCSORGTOP
 10
0.0
 20
0.0
 30
0.0
  9
$UCSORGBOTTOM
 10
0.0
 20
0.0
 30
0.0
  9
$UCSORGLEFT
 10
0.0
 20
0.0
 30
0.0
  9
$UCSORGRIGHT
 10
0.0
 20
0.0
 30
0.0
  9
$UCSORGFRONT
 10
0.0
 20
0.0
 30
0.0
  9
$UCSORGBACK
 10
0.0
 20
0.0
 30
0.0
  9
$PUCSBASE
  2

  9
$PUCSNAME
  2

  9
$PUCSORG
 10
0.0
 20
0.0
 30
0.0
  9
$PUCSXDIR
 10
1.0
 20
0.0
 30
0.0
  9
$PUCSYDIR
 10
0.0
 20
1.0
 30
0.0
  9
$PUCSORTHOREF
  2

  9
$PUCSORTHOVIEW
 70
     0
  9
$PUCSORGTOP
 10
0.0
 20
0.0
 30
0.0
  9
$PUCSORGBOTTOM
 10
0.0
 20
0.0
 30
0.0
  9
$PUCSORGLEFT
 10
0.0
 20
0.0
 30
0.0
  9
$PUCSORGRIGHT
 10
0.0
 20
0.0
 30
0.0
  9
$PUCSORGFRONT
 10
0.0
 20
0.0
 30
0.0
  9
$PUCSORGBACK
 10
0.0
 20
0.0
 30
0.0
  9
$USERI1
 70
     0
  9
$USERI2
 70
     0
  9
$USERI3
 70
     0
  9
$USERI4
 70
     0
  9
$USERI5
 70
     0
  9
$USERR1
 40
0.0
  9
$USERR2
 40
0.0
  9
$USERR3
 40
0.0
  9
$USERR4
 40
0.0
  9
$USERR5
 40
0.0
  9
$WORLDVIEW
 70
     1
  9
$SHADEDGE
 70
     3
  9
$SHADEDIF
 70
    70
  9
$TILEMODE
 70
     1
  9
$MAXACTVP
 70
    16
  9
$PINSBASE
 10
0.0
 20
0.0
 30
0.0
  9
$PLIMCHECK
 70
     0
  9
$PEXTMIN
 10
1.000000E+20
 20
1.000000E+20
 30
1.000000E+20
  9
$PEXTMAX
 10
-1.000000E+20
 20
-1.000000E+20
 30
-1.000000E+20
  9
$PLIMMIN
 10
0.0
 20
0.0
  9
$PLIMMAX
 10
12.0
 20
9.0
  9
$UNITMODE
 70
     0
  9
$VISRETAIN
 70
     0
  9
$PLINEGEN
 70
     1
  9
$PSLTSCALE
 70
     0
  9
$TREEDEPTH
 70
  3020
  9
$CMLSTYLE
  2
Standard
  9
$CMLJUST
 70
     0
  9
$CMLSCALE
 40
1.0
  9
$PROXYGRAPHICS
 70
     0
  9
$MEASUREMENT
 70
     0
  9
$CELWEIGHT
370
     0
  9
$ENDCAPS
280
     0
  9
$JOINSTYLE
280
     0
  9
$LWDISPLAY
290
     0
  9
$INSUNITS
 70
     0
  9
$HYPERLINKBASE
  1

  9
$STYLESHEET
  1

  9
$XEDIT
290
     1
  9
$CEPSNTYPE
380
     0
  9
$PSTYLEMODE
290
     1
  9
$FINGERPRINTGUID
  2

  9
$VERSIONGUID
  2

  9
$EXTNAMES
290
     1
  9
$PSVPSCALE
 40
0.0
  0
ENDSEC
  0
SECTION
  2
CLASSES
  0
CLASS
  1
LWPOLYLINE
  2
AcDbPolyline
  3
AutoCAD 2000
 90
        0
280
     0
281
     1
  0
CLASS
  1
IMAGE
  2
AcDbRasterImage
  3
ISM
 90
      127
280
     0
281
     1
  0
CLASS
  1
OLE2FRAME
  2
AcDbOle2Frame
  3
AutoCAD 2000
 90
        0
280
     0
281
     1
  0
CLASS
  1
HATCH
  2
AcDbHatch
  3
AutoCAD 2000
 90
        0
280
     0
281
     1
  0
CLASS
  1
DICTIONARYVAR
  2
AcDbDictionaryVar
  3
AutoCAD 2000
 90
        0
280
     0
281
     0
  0
CLASS
  1
RASTERVARIABLES
  2
AcDbRasterVariables
  3
ISM
 90
        0
280
     0
281
     0
  0
CLASS
  1
IMAGEDEF
  2
AcDbRasterImageDef
  3
ISM
 90
        0
280
     0
281
     0
  0
CLASS
  1
IMAGEDEF_REACTOR
  2
AcDbRasterImageDefReactor
  3
ISM
 90
        1
280
     0
281
     0
  0
CLASS
  1
IDBUFFER
  2
AcDbIdBuffer
  3
AutoCAD 2000
 90
        0
280
     0
281
     0
  0
CLASS
  1
SPATIAL_FILTER
  2
AcDbSpatialFilter
  3
AutoCAD 2000
 90
        0
280
     0
281
     0
  0
CLASS
  1
XRECORD
  2
AcDbXrecord
  3
AutoCAD 2000
 90
        0
280
     0
281
     0
  0
CLASS
  1
SORTENTSTABLE
  2
AcDbSortentsTable
  3
AutoCAD 2000
 90
        0
280
     0
281
     0
  0
CLASS
  1
LAYER_INDEX
  2
AcDbLayerIndex
  3
AutoCAD 2000
 90
        0
280
     0
281
     0
  0
CLASS
  1
SPATIAL_INDEX
  2
AcDbSpatialIndex
  3
AutoCAD 2000
 90
        0
280
     0
281
     0
  0
CLASS
  1
OBJECT_PTR
  2
CAseDLPNTableRecord
  3
"ASE-LPNTableRecord"
 90
        1
280
     0
281
     0
  0
CLASS
  1
LAYOUT
  2
AcDbLayout
  3
AutoCAD 2000
 90
        0
280
     0
281
     0
  0
CLASS
  1
PLOTSETTINGS
  2
AcDbPlotSettings
  3
AutoCAD 2000
 90
        0
280
     0
281
     0
  0
CLASS
  1
ACDBDICTIONARYWDFLT
  2
AcDbDictionaryWithDefault
  3
AutoCAD 2000
 90
        0
280
     0
281
     0
  0
CLASS
  1
ACDBPLACEHOLDER
  2
AcDbPlaceHolder
  3
AutoCAD 2000
 90
        0
280
     0
281
     0
  0
CLASS
  1
VBA_PROJECT
  2
AcDbVbaProject
  3
acadvba
 90
        0
280
     0
281
     0
  0
CLASS
  1
WIPEOUT
  2
AcDbWipeout
  3
WipeOut|AutoCAD Express Tool|expresstools@autodesk.com
 90
      127
280
     0
281
     1
  0
CLASS
  1
WIPEOUTVARIABLES
  2
AcDbWipeoutVariables
  3
WipeOut|AutoCAD Express Tool|expresstools@autodesk.com
 90
        0
280
     0
281
     0
  0
CLASS
  1
RTEXT
  2
RText
  3
RText|AutoCAD Express Tool|expresstools@autodesk.com
 90
        0
280
     0
281
     1
  0
CLASS
  1
ARCALIGNEDTEXT
  2
AcDbArcAlignedText
  3
ATEXT|AutoCAD Express Tool|expresstools@autodesk.com
 90
        0
280
     0
281
     1
  0
ENDSEC
  0
SECTION
  2
TABLES
  0
TABLE
  2
VPORT
  5
6
100
AcDbSymbolTable
 70
     1
  0
VPORT
  5
19
100
AcDbSymbolTableRecord
100
AcDbViewportTableRecord
  2
*ACTIVE
 70
     0
 10
0.0
 20
0.0
 11
1.0
 21
1.0
 12
0.0
 22
0.0
 13
0.0
 23
0.0
 14
1.0
 24
1.0
 15
0.0
 25
0.0
 16
0.0
 26
0.0
 36
1.0
 17
0.0
 27
0.0
 37
0.0
 40
1188.0
 41
1.415825
 42
50.0
 43
0.0
 44
0.0
 50
0.0
 51
0.0
 71
     0
 72
   500
 73
     1
 74
     1
 75
     0
 76
     0
 77
     0
 78
     0
281
     0
 65
     0
110
0.0
120
0.0
130
0.0
111
1.0
121
0.0
131
0.0
112
0.0
122
1.0
132
0.0
345
0
346
0
 79
     0
146
0.0
  0
ENDTAB
  0
TABLE
  2
LTYPE
  5
3
100
AcDbSymbolTable
 70
     9
  0
LTYPE
  5
C
100
AcDbSymbolTableRecord
100
AcDbLinetypeTableRecord
  2
ByBlock
 70
    64
  3

 72
    65
 73
     0
 40
0.0
  0
LTYPE
  5
D
100
AcDbSymbolTableRecord
100
AcDbLinetypeTableRecord
  2
ByLayer
 70
    64
  3

 72
    65
 73
     0
 40
0.0
  0
LTYPE
  5
E
100
AcDbSymbolTableRecord
100
AcDbLinetypeTableRecord
  2
CONTINUOUS
 70
     0
  3
Solid line
 72
    65
 73
     0
 40
0.0
  0
LTYPE
  5
F
100
AcDbSymbolTableRecord
100
AcDbLinetypeTableRecord
  2
DASHED
 70
     0
  3
__ __ __ __ __ __ __ __ __ __ __ __ __ __ __
 72
    65
 73
     2
 40
2.0
 49
1.2
 74
     0
 49
-0.8
 74
     0
  0
LTYPE
  5
10
100
AcDbSymbolTableRecord
100
AcDbLinetypeTableRecord
  2
CENTER
 70
     0
  3
____ _ ____ _ ____ _ ____ _ ____ _ ____ _ ____
 72
    65
 73
     4
 40
12.0
 49
9.0
 74
     0
 49
-1.0
 74
     0
 49
1.0
 74
     0
 49
-1.0
 74
     0
  0
LTYPE
  5
11
100
AcDbSymbolTableRecord
100
AcDbLinetypeTableRecord
  2
HIDDEN
 70
     0
  3
_ _ _ _ _ _ _ _ _ _ _ _ _ _ _ _ _ _ _ _ _ _ _
 72
    65
 73
     2
 40
3.2
 49
2.4
 74
     0
 49
-0.8
 74
     0
  0
LTYPE
  5
12
100
AcDbSymbolTableRecord
100
AcDbLinetypeTableRecord
  2
PHANTOM
 70
     0
  3
_____ _ _ _____ _ _ _____ _ _ _____ _ _ _____
 72
    65
 73
     6
 40
13.5
 49
9.0
 74
     0
 49
-1.0
 74
     0
 49
1.0
 74
     0
 49
-0.5
 74
     0
 49
1.0
 74
     0
 49
-1.0
 74
     0
  0
LTYPE
  5
13
100
AcDbSymbolTableRecord
100
AcDbLinetypeTableRecord
  2
DOT
 70
     0
  3
...............................................
 72
    65
 73
     2
 40
1.0
 49
0.5
 74
     0
 49
-0.5
 74
     0
  0
LTYPE
  5
14
100
AcDbSymbolTableRecord
100
AcDbLinetypeTableRecord
  2
DASHDOT
 70
     0
  3
__ . __ . __ . __ . __ . __ . __ . __ . __ . __
 72
    65
 73
     4
 40
8.0
 49
5.0
 74
     0
 49
-1.0
 74
     0
 49
1.0
 74
     0
 49
-1.0
 74
     0
  0
ENDTAB
  0
TABLE
  2
LAYER
  5
1
100
AcDbSymbolTable
 70
     4
  0
LAYER
  5
15
100
AcDbSymbolTableRecord
100
AcDbLayerTableRecord
  2
0
 70
     0
 62
     7
  6
CONTINUOUS
290
     1
370
    -3
390
0
  0
LAYER
  5
16
100
AcDbSymbolTableRecord
100
AcDbLayerTableRecord
  2
1
 70
     0
 62
     7
  6
CONTINUOUS
290
     1
370
    -3
390
0
  0
LAYER
  5
17
100
AcDbSymbolTableRecord
100
AcDbLayerTableRecord
  2
2
 70
     0
 62
     7
  6
CONTINUOUS
290
     1
370
    -3
390
0
  0
LAYER
  5
18
100
AcDbSymbolTableRecord
100
AcDbLayerTableRecord
  2
3
 70
     0
 62
     7
  6
CONTINUOUS
290
     1
370
    -3
390
0
  0
ENDTAB
  0
TABLE
  2
STYLE
  5
2
100
AcDbSymbolTable
 70
     1
  0
STYLE
  5
1B
100
AcDbSymbolTableRecord
100
AcDbTextStyleTableRecord
  2
STANDARD
 70
    64
 40
0.0
 41
1.0
 50
0.0
 71
     0
 42
1.0
  3
txt
  4
BIGFONT
  0
ENDTAB
  0
TABLE
  2
VIEW
  5
4
100
AcDbSymbolTable
 70
     0
  0
ENDTAB
  0
TABLE
  2
UCS
  5
5
100
AcDbSymbolTable
 70
     0
  0
ENDTAB
  0
TABLE
  2
APPID
  5
7
100
AcDbSymbolTable
 70
     1
  0
APPID
  5
1A
100
AcDbSymbolTableRecord
100
AcDbRegAppTableRecord
  2
ACAD
 70
     0
  0
ENDTAB
  0
TABLE
  2
DIMSTYLE
  5
8
100
AcDbSymbolTable
 70
     1
100
AcDbDimStyleTable
 71
     0
  0
DIMSTYLE
105
2E
100
AcDbSymbolTableRecord
100
AcDbDimStyleTableRecord
  2
Standard
 70
     0
  3

  4

 40
2.0
 41
2.0
 42
1.0
 43
0.38
 44
2.0
 45
0.0
 46
0.0
 47
0.0
 48
0.0
 71
     0
 72
     0
 73
     0
 74
     0
 75
     0
 76
     0
 77
     1
 78
     0
 79
     0
140
3.5
141
0.09
142
0.0
143
25.4
144
1.0
145
0.0
146
1.0
147
0.5
148
0.0
170
     0
171
     2
172
     0
173
     0
174
     0
175
     0
176
     0
177
     0
178
     0
179
     0
271
     3
272
     4
273
     2
274
     2
275
     0
276
     0
277
     2
278
    46
279
     0
280
     0
281
     0
282
     0
283
     1
284
     0
285
     0
286
     0
288
     0
289
     3
340
1B
341
0
342
0
343
0
344
0
371
    -2
372
    -2
  0
ENDTAB
  0
TABLE
  2
BLOCK_RECORD
  5
29
100
AcDbSymbolTable
 70
    11
  0
BLOCK_RECORD
  5
27
100
AcDbSymbolTableRecord
100
AcDbBlockTableRecord
  2
*Model_Space
340
0
  0
BLOCK_RECORD
  5
28
100
AcDbSymbolTableRecord
100
AcDbBlockTableRecord
  2
*Paper_Space
340
0
  0
BLOCK_RECORD
  5
1C
100
AcDbSymbolTableRecord
100
AcDbBlockTableRecord
  2
*D0
340
0
  0
BLOCK_RECORD
  5
1D
100
AcDbSymbolTableRecord
100
AcDbBlockTableRecord
  2
*D1
340
0
  0
BLOCK_RECORD
  5
1E
100
AcDbSymbolTableRecord
100
AcDbBlockTableRecord
  2
*D2
340
0
  0
BLOCK_RECORD
  5
1F
100
AcDbSymbolTableRecord
100
AcDbBlockTableRecord
  2
*D3
340
0
  0
BLOCK_RECORD
  5
20
100
AcDbSymbolTableRecord
100
AcDbBlockTableRecord
  2
*D4
340
0
  0
BLOCK_RECORD
  5
21
100
AcDbSymbolTableRecord
100
AcDbBlockTableRecord
  2
*D5
340
0
  0
BLOCK_RECORD
  5
22
100
AcDbSymbolTableRecord
100
AcDbBlockTableRecord
  2
*D6
340
0
  0
BLOCK_RECORD
  5
23
100
AcDbSymbolTableRecord
100
AcDbBlockTableRecord
  2
*D7
340
0
  0
BLOCK_RECORD
  5
24
100
AcDbSymbolTableRecord
100
AcDbBlockTableRecord
  2
*D8
340
0
  0
BLOCK_RECORD
  5
25
100
AcDbSymbolTableRecord
100
AcDbBlockTableRecord
  2
*D9
340
0
  0
BLOCK_RECORD
  5
26
100
AcDbSymbolTableRecord
100
AcDbBlockTableRecord
  2
*D10
340
0
  0
ENDTAB
  0
ENDSEC
  0
SECTION
  2
BLOCKS
  0
BLOCK
  5
2A
100
AcDbEntity
  8
0
390
0
100
AcDbBlockBegin
  2
*Model_Space
 70
     0
 10
0.0
 20
0.0
 30
0.0
  3
*Model_Space
  1

  0
ENDBLK
  5
2B
100
AcDbEntity
  8
0
390
0
100
AcDbBlockEnd
  0
BLOCK
  5
2C
100
AcDbEntity
 67
     1
  8
0
390
0
100
AcDbBlockBegin
  2
*Paper_Space
 70
     0
 10
0.0
 20
0.0
 30
0.0
  3
*Paper_Space
  1

  0
ENDBLK
  5
2D
100
AcDbEntity
 67
     1
  8
0
390
0
100
AcDbBlockEnd
  0
BLOCK
  5
1E4
100
AcDbEntity
  8
3
100
AcDbBlockBegin
  2
*D0
 70
     1
 10
0.0
 20
0.0
 30
0.0
  3
*D0
  1

  0
TEXT
  5
1E5
100
AcDbEntity
  8
3
370
    25
100
AcDbText
 10
-208.090566
 20
-111.763
 30
0.0
 40
7.0
  1
１００
 72
     5
 11
-188.490566
 21
-111.763
 31
0.0
100
AcDbText
  0
LINE
  5
1E6
100
AcDbEntity
  8
3
370
    25
100
AcDbLine
 10
-247.590566
 20
-4.975084
 30
0.0
 11
-247.590566
 21
-114.763
 31
0.0
  0
LINE
  5
1E7
100
AcDbEntity
  8
3
370
    25
100
AcDbLine
 10
-247.590566
 20
-112.763
 30
0.0
 11
-243.726863
 21
-113.798277
 31
0.0
  0
LINE
  5
1E8
100
AcDbEntity
  8
3
370
    25
100
AcDbLine
 10
-247.590566
 20
-112.763
 30
0.0
 11
-243.726863
 21
-111.727724
 31
0.0
  0
LINE
  5
1E9
100
AcDbEntity
  8
3
370
    25
100
AcDbLine
 10
-243.726863
 20
-113.798277
 30
0.0
 11
-243.726863
 21
-111.727724
 31
0.0
  0
LINE
  5
1EA
100
AcDbEntity
  8
3
370
    25
100
AcDbLine
 10
-247.590566
 20
-112.763
 30
0.0
 11
-147.590566
 21
-112.763
 31
0.0
  0
LINE
  5
1EB
100
AcDbEntity
  8
3
370
    25
100
AcDbLine
 10
-147.590566
 20
-112.763
 30
0.0
 11
-151.45427
 21
-111.727724
 31
0.0
  0
LINE
  5
1EC
100
AcDbEntity
  8
3
370
    25
100
AcDbLine
 10
-147.590566
 20
-112.763
 30
0.0
 11
-151.45427
 21
-113.798277
 31
0.0
  0
LINE
  5
1ED
100
AcDbEntity
  8
3
370
    25
100
AcDbLine
 10
-151.45427
 20
-111.727724
 30
0.0
 11
-151.45427
 21
-113.798277
 31
0.0
  0
LINE
  5
1EE
100
AcDbEntity
  8
3
370
    25
100
AcDbLine
 10
-147.590566
 20
-4.975084
 30
0.0
 11
-147.590566
 21
-114.763
 31
0.0
  0
ENDBLK
  5
1EF
100
AcDbEntity
  8
3
100
AcDbBlockEnd
  0
BLOCK
  5
1F0
100
AcDbEntity
  8
3
100
AcDbBlockBegin
  2
*D1
 70
     1
 10
0.0
 20
0.0
 30
0.0
  3
*D1
  1

  0
TEXT
  5
1F1
100
AcDbEntity
  8
3
370
    25
100
AcDbText
 10
112.13844
 20
132.871787
 30
0.0
 40
7.0
  1
３０゜
 50
64.197115
 72
     5
 11
120.669858
 21
150.517606
 31
0.0
100
AcDbText
  0
LINE
  5
1F2
100
AcDbEntity
  8
3
370
    25
100
AcDbLine
 10
172.936598
 20
148.788275
 30
0.0
 11
138.252521
 21
178.729815
 31
0.0
  0
LINE
  5
1F3
100
AcDbEntity
  8
3
370
    25
100
AcDbLine
 10
125.341239
 20
98.291515
 30
0.0
 11
101.556382
 21
102.829961
 31
0.0
  0
LINE
  5
1F4
100
AcDbEntity
  8
3
370
    25
100
AcDbLine
 10
139.766445
 20
177.422898
 30
0.0
 11
136.485247
 21
175.135162
 31
0.0
  0
LINE
  5
1F5
100
AcDbEntity
  8
3
370
    25
100
AcDbLine
 10
139.766445
 20
177.422898
 30
0.0
 11
138.068712
 21
173.801061
 31
0.0
  0
LINE
  5
1F6
100
AcDbEntity
  8
3
370
    25
100
AcDbLine
 10
136.485247
 20
175.135162
 30
0.0
 11
138.068712
 21
173.801061
 31
0.0
  0
LINE
  5
1F7
100
AcDbEntity
  8
3
370
    25
100
AcDbLine
 10
103.520938
 20
102.455099
 30
0.0
 11
105.305165
 21
106.035118
 31
0.0
  0
LINE
  5
1F8
100
AcDbEntity
  8
3
370
    25
100
AcDbLine
 10
103.520938
 20
102.455099
 30
0.0
 11
103.276114
 21
106.4476
 31
0.0
  0
LINE
  5
1F9
100
AcDbEntity
  8
3
370
    25
100
AcDbLine
 10
105.305165
 20
106.035118
 30
0.0
 11
103.276114
 21
106.4476
 31
0.0
  0
ARC
  5
1FA
100
AcDbEntity
  8
3
370
    25
100
AcDbCircle
 10
261.535508
 20
72.303961
 30
0.0
 40
160.865458
100
AcDbArc
 50
139.197115
 51
169.197115
  0
ENDBLK
  5
1FB
100
AcDbEntity
  8
3
100
AcDbBlockEnd
  0
BLOCK
  5
1FC
100
AcDbEntity
  8
3
100
AcDbBlockBegin
  2
*D2
 70
     1
 10
0.0
 20
0.0
 30
0.0
  3
*D2
  1

  0
TEXT
  5
1FD
100
AcDbEntity
  8
3
370
    25
100
AcDbText
 10
-0.845678
 20
40.966007
 30
0.0
 40
7.0
  1
１０９
 50
90.0
 72
     5
 11
-0.845678
 21
60.566007
 31
0.0
100
AcDbText
  0
LINE
  5
1FE
100
AcDbEntity
  8
3
370
    25
100
AcDbLine
 10
246.367154
 20
-2.974128
 30
0.0
 11
-1.845678
 21
-2.974128
 31
0.0
  0
LINE
  5
1FF
100
AcDbEntity
  8
3
370
    25
100
AcDbLine
 10
0.154322
 20
-2.974128
 30
0.0
 11
1.189599
 21
0.889575
 31
0.0
  0
LINE
  5
200
100
AcDbEntity
  8
3
370
    25
100
AcDbLine
 10
0.154322
 20
-2.974128
 30
0.0
 11
-0.880954
 21
0.889575
 31
0.0
  0
LINE
  5
201
100
AcDbEntity
  8
3
370
    25
100
AcDbLine
 10
1.189599
 20
0.889575
 30
0.0
 11
-0.880954
 21
0.889575
 31
0.0
  0
LINE
  5
202
100
AcDbEntity
  8
3
370
    25
100
AcDbLine
 10
0.154322
 20
-2.974128
 30
0.0
 11
0.154322
 21
105.906142
 31
0.0
  0
LINE
  5
203
100
AcDbEntity
  8
3
370
    25
100
AcDbLine
 10
0.154322
 20
105.906142
 30
0.0
 11
-0.880954
 21
102.042439
 31
0.0
  0
LINE
  5
204
100
AcDbEntity
  8
3
370
    25
100
AcDbLine
 10
0.154322
 20
105.906142
 30
0.0
 11
1.189599
 21
102.042439
 31
0.0
  0
LINE
  5
205
100
AcDbEntity
  8
3
370
    25
100
AcDbLine
 10
-0.880954
 20
102.042439
 30
0.0
 11
1.189599
 21
102.042439
 31
0.0
  0
LINE
  5
206
100
AcDbEntity
  8
3
370
    25
100
AcDbLine
 10
137.058636
 20
105.906142
 30
0.0
 11
-1.845678
 21
105.906142
 31
0.0
  0
ENDBLK
  5
207
100
AcDbEntity
  8
3
100
AcDbBlockEnd
  0
BLOCK
  5
208
100
AcDbEntity
  8
3
100
AcDbBlockBegin
  2
*D3
 70
     1
 10
0.0
 20
0.0
 30
0.0
  3
*D3
  1

  0
TEXT
  5
209
100
AcDbEntity
  8
3
370
    25
100
AcDbText
 10
-43.315949
 20
64.475423
 30
0.0
 40
7.0
  1
１５６
 50
90.0
 72
     5
 11
-43.315949
 21
84.075423
 31
0.0
100
AcDbText
  0
LINE
  5
20A
100
AcDbEntity
  8
3
370
    25
100
AcDbLine
 10
246.367154
 20
-2.974128
 30
0.0
 11
-44.315948
 21
-2.974128
 31
0.0
  0
LINE
  5
20B
100
AcDbEntity
  8
3
370
    25
100
AcDbLine
 10
-42.315948
 20
-2.974128
 30
0.0
 11
-41.280672
 21
0.889575
 31
0.0
  0
LINE
  5
20C
100
AcDbEntity
  8
3
370
    25
100
AcDbLine
 10
-42.315948
 20
-2.974128
 30
0.0
 11
-43.351225
 21
0.889575
 31
0.0
  0
LINE
  5
20D
100
AcDbEntity
  8
3
370
    25
100
AcDbLine
 10
-41.280672
 20
0.889575
 30
0.0
 11
-43.351225
 21
0.889575
 31
0.0
  0
LINE
  5
20E
100
AcDbEntity
  8
3
370
    25
100
AcDbLine
 10
-42.315948
 20
-2.974128
 30
0.0
 11
-42.315948
 21
152.924975
 31
0.0
  0
LINE
  5
20F
100
AcDbEntity
  8
3
370
    25
100
AcDbLine
 10
-42.315948
 20
152.924975
 30
0.0
 11
-43.351225
 21
149.061272
 31
0.0
  0
LINE
  5
210
100
AcDbEntity
  8
3
370
    25
100
AcDbLine
 10
-42.315948
 20
152.924975
 30
0.0
 11
-41.280672
 21
149.061272
 31
0.0
  0
LINE
  5
211
100
AcDbEntity
  8
3
370
    25
100
AcDbLine
 10
-43.351225
 20
149.061272
 30
0.0
 11
-41.280672
 21
149.061272
 31
0.0
  0
LINE
  5
212
100
AcDbEntity
  8
3
370
    25
100
AcDbLine
 10
175.089435
 20
152.924975
 30
0.0
 11
-44.315948
 21
152.924975
 31
0.0
  0
ENDBLK
  5
213
100
AcDbEntity
  8
3
100
AcDbBlockEnd
  0
BLOCK
  5
214
100
AcDbEntity
  8
3
100
AcDbBlockBegin
  2
*D4
 70
     1
 10
0.0
 20
0.0
 30
0.0
  3
*D4
  1

  0
TEXT
  5
215
100
AcDbEntity
  8
3
370
    25
100
AcDbText
 10
136.367988
 20
-125.316223
 30
0.0
 40
7.0
  1
１７０
 72
     5
 11
155.967988
 21
-125.316223
 31
0.0
100
AcDbText
  0
LINE
  5
216
100
AcDbEntity
  8
3
370
    25
100
AcDbLine
 10
61.867988
 20
-96.074128
 30
0.0
 11
61.867988
 21
-128.316223
 31
0.0
  0
LINE
  5
217
100
AcDbEntity
  8
3
370
    25
100
AcDbLine
 10
61.867988
 20
-126.316223
 30
0.0
 11
65.731692
 21
-127.351499
 31
0.0
  0
LINE
  5
218
100
AcDbEntity
  8
3
370
    25
100
AcDbLine
 10
61.867988
 20
-126.316223
 30
0.0
 11
65.731692
 21
-125.280947
 31
0.0
  0
LINE
  5
219
100
AcDbEntity
  8
3
370
    25
100
AcDbLine
 10
65.731692
 20
-127.351499
 30
0.0
 11
65.731692
 21
-125.280947
 31
0.0
  0
LINE
  5
21A
100
AcDbEntity
  8
3
370
    25
100
AcDbLine
 10
61.867988
 20
-126.316223
 30
0.0
 11
231.867988
 21
-126.316223
 31
0.0
  0
LINE
  5
21B
100
AcDbEntity
  8
3
370
    25
100
AcDbLine
 10
231.867988
 20
-126.316223
 30
0.0
 11
228.004285
 21
-125.280947
 31
0.0
  0
LINE
  5
21C
100
AcDbEntity
  8
3
370
    25
100
AcDbLine
 10
231.867988
 20
-126.316223
 30
0.0
 11
228.004285
 21
-127.351499
 31
0.0
  0
LINE
  5
21D
100
AcDbEntity
  8
3
370
    25
100
AcDbLine
 10
228.004285
 20
-125.280947
 30
0.0
 11
228.004285
 21
-127.351499
 31
0.0
  0
LINE
  5
21E
100
AcDbEntity
  8
3
370
    25
100
AcDbLine
 10
231.867988
 20
-34.974712
 30
0.0
 11
231.867988
 21
-128.316223
 31
0.0
  0
ENDBLK
  5
21F
100
AcDbEntity
  8
3
100
AcDbBlockEnd
  0
BLOCK
  5
220
100
AcDbEntity
  8
3
100
AcDbBlockBegin
  2
*D5
 70
     1
 10
0.0
 20
0.0
 30
0.0
  3
*D5
  1

  0
TEXT
  5
221
100
AcDbEntity
  8
3
370
    25
100
AcDbText
 10
-0.845678
 20
-55.524128
 30
0.0
 40
7.0
  1
９１
 50
90.0
 72
     5
 11
-0.845678
 21
-42.924128
 31
0.0
100
AcDbText
  0
LINE
  5
222
100
AcDbEntity
  8
3
370
    25
100
AcDbLine
 10
59.867988
 20
-94.074128
 30
0.0
 11
-1.845678
 21
-94.074128
 31
0.0
  0
LINE
  5
223
100
AcDbEntity
  8
3
370
    25
100
AcDbLine
 10
0.154322
 20
-94.074128
 30
0.0
 11
1.189599
 21
-90.210425
 31
0.0
  0
LINE
  5
224
100
AcDbEntity
  8
3
370
    25
100
AcDbLine
 10
0.154322
 20
-94.074128
 30
0.0
 11
-0.880954
 21
-90.210425
 31
0.0
  0
LINE
  5
225
100
AcDbEntity
  8
3
370
    25
100
AcDbLine
 10
1.189599
 20
-90.210425
 30
0.0
 11
-0.880954
 21
-90.210425
 31
0.0
  0
LINE
  5
226
100
AcDbEntity
  8
3
370
    25
100
AcDbLine
 10
0.154322
 20
-94.074128
 30
0.0
 11
0.154322
 21
-2.974128
 31
0.0
  0
LINE
  5
227
100
AcDbEntity
  8
3
370
    25
100
AcDbLine
 10
0.154322
 20
-2.974128
 30
0.0
 11
-0.880954
 21
-6.837831
 31
0.0
  0
LINE
  5
228
100
AcDbEntity
  8
3
370
    25
100
AcDbLine
 10
0.154322
 20
-2.974128
 30
0.0
 11
1.189599
 21
-6.837831
 31
0.0
  0
LINE
  5
229
100
AcDbEntity
  8
3
370
    25
100
AcDbLine
 10
-0.880954
 20
-6.837831
 30
0.0
 11
1.189599
 21
-6.837831
 31
0.0
  0
LINE
  5
22A
100
AcDbEntity
  8
3
370
    25
100
AcDbLine
 10
246.367154
 20
-2.974128
 30
0.0
 11
-1.845678
 21
-2.974128
 31
0.0
  0
ENDBLK
  5
22B
100
AcDbEntity
  8
3
100
AcDbBlockEnd
  0
BLOCK
  5
22C
100
AcDbEntity
  8
3
100
AcDbBlockBegin
  2
*D6
 70
     1
 10
0.0
 20
0.0
 30
0.0
  3
*D6
  1

  0
TEXT
  5
22D
100
AcDbEntity
  8
3
370
    25
100
AcDbText
 10
314.029654
 20
-125.316223
 30
0.0
 40
7.0
  1
（１４）
 72
     5
 11
340.629654
 21
-125.316223
 31
0.0
100
AcDbText
  0
LINE
  5
22E
100
AcDbEntity
  8
3
370
    25
100
AcDbLine
 10
320.912154
 20
-97.274375
 30
0.0
 11
320.912154
 21
-128.316223
 31
0.0
  0
LINE
  5
22F
100
AcDbEntity
  8
3
370
    25
100
AcDbLine
 10
320.912154
 20
-126.316223
 30
0.0
 11
324.775858
 21
-127.351499
 31
0.0
  0
LINE
  5
230
100
AcDbEntity
  8
3
370
    25
100
AcDbLine
 10
320.912154
 20
-126.316223
 30
0.0
 11
324.775858
 21
-125.280947
 31
0.0
  0
LINE
  5
231
100
AcDbEntity
  8
3
370
    25
100
AcDbLine
 10
324.775858
 20
-127.351499
 30
0.0
 11
324.775858
 21
-125.280947
 31
0.0
  0
LINE
  5
232
100
AcDbEntity
  8
3
370
    25
100
AcDbLine
 10
320.912154
 20
-126.316223
 30
0.0
 11
335.147154
 21
-126.316223
 31
0.0
  0
LINE
  5
233
100
AcDbEntity
  8
3
370
    25
100
AcDbLine
 10
335.147154
 20
-126.316223
 30
0.0
 11
331.283451
 21
-125.280947
 31
0.0
  0
LINE
  5
234
100
AcDbEntity
  8
3
370
    25
100
AcDbLine
 10
335.147154
 20
-126.316223
 30
0.0
 11
331.283451
 21
-127.351499
 31
0.0
  0
LINE
  5
235
100
AcDbEntity
  8
3
370
    25
100
AcDbLine
 10
331.283451
 20
-125.280947
 30
0.0
 11
331.283451
 21
-127.351499
 31
0.0
  0
LINE
  5
236
100
AcDbEntity
  8
3
370
    25
100
AcDbLine
 10
335.147154
 20
-83.778375
 30
0.0
 11
335.147154
 21
-128.316223
 31
0.0
  0
ENDBLK
  5
237
100
AcDbEntity
  8
3
100
AcDbBlockEnd
  0
BLOCK
  5
238
100
AcDbEntity
  8
3
100
AcDbBlockBegin
  2
*D7
 70
     1
 10
0.0
 20
0.0
 30
0.0
  3
*D7
  1

  0
LINE
  5
239
100
AcDbEntity
  8
3
370
    25
100
AcDbLine
 10
231.867988
 20
-34.974712
 30
0.0
 11
231.867988
 21
-128.316223
 31
0.0
  0
LINE
  5
23A
100
AcDbEntity
  8
3
370
    25
100
AcDbLine
 10
231.867988
 20
-126.316223
 30
0.0
 11
235.731692
 21
-127.351499
 31
0.0
  0
LINE
  5
23B
100
AcDbEntity
  8
3
370
    25
100
AcDbLine
 10
231.867988
 20
-126.316223
 30
0.0
 11
235.731692
 21
-125.280947
 31
0.0
  0
LINE
  5
23C
100
AcDbEntity
  8
3
370
    25
100
AcDbLine
 10
235.731692
 20
-127.351499
 30
0.0
 11
235.731692
 21
-125.280947
 31
0.0
  0
LINE
  5
23D
100
AcDbEntity
  8
3
370
    25
100
AcDbLine
 10
231.867988
 20
-126.316223
 30
0.0
 11
320.912154
 21
-126.316223
 31
0.0
  0
LINE
  5
23E
100
AcDbEntity
  8
3
370
    25
100
AcDbLine
 10
320.912154
 20
-126.316223
 30
0.0
 11
317.048451
 21
-125.280947
 31
0.0
  0
LINE
  5
23F
100
AcDbEntity
  8
3
370
    25
100
AcDbLine
 10
320.912154
 20
-126.316223
 30
0.0
 11
317.048451
 21
-127.351499
 31
0.0
  0
LINE
  5
240
100
AcDbEntity
  8
3
370
    25
100
AcDbLine
 10
317.048451
 20
-125.280947
 30
0.0
 11
317.048451
 21
-127.351499
 31
0.0
  0
LINE
  5
241
100
AcDbEntity
  8
3
370
    25
100
AcDbLine
 10
320.912154
 20
-97.274375
 30
0.0
 11
320.912154
 21
-128.316223
 31
0.0
  0
ENDBLK
  5
242
100
AcDbEntity
  8
3
100
AcDbBlockEnd
  0
BLOCK
  5
243
100
AcDbEntity
  8
3
100
AcDbBlockBegin
  2
*D8
 70
     1
 10
0.0
 20
0.0
 30
0.0
  3
*D8
  1

  0
TEXT
  5
244
100
AcDbEntity
  8
3
370
    25
100
AcDbText
 10
352.90094
 20
-79.274375
 30
0.0
 40
7.0
  1
４６
 50
90.0
 72
     5
 11
352.90094
 21
-66.674375
 31
0.0
100
AcDbText
  0
LINE
  5
245
100
AcDbEntity
  8
3
370
    25
100
AcDbLine
 10
322.912154
 20
-95.274375
 30
0.0
 11
355.90094
 21
-95.274375
 31
0.0
  0
LINE
  5
246
100
AcDbEntity
  8
3
370
    25
100
AcDbLine
 10
353.90094
 20
-95.274375
 30
0.0
 11
354.936216
 21
-91.410672
 31
0.0
  0
LINE
  5
247
100
AcDbEntity
  8
3
370
    25
100
AcDbLine
 10
353.90094
 20
-95.274375
 30
0.0
 11
352.865664
 21
-91.410672
 31
0.0
  0
LINE
  5
248
100
AcDbEntity
  8
3
370
    25
100
AcDbLine
 10
354.936216
 20
-91.410672
 30
0.0
 11
352.865664
 21
-91.410672
 31
0.0
  0
LINE
  5
249
100
AcDbEntity
  8
3
370
    25
100
AcDbLine
 10
353.90094
 20
-95.274375
 30
0.0
 11
353.90094
 21
-49.274375
 31
0.0
  0
LINE
  5
24A
100
AcDbEntity
  8
3
370
    25
100
AcDbLine
 10
353.90094
 20
-49.274375
 30
0.0
 11
352.865664
 21
-53.138078
 31
0.0
  0
LINE
  5
24B
100
AcDbEntity
  8
3
370
    25
100
AcDbLine
 10
353.90094
 20
-49.274375
 30
0.0
 11
354.936216
 21
-53.138078
 31
0.0
  0
LINE
  5
24C
100
AcDbEntity
  8
3
370
    25
100
AcDbLine
 10
352.865664
 20
-53.138078
 30
0.0
 11
354.936216
 21
-53.138078
 31
0.0
  0
LINE
  5
24D
100
AcDbEntity
  8
3
370
    25
100
AcDbLine
 10
322.912154
 20
-49.274375
 30
0.0
 11
355.90094
 21
-49.274375
 31
0.0
  0
ENDBLK
  5
24E
100
AcDbEntity
  8
3
100
AcDbBlockEnd
  0
BLOCK
  5
24F
100
AcDbEntity
  8
3
100
AcDbBlockBegin
  2
*D9
 70
     1
 10
0.0
 20
0.0
 30
0.0
  3
*D9
  1

  0
TEXT
  5
250
100
AcDbEntity
  8
3
370
    25
100
AcDbText
 10
-316.336357
 20
3.170963
 30
0.0
 40
7.0
  1
７０
 50
47.408668
 72
     5
 11
-307.809123
 21
12.447077
 31
0.0
100
AcDbText
  0
LINE
  5
251
100
AcDbEntity
  8
3
370
    25
100
AcDbLine
 10
-249.062965
 20
-1.621555
 30
0.0
 11
-288.648443
 21
34.768106
 31
0.0
  0
LINE
  5
252
100
AcDbEntity
  8
3
370
    25
100
AcDbLine
 10
-287.176044
 20
33.414577
 30
0.0
 11
-290.553032
 21
31.270759
 31
0.0
  0
LINE
  5
253
100
AcDbEntity
  8
3
370
    25
100
AcDbLine
 10
-287.176044
 20
33.414577
 30
0.0
 11
-289.028692
 21
29.869482
 31
0.0
  0
LINE
  5
254
100
AcDbEntity
  8
3
370
    25
100
AcDbLine
 10
-290.553032
 20
31.270759
 30
0.0
 11
-289.028692
 21
29.869482
 31
0.0
  0
LINE
  5
255
100
AcDbEntity
  8
3
370
    25
100
AcDbLine
 10
-287.176044
 20
33.414577
 30
0.0
 11
-334.549566
 21
-18.119387
 31
0.0
  0
LINE
  5
256
100
AcDbEntity
  8
3
370
    25
100
AcDbLine
 10
-334.549566
 20
-18.119387
 30
0.0
 11
-331.172579
 21
-15.975569
 31
0.0
  0
LINE
  5
257
100
AcDbEntity
  8
3
370
    25
100
AcDbLine
 10
-334.549566
 20
-18.119387
 30
0.0
 11
-332.696918
 21
-14.574292
 31
0.0
  0
LINE
  5
258
100
AcDbEntity
  8
3
370
    25
100
AcDbLine
 10
-331.172579
 20
-15.975569
 30
0.0
 11
-332.696918
 21
-14.574292
 31
0.0
  0
LINE
  5
259
100
AcDbEntity
  8
3
370
    25
100
AcDbLine
 10
-296.436487
 20
-53.155519
 30
0.0
 11
-336.021965
 21
-16.765857
 31
0.0
  0
ENDBLK
  5
25A
100
AcDbEntity
  8
3
100
AcDbBlockEnd
  0
BLOCK
  5
25B
100
AcDbEntity
  8
3
100
AcDbBlockBegin
  2
*D10
 70
     1
 10
0.0
 20
0.0
 30
0.0
  3
*D10
  1

  0
LINE
  5
25C
100
AcDbEntity
  8
3
370
    25
100
AcDbLine
 10
-294.964088
 20
-56.509048
 30
0.0
 11
-294.964088
 21
-136.157379
 31
0.0
  0
LINE
  5
25D
100
AcDbEntity
  8
3
370
    25
100
AcDbLine
 10
-294.964088
 20
-134.157379
 30
0.0
 11
-291.100385
 21
-135.192655
 31
0.0
  0
LINE
  5
25E
100
AcDbEntity
  8
3
370
    25
100
AcDbLine
 10
-294.964088
 20
-134.157379
 30
0.0
 11
-291.100385
 21
-133.122103
 31
0.0
  0
LINE
  5
25F
100
AcDbEntity
  8
3
370
    25
100
AcDbLine
 10
-291.100385
 20
-135.192655
 30
0.0
 11
-291.100385
 21
-133.122103
 31
0.0
  0
LINE
  5
260
100
AcDbEntity
  8
3
370
    25
100
AcDbLine
 10
-294.964088
 20
-134.157379
 30
0.0
 11
-100.217045
 21
-134.157379
 31
0.0
  0
LINE
  5
261
100
AcDbEntity
  8
3
370
    25
100
AcDbLine
 10
-100.217045
 20
-134.157379
 30
0.0
 11
-104.080748
 21
-133.122103
 31
0.0
  0
LINE
  5
262
100
AcDbEntity
  8
3
370
    25
100
AcDbLine
 10
-100.217045
 20
-134.157379
 30
0.0
 11
-104.080748
 21
-135.192655
 31
0.0
  0
LINE
  5
263
100
AcDbEntity
  8
3
370
    25
100
AcDbLine
 10
-104.080748
 20
-133.122103
 30
0.0
 11
-104.080748
 21
-135.192655
 31
0.0
  0
LINE
  5
264
100
AcDbEntity
  8
3
370
    25
100
AcDbLine
 10
-100.217045
 20
-56.509048
 30
0.0
 11
-100.217045
 21
-136.157379
 31
0.0
  0
ENDBLK
  5
265
100
AcDbEntity
  8
3
100
AcDbBlockEnd
  0
ENDSEC
  0
SECTION
  2
ENTITIES
  0
LINE
  5
2F
100
AcDbEntity
  8
1
370
   100
100
AcDbLine
 10
-373.02157
 20
275.028767
 30
0.0
 11
394.982385
 21
275.028767
 31
0.0
  0
LINE
  5
30
100
AcDbEntity
  8
1
370
   100
100
AcDbLine
 10
-373.02157
 20
275.028767
 30
0.0
 11
-373.02157
 21
-277.971881
 31
0.0
  0
LINE
  5
31
100
AcDbEntity
  8
1
370
   100
100
AcDbLine
 10
-373.02157
 20
-277.971881
 30
0.0
 11
394.982385
 21
-277.971881
 31
0.0
  0
LINE
  5
32
100
AcDbEntity
  8
1
370
   100
100
AcDbLine
 10
394.982385
 20
-277.971881
 30
0.0
 11
394.982385
 21
275.028767
 31
0.0
  0
TEXT
  5
33
100
AcDbEntity
  8
1
370
    50
100
AcDbText
 10
359.628442
 20
-226.252857
 30
0.0
 40
6.0
  1
設計
 72
     5
 11
370.428442
 21
-226.252857
 31
0.0
100
AcDbText
  0
TEXT
  5
34
100
AcDbEntity
  8
1
370
    50
100
AcDbText
 10
379.127478
 20
-226.099658
 30
0.0
 40
6.0
  1
製図
 72
     5
 11
389.927478
 21
-226.099658
 31
0.0
100
AcDbText
  0
TEXT
  5
35
100
AcDbEntity
  8
1
370
    50
100
AcDbText
 10
319.005745
 20
-226.252857
 30
0.0
 40
6.0
  1
承認
 72
     5
 11
329.805745
 21
-226.252857
 31
0.0
100
AcDbText
  0
TEXT
  5
36
100
AcDbEntity
  8
1
370
    50
100
AcDbText
 10
338.989679
 20
-226.19802
 30
0.0
 40
6.0
  1
検図
 72
     5
 11
349.789679
 21
-226.19802
 31
0.0
100
AcDbText
  0
LINE
  5
37
100
AcDbEntity
  8
1
370
    25
100
AcDbLine
 10
284.982385
 20
-227.971881
 30
0.0
 11
394.982385
 21
-227.971881
 31
0.0
  0
LINE
  5
38
100
AcDbEntity
  8
1
370
    25
100
AcDbLine
 10
342.482385
 20
-245.971881
 30
0.0
 11
342.482385
 21
-259.971881
 31
0.0
  0
TEXT
  5
39
100
AcDbEntity
  8
1
370
    50
100
AcDbText
 10
319.55159
 20
-256.012528
 30
0.0
 40
6.0
  1
日　付
 72
     5
 11
336.35159
 21
-256.012528
 31
0.0
100
AcDbText
  0
LINE
  5
3A
100
AcDbEntity
  8
1
370
    50
100
AcDbLine
 10
40.982385
 20
-259.971881
 30
0.0
 11
394.982385
 21
-259.971881
 31
0.0
  0
TEXT
  5
3B
100
AcDbEntity
  8
1
370
    50
100
AcDbText
 10
287.775011
 20
-256.322406
 30
0.0
 40
6.0
  1
第三角法
 72
     5
 11
310.575011
 21
-256.322406
 31
0.0
100
AcDbText
  0
TEXT
  5
3C
100
AcDbEntity
  8
1
370
    50
100
AcDbText
 10
291.087419
 20
-225.99802
 30
0.0
 40
6.0
  1
尺　度
 72
     5
 11
307.887419
 21
-225.99802
 31
0.0
100
AcDbText
  0
LINE
  5
3D
100
AcDbEntity
  8
1
370
   100
100
AcDbLine
 10
40.982385
 20
-217.971881
 30
0.0
 11
394.982385
 21
-217.971881
 31
0.0
  0
LINE
  5
3E
100
AcDbEntity
  8
1
370
    50
100
AcDbLine
 10
211.982385
 20
-217.971881
 30
0.0
 11
211.982385
 21
-277.971881
 31
0.0
  0
LINE
  5
3F
100
AcDbEntity
  8
1
370
    25
100
AcDbLine
 10
374.982385
 20
-245.971881
 30
0.0
 11
374.982385
 21
-217.971881
 31
0.0
  0
LINE
  5
40
100
AcDbEntity
  8
1
370
    25
100
AcDbLine
 10
354.982385
 20
-245.971881
 30
0.0
 11
354.982385
 21
-217.971881
 31
0.0
  0
LINE
  5
41
100
AcDbEntity
  8
1
370
    25
100
AcDbLine
 10
334.982385
 20
-245.971881
 30
0.0
 11
334.982385
 21
-217.971881
 31
0.0
  0
LINE
  5
42
100
AcDbEntity
  8
1
370
    50
100
AcDbLine
 10
284.982385
 20
-277.971881
 30
0.0
 11
284.982385
 21
-217.971881
 31
0.0
  0
LINE
  5
43
100
AcDbEntity
  8
1
370
    50
100
AcDbLine
 10
189.982385
 20
-217.971881
 30
0.0
 11
189.982385
 21
-277.971881
 31
0.0
  0
LINE
  5
44
100
AcDbEntity
  8
1
370
    50
100
AcDbLine
 10
62.982385
 20
-217.971881
 30
0.0
 11
62.982385
 21
-259.971881
 31
0.0
  0
LINE
  5
45
100
AcDbEntity
  8
1
370
    50
100
AcDbLine
 10
284.982385
 20
-245.971881
 30
0.0
 11
394.982385
 21
-245.971881
 31
0.0
  0
TEXT
  5
46
100
AcDbEntity
  8
1
370
    50
100
AcDbText
 10
287.101129
 20
-271.880939
 30
0.0
 40
6.0
  1
コードＮｏ
 41
0.9
 72
     5
 11
313.021129
 21
-271.880939
 31
0.0
100
AcDbText
  0
TEXT
  5
47
100
AcDbEntity
  8
1
370
   100
100
AcDbText
 10
52.886774
 20
-272.875659
 30
0.0
 40
8.0
  1
ミズタニバルブ工業株式会社
 41
1.2
 72
     5
 11
175.766774
 21
-272.875659
 31
0.0
100
AcDbText
  0
LINE
  5
48
100
AcDbEntity
  8
1
370
    50
100
AcDbLine
 10
40.982385
 20
-238.971881
 30
0.0
 11
284.982385
 21
-238.971881
 31
0.0
  0
LINE
  5
49
100
AcDbEntity
  8
1
370
    50
100
AcDbLine
 10
115.482385
 20
-238.971881
 30
0.0
 11
115.482385
 21
-259.971881
 31
0.0
  0
LINE
  5
4A
100
AcDbEntity
  8
1
370
    50
100
AcDbLine
 10
137.482385
 20
-238.971881
 30
0.0
 11
137.482385
 21
-259.971881
 31
0.0
  0
LINE
  5
4B
100
AcDbEntity
  8
1
370
    50
100
AcDbLine
 10
314.982385
 20
-277.971881
 30
0.0
 11
314.982385
 21
-217.971881
 31
0.0
  0
TEXT
  5
4C
100
AcDbEntity
  8
1
370
    50
100
AcDbText
 10
345.098131
 20
-256.100293
 30
0.0
 40
6.0
  1
　　・　　・
 72
     5
 11
379.898131
 21
-256.100293
 31
0.0
100
AcDbText
  0
LINE
  5
4D
100
AcDbEntity
  8
1
370
   100
100
AcDbLine
 10
40.982385
 20
-217.971881
 30
0.0
 11
40.982385
 21
-277.971881
 31
0.0
  0
TEXT
  5
4E
100
AcDbEntity
  8
1
370
    50
100
AcDbText
 10
290.832582
 20
-240.013492
 30
0.0
 40
6.0
  1
　／ 
 72
     5
 11
301.632582
 21
-240.013492
 31
0.0
100
AcDbText
  0
TEXT
  5
4F
100
AcDbEntity
  8
1
370
    50
100
AcDbText
 10
193.904123
 20
-272.024909
 30
0.0
 40
6.0
  1
備 考 
 72
     5
 11
207.704123
 21
-272.024909
 31
0.0
100
AcDbText
  0
TEXT
  5
50
100
AcDbEntity
  8
1
370
    50
100
AcDbText
 10
193.512534
 20
-230.89184
 30
0.0
 40
6.0
  1
仕 上
 72
     5
 11
207.312534
 21
-230.89184
 31
0.0
100
AcDbText
  0
TEXT
  5
51
100
AcDbEntity
  8
1
370
    50
100
AcDbText
 10
193.447176
 20
-248.891666
 30
0.0
 40
6.0
  1
表 面
 72
     5
 11
207.247176
 21
-248.891666
 31
0.0
100
AcDbText
  0
TEXT
  5
52
100
AcDbEntity
  8
1
370
    50
100
AcDbText
 10
193.447176
 20
-255.891666
 30
0.0
 40
6.0
  1
処 理
 72
     5
 11
207.247176
 21
-255.891666
 31
0.0
100
AcDbText
  0
TEXT
  5
53
100
AcDbEntity
  8
1
370
    50
100
AcDbText
 10
44.79335
 20
-231.693399
 30
0.0
 40
6.0
  1
品 名
 72
     5
 11
58.59335
 21
-231.693399
 31
0.0
100
AcDbText
  0
TEXT
  5
54
100
AcDbEntity
  8
1
370
    50
100
AcDbText
 10
44.397766
 20
-252.462534
 30
0.0
 40
6.0
  1
材 質
 72
     5
 11
58.197766
 21
-252.462534
 31
0.0
100
AcDbText
  0
TEXT
  5
55
100
AcDbEntity
  8
1
370
    50
100
AcDbText
 10
118.897766
 20
-252.462534
 30
0.0
 40
6.0
  1
規 格
 72
     5
 11
132.697766
 21
-252.462534
 31
0.0
100
AcDbText
  0
LINE
  5
56
100
AcDbEntity
  8
2
370
    50
100
AcDbLine
 10
268.867154
 20
15.025622
 30
0.0
 11
268.867154
 21
10.025625
 31
0.0
  0
LINE
  5
57
100
AcDbEntity
  8
2
370
    50
100
AcDbLine
 10
214.867371
 20
-20.974814
 30
0.0
 11
248.51575
 21
-20.974814
 31
0.0
  0
ARC
  5
58
100
AcDbEntity
  8
2
370
    50
100
AcDbCircle
 10
214.867371
 20
-2.974597
 30
0.0
 40
18.000217
100
AcDbArc
 50
90.0
 51
270.0
  0
LINE
  5
59
100
AcDbEntity
  8
2
370
    50
100
AcDbLine
 10
244.867988
 20
-20.974814
 30
0.0
 11
244.867988
 21
-22.974712
 31
0.0
  0
LINE
  5
5A
100
AcDbEntity
  8
2
370
    50
100
AcDbLine
 10
218.867988
 20
-20.974814
 30
0.0
 11
218.867988
 21
-22.974712
 31
0.0
  0
LINE
  5
5B
100
AcDbEntity
  8
2
370
    50
100
AcDbLine
 10
244.267988
 20
-22.974378
 30
0.0
 11
244.867988
 21
-22.374378
 31
0.0
  0
LINE
  5
5C
100
AcDbEntity
  8
2
370
    50
100
AcDbLine
 10
219.467988
 20
-22.974378
 30
0.0
 11
218.867988
 21
-22.374378
 31
0.0
  0
LINE
  5
5D
100
AcDbEntity
  8
2
370
    50
100
AcDbLine
 10
252.394584
 20
-18.138507
 30
0.0
 11
249.142468
 21
-20.75406
 31
0.0
  0
ARC
  5
5E
100
AcDbEntity
  8
2
370
    50
100
AcDbCircle
 10
248.51575
 20
-19.974814
 30
0.0
 40
1.0
100
AcDbArc
 50
270.0
 51
308.808394
  0
LINE
  5
5F
100
AcDbEntity
  8
2
370
    50
100
AcDbLine
 10
218.067154
 20
15.32573
 30
0.0
 11
268.667154
 21
15.32573
 31
0.0
  0
LINE
  5
60
100
AcDbEntity
  8
2
370
    50
100
AcDbLine
 10
267.367154
 20
15.32573
 30
0.0
 11
267.367154
 21
15.025868
 31
0.0
  0
LINE
  5
61
100
AcDbEntity
  8
2
370
    50
100
AcDbLine
 10
219.367154
 20
15.32573
 30
0.0
 11
219.367154
 21
15.025623
 31
0.0
  0
LINE
  5
62
100
AcDbEntity
  8
2
370
    50
100
AcDbLine
 10
217.867154
 20
15.52573
 30
0.0
 11
217.867154
 21
29.184734
 31
0.0
  0
LINE
  5
63
100
AcDbEntity
  8
2
370
    50
100
AcDbLine
 10
268.867154
 20
15.52573
 30
0.0
 11
268.867154
 21
29.184734
 31
0.0
  0
LINE
  5
64
100
AcDbEntity
  8
2
370
    50
100
AcDbLine
 10
266.367154
 20
37.525325
 30
0.0
 11
266.367154
 21
29.825551
 31
0.0
  0
LINE
  5
65
100
AcDbEntity
  8
2
370
    50
100
AcDbLine
 10
220.367154
 20
32.171439
 30
0.0
 11
220.367154
 21
29.825551
 31
0.0
  0
LINE
  5
66
100
AcDbEntity
  8
2
370
    50
100
AcDbLine
 10
220.367154
 20
29.825551
 30
0.0
 11
218.064116
 21
29.419463
 31
0.0
  0
LINE
  5
67
100
AcDbEntity
  8
2
370
    50
100
AcDbLine
 10
266.367154
 20
29.825551
 30
0.0
 11
268.670193
 21
29.419463
 31
0.0
  0
LINE
  5
68
100
AcDbEntity
  8
2
370
    50
100
AcDbLine
 10
268.667154
 20
15.32573
 30
0.0
 11
268.867154
 21
15.52573
 31
0.0
  0
LINE
  5
69
100
AcDbEntity
  8
2
370
    50
100
AcDbLine
 10
218.067154
 20
15.32573
 30
0.0
 11
217.867154
 21
15.52573
 31
0.0
  0
ARC
  5
6A
100
AcDbEntity
  8
2
370
    50
100
AcDbCircle
 10
243.367154
 20
37.525325
 30
0.0
 40
23.0
100
AcDbArc
 50
0.0
 51
9.953366
  0
LINE
  5
6B
100
AcDbEntity
  8
2
370
    50
100
AcDbLine
 10
268.867154
 20
29.184734
 30
0.0
 11
268.670193
 21
29.419463
 31
0.0
  0
LINE
  5
6C
100
AcDbEntity
  8
2
370
    50
100
AcDbLine
 10
217.867154
 20
29.184734
 30
0.0
 11
218.064116
 21
29.419463
 31
0.0
  0
LINE
  5
6D
100
AcDbEntity
  8
2
370
    50
100
AcDbLine
 10
214.867371
 20
15.0256
 30
0.0
 11
268.867154
 21
15.025876
 31
0.0
  0
LINE
  5
6E
100
AcDbEntity
  8
2
370
    50
100
AcDbLine
 10
-171.090566
 20
32.253698
 30
0.0
 11
-224.090566
 21
32.253698
 31
0.0
  0
LINE
  5
6F
100
AcDbEntity
  8
2
370
    50
100
AcDbLine
 10
-222.558028
 20
62.844279
 30
0.0
 11
-224.090566
 21
32.253698
 31
0.0
  0
LINE
  5
70
100
AcDbEntity
  8
2
370
    50
100
AcDbLine
 10
-172.623105
 20
62.844279
 30
0.0
 11
-171.090566
 21
32.253698
 31
0.0
  0
LINE
  5
71
100
AcDbEntity
  8
2
370
    50
100
AcDbLine
 10
-226.590566
 20
103.173676
 30
0.0
 11
-226.590566
 21
99.4079
 31
0.0
  0
LINE
  5
72
100
AcDbEntity
  8
2
370
    50
100
AcDbLine
 10
-168.590566
 20
103.173676
 30
0.0
 11
-168.590566
 21
99.4079
 31
0.0
  0
ARC
  5
73
100
AcDbEntity
  8
2
370
    50
100
AcDbCircle
 10
-197.590566
 20
-416.76068
 30
0.0
 40
500.0
100
AcDbArc
 50
88.048466
 51
91.951403
  0
ARC
  5
74
100
AcDbEntity
  8
2
370
    50
100
AcDbCircle
 10
-170.590566
 20
99.4079
 30
0.0
 40
2.0
100
AcDbArc
 50
266.916867
 51
360.0
  0
ARC
  5
75
100
AcDbEntity
  8
2
370
    50
100
AcDbCircle
 10
-197.590566
 20
-401.865479
 30
0.0
 40
500.0
100
AcDbArc
 50
86.916867
 51
93.083133
  0
ARC
  5
76
100
AcDbEntity
  8
2
370
    50
100
AcDbCircle
 10
-224.590566
 20
99.4079
 30
0.0
 40
2.0
100
AcDbArc
 50
180.0
 51
273.083133
  0
ARC
  5
77
100
AcDbEntity
  8
2
370
    50
100
AcDbCircle
 10
-224.590566
 20
103.173676
 30
0.0
 40
2.0
100
AcDbArc
 50
93.107922
 51
180.0
  0
ARC
  5
78
100
AcDbEntity
  8
2
370
    50
100
AcDbCircle
 10
-197.590566
 20
-394.093858
 30
0.0
 40
500.0
100
AcDbArc
 50
86.892078
 51
93.107922
  0
ARC
  5
79
100
AcDbEntity
  8
2
370
    50
100
AcDbCircle
 10
-170.590566
 20
103.173676
 30
0.0
 40
2.0
100
AcDbArc
 50
0.0
 51
86.892078
  0
ARC
  5
7A
100
AcDbEntity
  8
2
370
    50
100
AcDbCircle
 10
-197.590566
 20
-396.305684
 30
0.0
 40
500.0
100
AcDbArc
 50
86.892078
 51
93.107922
  0
ARC
  5
7B
100
AcDbEntity
  8
2
370
    50
100
AcDbCircle
 10
-1714.231356
 20
-93.842123
 30
0.0
 40
1510.0
100
AcDbArc
 50
6.471945
 51
7.290578
  0
ARC
  5
7C
100
AcDbEntity
  8
2
370
    50
100
AcDbCircle
 10
1319.063139
 20
-93.742261
 30
0.0
 40
1510.0
100
AcDbArc
 50
172.713243
 51
173.531817
  0
ARC
  5
7D
100
AcDbEntity
  8
2
370
    50
100
AcDbCircle
 10
-170.590566
 20
100.961849
 30
0.0
 40
2.0
100
AcDbArc
 50
0.0
 51
86.892078
  0
ARC
  5
7E
100
AcDbEntity
  8
2
370
    50
100
AcDbCircle
 10
-224.590566
 20
100.961849
 30
0.0
 40
2.0
100
AcDbArc
 50
93.107922
 51
180.0
  0
LINE
  5
7F
100
AcDbEntity
  8
2
370
    50
100
AcDbLine
 10
-170.084736
 20
92.775087
 30
0.0
 11
-168.590566
 21
99.4079
 31
0.0
  0
LINE
  5
80
100
AcDbEntity
  8
2
370
    50
100
AcDbLine
 10
-226.590566
 20
99.4079
 30
0.0
 11
-225.096397
 21
92.775087
 31
0.0
  0
LINE
  5
81
100
AcDbEntity
  8
2
370
    25
100
AcDbLine
 10
-182.101898
 20
78.001698
 30
0.0
 11
-197.590566
 21
78.001698
 31
0.0
  0
LINE
  5
82
100
AcDbEntity
  8
2
370
    25
100
AcDbLine
 10
-197.590566
 20
78.001698
 30
0.0
 11
-213.144348
 21
78.001698
 31
0.0
  0
LINE
  5
83
100
AcDbEntity
  8
2
370
    50
100
AcDbLine
 10
-200.090566
 20
64.726894
 30
0.0
 11
-200.090566
 21
64.10158
 31
0.0
  0
LINE
  5
84
100
AcDbEntity
  8
2
370
    50
100
AcDbLine
 10
-195.090566
 20
64.726894
 30
0.0
 11
-195.090566
 21
64.10158
 31
0.0
  0
LINE
  5
85
100
AcDbEntity
  8
2
370
    50
100
AcDbLine
 10
-200.090566
 20
64.10158
 30
0.0
 11
-195.090566
 21
64.10158
 31
0.0
  0
LINE
  5
86
100
AcDbEntity
  8
2
370
    50
100
AcDbLine
 10
-187.590566
 20
83.13931
 30
0.0
 11
-188.532174
 21
67.262362
 31
0.0
  0
LINE
  5
87
100
AcDbEntity
  8
2
370
    50
100
AcDbLine
 10
-207.590566
 20
83.13931
 30
0.0
 11
-206.648959
 21
67.262362
 31
0.0
  0
ARC
  5
88
100
AcDbEntity
  8
2
370
    50
100
AcDbCircle
 10
-197.590566
 20
89.60158
 30
0.0
 40
25.0
100
AcDbArc
 50
251.23147
 51
288.76853
  0
ARC
  5
89
100
AcDbEntity
  8
2
370
    50
100
AcDbCircle
 10
-190.029543
 20
67.351166
 30
0.0
 40
1.5
100
AcDbArc
 50
288.76853
 51
356.605959
  0
ARC
  5
8A
100
AcDbEntity
  8
2
370
    50
100
AcDbCircle
 10
-205.15159
 20
67.351166
 30
0.0
 40
1.5
100
AcDbArc
 50
183.394041
 51
251.23147
  0
ARC
  5
8B
100
AcDbEntity
  8
2
370
    50
100
AcDbCircle
 10
-332.407277
 20
68.601235
 30
0.0
 40
110.0
100
AcDbArc
 50
357.0
 51
12.695072
  0
ARC
  5
8C
100
AcDbEntity
  8
2
370
    50
100
AcDbCircle
 10
-62.773856
 20
68.601235
 30
0.0
 40
110.0
100
AcDbArc
 50
167.304928
 51
183.0
  0
ARC
  5
8D
100
AcDbEntity
  8
2
370
    25
100
AcDbCircle
 10
-193.84485
 20
77.780852
 30
0.0
 40
12.6
100
AcDbArc
 50
325.265523
 51
336.866841
  0
ARC
  5
8E
100
AcDbEntity
  8
2
370
    50
100
AcDbCircle
 10
-193.84485
 20
77.780852
 30
0.0
 40
12.6
100
AcDbArc
 50
336.866841
 51
353.531817
  0
ARC
  5
8F
100
AcDbEntity
  8
2
370
    50
100
AcDbCircle
 10
-201.334634
 20
77.78033
 30
0.0
 40
12.6
100
AcDbArc
 50
186.471945
 51
203.130575
  0
ARC
  5
90
100
AcDbEntity
  8
2
370
    25
100
AcDbCircle
 10
-201.334634
 20
77.78033
 30
0.0
 40
12.6
100
AcDbArc
 50
203.130575
 51
214.731586
  0
LINE
  5
91
100
AcDbEntity
  8
2
370
    50
100
AcDbLine
 10
-197.590566
 20
83.23932
 30
0.0
 11
-197.590566
 21
64.60158
 31
0.0
  0
LINE
  5
92
100
AcDbEntity
  8
2
370
    50
100
AcDbLine
 10
-197.590566
 20
15.024893
 30
0.0
 11
-260.090566
 21
15.024893
 31
0.0
  0
LINE
  5
93
100
AcDbEntity
  8
2
370
    50
100
AcDbLine
 10
-261.090566
 20
14.024893
 30
0.0
 11
-261.090566
 21
-19.975147
 31
0.0
  0
LINE
  5
94
100
AcDbEntity
  8
2
370
    50
100
AcDbLine
 10
-184.590566
 20
-20.975147
 30
0.0
 11
-184.590566
 21
-22.974712
 31
0.0
  0
LINE
  5
95
100
AcDbEntity
  8
2
370
    50
100
AcDbLine
 10
-210.590566
 20
-20.975147
 30
0.0
 11
-210.590566
 21
-22.974712
 31
0.0
  0
LINE
  5
96
100
AcDbEntity
  8
2
370
    50
100
AcDbLine
 10
-185.190566
 20
-22.974712
 30
0.0
 11
-184.590566
 21
-22.374712
 31
0.0
  0
LINE
  5
97
100
AcDbEntity
  8
2
370
    50
100
AcDbLine
 10
-209.990566
 20
-22.974712
 30
0.0
 11
-210.590566
 21
-22.374712
 31
0.0
  0
LINE
  5
98
100
AcDbEntity
  8
2
370
    50
100
AcDbLine
 10
-197.590566
 20
15.024569
 30
0.0
 11
-135.090566
 21
15.024569
 31
0.0
  0
LINE
  5
99
100
AcDbEntity
  8
2
370
    50
100
AcDbLine
 10
-134.090566
 20
-19.975147
 30
0.0
 11
-134.090566
 21
14.024569
 31
0.0
  0
ARC
  5
9A
100
AcDbEntity
  8
2
370
    50
100
AcDbCircle
 10
-135.090566
 20
14.024569
 30
0.0
 40
1.0
100
AcDbArc
 50
0.0
 51
90.0
  0
ARC
  5
9B
100
AcDbEntity
  8
2
370
    50
100
AcDbCircle
 10
-135.090566
 20
-19.975147
 30
0.0
 40
1.0
100
AcDbArc
 50
270.0
 51
360.0
  0
ARC
  5
9C
100
AcDbEntity
  8
2
370
    50
100
AcDbCircle
 10
-260.090566
 20
14.024893
 30
0.0
 40
1.0
100
AcDbArc
 50
90.0
 51
180.0
  0
ARC
  5
9D
100
AcDbEntity
  8
2
370
    50
100
AcDbCircle
 10
-260.090566
 20
-19.975147
 30
0.0
 40
1.0
100
AcDbArc
 50
180.0
 51
270.0
  0
POINT
  5
9E
100
AcDbEntity
  8
2
370
    50
100
AcDbPoint
 10
-147.590566
 20
-2.975084
 30
0.0
  0
POINT
  5
9F
100
AcDbEntity
  8
2
370
    50
100
AcDbPoint
 10
-247.590566
 20
-2.975084
 30
0.0
  0
LINE
  5
A0
100
AcDbEntity
  8
2
370
    50
100
AcDbLine
 10
-222.890566
 20
15.324893
 30
0.0
 11
-172.290566
 21
15.324893
 31
0.0
  0
LINE
  5
A1
100
AcDbEntity
  8
2
370
    50
100
AcDbLine
 10
-173.590566
 20
15.324893
 30
0.0
 11
-173.590566
 21
15.024569
 31
0.0
  0
LINE
  5
A2
100
AcDbEntity
  8
2
370
    50
100
AcDbLine
 10
-221.590566
 20
15.324893
 30
0.0
 11
-221.590566
 21
15.024893
 31
0.0
  0
LINE
  5
A3
100
AcDbEntity
  8
2
370
    50
100
AcDbLine
 10
-223.090566
 20
15.524893
 30
0.0
 11
-223.090566
 21
29.183897
 31
0.0
  0
LINE
  5
A4
100
AcDbEntity
  8
2
370
    50
100
AcDbLine
 10
-172.090566
 20
15.524893
 30
0.0
 11
-172.090566
 21
29.183897
 31
0.0
  0
LINE
  5
A5
100
AcDbEntity
  8
2
370
    50
100
AcDbLine
 10
-174.590566
 20
32.25406
 30
0.0
 11
-174.590566
 21
29.824715
 31
0.0
  0
LINE
  5
A6
100
AcDbEntity
  8
2
370
    50
100
AcDbLine
 10
-220.590566
 20
32.25406
 30
0.0
 11
-220.590566
 21
29.824715
 31
0.0
  0
LINE
  5
A7
100
AcDbEntity
  8
2
370
    50
100
AcDbLine
 10
-220.590566
 20
29.824715
 30
0.0
 11
-222.893605
 21
29.418627
 31
0.0
  0
LINE
  5
A8
100
AcDbEntity
  8
2
370
    50
100
AcDbLine
 10
-174.590566
 20
29.824715
 30
0.0
 11
-172.287528
 21
29.418627
 31
0.0
  0
LINE
  5
A9
100
AcDbEntity
  8
2
370
    50
100
AcDbLine
 10
-172.290566
 20
15.324893
 30
0.0
 11
-172.090566
 21
15.524893
 31
0.0
  0
LINE
  5
AA
100
AcDbEntity
  8
2
370
    50
100
AcDbLine
 10
-222.890566
 20
15.324893
 30
0.0
 11
-223.090566
 21
15.524893
 31
0.0
  0
LINE
  5
AB
100
AcDbEntity
  8
2
370
    50
100
AcDbLine
 10
-172.090566
 20
29.183897
 30
0.0
 11
-172.287528
 21
29.418627
 31
0.0
  0
LINE
  5
AC
100
AcDbEntity
  8
2
370
    50
100
AcDbLine
 10
-223.090566
 20
29.183897
 30
0.0
 11
-222.893605
 21
29.418627
 31
0.0
  0
LINE
  5
AD
100
AcDbEntity
  8
2
370
    25
100
AcDbLine
 10
-174.590566
 20
29.824715
 30
0.0
 11
-220.590566
 21
29.824715
 31
0.0
  0
LINE
  5
AE
100
AcDbEntity
  8
2
370
    25
100
AcDbLine
 10
-172.090566
 20
29.183897
 30
0.0
 11
-223.090566
 21
29.183897
 31
0.0
  0
LINE
  5
AF
100
AcDbEntity
  8
2
370
    50
100
AcDbLine
 10
-172.090566
 20
15.524893
 30
0.0
 11
-223.090566
 21
15.524893
 31
0.0
  0
LINE
  5
B0
100
AcDbEntity
  8
2
370
    50
100
AcDbLine
 10
-263.36483
 20
-0.29691
 30
0.0
 11
-261.090566
 21
3.64223
 31
0.0
  0
LINE
  5
B1
100
AcDbEntity
  8
2
370
    50
100
AcDbLine
 10
-261.090566
 20
-9.592399
 30
0.0
 11
-263.36483
 21
-5.653259
 31
0.0
  0
ARC
  5
B2
100
AcDbEntity
  8
2
370
    50
100
AcDbCircle
 10
-247.590566
 20
-2.975084
 30
0.0
 40
16.0
100
AcDbArc
 50
170.364135
 51
189.635865
  0
ARC
  5
B3
100
AcDbEntity
  8
2
370
    50
100
AcDbCircle
 10
-247.590566
 20
-2.975084
 30
0.0
 40
14.55
100
AcDbArc
 50
158.099815
 51
201.900185
  0
LINE
  5
B4
100
AcDbEntity
  8
2
370
    50
100
AcDbLine
 10
-131.816303
 20
-0.29691
 30
0.0
 11
-134.090566
 21
3.64223
 31
0.0
  0
LINE
  5
B5
100
AcDbEntity
  8
2
370
    50
100
AcDbLine
 10
-134.090566
 20
-9.592399
 30
0.0
 11
-131.816303
 21
-5.653259
 31
0.0
  0
ARC
  5
B6
100
AcDbEntity
  8
2
370
    50
100
AcDbCircle
 10
-147.590566
 20
-2.975084
 30
0.0
 40
16.0
100
AcDbArc
 50
350.364135
 51
9.635865
  0
ARC
  5
B7
100
AcDbEntity
  8
2
370
    50
100
AcDbCircle
 10
-147.590566
 20
-2.975084
 30
0.0
 40
14.55
100
AcDbArc
 50
338.099815
 51
21.900185
  0
LINE
  5
B8
100
AcDbEntity
  8
2
370
    50
100
AcDbLine
 10
248.367154
 20
7.525625
 30
0.0
 11
250.367154
 21
7.525625
 31
0.0
  0
LINE
  5
B9
100
AcDbEntity
  8
2
370
    50
100
AcDbLine
 10
248.367154
 20
-13.474375
 30
0.0
 11
250.367154
 21
-13.474375
 31
0.0
  0
LINE
  5
BA
100
AcDbEntity
  8
2
370
    50
100
AcDbLine
 10
250.367154
 20
-17.224375
 30
0.0
 11
250.367154
 21
11.275625
 31
0.0
  0
ARC
  5
BB
100
AcDbEntity
  8
2
370
    50
100
AcDbCircle
 10
257.117154
 20
-0.989672
 30
0.0
 40
14.0
100
AcDbArc
 50
61.174551
 51
118.825449
  0
LINE
  5
BC
100
AcDbEntity
  8
2
370
    50
100
AcDbLine
 10
263.867154
 20
-17.224375
 30
0.0
 11
263.867154
 21
11.275625
 31
0.0
  0
ARC
  5
BD
100
AcDbEntity
  8
2
370
    50
100
AcDbCircle
 10
257.117154
 20
-4.959079
 30
0.0
 40
14.0
100
AcDbArc
 50
241.174551
 51
298.825449
  0
ELLIPSE
  5
BE
100
AcDbEntity
  8
2
370
    50
100
AcDbEllipse
 10
257.117154
 20
-15.964509
 30
0.0
 11
4.25
 21
0.0
 31
0.0
210
0.0
220
0.0
230
1.0
 40
0.655059
 41
0.0
 42
6.2831849999999996
  0
ELLIPSE
  5
BF
100
AcDbEntity
  8
2
370
    50
100
AcDbEllipse
 10
257.117154
 20
-2.974128
 30
0.0
 11
0.0
 21
-5.5679999999999996
 31
0.0
210
0.0
220
0.0
230
1.0
 40
0.76329
 41
0.0
 42
6.2831849999999996
  0
ELLIPSE
  5
C0
100
AcDbEntity
  8
2
370
    50
100
AcDbEllipse
 10
257.117154
 20
10.016253
 30
0.0
 11
-4.25
 21
0.0
 31
0.0
210
0.0
220
0.0
230
1.0
 40
0.655059
 41
0.0
 42
6.2831849999999996
  0
LINE
  5
C1
100
AcDbEntity
  8
2
370
    25
100
AcDbLine
 10
266.116425
 20
29.825551
 30
0.0
 11
220.891373
 21
29.825551
 31
0.0
  0
LINE
  5
C2
100
AcDbEntity
  8
2
370
    25
100
AcDbLine
 10
267.678406
 20
29.384734
 30
0.0
 11
219.045441
 21
29.384734
 31
0.0
  0
LINE
  5
C3
100
AcDbEntity
  8
2
370
    50
100
AcDbLine
 10
268.867154
 20
15.52573
 30
0.0
 11
217.867154
 21
15.52573
 31
0.0
  0
LINE
  5
C4
100
AcDbEntity
  8
2
370
    50
100
AcDbLine
 10
248.367154
 20
-20.974814
 30
0.0
 11
248.367154
 21
15.025771
 31
0.0
  0
POINT
  5
C5
100
AcDbEntity
  8
2
370
    50
100
AcDbPoint
 10
248.367154
 20
-2.974128
 30
0.0
  0
ARC
  5
C6
100
AcDbEntity
  8
2
370
    50
100
AcDbCircle
 10
221.592988
 20
-27.974712
 30
0.0
 40
5.0
100
AcDbArc
 50
221.840901
 51
270.0
  0
ARC
  5
C7
100
AcDbEntity
  8
2
370
    50
100
AcDbCircle
 10
238.937702
 20
-27.974712
 30
0.0
 40
8.205286
100
AcDbArc
 50
32.369572
 51
37.543478
  0
ARC
  5
C8
100
AcDbEntity
  8
2
370
    50
100
AcDbCircle
 10
242.142988
 20
-27.974712
 30
0.0
 40
5.0
100
AcDbArc
 50
270.0
 51
318.159099
  0
ARC
  5
C9
100
AcDbEntity
  8
2
370
    50
100
AcDbCircle
 10
224.798274
 20
-27.974712
 30
0.0
 40
8.205286
100
AcDbArc
 50
142.456522
 51
147.630428
  0
LINE
  5
CA
100
AcDbEntity
  8
2
370
    50
100
AcDbLine
 10
245.867988
 20
-31.310034
 30
0.0
 11
245.867988
 21
-23.581779
 31
0.0
  0
LINE
  5
CB
100
AcDbEntity
  8
2
370
    50
100
AcDbLine
 10
217.867988
 20
-31.310034
 30
0.0
 11
217.867988
 21
-23.581779
 31
0.0
  0
LINE
  5
CC
100
AcDbEntity
  8
2
370
    50
100
AcDbLine
 10
218.292375
 20
-22.974712
 30
0.0
 11
245.443601
 21
-22.974712
 31
0.0
  0
LINE
  5
CD
100
AcDbEntity
  8
2
370
    50
100
AcDbLine
 10
221.592988
 20
-32.974712
 30
0.0
 11
242.142988
 21
-32.974712
 31
0.0
  0
ELLIPSE
  5
CE
100
AcDbEntity
  8
2
370
    50
100
AcDbEllipse
 10
224.867988
 20
-27.445907
 30
0.0
 11
5.5560780000000003
 21
0.0
 31
0.0
210
0.0
220
0.0
230
1.0
 40
0.695478
 41
0.0
 42
6.2831849999999996
  0
ELLIPSE
  5
CF
100
AcDbEntity
  8
2
370
    50
100
AcDbEllipse
 10
238.867988
 20
-27.445907
 30
0.0
 11
5.5560780000000003
 21
0.0
 31
0.0
210
0.0
220
0.0
230
1.0
 40
0.695478
 41
0.0
 42
6.2831849999999996
  0
ARC
  5
D0
100
AcDbEntity
  8
2
370
    50
100
AcDbCircle
 10
-207.865566
 20
-27.974712
 30
0.0
 40
5.0
100
AcDbArc
 50
180.0
 51
270.0
  0
ARC
  5
D1
100
AcDbEntity
  8
2
370
    50
100
AcDbCircle
 10
-204.66028
 20
-27.974712
 30
0.0
 40
8.205286
100
AcDbArc
 50
142.456522
 51
180.0
  0
ARC
  5
D2
100
AcDbEntity
  8
2
370
    50
100
AcDbCircle
 10
-187.315566
 20
-27.974712
 30
0.0
 40
5.0
100
AcDbArc
 50
270.0
 51
0.0
  0
ARC
  5
D3
100
AcDbEntity
  8
2
370
    50
100
AcDbCircle
 10
-190.520853
 20
-27.974712
 30
0.0
 40
8.205286
100
AcDbArc
 50
0.0
 51
37.543478
  0
LINE
  5
D4
100
AcDbEntity
  8
2
370
    50
100
AcDbLine
 10
-208.223271
 20
-94.074128
 30
0.0
 11
-186.957862
 21
-94.074128
 31
0.0
  0
LINE
  5
D5
100
AcDbEntity
  8
2
370
    50
100
AcDbLine
 10
-209.590566
 20
-82.774128
 30
0.0
 11
-209.590566
 21
-90.574128
 31
0.0
  0
LINE
  5
D6
100
AcDbEntity
  8
2
370
    50
100
AcDbLine
 10
-185.590566
 20
-82.774128
 30
0.0
 11
-185.590566
 21
-90.574128
 31
0.0
  0
LINE
  5
D7
100
AcDbEntity
  8
2
370
    50
100
AcDbLine
 10
-185.590566
 20
-90.574128
 30
0.0
 11
-185.967912
 21
-93.215549
 31
0.0
  0
LINE
  5
D8
100
AcDbEntity
  8
2
370
    50
100
AcDbLine
 10
-209.590566
 20
-90.574128
 30
0.0
 11
-209.213221
 21
-93.215549
 31
0.0
  0
ARC
  5
D9
100
AcDbEntity
  8
2
370
    50
100
AcDbCircle
 10
-186.957862
 20
-93.074128
 30
0.0
 40
1.0
100
AcDbArc
 50
270.0
 51
351.869898
  0
ARC
  5
DA
100
AcDbEntity
  8
2
370
    50
100
AcDbCircle
 10
-208.223271
 20
-93.074128
 30
0.0
 40
1.0
100
AcDbArc
 50
188.130102
 51
270.0
  0
LINE
  5
DB
100
AcDbEntity
  8
2
370
    25
100
AcDbLine
 10
-209.024282
 20
-90.574128
 30
0.0
 11
-186.422109
 21
-90.574128
 31
0.0
  0
LINE
  5
DC
100
AcDbEntity
  8
2
370
    50
100
AcDbLine
 10
-189.690566
 20
-32.974712
 30
0.0
 11
-189.690566
 21
-47.72305
 31
0.0
  0
LINE
  5
DD
100
AcDbEntity
  8
2
370
    50
100
AcDbLine
 10
-205.490566
 20
-32.974712
 30
0.0
 11
-205.490566
 21
-47.72305
 31
0.0
  0
LINE
  5
DE
100
AcDbEntity
  8
2
370
    50
100
AcDbLine
 10
-209.390566
 20
-82.574128
 30
0.0
 11
-185.790566
 21
-82.574128
 31
0.0
  0
LINE
  5
DF
100
AcDbEntity
  8
2
370
    50
100
AcDbLine
 10
-185.790566
 20
-82.574128
 30
0.0
 11
-185.590566
 21
-82.774128
 31
0.0
  0
LINE
  5
E0
100
AcDbEntity
  8
2
370
    50
100
AcDbLine
 10
-209.390566
 20
-82.574128
 30
0.0
 11
-209.590566
 21
-82.774128
 31
0.0
  0
ARC
  5
E1
100
AcDbEntity
  8
2
370
    50
100
AcDbCircle
 10
-185.340566
 20
-57.474128
 30
0.0
 40
25.0
100
AcDbArc
 50
166.204472
 51
180.0
  0
ARC
  5
E2
100
AcDbEntity
  8
2
370
    50
100
AcDbCircle
 10
-197.590566
 20
-60.474128
 30
0.0
 40
15.0
100
AcDbArc
 50
36.686015
 51
143.313985
  0
ARC
  5
E3
100
AcDbEntity
  8
2
370
    50
100
AcDbCircle
 10
-209.840566
 20
-57.474128
 30
0.0
 40
25.0
100
AcDbArc
 50
0.0
 51
13.795528
  0
LINE
  5
E4
100
AcDbEntity
  8
2
370
    50
100
AcDbLine
 10
-184.840566
 20
-57.474128
 30
0.0
 11
-184.840566
 21
-78.974128
 31
0.0
  0
LINE
  5
E5
100
AcDbEntity
  8
2
370
    50
100
AcDbLine
 10
-210.340566
 20
-57.474128
 30
0.0
 11
-210.340566
 21
-78.974128
 31
0.0
  0
LINE
  5
E6
100
AcDbEntity
  8
2
370
    25
100
AcDbLine
 10
-209.590566
 20
-78.974128
 30
0.0
 11
-209.590566
 21
-51.474128
 31
0.0
  0
LINE
  5
E7
100
AcDbEntity
  8
2
370
    50
100
AcDbLine
 10
-210.340566
 20
-78.974128
 30
0.0
 11
-209.68525
 21
-81.595396
 31
0.0
  0
LINE
  5
E8
100
AcDbEntity
  8
2
370
    50
100
AcDbLine
 10
-184.840566
 20
-78.974128
 30
0.0
 11
-185.495883
 21
-81.595396
 31
0.0
  0
LINE
  5
E9
100
AcDbEntity
  8
2
370
    25
100
AcDbLine
 10
-185.590566
 20
-78.974128
 30
0.0
 11
-185.590566
 21
-51.474128
 31
0.0
  0
LINE
  5
EA
100
AcDbEntity
  8
2
370
    50
100
AcDbLine
 10
-186.840566
 20
-82.574128
 30
0.0
 11
-186.840566
 21
-81.974128
 31
0.0
  0
LINE
  5
EB
100
AcDbEntity
  8
2
370
    50
100
AcDbLine
 10
-208.340566
 20
-82.574128
 30
0.0
 11
-208.340566
 21
-81.974128
 31
0.0
  0
LINE
  5
EC
100
AcDbEntity
  8
2
370
    50
100
AcDbLine
 10
-185.980955
 20
-81.974128
 30
0.0
 11
-209.200178
 21
-81.974128
 31
0.0
  0
ARC
  5
ED
100
AcDbEntity
  8
2
370
    50
100
AcDbCircle
 10
-209.200178
 20
-81.474128
 30
0.0
 40
0.5
100
AcDbArc
 50
194.036243
 51
270.0
  0
ARC
  5
EE
100
AcDbEntity
  8
2
370
    50
100
AcDbCircle
 10
-185.980955
 20
-81.474128
 30
0.0
 40
0.5
100
AcDbArc
 50
270.0
 51
345.963757
  0
ARC
  5
EF
100
AcDbEntity
  8
2
370
    25
100
AcDbCircle
 10
73.867988
 20
-74.395875
 30
0.0
 40
7.578254
100
AcDbArc
 50
219.737283
 51
252.332056
  0
ARC
  5
F0
100
AcDbEntity
  8
2
370
    25
100
AcDbCircle
 10
49.867988
 20
-74.395875
 30
0.0
 40
7.578254
100
AcDbArc
 50
281.13592
 51
320.262717
  0
LINE
  5
F1
100
AcDbEntity
  8
2
370
    25
100
AcDbLine
 10
55.906988
 20
-78.974128
 30
0.0
 11
67.828988
 21
-78.974128
 31
0.0
  0
ARC
  5
F2
100
AcDbEntity
  8
2
370
    25
100
AcDbCircle
 10
81.867988
 20
-77.474128
 30
0.0
 40
25.961
100
AcDbArc
 50
90.0
 51
180.0
  0
LINE
  5
F3
100
AcDbEntity
  8
2
370
    25
100
AcDbLine
 10
81.867988
 20
-51.513128
 30
0.0
 11
105.867988
 21
-51.513128
 31
0.0
  0
LINE
  5
F4
100
AcDbEntity
  8
2
370
    25
100
AcDbLine
 10
105.867988
 20
-63.435569
 30
0.0
 11
81.756662
 21
-63.435569
 31
0.0
  0
ARC
  5
F5
100
AcDbEntity
  8
2
370
    25
100
AcDbCircle
 10
81.867988
 20
-77.474128
 30
0.0
 40
14.039
100
AcDbArc
 50
90.0
 51
180.0
  0
LINE
  5
F6
100
AcDbEntity
  8
2
370
    25
100
AcDbLine
 10
55.906988
 20
-77.474128
 30
0.0
 11
55.906988
 21
-78.974128
 31
0.0
  0
LINE
  5
F7
100
AcDbEntity
  8
2
370
    50
100
AcDbLine
 10
109.867988
 20
-49.524128
 30
0.0
 11
211.867988
 21
-49.524128
 31
0.0
  0
LINE
  5
F8
100
AcDbEntity
  8
2
370
    50
100
AcDbLine
 10
109.867988
 20
-65.424128
 30
0.0
 11
211.867988
 21
-65.424128
 31
0.0
  0
LINE
  5
F9
100
AcDbEntity
  8
2
370
    50
100
AcDbLine
 10
73.867988
 20
-77.474128
 30
0.0
 11
73.867988
 21
-81.474128
 31
0.0
  0
ARC
  5
FA
100
AcDbEntity
  8
2
370
    50
100
AcDbCircle
 10
73.117988
 20
-82.474128
 30
0.0
 40
0.5
100
AcDbArc
 50
90.0
 51
180.0
  0
LINE
  5
FB
100
AcDbEntity
  8
2
370
    50
100
AcDbLine
 10
109.867988
 20
-46.474128
 30
0.0
 11
109.867988
 21
-68.474128
 31
0.0
  0
LINE
  5
FC
100
AcDbEntity
  8
2
370
    50
100
AcDbLine
 10
81.867988
 20
-69.474128
 30
0.0
 11
105.867988
 21
-69.474128
 31
0.0
  0
ARC
  5
FD
100
AcDbEntity
  8
2
370
    50
100
AcDbCircle
 10
81.867988
 20
-77.474128
 30
0.0
 40
8.0
100
AcDbArc
 50
90.0
 51
180.0
  0
ARC
  5
FE
100
AcDbEntity
  8
2
370
    50
100
AcDbCircle
 10
73.367988
 20
-81.474128
 30
0.0
 40
0.5
100
AcDbArc
 50
270.0
 51
360.0
  0
LINE
  5
FF
100
AcDbEntity
  8
2
370
    50
100
AcDbLine
 10
72.617988
 20
-82.474128
 30
0.0
 11
72.617988
 21
-82.574128
 31
0.0
  0
ARC
  5
100
100
AcDbEntity
  8
2
370
    50
100
AcDbCircle
 10
105.867988
 20
-60.974128
 30
0.0
 40
8.5
100
AcDbArc
 50
270.0
 51
298.072487
  0
LINE
  5
101
100
AcDbEntity
  8
2
370
    50
100
AcDbLine
 10
81.867988
 20
-45.474128
 30
0.0
 11
105.867988
 21
-45.474128
 31
0.0
  0
ARC
  5
102
100
AcDbEntity
  8
2
370
    50
100
AcDbCircle
 10
81.867988
 20
-77.474128
 30
0.0
 40
32.0
100
AcDbArc
 50
90.0
 51
180.0
  0
LINE
  5
103
100
AcDbEntity
  8
2
370
    50
100
AcDbLine
 10
49.867988
 20
-77.474128
 30
0.0
 11
49.867988
 21
-81.474128
 31
0.0
  0
ARC
  5
104
100
AcDbEntity
  8
2
370
    50
100
AcDbCircle
 10
50.367988
 20
-81.474128
 30
0.0
 40
0.5
100
AcDbArc
 50
180.0
 51
270.0
  0
LINE
  5
105
100
AcDbEntity
  8
2
370
    50
100
AcDbLine
 10
50.367988
 20
-81.974128
 30
0.0
 11
73.367988
 21
-81.974128
 31
0.0
  0
LINE
  5
106
100
AcDbEntity
  8
2
370
    50
100
AcDbLine
 10
51.117988
 20
-82.474128
 30
0.0
 11
51.117988
 21
-82.574128
 31
0.0
  0
ARC
  5
107
100
AcDbEntity
  8
2
370
    50
100
AcDbCircle
 10
50.617988
 20
-82.474128
 30
0.0
 40
0.5
100
AcDbArc
 50
0.0
 51
90.0
  0
ARC
  5
108
100
AcDbEntity
  8
2
370
    50
100
AcDbCircle
 10
105.867988
 20
-53.974128
 30
0.0
 40
8.5
100
AcDbArc
 50
61.927513
 51
90.0
  0
LINE
  5
109
100
AcDbEntity
  8
2
370
    50
100
AcDbLine
 10
51.545021
 20
-94.074128
 30
0.0
 11
72.190955
 21
-94.074128
 31
0.0
  0
LINE
  5
10A
100
AcDbEntity
  8
2
370
    50
100
AcDbLine
 10
49.867988
 20
-82.774128
 30
0.0
 11
49.867988
 21
-91.574128
 31
0.0
  0
LINE
  5
10B
100
AcDbEntity
  8
2
370
    50
100
AcDbLine
 10
73.867988
 20
-82.774128
 30
0.0
 11
73.867988
 21
-91.574128
 31
0.0
  0
LINE
  5
10C
100
AcDbEntity
  8
2
370
    50
100
AcDbLine
 10
73.867988
 20
-82.774128
 30
0.0
 11
73.667988
 21
-82.574128
 31
0.0
  0
LINE
  5
10D
100
AcDbEntity
  8
2
370
    50
100
AcDbLine
 10
49.867988
 20
-82.774128
 30
0.0
 11
50.067988
 21
-82.574128
 31
0.0
  0
LINE
  5
10E
100
AcDbEntity
  8
2
370
    50
100
AcDbLine
 10
50.067988
 20
-82.574128
 30
0.0
 11
73.667988
 21
-82.574128
 31
0.0
  0
LINE
  5
10F
100
AcDbEntity
  8
2
370
    50
100
AcDbLine
 10
73.867988
 20
-91.574128
 30
0.0
 11
73.119432
 21
-93.445519
 31
0.0
  0
LINE
  5
110
100
AcDbEntity
  8
2
370
    50
100
AcDbLine
 10
49.867988
 20
-91.574128
 30
0.0
 11
50.616545
 21
-93.445519
 31
0.0
  0
ARC
  5
111
100
AcDbEntity
  8
2
370
    50
100
AcDbCircle
 10
51.545021
 20
-93.074128
 30
0.0
 40
1.0
100
AcDbArc
 50
201.801409
 51
270.0
  0
ARC
  5
112
100
AcDbEntity
  8
2
370
    50
100
AcDbCircle
 10
72.190955
 20
-93.074128
 30
0.0
 40
1.0
100
AcDbArc
 50
270.0
 51
338.198591
  0
POINT
  5
113
100
AcDbEntity
  8
2
370
    50
100
AcDbPoint
 10
231.867988
 20
-32.974712
 30
0.0
  0
LINE
  5
114
100
AcDbEntity
  8
2
370
    25
100
AcDbLine
 10
72.746546
 20
-91.574128
 30
0.0
 11
50.859505
 21
-91.574128
 31
0.0
  0
POINT
  5
115
100
AcDbEntity
  8
2
370
    50
100
AcDbPoint
 10
61.867988
 20
-94.074128
 30
0.0
  0
LINE
  5
116
100
AcDbEntity
  8
2
370
    50
100
AcDbLine
 10
-260.090566
 20
-20.975147
 30
0.0
 11
-135.090566
 21
-20.975147
 31
0.0
  0
LINE
  5
117
100
AcDbEntity
  8
2
370
    50
100
AcDbLine
 10
-211.166179
 20
-22.974712
 30
0.0
 11
-184.014954
 21
-22.974712
 31
0.0
  0
ELLIPSE
  5
118
100
AcDbEntity
  8
2
370
    50
100
AcDbEllipse
 10
-185.466211
 20
-27.445907
 30
0.0
 11
0.0
 21
3.8641269999999999
 31
0.0
210
0.0
220
0.0
230
1.0
 40
0.790537
 41
0.0
 42
6.2831849999999996
  0
ELLIPSE
  5
119
100
AcDbEntity
  8
2
370
    50
100
AcDbEllipse
 10
-209.714922
 20
-27.445907
 30
0.0
 11
0.0
 21
-3.8641269999999999
 31
0.0
210
0.0
220
0.0
230
1.0
 40
0.790537
 41
0.0
 42
6.2831849999999996
  0
POINT
  5
11A
100
AcDbEntity
  8
2
370
    50
100
AcDbPoint
 10
243.367154
 20
34.725746
 30
0.0
  0
ARC
  5
11B
100
AcDbEntity
  8
2
370
    50
100
AcDbCircle
 10
40.001229
 20
-394.40226
 30
0.0
 40
500.0
100
AcDbArc
 50
70.266103
 51
78.450142
  0
LINE
  5
11C
100
AcDbEntity
  8
2
370
    50
100
AcDbLine
 10
242.129769
 20
31.791571
 30
0.0
 11
215.928569
 21
32.248915
 31
0.0
  0
LINE
  5
11D
100
AcDbEntity
  8
2
370
    50
100
AcDbLine
 10
244.007413
 20
32.156548
 30
0.0
 11
268.130128
 21
42.396033
 31
0.0
  0
ARC
  5
11E
100
AcDbEntity
  8
2
370
    50
100
AcDbCircle
 10
268.012909
 20
42.672184
 30
0.0
 40
0.3
100
AcDbArc
 50
293.0
 51
1.579148
  0
ARC
  5
11F
100
AcDbEntity
  8
2
370
    50
100
AcDbCircle
 10
265.318389
 20
60.579841
 30
0.0
 40
2.5
100
AcDbArc
 50
1.579148
 51
53.184173
  0
ARC
  5
120
100
AcDbEntity
  8
2
370
    50
100
AcDbCircle
 10
228.501651
 20
78.594344
 30
0.0
 40
3.0
100
AcDbArc
 50
69.470338
 51
97.744647
  0
ARC
  5
121
100
AcDbEntity
  8
2
370
    50
100
AcDbCircle
 10
242.21005
 20
36.39087
 30
0.0
 40
4.6
100
AcDbArc
 50
269.0
 51
293.0
  0
LINE
  5
122
100
AcDbEntity
  8
2
370
    50
100
AcDbLine
 10
268.312795
 20
42.680452
 30
0.0
 11
267.81744
 21
60.648735
 31
0.0
  0
ARC
  5
123
100
AcDbEntity
  8
2
370
    50
100
AcDbCircle
 10
149.219179
 20
-3.623595
 30
0.0
 40
110.0
100
AcDbArc
 50
95.299884
 51
101.319359
  0
LINE
  5
124
100
AcDbEntity
  8
2
370
    50
100
AcDbLine
 10
125.327503
 20
101.025296
 30
0.0
 11
125.704536
 21
102.432405
 31
0.0
  0
ARC
  5
125
100
AcDbEntity
  8
2
370
    50
100
AcDbCircle
 10
40.001229
 20
-394.40226
 30
0.0
 40
500.0
100
AcDbArc
 50
78.450142
 51
79.944087
  0
ARC
  5
126
100
AcDbEntity
  8
2
370
    50
100
AcDbCircle
 10
200.899576
 20
-25.48099
 30
0.0
 40
110.0
100
AcDbArc
 50
53.184173
 51
67.905627
  0
ARC
  5
127
100
AcDbEntity
  8
2
370
    50
100
AcDbCircle
 10
149.18088
 20
118.304775
 30
0.0
 40
16.0
100
AcDbArc
 50
230.771799
 51
258.85705
  0
LINE
  5
128
100
AcDbEntity
  8
2
370
    50
100
AcDbLine
 10
223.150895
 20
80.894264
 30
0.0
 11
228.097375
 21
81.566979
 31
0.0
  0
ARC
  5
129
100
AcDbEntity
  8
2
370
    50
100
AcDbCircle
 10
49.460004
 20
-387.967629
 30
0.0
 40
500.0
100
AcDbArc
 50
69.672743
 51
78.85705
  0
ARC
  5
12A
100
AcDbEntity
  8
2
370
    50
100
AcDbCircle
 10
54.2076
 20
-386.841564
 30
0.0
 40
500.0
100
AcDbArc
 50
67.905627
 51
69.470338
  0
ARC
  5
12B
100
AcDbEntity
  8
2
370
    50
100
AcDbCircle
 10
128.119351
 20
101.785358
 30
0.0
 40
2.5
100
AcDbArc
 50
101.319359
 51
165.0
  0
ARC
  5
12C
100
AcDbEntity
  8
2
370
    50
100
AcDbCircle
 10
127.742317
 20
100.378248
 30
0.0
 40
2.5
100
AcDbArc
 50
165.0
 51
259.944087
  0
LINE
  5
12D
100
AcDbEntity
  8
2
370
    50
100
AcDbLine
 10
242.130152
 20
31.791564
 30
0.0
 11
231.863055
 21
54.851842
 31
0.0
  0
ARC
  5
12E
100
AcDbEntity
  8
2
370
    50
100
AcDbCircle
 10
195.321236
 20
38.582376
 30
0.0
 40
40.0
100
AcDbArc
 50
24.0
 51
70.266103
  0
LINE
  5
12F
100
AcDbEntity
  8
2
370
    50
100
AcDbLine
 10
215.633805
 20
32.548869
 30
0.0
 11
215.633805
 21
63.224417
 31
0.0
  0
ARC
  5
130
100
AcDbEntity
  8
2
370
    50
100
AcDbCircle
 10
200.633805
 20
63.224417
 30
0.0
 40
15.0
100
AcDbArc
 50
0.0
 51
70.658301
  0
ARC
  5
131
100
AcDbEntity
  8
2
370
    50
100
AcDbCircle
 10
215.933805
 20
32.548869
 30
0.0
 40
0.3
100
AcDbArc
 50
180.0
 51
269.0
  0
ARC
  5
132
100
AcDbEntity
  8
2
370
    25
100
AcDbCircle
 10
56.176319
 20
-391.165972
 30
0.0
 40
500.0
100
AcDbArc
 50
65.019107
 51
81.820694
  0
POINT
  5
133
100
AcDbEntity
  8
2
370
    50
100
AcDbPoint
 10
215.633805
 20
32.25406
 30
0.0
  0
ARC
  5
134
100
AcDbEntity
  8
2
370
    50
  6
DASHED
100
AcDbCircle
 10
-147.316906
 20
-235.227046
 30
0.0
 40
500.0
100
AcDbArc
 50
43.701039
 51
48.450142
  0
ARC
  5
135
100
AcDbEntity
  8
2
370
    50
  6
DASHED
100
AcDbCircle
 10
142.657946
 20
48.58823
 30
0.0
 40
110.0
100
AcDbArc
 50
65.299884
 51
71.319359
  0
LINE
  5
136
100
AcDbEntity
  8
2
370
    50
  6
DASHED
100
AcDbLine
 10
174.291592
 20
151.162666
 30
0.0
 11
175.321668
 21
152.192742
 31
0.0
  0
ARC
  5
137
100
AcDbEntity
  8
2
370
    50
  6
DASHED
100
AcDbCircle
 10
-147.316906
 20
-235.227046
 30
0.0
 40
500.0
100
AcDbArc
 50
48.450142
 51
49.944087
  0
ARC
  5
138
100
AcDbEntity
  8
2
370
    50
  6
DASHED
100
AcDbCircle
 10
203.588962
 20
154.200446
 30
0.0
 40
16.0
100
AcDbArc
 50
200.771799
 51
228.85705
  0
ARC
  5
139
100
AcDbEntity
  8
2
370
    50
  6
DASHED
100
AcDbCircle
 10
-135.908051
 20
-234.38388
 30
0.0
 40
500.0
100
AcDbArc
 50
44.822136
 51
48.85705
  0
ARC
  5
13A
100
AcDbEntity
  8
2
370
    50
  6
DASHED
100
AcDbCircle
 10
177.089435
 20
150.424975
 30
0.0
 40
2.5
100
AcDbArc
 50
71.319359
 51
135.0
  0
ARC
  5
13B
100
AcDbEntity
  8
2
370
    50
  6
DASHED
100
AcDbCircle
 10
176.059359
 20
149.394899
 30
0.0
 40
2.5
100
AcDbArc
 50
135.0
 51
229.944087
  0
LINE
  5
13C
100
AcDbEntity
  8
2
370
    50
100
AcDbLine
 10
223.917988
 20
-37.474128
 30
0.0
 11
223.917988
 21
-32.974712
 31
0.0
  0
LINE
  5
13D
100
AcDbEntity
  8
2
370
    50
100
AcDbLine
 10
239.817988
 20
-37.474128
 30
0.0
 11
239.817988
 21
-32.974712
 31
0.0
  0
ARC
  5
13E
100
AcDbEntity
  8
2
370
    50
100
AcDbCircle
 10
211.867988
 20
-37.474128
 30
0.0
 40
12.05
100
AcDbArc
 50
270.0
 51
0.0
  0
ARC
  5
13F
100
AcDbEntity
  8
2
370
    50
100
AcDbCircle
 10
211.867988
 20
-37.474128
 30
0.0
 40
27.95
100
AcDbArc
 50
270.0
 51
0.0
  0
LINE
  5
140
100
AcDbEntity
  8
2
370
    50
100
AcDbLine
 10
-187.315566
 20
-32.974712
 30
0.0
 11
-207.865566
 21
-32.974712
 31
0.0
  0
ELLIPSE
  5
141
100
AcDbEntity
  8
2
370
    50
100
AcDbEllipse
 10
-197.590566
 20
-27.445907
 30
0.0
 11
-6.10947
 21
0.0
 31
0.0
210
0.0
220
0.0
230
1.0
 40
0.632482
 41
0.0
 42
6.2831849999999996
  0
LINE
  5
142
100
AcDbEntity
  8
2
370
    50
100
AcDbLine
 10
272.282154
 20
-15.844375
 30
0.0
 11
263.867154
 21
-15.844375
 31
0.0
  0
LINE
  5
143
100
AcDbEntity
  8
2
370
    50
100
AcDbLine
 10
335.147154
 20
-81.778375
 30
0.0
 11
335.147154
 21
-62.770375
 31
0.0
  0
LINE
  5
144
100
AcDbEntity
  8
2
370
    50
100
AcDbLine
 10
308.912154
 20
-84.649375
 30
0.0
 11
285.152154
 21
-84.649375
 31
0.0
  0
LINE
  5
145
100
AcDbEntity
  8
2
370
    50
100
AcDbLine
 10
285.152154
 20
-60.394375
 30
0.0
 11
281.357154
 21
-60.394375
 31
0.0
  0
LINE
  5
146
100
AcDbEntity
  8
2
370
    50
100
AcDbLine
 10
285.152154
 20
-84.154375
 30
0.0
 11
281.357154
 21
-84.154375
 31
0.0
  0
LINE
  5
147
100
AcDbEntity
  8
2
370
    50
100
AcDbLine
 10
308.912154
 20
-84.649375
 30
0.0
 11
308.912154
 21
9.895625
 31
0.0
  0
LINE
  5
148
100
AcDbEntity
  8
2
370
    50
100
AcDbLine
 10
284.03758
 20
-83.510875
 30
0.0
 11
281.357154
 21
-83.510875
 31
0.0
  0
LINE
  5
149
100
AcDbEntity
  8
2
370
    50
100
AcDbLine
 10
284.03758
 20
-61.037875
 30
0.0
 11
281.357154
 21
-61.037875
 31
0.0
  0
LINE
  5
14A
100
AcDbEntity
  8
2
370
    50
100
AcDbLine
 10
285.152154
 20
-84.649375
 30
0.0
 11
285.152154
 21
-28.714375
 31
0.0
  0
LINE
  5
14B
100
AcDbEntity
  8
2
370
    50
100
AcDbLine
 10
267.332154
 20
-67.571875
 30
0.0
 11
269.477154
 21
-67.571875
 31
0.0
  0
LINE
  5
14C
100
AcDbEntity
  8
2
370
    50
100
AcDbLine
 10
267.332154
 20
-76.976875
 30
0.0
 11
269.477154
 21
-76.976875
 31
0.0
  0
LINE
  5
14D
100
AcDbEntity
  8
2
370
    50
100
AcDbLine
 10
266.342154
 20
-75.986875
 30
0.0
 11
267.332154
 21
-76.976875
 31
0.0
  0
LINE
  5
14E
100
AcDbEntity
  8
2
370
    50
100
AcDbLine
 10
267.332154
 20
-67.571875
 30
0.0
 11
266.342154
 21
-68.561875
 31
0.0
  0
LINE
  5
14F
100
AcDbEntity
  8
2
370
    50
100
AcDbLine
 10
269.477154
 20
-78.214375
 30
0.0
 11
269.477154
 21
-66.334375
 31
0.0
  0
LINE
  5
150
100
AcDbEntity
  8
2
370
    50
100
AcDbLine
 10
281.357154
 20
-84.649375
 30
0.0
 11
281.357154
 21
-59.899375
 31
0.0
  0
LINE
  5
151
100
AcDbEntity
  8
2
370
    50
100
AcDbLine
 10
274.427154
 20
-59.899375
 30
0.0
 11
269.477154
 21
-66.334375
 31
0.0
  0
LINE
  5
152
100
AcDbEntity
  8
2
370
    50
100
AcDbLine
 10
269.477154
 20
-78.214375
 30
0.0
 11
274.427154
 21
-84.649375
 31
0.0
  0
ARC
  5
153
100
AcDbEntity
  8
2
370
    50
100
AcDbCircle
 10
277.892154
 20
-63.199375
 30
0.0
 40
4.785
100
AcDbArc
 50
43.602819
 51
136.397181
  0
ARC
  5
154
100
AcDbEntity
  8
2
370
    50
100
AcDbCircle
 10
277.892154
 20
-81.349375
 30
0.0
 40
4.785
100
AcDbArc
 50
223.602819
 51
316.397181
  0
LINE
  5
155
100
AcDbEntity
  8
2
370
    25
100
AcDbLine
 10
335.147154
 20
-62.770375
 30
0.0
 11
320.912154
 21
-62.770375
 31
0.0
  0
LINE
  5
156
100
AcDbEntity
  8
2
370
    25
100
AcDbLine
 10
335.147154
 20
-81.778375
 30
0.0
 11
320.912154
 21
-81.778375
 31
0.0
  0
LINE
  5
157
100
AcDbEntity
  8
2
370
    50
100
AcDbLine
 10
335.147154
 20
-81.778375
 30
0.0
 11
334.256154
 21
-82.669375
 31
0.0
  0
LINE
  5
158
100
AcDbEntity
  8
2
370
    50
100
AcDbLine
 10
335.147154
 20
-62.770375
 30
0.0
 11
334.256154
 21
-61.879375
 31
0.0
  0
LINE
  5
159
100
AcDbEntity
  8
2
370
    50
100
AcDbLine
 10
264.362154
 20
9.004625
 30
0.0
 11
265.905412
 21
9.895625
 31
0.0
  0
LINE
  5
15A
100
AcDbEntity
  8
2
370
    50
100
AcDbLine
 10
264.362154
 20
-14.953375
 30
0.0
 11
265.905412
 21
-15.844375
 31
0.0
  0
ARC
  5
15B
100
AcDbEntity
  8
2
370
    50
100
AcDbCircle
 10
272.282154
 20
-28.714375
 30
0.0
 40
12.87
100
AcDbArc
 50
0.0
 51
90.0
  0
LINE
  5
15C
100
AcDbEntity
  8
2
370
    50
100
AcDbLine
 10
263.867154
 20
9.895625
 30
0.0
 11
308.912154
 21
9.895625
 31
0.0
  0
ARC
  5
15D
100
AcDbEntity
  8
2
370
    50
100
AcDbCircle
 10
297.032154
 20
-10.949444
 30
0.0
 40
22.627069
100
AcDbArc
 50
67.108743
 51
112.891257
  0
LINE
  5
15E
100
AcDbEntity
  8
2
370
    50
100
AcDbLine
 10
285.152154
 20
-60.394375
 30
0.0
 11
284.03758
 21
-61.037875
 31
0.0
  0
LINE
  5
15F
100
AcDbEntity
  8
2
370
    50
100
AcDbLine
 10
285.152154
 20
-84.154375
 30
0.0
 11
284.03758
 21
-83.510875
 31
0.0
  0
LINE
  5
160
100
AcDbEntity
  8
2
370
    25
100
AcDbLine
 10
274.427154
 20
-59.899375
 30
0.0
 11
274.427154
 21
-84.649375
 31
0.0
  0
LINE
  5
161
100
AcDbEntity
  8
2
370
    50
100
AcDbLine
 10
284.03758
 20
-61.037875
 30
0.0
 11
284.03758
 21
-83.510875
 31
0.0
  0
LINE
  5
162
100
AcDbEntity
  8
2
370
    50
100
AcDbLine
 10
334.256154
 20
-61.879375
 30
0.0
 11
320.912154
 21
-61.879375
 31
0.0
  0
LINE
  5
163
100
AcDbEntity
  8
2
370
    50
100
AcDbLine
 10
334.256154
 20
-82.669375
 30
0.0
 11
320.912154
 21
-82.669375
 31
0.0
  0
LINE
  5
164
100
AcDbEntity
  8
2
370
    25
100
AcDbLine
 10
334.256154
 20
-61.879375
 30
0.0
 11
334.256154
 21
-82.669375
 31
0.0
  0
ELLIPSE
  5
165
100
AcDbEntity
  8
2
370
    50
100
AcDbEllipse
 10
277.892154
 20
-83.420148
 30
0.0
 11
2.9699960000000001
 21
0.0
 31
0.0
210
0.0
220
0.0
230
1.0
 40
0.866027
 41
0.0
 42
6.2831849999999996
  0
ELLIPSE
  5
166
100
AcDbEntity
  8
2
370
    50
100
AcDbEllipse
 10
277.892154
 20
-72.274375
 30
0.0
 11
0.0
 21
5.1440400000000004
 31
0.0
210
0.0
220
0.0
230
1.0
 40
0.577366
 41
0.0
 42
6.2831849999999996
  0
ELLIPSE
  5
167
100
AcDbEntity
  8
2
370
    50
100
AcDbEllipse
 10
277.892154
 20
-61.128603
 30
0.0
 11
-2.9699960000000001
 21
0.0
 31
0.0
210
0.0
220
0.0
230
1.0
 40
0.866027
 41
0.0
 42
6.2831849999999996
  0
LINE
  5
168
100
AcDbEntity
  8
2
370
    50
100
AcDbLine
 10
267.332154
 20
-67.571875
 30
0.0
 11
267.332154
 21
-76.976875
 31
0.0
  0
LINE
  5
169
100
AcDbEntity
  8
2
370
    50
100
AcDbLine
 10
266.342154
 20
-68.561875
 30
0.0
 11
266.342154
 21
-75.986875
 31
0.0
  0
LINE
  5
16A
100
AcDbEntity
  8
2
370
    50
100
AcDbLine
 10
320.912154
 20
-49.274375
 30
0.0
 11
317.553274
 21
-49.274375
 31
0.0
  0
LINE
  5
16B
100
AcDbEntity
  8
2
370
    50
100
AcDbLine
 10
320.912154
 20
-95.274375
 30
0.0
 11
320.912154
 21
-49.274375
 31
0.0
  0
ARC
  5
16C
100
AcDbEntity
  8
2
370
    50
100
AcDbCircle
 10
312.912154
 20
-58.774375
 30
0.0
 40
2.0
100
AcDbArc
 50
155.329488
 51
180.0
  0
LINE
  5
16D
100
AcDbEntity
  8
2
370
    50
100
AcDbLine
 10
316.644551
 20
-49.856976
 30
0.0
 11
311.094708
 21
-57.939576
 31
0.0
  0
LINE
  5
16E
100
AcDbEntity
  8
2
370
    50
100
AcDbLine
 10
316.644551
 20
-94.691775
 30
0.0
 11
311.26341
 21
-86.854865
 31
0.0
  0
ARC
  5
16F
100
AcDbEntity
  8
2
370
    50
100
AcDbCircle
 10
317.553274
 20
-50.274375
 30
0.0
 40
1.0
100
AcDbArc
 50
90.0
 51
155.329488
  0
LINE
  5
170
100
AcDbEntity
  8
2
370
    50
100
AcDbLine
 10
317.553274
 20
-95.274375
 30
0.0
 11
320.912154
 21
-95.274375
 31
0.0
  0
LINE
  5
171
100
AcDbEntity
  8
2
370
    50
100
AcDbLine
 10
316.644551
 20
-94.691775
 30
0.0
 11
311.094708
 21
-86.609174
 31
0.0
  0
ARC
  5
172
100
AcDbEntity
  8
2
370
    50
100
AcDbCircle
 10
317.553274
 20
-94.274375
 30
0.0
 40
1.0
100
AcDbArc
 50
204.670512
 51
270.0
  0
LINE
  5
173
100
AcDbEntity
  8
2
370
    50
100
AcDbLine
 10
310.912154
 20
-85.722769
 30
0.0
 11
310.912154
 21
-58.774375
 31
0.0
  0
LINE
  5
174
100
AcDbEntity
  8
2
370
    50
100
AcDbLine
 10
317.044589
 20
-94.535093
 30
0.0
 11
317.044589
 21
-50.114485
 31
0.0
  0
ARC
  5
175
100
AcDbEntity
  8
2
370
    50
100
AcDbCircle
 10
312.912154
 20
-85.722769
 30
0.0
 40
2.0
100
AcDbArc
 50
180.0
 51
214.47508
  0
LINE
  5
176
100
AcDbEntity
  8
2
370
    50
100
AcDbLine
 10
310.912154
 20
-61.879375
 30
0.0
 11
308.912154
 21
-61.879375
 31
0.0
  0
LINE
  5
177
100
AcDbEntity
  8
2
370
    50
100
AcDbLine
 10
310.912154
 20
-82.669375
 30
0.0
 11
308.912154
 21
-82.669375
 31
0.0
  0
POINT
  5
178
100
AcDbEntity
  8
2
370
    50
100
AcDbPoint
 10
-294.964088
 20
-54.509048
 30
0.0
  0
CIRCLE
  5
179
100
AcDbEntity
  8
2
370
    50
100
AcDbCircle
 10
-294.964088
 20
-54.509048
 30
0.0
 40
13.0
  0
ARC
  5
17A
100
AcDbEntity
  8
2
370
    50
100
AcDbCircle
 10
-294.964088
 20
-54.509048
 30
0.0
 40
14.0
100
AcDbArc
 50
51.786789
 51
68.213211
  0
LINE
  5
17B
100
AcDbEntity
  8
2
370
    50
100
AcDbLine
 10
-289.767936
 20
-41.509048
 30
0.0
 11
-300.160241
 21
-41.509048
 31
0.0
  0
ARC
  5
17C
100
AcDbEntity
  8
2
370
    50
100
AcDbCircle
 10
-294.964088
 20
-54.509048
 30
0.0
 40
14.0
100
AcDbArc
 50
111.786789
 51
128.213211
  0
LINE
  5
17D
100
AcDbEntity
  8
2
370
    50
100
AcDbLine
 10
-303.624342
 20
-43.509048
 30
0.0
 11
-308.820495
 21
-52.509048
 31
0.0
  0
ARC
  5
17E
100
AcDbEntity
  8
2
370
    50
100
AcDbCircle
 10
-294.964088
 20
-54.509048
 30
0.0
 40
14.0
100
AcDbArc
 50
171.786789
 51
188.213211
  0
CIRCLE
  5
17F
100
AcDbEntity
  8
2
370
    50
100
AcDbCircle
 10
-294.964088
 20
-54.509048
 30
0.0
 40
13.0
  0
LINE
  5
180
100
AcDbEntity
  8
2
370
    50
100
AcDbLine
 10
-308.820495
 20
-56.509048
 30
0.0
 11
-303.624342
 21
-65.509048
 31
0.0
  0
ARC
  5
181
100
AcDbEntity
  8
2
370
    50
100
AcDbCircle
 10
-294.964088
 20
-54.509048
 30
0.0
 40
14.0
100
AcDbArc
 50
231.786789
 51
248.213211
  0
LINE
  5
182
100
AcDbEntity
  8
2
370
    50
100
AcDbLine
 10
-300.160241
 20
-67.509048
 30
0.0
 11
-289.767936
 21
-67.509048
 31
0.0
  0
ARC
  5
183
100
AcDbEntity
  8
2
370
    50
100
AcDbCircle
 10
-294.964088
 20
-54.509048
 30
0.0
 40
14.0
100
AcDbArc
 50
291.786789
 51
308.213211
  0
CIRCLE
  5
184
100
AcDbEntity
  8
2
370
    50
100
AcDbCircle
 10
-294.964088
 20
-54.509048
 30
0.0
 40
13.0
  0
LINE
  5
185
100
AcDbEntity
  8
2
370
    50
100
AcDbLine
 10
-244.459625
 20
-20.975147
 30
0.0
 11
-282.629648
 21
-59.14517
 31
0.0
  0
LINE
  5
186
100
AcDbEntity
  8
2
370
    50
100
AcDbLine
 10
-286.303834
 20
-65.509048
 30
0.0
 11
-281.107682
 21
-56.509048
 31
0.0
  0
ARC
  5
187
100
AcDbEntity
  8
2
370
    50
100
AcDbCircle
 10
-294.964088
 20
-54.509048
 30
0.0
 40
14.0
100
AcDbArc
 50
351.786789
 51
8.213211
  0
LINE
  5
188
100
AcDbEntity
  8
2
370
    50
100
AcDbLine
 10
-281.107682
 20
-52.509048
 30
0.0
 11
-286.303834
 21
-43.509048
 31
0.0
  0
CIRCLE
  5
189
100
AcDbEntity
  8
2
370
    50
100
AcDbCircle
 10
-294.964088
 20
-54.509048
 30
0.0
 40
6.0
  0
CIRCLE
  5
18A
100
AcDbEntity
  8
2
370
    50
100
AcDbCircle
 10
-294.964088
 20
-54.509048
 30
0.0
 40
4.75
  0
ARC
  5
18B
100
AcDbEntity
  8
2
370
    50
100
AcDbCircle
 10
-294.964088
 20
-54.509048
 30
0.0
 40
3.75
100
AcDbArc
 50
15.46601
 51
164.53399
  0
LINE
  5
18C
100
AcDbEntity
  8
2
370
    50
100
AcDbLine
 10
-290.320545
 20
-55.509048
 30
0.0
 11
-299.607632
 21
-55.509048
 31
0.0
  0
LINE
  5
18D
100
AcDbEntity
  8
2
370
    50
100
AcDbLine
 10
-290.320545
 20
-53.509048
 30
0.0
 11
-299.607632
 21
-53.509048
 31
0.0
  0
LINE
  5
18E
100
AcDbEntity
  8
2
370
    50
100
AcDbLine
 10
-263.260158
 20
-5.834555
 30
0.0
 11
-298.934651
 21
-41.509048
 31
0.0
  0
ARC
  5
18F
100
AcDbEntity
  8
2
370
    50
100
AcDbCircle
 10
-294.964088
 20
-54.509048
 30
0.0
 40
27.0
100
AcDbArc
 50
71.3878
 51
18.6122
  0
POINT
  5
190
100
AcDbEntity
  8
2
370
    50
100
AcDbPoint
 10
-100.217045
 20
-54.509048
 30
0.0
  0
CIRCLE
  5
191
100
AcDbEntity
  8
2
370
    50
100
AcDbCircle
 10
-100.217045
 20
-54.509048
 30
0.0
 40
13.0
  0
ARC
  5
192
100
AcDbEntity
  8
2
370
    50
100
AcDbCircle
 10
-100.217045
 20
-54.509048
 30
0.0
 40
14.0
100
AcDbArc
 50
111.786789
 51
128.213211
  0
LINE
  5
193
100
AcDbEntity
  8
2
370
    50
100
AcDbLine
 10
-105.413197
 20
-41.509048
 30
0.0
 11
-95.020892
 21
-41.509048
 31
0.0
  0
ARC
  5
194
100
AcDbEntity
  8
2
370
    50
100
AcDbCircle
 10
-100.217045
 20
-54.509048
 30
0.0
 40
14.0
100
AcDbArc
 50
51.786789
 51
68.213211
  0
LINE
  5
195
100
AcDbEntity
  8
2
370
    50
100
AcDbLine
 10
-91.55679
 20
-43.509048
 30
0.0
 11
-86.360638
 21
-52.509048
 31
0.0
  0
ARC
  5
196
100
AcDbEntity
  8
2
370
    50
100
AcDbCircle
 10
-100.217045
 20
-54.509048
 30
0.0
 40
14.0
100
AcDbArc
 50
351.786789
 51
8.213211
  0
CIRCLE
  5
197
100
AcDbEntity
  8
2
370
    50
100
AcDbCircle
 10
-100.217045
 20
-54.509048
 30
0.0
 40
13.0
  0
LINE
  5
198
100
AcDbEntity
  8
2
370
    50
100
AcDbLine
 10
-86.360638
 20
-56.509048
 30
0.0
 11
-91.55679
 21
-65.509048
 31
0.0
  0
ARC
  5
199
100
AcDbEntity
  8
2
370
    50
100
AcDbCircle
 10
-100.217045
 20
-54.509048
 30
0.0
 40
14.0
100
AcDbArc
 50
291.786789
 51
308.213211
  0
LINE
  5
19A
100
AcDbEntity
  8
2
370
    50
100
AcDbLine
 10
-95.020892
 20
-67.509048
 30
0.0
 11
-105.413197
 21
-67.509048
 31
0.0
  0
ARC
  5
19B
100
AcDbEntity
  8
2
370
    50
100
AcDbCircle
 10
-100.217045
 20
-54.509048
 30
0.0
 40
14.0
100
AcDbArc
 50
231.786789
 51
248.213211
  0
CIRCLE
  5
19C
100
AcDbEntity
  8
2
370
    50
100
AcDbCircle
 10
-100.217045
 20
-54.509048
 30
0.0
 40
13.0
  0
LINE
  5
19D
100
AcDbEntity
  8
2
370
    50
100
AcDbLine
 10
-150.721508
 20
-20.975147
 30
0.0
 11
-112.551485
 21
-59.14517
 31
0.0
  0
LINE
  5
19E
100
AcDbEntity
  8
2
370
    50
100
AcDbLine
 10
-108.877299
 20
-65.509048
 30
0.0
 11
-114.073451
 21
-56.509048
 31
0.0
  0
ARC
  5
19F
100
AcDbEntity
  8
2
370
    50
100
AcDbCircle
 10
-100.217045
 20
-54.509048
 30
0.0
 40
14.0
100
AcDbArc
 50
171.786789
 51
188.213211
  0
LINE
  5
1A0
100
AcDbEntity
  8
2
370
    50
100
AcDbLine
 10
-114.073451
 20
-52.509048
 30
0.0
 11
-108.877299
 21
-43.509048
 31
0.0
  0
CIRCLE
  5
1A1
100
AcDbEntity
  8
2
370
    50
100
AcDbCircle
 10
-100.217045
 20
-54.509048
 30
0.0
 40
6.0
  0
CIRCLE
  5
1A2
100
AcDbEntity
  8
2
370
    50
100
AcDbCircle
 10
-100.217045
 20
-54.509048
 30
0.0
 40
4.75
  0
ARC
  5
1A3
100
AcDbEntity
  8
2
370
    50
100
AcDbCircle
 10
-100.217045
 20
-54.509048
 30
0.0
 40
3.75
100
AcDbArc
 50
15.46601
 51
164.53399
  0
LINE
  5
1A4
100
AcDbEntity
  8
2
370
    50
100
AcDbLine
 10
-104.860588
 20
-55.509048
 30
0.0
 11
-95.573501
 21
-55.509048
 31
0.0
  0
LINE
  5
1A5
100
AcDbEntity
  8
2
370
    50
100
AcDbLine
 10
-104.860588
 20
-53.509048
 30
0.0
 11
-95.573501
 21
-53.509048
 31
0.0
  0
LINE
  5
1A6
100
AcDbEntity
  8
2
370
    50
100
AcDbLine
 10
-131.920975
 20
-5.834555
 30
0.0
 11
-96.246482
 21
-41.509048
 31
0.0
  0
ARC
  5
1A7
100
AcDbEntity
  8
2
370
    50
100
AcDbCircle
 10
-100.217045
 20
-54.509048
 30
0.0
 40
27.0
100
AcDbArc
 50
161.3878
 51
108.6122
  0
TEXT
  5
1A8
100
AcDbEntity
  8
3
370
    50
100
AcDbText
 10
121.36998
 20
113.621948
 30
0.0
 40
7.0
  1
止水
 72
     5
 11
133.96998
 21
113.621948
 31
0.0
100
AcDbText
  0
DIMENSION
  5
1A9
100
AcDbEntity
  8
3
370
    25
100
AcDbDimension
  2
*D0
 10
-147.590566
 20
-112.763
 30
0.0
 11
-197.590566
 21
-108.263
 31
0.0
 71
     0
 72
     0
 41
0.0
 42
0.0
  3
Standard
100
AcDbAlignedDimension
 13
-247.590566
 23
-2.975084
 33
0.0
 14
-147.590566
 24
-2.975084
 34
0.0
100
AcDbRotatedDimension
  0
DIMENSION
  5
1AA
100
AcDbEntity
  8
3
370
    25
100
AcDbDimension
  2
*D1
 10
151.090651
 20
93.378208
 30
0.0
 11
121.279245
 21
151.778021
 31
0.0
 70
     2
 71
     0
 72
     0
 41
0.0
 42
0.0
  3
Standard
100
AcDb2LineAngularDimension
 13
209.134599
 23
117.539817
 33
0.0
 14
261.535508
 24
72.303961
 34
0.0
 15
261.535508
 25
72.303961
 35
0.0
 16
116.708842
 26
142.324904
 36
0.0
1001
ACAD
1000
DSTYLE
1002
{
1070
   275
1070
     0
1070
   179
1070
     0
1002
}
  0
TEXT
  5
1AB
100
AcDbEntity
  8
3
370
    50
100
AcDbText
 10
184.029663
 20
160.237595
 30
0.0
 40
7.0
  1
吐水
 72
     5
 11
196.629663
 21
160.237595
 31
0.0
100
AcDbText
  0
DIMENSION
  5
1AC
100
AcDbEntity
  8
3
370
    25
100
AcDbDimension
  2
*D2
 10
0.154322
 20
105.906142
 30
0.0
 11
-11.345678
 21
47.966007
 31
0.0
 71
     0
 72
     0
 41
0.0
 42
0.0
  3
Standard
100
AcDbAlignedDimension
 13
248.367154
 23
-2.974128
 33
0.0
 14
139.058636
 24
105.906142
 34
0.0
 50
90.0
100
AcDbRotatedDimension
  0
DIMENSION
  5
1AD
100
AcDbEntity
  8
3
370
    25
100
AcDbDimension
  2
*D3
 10
-42.315948
 20
152.924975
 30
0.0
 11
-53.815949
 21
71.475423
 31
0.0
 71
     0
 72
     0
 41
0.0
 42
0.0
  3
Standard
100
AcDbAlignedDimension
 13
248.367154
 23
-2.974128
 33
0.0
 14
177.089435
 24
152.924975
 34
0.0
 50
90.0
100
AcDbRotatedDimension
  0
TEXT
  5
1AE
100
AcDbEntity
  8
3
370
    50
100
AcDbText
 10
338.315399
 20
-32.394222
 30
0.0
 40
7.0
  1
ＰＪ１／２
 72
     5
 11
371.915399
 21
-32.394222
 31
0.0
100
AcDbText
  0
TEXT
  5
1AF
100
AcDbEntity
  8
3
370
    50
100
AcDbText
 10
-231.824829
 20
133.24173
 30
0.0
 40
7.0
  1
赤色
 72
     5
 11
-219.224829
 21
133.24173
 31
0.0
100
AcDbText
  0
TEXT
  5
1B0
100
AcDbEntity
  8
3
370
    50
100
AcDbText
 10
-232.356979
 20
124.227646
 30
0.0
 40
7.0
  1
（湯表示）
 72
     5
 11
-198.756979
 21
124.227646
 31
0.0
100
AcDbText
  0
TEXT
  5
1B1
100
AcDbEntity
  8
3
370
    50
100
AcDbText
 10
-180.814438
 20
134.00087
 30
0.0
 40
7.0
  1
青色
 72
     5
 11
-168.214438
 21
134.00087
 31
0.0
100
AcDbText
  0
TEXT
  5
1B2
100
AcDbEntity
  8
3
370
    50
100
AcDbText
 10
-180.886841
 20
125.614105
 30
0.0
 40
7.0
  1
（水表示）
 72
     5
 11
-147.286841
 21
125.614105
 31
0.0
100
AcDbText
  0
LWPOLYLINE
  5
1B3
100
AcDbEntity
  8
3
370
    25
100
AcDbPolyline
 90
        2
 70
     0
 10
-192.994693
 20
83.218198
 10
-176.098236
 20
123.465202
  0
LWPOLYLINE
  5
1B7
100
AcDbEntity
  8
3
370
    25
100
AcDbPolyline
 90
        2
 70
     0
 10
-203.562653
 20
83.203653
 10
-220.113907
 20
121.70433
  0
DIMENSION
  5
1BB
100
AcDbEntity
  8
3
370
    25
100
AcDbDimension
  2
*D4
 10
231.867988
 20
-126.316223
 30
0.0
 11
146.867988
 21
-121.816223
 31
0.0
 71
     0
 72
     0
 41
0.0
 42
0.0
  3
Standard
100
AcDbAlignedDimension
 13
61.867988
 23
-94.074128
 33
0.0
 14
231.867988
 24
-32.974712
 34
0.0
100
AcDbRotatedDimension
  0
DIMENSION
  5
1BC
100
AcDbEntity
  8
3
370
    25
100
AcDbDimension
  2
*D5
 10
0.154322
 20
-2.974128
 30
0.0
 11
-7.845678
 21
-48.524128
 31
0.0
 71
     0
 72
     0
 41
0.0
 42
0.0
  3
Standard
100
AcDbAlignedDimension
 13
61.867988
 23
-94.074128
 33
0.0
 14
248.367154
 24
-2.974128
 34
0.0
 50
90.0
100
AcDbRotatedDimension
  0
TEXT
  5
1BD
100
AcDbEntity
  8
3
370
    50
100
AcDbText
 10
290.832582
 20
-240.013492
 30
0.0
 40
6.0
  1
１　２
 72
     5
 11
307.632582
 21
-240.013492
 31
0.0
100
AcDbText
  0
TEXT
  5
1BE
100
AcDbEntity
  8
3
370
    50
100
AcDbText
 10
68.853722
 20
-227.247314
 30
0.0
 40
6.0
  1
壁付シングルレバ－湯水混合水栓
 72
     5
 11
157.653722
 21
-227.247314
 31
0.0
100
AcDbText
  0
POINT
  5
1BF
100
AcDbEntity
  8
3
370
    50
100
AcDbPoint
 10
263.867154
 20
-2.974375
 30
0.0
  0
LWPOLYLINE
  5
1C0
100
AcDbEntity
  8
3
370
    25
100
AcDbPolyline
 90
        3
 70
     0
 10
327.501282
 20
-61.879375
 10
335.998047
 20
-34.32452
 10
379.254608
 20
-34.32452
  0
LINE
  5
1C5
100
AcDbEntity
  8
3
370
    25
100
AcDbLine
 10
328.639788
 20
-58.18722
 30
0.0
 11
327.650478
 21
-57.882159
 31
0.0
  0
LINE
  5
1C6
100
AcDbEntity
  8
3
370
    25
100
AcDbLine
 10
327.650478
 20
-57.882159
 30
0.0
 11
327.501282
 21
-61.879375
 31
0.0
  0
LINE
  5
1C7
100
AcDbEntity
  8
3
370
    25
100
AcDbLine
 10
327.501282
 20
-61.879375
 30
0.0
 11
329.629098
 21
-58.492282
 31
0.0
  0
LINE
  5
1C8
100
AcDbEntity
  8
3
370
    25
100
AcDbLine
 10
329.629098
 20
-58.492282
 30
0.0
 11
328.639788
 21
-58.18722
 31
0.0
  0
DIMENSION
  5
1C9
100
AcDbEntity
  8
3
370
    25
100
AcDbDimension
  2
*D6
 10
335.147154
 20
-126.316223
 30
0.0
 11
328.029654
 21
-121.816223
 31
0.0
 71
     0
 72
     0
 41
0.0
 42
0.0
  3
Standard
100
AcDbAlignedDimension
 13
320.912154
 23
-95.274375
 33
0.0
 14
335.147154
 24
-81.778375
 34
0.0
100
AcDbRotatedDimension
  0
TEXT
  5
1CA
100
AcDbEntity
  8
3
370
    50
100
AcDbText
 10
262.390071
 20
-125.316223
 30
0.0
 40
7.0
  1
（８９）
 72
     5
 11
288.990071
 21
-125.316223
 31
0.0
100
AcDbText
  0
DIMENSION
  5
1CB
100
AcDbEntity
  8
3
370
    25
100
AcDbDimension
  2
*D7
 10
320.912154
 20
-126.316223
 30
0.0
 11
276.390071
 21
-124.316223
 31
0.0
 71
     0
 72
     0
 41
0.0
 42
0.0
  3
Standard
100
AcDbAlignedDimension
 13
231.867988
 23
-32.974712
 33
0.0
 14
320.912154
 24
-95.274375
 34
0.0
100
AcDbRotatedDimension
  0
TEXT
  5
1CC
100
AcDbEntity
  8
3
370
    50
100
AcDbText
 10
68.561089
 20
-236.529404
 30
0.0
 40
6.0
  1
ＭＫ３００
 72
     5
 11
97.361089
 21
-236.529404
 31
0.0
100
AcDbText
  0
DIMENSION
  5
1CD
100
AcDbEntity
  8
3
370
    25
100
AcDbDimension
  2
*D8
 10
353.90094
 20
-49.274375
 30
0.0
 11
345.90094
 21
-72.274375
 31
0.0
 71
     0
 72
     0
 41
0.0
 42
0.0
  3
Standard
100
AcDbAlignedDimension
 13
320.912154
 23
-95.274375
 33
0.0
 14
320.912154
 24
-49.274375
 34
0.0
 50
90.0
100
AcDbRotatedDimension
  0
DIMENSION
  5
1CE
100
AcDbEntity
  8
3
370
    25
100
AcDbDimension
  2
*D9
 10
-334.549566
 20
-18.119387
 30
0.0
 11
-311.599005
 21
5.747662
 31
0.0
 70
     1
 71
     0
 72
     0
 41
0.0
 42
0.0
  3
Standard
100
AcDbAlignedDimension
 13
-247.590566
 23
-2.975084
 33
0.0
 14
-294.964088
 24
-54.509048
 34
0.0
 50
47.408668
  0
TEXT
  5
1CF
100
AcDbEntity
  8
3
370
    50
100
AcDbText
 10
-236.090566
 20
-133.157379
 30
0.0
 40
7.0
  1
２００（ＭＡＸ２３５）
 72
     5
 11
-160.490566
 21
-133.157379
 31
0.0
100
AcDbText
  0
DIMENSION
  5
1D0
100
AcDbEntity
  8
3
370
    25
100
AcDbDimension
  2
*D10
 10
-100.217045
 20
-134.157379
 30
0.0
 11
-197.590566
 21
-132.157379
 31
0.0
 71
     0
 72
     0
 41
0.0
 42
0.0
  3
Standard
100
AcDbAlignedDimension
 13
-294.964088
 23
-54.509048
 33
0.0
 14
-100.217045
 24
-54.509048
 34
0.0
100
AcDbRotatedDimension
  0
TEXT
  5
1D1
100
AcDbEntity
  8
3
370
    50
100
AcDbText
 10
-120.527054
 20
-2.64633
 30
0.0
 40
7.0
  1
逆止弁内蔵
 72
     5
 11
-86.927054
 21
-2.64633
 31
0.0
100
AcDbText
  0
TEXT
  5
1D2
100
AcDbEntity
  8
3
370
    50
100
AcDbText
 10
-309.654079
 20
-2.64633
 30
0.0
 40
7.0
  1
逆止弁内蔵
 72
     5
 11
-276.054079
 21
-2.64633
 31
0.0
100
AcDbText
  0
LWPOLYLINE
  5
1D3
100
AcDbEntity
  8
3
370
    25
100
AcDbPolyline
 90
        2
 70
     0
 10
-132.760216
 20
-10.632843
 10
-114.838608
 20
-4.661387
  0
LINE
  5
1D7
100
AcDbEntity
  8
3
370
    25
100
AcDbLine
 10
-129.094637
 20
-9.411477
 30
0.0
 11
-129.421901
 21
-8.429288
 31
0.0
  0
LINE
  5
1D8
100
AcDbEntity
  8
3
370
    25
100
AcDbLine
 10
-129.421901
 20
-8.429288
 30
0.0
 11
-132.760216
 21
-10.632843
 31
0.0
  0
LINE
  5
1D9
100
AcDbEntity
  8
3
370
    25
100
AcDbLine
 10
-132.760216
 20
-10.632843
 30
0.0
 11
-128.767373
 21
-10.393666
 31
0.0
  0
LINE
  5
1DA
100
AcDbEntity
  8
3
370
    25
100
AcDbLine
 10
-128.767373
 20
-10.393666
 30
0.0
 11
-129.094637
 21
-9.411477
 31
0.0
  0
LWPOLYLINE
  5
1DB
100
AcDbEntity
  8
3
370
    25
100
AcDbPolyline
 90
        2
 70
     0
 10
-262.420917
 20
-10.632843
 10
-280.342525
 20
-4.661387
  0
LINE
  5
1DF
100
AcDbEntity
  8
3
370
    25
100
AcDbLine
 10
-266.086496
 20
-9.411477
 30
0.0
 11
-266.41376
 21
-10.393666
 31
0.0
  0
LINE
  5
1E0
100
AcDbEntity
  8
3
370
    25
100
AcDbLine
 10
-266.41376
 20
-10.393666
 30
0.0
 11
-262.420917
 21
-10.632843
 31
0.0
  0
LINE
  5
1E1
100
AcDbEntity
  8
3
370
    25
100
AcDbLine
 10
-262.420917
 20
-10.632843
 30
0.0
 11
-265.759232
 21
-8.429288
 31
0.0
  0
LINE
  5
1E2
100
AcDbEntity
  8
3
370
    25
100
AcDbLine
 10
-265.759232
 20
-8.429288
 30
0.0
 11
-266.086496
 21
-9.411477
 31
0.0
  0
TEXT
  5
1E3
100
AcDbEntity
  8
3
370
    50
100
AcDbText
 10
336.070276
 20
-271.880939
 30
0.0
 40
6.4
  1
１０１５７２
 72
     5
 11
373.190276
 21
-271.880939
 31
0.0
100
AcDbText
  0
ENDSEC
  0
SECTION
  2
OBJECTS
  0
DICTIONARY
  5
266
100
AcDbDictionary
280
     0
281
     1
  3
ACAD_GROUP
350
267
  3
ACAD_MLINESTYLE
350
268
  0
DICTIONARY
  5
267
102
{ACAD_REACTORS
330
266
102
}
100
AcDbDictionary
280
     0
281
     1
  0
DICTIONARY
  5
268
102
{ACAD_REACTORS
330
266
102
}
100
AcDbDictionary
280
     0
281
     1
  3
Standard
350
269
  0
MLINESTYLE
  5
269
102
{ACAD_REACTORS
330
268
102
}
100
AcDbMlineStyle
  2
Standard
 70
     0
  3

 62
     0
 51
90.0
 52
90.0
 71
     2
 49
0.5
 62
   256
  6
ByLayer
 49
-0.5
 62
   256
  6
ByLayer
  0
ENDSEC
  0
EOF
