  0
SECTION
  2
HEADER
  9
$ACADVER
  1
AC1015
  9
$ACADMAINTVER
 70
     6
  9
$DWGCODEPAGE
  3
ANSI_932
  9
$INSBASE
 10
0.0
 20
0.0
 30
0.0
  9
$EXTMIN
 10
-841.0
 20
-594.0
 30
1.000000E+20
  9
$EXTMAX
 10
841.0
 20
594.0
 30
-1.000000E+20
  9
$LIMMIN
 10
-841.0
 20
-594.0
  9
$LIMMAX
 10
841.0
 20
594.0
  9
$ORTHOMODE
 70
     0
  9
$REGENMODE
 70
     1
  9
$FILLMODE
 70
     1
  9
$QTEXTMODE
 70
     0
  9
$MIRRTEXT
 70
     1
  9
$LTSCALE
 40
1.0
  9
$ATTMODE
 70
     1
  9
$TEXTSIZE
 40
0.2
  9
$TRACEWID
 40
0.05
  9
$TEXTSTYLE
  7
STANDARD
  9
$CLAYER
  8
0
  9
$CELTYPE
  6
CONTINUOUS
  9
$CECOLOR
 62
   256
  9
$CELTSCALE
 40
1.0
  9
$DISPSILH
 70
     0
  9
$DIMSCALE
 40
2.0
  9
$DIMASZ
 40
2.0
  9
$DIMEXO
 40
1.0
  9
$DIMDLI
 40
0.38
  9
$DIMRND
 40
0.0
  9
$DIMDLE
 40
0.0
  9
$DIMEXE
 40
2.0
  9
$DIMTP
 40
0.0
  9
$DIMTM
 40
0.0
  9
$DIMTXT
 40
3.5
  9
$DIMCEN
 40
0.09
  9
$DIMTSZ
 40
0.0
  9
$DIMTOL
 70
     0
  9
$DIMLIM
 70
     0
  9
$DIMTIH
 70
     0
  9
$DIMTOH
 70
     0
  9
$DIMSE1
 70
     0
  9
$DIMSE2
 70
     0
  9
$DIMTAD
 70
     1
  9
$DIMZIN
 70
     0
  9
$DIMBLK
  1

  9
$DIMASO
 70
     1
  9
$DIMSHO
 70
     1
  9
$DIMPOST
  1

  9
$DIMAPOST
  1

  9
$DIMALT
 70
     0
  9
$DIMALTD
 70
     2
  9
$DIMALTF
 40
25.4
  9
$DIMLFAC
 40
1.0
  9
$DIMTOFL
 70
     0
  9
$DIMTVP
 40
0.0
  9
$DIMTIX
 70
     0
  9
$DIMSOXD
 70
     0
  9
$DIMSAH
 70
     0
  9
$DIMBLK1
  1

  9
$DIMBLK2
  1

  9
$DIMSTYLE
  2
Standard
  9
$DIMCLRD
 70
     0
  9
$DIMCLRE
 70
     0
  9
$DIMCLRT
 70
     0
  9
$DIMTFAC
 40
1.0
  9
$DIMGAP
 40
0.5
  9
$DIMJUST
 70
     0
  9
$DIMSD1
 70
     0
  9
$DIMSD2
 70
     0
  9
$DIMTOLJ
 70
     1
  9
$DIMTZIN
 70
     0
  9
$DIMALTZ
 70
     0
  9
$DIMALTTZ
 70
     0
  9
$DIMUPT
 70
     0
  9
$DIMDEC
 70
     0
  9
$DIMTDEC
 70
     4
  9
$DIMALTU
 70
     2
  9
$DIMALTTD
 70
     2
  9
$DIMTXSTY
  7
STANDARD
  9
$DIMAUNIT
 70
     0
  9
$DIMADEC
 70
     0
  9
$DIMALTRND
 40
0.0
  9
$DIMAZIN
 70
     0
  9
$DIMDSEP
 70
     0
  9
$DIMATFIT
 70
     3
  9
$DIMFRAC
 70
     0
  9
$DIMLDRBLK
  1

  9
$DIMLUNIT
 70
     2
  9
$DIMLWD
 70
     0
  9
$DIMLWE
 70
     0
  9
$DIMTMOVE
 70
     0
  9
$LUNITS
 70
     2
  9
$LUPREC
 70
     4
  9
$SKETCHINC
 40
0.1
  9
$FILLETRAD
 40
0.0
  9
$AUNITS
 70
     0
  9
$AUPREC
 70
     0
  9
$MENU
  1
acad
  9
$ELEVATION
 40
0.0
  9
$PELEVATION
 40
0.0
  9
$THICKNESS
 40
0.0
  9
$LIMCHECK
 70
     0
  9
$CHAMFERA
 40
0.0
  9
$CHAMFERB
 40
0.0
  9
$CHAMFERC
 40
0.0
  9
$CHAMFERD
 40
0.0
  9
$SKPOLY
 70
     0
  9
$TDCREATE
 40
2452748.000000000
  9
$TDUCREATE
 40
0.000000000
  9
$TDUPDATE
 40
0.000000000
  9
$TDUUPDATE
 40
2447892.625000000
  9
$TDINDWG
 40
0.0000000000
  9
$TDUSRTIMER
 40
0.0000000000
  9
$USRTIMER
 70
     1
  9
$ANGBASE
 50
0.0
  9
$ANGDIR
 70
     0
  9
$PDMODE
 70
     0
  9
$PDSIZE
 40
0.0
  9
$PLINEWID
 40
0.0
  9
$SPLFRAME
 70
     0
  9
$SPLINETYPE
 70
     6
  9
$SPLINESEGS
 70
     8
  9
$HANDSEED
  5
5F8
  9
$SURFTAB1
 70
     6
  9
$SURFTAB2
 70
     6
  9
$SURFTYPE
 70
     6
  9
$SURFU
 70
     6
  9
$SURFV
 70
     6
  9
$UCSBASE
  2

  9
$UCSNAME
  2

  9
$UCSORG
 10
0.0
 20
0.0
 30
0.0
  9
$UCSXDIR
 10
1.0
 20
0.0
 30
0.0
  9
$UCSYDIR
 10
0.0
 20
1.0
 30
0.0
  9
$UCSORTHOREF
  2

  9
$UCSORTHOVIEW
 70
     0
  9
$UCSORGTOP
 10
0.0
 20
0.0
 30
0.0
  9
$UCSORGBOTTOM
 10
0.0
 20
0.0
 30
0.0
  9
$UCSORGLEFT
 10
0.0
 20
0.0
 30
0.0
  9
$UCSORGRIGHT
 10
0.0
 20
0.0
 30
0.0
  9
$UCSORGFRONT
 10
0.0
 20
0.0
 30
0.0
  9
$UCSORGBACK
 10
0.0
 20
0.0
 30
0.0
  9
$PUCSBASE
  2

  9
$PUCSNAME
  2

  9
$PUCSORG
 10
0.0
 20
0.0
 30
0.0
  9
$PUCSXDIR
 10
1.0
 20
0.0
 30
0.0
  9
$PUCSYDIR
 10
0.0
 20
1.0
 30
0.0
  9
$PUCSORTHOREF
  2

  9
$PUCSORTHOVIEW
 70
     0
  9
$PUCSORGTOP
 10
0.0
 20
0.0
 30
0.0
  9
$PUCSORGBOTTOM
 10
0.0
 20
0.0
 30
0.0
  9
$PUCSORGLEFT
 10
0.0
 20
0.0
 30
0.0
  9
$PUCSORGRIGHT
 10
0.0
 20
0.0
 30
0.0
  9
$PUCSORGFRONT
 10
0.0
 20
0.0
 30
0.0
  9
$PUCSORGBACK
 10
0.0
 20
0.0
 30
0.0
  9
$USERI1
 70
     0
  9
$USERI2
 70
     0
  9
$USERI3
 70
     0
  9
$USERI4
 70
     0
  9
$USERI5
 70
     0
  9
$USERR1
 40
0.0
  9
$USERR2
 40
0.0
  9
$USERR3
 40
0.0
  9
$USERR4
 40
0.0
  9
$USERR5
 40
0.0
  9
$WORLDVIEW
 70
     1
  9
$SHADEDGE
 70
     3
  9
$SHADEDIF
 70
    70
  9
$TILEMODE
 70
     1
  9
$MAXACTVP
 70
    16
  9
$PINSBASE
 10
0.0
 20
0.0
 30
0.0
  9
$PLIMCHECK
 70
     0
  9
$PEXTMIN
 10
1.000000E+20
 20
1.000000E+20
 30
1.000000E+20
  9
$PEXTMAX
 10
-1.000000E+20
 20
-1.000000E+20
 30
-1.000000E+20
  9
$PLIMMIN
 10
0.0
 20
0.0
  9
$PLIMMAX
 10
12.0
 20
9.0
  9
$UNITMODE
 70
     0
  9
$VISRETAIN
 70
     0
  9
$PLINEGEN
 70
     1
  9
$PSLTSCALE
 70
     0
  9
$TREEDEPTH
 70
  3020
  9
$CMLSTYLE
  2
Standard
  9
$CMLJUST
 70
     0
  9
$CMLSCALE
 40
1.0
  9
$PROXYGRAPHICS
 70
     0
  9
$MEASUREMENT
 70
     0
  9
$CELWEIGHT
370
     0
  9
$ENDCAPS
280
     0
  9
$JOINSTYLE
280
     0
  9
$LWDISPLAY
290
     0
  9
$INSUNITS
 70
     0
  9
$HYPERLINKBASE
  1

  9
$STYLESHEET
  1

  9
$XEDIT
290
     1
  9
$CEPSNTYPE
380
     0
  9
$PSTYLEMODE
290
     1
  9
$FINGERPRINTGUID
  2

  9
$VERSIONGUID
  2

  9
$EXTNAMES
290
     1
  9
$PSVPSCALE
 40
0.0
  0
ENDSEC
  0
SECTION
  2
CLASSES
  0
CLASS
  1
LWPOLYLINE
  2
AcDbPolyline
  3
AutoCAD 2000
 90
        0
280
     0
281
     1
  0
CLASS
  1
IMAGE
  2
AcDbRasterImage
  3
ISM
 90
      127
280
     0
281
     1
  0
CLASS
  1
OLE2FRAME
  2
AcDbOle2Frame
  3
AutoCAD 2000
 90
        0
280
     0
281
     1
  0
CLASS
  1
HATCH
  2
AcDbHatch
  3
AutoCAD 2000
 90
        0
280
     0
281
     1
  0
CLASS
  1
DICTIONARYVAR
  2
AcDbDictionaryVar
  3
AutoCAD 2000
 90
        0
280
     0
281
     0
  0
CLASS
  1
RASTERVARIABLES
  2
AcDbRasterVariables
  3
ISM
 90
        0
280
     0
281
     0
  0
CLASS
  1
IMAGEDEF
  2
AcDbRasterImageDef
  3
ISM
 90
        0
280
     0
281
     0
  0
CLASS
  1
IMAGEDEF_REACTOR
  2
AcDbRasterImageDefReactor
  3
ISM
 90
        1
280
     0
281
     0
  0
CLASS
  1
IDBUFFER
  2
AcDbIdBuffer
  3
AutoCAD 2000
 90
        0
280
     0
281
     0
  0
CLASS
  1
SPATIAL_FILTER
  2
AcDbSpatialFilter
  3
AutoCAD 2000
 90
        0
280
     0
281
     0
  0
CLASS
  1
XRECORD
  2
AcDbXrecord
  3
AutoCAD 2000
 90
        0
280
     0
281
     0
  0
CLASS
  1
SORTENTSTABLE
  2
AcDbSortentsTable
  3
AutoCAD 2000
 90
        0
280
     0
281
     0
  0
CLASS
  1
LAYER_INDEX
  2
AcDbLayerIndex
  3
AutoCAD 2000
 90
        0
280
     0
281
     0
  0
CLASS
  1
SPATIAL_INDEX
  2
AcDbSpatialIndex
  3
AutoCAD 2000
 90
        0
280
     0
281
     0
  0
CLASS
  1
OBJECT_PTR
  2
CAseDLPNTableRecord
  3
"ASE-LPNTableRecord"
 90
        1
280
     0
281
     0
  0
CLASS
  1
LAYOUT
  2
AcDbLayout
  3
AutoCAD 2000
 90
        0
280
     0
281
     0
  0
CLASS
  1
PLOTSETTINGS
  2
AcDbPlotSettings
  3
AutoCAD 2000
 90
        0
280
     0
281
     0
  0
CLASS
  1
ACDBDICTIONARYWDFLT
  2
AcDbDictionaryWithDefault
  3
AutoCAD 2000
 90
        0
280
     0
281
     0
  0
CLASS
  1
ACDBPLACEHOLDER
  2
AcDbPlaceHolder
  3
AutoCAD 2000
 90
        0
280
     0
281
     0
  0
CLASS
  1
VBA_PROJECT
  2
AcDbVbaProject
  3
acadvba
 90
        0
280
     0
281
     0
  0
CLASS
  1
WIPEOUT
  2
AcDbWipeout
  3
WipeOut|AutoCAD Express Tool|expresstools@autodesk.com
 90
      127
280
     0
281
     1
  0
CLASS
  1
WIPEOUTVARIABLES
  2
AcDbWipeoutVariables
  3
WipeOut|AutoCAD Express Tool|expresstools@autodesk.com
 90
        0
280
     0
281
     0
  0
CLASS
  1
RTEXT
  2
RText
  3
RText|AutoCAD Express Tool|expresstools@autodesk.com
 90
        0
280
     0
281
     1
  0
CLASS
  1
ARCALIGNEDTEXT
  2
AcDbArcAlignedText
  3
ATEXT|AutoCAD Express Tool|expresstools@autodesk.com
 90
        0
280
     0
281
     1
  0
ENDSEC
  0
SECTION
  2
TABLES
  0
TABLE
  2
VPORT
  5
6
100
AcDbSymbolTable
 70
     1
  0
VPORT
  5
18
100
AcDbSymbolTableRecord
100
AcDbViewportTableRecord
  2
*ACTIVE
 70
     0
 10
0.0
 20
0.0
 11
1.0
 21
1.0
 12
0.0
 22
0.0
 13
0.0
 23
0.0
 14
1.0
 24
1.0
 15
0.0
 25
0.0
 16
0.0
 26
0.0
 36
1.0
 17
0.0
 27
0.0
 37
0.0
 40
1188.0
 41
1.415825
 42
50.0
 43
0.0
 44
0.0
 50
0.0
 51
0.0
 71
     0
 72
   500
 73
     1
 74
     1
 75
     0
 76
     0
 77
     0
 78
     0
281
     0
 65
     0
110
0.0
120
0.0
130
0.0
111
1.0
121
0.0
131
0.0
112
0.0
122
1.0
132
0.0
345
0
346
0
 79
     0
146
0.0
  0
ENDTAB
  0
TABLE
  2
LTYPE
  5
3
100
AcDbSymbolTable
 70
     9
  0
LTYPE
  5
C
100
AcDbSymbolTableRecord
100
AcDbLinetypeTableRecord
  2
ByBlock
 70
    64
  3

 72
    65
 73
     0
 40
0.0
  0
LTYPE
  5
D
100
AcDbSymbolTableRecord
100
AcDbLinetypeTableRecord
  2
ByLayer
 70
    64
  3

 72
    65
 73
     0
 40
0.0
  0
LTYPE
  5
E
100
AcDbSymbolTableRecord
100
AcDbLinetypeTableRecord
  2
CONTINUOUS
 70
     0
  3
Solid line
 72
    65
 73
     0
 40
0.0
  0
LTYPE
  5
F
100
AcDbSymbolTableRecord
100
AcDbLinetypeTableRecord
  2
DASHED
 70
     0
  3
__ __ __ __ __ __ __ __ __ __ __ __ __ __ __
 72
    65
 73
     2
 40
2.0
 49
1.2
 74
     0
 49
-0.8
 74
     0
  0
LTYPE
  5
10
100
AcDbSymbolTableRecord
100
AcDbLinetypeTableRecord
  2
CENTER
 70
     0
  3
____ _ ____ _ ____ _ ____ _ ____ _ ____ _ ____
 72
    65
 73
     4
 40
12.0
 49
9.0
 74
     0
 49
-1.0
 74
     0
 49
1.0
 74
     0
 49
-1.0
 74
     0
  0
LTYPE
  5
11
100
AcDbSymbolTableRecord
100
AcDbLinetypeTableRecord
  2
HIDDEN
 70
     0
  3
_ _ _ _ _ _ _ _ _ _ _ _ _ _ _ _ _ _ _ _ _ _ _
 72
    65
 73
     2
 40
3.2
 49
2.4
 74
     0
 49
-0.8
 74
     0
  0
LTYPE
  5
12
100
AcDbSymbolTableRecord
100
AcDbLinetypeTableRecord
  2
PHANTOM
 70
     0
  3
_____ _ _ _____ _ _ _____ _ _ _____ _ _ _____
 72
    65
 73
     6
 40
13.5
 49
9.0
 74
     0
 49
-1.0
 74
     0
 49
1.0
 74
     0
 49
-0.5
 74
     0
 49
1.0
 74
     0
 49
-1.0
 74
     0
  0
LTYPE
  5
13
100
AcDbSymbolTableRecord
100
AcDbLinetypeTableRecord
  2
DOT
 70
     0
  3
...............................................
 72
    65
 73
     2
 40
1.0
 49
0.5
 74
     0
 49
-0.5
 74
     0
  0
LTYPE
  5
14
100
AcDbSymbolTableRecord
100
AcDbLinetypeTableRecord
  2
DASHDOT
 70
     0
  3
__ . __ . __ . __ . __ . __ . __ . __ . __ . __
 72
    65
 73
     4
 40
8.0
 49
5.0
 74
     0
 49
-1.0
 74
     0
 49
1.0
 74
     0
 49
-1.0
 74
     0
  0
ENDTAB
  0
TABLE
  2
LAYER
  5
1
100
AcDbSymbolTable
 70
     3
  0
LAYER
  5
15
100
AcDbSymbolTableRecord
100
AcDbLayerTableRecord
  2
0
 70
     0
 62
     7
  6
CONTINUOUS
290
     1
370
    -3
390
0
  0
LAYER
  5
16
100
AcDbSymbolTableRecord
100
AcDbLayerTableRecord
  2
1
 70
     0
 62
     7
  6
CONTINUOUS
290
     1
370
    -3
390
0
  0
LAYER
  5
17
100
AcDbSymbolTableRecord
100
AcDbLayerTableRecord
  2
2
 70
     0
 62
     7
  6
CONTINUOUS
290
     1
370
    -3
390
0
  0
ENDTAB
  0
TABLE
  2
STYLE
  5
2
100
AcDbSymbolTable
 70
     1
  0
STYLE
  5
1A
100
AcDbSymbolTableRecord
100
AcDbTextStyleTableRecord
  2
STANDARD
 70
    64
 40
0.0
 41
1.0
 50
0.0
 71
     0
 42
1.0
  3
txt
  4
BIGFONT
  0
ENDTAB
  0
TABLE
  2
VIEW
  5
4
100
AcDbSymbolTable
 70
     0
  0
ENDTAB
  0
TABLE
  2
UCS
  5
5
100
AcDbSymbolTable
 70
     0
  0
ENDTAB
  0
TABLE
  2
APPID
  5
7
100
AcDbSymbolTable
 70
     1
  0
APPID
  5
19
100
AcDbSymbolTableRecord
100
AcDbRegAppTableRecord
  2
ACAD
 70
     0
  0
ENDTAB
  0
TABLE
  2
DIMSTYLE
  5
8
100
AcDbSymbolTable
 70
     1
100
AcDbDimStyleTable
 71
     0
  0
DIMSTYLE
105
2C
100
AcDbSymbolTableRecord
100
AcDbDimStyleTableRecord
  2
Standard
 70
     0
  3

  4

 40
2.0
 41
2.0
 42
1.0
 43
0.38
 44
2.0
 45
0.0
 46
0.0
 47
0.0
 48
0.0
 71
     0
 72
     0
 73
     0
 74
     0
 75
     0
 76
     0
 77
     1
 78
     0
 79
     0
140
3.5
141
0.09
142
0.0
143
25.4
144
1.0
145
0.0
146
1.0
147
0.5
148
0.0
170
     0
171
     2
172
     0
173
     0
174
     0
175
     0
176
     0
177
     0
178
     0
179
     0
271
     0
272
     4
273
     2
274
     2
275
     0
276
     0
277
     2
278
    46
279
     0
280
     0
281
     0
282
     0
283
     1
284
     0
285
     0
286
     0
288
     0
289
     3
340
1A
341
0
342
0
343
0
344
0
371
    -2
372
    -2
  0
ENDTAB
  0
TABLE
  2
BLOCK_RECORD
  5
27
100
AcDbSymbolTable
 70
    10
  0
BLOCK_RECORD
  5
25
100
AcDbSymbolTableRecord
100
AcDbBlockTableRecord
  2
*Model_Space
340
0
  0
BLOCK_RECORD
  5
26
100
AcDbSymbolTableRecord
100
AcDbBlockTableRecord
  2
*Paper_Space
340
0
  0
BLOCK_RECORD
  5
1B
100
AcDbSymbolTableRecord
100
AcDbBlockTableRecord
  2
*D0
340
0
  0
BLOCK_RECORD
  5
1C
100
AcDbSymbolTableRecord
100
AcDbBlockTableRecord
  2
*D1
340
0
  0
BLOCK_RECORD
  5
1D
100
AcDbSymbolTableRecord
100
AcDbBlockTableRecord
  2
*D2
340
0
  0
BLOCK_RECORD
  5
1E
100
AcDbSymbolTableRecord
100
AcDbBlockTableRecord
  2
*D3
340
0
  0
BLOCK_RECORD
  5
1F
100
AcDbSymbolTableRecord
100
AcDbBlockTableRecord
  2
*D4
340
0
  0
BLOCK_RECORD
  5
20
100
AcDbSymbolTableRecord
100
AcDbBlockTableRecord
  2
*D5
340
0
  0
BLOCK_RECORD
  5
21
100
AcDbSymbolTableRecord
100
AcDbBlockTableRecord
  2
*D6
340
0
  0
BLOCK_RECORD
  5
22
100
AcDbSymbolTableRecord
100
AcDbBlockTableRecord
  2
*D7
340
0
  0
BLOCK_RECORD
  5
23
100
AcDbSymbolTableRecord
100
AcDbBlockTableRecord
  2
*D8
340
0
  0
BLOCK_RECORD
  5
24
100
AcDbSymbolTableRecord
100
AcDbBlockTableRecord
  2
*D9
340
0
  0
ENDTAB
  0
ENDSEC
  0
SECTION
  2
BLOCKS
  0
BLOCK
  5
28
100
AcDbEntity
  8
0
390
0
100
AcDbBlockBegin
  2
*Model_Space
 70
     0
 10
0.0
 20
0.0
 30
0.0
  3
*Model_Space
  1

  0
ENDBLK
  5
29
100
AcDbEntity
  8
0
390
0
100
AcDbBlockEnd
  0
BLOCK
  5
2A
100
AcDbEntity
 67
     1
  8
0
390
0
100
AcDbBlockBegin
  2
*Paper_Space
 70
     0
 10
0.0
 20
0.0
 30
0.0
  3
*Paper_Space
  1

  0
ENDBLK
  5
2B
100
AcDbEntity
 67
     1
  8
0
390
0
100
AcDbBlockEnd
  0
BLOCK
  5
57E
100
AcDbEntity
  8
2
100
AcDbBlockBegin
  2
*D0
 70
     1
 10
0.0
 20
0.0
 30
0.0
  3
*D0
  1

  0
TEXT
  5
57F
100
AcDbEntity
  8
2
370
    25
100
AcDbText
 10
-199.400269
 20
80.649479
 30
0.0
 40
6.0
  1
5%%d
 50
357.5
 72
     5
 11
-188.610548
 21
80.17839
 31
0.0
100
AcDbText
  0
LINE
  5
580
100
AcDbEntity
  8
2
370
    25
100
AcDbLine
 10
-185.338956
 20
120.235534
 30
0.0
 11
-189.225514
 21
75.811978
 31
0.0
  0
LINE
  5
581
100
AcDbEntity
  8
2
370
    25
100
AcDbLine
 10
-185.164645
 20
120.227923
 30
0.0
 11
-185.164645
 21
75.634677
 31
0.0
  0
LINE
  5
582
100
AcDbEntity
  8
2
370
    25
100
AcDbLine
 10
-189.051202
 20
77.804368
 30
0.0
 11
-192.747176
 21
79.334
 31
0.0
  0
LINE
  5
583
100
AcDbEntity
  8
2
370
    25
100
AcDbLine
 10
-189.051202
 20
77.804368
 30
0.0
 11
-193.016826
 21
77.281081
 31
0.0
  0
LINE
  5
584
100
AcDbEntity
  8
2
370
    25
100
AcDbLine
 10
-192.747176
 20
79.334
 30
0.0
 11
-193.016826
 21
77.281081
 31
0.0
  0
LINE
  5
585
100
AcDbEntity
  8
2
370
    25
100
AcDbLine
 10
-185.164645
 20
77.634677
 30
0.0
 11
-181.259719
 21
76.767754
 31
0.0
  0
LINE
  5
586
100
AcDbEntity
  8
2
370
    25
100
AcDbLine
 10
-185.164645
 20
77.634677
 30
0.0
 11
-181.349419
 21
78.836363
 31
0.0
  0
LINE
  5
587
100
AcDbEntity
  8
2
370
    25
100
AcDbLine
 10
-181.259719
 20
76.767754
 30
0.0
 11
-181.349419
 21
78.836363
 31
0.0
  0
ARC
  5
588
100
AcDbEntity
  8
2
370
    25
100
AcDbCircle
 10
-185.164645
 20
122.227923
 30
0.0
 40
44.593247
100
AcDbArc
 50
252.360568
 51
282.639432
  0
ENDBLK
  5
589
100
AcDbEntity
  8
2
100
AcDbBlockEnd
  0
BLOCK
  5
58A
100
AcDbEntity
  8
2
100
AcDbBlockBegin
  2
*D1
 70
     1
 10
0.0
 20
0.0
 30
0.0
  3
*D1
  1

  0
LINE
  5
58B
100
AcDbEntity
  8
2
370
    25
100
AcDbLine
 10
-254.128165
 20
-34.798753
 30
0.0
 11
-290.820038
 21
-34.798753
 31
0.0
  0
LINE
  5
58C
100
AcDbEntity
  8
2
370
    25
100
AcDbLine
 10
-288.820038
 20
-34.798753
 30
0.0
 11
-289.855314
 21
-38.662456
 31
0.0
  0
LINE
  5
58D
100
AcDbEntity
  8
2
370
    25
100
AcDbLine
 10
-288.820038
 20
-34.798753
 30
0.0
 11
-287.784762
 21
-38.662456
 31
0.0
  0
LINE
  5
58E
100
AcDbEntity
  8
2
370
    25
100
AcDbLine
 10
-289.855314
 20
-38.662456
 30
0.0
 11
-287.784762
 21
-38.662456
 31
0.0
  0
LINE
  5
58F
100
AcDbEntity
  8
2
370
    25
100
AcDbLine
 10
-288.820038
 20
-44.798753
 30
0.0
 11
-288.820038
 21
12.701247
 31
0.0
  0
LINE
  5
590
100
AcDbEntity
  8
2
370
    25
100
AcDbLine
 10
-288.820038
 20
-29.798753
 30
0.0
 11
-287.784762
 21
-25.935049
 31
0.0
  0
LINE
  5
591
100
AcDbEntity
  8
2
370
    25
100
AcDbLine
 10
-288.820038
 20
-29.798753
 30
0.0
 11
-289.855314
 21
-25.935049
 31
0.0
  0
LINE
  5
592
100
AcDbEntity
  8
2
370
    25
100
AcDbLine
 10
-287.784762
 20
-25.935049
 30
0.0
 11
-289.855314
 21
-25.935049
 31
0.0
  0
LINE
  5
593
100
AcDbEntity
  8
2
370
    25
100
AcDbLine
 10
-255.328242
 20
-29.798753
 30
0.0
 11
-290.820038
 21
-29.798753
 31
0.0
  0
ENDBLK
  5
594
100
AcDbEntity
  8
2
100
AcDbBlockEnd
  0
BLOCK
  5
595
100
AcDbEntity
  8
2
100
AcDbBlockBegin
  2
*D2
 70
     1
 10
0.0
 20
0.0
 30
0.0
  3
*D2
  1

  0
TEXT
  5
596
100
AcDbEntity
  8
2
370
    25
100
AcDbText
 10
-278.628242
 20
-23.323792
 30
0.0
 40
6.0
  1
φ５３
 72
     5
 11
-261.828242
 21
-23.323792
 31
0.0
100
AcDbText
  0
LINE
  5
597
100
AcDbEntity
  8
2
370
    25
100
AcDbLine
 10
-200.628242
 20
-27.498753
 30
0.0
 11
-200.628242
 21
-22.323792
 31
0.0
  0
LINE
  5
598
100
AcDbEntity
  8
2
370
    25
100
AcDbLine
 10
-200.628242
 20
-24.323792
 30
0.0
 11
-196.764539
 21
-25.359068
 31
0.0
  0
LINE
  5
599
100
AcDbEntity
  8
2
370
    25
100
AcDbLine
 10
-200.628242
 20
-24.323792
 30
0.0
 11
-196.764539
 21
-23.288515
 31
0.0
  0
LINE
  5
59A
100
AcDbEntity
  8
2
370
    25
100
AcDbLine
 10
-196.764539
 20
-25.359068
 30
0.0
 11
-196.764539
 21
-23.288515
 31
0.0
  0
LINE
  5
59B
100
AcDbEntity
  8
2
370
    25
100
AcDbLine
 10
-190.628242
 20
-24.323792
 30
0.0
 11
-278.628242
 21
-24.323792
 31
0.0
  0
LINE
  5
59C
100
AcDbEntity
  8
2
370
    25
100
AcDbLine
 10
-253.628242
 20
-24.323792
 30
0.0
 11
-257.491946
 21
-23.288515
 31
0.0
  0
LINE
  5
59D
100
AcDbEntity
  8
2
370
    25
100
AcDbLine
 10
-253.628242
 20
-24.323792
 30
0.0
 11
-257.491946
 21
-25.359068
 31
0.0
  0
LINE
  5
59E
100
AcDbEntity
  8
2
370
    25
100
AcDbLine
 10
-257.491946
 20
-23.288515
 30
0.0
 11
-257.491946
 21
-25.359068
 31
0.0
  0
LINE
  5
59F
100
AcDbEntity
  8
2
370
    25
100
AcDbLine
 10
-253.628242
 20
-27.498753
 30
0.0
 11
-253.628242
 21
-22.323792
 31
0.0
  0
ENDBLK
  5
5A0
100
AcDbEntity
  8
2
100
AcDbBlockEnd
  0
BLOCK
  5
5A1
100
AcDbEntity
  8
2
100
AcDbBlockBegin
  2
*D3
 70
     1
 10
0.0
 20
0.0
 30
0.0
  3
*D3
  1

  0
TEXT
  5
5A2
100
AcDbEntity
  8
2
370
    25
100
AcDbText
 10
-110.990517
 20
35.714585
 30
0.0
 40
6.0
  1
１５２
 50
90.0
 72
     5
 11
-110.990517
 21
52.514585
 31
0.0
100
AcDbText
  0
LINE
  5
5A3
100
AcDbEntity
  8
2
370
    25
100
AcDbLine
 10
86.635355
 20
-29.798753
 30
0.0
 11
-111.990517
 21
-29.798753
 31
0.0
  0
LINE
  5
5A4
100
AcDbEntity
  8
2
370
    25
100
AcDbLine
 10
-109.990517
 20
-29.798753
 30
0.0
 11
-108.95524
 21
-25.935049
 31
0.0
  0
LINE
  5
5A5
100
AcDbEntity
  8
2
370
    25
100
AcDbLine
 10
-109.990517
 20
-29.798753
 30
0.0
 11
-111.025793
 21
-25.935049
 31
0.0
  0
LINE
  5
5A6
100
AcDbEntity
  8
2
370
    25
100
AcDbLine
 10
-108.95524
 20
-25.935049
 30
0.0
 11
-111.025793
 21
-25.935049
 31
0.0
  0
LINE
  5
5A7
100
AcDbEntity
  8
2
370
    25
100
AcDbLine
 10
-109.990517
 20
-29.798753
 30
0.0
 11
-109.990517
 21
122.227923
 31
0.0
  0
LINE
  5
5A8
100
AcDbEntity
  8
2
370
    25
100
AcDbLine
 10
-109.990517
 20
122.227923
 30
0.0
 11
-111.025793
 21
118.36422
 31
0.0
  0
LINE
  5
5A9
100
AcDbEntity
  8
2
370
    25
100
AcDbLine
 10
-109.990517
 20
122.227923
 30
0.0
 11
-108.95524
 21
118.36422
 31
0.0
  0
LINE
  5
5AA
100
AcDbEntity
  8
2
370
    25
100
AcDbLine
 10
-111.025793
 20
118.36422
 30
0.0
 11
-108.95524
 21
118.36422
 31
0.0
  0
LINE
  5
5AB
100
AcDbEntity
  8
2
370
    25
100
AcDbLine
 10
-183.164645
 20
122.227923
 30
0.0
 11
-107.990517
 21
122.227923
 31
0.0
  0
ENDBLK
  5
5AC
100
AcDbEntity
  8
2
100
AcDbBlockEnd
  0
BLOCK
  5
5AD
100
AcDbEntity
  8
2
100
AcDbBlockBegin
  2
*D4
 70
     1
 10
0.0
 20
0.0
 30
0.0
  3
*D4
  1

  0
TEXT
  5
5AE
100
AcDbEntity
  8
2
370
    25
100
AcDbText
 10
-75.657784
 20
50.351609
 30
0.0
 40
6.0
  1
１８１
 50
90.0
 72
     5
 11
-75.657784
 21
67.151609
 31
0.0
100
AcDbText
  0
LINE
  5
5AF
100
AcDbEntity
  8
2
370
    25
100
AcDbLine
 10
86.635355
 20
-29.798753
 30
0.0
 11
-76.657784
 21
-29.798753
 31
0.0
  0
LINE
  5
5B0
100
AcDbEntity
  8
2
370
    25
100
AcDbLine
 10
-74.657784
 20
-29.798753
 30
0.0
 11
-73.622507
 21
-25.935049
 31
0.0
  0
LINE
  5
5B1
100
AcDbEntity
  8
2
370
    25
100
AcDbLine
 10
-74.657784
 20
-29.798753
 30
0.0
 11
-75.69306
 21
-25.935049
 31
0.0
  0
LINE
  5
5B2
100
AcDbEntity
  8
2
370
    25
100
AcDbLine
 10
-73.622507
 20
-25.935049
 30
0.0
 11
-75.69306
 21
-25.935049
 31
0.0
  0
LINE
  5
5B3
100
AcDbEntity
  8
2
370
    25
100
AcDbLine
 10
-74.657784
 20
-29.798753
 30
0.0
 11
-74.657784
 21
151.501971
 31
0.0
  0
LINE
  5
5B4
100
AcDbEntity
  8
2
370
    25
100
AcDbLine
 10
-74.657784
 20
151.501971
 30
0.0
 11
-75.69306
 21
147.638267
 31
0.0
  0
LINE
  5
5B5
100
AcDbEntity
  8
2
370
    25
100
AcDbLine
 10
-74.657784
 20
151.501971
 30
0.0
 11
-73.622507
 21
147.638267
 31
0.0
  0
LINE
  5
5B6
100
AcDbEntity
  8
2
370
    25
100
AcDbLine
 10
-75.69306
 20
147.638267
 30
0.0
 11
-73.622507
 21
147.638267
 31
0.0
  0
LINE
  5
5B7
100
AcDbEntity
  8
2
370
    25
100
AcDbLine
 10
-182.592938
 20
151.501971
 30
0.0
 11
-72.657784
 21
151.501971
 31
0.0
  0
ENDBLK
  5
5B8
100
AcDbEntity
  8
2
100
AcDbBlockEnd
  0
BLOCK
  5
5B9
100
AcDbEntity
  8
2
100
AcDbBlockBegin
  2
*D5
 70
     1
 10
0.0
 20
0.0
 30
0.0
  3
*D5
  1

  0
TEXT
  5
5BA
100
AcDbEntity
  8
2
370
    25
100
AcDbText
 10
-3.129711
 20
159.570068
 30
0.0
 40
6.0
  1
３０゜
 50
60.0
 72
     5
 11
5.270289
 21
174.119295
 31
0.0
100
AcDbText
  0
LINE
  5
5BB
100
AcDbEntity
  8
2
370
    25
100
AcDbLine
 10
51.632403
 20
173.724757
 30
0.0
 11
24.400472
 21
200.956688
 31
0.0
  0
LINE
  5
5BC
100
AcDbEntity
  8
2
370
    25
100
AcDbLine
 10
6.088395
 20
127.649484
 30
0.0
 11
-14.706483
 21
133.221454
 31
0.0
  0
LINE
  5
5BD
100
AcDbEntity
  8
2
370
    25
100
AcDbLine
 10
25.814685
 20
199.542474
 30
0.0
 11
22.376788
 21
197.497758
 31
0.0
  0
LINE
  5
5BE
100
AcDbEntity
  8
2
370
    25
100
AcDbLine
 10
25.814685
 20
199.542474
 30
0.0
 11
23.859737
 21
196.052749
 31
0.0
  0
LINE
  5
5BF
100
AcDbEntity
  8
2
370
    25
100
AcDbLine
 10
22.376788
 20
197.497758
 30
0.0
 11
23.859737
 21
196.052749
 31
0.0
  0
LINE
  5
5C0
100
AcDbEntity
  8
2
370
    25
100
AcDbLine
 10
-12.774632
 20
132.703816
 30
0.0
 11
-10.729915
 21
136.141713
 31
0.0
  0
LINE
  5
5C1
100
AcDbEntity
  8
2
370
    25
100
AcDbLine
 10
-12.774632
 20
132.703816
 30
0.0
 11
-12.722804
 21
136.703481
 31
0.0
  0
LINE
  5
5C2
100
AcDbEntity
  8
2
370
    25
100
AcDbLine
 10
-10.729915
 20
136.141713
 30
0.0
 11
-12.722804
 21
136.703481
 31
0.0
  0
ARC
  5
5C3
100
AcDbEntity
  8
2
370
    25
100
AcDbCircle
 10
131.24266
 20
94.114499
 30
0.0
 40
149.097672
100
AcDbArc
 50
135.0
 51
165.0
  0
ENDBLK
  5
5C4
100
AcDbEntity
  8
2
100
AcDbBlockEnd
  0
BLOCK
  5
5C5
100
AcDbEntity
  8
2
100
AcDbBlockBegin
  2
*D6
 70
     1
 10
0.0
 20
0.0
 30
0.0
  3
*D6
  1

  0
TEXT
  5
5C6
100
AcDbEntity
  8
2
370
    25
100
AcDbText
 10
279.638092
 20
67.521099
 30
0.0
 40
6.0
  1
２１６
 50
90.0
 72
     5
 11
279.638092
 21
84.321099
 31
0.0
100
AcDbText
  0
LINE
  5
5C7
100
AcDbEntity
  8
2
370
    25
100
AcDbLine
 10
143.035355
 20
-29.798753
 30
0.0
 11
282.638092
 21
-29.798753
 31
0.0
  0
LINE
  5
5C8
100
AcDbEntity
  8
2
370
    25
100
AcDbLine
 10
280.638092
 20
-29.798753
 30
0.0
 11
281.673368
 21
-25.935049
 31
0.0
  0
LINE
  5
5C9
100
AcDbEntity
  8
2
370
    25
100
AcDbLine
 10
280.638092
 20
-29.798753
 30
0.0
 11
279.602816
 21
-25.935049
 31
0.0
  0
LINE
  5
5CA
100
AcDbEntity
  8
2
370
    25
100
AcDbLine
 10
281.673368
 20
-25.935049
 30
0.0
 11
279.602816
 21
-25.935049
 31
0.0
  0
LINE
  5
5CB
100
AcDbEntity
  8
2
370
    25
100
AcDbLine
 10
280.638092
 20
-29.798753
 30
0.0
 11
280.638092
 21
185.840951
 31
0.0
  0
LINE
  5
5CC
100
AcDbEntity
  8
2
370
    25
100
AcDbLine
 10
280.638092
 20
185.840951
 30
0.0
 11
279.602816
 21
181.977248
 31
0.0
  0
LINE
  5
5CD
100
AcDbEntity
  8
2
370
    25
100
AcDbLine
 10
280.638092
 20
185.840951
 30
0.0
 11
281.673368
 21
181.977248
 31
0.0
  0
LINE
  5
5CE
100
AcDbEntity
  8
2
370
    25
100
AcDbLine
 10
279.602816
 20
181.977248
 30
0.0
 11
281.673368
 21
181.977248
 31
0.0
  0
LINE
  5
5CF
100
AcDbEntity
  8
2
370
    25
100
AcDbLine
 10
51.379235
 20
185.840951
 30
0.0
 11
282.638092
 21
185.840951
 31
0.0
  0
ENDBLK
  5
5D0
100
AcDbEntity
  8
2
100
AcDbBlockEnd
  0
BLOCK
  5
5D1
100
AcDbEntity
  8
2
100
AcDbBlockBegin
  2
*D7
 70
     1
 10
0.0
 20
0.0
 30
0.0
  3
*D7
  1

  0
TEXT
  5
5D2
100
AcDbEntity
  8
2
370
    25
100
AcDbText
 10
261.806213
 20
43.242515
 30
0.0
 40
6.0
  1
１６７
 50
90.0
 72
     5
 11
261.806213
 21
60.042515
 31
0.0
100
AcDbText
  0
LINE
  5
5D3
100
AcDbEntity
  8
2
370
    25
100
AcDbLine
 10
143.035355
 20
-29.798753
 30
0.0
 11
264.806213
 21
-29.798753
 31
0.0
  0
LINE
  5
5D4
100
AcDbEntity
  8
2
370
    25
100
AcDbLine
 10
262.806213
 20
-29.798753
 30
0.0
 11
263.84149
 21
-25.935049
 31
0.0
  0
LINE
  5
5D5
100
AcDbEntity
  8
2
370
    25
100
AcDbLine
 10
262.806213
 20
-29.798753
 30
0.0
 11
261.770937
 21
-25.935049
 31
0.0
  0
LINE
  5
5D6
100
AcDbEntity
  8
2
370
    25
100
AcDbLine
 10
263.84149
 20
-25.935049
 30
0.0
 11
261.770937
 21
-25.935049
 31
0.0
  0
LINE
  5
5D7
100
AcDbEntity
  8
2
370
    25
100
AcDbLine
 10
262.806213
 20
-29.798753
 30
0.0
 11
262.806213
 21
137.283782
 31
0.0
  0
LINE
  5
5D8
100
AcDbEntity
  8
2
370
    25
100
AcDbLine
 10
262.806213
 20
137.283782
 30
0.0
 11
261.770937
 21
133.420078
 31
0.0
  0
LINE
  5
5D9
100
AcDbEntity
  8
2
370
    25
100
AcDbLine
 10
262.806213
 20
137.283782
 30
0.0
 11
263.84149
 21
133.420078
 31
0.0
  0
LINE
  5
5DA
100
AcDbEntity
  8
2
370
    25
100
AcDbLine
 10
261.770937
 20
133.420078
 30
0.0
 11
263.84149
 21
133.420078
 31
0.0
  0
LINE
  5
5DB
100
AcDbEntity
  8
2
370
    25
100
AcDbLine
 10
1.078997
 20
137.283782
 30
0.0
 11
264.806213
 21
137.283782
 31
0.0
  0
ENDBLK
  5
5DC
100
AcDbEntity
  8
2
100
AcDbBlockEnd
  0
BLOCK
  5
5DD
100
AcDbEntity
  8
2
100
AcDbBlockBegin
  2
*D8
 70
     1
 10
0.0
 20
0.0
 30
0.0
  3
*D8
  1

  0
TEXT
  5
5DE
100
AcDbEntity
  8
2
370
    25
100
AcDbText
 10
-47.164645
 20
-97.181335
 30
0.0
 40
6.0
  1
300
 41
2.0
 72
     5
 11
-31.564645
 21
-97.181335
 31
0.0
100
AcDbText
  0
LINE
  5
5DF
100
AcDbEntity
  8
2
370
    25
100
AcDbLine
 10
-185.164645
 20
120.227923
 30
0.0
 11
-185.164645
 21
-100.181335
 31
0.0
  0
LINE
  5
5E0
100
AcDbEntity
  8
2
370
    25
100
AcDbLine
 10
-185.164645
 20
-98.181335
 30
0.0
 11
-181.300941
 21
-99.216612
 31
0.0
  0
LINE
  5
5E1
100
AcDbEntity
  8
2
370
    25
100
AcDbLine
 10
-185.164645
 20
-98.181335
 30
0.0
 11
-181.300941
 21
-97.146059
 31
0.0
  0
LINE
  5
5E2
100
AcDbEntity
  8
2
370
    25
100
AcDbLine
 10
-181.300941
 20
-99.216612
 30
0.0
 11
-181.300941
 21
-97.146059
 31
0.0
  0
LINE
  5
5E3
100
AcDbEntity
  8
2
370
    25
100
AcDbLine
 10
-185.164645
 20
-98.181335
 30
0.0
 11
114.835355
 21
-98.181335
 31
0.0
  0
LINE
  5
5E4
100
AcDbEntity
  8
2
370
    25
100
AcDbLine
 10
114.835355
 20
-98.181335
 30
0.0
 11
110.971652
 21
-97.146059
 31
0.0
  0
LINE
  5
5E5
100
AcDbEntity
  8
2
370
    25
100
AcDbLine
 10
114.835355
 20
-98.181335
 30
0.0
 11
110.971652
 21
-99.216612
 31
0.0
  0
LINE
  5
5E6
100
AcDbEntity
  8
2
370
    25
100
AcDbLine
 10
110.971652
 20
-97.146059
 30
0.0
 11
110.971652
 21
-99.216612
 31
0.0
  0
ENDBLK
  5
5E7
100
AcDbEntity
  8
2
100
AcDbBlockEnd
  0
BLOCK
  5
5E8
100
AcDbEntity
  8
2
100
AcDbBlockBegin
  2
*D9
 70
     1
 10
0.0
 20
0.0
 30
0.0
  3
*D9
  1

  0
LINE
  5
5E9
100
AcDbEntity
  8
2
370
    25
100
AcDbLine
 10
112.867684
 20
-187.196889
 30
0.0
 11
62.238419
 21
-187.196889
 31
0.0
  0
LINE
  5
5EA
100
AcDbEntity
  8
2
370
    25
100
AcDbLine
 10
64.238419
 20
-187.196889
 30
0.0
 11
65.273695
 21
-183.333186
 31
0.0
  0
LINE
  5
5EB
100
AcDbEntity
  8
2
370
    25
100
AcDbLine
 10
64.238419
 20
-187.196889
 30
0.0
 11
63.203142
 21
-183.333186
 31
0.0
  0
LINE
  5
5EC
100
AcDbEntity
  8
2
370
    25
100
AcDbLine
 10
65.273695
 20
-183.333186
 30
0.0
 11
63.203142
 21
-183.333186
 31
0.0
  0
LINE
  5
5ED
100
AcDbEntity
  8
2
370
    25
100
AcDbLine
 10
64.238419
 20
-187.196889
 30
0.0
 11
64.238419
 21
-29.798753
 31
0.0
  0
LINE
  5
5EE
100
AcDbEntity
  8
2
370
    25
100
AcDbLine
 10
64.238419
 20
-29.798753
 30
0.0
 11
63.203142
 21
-33.662456
 31
0.0
  0
LINE
  5
5EF
100
AcDbEntity
  8
2
370
    25
100
AcDbLine
 10
64.238419
 20
-29.798753
 30
0.0
 11
65.273695
 21
-33.662456
 31
0.0
  0
LINE
  5
5F0
100
AcDbEntity
  8
2
370
    25
100
AcDbLine
 10
63.203142
 20
-33.662456
 30
0.0
 11
65.273695
 21
-33.662456
 31
0.0
  0
LINE
  5
5F1
100
AcDbEntity
  8
2
370
    25
100
AcDbLine
 10
86.635355
 20
-29.798753
 30
0.0
 11
62.238419
 21
-29.798753
 31
0.0
  0
ENDBLK
  5
5F2
100
AcDbEntity
  8
2
100
AcDbBlockEnd
  0
ENDSEC
  0
SECTION
  2
ENTITIES
  0
LINE
  5
2D
100
AcDbEntity
  8
1
370
    25
  6
CENTER
100
AcDbLine
 10
-1270.17263
 20
-41.221179
 30
0.0
 11
-1270.17263
 21
-71.088112
 31
0.0
  0
ARC
  5
2E
100
AcDbEntity
  8
1
370
    50
100
AcDbCircle
 10
-1270.17263
 20
-54.020278
 30
0.0
 40
7.5
100
AcDbArc
 50
95.215909
 51
241.252212
  0
ARC
  5
2F
100
AcDbEntity
  8
1
370
    50
100
AcDbCircle
 10
-1270.17263
 20
-54.020278
 30
0.0
 40
7.5
100
AcDbArc
 50
275.215909
 51
57.769047
  0
ARC
  5
30
100
AcDbEntity
  8
1
370
    50
100
AcDbCircle
 10
-1270.17263
 20
-54.020278
 30
0.0
 40
9.0
100
AcDbArc
 50
95.215909
 51
241.252212
  0
ARC
  5
31
100
AcDbEntity
  8
1
370
    50
100
AcDbCircle
 10
-1270.17263
 20
-54.020278
 30
0.0
 40
9.0
100
AcDbArc
 50
275.215909
 51
66.800157
  0
LINE
  5
32
100
AcDbEntity
  8
1
370
    50
100
AcDbLine
 10
-1266.17263
 20
-47.675989
 30
0.0
 11
-1266.17263
 21
-51.520278
 31
0.0
  0
LINE
  5
33
100
AcDbEntity
  8
1
370
    50
100
AcDbLine
 10
-1267.67263
 20
-46.437402
 30
0.0
 11
-1267.67263
 21
-51.520278
 31
0.0
  0
ARC
  5
34
100
AcDbEntity
  8
1
370
    50
100
AcDbCircle
 10
-1268.54763
 20
-51.520278
 30
0.0
 40
0.875
100
AcDbArc
 50
180.0
 51
360.0
  0
ARC
  5
35
100
AcDbEntity
  8
1
370
    50
100
AcDbCircle
 10
-1268.54763
 20
-51.520278
 30
0.0
 40
2.375
100
AcDbArc
 50
248.381728
 51
360.0
  0
LINE
  5
36
100
AcDbEntity
  8
1
370
    50
100
AcDbLine
 10
-1269.42263
 20
-53.728218
 30
0.0
 11
-1269.42263
 21
-56.520278
 31
0.0
  0
LINE
  5
37
100
AcDbEntity
  8
1
370
    50
100
AcDbLine
 10
-1270.92263
 20
-51.520278
 30
0.0
 11
-1270.92263
 21
-54.312337
 31
0.0
  0
ARC
  5
38
100
AcDbEntity
  8
1
370
    50
100
AcDbCircle
 10
-1271.79763
 20
-56.520278
 30
0.0
 40
2.375
100
AcDbArc
 50
68.381728
 51
244.942325
  0
ARC
  5
39
100
AcDbEntity
  8
1
370
    50
100
AcDbCircle
 10
-1271.79763
 20
-56.520278
 30
0.0
 40
0.875
100
AcDbArc
 50
0.0
 51
244.942325
  0
ARC
  5
3A
100
AcDbEntity
  8
1
370
    50
100
AcDbCircle
 10
-1270.17263
 20
-51.520278
 30
0.0
 40
0.75
100
AcDbArc
 50
0.0
 51
180.0
  0
ARC
  5
3B
100
AcDbEntity
  8
1
370
    50
100
AcDbCircle
 10
-1270.17263
 20
-56.520278
 30
0.0
 40
0.75
100
AcDbArc
 50
180.0
 51
360.0
  0
ARC
  5
3C
100
AcDbEntity
  8
1
370
    50
100
AcDbCircle
 10
-1270.92263
 20
-45.804439
 30
0.0
 40
0.75
100
AcDbArc
 50
275.215909
 51
95.215909
  0
ARC
  5
3D
100
AcDbEntity
  8
1
370
    50
100
AcDbCircle
 10
-1269.42263
 20
-62.236116
 30
0.0
 40
0.75
100
AcDbArc
 50
95.215909
 51
275.215909
  0
ARC
  5
3E
100
AcDbEntity
  8
1
370
    50
100
AcDbCircle
 10
-1266.92263
 20
-46.437402
 30
0.0
 40
0.75
100
AcDbArc
 50
66.800157
 51
180.0
  0
ARC
  5
3F
100
AcDbEntity
  8
1
370
    50
100
AcDbCircle
 10
-1273.260662
 20
-59.649532
 30
0.0
 40
1.079373
100
AcDbArc
 50
241.252212
 51
64.942325
  0
ARC
  5
40
100
AcDbEntity
  8
1
370
    50
100
AcDbCircle
 10
-1273.260662
 20
-59.649532
 30
0.0
 40
2.579373
100
AcDbArc
 50
241.252212
 51
64.942325
  0
LINE
  5
41
100
AcDbEntity
  8
1
370
    50
100
AcDbLine
 10
-1252.45296
 20
-51.739947
 30
0.0
 11
-1254.95296
 21
-54.239947
 31
0.0
  0
LINE
  5
42
100
AcDbEntity
  8
1
370
    50
100
AcDbLine
 10
-1252.67263
 20
-54.080938
 30
0.0
 11
-1253.8923
 21
-55.300608
 31
0.0
  0
LINE
  5
43
100
AcDbEntity
  8
1
370
    50
100
AcDbLine
 10
-1252.67263
 20
-54.080938
 30
0.0
 11
-1252.67263
 21
-61.520278
 31
0.0
  0
LINE
  5
44
100
AcDbEntity
  8
1
370
    50
100
AcDbLine
 10
-1251.17263
 20
-52.343687
 30
0.0
 11
-1251.17263
 21
-61.520278
 31
0.0
  0
LINE
  5
45
100
AcDbEntity
  8
1
370
    50
100
AcDbLine
 10
-1254.42263
 20
-63.020278
 30
0.0
 11
-1249.42263
 21
-63.020278
 31
0.0
  0
ARC
  5
46
100
AcDbEntity
  8
1
370
    50
100
AcDbCircle
 10
-1254.42263
 20
-54.770278
 30
0.0
 40
0.75
100
AcDbArc
 50
135.0
 51
315.0
  0
ARC
  5
47
100
AcDbEntity
  8
1
370
    50
100
AcDbCircle
 10
-1251.953038
 20
-52.343687
 30
0.0
 40
0.780407
100
AcDbArc
 50
0.0
 51
135.0
  0
ARC
  5
48
100
AcDbEntity
  8
1
370
    50
100
AcDbCircle
 10
-1254.42263
 20
-62.270278
 30
0.0
 40
0.75
100
AcDbArc
 50
90.0
 51
270.0
  0
ARC
  5
49
100
AcDbEntity
  8
1
370
    50
100
AcDbCircle
 10
-1249.42263
 20
-62.270278
 30
0.0
 40
0.75
100
AcDbArc
 50
270.0
 51
90.0
  0
LINE
  5
4A
100
AcDbEntity
  8
1
370
    50
100
AcDbLine
 10
-1254.42263
 20
-61.520278
 30
0.0
 11
-1252.67263
 21
-61.520278
 31
0.0
  0
LINE
  5
4B
100
AcDbEntity
  8
1
370
    50
100
AcDbLine
 10
-1251.17263
 20
-61.520278
 30
0.0
 11
-1249.42263
 21
-61.520278
 31
0.0
  0
LINE
  5
4C
100
AcDbEntity
  8
1
370
    25
  6
CENTER
100
AcDbLine
 10
-1235.47263
 20
-63.020278
 30
0.0
 11
-1235.47263
 21
-45.020278
 31
0.0
  0
LINE
  5
4D
100
AcDbEntity
  8
1
370
    25
  6
CENTER
100
AcDbLine
 10
-1227.959491
 20
-55.07618
 30
0.0
 11
-1244.840613
 21
-52.703693
 31
0.0
  0
LINE
  5
4E
100
AcDbEntity
  8
1
370
    50
100
AcDbLine
 10
-1228.27263
 20
-52.760059
 30
0.0
 11
-1242.67263
 21
-50.736271
 31
0.0
  0
LINE
  5
4F
100
AcDbEntity
  8
1
370
    50
100
AcDbLine
 10
-1228.27263
 20
-57.304284
 30
0.0
 11
-1242.67263
 21
-55.280496
 31
0.0
  0
LINE
  5
50
100
AcDbEntity
  8
1
370
    50
100
AcDbLine
 10
-1226.02263
 20
-63.020278
 30
0.0
 11
-1226.02263
 21
-58.520278
 31
0.0
  0
LINE
  5
51
100
AcDbEntity
  8
1
370
    50
100
AcDbLine
 10
-1205.77263
 20
-63.020278
 30
0.0
 11
-1205.77263
 21
-58.520278
 31
0.0
  0
LINE
  5
52
100
AcDbEntity
  8
1
370
    50
100
AcDbLine
 10
-1223.77263
 20
-49.520278
 30
0.0
 11
-1223.77263
 21
-45.020278
 31
0.0
  0
LINE
  5
53
100
AcDbEntity
  8
1
370
    50
100
AcDbLine
 10
-1212.97263
 20
-55.820278
 30
0.0
 11
-1212.97263
 21
-47.270278
 31
0.0
  0
LINE
  5
54
100
AcDbEntity
  8
1
370
    50
100
AcDbLine
 10
-1242.67263
 20
-58.520278
 30
0.0
 11
-1230.52263
 21
-58.520278
 31
0.0
  0
LINE
  5
55
100
AcDbEntity
  8
1
370
    50
100
AcDbLine
 10
-1226.02263
 20
-58.520278
 30
0.0
 11
-1222.87263
 21
-58.520278
 31
0.0
  0
LINE
  5
56
100
AcDbEntity
  8
1
370
    50
100
AcDbLine
 10
-1242.67263
 20
-49.520278
 30
0.0
 11
-1228.27263
 21
-49.520278
 31
0.0
  0
LINE
  5
57
100
AcDbEntity
  8
1
370
    50
100
AcDbLine
 10
-1223.77263
 20
-49.520278
 30
0.0
 11
-1217.47263
 21
-49.520278
 31
0.0
  0
LINE
  5
58
100
AcDbEntity
  8
1
370
    50
100
AcDbLine
 10
-1217.47263
 20
-53.120278
 30
0.0
 11
-1217.47263
 21
-49.520278
 31
0.0
  0
ARC
  5
59
100
AcDbEntity
  8
1
370
    50
100
AcDbCircle
 10
-1222.87263
 20
-53.120278
 30
0.0
 40
5.4
100
AcDbArc
 50
270.0
 51
360.0
  0
LINE
  5
5A
100
AcDbEntity
  8
1
370
    50
100
AcDbLine
 10
-1203.52263
 20
-63.020278
 30
0.0
 11
-1203.52263
 21
-58.520278
 31
0.0
  0
LINE
  5
5B
100
AcDbEntity
  8
1
370
    25
  6
CENTER
100
AcDbLine
 10
-1204.64763
 20
-55.814008
 30
0.0
 11
-1204.64763
 21
-66.461037
 31
0.0
  0
ARC
  5
5C
100
AcDbEntity
  8
1
370
    50
100
AcDbCircle
 10
-1205.828935
 20
-47.720424
 30
0.0
 40
10.8
100
AcDbArc
 50
228.589201
 51
270.0
  0
ARC
  5
5D
100
AcDbEntity
  8
1
370
    50
100
AcDbCircle
 10
-1222.87263
 20
-53.120278
 30
0.0
 40
9.9
100
AcDbArc
 50
270.0
 51
318.814631
  0
ARC
  5
5E
100
AcDbEntity
  8
1
370
    50
100
AcDbCircle
 10
-1205.828935
 20
-47.720424
 30
0.0
 40
15.3
100
AcDbArc
 50
231.170759
 51
270.0
  0
LINE
  5
5F
100
AcDbEntity
  8
1
370
    25
  6
CENTER
100
AcDbLine
 10
-1209.37263
 20
-42.359378
 30
0.0
 11
-1209.37263
 21
-54.748769
 31
0.0
  0
CIRCLE
  5
60
100
AcDbEntity
  8
1
370
    50
100
AcDbCircle
 10
-1211.17263
 20
-46.820278
 30
0.0
 40
1.8
  0
CIRCLE
  5
61
100
AcDbEntity
  8
1
370
    50
100
AcDbCircle
 10
-1207.57263
 20
-46.820278
 30
0.0
 40
1.8
  0
LINE
  5
62
100
AcDbEntity
  8
1
370
    50
100
AcDbLine
 10
-1203.52263
 20
-45.020278
 30
0.0
 11
-1207.679552
 21
-52.220278
 31
0.0
  0
LINE
  5
63
100
AcDbEntity
  8
1
370
    50
100
AcDbLine
 10
-1207.679552
 20
-52.220278
 30
0.0
 11
-1202.4834
 21
-52.220278
 31
0.0
  0
LINE
  5
64
100
AcDbEntity
  8
1
370
    50
100
AcDbLine
 10
-1200.924554
 20
-49.520278
 30
0.0
 11
-1202.4834
 21
-52.220278
 31
0.0
  0
LINE
  5
65
100
AcDbEntity
  8
1
370
    50
100
AcDbLine
 10
-1205.828935
 20
-58.520278
 30
0.0
 11
-1205.77263
 21
-58.520278
 31
0.0
  0
LINE
  5
66
100
AcDbEntity
  8
1
370
    50
100
AcDbLine
 10
-1203.52263
 20
-58.520278
 30
0.0
 11
-1202.62263
 21
-58.520278
 31
0.0
  0
LINE
  5
67
100
AcDbEntity
  8
1
370
    50
100
AcDbLine
 10
-1242.67263
 20
-45.020278
 30
0.0
 11
-1230.52263
 21
-45.020278
 31
0.0
  0
LINE
  5
68
100
AcDbEntity
  8
1
370
    50
100
AcDbLine
 10
-1223.77263
 20
-45.020278
 30
0.0
 11
-1215.22263
 21
-45.020278
 31
0.0
  0
LINE
  5
69
100
AcDbEntity
  8
1
370
    50
100
AcDbLine
 10
-1205.828935
 20
-63.020278
 30
0.0
 11
-1205.77263
 21
-63.020278
 31
0.0
  0
LINE
  5
6A
100
AcDbEntity
  8
1
370
    50
100
AcDbLine
 10
-1203.52263
 20
-63.020278
 30
0.0
 11
-1202.62263
 21
-63.020278
 31
0.0
  0
LINE
  5
6B
100
AcDbEntity
  8
1
370
    50
100
AcDbLine
 10
-1228.27263
 20
-49.520278
 30
0.0
 11
-1228.27263
 21
-47.270278
 31
0.0
  0
LINE
  5
6C
100
AcDbEntity
  8
1
370
    50
100
AcDbLine
 10
-1228.27263
 20
-63.020278
 30
0.0
 11
-1228.27263
 21
-60.770278
 31
0.0
  0
LINE
  5
6D
100
AcDbEntity
  8
1
370
    50
100
AcDbLine
 10
-1228.27263
 20
-57.304284
 30
0.0
 11
-1228.27263
 21
-52.760059
 31
0.0
  0
LINE
  5
6E
100
AcDbEntity
  8
1
370
    50
100
AcDbLine
 10
-1242.67263
 20
-63.020278
 30
0.0
 11
-1242.67263
 21
-58.520278
 31
0.0
  0
LINE
  5
6F
100
AcDbEntity
  8
1
370
    50
100
AcDbLine
 10
-1242.67263
 20
-55.280496
 30
0.0
 11
-1242.67263
 21
-50.736271
 31
0.0
  0
LINE
  5
70
100
AcDbEntity
  8
1
370
    50
100
AcDbLine
 10
-1242.67263
 20
-49.520278
 30
0.0
 11
-1242.67263
 21
-45.020278
 31
0.0
  0
LINE
  5
71
100
AcDbEntity
  8
1
370
    50
100
AcDbLine
 10
-1242.67263
 20
-63.020278
 30
0.0
 11
-1228.27263
 21
-63.020278
 31
0.0
  0
LINE
  5
72
100
AcDbEntity
  8
1
370
    50
100
AcDbLine
 10
-1226.02263
 20
-63.020278
 30
0.0
 11
-1222.87263
 21
-63.020278
 31
0.0
  0
ARC
  5
73
100
AcDbEntity
  8
1
370
    50
100
AcDbCircle
 10
-1215.22263
 20
-47.270278
 30
0.0
 40
2.25
100
AcDbArc
 50
0.0
 51
90.0
  0
ARC
  5
74
100
AcDbEntity
  8
1
370
    50
100
AcDbCircle
 10
-1230.52263
 20
-47.270278
 30
0.0
 40
2.25
100
AcDbArc
 50
360.0
 51
90.0
  0
ARC
  5
75
100
AcDbEntity
  8
1
370
    50
100
AcDbCircle
 10
-1230.52263
 20
-60.770278
 30
0.0
 40
2.25
100
AcDbArc
 50
0.0
 51
90.0
  0
LINE
  5
76
100
AcDbEntity
  8
1
370
   100
100
AcDbLine
 10
-373.02157
 20
275.028767
 30
0.0
 11
394.982385
 21
275.028767
 31
0.0
  0
LINE
  5
77
100
AcDbEntity
  8
1
370
   100
100
AcDbLine
 10
-373.02157
 20
275.028767
 30
0.0
 11
-373.02157
 21
-277.971881
 31
0.0
  0
LINE
  5
78
100
AcDbEntity
  8
1
370
   100
100
AcDbLine
 10
-373.02157
 20
-277.971881
 30
0.0
 11
394.982385
 21
-277.971881
 31
0.0
  0
LINE
  5
79
100
AcDbEntity
  8
1
370
   100
100
AcDbLine
 10
394.982385
 20
-277.971881
 30
0.0
 11
394.982385
 21
275.028767
 31
0.0
  0
TEXT
  5
7A
100
AcDbEntity
  8
1
370
    50
100
AcDbText
 10
359.628442
 20
-226.252857
 30
0.0
 40
6.0
  1
設計
 72
     5
 11
370.428442
 21
-226.252857
 31
0.0
100
AcDbText
  0
TEXT
  5
7B
100
AcDbEntity
  8
1
370
    50
100
AcDbText
 10
379.127478
 20
-226.099658
 30
0.0
 40
6.0
  1
製図
 72
     5
 11
389.927478
 21
-226.099658
 31
0.0
100
AcDbText
  0
TEXT
  5
7C
100
AcDbEntity
  8
1
370
    50
100
AcDbText
 10
319.005745
 20
-226.252857
 30
0.0
 40
6.0
  1
承認
 72
     5
 11
329.805745
 21
-226.252857
 31
0.0
100
AcDbText
  0
TEXT
  5
7D
100
AcDbEntity
  8
1
370
    50
100
AcDbText
 10
338.989679
 20
-226.19802
 30
0.0
 40
6.0
  1
検図
 72
     5
 11
349.789679
 21
-226.19802
 31
0.0
100
AcDbText
  0
LINE
  5
7E
100
AcDbEntity
  8
1
370
    25
100
AcDbLine
 10
284.982385
 20
-227.971881
 30
0.0
 11
394.982385
 21
-227.971881
 31
0.0
  0
LINE
  5
7F
100
AcDbEntity
  8
1
370
    25
100
AcDbLine
 10
342.482385
 20
-245.971881
 30
0.0
 11
342.482385
 21
-259.971881
 31
0.0
  0
TEXT
  5
80
100
AcDbEntity
  8
1
370
    50
100
AcDbText
 10
319.55159
 20
-256.012528
 30
0.0
 40
6.0
  1
日　付
 72
     5
 11
336.35159
 21
-256.012528
 31
0.0
100
AcDbText
  0
LINE
  5
81
100
AcDbEntity
  8
1
370
    50
100
AcDbLine
 10
40.982385
 20
-259.971881
 30
0.0
 11
394.982385
 21
-259.971881
 31
0.0
  0
TEXT
  5
82
100
AcDbEntity
  8
1
370
    50
100
AcDbText
 10
287.775011
 20
-256.322406
 30
0.0
 40
6.0
  1
第三角法
 72
     5
 11
310.575011
 21
-256.322406
 31
0.0
100
AcDbText
  0
TEXT
  5
83
100
AcDbEntity
  8
1
370
    50
100
AcDbText
 10
291.087419
 20
-225.99802
 30
0.0
 40
6.0
  1
尺　度
 72
     5
 11
307.887419
 21
-225.99802
 31
0.0
100
AcDbText
  0
LINE
  5
84
100
AcDbEntity
  8
1
370
   100
100
AcDbLine
 10
40.982385
 20
-217.971881
 30
0.0
 11
394.982385
 21
-217.971881
 31
0.0
  0
LINE
  5
85
100
AcDbEntity
  8
1
370
    50
100
AcDbLine
 10
211.982385
 20
-217.971881
 30
0.0
 11
211.982385
 21
-277.971881
 31
0.0
  0
LINE
  5
86
100
AcDbEntity
  8
1
370
    25
100
AcDbLine
 10
374.982385
 20
-245.971881
 30
0.0
 11
374.982385
 21
-217.971881
 31
0.0
  0
LINE
  5
87
100
AcDbEntity
  8
1
370
    25
100
AcDbLine
 10
354.982385
 20
-245.971881
 30
0.0
 11
354.982385
 21
-217.971881
 31
0.0
  0
LINE
  5
88
100
AcDbEntity
  8
1
370
    25
100
AcDbLine
 10
334.982385
 20
-245.971881
 30
0.0
 11
334.982385
 21
-217.971881
 31
0.0
  0
LINE
  5
89
100
AcDbEntity
  8
1
370
    50
100
AcDbLine
 10
284.982385
 20
-277.971881
 30
0.0
 11
284.982385
 21
-217.971881
 31
0.0
  0
LINE
  5
8A
100
AcDbEntity
  8
1
370
    50
100
AcDbLine
 10
189.982385
 20
-217.971881
 30
0.0
 11
189.982385
 21
-277.971881
 31
0.0
  0
LINE
  5
8B
100
AcDbEntity
  8
1
370
    50
100
AcDbLine
 10
62.982385
 20
-217.971881
 30
0.0
 11
62.982385
 21
-259.971881
 31
0.0
  0
LINE
  5
8C
100
AcDbEntity
  8
1
370
    50
100
AcDbLine
 10
284.982385
 20
-245.971881
 30
0.0
 11
394.982385
 21
-245.971881
 31
0.0
  0
TEXT
  5
8D
100
AcDbEntity
  8
1
370
    50
100
AcDbText
 10
287.101129
 20
-271.880939
 30
0.0
 40
6.0
  1
コードＮｏ
 41
0.9
 72
     5
 11
313.021129
 21
-271.880939
 31
0.0
100
AcDbText
  0
TEXT
  5
8E
100
AcDbEntity
  8
1
370
   100
100
AcDbText
 10
52.886774
 20
-272.875659
 30
0.0
 40
8.0
  1
ミズタニバルブ工業株式会社
 41
1.2
 72
     5
 11
175.766774
 21
-272.875659
 31
0.0
100
AcDbText
  0
LINE
  5
8F
100
AcDbEntity
  8
1
370
    50
100
AcDbLine
 10
40.982385
 20
-238.971881
 30
0.0
 11
284.982385
 21
-238.971881
 31
0.0
  0
LINE
  5
90
100
AcDbEntity
  8
1
370
    50
100
AcDbLine
 10
115.482385
 20
-238.971881
 30
0.0
 11
115.482385
 21
-259.971881
 31
0.0
  0
LINE
  5
91
100
AcDbEntity
  8
1
370
    50
100
AcDbLine
 10
137.482385
 20
-238.971881
 30
0.0
 11
137.482385
 21
-259.971881
 31
0.0
  0
LINE
  5
92
100
AcDbEntity
  8
1
370
    50
100
AcDbLine
 10
314.982385
 20
-277.971881
 30
0.0
 11
314.982385
 21
-217.971881
 31
0.0
  0
TEXT
  5
93
100
AcDbEntity
  8
1
370
    50
100
AcDbText
 10
345.098131
 20
-256.100293
 30
0.0
 40
6.0
  1
　　・　　・
 72
     5
 11
379.898131
 21
-256.100293
 31
0.0
100
AcDbText
  0
LINE
  5
94
100
AcDbEntity
  8
1
370
   100
100
AcDbLine
 10
40.982385
 20
-217.971881
 30
0.0
 11
40.982385
 21
-277.971881
 31
0.0
  0
TEXT
  5
95
100
AcDbEntity
  8
1
370
    50
100
AcDbText
 10
290.832582
 20
-240.013492
 30
0.0
 40
6.0
  1
　／ 
 72
     5
 11
301.632582
 21
-240.013492
 31
0.0
100
AcDbText
  0
TEXT
  5
96
100
AcDbEntity
  8
1
370
    50
100
AcDbText
 10
193.904123
 20
-272.024909
 30
0.0
 40
6.0
  1
備 考 
 72
     5
 11
207.704123
 21
-272.024909
 31
0.0
100
AcDbText
  0
TEXT
  5
97
100
AcDbEntity
  8
1
370
    50
100
AcDbText
 10
193.512534
 20
-230.89184
 30
0.0
 40
6.0
  1
仕 上
 72
     5
 11
207.312534
 21
-230.89184
 31
0.0
100
AcDbText
  0
TEXT
  5
98
100
AcDbEntity
  8
1
370
    50
100
AcDbText
 10
193.447176
 20
-248.891666
 30
0.0
 40
6.0
  1
表 面
 72
     5
 11
207.247176
 21
-248.891666
 31
0.0
100
AcDbText
  0
TEXT
  5
99
100
AcDbEntity
  8
1
370
    50
100
AcDbText
 10
193.447176
 20
-255.891666
 30
0.0
 40
6.0
  1
処 理
 72
     5
 11
207.247176
 21
-255.891666
 31
0.0
100
AcDbText
  0
TEXT
  5
9A
100
AcDbEntity
  8
1
370
    50
100
AcDbText
 10
44.79335
 20
-231.693399
 30
0.0
 40
6.0
  1
品 名
 72
     5
 11
58.59335
 21
-231.693399
 31
0.0
100
AcDbText
  0
TEXT
  5
9B
100
AcDbEntity
  8
1
370
    50
100
AcDbText
 10
44.397766
 20
-252.462534
 30
0.0
 40
6.0
  1
材 質
 72
     5
 11
58.197766
 21
-252.462534
 31
0.0
100
AcDbText
  0
TEXT
  5
9C
100
AcDbEntity
  8
1
370
    50
100
AcDbText
 10
118.897766
 20
-252.462534
 30
0.0
 40
6.0
  1
規 格
 72
     5
 11
132.697766
 21
-252.462534
 31
0.0
100
AcDbText
  0
LINE
  5
9D
100
AcDbEntity
  8
2
370
    50
100
AcDbLine
 10
88.335355
 20
-17.098753
 30
0.0
 11
88.335355
 21
-29.498753
 31
0.0
  0
LINE
  5
9E
100
AcDbEntity
  8
2
370
    50
100
AcDbLine
 10
88.335355
 20
-15.798753
 30
0.0
 11
141.335355
 21
-15.798753
 31
0.0
  0
LINE
  5
9F
100
AcDbEntity
  8
2
370
    50
100
AcDbLine
 10
131.135355
 20
-34.298753
 30
0.0
 11
131.835355
 21
-33.598753
 31
0.0
  0
LINE
  5
A0
100
AcDbEntity
  8
2
370
    50
100
AcDbLine
 10
98.535355
 20
-34.298753
 30
0.0
 11
97.835355
 21
-33.598753
 31
0.0
  0
LINE
  5
A1
100
AcDbEntity
  8
2
370
    50
100
AcDbLine
 10
88.635355
 20
19.201247
 30
0.0
 11
141.035355
 21
19.201247
 31
0.0
  0
LINE
  5
A2
100
AcDbEntity
  8
2
370
    50
100
AcDbLine
 10
88.335344
 20
-16.798753
 30
0.0
 11
141.335355
 21
-16.798753
 31
0.0
  0
LINE
  5
A3
100
AcDbEntity
  8
2
370
    25
100
AcDbLine
 10
114.835355
 20
-98.560204
 30
0.0
 11
114.835355
 21
-107.046974
 31
0.0
  0
LINE
  5
A4
100
AcDbEntity
  8
2
370
    50
100
AcDbLine
 10
-173.210308
 20
121.182054
 30
0.0
 11
-197.118981
 21
123.273792
 31
0.0
  0
LINE
  5
A5
100
AcDbEntity
  8
2
370
    50
100
AcDbLine
 10
-148.716472
 20
117.812776
 30
0.0
 11
-148.897292
 21
117.544699
 31
0.0
  0
ARC
  5
A6
100
AcDbEntity
  8
2
370
    50
100
AcDbCircle
 10
-147.802975
 20
126.555657
 30
0.0
 40
10.0
100
AcDbArc
 50
227.964633
 51
254.035367
  0
ARC
  5
A7
100
AcDbEntity
  8
2
370
    50
100
AcDbCircle
 10
-150.140849
 20
118.383488
 30
0.0
 40
1.5
100
AcDbArc
 50
254.035367
 51
326.0
  0
ARC
  5
A8
100
AcDbEntity
  8
2
370
    50
100
AcDbCircle
 10
-153.494483
 20
120.242438
 30
0.0
 40
1.5
100
AcDbArc
 50
174.979916
 51
227.964633
  0
LINE
  5
A9
100
AcDbEntity
  8
2
370
    50
100
AcDbLine
 10
88.635355
 20
-29.798753
 30
0.0
 11
141.035355
 21
-29.798753
 31
0.0
  0
LINE
  5
AA
100
AcDbEntity
  8
2
370
    50
100
AcDbLine
 10
-172.861685
 20
125.166833
 30
0.0
 11
-198.26465
 21
127.389305
 31
0.0
  0
ARC
  5
AB
100
AcDbEntity
  8
2
370
    50
100
AcDbCircle
 10
-188.280464
 20
127.951464
 30
0.0
 40
10.0
100
AcDbArc
 50
183.222634
 51
207.889456
  0
ARC
  5
AC
100
AcDbEntity
  8
2
370
    50
100
AcDbCircle
 10
-181.102279
 20
127.323454
 30
0.0
 40
10.0
100
AcDbArc
 50
322.110544
 51
346.777366
  0
LINE
  5
AD
100
AcDbEntity
  8
2
370
    50
100
AcDbLine
 10
-198.280179
 20
127.691809
 30
0.0
 11
-172.835539
 21
125.465692
 31
0.0
  0
LINE
  5
AE
100
AcDbEntity
  8
2
370
    50
100
AcDbLine
 10
-172.861685
 20
125.166833
 30
0.0
 11
-171.367393
 21
125.0361
 31
0.0
  0
LINE
  5
AF
100
AcDbEntity
  8
2
370
    50
100
AcDbLine
 10
-198.736601
 20
131.442559
 30
0.0
 11
-198.736601
 21
128.189907
 31
0.0
  0
LINE
  5
B0
100
AcDbEntity
  8
2
370
    50
100
AcDbLine
 10
-169.971621
 20
125.215131
 30
0.0
 11
-172.835539
 21
125.465692
 31
0.0
  0
LINE
  5
B1
100
AcDbEntity
  8
2
370
    50
100
AcDbLine
 10
88.335355
 20
15.785099
 30
0.0
 11
-109.09592
 21
125.223079
 31
0.0
  0
LINE
  5
B2
100
AcDbEntity
  8
2
370
    50
100
AcDbLine
 10
-109.09592
 20
125.223079
 30
0.0
 11
-125.419335
 21
134.271266
 31
0.0
  0
LINE
  5
B3
100
AcDbEntity
  8
2
370
    50
100
AcDbLine
 10
-121.21616
 20
103.357586
 30
0.0
 11
-135.816713
 21
111.450775
 31
0.0
  0
LINE
  5
B4
100
AcDbEntity
  8
2
370
    50
100
AcDbLine
 10
-199.768489
 20
144.621491
 30
0.0
 11
-200.539617
 21
135.807455
 31
0.0
  0
ARC
  5
B5
100
AcDbEntity
  8
2
370
    50
100
AcDbCircle
 10
-184.592938
 20
128.501971
 30
0.0
 40
23.0
100
AcDbArc
 50
85.056577
 51
127.542397
  0
ARC
  5
B6
100
AcDbEntity
  8
2
370
    50
100
AcDbCircle
 10
-193.292682
 20
11.824507
 30
0.0
 40
140.0
100
AcDbArc
 50
61.0
 51
85.624203
  0
ARC
  5
B7
100
AcDbEntity
  8
2
370
    50
100
AcDbCircle
 10
-173.911021
 20
148.590137
 30
0.0
 40
30.0
100
AcDbArc
 50
208.889154
 51
213.583225
  0
LINE
  5
B8
100
AcDbEntity
  8
2
370
    50
100
AcDbLine
 10
88.335355
 20
-12.798753
 30
0.0
 11
-121.216161
 21
103.357586
 31
0.0
  0
LINE
  5
B9
100
AcDbEntity
  8
2
370
    50
100
AcDbLine
 10
-109.09592
 20
125.223079
 30
0.0
 11
-121.21616
 21
103.357586
 31
0.0
  0
ARC
  5
BA
100
AcDbEntity
  8
2
370
    50
100
AcDbCircle
 10
-208.538156
 20
-19.742181
 30
0.0
 40
150.0
100
AcDbArc
 50
66.377043
 51
75.101338
  0
ARC
  5
BB
100
AcDbEntity
  8
2
370
    50
100
AcDbCircle
 10
-208.538156
 20
-19.742181
 30
0.0
 40
150.0
100
AcDbArc
 50
61.0
 51
66.377043
  0
LINE
  5
BC
100
AcDbEntity
  8
2
370
    50
100
AcDbLine
 10
-200.928242
 20
-29.798753
 30
0.0
 11
-253.328242
 21
-29.798753
 31
0.0
  0
LINE
  5
BD
100
AcDbEntity
  8
2
370
    50
100
AcDbLine
 10
-200.628242
 20
-16.798753
 30
0.0
 11
-253.628242
 21
-16.798753
 31
0.0
  0
LINE
  5
BE
100
AcDbEntity
  8
2
370
    50
100
AcDbLine
 10
-200.628242
 20
-15.798753
 30
0.0
 11
-253.628242
 21
-15.798753
 31
0.0
  0
LINE
  5
BF
100
AcDbEntity
  8
2
370
    50
100
AcDbLine
 10
-243.628242
 20
143.829652
 30
0.0
 11
-243.628242
 21
134.601652
 31
0.0
  0
LINE
  5
C0
100
AcDbEntity
  8
2
370
    50
100
AcDbLine
 10
-210.628242
 20
143.829652
 30
0.0
 11
-210.628242
 21
134.601652
 31
0.0
  0
ELLIPSE
  5
C1
100
AcDbEntity
  8
2
370
    50
100
AcDbEllipse
 10
-227.128242
 20
133.484554
 30
0.0
 11
16.5
 21
0.0
 31
0.0
210
0.0
220
0.0
230
1.0
 40
0.087156
 41
0.508855
 42
2.6526160000000001
  0
ARC
  5
C2
100
AcDbEntity
  8
2
370
    50
100
AcDbCircle
 10
-227.128242
 20
128.687997
 30
0.0
 40
22.813604
100
AcDbArc
 50
45.269268
 51
134.730732
  0
LINE
  5
C3
100
AcDbEntity
  8
2
370
    50
100
AcDbLine
 10
-241.478242
 20
130.49597
 30
0.0
 11
-241.128242
 21
126.511191
 31
0.0
  0
LINE
  5
C4
100
AcDbEntity
  8
2
370
    50
100
AcDbLine
 10
-212.778242
 20
130.49597
 30
0.0
 11
-213.128242
 21
126.511191
 31
0.0
  0
ELLIPSE
  5
C5
100
AcDbEntity
  8
2
370
    50
100
AcDbEllipse
 10
-227.128242
 20
130.49597
 30
0.0
 11
14.35
 21
0.0
 31
0.0
210
0.0
220
0.0
230
1.0
 40
0.087155
 41
6.2678750000000001
 42
3.1569029999999998
  0
ARC
  5
C6
100
AcDbEntity
  8
2
370
    50
100
AcDbCircle
 10
-230.313912
 20
145.378856
 30
0.0
 40
23.0
100
AcDbArc
 50
319.678043
 51
325.219199
  0
LINE
  5
C7
100
AcDbEntity
  8
2
370
    50
100
AcDbLine
 10
-214.628242
 20
114.010392
 30
0.0
 11
-214.628242
 21
-1.866029
 31
0.0
  0
ELLIPSE
  5
C8
100
AcDbEntity
  8
2
370
    50
100
AcDbEllipse
 10
-227.128242
 20
103.357217
 30
0.0
 11
12.5
 21
0.0
 31
0.0
210
0.0
220
0.0
230
1.0
 40
0.874618
 41
3.1415929999999999
 42
0.0
  0
ELLIPSE
  5
C9
100
AcDbEntity
  8
2
370
    50
100
AcDbEllipse
 10
-227.128242
 20
-1.866029
 30
0.0
 11
12.5
 21
0.0
 31
0.0
210
0.0
220
0.0
230
1.0
 40
0.874618
 41
3.1415929999999999
 42
0.0
  0
ARC
  5
CA
100
AcDbEntity
  8
2
370
    50
100
AcDbCircle
 10
-223.942573
 20
145.378856
 30
0.0
 40
23.0
100
AcDbArc
 50
214.780801
 51
220.321957
  0
ARC
  5
CB
100
AcDbEntity
  8
2
370
    50
100
AcDbCircle
 10
-212.128242
 20
143.829652
 30
0.0
 40
1.5
100
AcDbArc
 50
0.0
 51
45.269268
  0
ARC
  5
CC
100
AcDbEntity
  8
2
370
    50
100
AcDbCircle
 10
-242.128242
 20
143.829652
 30
0.0
 40
1.5
100
AcDbArc
 50
134.730732
 51
180.0
  0
ARC
  5
CD
100
AcDbEntity
  8
2
370
    50
100
AcDbCircle
 10
-164.628242
 20
114.010392
 30
0.0
 40
50.0
100
AcDbArc
 50
158.013597
 51
180.0
  0
ELLIPSE
  5
CE
100
AcDbEntity
  8
2
370
    50
100
AcDbEllipse
 10
-227.128242
 20
126.511191
 30
0.0
 11
14.0
 21
0.0
 31
0.0
210
0.0
220
0.0
230
1.0
 40
0.087156
 41
6.0142810000000004
 42
3.4104969999999999
  0
ELLIPSE
  5
CF
100
AcDbEntity
  8
2
370
    50
100
AcDbEllipse
 10
-227.128242
 20
126.212333
 30
0.0
 11
13.5
 21
0.0
 31
0.0
210
0.0
220
0.0
230
1.0
 40
0.087156
 41
6.2580520000000002
 42
3.1667689999999999
  0
ELLIPSE
  5
D0
100
AcDbEntity
  8
2
370
    50
100
AcDbEllipse
 10
-227.128242
 20
122.227554
 30
0.0
 11
8.5
 21
0.0
 31
0.0
210
0.0
220
0.0
230
1.0
 40
0.087156
 41
0.0
 42
6.2831849999999996
  0
ARC
  5
D1
100
AcDbEntity
  8
2
370
    50
100
AcDbCircle
 10
-233.425941
 20
129.049786
 30
0.0
 40
20.0
100
AcDbArc
 50
340.055388
 51
351.843777
  0
ARC
  5
D2
100
AcDbEntity
  8
2
370
    50
100
AcDbCircle
 10
-220.830544
 20
129.049786
 30
0.0
 40
20.0
100
AcDbArc
 50
188.156223
 51
199.944613
  0
LINE
  5
D3
100
AcDbEntity
  8
2
370
    50
100
AcDbLine
 10
-239.628242
 20
114.289941
 30
0.0
 11
-239.628242
 21
114.010392
 31
0.0
  0
LINE
  5
D4
100
AcDbEntity
  8
2
370
    50
100
AcDbLine
 10
-239.628242
 20
114.289941
 30
0.0
 11
-239.628242
 21
-1.866029
 31
0.0
  0
ELLIPSE
  5
D5
100
AcDbEntity
  8
2
370
    50
100
AcDbEllipse
 10
-227.128242
 20
122.227554
 30
0.0
 11
12.5
 21
0.0
 31
0.0
210
0.0
220
0.0
230
1.0
 40
0.08367
 41
0.5139510000000001
 42
2.6509230000000001
  0
ELLIPSE
  5
D6
100
AcDbEntity
  8
2
370
    50
100
AcDbEllipse
 10
-227.128242
 20
122.227554
 30
0.0
 11
12.5
 21
0.0
 31
0.0
210
0.0
220
0.0
230
1.0
 40
0.08367
 41
3.1415929999999999
 42
0.0
  0
ARC
  5
D7
100
AcDbEntity
  8
2
370
    50
100
AcDbCircle
 10
-289.628242
 20
114.010392
 30
0.0
 40
50.0
100
AcDbArc
 50
0.0
 51
21.986403
  0
ELLIPSE
  5
D8
100
AcDbEntity
  8
2
370
    50
100
AcDbEllipse
 10
-227.128242
 20
144.442696
 30
0.0
 11
16.5
 21
0.0
 31
0.0
210
0.0
220
0.0
230
1.0
 40
0.087156
 41
0.532646
 42
2.631726
  0
ARC
  5
D9
100
AcDbEntity
  8
2
370
    50
100
AcDbCircle
 10
-215.628242
 20
134.601652
 30
0.0
 40
5.0
100
AcDbArc
 50
338.013597
 51
360.0
  0
ARC
  5
DA
100
AcDbEntity
  8
2
370
    50
100
AcDbCircle
 10
-238.628242
 20
134.601652
 30
0.0
 40
5.0
100
AcDbArc
 50
180.0
 51
201.986403
  0
ELLIPSE
  5
DB
100
AcDbEntity
  8
2
370
    50
100
AcDbEllipse
 10
-227.128242
 20
119.155466
 30
0.0
 11
3.75
 21
0.0
 31
0.0
210
0.0
220
0.0
230
1.0
 40
0.369041
 41
0.0
 42
3.1415929999999999
  0
ARC
  5
DC
100
AcDbEntity
  8
2
370
    50
100
AcDbCircle
 10
-228.598499
 20
120.627665
 30
0.0
 40
5.0
100
AcDbArc
 50
325.686909
 51
349.3472
  0
ARC
  5
DD
100
AcDbEntity
  8
2
370
    50
100
AcDbCircle
 10
-225.656024
 20
120.609453
 30
0.0
 40
5.0
100
AcDbArc
 50
190.452844
 51
214.060805
  0
ELLIPSE
  5
DE
100
AcDbEntity
  8
2
370
    50
100
AcDbEllipse
 10
-227.128242
 20
119.155466
 30
0.0
 11
3.75
 21
0.0
 31
0.0
210
0.0
220
0.0
230
1.0
 40
0.391381
 41
3.1415929999999999
 42
3.81535
  0
ELLIPSE
  5
DF
100
AcDbEntity
  8
2
370
    50
100
AcDbEllipse
 10
-227.128242
 20
119.155466
 30
0.0
 11
3.75
 21
0.0
 31
0.0
210
0.0
220
0.0
230
1.0
 40
0.391381
 41
5.6048499999999999
 42
0.0
  0
ELLIPSE
  5
E0
100
AcDbEntity
  8
2
370
    50
100
AcDbEllipse
 10
-227.128242
 20
117.809091
 30
0.0
 11
2.6699999999999999
 21
0.0
 31
0.0
210
0.0
220
0.0
230
1.0
 40
0.346806
 41
0.420617
 42
2.5708419999999998
  0
ARC
  5
E1
100
AcDbEntity
  8
2
370
    50
100
AcDbCircle
 10
-227.128242
 20
121.165564
 30
0.0
 40
4.282445
100
AcDbArc
 50
231.607514
 51
308.392486
  0
LINE
  5
E2
100
AcDbEntity
  8
2
370
    50
100
AcDbLine
 10
-253.462972
 20
58.371504
 30
0.0
 11
-251.293513
 21
58.754038
 31
0.0
  0
ARC
  5
E3
100
AcDbEntity
  8
2
370
    50
100
AcDbCircle
 10
-251.328242
 20
58.951
 30
0.0
 40
0.2
100
AcDbArc
 50
280.0
 51
360.0
  0
ARC
  5
E4
100
AcDbEntity
  8
2
370
    50
100
AcDbCircle
 10
-253.428242
 20
58.174543
 30
0.0
 40
0.2
100
AcDbArc
 50
100.0
 51
180.0
  0
LINE
  5
E5
100
AcDbEntity
  8
2
370
    50
100
AcDbLine
 10
-200.793513
 20
58.371504
 30
0.0
 11
-202.962972
 21
58.754038
 31
0.0
  0
ARC
  5
E6
100
AcDbEntity
  8
2
370
    50
100
AcDbCircle
 10
-200.828242
 20
58.174543
 30
0.0
 40
0.2
100
AcDbArc
 50
360.0
 51
80.0
  0
ARC
  5
E7
100
AcDbEntity
  8
2
370
    50
100
AcDbCircle
 10
-202.928242
 20
58.951
 30
0.0
 40
0.2
100
AcDbArc
 50
180.0
 51
260.0
  0
LINE
  5
E8
100
AcDbEntity
  8
2
370
    50
100
AcDbLine
 10
-253.328242
 20
19.951247
 30
0.0
 11
-239.628242
 21
19.951247
 31
0.0
  0
LINE
  5
E9
100
AcDbEntity
  8
2
370
    50
100
AcDbLine
 10
-214.628242
 20
19.951247
 30
0.0
 11
-200.928242
 21
19.951247
 31
0.0
  0
LINE
  5
EA
100
AcDbEntity
  8
2
370
    50
100
AcDbLine
 10
-253.328242
 20
19.201247
 30
0.0
 11
-239.628242
 21
19.201247
 31
0.0
  0
LINE
  5
EB
100
AcDbEntity
  8
2
370
    50
100
AcDbLine
 10
-214.628242
 20
19.201247
 30
0.0
 11
-200.928242
 21
19.201247
 31
0.0
  0
LINE
  5
EC
100
AcDbEntity
  8
2
370
    25
100
AcDbLine
 10
-250.094154
 20
58.78318
 30
0.0
 11
-239.628242
 21
58.78318
 31
0.0
  0
LINE
  5
ED
100
AcDbEntity
  8
2
370
    25
100
AcDbLine
 10
-214.628242
 20
58.78318
 30
0.0
 11
-204.255981
 21
58.78318
 31
0.0
  0
LINE
  5
EE
100
AcDbEntity
  8
2
370
    25
100
AcDbLine
 10
-253.628242
 20
58.342363
 30
0.0
 11
-239.628242
 21
58.342363
 31
0.0
  0
LINE
  5
EF
100
AcDbEntity
  8
2
370
    25
100
AcDbLine
 10
-214.628242
 20
58.342363
 30
0.0
 11
-200.628242
 21
58.342363
 31
0.0
  0
LINE
  5
F0
100
AcDbEntity
  8
2
370
    50
100
AcDbLine
 10
-200.628242
 20
-29.498753
 30
0.0
 11
-200.928242
 21
-29.798753
 31
0.0
  0
LINE
  5
F1
100
AcDbEntity
  8
2
370
    50
100
AcDbLine
 10
-253.628242
 20
-29.498753
 30
0.0
 11
-253.328242
 21
-29.798753
 31
0.0
  0
LINE
  5
F2
100
AcDbEntity
  8
2
370
    50
100
AcDbLine
 10
-200.928242
 20
-16.798753
 30
0.0
 11
-200.628242
 21
-17.098753
 31
0.0
  0
LINE
  5
F3
100
AcDbEntity
  8
2
370
    50
100
AcDbLine
 10
-253.328242
 20
-16.798753
 30
0.0
 11
-253.628242
 21
-17.098753
 31
0.0
  0
LINE
  5
F4
100
AcDbEntity
  8
2
370
    50
100
AcDbLine
 10
-200.928242
 20
-15.798753
 30
0.0
 11
-200.628242
 21
-15.498753
 31
0.0
  0
LINE
  5
F5
100
AcDbEntity
  8
2
370
    50
100
AcDbLine
 10
-253.328242
 20
-15.798753
 30
0.0
 11
-253.628242
 21
-15.498753
 31
0.0
  0
LINE
  5
F6
100
AcDbEntity
  8
2
370
    50
100
AcDbLine
 10
-200.928242
 20
19.201247
 30
0.0
 11
-200.628242
 21
18.901247
 31
0.0
  0
LINE
  5
F7
100
AcDbEntity
  8
2
370
    50
100
AcDbLine
 10
-253.328242
 20
19.201247
 30
0.0
 11
-253.628242
 21
18.901247
 31
0.0
  0
LINE
  5
F8
100
AcDbEntity
  8
2
370
    50
100
AcDbLine
 10
-200.928242
 20
19.951247
 30
0.0
 11
-200.628242
 21
20.251247
 31
0.0
  0
LINE
  5
F9
100
AcDbEntity
  8
2
370
    50
100
AcDbLine
 10
-253.328242
 20
19.951247
 30
0.0
 11
-253.628242
 21
20.251247
 31
0.0
  0
LINE
  5
FA
100
AcDbEntity
  8
2
370
    50
100
AcDbLine
 10
-200.628242
 20
20.251247
 30
0.0
 11
-200.628242
 21
58.174543
 31
0.0
  0
LINE
  5
FB
100
AcDbEntity
  8
2
370
    50
100
AcDbLine
 10
-253.628242
 20
20.251247
 30
0.0
 11
-253.628242
 21
58.174543
 31
0.0
  0
LINE
  5
FC
100
AcDbEntity
  8
2
370
    50
100
AcDbLine
 10
-253.628242
 20
20.251247
 30
0.0
 11
-239.628242
 21
20.251247
 31
0.0
  0
LINE
  5
FD
100
AcDbEntity
  8
2
370
    50
100
AcDbLine
 10
-214.628242
 20
20.251247
 30
0.0
 11
-200.628242
 21
20.251247
 31
0.0
  0
LINE
  5
FE
100
AcDbEntity
  8
2
370
    50
100
AcDbLine
 10
-200.628242
 20
-29.498753
 30
0.0
 11
-253.628242
 21
-29.498753
 31
0.0
  0
LINE
  5
FF
100
AcDbEntity
  8
2
370
    50
100
AcDbLine
 10
-200.628242
 20
-17.098753
 30
0.0
 11
-253.628242
 21
-17.098753
 31
0.0
  0
LINE
  5
100
100
AcDbEntity
  8
2
370
    50
100
AcDbLine
 10
-253.628242
 20
-15.498753
 30
0.0
 11
-200.628242
 21
-15.498753
 31
0.0
  0
LINE
  5
101
100
AcDbEntity
  8
2
370
    50
100
AcDbLine
 10
-200.628242
 20
-15.498753
 30
0.0
 11
-200.628242
 21
18.901247
 31
0.0
  0
LINE
  5
102
100
AcDbEntity
  8
2
370
    50
100
AcDbLine
 10
-200.628242
 20
-29.498753
 30
0.0
 11
-200.628242
 21
-17.098753
 31
0.0
  0
LINE
  5
103
100
AcDbEntity
  8
2
370
    50
100
AcDbLine
 10
-200.628242
 20
-16.798753
 30
0.0
 11
-200.628242
 21
-15.798753
 31
0.0
  0
LINE
  5
104
100
AcDbEntity
  8
2
370
    50
100
AcDbLine
 10
-253.628242
 20
-15.498753
 30
0.0
 11
-253.628242
 21
18.901247
 31
0.0
  0
LINE
  5
105
100
AcDbEntity
  8
2
370
    50
100
AcDbLine
 10
-253.628242
 20
-29.498753
 30
0.0
 11
-253.628242
 21
-17.098753
 31
0.0
  0
LINE
  5
106
100
AcDbEntity
  8
2
370
    50
100
AcDbLine
 10
-253.628242
 20
-16.798753
 30
0.0
 11
-253.628242
 21
-15.798753
 31
0.0
  0
LINE
  5
107
100
AcDbEntity
  8
2
370
    50
100
AcDbLine
 10
-253.628242
 20
18.901247
 30
0.0
 11
-239.628242
 21
18.901247
 31
0.0
  0
LINE
  5
108
100
AcDbEntity
  8
2
370
    50
100
AcDbLine
 10
-214.628242
 20
18.901247
 30
0.0
 11
-200.628242
 21
18.901247
 31
0.0
  0
DIMENSION
  5
109
100
AcDbEntity
  8
2
370
    25
100
AcDbDimension
  2
*D0
 10
-185.164645
 20
122.223464
 30
0.0
 11
-193.405979
 21
80.387763
 31
0.0
 70
     2
 71
     0
 72
     0
 41
0.0
 42
0.0
  3
Standard
100
AcDb2LineAngularDimension
 13
-185.165033
 23
122.223481
 33
0.0
 14
-185.164645
 24
122.227923
 34
0.0
 15
-185.164645
 25
122.227923
 35
0.0
 16
-187.109775
 26
77.67712
 36
0.0
1001
ACAD
1000
DSTYLE
1002
{
1070
   275
1070
     0
1070
   179
1070
     0
1002
}
  0
LINE
  5
10A
100
AcDbEntity
  8
2
370
    50
100
AcDbLine
 10
141.335355
 20
-17.098753
 30
0.0
 11
141.035355
 21
-16.798753
 31
0.0
  0
LINE
  5
10B
100
AcDbEntity
  8
2
370
    50
100
AcDbLine
 10
141.335355
 20
-29.498753
 30
0.0
 11
141.035355
 21
-29.798753
 31
0.0
  0
LINE
  5
10C
100
AcDbEntity
  8
2
370
    50
100
AcDbLine
 10
88.335355
 20
-29.498753
 30
0.0
 11
88.635355
 21
-29.798753
 31
0.0
  0
LINE
  5
10D
100
AcDbEntity
  8
2
370
    50
100
AcDbLine
 10
88.335355
 20
-17.098753
 30
0.0
 11
88.635355
 21
-16.798753
 31
0.0
  0
LINE
  5
10E
100
AcDbEntity
  8
2
370
    50
100
AcDbLine
 10
88.635355
 20
-15.798753
 30
0.0
 11
88.335355
 21
-15.498753
 31
0.0
  0
LINE
  5
10F
100
AcDbEntity
  8
2
370
    50
100
AcDbLine
 10
88.335355
 20
18.901247
 30
0.0
 11
88.635355
 21
19.201247
 31
0.0
  0
LINE
  5
110
100
AcDbEntity
  8
2
370
    50
100
AcDbLine
 10
141.335355
 20
18.901247
 30
0.0
 11
141.035355
 21
19.201247
 31
0.0
  0
LINE
  5
111
100
AcDbEntity
  8
2
370
    50
100
AcDbLine
 10
141.035355
 20
-15.798753
 30
0.0
 11
141.335355
 21
-15.498753
 31
0.0
  0
LINE
  5
112
100
AcDbEntity
  8
2
370
    50
100
AcDbLine
 10
141.335355
 20
-16.798753
 30
0.0
 11
141.335355
 21
-15.798753
 31
0.0
  0
LINE
  5
113
100
AcDbEntity
  8
2
370
    50
100
AcDbLine
 10
141.335355
 20
-15.498753
 30
0.0
 11
141.335355
 21
18.901247
 31
0.0
  0
LINE
  5
114
100
AcDbEntity
  8
2
370
    50
100
AcDbLine
 10
88.335355
 20
-16.798753
 30
0.0
 11
88.335355
 21
-15.798753
 31
0.0
  0
LINE
  5
115
100
AcDbEntity
  8
2
370
    50
100
AcDbLine
 10
88.335355
 20
-15.498753
 30
0.0
 11
88.335355
 21
18.901247
 31
0.0
  0
LINE
  5
116
100
AcDbEntity
  8
2
370
    50
100
AcDbLine
 10
88.835355
 20
-29.798753
 30
0.0
 11
88.835355
 21
-32.798753
 31
0.0
  0
LINE
  5
117
100
AcDbEntity
  8
2
370
    50
100
AcDbLine
 10
140.835355
 20
-29.798753
 30
0.0
 11
140.835355
 21
-32.798753
 31
0.0
  0
LINE
  5
118
100
AcDbEntity
  8
2
370
    50
100
AcDbLine
 10
88.835355
 20
-32.798753
 30
0.0
 11
140.835355
 21
-32.798753
 31
0.0
  0
LINE
  5
119
100
AcDbEntity
  8
2
370
    50
100
AcDbLine
 10
-253.128242
 20
-29.798753
 30
0.0
 11
-253.128242
 21
-32.798753
 31
0.0
  0
LINE
  5
11A
100
AcDbEntity
  8
2
370
    50
100
AcDbLine
 10
-201.128242
 20
-29.798753
 30
0.0
 11
-201.128242
 21
-32.798753
 31
0.0
  0
LINE
  5
11B
100
AcDbEntity
  8
2
370
    50
100
AcDbLine
 10
-201.128242
 20
-32.798753
 30
0.0
 11
-253.128242
 21
-32.798753
 31
0.0
  0
ARC
  5
11C
100
AcDbEntity
  8
2
370
    50
100
AcDbCircle
 10
-196.779905
 20
144.360024
 30
0.0
 40
3.0
100
AcDbArc
 50
127.542397
 51
175.0
  0
ARC
  5
11D
100
AcDbEntity
  8
2
370
    50
100
AcDbCircle
 10
-197.551033
 20
135.545988
 30
0.0
 40
3.0
100
AcDbArc
 50
175.0
 51
208.889154
  0
ARC
  5
11E
100
AcDbEntity
  8
2
370
    50
100
AcDbCircle
 10
-199.736601
 20
131.442559
 30
0.0
 40
1.0
100
AcDbArc
 50
0.0
 51
33.583225
  0
ARC
  5
11F
100
AcDbEntity
  8
2
370
    50
100
AcDbCircle
 10
-198.236601
 20
128.189907
 30
0.0
 40
0.5
100
AcDbArc
 50
180.0
 51
265.0
  0
LINE
  5
120
100
AcDbEntity
  8
2
370
    50
100
AcDbLine
 10
-209.628242
 20
-34.798753
 30
0.0
 11
-209.628242
 21
-32.798753
 31
0.0
  0
LINE
  5
121
100
AcDbEntity
  8
2
370
    25
100
AcDbLine
 10
-210.628242
 20
-34.798753
 30
0.0
 11
-210.628242
 21
-32.798753
 31
0.0
  0
LINE
  5
122
100
AcDbEntity
  8
2
370
    50
100
AcDbLine
 10
-244.628242
 20
-34.798753
 30
0.0
 11
-244.628242
 21
-32.798753
 31
0.0
  0
LINE
  5
123
100
AcDbEntity
  8
2
370
    25
100
AcDbLine
 10
-243.628242
 20
-34.798753
 30
0.0
 11
-243.628242
 21
-32.798753
 31
0.0
  0
ARC
  5
124
100
AcDbEntity
  8
2
370
    50
100
AcDbCircle
 10
-193.292682
 20
11.824507
 30
0.0
 40
122.0
100
AcDbArc
 50
74.334622
 51
85.668216
  0
LINE
  5
125
100
AcDbEntity
  8
2
370
    50
100
AcDbLine
 10
-200.490308
 20
134.911909
 30
0.0
 11
-184.077791
 21
133.476
 31
0.0
  0
ARC
  5
126
100
AcDbEntity
  8
2
370
    50
100
AcDbCircle
 10
-193.292682
 20
11.824507
 30
0.0
 40
133.0
100
AcDbArc
 50
74.224222
 51
85.639986
  0
LINE
  5
127
100
AcDbEntity
  8
2
370
    50
100
AcDbLine
 10
-199.379854
 20
145.856775
 30
0.0
 11
-183.181599
 21
144.439612
 31
0.0
  0
LINE
  5
128
100
AcDbEntity
  8
2
370
    50
100
AcDbLine
 10
-198.736601
 20
131.74702
 30
0.0
 11
-176.969792
 21
129.842671
 31
0.0
  0
ARC
  5
129
100
AcDbEntity
  8
2
370
    50
100
AcDbCircle
 10
-177.736637
 20
121.077588
 30
0.0
 40
8.798564
100
AcDbArc
 50
28.050661
 51
85.0
  0
LINE
  5
12A
100
AcDbEntity
  8
2
370
    50
100
AcDbLine
 10
131.135355
 20
-34.298753
 30
0.0
 11
98.535355
 21
-34.298753
 31
0.0
  0
LINE
  5
12B
100
AcDbEntity
  8
2
370
    25
100
AcDbLine
 10
131.135355
 20
-34.798753
 30
0.0
 11
131.135355
 21
-34.298753
 31
0.0
  0
LINE
  5
12C
100
AcDbEntity
  8
2
370
    50
100
AcDbLine
 10
131.835355
 20
-34.798753
 30
0.0
 11
131.835355
 21
-32.798753
 31
0.0
  0
LINE
  5
12D
100
AcDbEntity
  8
2
370
    50
100
AcDbLine
 10
97.835355
 20
-34.798753
 30
0.0
 11
97.835355
 21
-32.798753
 31
0.0
  0
LINE
  5
12E
100
AcDbEntity
  8
2
370
    25
100
AcDbLine
 10
98.535355
 20
-34.798753
 30
0.0
 11
98.535355
 21
-34.298753
 31
0.0
  0
TEXT
  5
12F
100
AcDbEntity
  8
2
370
    50
100
AcDbText
 10
-323.600342
 20
-68.810432
 30
0.0
 40
6.0
  1
４６六角
 72
     5
 11
-300.800342
 21
-68.810432
 31
0.0
100
AcDbText
  0
LINE
  5
130
100
AcDbEntity
  8
2
370
    50
100
AcDbLine
 10
-203.128242
 20
58.951
 30
0.0
 11
-203.128242
 21
65.252664
 31
0.0
  0
LINE
  5
131
100
AcDbEntity
  8
2
370
    50
100
AcDbLine
 10
-251.128242
 20
58.951
 30
0.0
 11
-251.128242
 21
64.851616
 31
0.0
  0
LINE
  5
132
100
AcDbEntity
  8
2
370
    50
100
AcDbLine
 10
-201.628242
 20
-53.74126
 30
0.0
 11
-201.628242
 21
-58.854509
 31
0.0
  0
LINE
  5
133
100
AcDbEntity
  8
2
370
    50
100
AcDbLine
 10
-250.128242
 20
-38.297885
 30
0.0
 11
-204.128242
 21
-38.297885
 31
0.0
  0
LINE
  5
134
100
AcDbEntity
  8
2
370
    50
100
AcDbLine
 10
-250.128242
 20
-73.297885
 30
0.0
 11
-204.128242
 21
-73.297885
 31
0.0
  0
LINE
  5
135
100
AcDbEntity
  8
2
370
    50
100
AcDbLine
 10
-201.628242
 20
-38.967758
 30
0.0
 11
-201.628242
 21
-72.628012
 31
0.0
  0
LINE
  5
136
100
AcDbEntity
  8
2
370
    50
100
AcDbLine
 10
-252.628242
 20
-38.967758
 30
0.0
 11
-252.628242
 21
-72.628012
 31
0.0
  0
LINE
  5
137
100
AcDbEntity
  8
2
370
    50
100
AcDbLine
 10
-204.128242
 20
-38.297885
 30
0.0
 11
-201.628242
 21
-38.967758
 31
0.0
  0
LINE
  5
138
100
AcDbEntity
  8
2
370
    50
100
AcDbLine
 10
-250.128242
 20
-73.297885
 30
0.0
 11
-252.628242
 21
-72.628012
 31
0.0
  0
LINE
  5
139
100
AcDbEntity
  8
2
370
    50
100
AcDbLine
 10
-250.128242
 20
-38.297885
 30
0.0
 11
-252.628242
 21
-38.967758
 31
0.0
  0
LINE
  5
13A
100
AcDbEntity
  8
2
370
    50
100
AcDbLine
 10
-204.128242
 20
-73.297885
 30
0.0
 11
-201.628242
 21
-72.628012
 31
0.0
  0
LINE
  5
13B
100
AcDbEntity
  8
2
370
    50
100
AcDbLine
 10
-216.116742
 20
-38.967758
 30
0.0
 11
-216.116742
 21
-72.628012
 31
0.0
  0
LINE
  5
13C
100
AcDbEntity
  8
2
370
    50
100
AcDbLine
 10
-241.541242
 20
-38.967758
 30
0.0
 11
-241.541242
 21
-72.628012
 31
0.0
  0
LINE
  5
13D
100
AcDbEntity
  8
2
370
    50
100
AcDbLine
 10
-212.715242
 20
-38.967758
 30
0.0
 11
-212.715242
 21
-72.628012
 31
0.0
  0
ARC
  5
13E
100
AcDbEntity
  8
2
370
    50
100
AcDbCircle
 10
-207.171742
 20
-61.570298
 30
0.0
 40
23.272414
100
AcDbArc
 50
76.219645
 51
103.780355
  0
ARC
  5
13F
100
AcDbEntity
  8
2
370
    50
100
AcDbCircle
 10
-227.128242
 20
-129.137391
 30
0.0
 40
90.839507
100
AcDbArc
 50
83.037524
 51
96.962476
  0
ARC
  5
140
100
AcDbEntity
  8
2
370
    50
100
AcDbCircle
 10
-247.084742
 20
-61.570298
 30
0.0
 40
23.272414
100
AcDbArc
 50
76.219645
 51
103.780355
  0
ARC
  5
141
100
AcDbEntity
  8
2
370
    50
100
AcDbCircle
 10
-207.171742
 20
-50.025471
 30
0.0
 40
23.272414
100
AcDbArc
 50
256.219645
 51
283.780355
  0
ARC
  5
142
100
AcDbEntity
  8
2
370
    50
100
AcDbCircle
 10
-227.128242
 20
17.541622
 30
0.0
 40
90.839507
100
AcDbArc
 50
263.037524
 51
276.962476
  0
ARC
  5
143
100
AcDbEntity
  8
2
370
    50
100
AcDbCircle
 10
-247.084742
 20
-50.025471
 30
0.0
 40
23.272414
100
AcDbArc
 50
256.219645
 51
283.780355
  0
LINE
  5
144
100
AcDbEntity
  8
2
370
    50
100
AcDbLine
 10
-241.541242
 20
-38.967758
 30
0.0
 11
-238.139742
 21
-38.967758
 31
0.0
  0
LINE
  5
145
100
AcDbEntity
  8
2
370
    50
100
AcDbLine
 10
-216.116742
 20
-38.967758
 30
0.0
 11
-212.715242
 21
-38.967758
 31
0.0
  0
LINE
  5
146
100
AcDbEntity
  8
2
370
    50
100
AcDbLine
 10
-241.541242
 20
-72.628012
 30
0.0
 11
-238.139742
 21
-72.628012
 31
0.0
  0
LINE
  5
147
100
AcDbEntity
  8
2
370
    50
100
AcDbLine
 10
-216.116742
 20
-72.628012
 30
0.0
 11
-212.715242
 21
-72.628012
 31
0.0
  0
LINE
  5
148
100
AcDbEntity
  8
2
370
    50
100
AcDbLine
 10
-252.128165
 20
-36.298753
 30
0.0
 11
-252.128165
 21
-34.798753
 31
0.0
  0
LINE
  5
149
100
AcDbEntity
  8
2
370
    50
100
AcDbLine
 10
-202.128165
 20
-36.298753
 30
0.0
 11
-252.128165
 21
-36.298753
 31
0.0
  0
LINE
  5
14A
100
AcDbEntity
  8
2
370
    50
100
AcDbLine
 10
-202.128165
 20
-36.298753
 30
0.0
 11
-211.128165
 21
-36.298753
 31
0.0
  0
LINE
  5
14B
100
AcDbEntity
  8
2
370
    50
100
AcDbLine
 10
-252.128165
 20
-34.798753
 30
0.0
 11
-202.128165
 21
-34.798753
 31
0.0
  0
LINE
  5
14C
100
AcDbEntity
  8
2
370
    50
100
AcDbLine
 10
-252.128165
 20
-37.180563
 30
0.0
 11
-252.128165
 21
-36.559398
 31
0.0
  0
LINE
  5
14D
100
AcDbEntity
  8
2
370
    50
100
AcDbLine
 10
-251.876401
 20
-36.366212
 30
0.0
 11
-249.069147
 21
-37.118414
 31
0.0
  0
LINE
  5
14E
100
AcDbEntity
  8
2
370
    50
100
AcDbLine
 10
-251.979929
 20
-37.373748
 30
0.0
 11
-248.927866
 21
-38.191546
 31
0.0
  0
LINE
  5
14F
100
AcDbEntity
  8
2
370
    50
100
AcDbLine
 10
-247.281104
 20
-37.578991
 30
0.0
 11
-248.169047
 21
-38.091646
 31
0.0
  0
LINE
  5
150
100
AcDbEntity
  8
2
370
    50
100
AcDbLine
 10
-248.310328
 20
-37.018514
 30
0.0
 11
-247.422384
 21
-36.505859
 31
0.0
  0
LINE
  5
151
100
AcDbEntity
  8
2
370
    50
100
AcDbLine
 10
-246.663565
 20
-36.405959
 30
0.0
 11
-244.004647
 21
-37.118414
 31
0.0
  0
LINE
  5
152
100
AcDbEntity
  8
2
370
    50
100
AcDbLine
 10
-246.522285
 20
-37.479091
 30
0.0
 11
-243.965784
 21
-38.164103
 31
0.0
  0
ARC
  5
153
100
AcDbEntity
  8
2
370
    50
100
AcDbCircle
 10
-248.669047
 20
-38.29962
 30
0.0
 40
2.0
100
AcDbArc
 50
57.713823
 51
133.754764
  0
ARC
  5
154
100
AcDbEntity
  8
2
370
    50
100
AcDbCircle
 10
-243.605047
 20
-38.29962
 30
0.0
 40
2.0
100
AcDbArc
 50
51.829858
 51
133.754764
  0
ARC
  5
155
100
AcDbEntity
  8
2
370
    50
100
AcDbCircle
 10
-246.869047
 20
-36.297885
 30
0.0
 40
2.0
100
AcDbArc
 50
236.854175
 51
313.291051
  0
ARC
  5
156
100
AcDbEntity
  8
2
370
    50
100
AcDbCircle
 10
-248.810328
 20
-36.152488
 30
0.0
 40
1.0
100
AcDbArc
 50
255.0
 51
300.0
  0
ARC
  5
157
100
AcDbEntity
  8
2
370
    50
100
AcDbCircle
 10
-248.669047
 20
-37.22562
 30
0.0
 40
1.0
100
AcDbArc
 50
255.0
 51
300.0
  0
ARC
  5
158
100
AcDbEntity
  8
2
370
    50
100
AcDbCircle
 10
-246.781104
 20
-38.445017
 30
0.0
 40
1.0
100
AcDbArc
 50
75.0
 51
120.0
  0
ARC
  5
159
100
AcDbEntity
  8
2
370
    50
100
AcDbCircle
 10
-246.922384
 20
-37.371885
 30
0.0
 40
1.0
100
AcDbArc
 50
75.0
 51
120.0
  0
ARC
  5
15A
100
AcDbEntity
  8
2
370
    50
100
AcDbCircle
 10
-243.745828
 20
-36.152488
 30
0.0
 40
1.0
100
AcDbArc
 50
255.0
 51
291.57155
  0
ARC
  5
15B
100
AcDbEntity
  8
2
370
    50
100
AcDbCircle
 10
-251.928165
 20
-36.559398
 30
0.0
 40
0.2
100
AcDbArc
 50
75.0
 51
180.0
  0
ARC
  5
15C
100
AcDbEntity
  8
2
370
    50
100
AcDbCircle
 10
-251.928165
 20
-37.180563
 30
0.0
 40
0.2
100
AcDbArc
 50
180.0
 51
255.0
  0
LINE
  5
15D
100
AcDbEntity
  8
2
370
    50
100
AcDbLine
 10
-202.379929
 20
-38.231293
 30
0.0
 11
-205.187183
 21
-37.479091
 31
0.0
  0
LINE
  5
15E
100
AcDbEntity
  8
2
370
    50
100
AcDbLine
 10
-202.276401
 20
-37.223757
 30
0.0
 11
-205.328464
 21
-36.405959
 31
0.0
  0
LINE
  5
15F
100
AcDbEntity
  8
2
370
    50
100
AcDbLine
 10
-206.975226
 20
-37.018514
 30
0.0
 11
-206.087283
 21
-36.505859
 31
0.0
  0
LINE
  5
160
100
AcDbEntity
  8
2
370
    50
100
AcDbLine
 10
-205.946002
 20
-37.578991
 30
0.0
 11
-206.833945
 21
-38.091646
 31
0.0
  0
LINE
  5
161
100
AcDbEntity
  8
2
370
    50
100
AcDbLine
 10
-207.592764
 20
-38.191546
 30
0.0
 11
-210.534244
 21
-37.403379
 31
0.0
  0
LINE
  5
162
100
AcDbEntity
  8
2
370
    50
100
AcDbLine
 10
-207.734045
 20
-37.118414
 30
0.0
 11
-210.534244
 21
-36.368103
 31
0.0
  0
ARC
  5
163
100
AcDbEntity
  8
2
370
    50
100
AcDbCircle
 10
-205.587283
 20
-36.297885
 30
0.0
 40
2.0
100
AcDbArc
 50
237.713823
 51
313.754764
  0
ARC
  5
164
100
AcDbEntity
  8
2
370
    50
100
AcDbCircle
 10
-210.651283
 20
-36.297885
 30
0.0
 40
2.0
100
AcDbArc
 50
223.820775
 51
313.754764
  0
ARC
  5
165
100
AcDbEntity
  8
2
370
    50
100
AcDbCircle
 10
-207.387283
 20
-38.29962
 30
0.0
 40
2.0
100
AcDbArc
 50
56.854175
 51
133.291051
  0
ARC
  5
166
100
AcDbEntity
  8
2
370
    50
100
AcDbCircle
 10
-205.446002
 20
-38.445017
 30
0.0
 40
1.0
100
AcDbArc
 50
75.0
 51
120.0
  0
ARC
  5
167
100
AcDbEntity
  8
2
370
    50
100
AcDbCircle
 10
-205.587283
 20
-37.371885
 30
0.0
 40
1.0
100
AcDbArc
 50
75.0
 51
120.0
  0
ARC
  5
168
100
AcDbEntity
  8
2
370
    50
100
AcDbCircle
 10
-207.475226
 20
-36.152488
 30
0.0
 40
1.0
100
AcDbArc
 50
255.0
 51
300.0
  0
ARC
  5
169
100
AcDbEntity
  8
2
370
    50
100
AcDbCircle
 10
-207.333945
 20
-37.22562
 30
0.0
 40
1.0
100
AcDbArc
 50
255.0
 51
300.0
  0
ARC
  5
16A
100
AcDbEntity
  8
2
370
    50
100
AcDbCircle
 10
-202.328165
 20
-38.038107
 30
0.0
 40
0.2
100
AcDbArc
 50
255.0
 51
360.0
  0
LINE
  5
16B
100
AcDbEntity
  8
2
370
    50
100
AcDbLine
 10
-211.051882
 20
-36.368103
 30
0.0
 11
-213.848843
 21
-37.117546
 31
0.0
  0
LINE
  5
16C
100
AcDbEntity
  8
2
370
    50
100
AcDbLine
 10
-211.051882
 20
-37.403379
 30
0.0
 11
-213.990123
 21
-38.190678
 31
0.0
  0
LINE
  5
16D
100
AcDbEntity
  8
2
370
    50
100
AcDbLine
 10
-214.748942
 20
-38.090778
 30
0.0
 11
-215.635382
 21
-37.578991
 31
0.0
  0
LINE
  5
16E
100
AcDbEntity
  8
2
370
    50
100
AcDbLine
 10
-214.607662
 20
-37.017646
 30
0.0
 11
-215.494102
 21
-36.505859
 31
0.0
  0
LINE
  5
16F
100
AcDbEntity
  8
2
370
    50
100
AcDbLine
 10
-216.252921
 20
-36.405959
 30
0.0
 11
-218.908601
 21
-37.117546
 31
0.0
  0
LINE
  5
170
100
AcDbEntity
  8
2
370
    50
100
AcDbLine
 10
-216.394201
 20
-37.479091
 30
0.0
 11
-219.049881
 21
-38.190678
 31
0.0
  0
LINE
  5
171
100
AcDbEntity
  8
2
370
    50
100
AcDbLine
 10
-219.8087
 20
-38.090778
 30
0.0
 11
-220.69514
 21
-37.578991
 31
0.0
  0
LINE
  5
172
100
AcDbEntity
  8
2
370
    50
100
AcDbLine
 10
-219.66742
 20
-37.017646
 30
0.0
 11
-220.55386
 21
-36.505859
 31
0.0
  0
LINE
  5
173
100
AcDbEntity
  8
2
370
    50
100
AcDbLine
 10
-221.312679
 20
-36.405959
 30
0.0
 11
-223.968359
 21
-37.117546
 31
0.0
  0
LINE
  5
174
100
AcDbEntity
  8
2
370
    50
100
AcDbLine
 10
-221.453959
 20
-37.479091
 30
0.0
 11
-224.109639
 21
-38.190678
 31
0.0
  0
LINE
  5
175
100
AcDbEntity
  8
2
370
    50
100
AcDbLine
 10
-224.868458
 20
-38.090778
 30
0.0
 11
-225.754898
 21
-37.578991
 31
0.0
  0
LINE
  5
176
100
AcDbEntity
  8
2
370
    50
100
AcDbLine
 10
-224.727178
 20
-37.017646
 30
0.0
 11
-225.613618
 21
-36.505859
 31
0.0
  0
LINE
  5
177
100
AcDbEntity
  8
2
370
    50
100
AcDbLine
 10
-226.372437
 20
-36.405959
 30
0.0
 11
-229.028117
 21
-37.117546
 31
0.0
  0
LINE
  5
178
100
AcDbEntity
  8
2
370
    50
100
AcDbLine
 10
-226.513717
 20
-37.479091
 30
0.0
 11
-229.169397
 21
-38.190678
 31
0.0
  0
LINE
  5
179
100
AcDbEntity
  8
2
370
    50
100
AcDbLine
 10
-229.928216
 20
-38.090778
 30
0.0
 11
-230.814657
 21
-37.578991
 31
0.0
  0
LINE
  5
17A
100
AcDbEntity
  8
2
370
    50
100
AcDbLine
 10
-229.786936
 20
-37.017646
 30
0.0
 11
-230.673376
 21
-36.505859
 31
0.0
  0
LINE
  5
17B
100
AcDbEntity
  8
2
370
    50
100
AcDbLine
 10
-231.432195
 20
-36.405959
 30
0.0
 11
-234.087875
 21
-37.117546
 31
0.0
  0
LINE
  5
17C
100
AcDbEntity
  8
2
370
    50
100
AcDbLine
 10
-231.573476
 20
-37.479091
 30
0.0
 11
-234.629255
 21
-38.297885
 31
0.0
  0
LINE
  5
17D
100
AcDbEntity
  8
2
370
    50
100
AcDbLine
 10
-234.861306
 20
-38.16391
 30
0.0
 11
-235.874415
 21
-37.578991
 31
0.0
  0
LINE
  5
17E
100
AcDbEntity
  8
2
370
    50
100
AcDbLine
 10
-234.846694
 20
-37.017646
 30
0.0
 11
-235.733134
 21
-36.505859
 31
0.0
  0
LINE
  5
17F
100
AcDbEntity
  8
2
370
    50
100
AcDbLine
 10
-236.491953
 20
-36.405959
 30
0.0
 11
-239.147633
 21
-37.117546
 31
0.0
  0
LINE
  5
180
100
AcDbEntity
  8
2
370
    50
100
AcDbLine
 10
-236.633234
 20
-37.479091
 30
0.0
 11
-239.288914
 21
-38.190678
 31
0.0
  0
LINE
  5
181
100
AcDbEntity
  8
2
370
    50
100
AcDbLine
 10
-240.047733
 20
-38.090778
 30
0.0
 11
-240.855124
 21
-37.62463
 31
0.0
  0
LINE
  5
182
100
AcDbEntity
  8
2
370
    50
100
AcDbLine
 10
-239.906452
 20
-37.017646
 30
0.0
 11
-240.753368
 21
-36.528679
 31
0.0
  0
LINE
  5
183
100
AcDbEntity
  8
2
370
    50
100
AcDbLine
 10
-241.585379
 20
-36.451429
 30
0.0
 11
-243.378165
 21
-37.082447
 31
0.0
  0
LINE
  5
184
100
AcDbEntity
  8
2
370
    50
100
AcDbLine
 10
-241.687135
 20
-37.54738
 30
0.0
 11
-243.374954
 21
-38.141453
 31
0.0
  0
ARC
  5
185
100
AcDbEntity
  8
2
370
    50
100
AcDbCircle
 10
-214.301283
 20
-38.29962
 30
0.0
 40
2.0
100
AcDbArc
 50
45.820351
 51
121.41144
  0
ARC
  5
186
100
AcDbEntity
  8
2
370
    50
100
AcDbCircle
 10
-219.361283
 20
-38.29962
 30
0.0
 40
2.0
100
AcDbArc
 50
45.820351
 51
121.41144
  0
ARC
  5
187
100
AcDbEntity
  8
2
370
    50
100
AcDbCircle
 10
-224.421283
 20
-38.29962
 30
0.0
 40
2.0
100
AcDbArc
 50
45.820351
 51
121.41144
  0
ARC
  5
188
100
AcDbEntity
  8
2
370
    50
100
AcDbCircle
 10
-229.481283
 20
-38.29962
 30
0.0
 40
2.0
100
AcDbArc
 50
45.820351
 51
121.41144
  0
ARC
  5
189
100
AcDbEntity
  8
2
370
    50
100
AcDbCircle
 10
-234.541283
 20
-38.29962
 30
0.0
 40
2.0
100
AcDbArc
 50
45.820351
 51
121.41144
  0
ARC
  5
18A
100
AcDbEntity
  8
2
370
    50
100
AcDbCircle
 10
-239.601283
 20
-38.29962
 30
0.0
 40
2.0
100
AcDbArc
 50
45.820351
 51
121.41144
  0
ARC
  5
18B
100
AcDbEntity
  8
2
370
    50
100
AcDbCircle
 10
-215.853283
 20
-36.297885
 30
0.0
 40
2.0
100
AcDbArc
 50
225.031685
 51
299.98277
  0
ARC
  5
18C
100
AcDbEntity
  8
2
370
    50
100
AcDbCircle
 10
-221.055283
 20
-36.297885
 30
0.0
 40
2.0
100
AcDbArc
 50
226.257576
 51
302.309196
  0
ARC
  5
18D
100
AcDbEntity
  8
2
370
    50
100
AcDbCircle
 10
-226.257283
 20
-36.297885
 30
0.0
 40
2.0
100
AcDbArc
 50
227.499602
 51
304.587039
  0
ARC
  5
18E
100
AcDbEntity
  8
2
370
    50
100
AcDbCircle
 10
-231.459283
 20
-36.297885
 30
0.0
 40
2.0
100
AcDbArc
 50
228.759026
 51
306.822622
  0
ARC
  5
18F
100
AcDbEntity
  8
2
370
    50
100
AcDbCircle
 10
-236.661283
 20
-36.297885
 30
0.0
 40
2.0
100
AcDbArc
 50
230.037235
 51
309.021444
  0
ARC
  5
190
100
AcDbEntity
  8
2
370
    50
100
AcDbCircle
 10
-241.863283
 20
-36.297885
 30
0.0
 40
2.0
100
AcDbArc
 50
237.601247
 51
311.188358
  0
ARC
  5
191
100
AcDbEntity
  8
2
370
    50
100
AcDbCircle
 10
-210.793063
 20
-37.334029
 30
0.0
 40
1.0
100
AcDbArc
 50
75.0
 51
105.0
  0
ARC
  5
192
100
AcDbEntity
  8
2
370
    50
100
AcDbCircle
 10
-210.793063
 20
-38.369305
 30
0.0
 40
1.0
100
AcDbArc
 50
75.0
 51
105.0
  0
ARC
  5
193
100
AcDbEntity
  8
2
370
    50
100
AcDbCircle
 10
-214.107662
 20
-36.15162
 30
0.0
 40
1.0
100
AcDbArc
 50
240.0
 51
285.0
  0
ARC
  5
194
100
AcDbEntity
  8
2
370
    50
100
AcDbCircle
 10
-214.248942
 20
-37.224753
 30
0.0
 40
1.0
100
AcDbArc
 50
240.0
 51
285.0
  0
ARC
  5
195
100
AcDbEntity
  8
2
370
    50
100
AcDbCircle
 10
-215.994102
 20
-37.371885
 30
0.0
 40
1.0
100
AcDbArc
 50
60.0
 51
105.0
  0
ARC
  5
196
100
AcDbEntity
  8
2
370
    50
100
AcDbCircle
 10
-216.135382
 20
-38.445017
 30
0.0
 40
1.0
100
AcDbArc
 50
60.0
 51
105.0
  0
ARC
  5
197
100
AcDbEntity
  8
2
370
    50
100
AcDbCircle
 10
-219.16742
 20
-36.15162
 30
0.0
 40
1.0
100
AcDbArc
 50
240.0
 51
285.0
  0
ARC
  5
198
100
AcDbEntity
  8
2
370
    50
100
AcDbCircle
 10
-219.3087
 20
-37.224753
 30
0.0
 40
1.0
100
AcDbArc
 50
240.0
 51
285.0
  0
ARC
  5
199
100
AcDbEntity
  8
2
370
    50
100
AcDbCircle
 10
-221.05386
 20
-37.371885
 30
0.0
 40
1.0
100
AcDbArc
 50
60.0
 51
105.0
  0
ARC
  5
19A
100
AcDbEntity
  8
2
370
    50
100
AcDbCircle
 10
-221.19514
 20
-38.445017
 30
0.0
 40
1.0
100
AcDbArc
 50
60.0
 51
105.0
  0
ARC
  5
19B
100
AcDbEntity
  8
2
370
    50
100
AcDbCircle
 10
-224.227178
 20
-36.15162
 30
0.0
 40
1.0
100
AcDbArc
 50
240.0
 51
285.0
  0
ARC
  5
19C
100
AcDbEntity
  8
2
370
    50
100
AcDbCircle
 10
-224.368458
 20
-37.224753
 30
0.0
 40
1.0
100
AcDbArc
 50
240.0
 51
285.0
  0
ARC
  5
19D
100
AcDbEntity
  8
2
370
    50
100
AcDbCircle
 10
-226.113618
 20
-37.371885
 30
0.0
 40
1.0
100
AcDbArc
 50
60.0
 51
105.0
  0
ARC
  5
19E
100
AcDbEntity
  8
2
370
    50
100
AcDbCircle
 10
-226.254898
 20
-38.445017
 30
0.0
 40
1.0
100
AcDbArc
 50
60.0
 51
105.0
  0
ARC
  5
19F
100
AcDbEntity
  8
2
370
    50
100
AcDbCircle
 10
-229.286936
 20
-36.15162
 30
0.0
 40
1.0
100
AcDbArc
 50
240.0
 51
285.0
  0
ARC
  5
1A0
100
AcDbEntity
  8
2
370
    50
100
AcDbCircle
 10
-229.428216
 20
-37.224753
 30
0.0
 40
1.0
100
AcDbArc
 50
240.0
 51
285.0
  0
ARC
  5
1A1
100
AcDbEntity
  8
2
370
    50
100
AcDbCircle
 10
-231.173376
 20
-37.371885
 30
0.0
 40
1.0
100
AcDbArc
 50
60.0
 51
105.0
  0
ARC
  5
1A2
100
AcDbEntity
  8
2
370
    50
100
AcDbCircle
 10
-231.314657
 20
-38.445017
 30
0.0
 40
1.0
100
AcDbArc
 50
60.0
 51
105.0
  0
ARC
  5
1A3
100
AcDbEntity
  8
2
370
    50
100
AcDbCircle
 10
-234.361306
 20
-37.297885
 30
0.0
 40
1.0
100
AcDbArc
 50
240.0
 51
270.0
  0
ARC
  5
1A4
100
AcDbEntity
  8
2
370
    50
100
AcDbCircle
 10
-234.346694
 20
-36.15162
 30
0.0
 40
1.0
100
AcDbArc
 50
240.0
 51
285.0
  0
ARC
  5
1A5
100
AcDbEntity
  8
2
370
    50
100
AcDbCircle
 10
-236.374415
 20
-38.445017
 30
0.0
 40
1.0
100
AcDbArc
 50
60.0
 51
105.0
  0
ARC
  5
1A6
100
AcDbEntity
  8
2
370
    50
100
AcDbCircle
 10
-236.233134
 20
-37.371885
 30
0.0
 40
1.0
100
AcDbArc
 50
60.0
 51
105.0
  0
ARC
  5
1A7
100
AcDbEntity
  8
2
370
    50
100
AcDbCircle
 10
-239.547733
 20
-37.224753
 30
0.0
 40
1.0
100
AcDbArc
 50
240.0
 51
285.0
  0
ARC
  5
1A8
100
AcDbEntity
  8
2
370
    50
100
AcDbCircle
 10
-239.406452
 20
-36.15162
 30
0.0
 40
1.0
100
AcDbArc
 50
240.0
 51
285.0
  0
ARC
  5
1A9
100
AcDbEntity
  8
2
370
    50
100
AcDbCircle
 10
-241.253368
 20
-37.394704
 30
0.0
 40
1.0
100
AcDbArc
 50
60.0
 51
109.390879
  0
ARC
  5
1AA
100
AcDbEntity
  8
2
370
    50
100
AcDbCircle
 10
-241.355124
 20
-38.490656
 30
0.0
 40
1.0
100
AcDbArc
 50
60.0
 51
109.390879
  0
ARC
  5
1AB
100
AcDbEntity
  8
2
370
    50
100
AcDbCircle
 10
-243.706965
 20
-37.198177
 30
0.0
 40
1.0
100
AcDbArc
 50
255.0
 51
289.390879
  0
LINE
  5
1AC
100
AcDbEntity
  8
2
370
    50
100
AcDbLine
 10
-251.979929
 20
-37.373748
 30
0.0
 11
-248.927866
 21
-38.191546
 31
0.0
  0
LINE
  5
1AD
100
AcDbEntity
  8
2
370
    50
100
AcDbLine
 10
-247.281104
 20
-37.578991
 30
0.0
 11
-248.169047
 21
-38.091646
 31
0.0
  0
LINE
  5
1AE
100
AcDbEntity
  8
2
370
    50
100
AcDbLine
 10
-246.522285
 20
-37.479091
 30
0.0
 11
-243.965784
 21
-38.164103
 31
0.0
  0
ARC
  5
1AF
100
AcDbEntity
  8
2
370
    50
100
AcDbCircle
 10
-248.669047
 20
-37.22562
 30
0.0
 40
1.0
100
AcDbArc
 50
255.0
 51
300.0
  0
LINE
  5
1B0
100
AcDbEntity
  8
2
370
    50
100
AcDbLine
 10
-205.946002
 20
-37.578991
 30
0.0
 11
-206.833945
 21
-38.091646
 31
0.0
  0
LINE
  5
1B1
100
AcDbEntity
  8
2
370
    50
100
AcDbLine
 10
-207.592764
 20
-38.191546
 30
0.0
 11
-210.534244
 21
-37.403379
 31
0.0
  0
ARC
  5
1B2
100
AcDbEntity
  8
2
370
    50
100
AcDbCircle
 10
-207.333945
 20
-37.22562
 30
0.0
 40
1.0
100
AcDbArc
 50
255.0
 51
300.0
  0
LINE
  5
1B3
100
AcDbEntity
  8
2
370
    50
100
AcDbLine
 10
-211.051882
 20
-37.403379
 30
0.0
 11
-213.990123
 21
-38.190678
 31
0.0
  0
LINE
  5
1B4
100
AcDbEntity
  8
2
370
    50
100
AcDbLine
 10
-214.748942
 20
-38.090778
 30
0.0
 11
-215.635382
 21
-37.578991
 31
0.0
  0
LINE
  5
1B5
100
AcDbEntity
  8
2
370
    50
100
AcDbLine
 10
-216.394201
 20
-37.479091
 30
0.0
 11
-219.049881
 21
-38.190678
 31
0.0
  0
LINE
  5
1B6
100
AcDbEntity
  8
2
370
    50
100
AcDbLine
 10
-219.8087
 20
-38.090778
 30
0.0
 11
-220.69514
 21
-37.578991
 31
0.0
  0
LINE
  5
1B7
100
AcDbEntity
  8
2
370
    50
100
AcDbLine
 10
-221.453959
 20
-37.479091
 30
0.0
 11
-224.109639
 21
-38.190678
 31
0.0
  0
LINE
  5
1B8
100
AcDbEntity
  8
2
370
    50
100
AcDbLine
 10
-224.868458
 20
-38.090778
 30
0.0
 11
-225.754898
 21
-37.578991
 31
0.0
  0
LINE
  5
1B9
100
AcDbEntity
  8
2
370
    50
100
AcDbLine
 10
-226.513717
 20
-37.479091
 30
0.0
 11
-229.169397
 21
-38.190678
 31
0.0
  0
LINE
  5
1BA
100
AcDbEntity
  8
2
370
    50
100
AcDbLine
 10
-229.928216
 20
-38.090778
 30
0.0
 11
-230.814657
 21
-37.578991
 31
0.0
  0
LINE
  5
1BB
100
AcDbEntity
  8
2
370
    50
100
AcDbLine
 10
-231.573476
 20
-37.479091
 30
0.0
 11
-234.629255
 21
-38.297885
 31
0.0
  0
LINE
  5
1BC
100
AcDbEntity
  8
2
370
    50
100
AcDbLine
 10
-234.861306
 20
-38.16391
 30
0.0
 11
-235.874415
 21
-37.578991
 31
0.0
  0
LINE
  5
1BD
100
AcDbEntity
  8
2
370
    50
100
AcDbLine
 10
-236.633234
 20
-37.479091
 30
0.0
 11
-239.288914
 21
-38.190678
 31
0.0
  0
LINE
  5
1BE
100
AcDbEntity
  8
2
370
    50
100
AcDbLine
 10
-240.047733
 20
-38.090778
 30
0.0
 11
-240.855124
 21
-37.62463
 31
0.0
  0
LINE
  5
1BF
100
AcDbEntity
  8
2
370
    50
100
AcDbLine
 10
-241.687135
 20
-37.54738
 30
0.0
 11
-243.374954
 21
-38.141453
 31
0.0
  0
ARC
  5
1C0
100
AcDbEntity
  8
2
370
    50
100
AcDbCircle
 10
-215.853283
 20
-36.297885
 30
0.0
 40
2.0
100
AcDbArc
 50
225.031685
 51
299.98277
  0
ARC
  5
1C1
100
AcDbEntity
  8
2
370
    50
100
AcDbCircle
 10
-214.248942
 20
-37.224753
 30
0.0
 40
1.0
100
AcDbArc
 50
240.0
 51
285.0
  0
ARC
  5
1C2
100
AcDbEntity
  8
2
370
    50
100
AcDbCircle
 10
-219.3087
 20
-37.224753
 30
0.0
 40
1.0
100
AcDbArc
 50
240.0
 51
285.0
  0
ARC
  5
1C3
100
AcDbEntity
  8
2
370
    50
100
AcDbCircle
 10
-224.368458
 20
-37.224753
 30
0.0
 40
1.0
100
AcDbArc
 50
240.0
 51
285.0
  0
ARC
  5
1C4
100
AcDbEntity
  8
2
370
    50
100
AcDbCircle
 10
-229.428216
 20
-37.224753
 30
0.0
 40
1.0
100
AcDbArc
 50
240.0
 51
285.0
  0
ARC
  5
1C5
100
AcDbEntity
  8
2
370
    50
100
AcDbCircle
 10
-234.361306
 20
-37.297885
 30
0.0
 40
1.0
100
AcDbArc
 50
240.0
 51
270.0
  0
ARC
  5
1C6
100
AcDbEntity
  8
2
370
    50
100
AcDbCircle
 10
-239.547733
 20
-37.224753
 30
0.0
 40
1.0
100
AcDbArc
 50
240.0
 51
285.0
  0
ARC
  5
1C7
100
AcDbEntity
  8
2
370
    50
100
AcDbCircle
 10
-243.706965
 20
-37.198177
 30
0.0
 40
1.0
100
AcDbArc
 50
255.0
 51
289.390879
  0
LINE
  5
1C8
100
AcDbEntity
  8
2
370
    50
100
AcDbLine
 10
-202.128165
 20
-34.798753
 30
0.0
 11
-202.128165
 21
-36.298753
 31
0.0
  0
LINE
  5
1C9
100
AcDbEntity
  8
2
370
    50
100
AcDbLine
 10
-202.276401
 20
-37.223757
 30
0.0
 11
-202.276401
 21
-38.231293
 31
0.0
  0
LINE
  5
1CA
100
AcDbEntity
  8
2
370
    50
100
AcDbLine
 10
-238.139742
 20
-38.967758
 30
0.0
 11
-238.139742
 21
-72.628012
 31
0.0
  0
TEXT
  5
1CB
100
AcDbEntity
  8
2
370
    50
100
AcDbText
 10
-232.140858
 20
-47.840644
 30
0.0
 40
3.5
  1
厚天板
 72
     5
 11
-222.340858
 21
-47.840644
 31
0.0
100
AcDbText
  0
TEXT
  5
1CC
100
AcDbEntity
  8
2
370
    50
100
AcDbText
 10
-222.098606
 20
-63.846652
 30
0.0
 40
3.5
  1
薄天板
 50
180.0
 72
     5
 11
-231.898606
 21
-63.846652
 31
0.0
100
AcDbText
  0
TEXT
  5
1CD
100
AcDbEntity
  8
2
370
    50
100
AcDbText
 10
-235.45237
 20
-50.620501
 30
0.0
 40
2.5
  1
１５～２７ｍｍ
 72
     5
 11
-218.45237
 21
-50.620501
 31
0.0
100
AcDbText
  0
TEXT
  5
1CE
100
AcDbEntity
  8
2
370
    50
100
AcDbText
 10
-219.854183
 20
-60.928286
 30
0.0
 40
2.5
  1
１～１４ｍｍ
 50
180.0
 72
     5
 11
-234.354183
 21
-60.928286
 31
0.0
100
AcDbText
  0
LINE
  5
1CF
100
AcDbEntity
  8
2
370
    50
100
AcDbLine
 10
-227.628242
 20
-43.797885
 30
0.0
 11
-226.628242
 21
-43.797885
 31
0.0
  0
LINE
  5
1D0
100
AcDbEntity
  8
2
370
    50
100
AcDbLine
 10
-226.628242
 20
-43.797885
 30
0.0
 11
-226.628242
 21
-40.797885
 31
0.0
  0
LINE
  5
1D1
100
AcDbEntity
  8
2
370
    50
100
AcDbLine
 10
-227.628242
 20
-43.797885
 30
0.0
 11
-227.628242
 21
-40.797885
 31
0.0
  0
LINE
  5
1D2
100
AcDbEntity
  8
2
370
    50
100
AcDbLine
 10
-227.128242
 20
-38.797885
 30
0.0
 11
-229.128242
 21
-40.797885
 31
0.0
  0
LINE
  5
1D3
100
AcDbEntity
  8
2
370
    50
100
AcDbLine
 10
-227.128242
 20
-38.797885
 30
0.0
 11
-225.128242
 21
-40.797885
 31
0.0
  0
LINE
  5
1D4
100
AcDbEntity
  8
2
370
    50
100
AcDbLine
 10
-229.128242
 20
-40.797885
 30
0.0
 11
-227.628242
 21
-40.797885
 31
0.0
  0
LINE
  5
1D5
100
AcDbEntity
  8
2
370
    50
100
AcDbLine
 10
-226.628242
 20
-40.797885
 30
0.0
 11
-225.128242
 21
-40.797885
 31
0.0
  0
LINE
  5
1D6
100
AcDbEntity
  8
2
370
    50
100
AcDbLine
 10
-226.628242
 20
-67.797885
 30
0.0
 11
-226.628242
 21
-70.797885
 31
0.0
  0
LINE
  5
1D7
100
AcDbEntity
  8
2
370
    50
100
AcDbLine
 10
-227.628242
 20
-67.797885
 30
0.0
 11
-227.628242
 21
-70.797885
 31
0.0
  0
LINE
  5
1D8
100
AcDbEntity
  8
2
370
    50
100
AcDbLine
 10
-227.628242
 20
-67.797885
 30
0.0
 11
-226.628242
 21
-67.797885
 31
0.0
  0
HATCH
  5
1D9
100
AcDbEntity
  8
2
370
    25
100
AcDbHatch
 10
0.0
 20
0.0
 30
0.0
210
0.0
220
0.0
230
1.0
  2
_U
 70
     0
 71
     1
 91
        1
 92
        1
 93
        7
 72
     1
 10
-229.128242
 20
-40.797885000000001
 11
-227.128242
 21
-38.797885000000001
 72
     1
 10
-227.128242
 20
-38.797885000000001
 11
-225.128242
 21
-40.797885000000001
 72
     1
 10
-225.128242
 20
-40.797885000000001
 11
-226.628242
 21
-40.797885000000001
 72
     1
 10
-226.628242
 20
-40.797885000000001
 11
-226.628242
 21
-43.797885000000001
 72
     1
 10
-226.628242
 20
-43.797885000000001
 11
-227.628242
 21
-43.797885000000001
 72
     1
 10
-227.628242
 20
-43.797885000000001
 11
-227.628242
 21
-40.797885000000001
 72
     1
 10
-227.628242
 20
-40.797885000000001
 11
-229.128242
 21
-40.797885000000001
 97
        7
330
0
330
0
330
0
330
0
330
0
330
0
330
0
 75
     0
 76
     0
 52
45.0
 41
1.0
 77
     0
 78
     1
 53
45.0
 43
0.0
 44
0.0
 45
-0.424264
 46
0.424264
 79
     0
 98
        1
 10
0.0
 20
0.0
  0
HATCH
  5
1DA
100
AcDbEntity
  8
2
370
    25
100
AcDbHatch
 10
0.0
 20
0.0
 30
0.0
210
0.0
220
0.0
230
1.0
  2
_U
 70
     0
 71
     1
 91
        1
 92
        1
 93
        7
 72
     1
 10
-226.628242
 20
-67.797884999999994
 11
-226.628242
 21
-70.797884999999994
 72
     1
 10
-226.628242
 20
-70.797884999999994
 11
-225.128242
 21
-70.797884999999994
 72
     1
 10
-225.128242
 20
-70.797884999999994
 11
-227.128242
 21
-72.797884999999994
 72
     1
 10
-227.128242
 20
-72.797884999999994
 11
-229.128242
 21
-70.797884999999994
 72
     1
 10
-229.128242
 20
-70.797884999999994
 11
-227.628242
 21
-70.797884999999994
 72
     1
 10
-227.628242
 20
-70.797884999999994
 11
-227.628242
 21
-67.797884999999994
 72
     1
 10
-227.628242
 20
-67.797884999999994
 11
-226.628242
 21
-67.797884999999994
 97
        7
330
0
330
0
330
0
330
0
330
0
330
0
330
0
 75
     0
 76
     0
 52
45.0
 41
1.0
 77
     0
 78
     1
 53
45.0
 43
0.0
 44
0.0
 45
-0.424264
 46
0.424264
 79
     0
 98
        1
 10
0.0
 20
0.0
  0
LINE
  5
1DB
100
AcDbEntity
  8
2
370
    50
100
AcDbLine
 10
137.835355
 20
-38.297885
 30
0.0
 11
137.835355
 21
-73.297885
 31
0.0
  0
LINE
  5
1DC
100
AcDbEntity
  8
2
370
    50
100
AcDbLine
 10
91.835355
 20
-38.297885
 30
0.0
 11
91.835355
 21
-73.297885
 31
0.0
  0
LINE
  5
1DD
100
AcDbEntity
  8
2
370
    50
100
AcDbLine
 10
91.835355
 20
-73.297885
 30
0.0
 11
137.835355
 21
-73.297885
 31
0.0
  0
LINE
  5
1DE
100
AcDbEntity
  8
2
370
    50
100
AcDbLine
 10
91.835355
 20
-38.297885
 30
0.0
 11
137.835355
 21
-38.297885
 31
0.0
  0
LINE
  5
1DF
100
AcDbEntity
  8
2
370
    50
100
AcDbLine
 10
113.135355
 20
-38.967758
 30
0.0
 11
116.535355
 21
-38.967758
 31
0.0
  0
LINE
  5
1E0
100
AcDbEntity
  8
2
370
    50
100
AcDbLine
 10
116.535355
 20
-72.628012
 30
0.0
 11
113.135355
 21
-72.628012
 31
0.0
  0
LINE
  5
1E1
100
AcDbEntity
  8
2
370
    50
100
AcDbLine
 10
113.135355
 20
-38.967758
 30
0.0
 11
113.135355
 21
-72.628012
 31
0.0
  0
LINE
  5
1E2
100
AcDbEntity
  8
2
370
    50
100
AcDbLine
 10
116.535355
 20
-38.967758
 30
0.0
 11
116.535355
 21
-72.628012
 31
0.0
  0
ARC
  5
1E3
100
AcDbEntity
  8
2
370
    50
100
AcDbCircle
 10
127.185355
 20
-123.292528
 30
0.0
 40
84.994643
100
AcDbArc
 50
82.801803
 51
97.198197
  0
ARC
  5
1E4
100
AcDbEntity
  8
2
370
    50
100
AcDbCircle
 10
102.485355
 20
-123.292528
 30
0.0
 40
84.994643
100
AcDbArc
 50
82.801803
 51
97.198197
  0
ARC
  5
1E5
100
AcDbEntity
  8
2
370
    50
100
AcDbCircle
 10
102.485355
 20
11.696758
 30
0.0
 40
84.994643
100
AcDbArc
 50
262.801803
 51
277.198197
  0
ARC
  5
1E6
100
AcDbEntity
  8
2
370
    50
100
AcDbCircle
 10
127.185355
 20
11.696758
 30
0.0
 40
84.994643
100
AcDbArc
 50
262.801803
 51
277.198197
  0
LINE
  5
1E7
100
AcDbEntity
  8
2
370
    50
100
AcDbLine
 10
89.835433
 20
-36.298753
 30
0.0
 11
89.835433
 21
-34.798753
 31
0.0
  0
LINE
  5
1E8
100
AcDbEntity
  8
2
370
    50
100
AcDbLine
 10
139.835433
 20
-36.298753
 30
0.0
 11
89.835433
 21
-36.298753
 31
0.0
  0
LINE
  5
1E9
100
AcDbEntity
  8
2
370
    50
100
AcDbLine
 10
139.835433
 20
-36.298753
 30
0.0
 11
130.835433
 21
-36.298753
 31
0.0
  0
LINE
  5
1EA
100
AcDbEntity
  8
2
370
    50
100
AcDbLine
 10
89.835433
 20
-34.798753
 30
0.0
 11
139.835433
 21
-34.798753
 31
0.0
  0
LINE
  5
1EB
100
AcDbEntity
  8
2
370
    50
100
AcDbLine
 10
89.835433
 20
-37.180563
 30
0.0
 11
89.835433
 21
-36.559398
 31
0.0
  0
LINE
  5
1EC
100
AcDbEntity
  8
2
370
    50
100
AcDbLine
 10
90.087197
 20
-36.366212
 30
0.0
 11
92.894451
 21
-37.118414
 31
0.0
  0
LINE
  5
1ED
100
AcDbEntity
  8
2
370
    50
100
AcDbLine
 10
89.983669
 20
-37.373748
 30
0.0
 11
93.035732
 21
-38.191546
 31
0.0
  0
LINE
  5
1EE
100
AcDbEntity
  8
2
370
    50
100
AcDbLine
 10
94.682494
 20
-37.578991
 30
0.0
 11
93.794551
 21
-38.091646
 31
0.0
  0
LINE
  5
1EF
100
AcDbEntity
  8
2
370
    50
100
AcDbLine
 10
93.65327
 20
-37.018514
 30
0.0
 11
94.541213
 21
-36.505859
 31
0.0
  0
LINE
  5
1F0
100
AcDbEntity
  8
2
370
    50
100
AcDbLine
 10
95.300032
 20
-36.405959
 30
0.0
 11
97.958951
 21
-37.118414
 31
0.0
  0
LINE
  5
1F1
100
AcDbEntity
  8
2
370
    50
100
AcDbLine
 10
95.441313
 20
-37.479091
 30
0.0
 11
97.997813
 21
-38.164103
 31
0.0
  0
ARC
  5
1F2
100
AcDbEntity
  8
2
370
    50
100
AcDbCircle
 10
93.294551
 20
-38.29962
 30
0.0
 40
2.0
100
AcDbArc
 50
57.713823
 51
133.754764
  0
ARC
  5
1F3
100
AcDbEntity
  8
2
370
    50
100
AcDbCircle
 10
98.358551
 20
-38.29962
 30
0.0
 40
2.0
100
AcDbArc
 50
51.829858
 51
133.754764
  0
ARC
  5
1F4
100
AcDbEntity
  8
2
370
    50
100
AcDbCircle
 10
95.094551
 20
-36.297885
 30
0.0
 40
2.0
100
AcDbArc
 50
236.854175
 51
313.291051
  0
ARC
  5
1F5
100
AcDbEntity
  8
2
370
    50
100
AcDbCircle
 10
93.15327
 20
-36.152488
 30
0.0
 40
1.0
100
AcDbArc
 50
255.0
 51
300.0
  0
ARC
  5
1F6
100
AcDbEntity
  8
2
370
    50
100
AcDbCircle
 10
93.294551
 20
-37.22562
 30
0.0
 40
1.0
100
AcDbArc
 50
255.0
 51
300.0
  0
ARC
  5
1F7
100
AcDbEntity
  8
2
370
    50
100
AcDbCircle
 10
95.182494
 20
-38.445017
 30
0.0
 40
1.0
100
AcDbArc
 50
75.0
 51
120.0
  0
ARC
  5
1F8
100
AcDbEntity
  8
2
370
    50
100
AcDbCircle
 10
95.041213
 20
-37.371885
 30
0.0
 40
1.0
100
AcDbArc
 50
75.0
 51
120.0
  0
ARC
  5
1F9
100
AcDbEntity
  8
2
370
    50
100
AcDbCircle
 10
98.21777
 20
-36.152488
 30
0.0
 40
1.0
100
AcDbArc
 50
255.0
 51
291.57155
  0
ARC
  5
1FA
100
AcDbEntity
  8
2
370
    50
100
AcDbCircle
 10
90.035433
 20
-36.559398
 30
0.0
 40
0.2
100
AcDbArc
 50
75.0
 51
180.0
  0
ARC
  5
1FB
100
AcDbEntity
  8
2
370
    50
100
AcDbCircle
 10
90.035433
 20
-37.180563
 30
0.0
 40
0.2
100
AcDbArc
 50
180.0
 51
255.0
  0
LINE
  5
1FC
100
AcDbEntity
  8
2
370
    50
100
AcDbLine
 10
139.583669
 20
-38.231293
 30
0.0
 11
136.776415
 21
-37.479091
 31
0.0
  0
LINE
  5
1FD
100
AcDbEntity
  8
2
370
    50
100
AcDbLine
 10
139.687197
 20
-37.223757
 30
0.0
 11
136.635134
 21
-36.405959
 31
0.0
  0
LINE
  5
1FE
100
AcDbEntity
  8
2
370
    50
100
AcDbLine
 10
134.988372
 20
-37.018514
 30
0.0
 11
135.876315
 21
-36.505859
 31
0.0
  0
LINE
  5
1FF
100
AcDbEntity
  8
2
370
    50
100
AcDbLine
 10
136.017596
 20
-37.578991
 30
0.0
 11
135.129653
 21
-38.091646
 31
0.0
  0
LINE
  5
200
100
AcDbEntity
  8
2
370
    50
100
AcDbLine
 10
134.370833
 20
-38.191546
 30
0.0
 11
131.429354
 21
-37.403379
 31
0.0
  0
LINE
  5
201
100
AcDbEntity
  8
2
370
    50
100
AcDbLine
 10
134.229553
 20
-37.118414
 30
0.0
 11
131.429354
 21
-36.368103
 31
0.0
  0
ARC
  5
202
100
AcDbEntity
  8
2
370
    50
100
AcDbCircle
 10
136.376315
 20
-36.297885
 30
0.0
 40
2.0
100
AcDbArc
 50
237.713823
 51
313.754764
  0
ARC
  5
203
100
AcDbEntity
  8
2
370
    50
100
AcDbCircle
 10
131.312315
 20
-36.297885
 30
0.0
 40
2.0
100
AcDbArc
 50
223.820775
 51
313.754764
  0
ARC
  5
204
100
AcDbEntity
  8
2
370
    50
100
AcDbCircle
 10
134.576315
 20
-38.29962
 30
0.0
 40
2.0
100
AcDbArc
 50
56.854175
 51
133.291051
  0
ARC
  5
205
100
AcDbEntity
  8
2
370
    50
100
AcDbCircle
 10
136.517596
 20
-38.445017
 30
0.0
 40
1.0
100
AcDbArc
 50
75.0
 51
120.0
  0
ARC
  5
206
100
AcDbEntity
  8
2
370
    50
100
AcDbCircle
 10
136.376315
 20
-37.371885
 30
0.0
 40
1.0
100
AcDbArc
 50
75.0
 51
120.0
  0
ARC
  5
207
100
AcDbEntity
  8
2
370
    50
100
AcDbCircle
 10
134.488372
 20
-36.152488
 30
0.0
 40
1.0
100
AcDbArc
 50
255.0
 51
300.0
  0
ARC
  5
208
100
AcDbEntity
  8
2
370
    50
100
AcDbCircle
 10
134.629653
 20
-37.22562
 30
0.0
 40
1.0
100
AcDbArc
 50
255.0
 51
300.0
  0
ARC
  5
209
100
AcDbEntity
  8
2
370
    50
100
AcDbCircle
 10
139.635433
 20
-38.038107
 30
0.0
 40
0.2
100
AcDbArc
 50
255.0
 51
360.0
  0
LINE
  5
20A
100
AcDbEntity
  8
2
370
    50
100
AcDbLine
 10
130.911716
 20
-36.368103
 30
0.0
 11
128.114755
 21
-37.117546
 31
0.0
  0
LINE
  5
20B
100
AcDbEntity
  8
2
370
    50
100
AcDbLine
 10
130.911716
 20
-37.403379
 30
0.0
 11
127.973475
 21
-38.190678
 31
0.0
  0
LINE
  5
20C
100
AcDbEntity
  8
2
370
    50
100
AcDbLine
 10
127.214656
 20
-38.090778
 30
0.0
 11
126.328216
 21
-37.578991
 31
0.0
  0
LINE
  5
20D
100
AcDbEntity
  8
2
370
    50
100
AcDbLine
 10
127.355936
 20
-37.017646
 30
0.0
 11
126.469496
 21
-36.505859
 31
0.0
  0
LINE
  5
20E
100
AcDbEntity
  8
2
370
    50
100
AcDbLine
 10
125.710677
 20
-36.405959
 30
0.0
 11
123.054997
 21
-37.117546
 31
0.0
  0
LINE
  5
20F
100
AcDbEntity
  8
2
370
    50
100
AcDbLine
 10
125.569397
 20
-37.479091
 30
0.0
 11
122.913717
 21
-38.190678
 31
0.0
  0
LINE
  5
210
100
AcDbEntity
  8
2
370
    50
100
AcDbLine
 10
122.154898
 20
-38.090778
 30
0.0
 11
121.268457
 21
-37.578991
 31
0.0
  0
LINE
  5
211
100
AcDbEntity
  8
2
370
    50
100
AcDbLine
 10
122.296178
 20
-37.017646
 30
0.0
 11
121.409738
 21
-36.505859
 31
0.0
  0
LINE
  5
212
100
AcDbEntity
  8
2
370
    50
100
AcDbLine
 10
120.650919
 20
-36.405959
 30
0.0
 11
117.995239
 21
-37.117546
 31
0.0
  0
LINE
  5
213
100
AcDbEntity
  8
2
370
    50
100
AcDbLine
 10
120.509638
 20
-37.479091
 30
0.0
 11
117.853959
 21
-38.190678
 31
0.0
  0
LINE
  5
214
100
AcDbEntity
  8
2
370
    50
100
AcDbLine
 10
117.09514
 20
-38.090778
 30
0.0
 11
116.208699
 21
-37.578991
 31
0.0
  0
LINE
  5
215
100
AcDbEntity
  8
2
370
    50
100
AcDbLine
 10
117.23642
 20
-37.017646
 30
0.0
 11
116.34998
 21
-36.505859
 31
0.0
  0
LINE
  5
216
100
AcDbEntity
  8
2
370
    50
100
AcDbLine
 10
115.591161
 20
-36.405959
 30
0.0
 11
112.935481
 21
-37.117546
 31
0.0
  0
LINE
  5
217
100
AcDbEntity
  8
2
370
    50
100
AcDbLine
 10
115.44988
 20
-37.479091
 30
0.0
 11
112.7942
 21
-38.190678
 31
0.0
  0
LINE
  5
218
100
AcDbEntity
  8
2
370
    50
100
AcDbLine
 10
112.035381
 20
-38.090778
 30
0.0
 11
111.148941
 21
-37.578991
 31
0.0
  0
LINE
  5
219
100
AcDbEntity
  8
2
370
    50
100
AcDbLine
 10
112.176662
 20
-37.017646
 30
0.0
 11
111.290222
 21
-36.505859
 31
0.0
  0
LINE
  5
21A
100
AcDbEntity
  8
2
370
    50
100
AcDbLine
 10
110.531403
 20
-36.405959
 30
0.0
 11
107.875723
 21
-37.117546
 31
0.0
  0
LINE
  5
21B
100
AcDbEntity
  8
2
370
    50
100
AcDbLine
 10
110.390122
 20
-37.479091
 30
0.0
 11
107.334343
 21
-38.297885
 31
0.0
  0
LINE
  5
21C
100
AcDbEntity
  8
2
370
    50
100
AcDbLine
 10
107.102292
 20
-38.16391
 30
0.0
 11
106.089183
 21
-37.578991
 31
0.0
  0
LINE
  5
21D
100
AcDbEntity
  8
2
370
    50
100
AcDbLine
 10
107.116904
 20
-37.017646
 30
0.0
 11
106.230464
 21
-36.505859
 31
0.0
  0
LINE
  5
21E
100
AcDbEntity
  8
2
370
    50
100
AcDbLine
 10
105.471645
 20
-36.405959
 30
0.0
 11
102.815965
 21
-37.117546
 31
0.0
  0
LINE
  5
21F
100
AcDbEntity
  8
2
370
    50
100
AcDbLine
 10
105.330364
 20
-37.479091
 30
0.0
 11
102.674684
 21
-38.190678
 31
0.0
  0
LINE
  5
220
100
AcDbEntity
  8
2
370
    50
100
AcDbLine
 10
101.915865
 20
-38.090778
 30
0.0
 11
101.108474
 21
-37.62463
 31
0.0
  0
LINE
  5
221
100
AcDbEntity
  8
2
370
    50
100
AcDbLine
 10
102.057146
 20
-37.017646
 30
0.0
 11
101.21023
 21
-36.528679
 31
0.0
  0
LINE
  5
222
100
AcDbEntity
  8
2
370
    50
100
AcDbLine
 10
100.378219
 20
-36.451429
 30
0.0
 11
98.585433
 21
-37.082447
 31
0.0
  0
LINE
  5
223
100
AcDbEntity
  8
2
370
    50
100
AcDbLine
 10
100.276463
 20
-37.54738
 30
0.0
 11
98.588643
 21
-38.141453
 31
0.0
  0
ARC
  5
224
100
AcDbEntity
  8
2
370
    50
100
AcDbCircle
 10
127.662315
 20
-38.29962
 30
0.0
 40
2.0
100
AcDbArc
 50
45.820351
 51
121.41144
  0
ARC
  5
225
100
AcDbEntity
  8
2
370
    50
100
AcDbCircle
 10
122.602315
 20
-38.29962
 30
0.0
 40
2.0
100
AcDbArc
 50
45.820351
 51
121.41144
  0
ARC
  5
226
100
AcDbEntity
  8
2
370
    50
100
AcDbCircle
 10
117.542315
 20
-38.29962
 30
0.0
 40
2.0
100
AcDbArc
 50
45.820351
 51
121.41144
  0
ARC
  5
227
100
AcDbEntity
  8
2
370
    50
100
AcDbCircle
 10
112.482315
 20
-38.29962
 30
0.0
 40
2.0
100
AcDbArc
 50
45.820351
 51
121.41144
  0
ARC
  5
228
100
AcDbEntity
  8
2
370
    50
100
AcDbCircle
 10
107.422315
 20
-38.29962
 30
0.0
 40
2.0
100
AcDbArc
 50
45.820351
 51
121.41144
  0
ARC
  5
229
100
AcDbEntity
  8
2
370
    50
100
AcDbCircle
 10
102.362315
 20
-38.29962
 30
0.0
 40
2.0
100
AcDbArc
 50
45.820351
 51
121.41144
  0
ARC
  5
22A
100
AcDbEntity
  8
2
370
    50
100
AcDbCircle
 10
126.110315
 20
-36.297885
 30
0.0
 40
2.0
100
AcDbArc
 50
225.031685
 51
299.98277
  0
ARC
  5
22B
100
AcDbEntity
  8
2
370
    50
100
AcDbCircle
 10
120.908315
 20
-36.297885
 30
0.0
 40
2.0
100
AcDbArc
 50
226.257576
 51
302.309196
  0
ARC
  5
22C
100
AcDbEntity
  8
2
370
    50
100
AcDbCircle
 10
115.706315
 20
-36.297885
 30
0.0
 40
2.0
100
AcDbArc
 50
227.499602
 51
304.587039
  0
ARC
  5
22D
100
AcDbEntity
  8
2
370
    50
100
AcDbCircle
 10
110.504315
 20
-36.297885
 30
0.0
 40
2.0
100
AcDbArc
 50
228.759026
 51
306.822622
  0
ARC
  5
22E
100
AcDbEntity
  8
2
370
    50
100
AcDbCircle
 10
105.302315
 20
-36.297885
 30
0.0
 40
2.0
100
AcDbArc
 50
230.037235
 51
309.021444
  0
ARC
  5
22F
100
AcDbEntity
  8
2
370
    50
100
AcDbCircle
 10
100.100315
 20
-36.297885
 30
0.0
 40
2.0
100
AcDbArc
 50
237.601247
 51
311.188358
  0
ARC
  5
230
100
AcDbEntity
  8
2
370
    50
100
AcDbCircle
 10
131.170535
 20
-37.334029
 30
0.0
 40
1.0
100
AcDbArc
 50
75.0
 51
105.0
  0
ARC
  5
231
100
AcDbEntity
  8
2
370
    50
100
AcDbCircle
 10
131.170535
 20
-38.369305
 30
0.0
 40
1.0
100
AcDbArc
 50
75.0
 51
105.0
  0
ARC
  5
232
100
AcDbEntity
  8
2
370
    50
100
AcDbCircle
 10
127.855936
 20
-36.15162
 30
0.0
 40
1.0
100
AcDbArc
 50
240.0
 51
285.0
  0
ARC
  5
233
100
AcDbEntity
  8
2
370
    50
100
AcDbCircle
 10
127.714656
 20
-37.224753
 30
0.0
 40
1.0
100
AcDbArc
 50
240.0
 51
285.0
  0
ARC
  5
234
100
AcDbEntity
  8
2
370
    50
100
AcDbCircle
 10
125.969496
 20
-37.371885
 30
0.0
 40
1.0
100
AcDbArc
 50
60.0
 51
105.0
  0
ARC
  5
235
100
AcDbEntity
  8
2
370
    50
100
AcDbCircle
 10
125.828216
 20
-38.445017
 30
0.0
 40
1.0
100
AcDbArc
 50
60.0
 51
105.0
  0
ARC
  5
236
100
AcDbEntity
  8
2
370
    50
100
AcDbCircle
 10
122.796178
 20
-36.15162
 30
0.0
 40
1.0
100
AcDbArc
 50
240.0
 51
285.0
  0
ARC
  5
237
100
AcDbEntity
  8
2
370
    50
100
AcDbCircle
 10
122.654898
 20
-37.224753
 30
0.0
 40
1.0
100
AcDbArc
 50
240.0
 51
285.0
  0
ARC
  5
238
100
AcDbEntity
  8
2
370
    50
100
AcDbCircle
 10
120.909738
 20
-37.371885
 30
0.0
 40
1.0
100
AcDbArc
 50
60.0
 51
105.0
  0
ARC
  5
239
100
AcDbEntity
  8
2
370
    50
100
AcDbCircle
 10
120.768457
 20
-38.445017
 30
0.0
 40
1.0
100
AcDbArc
 50
60.0
 51
105.0
  0
ARC
  5
23A
100
AcDbEntity
  8
2
370
    50
100
AcDbCircle
 10
117.73642
 20
-36.15162
 30
0.0
 40
1.0
100
AcDbArc
 50
240.0
 51
285.0
  0
ARC
  5
23B
100
AcDbEntity
  8
2
370
    50
100
AcDbCircle
 10
117.59514
 20
-37.224753
 30
0.0
 40
1.0
100
AcDbArc
 50
240.0
 51
285.0
  0
ARC
  5
23C
100
AcDbEntity
  8
2
370
    50
100
AcDbCircle
 10
115.84998
 20
-37.371885
 30
0.0
 40
1.0
100
AcDbArc
 50
60.0
 51
105.0
  0
ARC
  5
23D
100
AcDbEntity
  8
2
370
    50
100
AcDbCircle
 10
115.708699
 20
-38.445017
 30
0.0
 40
1.0
100
AcDbArc
 50
60.0
 51
105.0
  0
ARC
  5
23E
100
AcDbEntity
  8
2
370
    50
100
AcDbCircle
 10
112.676662
 20
-36.15162
 30
0.0
 40
1.0
100
AcDbArc
 50
240.0
 51
285.0
  0
ARC
  5
23F
100
AcDbEntity
  8
2
370
    50
100
AcDbCircle
 10
112.535381
 20
-37.224753
 30
0.0
 40
1.0
100
AcDbArc
 50
240.0
 51
285.0
  0
ARC
  5
240
100
AcDbEntity
  8
2
370
    50
100
AcDbCircle
 10
110.790222
 20
-37.371885
 30
0.0
 40
1.0
100
AcDbArc
 50
60.0
 51
105.0
  0
ARC
  5
241
100
AcDbEntity
  8
2
370
    50
100
AcDbCircle
 10
110.648941
 20
-38.445017
 30
0.0
 40
1.0
100
AcDbArc
 50
60.0
 51
105.0
  0
ARC
  5
242
100
AcDbEntity
  8
2
370
    50
100
AcDbCircle
 10
107.602292
 20
-37.297885
 30
0.0
 40
1.0
100
AcDbArc
 50
240.0
 51
270.0
  0
ARC
  5
243
100
AcDbEntity
  8
2
370
    50
100
AcDbCircle
 10
107.616904
 20
-36.15162
 30
0.0
 40
1.0
100
AcDbArc
 50
240.0
 51
285.0
  0
ARC
  5
244
100
AcDbEntity
  8
2
370
    50
100
AcDbCircle
 10
105.589183
 20
-38.445017
 30
0.0
 40
1.0
100
AcDbArc
 50
60.0
 51
105.0
  0
ARC
  5
245
100
AcDbEntity
  8
2
370
    50
100
AcDbCircle
 10
105.730464
 20
-37.371885
 30
0.0
 40
1.0
100
AcDbArc
 50
60.0
 51
105.0
  0
ARC
  5
246
100
AcDbEntity
  8
2
370
    50
100
AcDbCircle
 10
102.415865
 20
-37.224753
 30
0.0
 40
1.0
100
AcDbArc
 50
240.0
 51
285.0
  0
ARC
  5
247
100
AcDbEntity
  8
2
370
    50
100
AcDbCircle
 10
102.557146
 20
-36.15162
 30
0.0
 40
1.0
100
AcDbArc
 50
240.0
 51
285.0
  0
ARC
  5
248
100
AcDbEntity
  8
2
370
    50
100
AcDbCircle
 10
100.71023
 20
-37.394704
 30
0.0
 40
1.0
100
AcDbArc
 50
60.0
 51
109.390879
  0
ARC
  5
249
100
AcDbEntity
  8
2
370
    50
100
AcDbCircle
 10
100.608474
 20
-38.490656
 30
0.0
 40
1.0
100
AcDbArc
 50
60.0
 51
109.390879
  0
ARC
  5
24A
100
AcDbEntity
  8
2
370
    50
100
AcDbCircle
 10
98.256632
 20
-37.198177
 30
0.0
 40
1.0
100
AcDbArc
 50
255.0
 51
289.390879
  0
LINE
  5
24B
100
AcDbEntity
  8
2
370
    50
100
AcDbLine
 10
89.983669
 20
-37.373748
 30
0.0
 11
93.035732
 21
-38.191546
 31
0.0
  0
LINE
  5
24C
100
AcDbEntity
  8
2
370
    50
100
AcDbLine
 10
94.682494
 20
-37.578991
 30
0.0
 11
93.794551
 21
-38.091646
 31
0.0
  0
LINE
  5
24D
100
AcDbEntity
  8
2
370
    50
100
AcDbLine
 10
95.441313
 20
-37.479091
 30
0.0
 11
97.997813
 21
-38.164103
 31
0.0
  0
ARC
  5
24E
100
AcDbEntity
  8
2
370
    50
100
AcDbCircle
 10
93.294551
 20
-37.22562
 30
0.0
 40
1.0
100
AcDbArc
 50
255.0
 51
300.0
  0
LINE
  5
24F
100
AcDbEntity
  8
2
370
    50
100
AcDbLine
 10
136.017596
 20
-37.578991
 30
0.0
 11
135.129653
 21
-38.091646
 31
0.0
  0
LINE
  5
250
100
AcDbEntity
  8
2
370
    50
100
AcDbLine
 10
134.370833
 20
-38.191546
 30
0.0
 11
131.429354
 21
-37.403379
 31
0.0
  0
ARC
  5
251
100
AcDbEntity
  8
2
370
    50
100
AcDbCircle
 10
134.629653
 20
-37.22562
 30
0.0
 40
1.0
100
AcDbArc
 50
255.0
 51
300.0
  0
LINE
  5
252
100
AcDbEntity
  8
2
370
    50
100
AcDbLine
 10
130.911716
 20
-37.403379
 30
0.0
 11
127.973475
 21
-38.190678
 31
0.0
  0
LINE
  5
253
100
AcDbEntity
  8
2
370
    50
100
AcDbLine
 10
127.214656
 20
-38.090778
 30
0.0
 11
126.328216
 21
-37.578991
 31
0.0
  0
LINE
  5
254
100
AcDbEntity
  8
2
370
    50
100
AcDbLine
 10
125.569397
 20
-37.479091
 30
0.0
 11
122.913717
 21
-38.190678
 31
0.0
  0
LINE
  5
255
100
AcDbEntity
  8
2
370
    50
100
AcDbLine
 10
122.154898
 20
-38.090778
 30
0.0
 11
121.268457
 21
-37.578991
 31
0.0
  0
LINE
  5
256
100
AcDbEntity
  8
2
370
    50
100
AcDbLine
 10
120.509638
 20
-37.479091
 30
0.0
 11
117.853959
 21
-38.190678
 31
0.0
  0
LINE
  5
257
100
AcDbEntity
  8
2
370
    50
100
AcDbLine
 10
117.09514
 20
-38.090778
 30
0.0
 11
116.208699
 21
-37.578991
 31
0.0
  0
LINE
  5
258
100
AcDbEntity
  8
2
370
    50
100
AcDbLine
 10
115.44988
 20
-37.479091
 30
0.0
 11
112.7942
 21
-38.190678
 31
0.0
  0
LINE
  5
259
100
AcDbEntity
  8
2
370
    50
100
AcDbLine
 10
112.035381
 20
-38.090778
 30
0.0
 11
111.148941
 21
-37.578991
 31
0.0
  0
LINE
  5
25A
100
AcDbEntity
  8
2
370
    50
100
AcDbLine
 10
110.390122
 20
-37.479091
 30
0.0
 11
107.334343
 21
-38.297885
 31
0.0
  0
LINE
  5
25B
100
AcDbEntity
  8
2
370
    50
100
AcDbLine
 10
107.102292
 20
-38.16391
 30
0.0
 11
106.089183
 21
-37.578991
 31
0.0
  0
LINE
  5
25C
100
AcDbEntity
  8
2
370
    50
100
AcDbLine
 10
105.330364
 20
-37.479091
 30
0.0
 11
102.674684
 21
-38.190678
 31
0.0
  0
LINE
  5
25D
100
AcDbEntity
  8
2
370
    50
100
AcDbLine
 10
101.915865
 20
-38.090778
 30
0.0
 11
101.108474
 21
-37.62463
 31
0.0
  0
LINE
  5
25E
100
AcDbEntity
  8
2
370
    50
100
AcDbLine
 10
100.276463
 20
-37.54738
 30
0.0
 11
98.588643
 21
-38.141453
 31
0.0
  0
ARC
  5
25F
100
AcDbEntity
  8
2
370
    50
100
AcDbCircle
 10
126.110315
 20
-36.297885
 30
0.0
 40
2.0
100
AcDbArc
 50
225.031685
 51
299.98277
  0
ARC
  5
260
100
AcDbEntity
  8
2
370
    50
100
AcDbCircle
 10
127.714656
 20
-37.224753
 30
0.0
 40
1.0
100
AcDbArc
 50
240.0
 51
285.0
  0
ARC
  5
261
100
AcDbEntity
  8
2
370
    50
100
AcDbCircle
 10
122.654898
 20
-37.224753
 30
0.0
 40
1.0
100
AcDbArc
 50
240.0
 51
285.0
  0
ARC
  5
262
100
AcDbEntity
  8
2
370
    50
100
AcDbCircle
 10
117.59514
 20
-37.224753
 30
0.0
 40
1.0
100
AcDbArc
 50
240.0
 51
285.0
  0
ARC
  5
263
100
AcDbEntity
  8
2
370
    50
100
AcDbCircle
 10
112.535381
 20
-37.224753
 30
0.0
 40
1.0
100
AcDbArc
 50
240.0
 51
285.0
  0
ARC
  5
264
100
AcDbEntity
  8
2
370
    50
100
AcDbCircle
 10
107.602292
 20
-37.297885
 30
0.0
 40
1.0
100
AcDbArc
 50
240.0
 51
270.0
  0
ARC
  5
265
100
AcDbEntity
  8
2
370
    50
100
AcDbCircle
 10
102.415865
 20
-37.224753
 30
0.0
 40
1.0
100
AcDbArc
 50
240.0
 51
285.0
  0
ARC
  5
266
100
AcDbEntity
  8
2
370
    50
100
AcDbCircle
 10
98.256632
 20
-37.198177
 30
0.0
 40
1.0
100
AcDbArc
 50
255.0
 51
289.390879
  0
LINE
  5
267
100
AcDbEntity
  8
2
370
    50
100
AcDbLine
 10
139.835433
 20
-34.798753
 30
0.0
 11
139.835433
 21
-36.298753
 31
0.0
  0
LINE
  5
268
100
AcDbEntity
  8
2
370
    50
100
AcDbLine
 10
139.687197
 20
-37.223757
 30
0.0
 11
139.687197
 21
-38.231293
 31
0.0
  0
LWPOLYLINE
  5
269
100
AcDbEntity
  8
2
370
    25
100
AcDbPolyline
 90
        3
 70
     0
 10
-252.628242
 20
-56.852144
 10
-272.300812
 20
-70.177073
 10
-351.076752
 20
-70.177073
  0
LINE
  5
26E
100
AcDbEntity
  8
2
370
    25
100
AcDbLine
 10
-255.827199
 20
-59.018911
 30
0.0
 11
-255.246616
 21
-59.876069
 31
0.0
  0
LINE
  5
26F
100
AcDbEntity
  8
2
370
    25
100
AcDbLine
 10
-255.246616
 20
-59.876069
 30
0.0
 11
-252.628242
 21
-56.852144
 31
0.0
  0
LINE
  5
270
100
AcDbEntity
  8
2
370
    25
100
AcDbLine
 10
-252.628242
 20
-56.852144
 30
0.0
 11
-256.407783
 21
-58.161753
 31
0.0
  0
LINE
  5
271
100
AcDbEntity
  8
2
370
    25
100
AcDbLine
 10
-256.407783
 20
-58.161753
 30
0.0
 11
-255.827199
 21
-59.018911
 31
0.0
  0
LINE
  5
272
100
AcDbEntity
  8
2
370
    50
100
AcDbLine
 10
-229.128242
 20
-70.797885
 30
0.0
 11
-227.628242
 21
-70.797885
 31
0.0
  0
LINE
  5
273
100
AcDbEntity
  8
2
370
    50
100
AcDbLine
 10
-226.628242
 20
-70.797885
 30
0.0
 11
-225.128242
 21
-70.797885
 31
0.0
  0
LINE
  5
274
100
AcDbEntity
  8
2
370
    50
100
AcDbLine
 10
-227.128242
 20
-72.797885
 30
0.0
 11
-225.128242
 21
-70.797885
 31
0.0
  0
LINE
  5
275
100
AcDbEntity
  8
2
370
    50
100
AcDbLine
 10
-227.128242
 20
-72.797885
 30
0.0
 11
-229.128242
 21
-70.797885
 31
0.0
  0
POINT
  5
276
100
AcDbEntity
  8
2
370
    50
100
AcDbPoint
 10
-185.164645
 20
122.227923
 30
0.0
  0
LINE
  5
277
100
AcDbEntity
  8
2
370
    50
100
AcDbLine
 10
-210.834165
 20
-144.697384
 30
0.0
 11
-197.834165
 21
-144.697384
 31
0.0
  0
LINE
  5
278
100
AcDbEntity
  8
2
370
    50
100
AcDbLine
 10
-208.915602
 20
-158.697384
 30
0.0
 11
-210.334165
 21
-158.697384
 31
0.0
  0
LINE
  5
279
100
AcDbEntity
  8
2
370
    50
100
AcDbLine
 10
-208.915602
 20
-161.197384
 30
0.0
 11
-210.334165
 21
-161.197384
 31
0.0
  0
ARC
  5
27A
100
AcDbEntity
  8
2
370
    50
100
AcDbCircle
 10
-210.134165
 20
-161.497384
 30
0.0
 40
0.2
100
AcDbArc
 50
180.0
 51
270.0
  0
LINE
  5
27B
100
AcDbEntity
  8
2
370
    50
100
AcDbLine
 10
-204.834165
 20
-161.197384
 30
0.0
 11
-208.208495
 21
-161.197384
 31
0.0
  0
LINE
  5
27C
100
AcDbEntity
  8
2
370
    50
100
AcDbLine
 10
-204.834165
 20
-158.697384
 30
0.0
 11
-208.208495
 21
-158.697384
 31
0.0
  0
LINE
  5
27D
100
AcDbEntity
  8
2
370
    50
100
AcDbLine
 10
-200.459835
 20
-161.197384
 30
0.0
 11
-203.834165
 21
-161.197384
 31
0.0
  0
LINE
  5
27E
100
AcDbEntity
  8
2
370
    50
100
AcDbLine
 10
-200.459835
 20
-158.697384
 30
0.0
 11
-203.834165
 21
-158.697384
 31
0.0
  0
LINE
  5
27F
100
AcDbEntity
  8
2
370
    50
100
AcDbLine
 10
-198.334165
 20
-161.197384
 30
0.0
 11
-199.752728
 21
-161.197384
 31
0.0
  0
LINE
  5
280
100
AcDbEntity
  8
2
370
    50
100
AcDbLine
 10
-198.334165
 20
-158.697384
 30
0.0
 11
-199.752728
 21
-158.697384
 31
0.0
  0
ARC
  5
281
100
AcDbEntity
  8
2
370
    50
100
AcDbCircle
 10
-198.534165
 20
-161.497384
 30
0.0
 40
0.2
100
AcDbArc
 50
270.0
 51
360.0
  0
LINE
  5
282
100
AcDbEntity
  8
2
370
    50
100
AcDbLine
 10
-198.334165
 20
-158.697384
 30
0.0
 11
-198.334165
 21
-161.497384
 31
0.0
  0
LINE
  5
283
100
AcDbEntity
  8
2
370
    50
100
AcDbLine
 10
-198.355035
 20
-158.697384
 30
0.0
 11
-198.355035
 21
-161.197384
 31
0.0
  0
ARC
  5
284
100
AcDbEntity
  8
2
370
    50
100
AcDbCircle
 10
-200.334165
 20
-157.197384
 30
0.0
 40
2.5
100
AcDbArc
 50
323.130102
 51
360.0
  0
LINE
  5
285
100
AcDbEntity
  8
2
370
    50
100
AcDbLine
 10
-199.752728
 20
-158.697384
 30
0.0
 11
-199.752728
 21
-161.197384
 31
0.0
  0
LINE
  5
286
100
AcDbEntity
  8
2
370
    50
100
AcDbLine
 10
-200.459835
 20
-158.697384
 30
0.0
 11
-200.459835
 21
-161.197384
 31
0.0
  0
LINE
  5
287
100
AcDbEntity
  8
2
370
    50
100
AcDbLine
 10
-203.834165
 20
-158.697384
 30
0.0
 11
-203.834165
 21
-161.197384
 31
0.0
  0
LINE
  5
288
100
AcDbEntity
  8
2
370
    50
100
AcDbLine
 10
-204.834165
 20
-158.697384
 30
0.0
 11
-204.834165
 21
-161.197384
 31
0.0
  0
LINE
  5
289
100
AcDbEntity
  8
2
370
    50
100
AcDbLine
 10
-208.915602
 20
-158.697384
 30
0.0
 11
-208.915602
 21
-161.197384
 31
0.0
  0
LINE
  5
28A
100
AcDbEntity
  8
2
370
    50
100
AcDbLine
 10
-208.208495
 20
-158.697384
 30
0.0
 11
-208.208495
 21
-161.197384
 31
0.0
  0
LINE
  5
28B
100
AcDbEntity
  8
2
370
    50
100
AcDbLine
 10
-210.334165
 20
-158.697384
 30
0.0
 11
-210.334165
 21
-161.497384
 31
0.0
  0
LINE
  5
28C
100
AcDbEntity
  8
2
370
    50
100
AcDbLine
 10
-210.313295
 20
-158.697384
 30
0.0
 11
-210.313295
 21
-161.197384
 31
0.0
  0
ARC
  5
28D
100
AcDbEntity
  8
2
370
    50
100
AcDbCircle
 10
-208.334165
 20
-157.197384
 30
0.0
 40
2.5
100
AcDbArc
 50
180.0
 51
216.869898
  0
LINE
  5
28E
100
AcDbEntity
  8
2
370
    50
100
AcDbLine
 10
-210.834165
 20
-144.697384
 30
0.0
 11
-210.834165
 21
-157.197384
 31
0.0
  0
LINE
  5
28F
100
AcDbEntity
  8
2
370
    25
100
AcDbLine
 10
-197.853424
 20
-144.697384
 30
0.0
 11
-197.853424
 21
-157.197384
 31
0.0
  0
LINE
  5
290
100
AcDbEntity
  8
2
370
    50
100
AcDbLine
 10
-197.834165
 20
-144.697384
 30
0.0
 11
-197.834165
 21
-157.197384
 31
0.0
  0
LINE
  5
291
100
AcDbEntity
  8
2
370
    50
100
AcDbLine
 10
-197.334165
 20
-161.697384
 30
0.0
 11
-211.334165
 21
-161.697384
 31
0.0
  0
LINE
  5
292
100
AcDbEntity
  8
2
370
    50
100
AcDbLine
 10
-196.834165
 20
-162.197384
 30
0.0
 11
-197.334165
 21
-161.697384
 31
0.0
  0
ARC
  5
293
100
AcDbEntity
  8
2
370
    50
100
AcDbCircle
 10
-207.209165
 20
-122.864061
 30
0.0
 40
4.791667
100
AcDbArc
 50
233.130102
 51
306.869898
  0
ARC
  5
294
100
AcDbEntity
  8
2
370
    50
100
AcDbCircle
 10
-201.459165
 20
-130.530728
 30
0.0
 40
4.791667
100
AcDbArc
 50
53.130102
 51
126.869898
  0
ARC
  5
295
100
AcDbEntity
  8
2
370
    50
100
AcDbCircle
 10
-207.209165
 20
-130.530728
 30
0.0
 40
4.791667
100
AcDbArc
 50
53.130102
 51
126.869898
  0
LINE
  5
296
100
AcDbEntity
  8
2
370
    50
100
AcDbLine
 10
-210.084165
 20
-144.697384
 30
0.0
 11
-210.084165
 21
-126.697866
 31
0.0
  0
LINE
  5
297
100
AcDbEntity
  8
2
370
    50
100
AcDbLine
 10
-198.584165
 20
-144.697384
 30
0.0
 11
-198.584165
 21
-126.697866
 31
0.0
  0
LINE
  5
298
100
AcDbEntity
  8
2
370
    50
100
AcDbLine
 10
-197.834305
 20
-175.496761
 30
0.0
 11
-197.834305
 21
-172.496761
 31
0.0
  0
LINE
  5
299
100
AcDbEntity
  8
2
370
    50
100
AcDbLine
 10
-214.335053
 20
-176.897384
 30
0.0
 11
-213.335053
 21
-175.897384
 31
0.0
  0
LINE
  5
29A
100
AcDbEntity
  8
2
370
    50
100
AcDbLine
 10
-195.335053
 20
-175.897384
 30
0.0
 11
-194.335053
 21
-176.897384
 31
0.0
  0
LINE
  5
29B
100
AcDbEntity
  8
2
370
    50
100
AcDbLine
 10
-195.335053
 20
-175.897384
 30
0.0
 11
-213.335053
 21
-175.897384
 31
0.0
  0
LINE
  5
29C
100
AcDbEntity
  8
2
370
    50
100
AcDbLine
 10
-194.335053
 20
-176.897384
 30
0.0
 11
-214.335053
 21
-176.897384
 31
0.0
  0
LINE
  5
29D
100
AcDbEntity
  8
2
370
    50
100
AcDbLine
 10
-196.834055
 20
-175.897384
 30
0.0
 11
-196.834055
 21
-175.496761
 31
0.0
  0
LINE
  5
29E
100
AcDbEntity
  8
2
370
    50
100
AcDbLine
 10
-195.334055
 20
-169.897384
 30
0.0
 11
-195.334055
 21
-171.897384
 31
0.0
  0
LINE
  5
29F
100
AcDbEntity
  8
2
370
    50
100
AcDbLine
 10
-196.834055
 20
-172.496761
 30
0.0
 11
-196.834055
 21
-171.897384
 31
0.0
  0
LINE
  5
2A0
100
AcDbEntity
  8
2
370
    50
100
AcDbLine
 10
-195.534055
 20
-169.697384
 30
0.0
 11
-195.334055
 21
-169.897384
 31
0.0
  0
LINE
  5
2A1
100
AcDbEntity
  8
2
370
    50
100
AcDbLine
 10
-195.434165
 20
-167.098019
 30
0.0
 11
-195.434165
 21
-169.498019
 31
0.0
  0
LINE
  5
2A2
100
AcDbEntity
  8
2
370
    50
100
AcDbLine
 10
-195.634165
 20
-166.898019
 30
0.0
 11
-195.434165
 21
-167.098019
 31
0.0
  0
LINE
  5
2A3
100
AcDbEntity
  8
2
370
    50
100
AcDbLine
 10
-195.634165
 20
-169.698019
 30
0.0
 11
-195.434165
 21
-169.498019
 31
0.0
  0
LINE
  5
2A4
100
AcDbEntity
  8
2
370
    50
100
AcDbLine
 10
-196.834165
 20
-166.898019
 30
0.0
 11
-196.834165
 21
-166.496761
 31
0.0
  0
LINE
  5
2A5
100
AcDbEntity
  8
2
370
    50
100
AcDbLine
 10
-196.834165
 20
-162.197384
 30
0.0
 11
-196.834165
 21
-163.496761
 31
0.0
  0
LINE
  5
2A6
100
AcDbEntity
  8
2
370
    50
100
AcDbLine
 10
-213.334165
 20
-175.897384
 30
0.0
 11
-195.334165
 21
-175.897384
 31
0.0
  0
LINE
  5
2A7
100
AcDbEntity
  8
2
370
    50
100
AcDbLine
 10
-213.334165
 20
-175.897384
 30
0.0
 11
-214.334165
 21
-176.897384
 31
0.0
  0
LINE
  5
2A8
100
AcDbEntity
  8
2
370
    50
100
AcDbLine
 10
-194.334165
 20
-176.897384
 30
0.0
 11
-195.334165
 21
-175.897384
 31
0.0
  0
LINE
  5
2A9
100
AcDbEntity
  8
2
370
    50
100
AcDbLine
 10
-214.334165
 20
-176.897384
 30
0.0
 11
-194.334165
 21
-176.897384
 31
0.0
  0
LINE
  5
2AA
100
AcDbEntity
  8
2
370
    50
100
AcDbLine
 10
-213.334165
 20
-169.897384
 30
0.0
 11
-213.334165
 21
-171.897384
 31
0.0
  0
LINE
  5
2AB
100
AcDbEntity
  8
2
370
    50
100
AcDbLine
 10
-195.334165
 20
-169.897384
 30
0.0
 11
-195.334165
 21
-171.897384
 31
0.0
  0
LINE
  5
2AC
100
AcDbEntity
  8
2
370
    50
100
AcDbLine
 10
-195.334165
 20
-169.897384
 30
0.0
 11
-195.534165
 21
-169.697384
 31
0.0
  0
LINE
  5
2AD
100
AcDbEntity
  8
2
370
    50
100
AcDbLine
 10
-213.134165
 20
-169.697384
 30
0.0
 11
-213.334165
 21
-169.897384
 31
0.0
  0
LINE
  5
2AE
100
AcDbEntity
  8
2
370
    50
100
AcDbLine
 10
-195.272131
 20
-175.959417
 30
0.0
 11
-195.334165
 21
-175.897384
 31
0.0
  0
LINE
  5
2AF
100
AcDbEntity
  8
2
370
    50
100
AcDbLine
 10
-213.396199
 20
-175.959417
 30
0.0
 11
-213.334165
 21
-175.897384
 31
0.0
  0
LINE
  5
2B0
100
AcDbEntity
  8
2
370
    50
100
AcDbLine
 10
-213.334165
 20
-175.897384
 30
0.0
 11
-195.334165
 21
-175.897384
 31
0.0
  0
LINE
  5
2B1
100
AcDbEntity
  8
2
370
    50
100
AcDbLine
 10
-213.234165
 20
-167.097384
 30
0.0
 11
-213.234165
 21
-169.497384
 31
0.0
  0
LINE
  5
2B2
100
AcDbEntity
  8
2
370
    50
100
AcDbLine
 10
-195.434165
 20
-167.097384
 30
0.0
 11
-195.434165
 21
-169.497384
 31
0.0
  0
LINE
  5
2B3
100
AcDbEntity
  8
2
370
    50
100
AcDbLine
 10
-195.634165
 20
-166.897384
 30
0.0
 11
-195.434165
 21
-167.097384
 31
0.0
  0
LINE
  5
2B4
100
AcDbEntity
  8
2
370
    50
100
AcDbLine
 10
-213.034165
 20
-166.897384
 30
0.0
 11
-213.234165
 21
-167.097384
 31
0.0
  0
LINE
  5
2B5
100
AcDbEntity
  8
2
370
    50
100
AcDbLine
 10
-213.034165
 20
-169.697384
 30
0.0
 11
-213.234165
 21
-169.497384
 31
0.0
  0
LINE
  5
2B6
100
AcDbEntity
  8
2
370
    50
100
AcDbLine
 10
-195.634165
 20
-169.697384
 30
0.0
 11
-195.434165
 21
-169.497384
 31
0.0
  0
LINE
  5
2B7
100
AcDbEntity
  8
2
370
    50
100
AcDbLine
 10
-213.334165
 20
-175.497384
 30
0.0
 11
-195.334165
 21
-175.497384
 31
0.0
  0
LINE
  5
2B8
100
AcDbEntity
  8
2
370
    50
100
AcDbLine
 10
-212.634165
 20
-163.497384
 30
0.0
 11
-196.034165
 21
-163.497384
 31
0.0
  0
LINE
  5
2B9
100
AcDbEntity
  8
2
370
    50
100
AcDbLine
 10
-200.334165
 20
-164.497384
 30
0.0
 11
-200.334165
 21
-174.497384
 31
0.0
  0
LINE
  5
2BA
100
AcDbEntity
  8
2
370
    50
100
AcDbLine
 10
-208.334165
 20
-164.497384
 30
0.0
 11
-208.334165
 21
-174.497384
 31
0.0
  0
LINE
  5
2BB
100
AcDbEntity
  8
2
370
    50
100
AcDbLine
 10
-189.834165
 20
-162.497384
 30
0.0
 11
-189.834165
 21
-174.497384
 31
0.0
  0
LINE
  5
2BC
100
AcDbEntity
  8
2
370
    50
100
AcDbLine
 10
-218.834165
 20
-162.497384
 30
0.0
 11
-218.834165
 21
-174.497384
 31
0.0
  0
ARC
  5
2BD
100
AcDbEntity
  8
2
370
    50
100
AcDbCircle
 10
-217.834165
 20
-162.497384
 30
0.0
 40
1.0
100
AcDbArc
 50
90.0
 51
180.0
  0
ARC
  5
2BE
100
AcDbEntity
  8
2
370
    50
100
AcDbCircle
 10
-190.834165
 20
-162.497384
 30
0.0
 40
1.0
100
AcDbArc
 50
0.0
 51
90.0
  0
ARC
  5
2BF
100
AcDbEntity
  8
2
370
    50
100
AcDbCircle
 10
-190.834165
 20
-174.497384
 30
0.0
 40
1.0
100
AcDbArc
 50
270.0
 51
360.0
  0
ARC
  5
2C0
100
AcDbEntity
  8
2
370
    50
100
AcDbCircle
 10
-217.834165
 20
-174.497384
 30
0.0
 40
1.0
100
AcDbArc
 50
180.0
 51
270.0
  0
LINE
  5
2C1
100
AcDbEntity
  8
2
370
    50
100
AcDbLine
 10
-190.834165
 20
-161.497384
 30
0.0
 11
-198.334165
 21
-161.497384
 31
0.0
  0
LINE
  5
2C2
100
AcDbEntity
  8
2
370
    50
100
AcDbLine
 10
-210.334165
 20
-161.497384
 30
0.0
 11
-217.834165
 21
-161.497384
 31
0.0
  0
LINE
  5
2C3
100
AcDbEntity
  8
2
370
    50
100
AcDbLine
 10
-190.834165
 20
-175.497384
 30
0.0
 11
-196.834165
 21
-175.497384
 31
0.0
  0
LINE
  5
2C4
100
AcDbEntity
  8
2
370
    50
100
AcDbLine
 10
-212.634165
 20
-175.497384
 30
0.0
 11
-217.834165
 21
-175.497384
 31
0.0
  0
LINE
  5
2C5
100
AcDbEntity
  8
2
370
    50
100
AcDbLine
 10
-212.634165
 20
-166.497384
 30
0.0
 11
-208.334165
 21
-166.497384
 31
0.0
  0
LINE
  5
2C6
100
AcDbEntity
  8
2
370
    50
100
AcDbLine
 10
-200.334165
 20
-166.497384
 30
0.0
 11
-196.034165
 21
-166.497384
 31
0.0
  0
LINE
  5
2C7
100
AcDbEntity
  8
2
370
    50
100
AcDbLine
 10
-213.034165
 20
-166.897384
 30
0.0
 11
-208.334165
 21
-166.897384
 31
0.0
  0
LINE
  5
2C8
100
AcDbEntity
  8
2
370
    50
100
AcDbLine
 10
-200.334165
 20
-166.897384
 30
0.0
 11
-195.634165
 21
-166.897384
 31
0.0
  0
LINE
  5
2C9
100
AcDbEntity
  8
2
370
    50
100
AcDbLine
 10
-213.234165
 20
-167.097384
 30
0.0
 11
-208.334165
 21
-167.097384
 31
0.0
  0
LINE
  5
2CA
100
AcDbEntity
  8
2
370
    50
100
AcDbLine
 10
-200.334165
 20
-167.097384
 30
0.0
 11
-195.434165
 21
-167.097384
 31
0.0
  0
LINE
  5
2CB
100
AcDbEntity
  8
2
370
    50
100
AcDbLine
 10
-213.134165
 20
-169.697384
 30
0.0
 11
-208.334165
 21
-169.697384
 31
0.0
  0
LINE
  5
2CC
100
AcDbEntity
  8
2
370
    50
100
AcDbLine
 10
-200.334165
 20
-169.697384
 30
0.0
 11
-195.534165
 21
-169.697384
 31
0.0
  0
LINE
  5
2CD
100
AcDbEntity
  8
2
370
    50
100
AcDbLine
 10
-213.234165
 20
-169.497384
 30
0.0
 11
-208.334165
 21
-169.497384
 31
0.0
  0
LINE
  5
2CE
100
AcDbEntity
  8
2
370
    50
100
AcDbLine
 10
-200.334165
 20
-169.497384
 30
0.0
 11
-195.434165
 21
-169.497384
 31
0.0
  0
LINE
  5
2CF
100
AcDbEntity
  8
2
370
    50
100
AcDbLine
 10
-213.334165
 20
-169.897384
 30
0.0
 11
-208.334165
 21
-169.897384
 31
0.0
  0
LINE
  5
2D0
100
AcDbEntity
  8
2
370
    50
100
AcDbLine
 10
-200.334165
 20
-169.897384
 30
0.0
 11
-195.334165
 21
-169.897384
 31
0.0
  0
LINE
  5
2D1
100
AcDbEntity
  8
2
370
    50
100
AcDbLine
 10
-213.334165
 20
-171.897384
 30
0.0
 11
-208.334165
 21
-171.897384
 31
0.0
  0
LINE
  5
2D2
100
AcDbEntity
  8
2
370
    50
100
AcDbLine
 10
-200.334165
 20
-171.897384
 30
0.0
 11
-195.334165
 21
-171.897384
 31
0.0
  0
LINE
  5
2D3
100
AcDbEntity
  8
2
370
    50
100
AcDbLine
 10
-212.634165
 20
-172.497384
 30
0.0
 11
-208.334165
 21
-172.497384
 31
0.0
  0
LINE
  5
2D4
100
AcDbEntity
  8
2
370
    50
100
AcDbLine
 10
-200.334165
 20
-172.497384
 30
0.0
 11
-196.034165
 21
-172.497384
 31
0.0
  0
ARC
  5
2D5
100
AcDbEntity
  8
2
370
    50
100
AcDbCircle
 10
-207.334165
 20
-164.497384
 30
0.0
 40
1.0
100
AcDbArc
 50
90.0
 51
180.0
  0
ARC
  5
2D6
100
AcDbEntity
  8
2
370
    50
100
AcDbCircle
 10
-201.334165
 20
-164.497384
 30
0.0
 40
1.0
100
AcDbArc
 50
0.0
 51
90.0
  0
ARC
  5
2D7
100
AcDbEntity
  8
2
370
    50
100
AcDbCircle
 10
-201.334165
 20
-174.497384
 30
0.0
 40
1.0
100
AcDbArc
 50
270.0
 51
0.0
  0
ARC
  5
2D8
100
AcDbEntity
  8
2
370
    50
100
AcDbCircle
 10
-207.334165
 20
-174.497384
 30
0.0
 40
1.0
100
AcDbArc
 50
180.0
 51
270.0
  0
LINE
  5
2D9
100
AcDbEntity
  8
2
370
    50
100
AcDbLine
 10
-196.034165
 20
-163.497384
 30
0.0
 11
-196.034165
 21
-166.497384
 31
0.0
  0
LINE
  5
2DA
100
AcDbEntity
  8
2
370
    50
100
AcDbLine
 10
-212.634165
 20
-163.497384
 30
0.0
 11
-212.634165
 21
-166.497384
 31
0.0
  0
LINE
  5
2DB
100
AcDbEntity
  8
2
370
    50
100
AcDbLine
 10
-212.634165
 20
-172.497384
 30
0.0
 11
-212.634165
 21
-175.497384
 31
0.0
  0
LINE
  5
2DC
100
AcDbEntity
  8
2
370
    50
100
AcDbLine
 10
-196.034165
 20
-172.497384
 30
0.0
 11
-196.034165
 21
-175.497384
 31
0.0
  0
LINE
  5
2DD
100
AcDbEntity
  8
2
370
    50
100
AcDbLine
 10
-196.834165
 20
-166.897384
 30
0.0
 11
-196.834165
 21
-166.497384
 31
0.0
  0
LINE
  5
2DE
100
AcDbEntity
  8
2
370
    50
100
AcDbLine
 10
-196.834165
 20
-175.897384
 30
0.0
 11
-196.834165
 21
-175.497384
 31
0.0
  0
LINE
  5
2DF
100
AcDbEntity
  8
2
370
    50
100
AcDbLine
 10
-196.834165
 20
-172.497384
 30
0.0
 11
-196.834165
 21
-171.897384
 31
0.0
  0
LINE
  5
2E0
100
AcDbEntity
  8
2
370
    50
100
AcDbLine
 10
-211.834165
 20
-175.897384
 30
0.0
 11
-211.834165
 21
-175.497384
 31
0.0
  0
LINE
  5
2E1
100
AcDbEntity
  8
2
370
    50
100
AcDbLine
 10
-211.834165
 20
-172.497384
 30
0.0
 11
-211.834165
 21
-171.897384
 31
0.0
  0
LINE
  5
2E2
100
AcDbEntity
  8
2
370
    50
100
AcDbLine
 10
-211.834165
 20
-166.897384
 30
0.0
 11
-211.834165
 21
-166.497384
 31
0.0
  0
LINE
  5
2E3
100
AcDbEntity
  8
2
370
    25
100
AcDbLine
 10
-199.334165
 20
-175.197966
 30
0.0
 11
-199.334165
 21
-172.892745
 31
0.0
  0
LINE
  5
2E4
100
AcDbEntity
  8
2
370
    25
100
AcDbLine
 10
-199.334165
 20
-166.236197
 30
0.0
 11
-199.334165
 21
-163.803992
 31
0.0
  0
LINE
  5
2E5
100
AcDbEntity
  8
2
370
    25
100
AcDbLine
 10
-209.334165
 20
-175.197966
 30
0.0
 11
-209.334165
 21
-172.892745
 31
0.0
  0
LINE
  5
2E6
100
AcDbEntity
  8
2
370
    25
100
AcDbLine
 10
-209.334165
 20
-166.193518
 30
0.0
 11
-209.334165
 21
-163.724471
 31
0.0
  0
LINE
  5
2E7
100
AcDbEntity
  8
2
370
    50
100
AcDbLine
 10
-195.534165
 20
-174.497384
 30
0.0
 11
-195.534165
 21
-171.897384
 31
0.0
  0
LINE
  5
2E8
100
AcDbEntity
  8
2
370
    50
100
AcDbLine
 10
-195.534165
 20
-166.997384
 30
0.0
 11
-195.534165
 21
-162.497384
 31
0.0
  0
LINE
  5
2E9
100
AcDbEntity
  8
2
370
    50
100
AcDbLine
 10
-213.134165
 20
-174.497384
 30
0.0
 11
-213.134165
 21
-171.897384
 31
0.0
  0
LINE
  5
2EA
100
AcDbEntity
  8
2
370
    50
100
AcDbLine
 10
-213.134165
 20
-166.997384
 30
0.0
 11
-213.134165
 21
-162.497384
 31
0.0
  0
ARC
  5
2EB
100
AcDbEntity
  8
2
370
    50
100
AcDbCircle
 10
-196.534165
 20
-162.497384
 30
0.0
 40
1.0
100
AcDbArc
 50
0.0
 51
90.0
  0
ARC
  5
2EC
100
AcDbEntity
  8
2
370
    50
100
AcDbCircle
 10
-212.134165
 20
-162.497384
 30
0.0
 40
1.0
100
AcDbArc
 50
90.0
 51
180.0
  0
ARC
  5
2ED
100
AcDbEntity
  8
2
370
    50
100
AcDbCircle
 10
-194.534165
 20
-174.497384
 30
0.0
 40
1.0
100
AcDbArc
 50
180.0
 51
270.0
  0
ARC
  5
2EE
100
AcDbEntity
  8
2
370
    50
100
AcDbCircle
 10
-214.134165
 20
-174.497384
 30
0.0
 40
1.0
100
AcDbArc
 50
270.0
 51
360.0
  0
LINE
  5
2EF
100
AcDbEntity
  8
2
370
    50
100
AcDbLine
 10
-211.834165
 20
-162.197384
 30
0.0
 11
-211.834165
 21
-163.496761
 31
0.0
  0
ARC
  5
2F0
100
AcDbEntity
  8
2
370
    50
100
AcDbCircle
 10
-212.134165
 20
-162.497384
 30
0.0
 40
1.0
100
AcDbArc
 50
90.0
 51
180.0
  0
LINE
  5
2F1
100
AcDbEntity
  8
2
370
    50
100
AcDbLine
 10
-211.834165
 20
-162.197384
 30
0.0
 11
-211.334165
 21
-161.697384
 31
0.0
  0
LINE
  5
2F2
100
AcDbEntity
  8
2
370
    25
  6
CENTER
100
AcDbLine
 10
-219.334165
 20
-131.03827
 30
0.0
 11
-204.334165
 21
-110.69527
 31
0.0
  0
LINE
  5
2F3
100
AcDbEntity
  8
2
370
    25
  6
CENTER
100
AcDbLine
 10
-204.334165
 20
-110.69527
 30
0.0
 11
-204.334165
 21
-130.148741
 31
0.0
  0
LINE
  5
2F4
100
AcDbEntity
  8
2
370
    50
100
AcDbLine
 10
-243.421694
 20
-144.697384
 30
0.0
 11
-256.421694
 21
-144.697384
 31
0.0
  0
LINE
  5
2F5
100
AcDbEntity
  8
2
370
    50
100
AcDbLine
 10
-245.340257
 20
-158.697384
 30
0.0
 11
-243.921694
 21
-158.697384
 31
0.0
  0
LINE
  5
2F6
100
AcDbEntity
  8
2
370
    50
100
AcDbLine
 10
-245.340257
 20
-161.197384
 30
0.0
 11
-243.921694
 21
-161.197384
 31
0.0
  0
ARC
  5
2F7
100
AcDbEntity
  8
2
370
    50
100
AcDbCircle
 10
-244.121694
 20
-161.497384
 30
0.0
 40
0.2
100
AcDbArc
 50
270.0
 51
360.0
  0
LINE
  5
2F8
100
AcDbEntity
  8
2
370
    50
100
AcDbLine
 10
-249.421694
 20
-161.197384
 30
0.0
 11
-246.047364
 21
-161.197384
 31
0.0
  0
LINE
  5
2F9
100
AcDbEntity
  8
2
370
    50
100
AcDbLine
 10
-249.421694
 20
-158.697384
 30
0.0
 11
-246.047364
 21
-158.697384
 31
0.0
  0
LINE
  5
2FA
100
AcDbEntity
  8
2
370
    50
100
AcDbLine
 10
-253.796024
 20
-161.197384
 30
0.0
 11
-250.421694
 21
-161.197384
 31
0.0
  0
LINE
  5
2FB
100
AcDbEntity
  8
2
370
    50
100
AcDbLine
 10
-253.796024
 20
-158.697384
 30
0.0
 11
-250.421694
 21
-158.697384
 31
0.0
  0
LINE
  5
2FC
100
AcDbEntity
  8
2
370
    50
100
AcDbLine
 10
-255.921694
 20
-161.197384
 30
0.0
 11
-254.503131
 21
-161.197384
 31
0.0
  0
LINE
  5
2FD
100
AcDbEntity
  8
2
370
    50
100
AcDbLine
 10
-255.921694
 20
-158.697384
 30
0.0
 11
-254.503131
 21
-158.697384
 31
0.0
  0
ARC
  5
2FE
100
AcDbEntity
  8
2
370
    50
100
AcDbCircle
 10
-255.721694
 20
-161.497384
 30
0.0
 40
0.2
100
AcDbArc
 50
180.0
 51
270.0
  0
LINE
  5
2FF
100
AcDbEntity
  8
2
370
    50
100
AcDbLine
 10
-255.921694
 20
-158.697384
 30
0.0
 11
-255.921694
 21
-161.497384
 31
0.0
  0
LINE
  5
300
100
AcDbEntity
  8
2
370
    50
100
AcDbLine
 10
-255.900824
 20
-158.697384
 30
0.0
 11
-255.900824
 21
-161.197384
 31
0.0
  0
ARC
  5
301
100
AcDbEntity
  8
2
370
    50
100
AcDbCircle
 10
-253.921694
 20
-157.197384
 30
0.0
 40
2.5
100
AcDbArc
 50
180.0
 51
216.869898
  0
LINE
  5
302
100
AcDbEntity
  8
2
370
    50
100
AcDbLine
 10
-254.503131
 20
-158.697384
 30
0.0
 11
-254.503131
 21
-161.197384
 31
0.0
  0
LINE
  5
303
100
AcDbEntity
  8
2
370
    50
100
AcDbLine
 10
-253.796024
 20
-158.697384
 30
0.0
 11
-253.796024
 21
-161.197384
 31
0.0
  0
LINE
  5
304
100
AcDbEntity
  8
2
370
    50
100
AcDbLine
 10
-250.421694
 20
-158.697384
 30
0.0
 11
-250.421694
 21
-161.197384
 31
0.0
  0
LINE
  5
305
100
AcDbEntity
  8
2
370
    50
100
AcDbLine
 10
-249.421694
 20
-158.697384
 30
0.0
 11
-249.421694
 21
-161.197384
 31
0.0
  0
LINE
  5
306
100
AcDbEntity
  8
2
370
    50
100
AcDbLine
 10
-245.340257
 20
-158.697384
 30
0.0
 11
-245.340257
 21
-161.197384
 31
0.0
  0
LINE
  5
307
100
AcDbEntity
  8
2
370
    50
100
AcDbLine
 10
-246.047364
 20
-158.697384
 30
0.0
 11
-246.047364
 21
-161.197384
 31
0.0
  0
LINE
  5
308
100
AcDbEntity
  8
2
370
    50
100
AcDbLine
 10
-243.921694
 20
-158.697384
 30
0.0
 11
-243.921694
 21
-161.497384
 31
0.0
  0
LINE
  5
309
100
AcDbEntity
  8
2
370
    50
100
AcDbLine
 10
-243.942564
 20
-158.697384
 30
0.0
 11
-243.942564
 21
-161.197384
 31
0.0
  0
ARC
  5
30A
100
AcDbEntity
  8
2
370
    50
100
AcDbCircle
 10
-245.921694
 20
-157.197384
 30
0.0
 40
2.5
100
AcDbArc
 50
323.130102
 51
360.0
  0
LINE
  5
30B
100
AcDbEntity
  8
2
370
    50
100
AcDbLine
 10
-243.421694
 20
-144.697384
 30
0.0
 11
-243.421694
 21
-157.197384
 31
0.0
  0
LINE
  5
30C
100
AcDbEntity
  8
2
370
    25
100
AcDbLine
 10
-256.402435
 20
-144.697384
 30
0.0
 11
-256.402435
 21
-157.197384
 31
0.0
  0
LINE
  5
30D
100
AcDbEntity
  8
2
370
    50
100
AcDbLine
 10
-256.421694
 20
-144.697384
 30
0.0
 11
-256.421694
 21
-157.197384
 31
0.0
  0
LINE
  5
30E
100
AcDbEntity
  8
2
370
    50
100
AcDbLine
 10
-256.921694
 20
-161.697384
 30
0.0
 11
-242.921694
 21
-161.697384
 31
0.0
  0
LINE
  5
30F
100
AcDbEntity
  8
2
370
    50
100
AcDbLine
 10
-257.421694
 20
-162.197384
 30
0.0
 11
-256.921694
 21
-161.697384
 31
0.0
  0
LINE
  5
310
100
AcDbEntity
  8
2
370
    50
100
AcDbLine
 10
-244.171694
 20
-144.697384
 30
0.0
 11
-244.171694
 21
-126.697866
 31
0.0
  0
LINE
  5
311
100
AcDbEntity
  8
2
370
    50
100
AcDbLine
 10
-255.671694
 20
-144.697384
 30
0.0
 11
-255.671694
 21
-126.697866
 31
0.0
  0
LINE
  5
312
100
AcDbEntity
  8
2
370
    50
100
AcDbLine
 10
-256.421554
 20
-175.496761
 30
0.0
 11
-256.421554
 21
-172.496761
 31
0.0
  0
LINE
  5
313
100
AcDbEntity
  8
2
370
    50
100
AcDbLine
 10
-239.920806
 20
-176.897384
 30
0.0
 11
-240.920806
 21
-175.897384
 31
0.0
  0
LINE
  5
314
100
AcDbEntity
  8
2
370
    50
100
AcDbLine
 10
-258.920806
 20
-175.897384
 30
0.0
 11
-259.920806
 21
-176.897384
 31
0.0
  0
LINE
  5
315
100
AcDbEntity
  8
2
370
    50
100
AcDbLine
 10
-258.920806
 20
-175.897384
 30
0.0
 11
-240.920806
 21
-175.897384
 31
0.0
  0
LINE
  5
316
100
AcDbEntity
  8
2
370
    50
100
AcDbLine
 10
-259.920806
 20
-176.897384
 30
0.0
 11
-239.920806
 21
-176.897384
 31
0.0
  0
LINE
  5
317
100
AcDbEntity
  8
2
370
    50
100
AcDbLine
 10
-257.421804
 20
-175.897384
 30
0.0
 11
-257.421804
 21
-175.496761
 31
0.0
  0
LINE
  5
318
100
AcDbEntity
  8
2
370
    50
100
AcDbLine
 10
-258.921804
 20
-169.897384
 30
0.0
 11
-258.921804
 21
-171.897384
 31
0.0
  0
LINE
  5
319
100
AcDbEntity
  8
2
370
    50
100
AcDbLine
 10
-257.421804
 20
-172.496761
 30
0.0
 11
-257.421804
 21
-171.897384
 31
0.0
  0
LINE
  5
31A
100
AcDbEntity
  8
2
370
    50
100
AcDbLine
 10
-258.721804
 20
-169.697384
 30
0.0
 11
-258.921804
 21
-169.897384
 31
0.0
  0
LINE
  5
31B
100
AcDbEntity
  8
2
370
    50
100
AcDbLine
 10
-258.821694
 20
-167.098019
 30
0.0
 11
-258.821694
 21
-169.498019
 31
0.0
  0
LINE
  5
31C
100
AcDbEntity
  8
2
370
    50
100
AcDbLine
 10
-258.621694
 20
-166.898019
 30
0.0
 11
-258.821694
 21
-167.098019
 31
0.0
  0
LINE
  5
31D
100
AcDbEntity
  8
2
370
    50
100
AcDbLine
 10
-258.621694
 20
-169.698019
 30
0.0
 11
-258.821694
 21
-169.498019
 31
0.0
  0
LINE
  5
31E
100
AcDbEntity
  8
2
370
    50
100
AcDbLine
 10
-257.421694
 20
-166.898019
 30
0.0
 11
-257.421694
 21
-166.496761
 31
0.0
  0
LINE
  5
31F
100
AcDbEntity
  8
2
370
    50
100
AcDbLine
 10
-257.421694
 20
-162.197384
 30
0.0
 11
-257.421694
 21
-163.496761
 31
0.0
  0
LINE
  5
320
100
AcDbEntity
  8
2
370
    50
100
AcDbLine
 10
-240.921694
 20
-175.897384
 30
0.0
 11
-258.921694
 21
-175.897384
 31
0.0
  0
LINE
  5
321
100
AcDbEntity
  8
2
370
    50
100
AcDbLine
 10
-240.921694
 20
-175.897384
 30
0.0
 11
-239.921694
 21
-176.897384
 31
0.0
  0
LINE
  5
322
100
AcDbEntity
  8
2
370
    50
100
AcDbLine
 10
-259.921694
 20
-176.897384
 30
0.0
 11
-258.921694
 21
-175.897384
 31
0.0
  0
LINE
  5
323
100
AcDbEntity
  8
2
370
    50
100
AcDbLine
 10
-239.921694
 20
-176.897384
 30
0.0
 11
-259.921694
 21
-176.897384
 31
0.0
  0
LINE
  5
324
100
AcDbEntity
  8
2
370
    50
100
AcDbLine
 10
-240.921694
 20
-169.897384
 30
0.0
 11
-240.921694
 21
-171.897384
 31
0.0
  0
LINE
  5
325
100
AcDbEntity
  8
2
370
    50
100
AcDbLine
 10
-258.921694
 20
-169.897384
 30
0.0
 11
-258.921694
 21
-171.897384
 31
0.0
  0
LINE
  5
326
100
AcDbEntity
  8
2
370
    50
100
AcDbLine
 10
-258.921694
 20
-169.897384
 30
0.0
 11
-258.721694
 21
-169.697384
 31
0.0
  0
LINE
  5
327
100
AcDbEntity
  8
2
370
    50
100
AcDbLine
 10
-241.121694
 20
-169.697384
 30
0.0
 11
-240.921694
 21
-169.897384
 31
0.0
  0
LINE
  5
328
100
AcDbEntity
  8
2
370
    50
100
AcDbLine
 10
-258.983728
 20
-175.959417
 30
0.0
 11
-258.921694
 21
-175.897384
 31
0.0
  0
LINE
  5
329
100
AcDbEntity
  8
2
370
    50
100
AcDbLine
 10
-240.85966
 20
-175.959417
 30
0.0
 11
-240.921694
 21
-175.897384
 31
0.0
  0
LINE
  5
32A
100
AcDbEntity
  8
2
370
    50
100
AcDbLine
 10
-240.921694
 20
-175.897384
 30
0.0
 11
-258.921694
 21
-175.897384
 31
0.0
  0
LINE
  5
32B
100
AcDbEntity
  8
2
370
    50
100
AcDbLine
 10
-241.021694
 20
-167.097384
 30
0.0
 11
-241.021694
 21
-169.497384
 31
0.0
  0
LINE
  5
32C
100
AcDbEntity
  8
2
370
    50
100
AcDbLine
 10
-258.821694
 20
-167.097384
 30
0.0
 11
-258.821694
 21
-169.497384
 31
0.0
  0
LINE
  5
32D
100
AcDbEntity
  8
2
370
    50
100
AcDbLine
 10
-258.621694
 20
-166.897384
 30
0.0
 11
-258.821694
 21
-167.097384
 31
0.0
  0
LINE
  5
32E
100
AcDbEntity
  8
2
370
    50
100
AcDbLine
 10
-241.221694
 20
-166.897384
 30
0.0
 11
-241.021694
 21
-167.097384
 31
0.0
  0
LINE
  5
32F
100
AcDbEntity
  8
2
370
    50
100
AcDbLine
 10
-241.221694
 20
-169.697384
 30
0.0
 11
-241.021694
 21
-169.497384
 31
0.0
  0
LINE
  5
330
100
AcDbEntity
  8
2
370
    50
100
AcDbLine
 10
-258.621694
 20
-169.697384
 30
0.0
 11
-258.821694
 21
-169.497384
 31
0.0
  0
LINE
  5
331
100
AcDbEntity
  8
2
370
    50
100
AcDbLine
 10
-240.921694
 20
-175.497384
 30
0.0
 11
-258.921694
 21
-175.497384
 31
0.0
  0
LINE
  5
332
100
AcDbEntity
  8
2
370
    50
100
AcDbLine
 10
-241.621694
 20
-163.497384
 30
0.0
 11
-258.221694
 21
-163.497384
 31
0.0
  0
LINE
  5
333
100
AcDbEntity
  8
2
370
    50
100
AcDbLine
 10
-253.921694
 20
-164.497384
 30
0.0
 11
-253.921694
 21
-174.497384
 31
0.0
  0
LINE
  5
334
100
AcDbEntity
  8
2
370
    50
100
AcDbLine
 10
-245.921694
 20
-164.497384
 30
0.0
 11
-245.921694
 21
-174.497384
 31
0.0
  0
LINE
  5
335
100
AcDbEntity
  8
2
370
    50
100
AcDbLine
 10
-264.421694
 20
-162.497384
 30
0.0
 11
-264.421694
 21
-174.497384
 31
0.0
  0
LINE
  5
336
100
AcDbEntity
  8
2
370
    50
100
AcDbLine
 10
-235.421694
 20
-162.497384
 30
0.0
 11
-235.421694
 21
-174.497384
 31
0.0
  0
ARC
  5
337
100
AcDbEntity
  8
2
370
    50
100
AcDbCircle
 10
-236.421694
 20
-162.497384
 30
0.0
 40
1.0
100
AcDbArc
 50
0.0
 51
90.0
  0
ARC
  5
338
100
AcDbEntity
  8
2
370
    50
100
AcDbCircle
 10
-263.421694
 20
-162.497384
 30
0.0
 40
1.0
100
AcDbArc
 50
90.0
 51
180.0
  0
ARC
  5
339
100
AcDbEntity
  8
2
370
    50
100
AcDbCircle
 10
-263.421694
 20
-174.497384
 30
0.0
 40
1.0
100
AcDbArc
 50
180.0
 51
270.0
  0
ARC
  5
33A
100
AcDbEntity
  8
2
370
    50
100
AcDbCircle
 10
-236.421694
 20
-174.497384
 30
0.0
 40
1.0
100
AcDbArc
 50
270.0
 51
360.0
  0
LINE
  5
33B
100
AcDbEntity
  8
2
370
    50
100
AcDbLine
 10
-263.421694
 20
-161.497384
 30
0.0
 11
-255.921694
 21
-161.497384
 31
0.0
  0
LINE
  5
33C
100
AcDbEntity
  8
2
370
    50
100
AcDbLine
 10
-243.921694
 20
-161.497384
 30
0.0
 11
-236.421694
 21
-161.497384
 31
0.0
  0
LINE
  5
33D
100
AcDbEntity
  8
2
370
    50
100
AcDbLine
 10
-263.421694
 20
-175.497384
 30
0.0
 11
-257.421694
 21
-175.497384
 31
0.0
  0
LINE
  5
33E
100
AcDbEntity
  8
2
370
    50
100
AcDbLine
 10
-241.621694
 20
-175.497384
 30
0.0
 11
-236.421694
 21
-175.497384
 31
0.0
  0
LINE
  5
33F
100
AcDbEntity
  8
2
370
    50
100
AcDbLine
 10
-241.621694
 20
-166.497384
 30
0.0
 11
-245.921694
 21
-166.497384
 31
0.0
  0
LINE
  5
340
100
AcDbEntity
  8
2
370
    50
100
AcDbLine
 10
-253.921694
 20
-166.497384
 30
0.0
 11
-258.221694
 21
-166.497384
 31
0.0
  0
LINE
  5
341
100
AcDbEntity
  8
2
370
    50
100
AcDbLine
 10
-241.221694
 20
-166.897384
 30
0.0
 11
-245.921694
 21
-166.897384
 31
0.0
  0
LINE
  5
342
100
AcDbEntity
  8
2
370
    50
100
AcDbLine
 10
-253.921694
 20
-166.897384
 30
0.0
 11
-258.621694
 21
-166.897384
 31
0.0
  0
LINE
  5
343
100
AcDbEntity
  8
2
370
    50
100
AcDbLine
 10
-241.021694
 20
-167.097384
 30
0.0
 11
-245.921694
 21
-167.097384
 31
0.0
  0
LINE
  5
344
100
AcDbEntity
  8
2
370
    50
100
AcDbLine
 10
-253.921694
 20
-167.097384
 30
0.0
 11
-258.821694
 21
-167.097384
 31
0.0
  0
LINE
  5
345
100
AcDbEntity
  8
2
370
    50
100
AcDbLine
 10
-241.121694
 20
-169.697384
 30
0.0
 11
-245.921694
 21
-169.697384
 31
0.0
  0
LINE
  5
346
100
AcDbEntity
  8
2
370
    50
100
AcDbLine
 10
-253.921694
 20
-169.697384
 30
0.0
 11
-258.721694
 21
-169.697384
 31
0.0
  0
LINE
  5
347
100
AcDbEntity
  8
2
370
    50
100
AcDbLine
 10
-241.021694
 20
-169.497384
 30
0.0
 11
-245.921694
 21
-169.497384
 31
0.0
  0
LINE
  5
348
100
AcDbEntity
  8
2
370
    50
100
AcDbLine
 10
-253.921694
 20
-169.497384
 30
0.0
 11
-258.821694
 21
-169.497384
 31
0.0
  0
LINE
  5
349
100
AcDbEntity
  8
2
370
    50
100
AcDbLine
 10
-240.921694
 20
-169.897384
 30
0.0
 11
-245.921694
 21
-169.897384
 31
0.0
  0
LINE
  5
34A
100
AcDbEntity
  8
2
370
    50
100
AcDbLine
 10
-253.921694
 20
-169.897384
 30
0.0
 11
-258.921694
 21
-169.897384
 31
0.0
  0
LINE
  5
34B
100
AcDbEntity
  8
2
370
    50
100
AcDbLine
 10
-240.921694
 20
-171.897384
 30
0.0
 11
-245.921694
 21
-171.897384
 31
0.0
  0
LINE
  5
34C
100
AcDbEntity
  8
2
370
    50
100
AcDbLine
 10
-253.921694
 20
-171.897384
 30
0.0
 11
-258.921694
 21
-171.897384
 31
0.0
  0
LINE
  5
34D
100
AcDbEntity
  8
2
370
    50
100
AcDbLine
 10
-241.621694
 20
-172.497384
 30
0.0
 11
-245.921694
 21
-172.497384
 31
0.0
  0
LINE
  5
34E
100
AcDbEntity
  8
2
370
    50
100
AcDbLine
 10
-253.921694
 20
-172.497384
 30
0.0
 11
-258.221694
 21
-172.497384
 31
0.0
  0
ARC
  5
34F
100
AcDbEntity
  8
2
370
    50
100
AcDbCircle
 10
-246.921694
 20
-164.497384
 30
0.0
 40
1.0
100
AcDbArc
 50
0.0
 51
90.0
  0
ARC
  5
350
100
AcDbEntity
  8
2
370
    50
100
AcDbCircle
 10
-252.921694
 20
-164.497384
 30
0.0
 40
1.0
100
AcDbArc
 50
90.0
 51
180.0
  0
ARC
  5
351
100
AcDbEntity
  8
2
370
    50
100
AcDbCircle
 10
-252.921694
 20
-174.497384
 30
0.0
 40
1.0
100
AcDbArc
 50
180.0
 51
270.0
  0
ARC
  5
352
100
AcDbEntity
  8
2
370
    50
100
AcDbCircle
 10
-246.921694
 20
-174.497384
 30
0.0
 40
1.0
100
AcDbArc
 50
270.0
 51
0.0
  0
LINE
  5
353
100
AcDbEntity
  8
2
370
    50
100
AcDbLine
 10
-258.221694
 20
-163.497384
 30
0.0
 11
-258.221694
 21
-166.497384
 31
0.0
  0
LINE
  5
354
100
AcDbEntity
  8
2
370
    50
100
AcDbLine
 10
-241.621694
 20
-163.497384
 30
0.0
 11
-241.621694
 21
-166.497384
 31
0.0
  0
LINE
  5
355
100
AcDbEntity
  8
2
370
    50
100
AcDbLine
 10
-241.621694
 20
-172.497384
 30
0.0
 11
-241.621694
 21
-175.497384
 31
0.0
  0
LINE
  5
356
100
AcDbEntity
  8
2
370
    50
100
AcDbLine
 10
-258.221694
 20
-172.497384
 30
0.0
 11
-258.221694
 21
-175.497384
 31
0.0
  0
LINE
  5
357
100
AcDbEntity
  8
2
370
    50
100
AcDbLine
 10
-257.421694
 20
-166.897384
 30
0.0
 11
-257.421694
 21
-166.497384
 31
0.0
  0
LINE
  5
358
100
AcDbEntity
  8
2
370
    50
100
AcDbLine
 10
-257.421694
 20
-175.897384
 30
0.0
 11
-257.421694
 21
-175.497384
 31
0.0
  0
LINE
  5
359
100
AcDbEntity
  8
2
370
    50
100
AcDbLine
 10
-257.421694
 20
-172.497384
 30
0.0
 11
-257.421694
 21
-171.897384
 31
0.0
  0
LINE
  5
35A
100
AcDbEntity
  8
2
370
    50
100
AcDbLine
 10
-242.421694
 20
-175.897384
 30
0.0
 11
-242.421694
 21
-175.497384
 31
0.0
  0
LINE
  5
35B
100
AcDbEntity
  8
2
370
    50
100
AcDbLine
 10
-242.421694
 20
-172.497384
 30
0.0
 11
-242.421694
 21
-171.897384
 31
0.0
  0
LINE
  5
35C
100
AcDbEntity
  8
2
370
    50
100
AcDbLine
 10
-242.421694
 20
-166.897384
 30
0.0
 11
-242.421694
 21
-166.497384
 31
0.0
  0
LINE
  5
35D
100
AcDbEntity
  8
2
370
    25
100
AcDbLine
 10
-254.921694
 20
-175.197966
 30
0.0
 11
-254.921694
 21
-172.892745
 31
0.0
  0
LINE
  5
35E
100
AcDbEntity
  8
2
370
    25
100
AcDbLine
 10
-254.921694
 20
-166.236197
 30
0.0
 11
-254.921694
 21
-163.803992
 31
0.0
  0
LINE
  5
35F
100
AcDbEntity
  8
2
370
    25
100
AcDbLine
 10
-244.921694
 20
-175.197966
 30
0.0
 11
-244.921694
 21
-172.892745
 31
0.0
  0
LINE
  5
360
100
AcDbEntity
  8
2
370
    25
100
AcDbLine
 10
-244.921694
 20
-166.193518
 30
0.0
 11
-244.921694
 21
-163.724471
 31
0.0
  0
LINE
  5
361
100
AcDbEntity
  8
2
370
    50
100
AcDbLine
 10
-258.721694
 20
-174.497384
 30
0.0
 11
-258.721694
 21
-171.897384
 31
0.0
  0
LINE
  5
362
100
AcDbEntity
  8
2
370
    50
100
AcDbLine
 10
-258.721694
 20
-166.997384
 30
0.0
 11
-258.721694
 21
-162.497384
 31
0.0
  0
LINE
  5
363
100
AcDbEntity
  8
2
370
    50
100
AcDbLine
 10
-241.121694
 20
-174.497384
 30
0.0
 11
-241.121694
 21
-171.897384
 31
0.0
  0
LINE
  5
364
100
AcDbEntity
  8
2
370
    50
100
AcDbLine
 10
-241.121694
 20
-166.997384
 30
0.0
 11
-241.121694
 21
-162.497384
 31
0.0
  0
ARC
  5
365
100
AcDbEntity
  8
2
370
    50
100
AcDbCircle
 10
-257.721694
 20
-162.497384
 30
0.0
 40
1.0
100
AcDbArc
 50
90.0
 51
180.0
  0
ARC
  5
366
100
AcDbEntity
  8
2
370
    50
100
AcDbCircle
 10
-242.121694
 20
-162.497384
 30
0.0
 40
1.0
100
AcDbArc
 50
0.0
 51
90.0
  0
ARC
  5
367
100
AcDbEntity
  8
2
370
    50
100
AcDbCircle
 10
-259.721694
 20
-174.497384
 30
0.0
 40
1.0
100
AcDbArc
 50
270.0
 51
0.0
  0
ARC
  5
368
100
AcDbEntity
  8
2
370
    50
100
AcDbCircle
 10
-240.121694
 20
-174.497384
 30
0.0
 40
1.0
100
AcDbArc
 50
180.0
 51
270.0
  0
LINE
  5
369
100
AcDbEntity
  8
2
370
    50
100
AcDbLine
 10
-242.421694
 20
-162.197384
 30
0.0
 11
-242.421694
 21
-163.496761
 31
0.0
  0
ARC
  5
36A
100
AcDbEntity
  8
2
370
    50
100
AcDbCircle
 10
-242.121694
 20
-162.497384
 30
0.0
 40
1.0
100
AcDbArc
 50
0.0
 51
90.0
  0
LINE
  5
36B
100
AcDbEntity
  8
2
370
    50
100
AcDbLine
 10
-242.421694
 20
-162.197384
 30
0.0
 11
-242.921694
 21
-161.697384
 31
0.0
  0
LINE
  5
36C
100
AcDbEntity
  8
2
370
    25
  6
CENTER
100
AcDbLine
 10
-249.921694
 20
-130.289984
 30
0.0
 11
-249.921694
 21
-110.69527
 31
0.0
  0
LINE
  5
36D
100
AcDbEntity
  8
2
370
    25
  6
CENTER
100
AcDbLine
 10
-235.128243
 20
-103.854773
 30
0.0
 11
-235.128243
 21
-130.489348
 31
0.0
  0
LINE
  5
36E
100
AcDbEntity
  8
2
370
    50
100
AcDbLine
 10
-241.128243
 20
-77.409191
 30
0.0
 11
-241.128243
 21
-73.296998
 31
0.0
  0
LINE
  5
36F
100
AcDbEntity
  8
2
370
    50
100
AcDbLine
 10
-229.128243
 20
-77.409191
 30
0.0
 11
-229.128243
 21
-73.296998
 31
0.0
  0
LINE
  5
370
100
AcDbEntity
  8
2
370
    50
100
AcDbLine
 10
-229.328243
 20
-77.697866
 30
0.0
 11
-240.928243
 21
-77.697866
 31
0.0
  0
LINE
  5
371
100
AcDbEntity
  8
2
370
    50
100
AcDbLine
 10
-232.730327
 20
-73.296998
 30
0.0
 11
-232.730327
 21
-77.409191
 31
0.0
  0
LINE
  5
372
100
AcDbEntity
  8
2
370
    50
100
AcDbLine
 10
-231.564061
 20
-73.296998
 30
0.0
 11
-231.564061
 21
-77.409191
 31
0.0
  0
LINE
  5
373
100
AcDbEntity
  8
2
370
    50
100
AcDbLine
 10
-229.166145
 20
-73.296998
 30
0.0
 11
-229.166145
 21
-77.409191
 31
0.0
  0
LINE
  5
374
100
AcDbEntity
  8
2
370
    50
100
AcDbLine
 10
-229.628243
 20
-77.697866
 30
0.0
 11
-229.128243
 21
-77.409191
 31
0.0
  0
LINE
  5
375
100
AcDbEntity
  8
2
370
    50
100
AcDbLine
 10
-231.564061
 20
-77.409191
 30
0.0
 11
-232.730327
 21
-77.409191
 31
0.0
  0
LINE
  5
376
100
AcDbEntity
  8
2
370
    50
100
AcDbLine
 10
-241.128243
 20
-77.409191
 30
0.0
 11
-240.628243
 21
-77.697866
 31
0.0
  0
ARC
  5
377
100
AcDbEntity
  8
2
370
    50
100
AcDbCircle
 10
-235.128243
 20
-67.594236
 30
0.0
 40
10.10363
100
AcDbArc
 50
270.0
 51
283.729133
  0
LINE
  5
378
100
AcDbEntity
  8
2
370
    50
100
AcDbLine
 10
-229.128243
 20
-77.409191
 30
0.0
 11
-229.166145
 21
-77.409191
 31
0.0
  0
ARC
  5
379
100
AcDbEntity
  8
2
370
    50
100
AcDbCircle
 10
-230.365103
 20
-75.063705
 30
0.0
 40
2.634161
100
AcDbArc
 50
242.924933
 51
297.075067
  0
LINE
  5
37A
100
AcDbEntity
  8
2
370
    50
100
AcDbLine
 10
-241.628243
 20
-94.697866
 30
0.0
 11
-228.628243
 21
-94.697866
 31
0.0
  0
LINE
  5
37B
100
AcDbEntity
  8
2
370
    50
100
AcDbLine
 10
-241.628243
 20
-94.697866
 30
0.0
 11
-241.628243
 21
-82.197866
 31
0.0
  0
LINE
  5
37C
100
AcDbEntity
  8
2
370
    50
100
AcDbLine
 10
-239.002573
 20
-80.697866
 30
0.0
 11
-239.002573
 21
-78.197866
 31
0.0
  0
LINE
  5
37D
100
AcDbEntity
  8
2
370
    50
100
AcDbLine
 10
-239.70968
 20
-80.697866
 30
0.0
 11
-239.70968
 21
-78.197866
 31
0.0
  0
LINE
  5
37E
100
AcDbEntity
  8
2
370
    50
100
AcDbLine
 10
-241.107373
 20
-80.697866
 30
0.0
 11
-241.107373
 21
-78.197866
 31
0.0
  0
LINE
  5
37F
100
AcDbEntity
  8
2
370
    50
100
AcDbLine
 10
-241.128243
 20
-80.697866
 30
0.0
 11
-241.128243
 21
-77.897866
 31
0.0
  0
LINE
  5
380
100
AcDbEntity
  8
2
370
    50
100
AcDbLine
 10
-235.628243
 20
-80.697866
 30
0.0
 11
-235.628243
 21
-78.197866
 31
0.0
  0
LINE
  5
381
100
AcDbEntity
  8
2
370
    50
100
AcDbLine
 10
-234.628243
 20
-80.697866
 30
0.0
 11
-234.628243
 21
-78.197866
 31
0.0
  0
LINE
  5
382
100
AcDbEntity
  8
2
370
    50
100
AcDbLine
 10
-231.253912
 20
-80.697866
 30
0.0
 11
-231.253912
 21
-78.197866
 31
0.0
  0
LINE
  5
383
100
AcDbEntity
  8
2
370
    50
100
AcDbLine
 10
-230.546806
 20
-80.697866
 30
0.0
 11
-230.546806
 21
-78.197866
 31
0.0
  0
LINE
  5
384
100
AcDbEntity
  8
2
370
    50
100
AcDbLine
 10
-229.128243
 20
-80.697866
 30
0.0
 11
-229.128243
 21
-77.897866
 31
0.0
  0
LINE
  5
385
100
AcDbEntity
  8
2
370
    50
100
AcDbLine
 10
-229.149112
 20
-80.697866
 30
0.0
 11
-229.149112
 21
-78.197866
 31
0.0
  0
LINE
  5
386
100
AcDbEntity
  8
2
370
    50
100
AcDbLine
 10
-239.70968
 20
-78.197866
 30
0.0
 11
-241.128243
 21
-78.197866
 31
0.0
  0
LINE
  5
387
100
AcDbEntity
  8
2
370
    50
100
AcDbLine
 10
-235.628243
 20
-78.197866
 30
0.0
 11
-239.002573
 21
-78.197866
 31
0.0
  0
LINE
  5
388
100
AcDbEntity
  8
2
370
    50
100
AcDbLine
 10
-229.128243
 20
-78.197866
 30
0.0
 11
-230.546806
 21
-78.197866
 31
0.0
  0
LINE
  5
389
100
AcDbEntity
  8
2
370
    50
100
AcDbLine
 10
-231.253912
 20
-78.197866
 30
0.0
 11
-234.628243
 21
-78.197866
 31
0.0
  0
LINE
  5
38A
100
AcDbEntity
  8
2
370
    50
100
AcDbLine
 10
-239.70968
 20
-80.697866
 30
0.0
 11
-241.128243
 21
-80.697866
 31
0.0
  0
LINE
  5
38B
100
AcDbEntity
  8
2
370
    50
100
AcDbLine
 10
-235.628243
 20
-80.697866
 30
0.0
 11
-239.002573
 21
-80.697866
 31
0.0
  0
LINE
  5
38C
100
AcDbEntity
  8
2
370
    50
100
AcDbLine
 10
-229.128243
 20
-80.697866
 30
0.0
 11
-230.546806
 21
-80.697866
 31
0.0
  0
LINE
  5
38D
100
AcDbEntity
  8
2
370
    50
100
AcDbLine
 10
-231.253912
 20
-80.697866
 30
0.0
 11
-234.628243
 21
-80.697866
 31
0.0
  0
ARC
  5
38E
100
AcDbEntity
  8
2
370
    50
100
AcDbCircle
 10
-229.328243
 20
-77.897866
 30
0.0
 40
0.2
100
AcDbArc
 50
0.0
 51
90.0
  0
ARC
  5
38F
100
AcDbEntity
  8
2
370
    50
100
AcDbCircle
 10
-240.928243
 20
-77.897866
 30
0.0
 40
0.2
100
AcDbArc
 50
90.0
 51
180.0
  0
ARC
  5
390
100
AcDbEntity
  8
2
370
    50
100
AcDbCircle
 10
-239.128243
 20
-82.197866
 30
0.0
 40
2.5
100
AcDbArc
 50
143.130102
 51
180.0
  0
ARC
  5
391
100
AcDbEntity
  8
2
370
    50
100
AcDbCircle
 10
-231.128243
 20
-82.197866
 30
0.0
 40
2.5
100
AcDbArc
 50
0.0
 51
36.869898
  0
LINE
  5
392
100
AcDbEntity
  8
2
370
    25
100
AcDbLine
 10
-241.608983
 20
-94.697866
 30
0.0
 11
-241.608983
 21
-82.197866
 31
0.0
  0
LINE
  5
393
100
AcDbEntity
  8
2
370
    25
100
AcDbLine
 10
-240.064372
 20
-94.697866
 30
0.0
 11
-240.064372
 21
-82.197866
 31
0.0
  0
LINE
  5
394
100
AcDbEntity
  8
2
370
    25
100
AcDbLine
 10
-239.357265
 20
-94.697866
 30
0.0
 11
-239.357265
 21
-82.197866
 31
0.0
  0
LINE
  5
395
100
AcDbEntity
  8
2
370
    25
100
AcDbLine
 10
-235.628243
 20
-94.697866
 30
0.0
 11
-235.628243
 21
-82.197866
 31
0.0
  0
LINE
  5
396
100
AcDbEntity
  8
2
370
    25
100
AcDbLine
 10
-234.628243
 20
-94.697866
 30
0.0
 11
-234.628243
 21
-82.197866
 31
0.0
  0
LINE
  5
397
100
AcDbEntity
  8
2
370
    25
100
AcDbLine
 10
-230.89922
 20
-94.697866
 30
0.0
 11
-230.89922
 21
-82.197866
 31
0.0
  0
LINE
  5
398
100
AcDbEntity
  8
2
370
    25
100
AcDbLine
 10
-230.192114
 20
-94.697866
 30
0.0
 11
-230.192114
 21
-82.197866
 31
0.0
  0
LINE
  5
399
100
AcDbEntity
  8
2
370
    25
100
AcDbLine
 10
-228.647502
 20
-94.697866
 30
0.0
 11
-228.647502
 21
-82.197866
 31
0.0
  0
ARC
  5
39A
100
AcDbEntity
  8
2
370
    50
100
AcDbCircle
 10
-235.128243
 20
-67.594236
 30
0.0
 40
10.10363
100
AcDbArc
 50
256.270867
 51
270.0
  0
LINE
  5
39B
100
AcDbEntity
  8
2
370
    50
100
AcDbLine
 10
-238.692425
 20
-77.409191
 30
0.0
 11
-237.526158
 21
-77.409191
 31
0.0
  0
LINE
  5
39C
100
AcDbEntity
  8
2
370
    50
100
AcDbLine
 10
-237.526158
 20
-73.296998
 30
0.0
 11
-237.526158
 21
-77.409191
 31
0.0
  0
LINE
  5
39D
100
AcDbEntity
  8
2
370
    50
100
AcDbLine
 10
-238.692425
 20
-73.296998
 30
0.0
 11
-238.692425
 21
-77.409191
 31
0.0
  0
ARC
  5
39E
100
AcDbEntity
  8
2
370
    50
100
AcDbCircle
 10
-239.891382
 20
-75.063705
 30
0.0
 40
2.634161
100
AcDbArc
 50
242.924933
 51
297.075067
  0
LINE
  5
39F
100
AcDbEntity
  8
2
370
    50
100
AcDbLine
 10
-240.878243
 20
-121.697866
 30
0.0
 11
-240.878243
 21
-94.697866
 31
0.0
  0
LINE
  5
3A0
100
AcDbEntity
  8
2
370
    50
100
AcDbLine
 10
-229.378243
 20
-121.697866
 30
0.0
 11
-229.378243
 21
-94.697866
 31
0.0
  0
LINE
  5
3A1
100
AcDbEntity
  8
2
370
    50
100
AcDbLine
 10
-241.09034
 20
-73.296998
 30
0.0
 11
-241.09034
 21
-77.409191
 31
0.0
  0
LINE
  5
3A2
100
AcDbEntity
  8
2
370
    50
100
AcDbLine
 10
-241.09034
 20
-77.409191
 30
0.0
 11
-241.128243
 21
-77.409191
 31
0.0
  0
ARC
  5
3A3
100
AcDbEntity
  8
2
370
    50
100
AcDbCircle
 10
-238.003243
 20
-117.864533
 30
0.0
 40
4.791667
100
AcDbArc
 50
233.130102
 51
306.869898
  0
ARC
  5
3A4
100
AcDbEntity
  8
2
370
    50
100
AcDbCircle
 10
-232.253243
 20
-125.531199
 30
0.0
 40
4.791667
100
AcDbArc
 50
53.130102
 51
126.869898
  0
ARC
  5
3A5
100
AcDbEntity
  8
2
370
    50
100
AcDbCircle
 10
-232.253243
 20
-117.864533
 30
0.0
 40
4.791667
100
AcDbArc
 50
233.130102
 51
306.869898
  0
LINE
  5
3A6
100
AcDbEntity
  8
2
370
    25
  6
CENTER
100
AcDbLine
 10
-219.128243
 20
-130.832348
 30
0.0
 11
-219.128243
 21
-103.854773
 31
0.0
  0
LINE
  5
3A7
100
AcDbEntity
  8
2
370
    50
100
AcDbLine
 10
-225.128243
 20
-77.409191
 30
0.0
 11
-225.128243
 21
-73.296998
 31
0.0
  0
LINE
  5
3A8
100
AcDbEntity
  8
2
370
    50
100
AcDbLine
 10
-213.128243
 20
-77.409191
 30
0.0
 11
-213.128243
 21
-73.296998
 31
0.0
  0
LINE
  5
3A9
100
AcDbEntity
  8
2
370
    50
100
AcDbLine
 10
-213.328243
 20
-77.697866
 30
0.0
 11
-224.928243
 21
-77.697866
 31
0.0
  0
LINE
  5
3AA
100
AcDbEntity
  8
2
370
    50
100
AcDbLine
 10
-216.730327
 20
-73.296998
 30
0.0
 11
-216.730327
 21
-77.409191
 31
0.0
  0
LINE
  5
3AB
100
AcDbEntity
  8
2
370
    50
100
AcDbLine
 10
-215.564061
 20
-73.296998
 30
0.0
 11
-215.564061
 21
-77.409191
 31
0.0
  0
LINE
  5
3AC
100
AcDbEntity
  8
2
370
    50
100
AcDbLine
 10
-213.166145
 20
-73.296998
 30
0.0
 11
-213.166145
 21
-77.409191
 31
0.0
  0
LINE
  5
3AD
100
AcDbEntity
  8
2
370
    50
100
AcDbLine
 10
-213.628243
 20
-77.697866
 30
0.0
 11
-213.128243
 21
-77.409191
 31
0.0
  0
LINE
  5
3AE
100
AcDbEntity
  8
2
370
    50
100
AcDbLine
 10
-215.564061
 20
-77.409191
 30
0.0
 11
-216.730327
 21
-77.409191
 31
0.0
  0
LINE
  5
3AF
100
AcDbEntity
  8
2
370
    50
100
AcDbLine
 10
-225.128243
 20
-77.409191
 30
0.0
 11
-224.628243
 21
-77.697866
 31
0.0
  0
ARC
  5
3B0
100
AcDbEntity
  8
2
370
    50
100
AcDbCircle
 10
-219.128243
 20
-67.594236
 30
0.0
 40
10.10363
100
AcDbArc
 50
270.0
 51
283.729133
  0
LINE
  5
3B1
100
AcDbEntity
  8
2
370
    50
100
AcDbLine
 10
-213.128243
 20
-77.409191
 30
0.0
 11
-213.166145
 21
-77.409191
 31
0.0
  0
ARC
  5
3B2
100
AcDbEntity
  8
2
370
    50
100
AcDbCircle
 10
-214.365103
 20
-75.063705
 30
0.0
 40
2.634161
100
AcDbArc
 50
242.924933
 51
297.075067
  0
LINE
  5
3B3
100
AcDbEntity
  8
2
370
    50
100
AcDbLine
 10
-225.628243
 20
-94.697866
 30
0.0
 11
-212.628243
 21
-94.697866
 31
0.0
  0
LINE
  5
3B4
100
AcDbEntity
  8
2
370
    50
100
AcDbLine
 10
-225.628243
 20
-94.697866
 30
0.0
 11
-225.628243
 21
-82.197866
 31
0.0
  0
LINE
  5
3B5
100
AcDbEntity
  8
2
370
    50
100
AcDbLine
 10
-223.002573
 20
-80.697866
 30
0.0
 11
-223.002573
 21
-78.197866
 31
0.0
  0
LINE
  5
3B6
100
AcDbEntity
  8
2
370
    50
100
AcDbLine
 10
-223.70968
 20
-80.697866
 30
0.0
 11
-223.70968
 21
-78.197866
 31
0.0
  0
LINE
  5
3B7
100
AcDbEntity
  8
2
370
    50
100
AcDbLine
 10
-225.107373
 20
-80.697866
 30
0.0
 11
-225.107373
 21
-78.197866
 31
0.0
  0
LINE
  5
3B8
100
AcDbEntity
  8
2
370
    50
100
AcDbLine
 10
-225.128243
 20
-80.697866
 30
0.0
 11
-225.128243
 21
-77.897866
 31
0.0
  0
LINE
  5
3B9
100
AcDbEntity
  8
2
370
    50
100
AcDbLine
 10
-219.628243
 20
-80.697866
 30
0.0
 11
-219.628243
 21
-78.197866
 31
0.0
  0
LINE
  5
3BA
100
AcDbEntity
  8
2
370
    50
100
AcDbLine
 10
-218.628243
 20
-80.697866
 30
0.0
 11
-218.628243
 21
-78.197866
 31
0.0
  0
LINE
  5
3BB
100
AcDbEntity
  8
2
370
    50
100
AcDbLine
 10
-215.253912
 20
-80.697866
 30
0.0
 11
-215.253912
 21
-78.197866
 31
0.0
  0
LINE
  5
3BC
100
AcDbEntity
  8
2
370
    50
100
AcDbLine
 10
-214.546806
 20
-80.697866
 30
0.0
 11
-214.546806
 21
-78.197866
 31
0.0
  0
LINE
  5
3BD
100
AcDbEntity
  8
2
370
    50
100
AcDbLine
 10
-213.128243
 20
-80.697866
 30
0.0
 11
-213.128243
 21
-77.897866
 31
0.0
  0
LINE
  5
3BE
100
AcDbEntity
  8
2
370
    50
100
AcDbLine
 10
-213.149112
 20
-80.697866
 30
0.0
 11
-213.149112
 21
-78.197866
 31
0.0
  0
LINE
  5
3BF
100
AcDbEntity
  8
2
370
    50
100
AcDbLine
 10
-223.70968
 20
-78.197866
 30
0.0
 11
-225.128243
 21
-78.197866
 31
0.0
  0
LINE
  5
3C0
100
AcDbEntity
  8
2
370
    50
100
AcDbLine
 10
-219.628243
 20
-78.197866
 30
0.0
 11
-223.002573
 21
-78.197866
 31
0.0
  0
LINE
  5
3C1
100
AcDbEntity
  8
2
370
    50
100
AcDbLine
 10
-213.128243
 20
-78.197866
 30
0.0
 11
-214.546806
 21
-78.197866
 31
0.0
  0
LINE
  5
3C2
100
AcDbEntity
  8
2
370
    50
100
AcDbLine
 10
-215.253912
 20
-78.197866
 30
0.0
 11
-218.628243
 21
-78.197866
 31
0.0
  0
LINE
  5
3C3
100
AcDbEntity
  8
2
370
    50
100
AcDbLine
 10
-223.70968
 20
-80.697866
 30
0.0
 11
-225.128243
 21
-80.697866
 31
0.0
  0
LINE
  5
3C4
100
AcDbEntity
  8
2
370
    50
100
AcDbLine
 10
-219.628243
 20
-80.697866
 30
0.0
 11
-223.002573
 21
-80.697866
 31
0.0
  0
LINE
  5
3C5
100
AcDbEntity
  8
2
370
    50
100
AcDbLine
 10
-213.128243
 20
-80.697866
 30
0.0
 11
-214.546806
 21
-80.697866
 31
0.0
  0
LINE
  5
3C6
100
AcDbEntity
  8
2
370
    50
100
AcDbLine
 10
-215.253912
 20
-80.697866
 30
0.0
 11
-218.628243
 21
-80.697866
 31
0.0
  0
ARC
  5
3C7
100
AcDbEntity
  8
2
370
    50
100
AcDbCircle
 10
-213.328243
 20
-77.897866
 30
0.0
 40
0.2
100
AcDbArc
 50
0.0
 51
90.0
  0
ARC
  5
3C8
100
AcDbEntity
  8
2
370
    50
100
AcDbCircle
 10
-224.928243
 20
-77.897866
 30
0.0
 40
0.2
100
AcDbArc
 50
90.0
 51
180.0
  0
ARC
  5
3C9
100
AcDbEntity
  8
2
370
    50
100
AcDbCircle
 10
-223.128243
 20
-82.197866
 30
0.0
 40
2.5
100
AcDbArc
 50
143.130102
 51
180.0
  0
ARC
  5
3CA
100
AcDbEntity
  8
2
370
    50
100
AcDbCircle
 10
-215.128243
 20
-82.197866
 30
0.0
 40
2.5
100
AcDbArc
 50
0.0
 51
36.869898
  0
LINE
  5
3CB
100
AcDbEntity
  8
2
370
    25
100
AcDbLine
 10
-225.608983
 20
-94.697866
 30
0.0
 11
-225.608983
 21
-82.197866
 31
0.0
  0
LINE
  5
3CC
100
AcDbEntity
  8
2
370
    25
100
AcDbLine
 10
-224.064372
 20
-94.697866
 30
0.0
 11
-224.064372
 21
-82.197866
 31
0.0
  0
LINE
  5
3CD
100
AcDbEntity
  8
2
370
    25
100
AcDbLine
 10
-223.357265
 20
-94.697866
 30
0.0
 11
-223.357265
 21
-82.197866
 31
0.0
  0
LINE
  5
3CE
100
AcDbEntity
  8
2
370
    25
100
AcDbLine
 10
-219.628243
 20
-94.697866
 30
0.0
 11
-219.628243
 21
-82.197866
 31
0.0
  0
LINE
  5
3CF
100
AcDbEntity
  8
2
370
    25
100
AcDbLine
 10
-218.628243
 20
-94.697866
 30
0.0
 11
-218.628243
 21
-82.197866
 31
0.0
  0
LINE
  5
3D0
100
AcDbEntity
  8
2
370
    25
100
AcDbLine
 10
-214.89922
 20
-94.697866
 30
0.0
 11
-214.89922
 21
-82.197866
 31
0.0
  0
LINE
  5
3D1
100
AcDbEntity
  8
2
370
    25
100
AcDbLine
 10
-214.192114
 20
-94.697866
 30
0.0
 11
-214.192114
 21
-82.197866
 31
0.0
  0
LINE
  5
3D2
100
AcDbEntity
  8
2
370
    25
100
AcDbLine
 10
-212.647502
 20
-94.697866
 30
0.0
 11
-212.647502
 21
-82.197866
 31
0.0
  0
ARC
  5
3D3
100
AcDbEntity
  8
2
370
    50
100
AcDbCircle
 10
-219.128243
 20
-67.594236
 30
0.0
 40
10.10363
100
AcDbArc
 50
256.270867
 51
270.0
  0
LINE
  5
3D4
100
AcDbEntity
  8
2
370
    50
100
AcDbLine
 10
-222.692425
 20
-77.409191
 30
0.0
 11
-221.526158
 21
-77.409191
 31
0.0
  0
LINE
  5
3D5
100
AcDbEntity
  8
2
370
    50
100
AcDbLine
 10
-221.526158
 20
-73.296998
 30
0.0
 11
-221.526158
 21
-77.409191
 31
0.0
  0
LINE
  5
3D6
100
AcDbEntity
  8
2
370
    50
100
AcDbLine
 10
-222.692425
 20
-73.296998
 30
0.0
 11
-222.692425
 21
-77.409191
 31
0.0
  0
ARC
  5
3D7
100
AcDbEntity
  8
2
370
    50
100
AcDbCircle
 10
-223.891382
 20
-75.063705
 30
0.0
 40
2.634161
100
AcDbArc
 50
242.924933
 51
297.075067
  0
LINE
  5
3D8
100
AcDbEntity
  8
2
370
    50
100
AcDbLine
 10
-224.878243
 20
-121.697866
 30
0.0
 11
-224.878243
 21
-94.697866
 31
0.0
  0
LINE
  5
3D9
100
AcDbEntity
  8
2
370
    50
100
AcDbLine
 10
-213.378243
 20
-121.697866
 30
0.0
 11
-213.378243
 21
-94.697866
 31
0.0
  0
LINE
  5
3DA
100
AcDbEntity
  8
2
370
    50
100
AcDbLine
 10
-225.09034
 20
-73.296998
 30
0.0
 11
-225.09034
 21
-77.409191
 31
0.0
  0
LINE
  5
3DB
100
AcDbEntity
  8
2
370
    50
100
AcDbLine
 10
-225.09034
 20
-77.409191
 30
0.0
 11
-225.128243
 21
-77.409191
 31
0.0
  0
ARC
  5
3DC
100
AcDbEntity
  8
2
370
    50
100
AcDbCircle
 10
-222.003243
 20
-117.864533
 30
0.0
 40
4.791667
100
AcDbArc
 50
233.130102
 51
306.869898
  0
ARC
  5
3DD
100
AcDbEntity
  8
2
370
    50
100
AcDbCircle
 10
-216.253243
 20
-125.531199
 30
0.0
 40
4.791667
100
AcDbArc
 50
53.130102
 51
126.869898
  0
ARC
  5
3DE
100
AcDbEntity
  8
2
370
    50
100
AcDbCircle
 10
-216.253243
 20
-117.864533
 30
0.0
 40
4.791667
100
AcDbArc
 50
233.130102
 51
306.869898
  0
LINE
  5
3DF
100
AcDbEntity
  8
2
370
    50
100
AcDbLine
 10
-228.628243
 20
-82.197866
 30
0.0
 11
-228.628243
 21
-94.697866
 31
0.0
  0
ARC
  5
3E0
100
AcDbEntity
  8
2
370
    50
100
AcDbCircle
 10
-252.796694
 20
-122.864533
 30
0.0
 40
4.791667
100
AcDbArc
 50
233.130102
 51
306.869898
  0
ARC
  5
3E1
100
AcDbEntity
  8
2
370
    50
100
AcDbCircle
 10
-247.046694
 20
-130.531199
 30
0.0
 40
4.791667
100
AcDbArc
 50
53.130102
 51
126.869898
  0
ARC
  5
3E2
100
AcDbEntity
  8
2
370
    50
100
AcDbCircle
 10
-247.046694
 20
-122.864533
 30
0.0
 40
4.791667
100
AcDbArc
 50
233.130102
 51
306.869898
  0
LINE
  5
3E3
100
AcDbEntity
  8
2
370
    25
  6
CENTER
100
AcDbLine
 10
-235.128243
 20
-130.489348
 30
0.0
 11
-249.921694
 21
-110.69527
 31
0.0
  0
LINE
  5
3E4
100
AcDbEntity
  8
2
370
    50
100
AcDbLine
 10
108.868056
 20
-77.421471
 30
0.0
 11
108.868056
 21
-73.309278
 31
0.0
  0
LINE
  5
3E5
100
AcDbEntity
  8
2
370
    50
100
AcDbLine
 10
120.868056
 20
-77.421471
 30
0.0
 11
120.868056
 21
-73.309278
 31
0.0
  0
LINE
  5
3E6
100
AcDbEntity
  8
2
370
    50
100
AcDbLine
 10
120.668056
 20
-77.710146
 30
0.0
 11
109.068056
 21
-77.710146
 31
0.0
  0
LINE
  5
3E7
100
AcDbEntity
  8
2
370
    50
100
AcDbLine
 10
117.265972
 20
-73.309278
 30
0.0
 11
117.265972
 21
-77.421471
 31
0.0
  0
LINE
  5
3E8
100
AcDbEntity
  8
2
370
    50
100
AcDbLine
 10
118.432238
 20
-73.309278
 30
0.0
 11
118.432238
 21
-77.421471
 31
0.0
  0
LINE
  5
3E9
100
AcDbEntity
  8
2
370
    50
100
AcDbLine
 10
120.830154
 20
-73.309278
 30
0.0
 11
120.830154
 21
-77.421471
 31
0.0
  0
LINE
  5
3EA
100
AcDbEntity
  8
2
370
    50
100
AcDbLine
 10
120.368056
 20
-77.710146
 30
0.0
 11
120.868056
 21
-77.421471
 31
0.0
  0
LINE
  5
3EB
100
AcDbEntity
  8
2
370
    50
100
AcDbLine
 10
118.432238
 20
-77.421471
 30
0.0
 11
117.265972
 21
-77.421471
 31
0.0
  0
LINE
  5
3EC
100
AcDbEntity
  8
2
370
    50
100
AcDbLine
 10
108.868056
 20
-77.421471
 30
0.0
 11
109.368056
 21
-77.710146
 31
0.0
  0
ARC
  5
3ED
100
AcDbEntity
  8
2
370
    50
100
AcDbCircle
 10
114.868056
 20
-67.606516
 30
0.0
 40
10.10363
100
AcDbArc
 50
270.0
 51
283.729133
  0
LINE
  5
3EE
100
AcDbEntity
  8
2
370
    50
100
AcDbLine
 10
120.868056
 20
-77.421471
 30
0.0
 11
120.830154
 21
-77.421471
 31
0.0
  0
ARC
  5
3EF
100
AcDbEntity
  8
2
370
    50
100
AcDbCircle
 10
119.631196
 20
-75.075985
 30
0.0
 40
2.634161
100
AcDbArc
 50
242.924933
 51
297.075067
  0
LINE
  5
3F0
100
AcDbEntity
  8
2
370
    50
100
AcDbLine
 10
108.368056
 20
-94.710146
 30
0.0
 11
121.368056
 21
-94.710146
 31
0.0
  0
LINE
  5
3F1
100
AcDbEntity
  8
2
370
    50
100
AcDbLine
 10
108.368056
 20
-94.710146
 30
0.0
 11
108.368056
 21
-82.210146
 31
0.0
  0
LINE
  5
3F2
100
AcDbEntity
  8
2
370
    50
100
AcDbLine
 10
121.368056
 20
-94.710146
 30
0.0
 11
121.368056
 21
-82.210146
 31
0.0
  0
LINE
  5
3F3
100
AcDbEntity
  8
2
370
    50
100
AcDbLine
 10
110.993726
 20
-80.710146
 30
0.0
 11
110.993726
 21
-78.210146
 31
0.0
  0
LINE
  5
3F4
100
AcDbEntity
  8
2
370
    50
100
AcDbLine
 10
110.286619
 20
-80.710146
 30
0.0
 11
110.286619
 21
-78.210146
 31
0.0
  0
LINE
  5
3F5
100
AcDbEntity
  8
2
370
    50
100
AcDbLine
 10
108.888926
 20
-80.710146
 30
0.0
 11
108.888926
 21
-78.210146
 31
0.0
  0
LINE
  5
3F6
100
AcDbEntity
  8
2
370
    50
100
AcDbLine
 10
108.868056
 20
-80.710146
 30
0.0
 11
108.868056
 21
-77.910146
 31
0.0
  0
LINE
  5
3F7
100
AcDbEntity
  8
2
370
    50
100
AcDbLine
 10
114.368056
 20
-80.710146
 30
0.0
 11
114.368056
 21
-78.210146
 31
0.0
  0
LINE
  5
3F8
100
AcDbEntity
  8
2
370
    50
100
AcDbLine
 10
115.368056
 20
-80.710146
 30
0.0
 11
115.368056
 21
-78.210146
 31
0.0
  0
LINE
  5
3F9
100
AcDbEntity
  8
2
370
    50
100
AcDbLine
 10
118.742387
 20
-80.710146
 30
0.0
 11
118.742387
 21
-78.210146
 31
0.0
  0
LINE
  5
3FA
100
AcDbEntity
  8
2
370
    50
100
AcDbLine
 10
119.449493
 20
-80.710146
 30
0.0
 11
119.449493
 21
-78.210146
 31
0.0
  0
LINE
  5
3FB
100
AcDbEntity
  8
2
370
    50
100
AcDbLine
 10
120.868056
 20
-80.710146
 30
0.0
 11
120.868056
 21
-77.910146
 31
0.0
  0
LINE
  5
3FC
100
AcDbEntity
  8
2
370
    50
100
AcDbLine
 10
120.847187
 20
-80.710146
 30
0.0
 11
120.847187
 21
-78.210146
 31
0.0
  0
LINE
  5
3FD
100
AcDbEntity
  8
2
370
    50
100
AcDbLine
 10
110.286619
 20
-78.210146
 30
0.0
 11
108.868056
 21
-78.210146
 31
0.0
  0
LINE
  5
3FE
100
AcDbEntity
  8
2
370
    50
100
AcDbLine
 10
114.368056
 20
-78.210146
 30
0.0
 11
110.993726
 21
-78.210146
 31
0.0
  0
LINE
  5
3FF
100
AcDbEntity
  8
2
370
    50
100
AcDbLine
 10
120.868056
 20
-78.210146
 30
0.0
 11
119.449493
 21
-78.210146
 31
0.0
  0
LINE
  5
400
100
AcDbEntity
  8
2
370
    50
100
AcDbLine
 10
118.742387
 20
-78.210146
 30
0.0
 11
115.368056
 21
-78.210146
 31
0.0
  0
LINE
  5
401
100
AcDbEntity
  8
2
370
    50
100
AcDbLine
 10
110.286619
 20
-80.710146
 30
0.0
 11
108.868056
 21
-80.710146
 31
0.0
  0
LINE
  5
402
100
AcDbEntity
  8
2
370
    50
100
AcDbLine
 10
114.368056
 20
-80.710146
 30
0.0
 11
110.993726
 21
-80.710146
 31
0.0
  0
LINE
  5
403
100
AcDbEntity
  8
2
370
    50
100
AcDbLine
 10
120.868056
 20
-80.710146
 30
0.0
 11
119.449493
 21
-80.710146
 31
0.0
  0
LINE
  5
404
100
AcDbEntity
  8
2
370
    50
100
AcDbLine
 10
118.742387
 20
-80.710146
 30
0.0
 11
115.368056
 21
-80.710146
 31
0.0
  0
ARC
  5
405
100
AcDbEntity
  8
2
370
    50
100
AcDbCircle
 10
120.668056
 20
-77.910146
 30
0.0
 40
0.2
100
AcDbArc
 50
0.0
 51
90.0
  0
ARC
  5
406
100
AcDbEntity
  8
2
370
    50
100
AcDbCircle
 10
109.068056
 20
-77.910146
 30
0.0
 40
0.2
100
AcDbArc
 50
90.0
 51
180.0
  0
ARC
  5
407
100
AcDbEntity
  8
2
370
    50
100
AcDbCircle
 10
110.868056
 20
-82.210146
 30
0.0
 40
2.5
100
AcDbArc
 50
143.130102
 51
180.0
  0
ARC
  5
408
100
AcDbEntity
  8
2
370
    50
100
AcDbCircle
 10
118.868056
 20
-82.210146
 30
0.0
 40
2.5
100
AcDbArc
 50
0.0
 51
36.869898
  0
LINE
  5
409
100
AcDbEntity
  8
2
370
    25
100
AcDbLine
 10
108.387316
 20
-94.710146
 30
0.0
 11
108.387316
 21
-82.210146
 31
0.0
  0
LINE
  5
40A
100
AcDbEntity
  8
2
370
    25
100
AcDbLine
 10
109.931927
 20
-94.710146
 30
0.0
 11
109.931927
 21
-82.210146
 31
0.0
  0
LINE
  5
40B
100
AcDbEntity
  8
2
370
    25
100
AcDbLine
 10
110.639034
 20
-94.710146
 30
0.0
 11
110.639034
 21
-82.210146
 31
0.0
  0
LINE
  5
40C
100
AcDbEntity
  8
2
370
    25
100
AcDbLine
 10
114.368056
 20
-94.710146
 30
0.0
 11
114.368056
 21
-82.210146
 31
0.0
  0
LINE
  5
40D
100
AcDbEntity
  8
2
370
    25
100
AcDbLine
 10
115.368056
 20
-94.710146
 30
0.0
 11
115.368056
 21
-82.210146
 31
0.0
  0
LINE
  5
40E
100
AcDbEntity
  8
2
370
    25
100
AcDbLine
 10
119.097079
 20
-94.710146
 30
0.0
 11
119.097079
 21
-82.210146
 31
0.0
  0
LINE
  5
40F
100
AcDbEntity
  8
2
370
    25
100
AcDbLine
 10
119.804186
 20
-94.710146
 30
0.0
 11
119.804186
 21
-82.210146
 31
0.0
  0
LINE
  5
410
100
AcDbEntity
  8
2
370
    25
100
AcDbLine
 10
121.348797
 20
-94.710146
 30
0.0
 11
121.348797
 21
-82.210146
 31
0.0
  0
ARC
  5
411
100
AcDbEntity
  8
2
370
    50
100
AcDbCircle
 10
114.868056
 20
-67.606516
 30
0.0
 40
10.10363
100
AcDbArc
 50
256.270867
 51
270.0
  0
LINE
  5
412
100
AcDbEntity
  8
2
370
    50
100
AcDbLine
 10
111.303875
 20
-77.421471
 30
0.0
 11
112.470141
 21
-77.421471
 31
0.0
  0
LINE
  5
413
100
AcDbEntity
  8
2
370
    50
100
AcDbLine
 10
112.470141
 20
-73.309278
 30
0.0
 11
112.470141
 21
-77.421471
 31
0.0
  0
LINE
  5
414
100
AcDbEntity
  8
2
370
    50
100
AcDbLine
 10
111.303874
 20
-73.309278
 30
0.0
 11
111.303875
 21
-77.421471
 31
0.0
  0
ARC
  5
415
100
AcDbEntity
  8
2
370
    50
100
AcDbCircle
 10
110.104917
 20
-75.075985
 30
0.0
 40
2.634161
100
AcDbArc
 50
242.924933
 51
297.075067
  0
LINE
  5
416
100
AcDbEntity
  8
2
370
    50
100
AcDbLine
 10
109.118056
 20
-121.710146
 30
0.0
 11
109.118056
 21
-94.710146
 31
0.0
  0
LINE
  5
417
100
AcDbEntity
  8
2
370
    50
100
AcDbLine
 10
120.618056
 20
-121.710146
 30
0.0
 11
120.618056
 21
-94.710146
 31
0.0
  0
LINE
  5
418
100
AcDbEntity
  8
2
370
    50
100
AcDbLine
 10
108.905959
 20
-73.309278
 30
0.0
 11
108.905959
 21
-77.421471
 31
0.0
  0
LINE
  5
419
100
AcDbEntity
  8
2
370
    50
100
AcDbLine
 10
108.905959
 20
-77.421471
 30
0.0
 11
108.868056
 21
-77.421471
 31
0.0
  0
ARC
  5
41A
100
AcDbEntity
  8
2
370
    50
100
AcDbCircle
 10
111.993056
 20
-117.876813
 30
0.0
 40
4.791667
100
AcDbArc
 50
233.130102
 51
306.869898
  0
ARC
  5
41B
100
AcDbEntity
  8
2
370
    50
100
AcDbCircle
 10
117.743056
 20
-125.543479
 30
0.0
 40
4.791667
100
AcDbArc
 50
53.130102
 51
126.869898
  0
ARC
  5
41C
100
AcDbEntity
  8
2
370
    50
100
AcDbCircle
 10
117.743056
 20
-117.876813
 30
0.0
 40
4.791667
100
AcDbArc
 50
233.130102
 51
306.869898
  0
LINE
  5
41D
100
AcDbEntity
  8
2
370
    50
100
AcDbLine
 10
108.367562
 20
-144.697553
 30
0.0
 11
121.367562
 21
-144.697553
 31
0.0
  0
LINE
  5
41E
100
AcDbEntity
  8
2
370
    50
100
AcDbLine
 10
110.286125
 20
-158.697553
 30
0.0
 11
108.867562
 21
-158.697553
 31
0.0
  0
LINE
  5
41F
100
AcDbEntity
  8
2
370
    50
100
AcDbLine
 10
110.286125
 20
-161.197553
 30
0.0
 11
108.867562
 21
-161.197553
 31
0.0
  0
ARC
  5
420
100
AcDbEntity
  8
2
370
    50
100
AcDbCircle
 10
109.067562
 20
-161.497553
 30
0.0
 40
0.2
100
AcDbArc
 50
180.0
 51
270.0
  0
LINE
  5
421
100
AcDbEntity
  8
2
370
    50
100
AcDbLine
 10
114.367562
 20
-161.197553
 30
0.0
 11
110.993232
 21
-161.197553
 31
0.0
  0
LINE
  5
422
100
AcDbEntity
  8
2
370
    50
100
AcDbLine
 10
114.367562
 20
-158.697553
 30
0.0
 11
110.993232
 21
-158.697553
 31
0.0
  0
LINE
  5
423
100
AcDbEntity
  8
2
370
    50
100
AcDbLine
 10
118.741892
 20
-161.197553
 30
0.0
 11
115.367562
 21
-161.197553
 31
0.0
  0
LINE
  5
424
100
AcDbEntity
  8
2
370
    50
100
AcDbLine
 10
118.741892
 20
-158.697553
 30
0.0
 11
115.367562
 21
-158.697553
 31
0.0
  0
LINE
  5
425
100
AcDbEntity
  8
2
370
    50
100
AcDbLine
 10
120.867562
 20
-161.197553
 30
0.0
 11
119.448999
 21
-161.197553
 31
0.0
  0
LINE
  5
426
100
AcDbEntity
  8
2
370
    50
100
AcDbLine
 10
120.867562
 20
-158.697553
 30
0.0
 11
119.448999
 21
-158.697553
 31
0.0
  0
ARC
  5
427
100
AcDbEntity
  8
2
370
    50
100
AcDbCircle
 10
120.667562
 20
-161.497553
 30
0.0
 40
0.2
100
AcDbArc
 50
270.0
 51
360.0
  0
LINE
  5
428
100
AcDbEntity
  8
2
370
    50
100
AcDbLine
 10
120.867562
 20
-158.697553
 30
0.0
 11
120.867562
 21
-161.497553
 31
0.0
  0
LINE
  5
429
100
AcDbEntity
  8
2
370
    50
100
AcDbLine
 10
120.846693
 20
-158.697553
 30
0.0
 11
120.846693
 21
-161.197553
 31
0.0
  0
ARC
  5
42A
100
AcDbEntity
  8
2
370
    50
100
AcDbCircle
 10
118.867562
 20
-157.197553
 30
0.0
 40
2.5
100
AcDbArc
 50
323.130102
 51
360.0
  0
LINE
  5
42B
100
AcDbEntity
  8
2
370
    50
100
AcDbLine
 10
119.448999
 20
-158.697553
 30
0.0
 11
119.448999
 21
-161.197553
 31
0.0
  0
LINE
  5
42C
100
AcDbEntity
  8
2
370
    50
100
AcDbLine
 10
118.741892
 20
-158.697553
 30
0.0
 11
118.741892
 21
-161.197553
 31
0.0
  0
LINE
  5
42D
100
AcDbEntity
  8
2
370
    50
100
AcDbLine
 10
115.367562
 20
-158.697553
 30
0.0
 11
115.367562
 21
-161.197553
 31
0.0
  0
LINE
  5
42E
100
AcDbEntity
  8
2
370
    50
100
AcDbLine
 10
114.367562
 20
-158.697553
 30
0.0
 11
114.367562
 21
-161.197553
 31
0.0
  0
LINE
  5
42F
100
AcDbEntity
  8
2
370
    50
100
AcDbLine
 10
110.286125
 20
-158.697553
 30
0.0
 11
110.286125
 21
-161.197553
 31
0.0
  0
LINE
  5
430
100
AcDbEntity
  8
2
370
    50
100
AcDbLine
 10
110.993232
 20
-158.697553
 30
0.0
 11
110.993232
 21
-161.197553
 31
0.0
  0
LINE
  5
431
100
AcDbEntity
  8
2
370
    50
100
AcDbLine
 10
108.867562
 20
-158.697553
 30
0.0
 11
108.867562
 21
-161.497553
 31
0.0
  0
LINE
  5
432
100
AcDbEntity
  8
2
370
    50
100
AcDbLine
 10
108.888432
 20
-158.697553
 30
0.0
 11
108.888432
 21
-161.197553
 31
0.0
  0
ARC
  5
433
100
AcDbEntity
  8
2
370
    50
100
AcDbCircle
 10
110.867562
 20
-157.197553
 30
0.0
 40
2.5
100
AcDbArc
 50
180.0
 51
216.869898
  0
LINE
  5
434
100
AcDbEntity
  8
2
370
    50
100
AcDbLine
 10
108.367562
 20
-144.697553
 30
0.0
 11
108.367562
 21
-157.197553
 31
0.0
  0
LINE
  5
435
100
AcDbEntity
  8
2
370
    25
100
AcDbLine
 10
109.931433
 20
-144.697553
 30
0.0
 11
109.931433
 21
-157.197553
 31
0.0
  0
LINE
  5
436
100
AcDbEntity
  8
2
370
    25
100
AcDbLine
 10
110.63854
 20
-144.697553
 30
0.0
 11
110.63854
 21
-157.197553
 31
0.0
  0
LINE
  5
437
100
AcDbEntity
  8
2
370
    25
100
AcDbLine
 10
114.367562
 20
-144.697553
 30
0.0
 11
114.367562
 21
-157.197553
 31
0.0
  0
LINE
  5
438
100
AcDbEntity
  8
2
370
    25
100
AcDbLine
 10
115.367562
 20
-144.697553
 30
0.0
 11
115.367562
 21
-157.197553
 31
0.0
  0
LINE
  5
439
100
AcDbEntity
  8
2
370
    25
100
AcDbLine
 10
119.096585
 20
-144.697553
 30
0.0
 11
119.096585
 21
-157.197553
 31
0.0
  0
LINE
  5
43A
100
AcDbEntity
  8
2
370
    25
100
AcDbLine
 10
119.803691
 20
-144.697553
 30
0.0
 11
119.803691
 21
-157.197553
 31
0.0
  0
LINE
  5
43B
100
AcDbEntity
  8
2
370
    25
100
AcDbLine
 10
121.348303
 20
-144.697553
 30
0.0
 11
121.348303
 21
-157.197553
 31
0.0
  0
LINE
  5
43C
100
AcDbEntity
  8
2
370
    50
100
AcDbLine
 10
121.367562
 20
-144.697553
 30
0.0
 11
121.367562
 21
-157.197553
 31
0.0
  0
LINE
  5
43D
100
AcDbEntity
  8
2
370
    50
100
AcDbLine
 10
121.867562
 20
-161.697553
 30
0.0
 11
107.867562
 21
-161.697553
 31
0.0
  0
LINE
  5
43E
100
AcDbEntity
  8
2
370
    50
100
AcDbLine
 10
107.867562
 20
-161.697553
 30
0.0
 11
107.367562
 21
-162.197553
 31
0.0
  0
LINE
  5
43F
100
AcDbEntity
  8
2
370
    50
100
AcDbLine
 10
122.367562
 20
-162.197553
 30
0.0
 11
121.867562
 21
-161.697553
 31
0.0
  0
LINE
  5
440
100
AcDbEntity
  8
2
370
    50
100
AcDbLine
 10
122.367562
 20
-162.197553
 30
0.0
 11
107.367562
 21
-162.197553
 31
0.0
  0
LINE
  5
441
100
AcDbEntity
  8
2
370
    50
100
AcDbLine
 10
109.117562
 20
-144.697553
 30
0.0
 11
109.117562
 21
-126.710146
 31
0.0
  0
LINE
  5
442
100
AcDbEntity
  8
2
370
    50
100
AcDbLine
 10
120.617562
 20
-144.697553
 30
0.0
 11
120.617562
 21
-126.710146
 31
0.0
  0
LINE
  5
443
100
AcDbEntity
  8
2
370
    50
100
AcDbLine
 10
107.367562
 20
-163.497553
 30
0.0
 11
107.367562
 21
-162.197553
 31
0.0
  0
LINE
  5
444
100
AcDbEntity
  8
2
370
    50
100
AcDbLine
 10
122.367562
 20
-163.497553
 30
0.0
 11
122.367562
 21
-162.197553
 31
0.0
  0
ARC
  5
445
100
AcDbEntity
  8
2
370
    50
100
AcDbCircle
 10
111.992809
 20
-122.876483
 30
0.0
 40
4.792079
100
AcDbArc
 50
233.130102
 51
306.869898
  0
ARC
  5
446
100
AcDbEntity
  8
2
370
    50
100
AcDbCircle
 10
117.743304
 20
-130.543809
 30
0.0
 40
4.792079
100
AcDbArc
 50
53.130102
 51
126.869898
  0
ARC
  5
447
100
AcDbEntity
  8
2
370
    50
100
AcDbCircle
 10
111.992809
 20
-130.543809
 30
0.0
 40
4.792079
100
AcDbArc
 50
53.130102
 51
126.869898
  0
TEXT
  5
448
100
AcDbEntity
  8
2
370
    50
100
AcDbText
 10
233.219833
 20
-272.239441
 30
0.0
 40
6.0
  1
外観寸法図
 72
     5
 11
262.019833
 21
-272.239441
 31
0.0
100
AcDbText
  0
TEXT
  5
449
100
AcDbEntity
  8
2
370
    50
100
AcDbText
 10
-343.98587
 20
-77.389229
 30
0.0
 40
6.0
  1
取付ネジ　Ｗ３５山１６
 72
     5
 11
-279.18587
 21
-77.389229
 31
0.0
100
AcDbText
  0
LINE
  5
44A
100
AcDbEntity
  8
2
370
    50
100
AcDbLine
 10
88.335355
 20
20.151265
 30
0.0
 11
88.335355
 21
58.186754
 31
0.0
  0
LINE
  5
44B
100
AcDbEntity
  8
2
370
    50
100
AcDbLine
 10
141.335355
 20
20.151265
 30
0.0
 11
141.335355
 21
58.186754
 31
0.0
  0
LINE
  5
44C
100
AcDbEntity
  8
2
370
    50
100
AcDbLine
 10
141.135355
 20
19.951265
 30
0.0
 11
141.335355
 21
20.151265
 31
0.0
  0
LINE
  5
44D
100
AcDbEntity
  8
2
370
    50
100
AcDbLine
 10
88.535355
 20
19.951265
 30
0.0
 11
88.335355
 21
20.151265
 31
0.0
  0
LINE
  5
44E
100
AcDbEntity
  8
2
370
    50
100
AcDbLine
 10
138.300626
 20
58.921858
 30
0.0
 11
141.138394
 21
58.421483
 31
0.0
  0
LINE
  5
44F
100
AcDbEntity
  8
2
370
    50
100
AcDbLine
 10
141.335355
 20
58.186754
 30
0.0
 11
141.138394
 21
58.421483
 31
0.0
  0
LINE
  5
450
100
AcDbEntity
  8
2
370
    50
100
AcDbLine
 10
91.370085
 20
58.921858
 30
0.0
 11
88.532317
 21
58.421483
 31
0.0
  0
LINE
  5
451
100
AcDbEntity
  8
2
370
    50
100
AcDbLine
 10
88.335355
 20
58.186754
 30
0.0
 11
88.532317
 21
58.421483
 31
0.0
  0
LINE
  5
452
100
AcDbEntity
  8
2
370
    50
100
AcDbLine
 10
91.535355
 20
59.11882
 30
0.0
 11
91.535355
 21
65.449402
 31
0.0
  0
LINE
  5
453
100
AcDbEntity
  8
2
370
    50
100
AcDbLine
 10
138.135355
 20
59.11882
 30
0.0
 11
138.135355
 21
68.750836
 31
0.0
  0
ARC
  5
454
100
AcDbEntity
  8
2
370
    50
100
AcDbCircle
 10
91.335355
 20
59.11882
 30
0.0
 40
0.2
100
AcDbArc
 50
280.0
 51
360.0
  0
ARC
  5
455
100
AcDbEntity
  8
2
370
    50
100
AcDbCircle
 10
138.335355
 20
59.11882
 30
0.0
 40
0.2
100
AcDbArc
 50
180.0
 51
260.0
  0
ARC
  5
456
100
AcDbEntity
  8
2
370
    50
100
AcDbCircle
 10
114.835355
 20
68.750836
 30
0.0
 40
23.3
100
AcDbArc
 50
0.0
 51
22.922795
  0
LINE
  5
457
100
AcDbEntity
  8
2
370
    50
100
AcDbLine
 10
88.535355
 20
19.951265
 30
0.0
 11
141.135355
 21
19.951265
 31
0.0
  0
POINT
  5
458
100
AcDbEntity
  8
2
370
    50
100
AcDbPoint
 10
114.838028
 20
65.700844
 30
0.0
  0
LINE
  5
459
100
AcDbEntity
  8
2
370
    25
100
AcDbLine
 10
88.335355
 20
58.342363
 30
0.0
 11
141.335355
 21
58.342363
 31
0.0
  0
LINE
  5
45A
100
AcDbEntity
  8
2
370
    25
100
AcDbLine
 10
93.009072
 20
59.11882
 30
0.0
 11
138.363831
 21
59.11882
 31
0.0
  0
ARC
  5
45B
100
AcDbEntity
  8
2
370
    50
100
AcDbCircle
 10
113.776672
 20
69.661879
 30
0.0
 40
4.6
100
AcDbArc
 50
269.0
 51
301.0
  0
LINE
  5
45C
100
AcDbEntity
  8
2
370
    50
100
AcDbLine
 10
113.696391
 20
65.06258
 30
0.0
 11
87.69952
 21
65.516357
 31
0.0
  0
ARC
  5
45D
100
AcDbEntity
  8
2
370
    50
100
AcDbCircle
 10
87.708247
 20
66.016281
 30
0.0
 40
0.5
100
AcDbArc
 50
179.190352
 51
269.0
  0
LINE
  5
45E
100
AcDbEntity
  8
2
370
    50
100
AcDbLine
 10
114.485043
 20
110.054782
 30
0.0
 11
114.477904
 21
110.056829
 31
0.0
  0
LINE
  5
45F
100
AcDbEntity
  8
2
370
    50
100
AcDbLine
 10
87.401962
 20
77.070999
 30
0.0
 11
87.208651
 21
65.99619
 31
0.0
  0
LINE
  5
460
100
AcDbEntity
  8
2
370
    50
100
AcDbLine
 10
140.265727
 20
97.452911
 30
0.0
 11
-0.921003
 21
135.283782
 31
0.0
  0
ARC
  5
461
100
AcDbEntity
  8
2
370
    50
100
AcDbCircle
 10
84.157933
 20
-3.091283
 30
0.0
 40
117.14
100
AcDbArc
 50
60.836687
 51
74.997087
  0
LINE
  5
462
100
AcDbEntity
  8
2
370
    50
100
AcDbLine
 10
114.481749
 20
110.055726
 30
0.0
 11
114.488944
 21
110.053798
 31
0.0
  0
ARC
  5
463
100
AcDbEntity
  8
2
370
    50
100
AcDbCircle
 10
-401.374682
 20
-1815.175467
 30
0.0
 40
1993.144
100
AcDbArc
 50
75.0
 51
78.397692
  0
LINE
  5
464
100
AcDbEntity
  8
2
370
    50
100
AcDbLine
 10
114.481749
 20
110.055726
 30
0.0
 11
114.488944
 21
110.053798
 31
0.0
  0
LINE
  5
465
100
AcDbEntity
  8
2
370
    50
100
AcDbLine
 10
65.14782
 20
111.824558
 30
0.0
 11
8.020246
 21
127.131846
 31
0.0
  0
ARC
  5
466
100
AcDbEntity
  8
2
370
    50
100
AcDbCircle
 10
13.196627
 20
146.450362
 30
0.0
 40
20.0
100
AcDbArc
 50
218.342836
 51
255.0
  0
ARC
  5
467
100
AcDbEntity
  8
2
370
    50
100
AcDbCircle
 10
-0.921003
 20
135.283782
 30
0.0
 40
2.0
100
AcDbArc
 50
78.397692
 51
218.342836
  0
LINE
  5
468
100
AcDbEntity
  8
2
370
    50
100
AcDbLine
 10
116.145847
 20
65.71891
 30
0.0
 11
140.297607
 21
80.230751
 31
0.0
  0
ARC
  5
469
100
AcDbEntity
  8
2
370
    50
100
AcDbCircle
 10
290.371044
 20
73.52816
 30
0.0
 40
150.0
100
AcDbArc
 50
170.944004
 51
177.284124
  0
ARC
  5
46A
100
AcDbEntity
  8
2
370
    50
100
AcDbCircle
 10
140.040088
 20
80.659335
 30
0.0
 40
0.5
100
AcDbArc
 50
301.0
 51
357.284124
  0
ARC
  5
46B
100
AcDbEntity
  8
2
370
    50
100
AcDbCircle
 10
140.265727
 20
97.452911
 30
0.0
 40
2.0
100
AcDbArc
 50
350.944004
 51
60.836687
  0
ARC
  5
46C
100
AcDbEntity
  8
2
370
    50
100
AcDbCircle
 10
-62.575192
 20
79.68886
 30
0.0
 40
150.0
100
AcDbArc
 50
359.0
 51
1.507972
  0
ARC
  5
46D
100
AcDbEntity
  8
2
370
    50
100
AcDbCircle
 10
57.383249
 20
82.846784
 30
0.0
 40
30.0
100
AcDbArc
 50
1.507972
 51
75.0
  0
ARC
  5
46E
100
AcDbEntity
  8
2
370
    50
100
AcDbCircle
 10
-1272.653448
 20
-1305.079467
 30
0.0
 40
1993.144
100
AcDbArc
 50
46.886378
 51
48.397692
  0
LINE
  5
46F
100
AcDbEntity
  8
2
370
    50
100
AcDbLine
 10
82.498705
 20
142.858454
 30
0.0
 11
53.046616
 21
172.310543
 31
0.0
  0
ARC
  5
470
100
AcDbEntity
  8
2
370
    50
100
AcDbCircle
 10
67.188752
 20
186.452679
 30
0.0
 40
20.0
100
AcDbArc
 50
188.342836
 51
225.0
  0
ARC
  5
471
100
AcDbEntity
  8
2
370
    50
100
AcDbCircle
 10
49.379235
 20
183.840951
 30
0.0
 40
2.0
100
AcDbArc
 50
48.397692
 51
188.342836
  0
LINE
  5
472
100
AcDbEntity
  8
2
370
    50
100
AcDbLine
 10
105.967562
 20
-169.697553
 30
0.0
 11
105.967562
 21
-166.897553
 31
0.0
  0
LINE
  5
473
100
AcDbEntity
  8
2
370
    50
100
AcDbLine
 10
123.767562
 20
-169.697553
 30
0.0
 11
123.767562
 21
-166.897553
 31
0.0
  0
LINE
  5
474
100
AcDbEntity
  8
2
370
    50
100
AcDbLine
 10
123.767562
 20
-169.697553
 30
0.0
 11
105.967562
 21
-169.697553
 31
0.0
  0
LINE
  5
475
100
AcDbEntity
  8
2
370
    50
100
AcDbLine
 10
123.767562
 20
-166.897553
 30
0.0
 11
105.967562
 21
-166.897553
 31
0.0
  0
LINE
  5
476
100
AcDbEntity
  8
2
370
    50
100
AcDbLine
 10
105.867562
 20
-169.897553
 30
0.0
 11
105.867562
 21
-171.897553
 31
0.0
  0
LINE
  5
477
100
AcDbEntity
  8
2
370
    50
100
AcDbLine
 10
123.867562
 20
-169.897553
 30
0.0
 11
123.867562
 21
-171.897553
 31
0.0
  0
LINE
  5
478
100
AcDbEntity
  8
2
370
    50
100
AcDbLine
 10
105.867562
 20
-171.897553
 30
0.0
 11
123.867562
 21
-171.897553
 31
0.0
  0
LINE
  5
479
100
AcDbEntity
  8
2
370
    50
100
AcDbLine
 10
105.867562
 20
-169.897553
 30
0.0
 11
106.067562
 21
-169.697553
 31
0.0
  0
LINE
  5
47A
100
AcDbEntity
  8
2
370
    50
100
AcDbLine
 10
123.667562
 20
-169.697553
 30
0.0
 11
123.867562
 21
-169.897553
 31
0.0
  0
LINE
  5
47B
100
AcDbEntity
  8
2
370
    50
100
AcDbLine
 10
119.867562
 20
-169.697553
 30
0.0
 11
123.667562
 21
-169.697553
 31
0.0
  0
LINE
  5
47C
100
AcDbEntity
  8
2
370
    50
100
AcDbLine
 10
100.368015
 20
-174.997553
 30
0.0
 11
100.368015
 21
-163.997553
 31
0.0
  0
LINE
  5
47D
100
AcDbEntity
  8
2
370
    50
100
AcDbLine
 10
103.868015
 20
-167.497553
 30
0.0
 11
103.868015
 21
-171.497553
 31
0.0
  0
LINE
  5
47E
100
AcDbEntity
  8
2
370
    50
100
AcDbLine
 10
130.368015
 20
-174.497553
 30
0.0
 11
130.368015
 21
-162.497553
 31
0.0
  0
LINE
  5
47F
100
AcDbEntity
  8
2
370
    50
100
AcDbLine
 10
129.368015
 20
-161.497553
 30
0.0
 11
125.368015
 21
-161.497553
 31
0.0
  0
ARC
  5
480
100
AcDbEntity
  8
2
370
    50
100
AcDbCircle
 10
104.868015
 20
-167.497553
 30
0.0
 40
1.0
100
AcDbArc
 50
90.0
 51
180.0
  0
ARC
  5
481
100
AcDbEntity
  8
2
370
    50
100
AcDbCircle
 10
104.868015
 20
-171.497553
 30
0.0
 40
1.0
100
AcDbArc
 50
180.0
 51
270.0
  0
ARC
  5
482
100
AcDbEntity
  8
2
370
    50
100
AcDbCircle
 10
129.368015
 20
-162.497553
 30
0.0
 40
1.0
100
AcDbArc
 50
0.0
 51
90.0
  0
ARC
  5
483
100
AcDbEntity
  8
2
370
    50
100
AcDbCircle
 10
129.368015
 20
-174.497553
 30
0.0
 40
1.0
100
AcDbArc
 50
270.0
 51
360.0
  0
ARC
  5
484
100
AcDbEntity
  8
2
370
    50
100
AcDbCircle
 10
100.868015
 20
-163.997553
 30
0.0
 40
0.5
100
AcDbArc
 50
90.0
 51
180.0
  0
ARC
  5
485
100
AcDbEntity
  8
2
370
    50
100
AcDbCircle
 10
100.868015
 20
-174.997553
 30
0.0
 40
0.5
100
AcDbArc
 50
180.0
 51
270.0
  0
LINE
  5
486
100
AcDbEntity
  8
2
370
    50
100
AcDbLine
 10
129.368015
 20
-175.497553
 30
0.0
 11
122.367562
 21
-175.497553
 31
0.0
  0
LINE
  5
487
100
AcDbEntity
  8
2
370
    50
100
AcDbLine
 10
124.368015
 20
-174.497553
 30
0.0
 11
124.368015
 21
-162.497553
 31
0.0
  0
LINE
  5
488
100
AcDbEntity
  8
2
370
    50
100
AcDbLine
 10
124.368015
 20
-163.497553
 30
0.0
 11
122.367562
 21
-163.497553
 31
0.0
  0
LINE
  5
489
100
AcDbEntity
  8
2
370
    50
100
AcDbLine
 10
122.367562
 20
-163.497553
 30
0.0
 11
100.868015
 21
-163.497553
 31
0.0
  0
LINE
  5
48A
100
AcDbEntity
  8
2
370
    50
100
AcDbLine
 10
122.367562
 20
-175.497553
 30
0.0
 11
100.868015
 21
-175.497553
 31
0.0
  0
ARC
  5
48B
100
AcDbEntity
  8
2
370
    50
100
AcDbCircle
 10
125.368015
 20
-174.497553
 30
0.0
 40
1.0
100
AcDbArc
 50
180.0
 51
270.0
  0
LINE
  5
48C
100
AcDbEntity
  8
2
370
    50
100
AcDbLine
 10
124.368015
 20
-166.497553
 30
0.0
 11
122.367562
 21
-166.497553
 31
0.0
  0
LINE
  5
48D
100
AcDbEntity
  8
2
370
    50
100
AcDbLine
 10
122.367562
 20
-166.497553
 30
0.0
 11
104.868015
 21
-166.497553
 31
0.0
  0
LINE
  5
48E
100
AcDbEntity
  8
2
370
    50
100
AcDbLine
 10
124.368015
 20
-172.497553
 30
0.0
 11
122.367562
 21
-172.497553
 31
0.0
  0
LINE
  5
48F
100
AcDbEntity
  8
2
370
    50
100
AcDbLine
 10
122.367562
 20
-172.497553
 30
0.0
 11
104.868015
 21
-172.497553
 31
0.0
  0
LINE
  5
490
100
AcDbEntity
  8
2
370
    50
100
AcDbLine
 10
107.367562
 20
-166.897553
 30
0.0
 11
107.367562
 21
-166.497553
 31
0.0
  0
LINE
  5
491
100
AcDbEntity
  8
2
370
    50
100
AcDbLine
 10
122.367562
 20
-166.897553
 30
0.0
 11
122.367562
 21
-166.497553
 31
0.0
  0
LINE
  5
492
100
AcDbEntity
  8
2
370
    50
100
AcDbLine
 10
122.367562
 20
-175.897553
 30
0.0
 11
122.367562
 21
-175.497553
 31
0.0
  0
LINE
  5
493
100
AcDbEntity
  8
2
370
    50
100
AcDbLine
 10
122.367562
 20
-172.497553
 30
0.0
 11
122.367562
 21
-171.897553
 31
0.0
  0
LINE
  5
494
100
AcDbEntity
  8
2
370
    50
100
AcDbLine
 10
107.367562
 20
-175.897553
 30
0.0
 11
107.367562
 21
-175.497553
 31
0.0
  0
LINE
  5
495
100
AcDbEntity
  8
2
370
    50
100
AcDbLine
 10
107.367562
 20
-172.497553
 30
0.0
 11
107.367562
 21
-171.897553
 31
0.0
  0
ARC
  5
496
100
AcDbEntity
  8
2
370
    50
100
AcDbCircle
 10
125.368015
 20
-162.497553
 30
0.0
 40
1.0
100
AcDbArc
 50
90.0
 51
180.0
  0
LINE
  5
497
100
AcDbEntity
  8
2
370
    25
100
AcDbLine
 10
123.367562
 20
-175.497553
 30
0.0
 11
123.367562
 21
-172.497553
 31
0.0
  0
LINE
  5
498
100
AcDbEntity
  8
2
370
    25
100
AcDbLine
 10
123.367562
 20
-166.497553
 30
0.0
 11
123.367562
 21
-163.497553
 31
0.0
  0
LINE
  5
499
100
AcDbEntity
  8
2
370
    25
100
AcDbLine
 10
106.367562
 20
-175.497553
 30
0.0
 11
106.367562
 21
-172.497553
 31
0.0
  0
LINE
  5
49A
100
AcDbEntity
  8
2
370
    25
100
AcDbLine
 10
106.367562
 20
-166.497553
 30
0.0
 11
106.367562
 21
-163.497553
 31
0.0
  0
LINE
  5
49B
100
AcDbEntity
  8
2
370
    50
100
AcDbLine
 10
124.867684
 20
-176.896889
 30
0.0
 11
124.867684
 21
-204.396889
 31
0.0
  0
LINE
  5
49C
100
AcDbEntity
  8
2
370
    50
100
AcDbLine
 10
123.867684
 20
-175.896889
 30
0.0
 11
124.867684
 21
-176.896889
 31
0.0
  0
LINE
  5
49D
100
AcDbEntity
  8
2
370
    50
100
AcDbLine
 10
105.867684
 20
-175.896889
 30
0.0
 11
104.867684
 21
-176.896889
 31
0.0
  0
LINE
  5
49E
100
AcDbEntity
  8
2
370
    50
100
AcDbLine
 10
124.867684
 20
-176.896889
 30
0.0
 11
104.867684
 21
-176.896889
 31
0.0
  0
LINE
  5
49F
100
AcDbEntity
  8
2
370
    50
100
AcDbLine
 10
104.867684
 20
-176.896889
 30
0.0
 11
104.867684
 21
-204.396889
 31
0.0
  0
LINE
  5
4A0
100
AcDbEntity
  8
2
370
    50
100
AcDbLine
 10
105.867684
 20
-175.896889
 30
0.0
 11
123.867684
 21
-175.896889
 31
0.0
  0
LINE
  5
4A1
100
AcDbEntity
  8
2
370
    50
100
AcDbLine
 10
105.867684
 20
-175.896889
 30
0.0
 11
104.867684
 21
-176.896889
 31
0.0
  0
LINE
  5
4A2
100
AcDbEntity
  8
2
370
    50
100
AcDbLine
 10
123.867684
 20
-175.896889
 30
0.0
 11
124.867684
 21
-176.896889
 31
0.0
  0
POINT
  5
4A3
100
AcDbEntity
  8
2
370
    50
100
AcDbPoint
 10
114.867684
 20
-204.396889
 30
0.0
  0
LINE
  5
4A4
100
AcDbEntity
  8
2
370
    50
100
AcDbLine
 10
104.867129
 20
-176.897597
 30
0.0
 11
104.867129
 21
-204.397597
 31
0.0
  0
LINE
  5
4A5
100
AcDbEntity
  8
2
370
    50
100
AcDbLine
 10
124.867129
 20
-176.897597
 30
0.0
 11
124.867129
 21
-204.397597
 31
0.0
  0
POINT
  5
4A6
100
AcDbEntity
  8
2
370
    50
100
AcDbPoint
 10
114.867129
 20
-204.397597
 30
0.0
  0
LINE
  5
4A7
100
AcDbEntity
  8
2
370
    50
100
AcDbLine
 10
102.867129
 20
-204.397597
 30
0.0
 11
126.867129
 21
-204.397597
 31
0.0
  0
LINE
  5
4A8
100
AcDbEntity
  8
2
370
    50
100
AcDbLine
 10
102.867129
 20
-215.397597
 30
0.0
 11
102.867129
 21
-204.397597
 31
0.0
  0
LINE
  5
4A9
100
AcDbEntity
  8
2
370
    50
100
AcDbLine
 10
126.867129
 20
-204.397597
 30
0.0
 11
126.867129
 21
-215.397597
 31
0.0
  0
LINE
  5
4AA
100
AcDbEntity
  8
2
370
    50
100
AcDbLine
 10
102.867129
 20
-215.397597
 30
0.0
 11
126.867129
 21
-215.397597
 31
0.0
  0
LINE
  5
4AB
100
AcDbEntity
  8
2
370
    50
100
AcDbLine
 10
114.867129
 20
-206.253597
 30
0.0
 11
114.867129
 21
-213.541597
 31
0.0
  0
ARC
  5
4AC
100
AcDbEntity
  8
2
370
    50
100
AcDbCircle
 10
120.867129
 20
-215.023873
 30
0.0
 40
10.626276
100
AcDbArc
 50
55.622837
 51
124.377163
  0
ARC
  5
4AD
100
AcDbEntity
  8
2
370
    50
100
AcDbCircle
 10
108.867129
 20
-215.023873
 30
0.0
 40
10.626276
100
AcDbArc
 50
55.622837
 51
124.377163
  0
ARC
  5
4AE
100
AcDbEntity
  8
2
370
    50
100
AcDbCircle
 10
108.867129
 20
-204.771321
 30
0.0
 40
10.626276
100
AcDbArc
 50
235.622837
 51
304.377163
  0
ARC
  5
4AF
100
AcDbEntity
  8
2
370
    50
100
AcDbCircle
 10
120.867129
 20
-204.771321
 30
0.0
 40
10.626276
100
AcDbArc
 50
235.622837
 51
304.377163
  0
POINT
  5
4B0
100
AcDbEntity
  8
2
370
    50
100
AcDbPoint
 10
114.867684
 20
-187.196889
 30
0.0
  0
LINE
  5
4B1
100
AcDbEntity
  8
2
370
    50
100
AcDbLine
 10
-194.334165
 20
-176.897384
 30
0.0
 11
-194.334165
 21
-204.397384
 31
0.0
  0
LINE
  5
4B2
100
AcDbEntity
  8
2
370
    50
100
AcDbLine
 10
-214.334165
 20
-176.897384
 30
0.0
 11
-214.334165
 21
-204.397384
 31
0.0
  0
TEXT
  5
4B3
100
AcDbEntity
  8
2
370
    50
100
AcDbText
 10
-196.366175
 20
-228.851613
 30
0.0
 40
6.0
  1
Ｇ１／２
 72
     5
 11
-173.566175
 21
-228.851613
 31
0.0
100
AcDbText
  0
TEXT
  5
4B4
100
AcDbEntity
  8
2
370
    50
100
AcDbText
 10
-176.657164
 20
-216.325593
 30
0.0
 40
6.0
  1
２４六角
 72
     5
 11
-153.857164
 21
-216.325593
 31
0.0
100
AcDbText
  0
LWPOLYLINE
  5
4B5
100
AcDbEntity
  8
2
370
    25
100
AcDbPolyline
 90
        3
 70
     0
 10
-210.99734
 20
-215.397384
 10
-195.065638
 20
-230.152226
 10
-166.453608
 20
-230.152226
  0
LINE
  5
4BA
100
AcDbEntity
  8
2
370
    25
100
AcDbLine
 10
-208.162596
 20
-218.022728
 30
0.0
 11
-207.459137
 21
-217.26316
 31
0.0
  0
LINE
  5
4BB
100
AcDbEntity
  8
2
370
    25
100
AcDbLine
 10
-207.459137
 20
-217.26316
 30
0.0
 11
-210.99734
 21
-215.397384
 31
0.0
  0
LINE
  5
4BC
100
AcDbEntity
  8
2
370
    25
100
AcDbLine
 10
-210.99734
 20
-215.397384
 30
0.0
 11
-208.866055
 21
-218.782295
 31
0.0
  0
LINE
  5
4BD
100
AcDbEntity
  8
2
370
    25
100
AcDbLine
 10
-208.866055
 20
-218.782295
 30
0.0
 11
-208.162596
 21
-218.022728
 31
0.0
  0
LINE
  5
4BE
100
AcDbEntity
  8
2
370
    50
100
AcDbLine
 10
-214.661032
 20
-204.397384
 30
0.0
 11
-192.334165
 21
-204.397384
 31
0.0
  0
LINE
  5
4BF
100
AcDbEntity
  8
2
370
    50
100
AcDbLine
 10
-190.477759
 20
-206.25379
 30
0.0
 11
-190.477759
 21
-213.540977
 31
0.0
  0
LINE
  5
4C0
100
AcDbEntity
  8
2
370
    50
100
AcDbLine
 10
-218.190572
 20
-213.540977
 30
0.0
 11
-218.190572
 21
-206.25379
 31
0.0
  0
LINE
  5
4C1
100
AcDbEntity
  8
2
370
    50
100
AcDbLine
 10
-216.334165
 20
-215.397384
 30
0.0
 11
-192.334165
 21
-215.397384
 31
0.0
  0
LINE
  5
4C2
100
AcDbEntity
  8
2
370
    50
100
AcDbLine
 10
-197.405962
 20
-213.540977
 30
0.0
 11
-197.405962
 21
-206.25379
 31
0.0
  0
LINE
  5
4C3
100
AcDbEntity
  8
2
370
    50
100
AcDbLine
 10
-211.262368
 20
-213.540977
 30
0.0
 11
-211.262368
 21
-206.25379
 31
0.0
  0
LINE
  5
4C4
100
AcDbEntity
  8
2
370
    50
100
AcDbLine
 10
-216.334165
 20
-204.397384
 30
0.0
 11
-192.334165
 21
-204.397384
 31
0.0
  0
LINE
  5
4C5
100
AcDbEntity
  8
2
370
    50
100
AcDbLine
 10
-192.334165
 20
-204.397384
 30
0.0
 11
-190.477759
 21
-206.25379
 31
0.0
  0
LINE
  5
4C6
100
AcDbEntity
  8
2
370
    50
100
AcDbLine
 10
-216.334165
 20
-215.397384
 30
0.0
 11
-218.190572
 21
-213.540977
 31
0.0
  0
LINE
  5
4C7
100
AcDbEntity
  8
2
370
    50
100
AcDbLine
 10
-216.334165
 20
-204.397384
 30
0.0
 11
-218.190572
 21
-206.25379
 31
0.0
  0
LINE
  5
4C8
100
AcDbEntity
  8
2
370
    50
100
AcDbLine
 10
-192.334165
 20
-215.397384
 30
0.0
 11
-190.477759
 21
-213.540977
 31
0.0
  0
ARC
  5
4C9
100
AcDbEntity
  8
2
370
    50
100
AcDbCircle
 10
-204.334165
 20
-218.25379
 30
0.0
 40
13.856406
100
AcDbArc
 50
60.0
 51
120.0
  0
ARC
  5
4CA
100
AcDbEntity
  8
2
370
    50
100
AcDbCircle
 10
-204.334165
 20
-201.540977
 30
0.0
 40
13.856406
100
AcDbArc
 50
240.0
 51
300.0
  0
ARC
  5
4CB
100
AcDbEntity
  8
2
370
    50
100
AcDbCircle
 10
-194.007298
 20
-208.436683
 30
0.0
 40
4.039299
100
AcDbArc
 50
45.0
 51
147.288191
  0
ARC
  5
4CC
100
AcDbEntity
  8
2
370
    50
100
AcDbCircle
 10
-194.007298
 20
-211.358084
 30
0.0
 40
4.039299
100
AcDbArc
 50
212.711809
 51
315.0
  0
ARC
  5
4CD
100
AcDbEntity
  8
2
370
    50
100
AcDbCircle
 10
-214.661032
 20
-208.436683
 30
0.0
 40
4.039299
100
AcDbArc
 50
32.711809
 51
135.0
  0
ARC
  5
4CE
100
AcDbEntity
  8
2
370
    50
100
AcDbCircle
 10
-214.661032
 20
-211.358084
 30
0.0
 40
4.039299
100
AcDbArc
 50
225.0
 51
327.288191
  0
LWPOLYLINE
  5
4CF
100
AcDbEntity
  8
2
370
    25
100
AcDbPolyline
 90
        3
 70
     0
 10
-190.477759
 20
-208.120637
 10
-176.208388
 20
-217.324906
 10
-144.167693
 20
-217.324906
  0
LINE
  5
4D4
100
AcDbEntity
  8
2
370
    25
100
AcDbLine
 10
-187.230918
 20
-210.214969
 30
0.0
 11
-186.669743
 21
-209.34498
 31
0.0
  0
LINE
  5
4D5
100
AcDbEntity
  8
2
370
    25
100
AcDbLine
 10
-186.669743
 20
-209.34498
 30
0.0
 11
-190.477759
 21
-208.120637
 31
0.0
  0
LINE
  5
4D6
100
AcDbEntity
  8
2
370
    25
100
AcDbLine
 10
-190.477759
 20
-208.120637
 30
0.0
 11
-187.792092
 21
-211.084957
 31
0.0
  0
LINE
  5
4D7
100
AcDbEntity
  8
2
370
    25
100
AcDbLine
 10
-187.792092
 20
-211.084957
 30
0.0
 11
-187.230918
 21
-210.214969
 31
0.0
  0
TEXT
  5
4D8
100
AcDbEntity
  8
2
370
    50
100
AcDbText
 10
-177.175003
 20
-186.980072
 30
0.0
 40
6.0
  1
逆止弁内蔵
 72
     5
 11
-148.375003
 21
-186.980072
 31
0.0
100
AcDbText
  0
LINE
  5
4D9
100
AcDbEntity
  8
2
370
    50
100
AcDbLine
 10
-259.92232
 20
-176.897384
 30
0.0
 11
-259.92232
 21
-204.397384
 31
0.0
  0
LINE
  5
4DA
100
AcDbEntity
  8
2
370
    50
100
AcDbLine
 10
-239.92232
 20
-176.897384
 30
0.0
 11
-239.92232
 21
-204.397384
 31
0.0
  0
LINE
  5
4DB
100
AcDbEntity
  8
2
370
    50
100
AcDbLine
 10
-239.595453
 20
-204.397384
 30
0.0
 11
-261.92232
 21
-204.397384
 31
0.0
  0
LINE
  5
4DC
100
AcDbEntity
  8
2
370
    50
100
AcDbLine
 10
-263.778727
 20
-206.25379
 30
0.0
 11
-263.778727
 21
-213.540977
 31
0.0
  0
LINE
  5
4DD
100
AcDbEntity
  8
2
370
    50
100
AcDbLine
 10
-236.065914
 20
-213.540977
 30
0.0
 11
-236.065914
 21
-206.25379
 31
0.0
  0
LINE
  5
4DE
100
AcDbEntity
  8
2
370
    50
100
AcDbLine
 10
-237.92232
 20
-215.397384
 30
0.0
 11
-261.92232
 21
-215.397384
 31
0.0
  0
LINE
  5
4DF
100
AcDbEntity
  8
2
370
    50
100
AcDbLine
 10
-256.850524
 20
-213.540977
 30
0.0
 11
-256.850524
 21
-206.25379
 31
0.0
  0
LINE
  5
4E0
100
AcDbEntity
  8
2
370
    50
100
AcDbLine
 10
-242.994117
 20
-213.540977
 30
0.0
 11
-242.994117
 21
-206.25379
 31
0.0
  0
LINE
  5
4E1
100
AcDbEntity
  8
2
370
    50
100
AcDbLine
 10
-237.92232
 20
-204.397384
 30
0.0
 11
-261.92232
 21
-204.397384
 31
0.0
  0
LINE
  5
4E2
100
AcDbEntity
  8
2
370
    50
100
AcDbLine
 10
-261.92232
 20
-204.397384
 30
0.0
 11
-263.778727
 21
-206.25379
 31
0.0
  0
LINE
  5
4E3
100
AcDbEntity
  8
2
370
    50
100
AcDbLine
 10
-237.92232
 20
-215.397384
 30
0.0
 11
-236.065914
 21
-213.540977
 31
0.0
  0
LINE
  5
4E4
100
AcDbEntity
  8
2
370
    50
100
AcDbLine
 10
-237.92232
 20
-204.397384
 30
0.0
 11
-236.065914
 21
-206.25379
 31
0.0
  0
LINE
  5
4E5
100
AcDbEntity
  8
2
370
    50
100
AcDbLine
 10
-261.92232
 20
-215.397384
 30
0.0
 11
-263.778727
 21
-213.540977
 31
0.0
  0
ARC
  5
4E6
100
AcDbEntity
  8
2
370
    50
100
AcDbCircle
 10
-249.92232
 20
-218.25379
 30
0.0
 40
13.856406
100
AcDbArc
 50
60.0
 51
120.0
  0
ARC
  5
4E7
100
AcDbEntity
  8
2
370
    50
100
AcDbCircle
 10
-249.92232
 20
-201.540977
 30
0.0
 40
13.856406
100
AcDbArc
 50
240.0
 51
300.0
  0
ARC
  5
4E8
100
AcDbEntity
  8
2
370
    50
100
AcDbCircle
 10
-260.249188
 20
-208.436683
 30
0.0
 40
4.039299
100
AcDbArc
 50
32.711809
 51
135.0
  0
ARC
  5
4E9
100
AcDbEntity
  8
2
370
    50
100
AcDbCircle
 10
-260.249188
 20
-211.358084
 30
0.0
 40
4.039299
100
AcDbArc
 50
225.0
 51
327.288191
  0
ARC
  5
4EA
100
AcDbEntity
  8
2
370
    50
100
AcDbCircle
 10
-239.595453
 20
-208.436683
 30
0.0
 40
4.039299
100
AcDbArc
 50
45.0
 51
147.288191
  0
ARC
  5
4EB
100
AcDbEntity
  8
2
370
    50
100
AcDbCircle
 10
-239.595453
 20
-211.358084
 30
0.0
 40
4.039299
100
AcDbArc
 50
212.711809
 51
315.0
  0
TEXT
  5
4EC
100
AcDbEntity
  8
2
370
    50
100
AcDbText
 10
-289.820038
 20
-25.798753
 30
0.0
 40
6.0
  1
ＭＡＸ ３０
 50
90.0
 72
     5
 11
-289.820038
 21
6.001247
 31
0.0
100
AcDbText
  0
DIMENSION
  5
4ED
100
AcDbEntity
  8
2
370
    25
100
AcDbDimension
  2
*D1
 10
-288.820038
 20
-29.798753
 30
0.0
 11
-291.320038
 21
-8.548753
 31
0.0
 71
     0
 72
     0
 41
0.0
 42
0.0
  3
Standard
100
AcDbAlignedDimension
 13
-252.128165
 23
-34.798753
 33
0.0
 14
-253.328242
 24
-29.798753
 34
0.0
 50
90.0
100
AcDbRotatedDimension
  0
DIMENSION
  5
4EE
100
AcDbEntity
  8
2
370
    25
100
AcDbDimension
  2
*D2
 10
-253.628242
 20
-24.323792
 30
0.0
 11
-269.628242
 21
-20.323792
 31
0.0
 70
     1
 71
     0
 72
     0
 41
0.0
 42
0.0
  3
Standard
100
AcDbAlignedDimension
 13
-200.628242
 23
-29.498753
 33
0.0
 14
-253.628242
 24
-29.498753
 34
0.0
  0
LINE
  5
4EF
100
AcDbEntity
  8
2
370
    50
100
AcDbLine
 10
88.335355
 20
18.901247
 30
0.0
 11
141.335355
 21
18.901247
 31
0.0
  0
LINE
  5
4F0
100
AcDbEntity
  8
2
370
    50
100
AcDbLine
 10
88.335355
 20
-15.498753
 30
0.0
 11
141.335355
 21
-15.498753
 31
0.0
  0
LINE
  5
4F1
100
AcDbEntity
  8
2
370
    50
100
AcDbLine
 10
141.335355
 20
20.151265
 30
0.0
 11
88.335355
 21
20.151265
 31
0.0
  0
LINE
  5
4F2
100
AcDbEntity
  8
2
370
    50
100
AcDbLine
 10
136.835355
 20
19.201247
 30
0.0
 11
136.835355
 21
19.951265
 31
0.0
  0
LINE
  5
4F3
100
AcDbEntity
  8
2
370
    50
100
AcDbLine
 10
92.835355
 20
19.201247
 30
0.0
 11
92.835355
 21
19.951265
 31
0.0
  0
LINE
  5
4F4
100
AcDbEntity
  8
2
370
    50
100
AcDbLine
 10
-205.128242
 20
19.201247
 30
0.0
 11
-205.128242
 21
19.951265
 31
0.0
  0
LINE
  5
4F5
100
AcDbEntity
  8
2
370
    50
100
AcDbLine
 10
-249.128242
 20
19.201247
 30
0.0
 11
-249.128242
 21
19.951265
 31
0.0
  0
LINE
  5
4F6
100
AcDbEntity
  8
2
370
    50
100
AcDbLine
 10
88.335355
 20
-29.498753
 30
0.0
 11
141.335355
 21
-29.498753
 31
0.0
  0
TEXT
  5
4F7
100
AcDbEntity
  8
2
370
    50
100
AcDbText
 10
-2.985728
 20
141.305099
 30
0.0
 40
6.0
  1
止水
 72
     5
 11
7.814272
 21
141.305099
 31
0.0
100
AcDbText
  0
TEXT
  5
4F8
100
AcDbEntity
  8
2
370
    50
100
AcDbText
 10
42.930298
 20
189.807114
 30
0.0
 40
6.0
  1
吐水
 72
     5
 11
53.730298
 21
189.807114
 31
0.0
100
AcDbText
  0
DIMENSION
  5
4F9
100
AcDbEntity
  8
2
370
    25
100
AcDbDimension
  2
*D3
 10
-109.990517
 20
122.227923
 30
0.0
 11
-119.990517
 21
41.714585
 31
0.0
 71
     0
 72
     0
 41
0.0
 42
0.0
  3
Standard
100
AcDbAlignedDimension
 13
88.635355
 23
-29.798753
 33
0.0
 14
-185.164645
 24
122.227923
 34
0.0
 50
90.0
100
AcDbRotatedDimension
  0
DIMENSION
  5
4FA
100
AcDbEntity
  8
2
370
    25
100
AcDbDimension
  2
*D4
 10
-74.657784
 20
151.501971
 30
0.0
 11
-84.657784
 21
56.351609
 31
0.0
 71
     0
 72
     0
 41
0.0
 42
0.0
  3
Standard
100
AcDbAlignedDimension
 13
88.635355
 23
-29.798753
 33
0.0
 14
-184.592938
 24
151.501971
 34
0.0
 50
90.0
100
AcDbRotatedDimension
  0
TEXT
  5
4FB
100
AcDbEntity
  8
2
370
    50
100
AcDbText
 10
-344.167236
 20
-84.460503
 30
0.0
 40
6.0
  1
取付穴　  φ３７±１
 72
     5
 11
-285.367236
 21
-84.460503
 31
0.0
100
AcDbText
  0
DIMENSION
  5
4FC
100
AcDbEntity
  8
2
370
    25
100
AcDbDimension
  2
*D5
 10
28.815124
 20
121.559875
 30
0.0
 11
5.870289
 21
175.158526
 31
0.0
 70
     2
 71
     0
 72
     0
 41
0.0
 42
0.0
  3
Standard
100
AcDb2LineAngularDimension
 13
80.278547
 23
145.078612
 33
0.0
 14
131.24266
 24
94.114499
 34
0.0
 15
131.24266
 25
94.114499
 35
0.0
 16
2.120289
 26
168.663335
 36
0.0
1001
ACAD
1000
DSTYLE
1002
{
1070
   275
1070
     0
1070
   179
1070
     0
1002
}
  0
POINT
  5
4FD
100
AcDbEntity
  8
2
370
    50
100
AcDbPoint
 10
-179.858475
 20
-183.194656
 30
0.0
  0
LWPOLYLINE
  5
4FE
100
AcDbEntity
  8
2
370
    25
100
AcDbPolyline
 90
        2
 70
     0
 10
-204.684204
 20
-194.001328
 10
-179.858475
 20
-183.194656
  0
LINE
  5
502
100
AcDbEntity
  8
2
370
    25
100
AcDbLine
 10
-201.14159
 20
-192.459223
 30
0.0
 11
-201.554795
 21
-191.509982
 31
0.0
  0
LINE
  5
503
100
AcDbEntity
  8
2
370
    25
100
AcDbLine
 10
-201.554795
 20
-191.509982
 30
0.0
 11
-204.684204
 21
-194.001328
 31
0.0
  0
LINE
  5
504
100
AcDbEntity
  8
2
370
    25
100
AcDbLine
 10
-204.684204
 20
-194.001328
 30
0.0
 11
-200.728384
 21
-193.408464
 31
0.0
  0
LINE
  5
505
100
AcDbEntity
  8
2
370
    25
100
AcDbLine
 10
-200.728384
 20
-193.408464
 30
0.0
 11
-201.14159
 21
-192.459223
 31
0.0
  0
LWPOLYLINE
  5
506
100
AcDbEntity
  8
2
370
    25
100
AcDbPolyline
 90
        3
 70
     0
 10
-251.122879
 20
-193.709244
 10
-232.430573
 20
-186.115387
 10
-179.858475
 20
-183.194656
  0
LINE
  5
50B
100
AcDbEntity
  8
2
370
    25
100
AcDbLine
 10
-247.543294
 20
-192.255017
 30
0.0
 11
-247.932953
 21
-191.29587
 31
0.0
  0
LINE
  5
50C
100
AcDbEntity
  8
2
370
    25
100
AcDbLine
 10
-247.932953
 20
-191.29587
 30
0.0
 11
-251.122879
 21
-193.709244
 31
0.0
  0
LINE
  5
50D
100
AcDbEntity
  8
2
370
    25
100
AcDbLine
 10
-251.122879
 20
-193.709244
 30
0.0
 11
-247.153635
 21
-193.214164
 31
0.0
  0
LINE
  5
50E
100
AcDbEntity
  8
2
370
    25
100
AcDbLine
 10
-247.153635
 20
-193.214164
 30
0.0
 11
-247.543294
 21
-192.255017
 31
0.0
  0
POINT
  5
50F
100
AcDbEntity
  8
2
370
    50
100
AcDbPoint
 10
143.12725
 20
102.150966
 30
0.0
  0
POINT
  5
510
100
AcDbEntity
  8
2
370
    50
100
AcDbPoint
 10
114.978343
 20
104.228645
 30
0.0
  0
ELLIPSE
  5
511
100
AcDbEntity
  8
2
370
    50
100
AcDbEllipse
 10
115.338343
 20
228.764546
 30
0.0
 11
0.0
 21
28.0
 31
0.0
210
0.0
220
0.0
230
1.0
 40
0.974549
 41
3.0182150000000001
 42
0.123378
  0
LINE
  5
512
100
AcDbEntity
  8
2
370
    50
100
AcDbLine
 10
10.545576
 20
243.644565
 30
0.0
 11
111.980227
 21
256.551708
 31
0.0
  0
LINE
  5
513
100
AcDbEntity
  8
2
370
    50
100
AcDbLine
 10
10.545576
 20
213.884527
 30
0.0
 11
111.980227
 21
200.977384
 31
0.0
  0
ARC
  5
514
100
AcDbEntity
  8
2
370
    50
100
AcDbCircle
 10
12.438997
 20
228.764546
 30
0.0
 40
15.0
100
AcDbArc
 50
97.251682
 51
262.748318
  0
CIRCLE
  5
515
100
AcDbEntity
  8
2
370
    50
100
AcDbCircle
 10
115.338343
 20
222.764546
 30
0.0
 40
2.5
  0
CIRCLE
  5
516
100
AcDbEntity
  8
2
370
    50
100
AcDbCircle
 10
115.338343
 20
234.764546
 30
0.0
 40
2.5
  0
LINE
  5
517
100
AcDbEntity
  8
2
370
    50
100
AcDbLine
 10
-113.774127
 20
241.264546
 30
0.0
 11
4.147435
 21
241.264546
 31
0.0
  0
LINE
  5
518
100
AcDbEntity
  8
2
370
    50
100
AcDbLine
 10
-113.774127
 20
216.264546
 30
0.0
 11
4.147435
 21
216.264546
 31
0.0
  0
LINE
  5
519
100
AcDbEntity
  8
2
370
    50
100
AcDbLine
 10
-182.380741
 20
245.264546
 30
0.0
 11
-181.422028
 21
245.264546
 31
0.0
  0
ARC
  5
51A
100
AcDbEntity
  8
2
370
    50
100
AcDbCircle
 10
-183.756997
 20
228.764546
 30
0.0
 40
16.5
100
AcDbArc
 50
83.0
 51
277.0
  0
LINE
  5
51B
100
AcDbEntity
  8
2
370
    50
100
AcDbLine
 10
-181.746153
 20
245.141557
 30
0.0
 11
-170.418532
 21
243.7507
 31
0.0
  0
LINE
  5
51C
100
AcDbEntity
  8
2
370
    50
100
AcDbLine
 10
-181.746153
 20
212.387534
 30
0.0
 11
-170.418532
 21
213.778391
 31
0.0
  0
LINE
  5
51D
100
AcDbEntity
  8
2
370
    50
100
AcDbLine
 10
-113.356997
 20
216.014546
 30
0.0
 11
-133.857729
 21
216.014546
 31
0.0
  0
LINE
  5
51E
100
AcDbEntity
  8
2
370
    50
100
AcDbLine
 10
-113.356997
 20
241.514546
 30
0.0
 11
-133.857729
 21
241.514546
 31
0.0
  0
ELLIPSE
  5
51F
100
AcDbEntity
  8
2
370
    50
100
AcDbEllipse
 10
-114.79604
 20
228.764546
 30
0.0
 11
0.0
 21
-12.75
 31
0.0
210
0.0
220
0.0
230
1.0
 40
0.406737
 41
0.0
 42
3.1415929999999999
  0
ARC
  5
520
100
AcDbEntity
  8
2
370
    50
100
AcDbCircle
 10
-133.857729
 20
-83.985454
 30
0.0
 40
300.0
100
AcDbArc
 50
90.0
 51
97.0
  0
ARC
  5
521
100
AcDbEntity
  8
2
370
    50
100
AcDbCircle
 10
-133.857729
 20
541.514546
 30
0.0
 40
300.0
100
AcDbArc
 50
263.0
 51
270.0
  0
LINE
  5
522
100
AcDbEntity
  8
2
370
    50
100
AcDbLine
 10
-200.628242
 20
76.598381
 30
0.0
 11
-200.628242
 21
65.643575
 31
0.0
  0
LINE
  5
523
100
AcDbEntity
  8
2
370
    50
100
AcDbLine
 10
-253.628242
 20
76.598381
 30
0.0
 11
-253.628242
 21
65.643575
 31
0.0
  0
ARC
  5
524
100
AcDbEntity
  8
2
370
    50
100
AcDbCircle
 10
54.598928
 20
76.598381
 30
0.0
 40
255.22717
100
AcDbArc
 50
173.901571
 51
180.0
  0
ARC
  5
525
100
AcDbEntity
  8
2
370
    50
100
AcDbCircle
 10
-508.855413
 20
76.598381
 30
0.0
 40
255.22717
100
AcDbArc
 50
0.0
 51
6.098429
  0
LINE
  5
526
100
AcDbEntity
  8
2
370
    50
100
AcDbLine
 10
-211.114851
 20
132.422215
 30
0.0
 11
-199.331998
 21
104.707895
 31
0.0
  0
LINE
  5
527
100
AcDbEntity
  8
2
370
    50
100
AcDbLine
 10
-243.141634
 20
132.422215
 30
0.0
 11
-254.924487
 21
104.707895
 31
0.0
  0
LINE
  5
528
100
AcDbEntity
  8
2
370
    50
100
AcDbLine
 10
-211.414947
 20
131.645705
 30
0.0
 11
-202.987907
 21
111.824558
 31
0.0
  0
LINE
  5
529
100
AcDbEntity
  8
2
370
    50
100
AcDbLine
 10
-242.841538
 20
131.645705
 30
0.0
 11
-251.268578
 21
111.824558
 31
0.0
  0
ARC
  5
52A
100
AcDbEntity
  8
2
370
    50
100
AcDbCircle
 10
-201.172557
 20
103.925374
 30
0.0
 40
2.0
100
AcDbArc
 50
353.901571
 51
23.032965
  0
ARC
  5
52B
100
AcDbEntity
  8
2
370
    50
100
AcDbCircle
 10
-253.083928
 20
103.925374
 30
0.0
 40
2.0
100
AcDbArc
 50
156.967035
 51
186.098429
  0
ARC
  5
52C
100
AcDbEntity
  8
2
370
    50
100
AcDbCircle
 10
-201.128242
 20
65.643575
 30
0.0
 40
0.5
100
AcDbArc
 50
270.0
 51
360.0
  0
ARC
  5
52D
100
AcDbEntity
  8
2
370
    50
100
AcDbCircle
 10
-253.128242
 20
65.643575
 30
0.0
 40
0.5
100
AcDbArc
 50
180.0
 51
270.0
  0
ARC
  5
52E
100
AcDbEntity
  8
2
370
    25
100
AcDbCircle
 10
-230.227612
 20
100.243489
 30
0.0
 40
29.599369
100
AcDbArc
 50
348.999252
 51
10.273615
  0
ARC
  5
52F
100
AcDbEntity
  8
2
370
    25
100
AcDbCircle
 10
-230.227612
 20
100.243489
 30
0.0
 40
29.599369
100
AcDbArc
 50
17.495991
 51
23.032965
  0
ARC
  5
530
100
AcDbEntity
  8
2
370
    25
100
AcDbCircle
 10
-224.028873
 20
100.243489
 30
0.0
 40
29.599369
100
AcDbArc
 50
169.726385
 51
191.000748
  0
ARC
  5
531
100
AcDbEntity
  8
2
370
    50
100
AcDbCircle
 10
-224.028873
 20
100.243489
 30
0.0
 40
29.599369
100
AcDbArc
 50
156.967035
 51
162.504009
  0
ARC
  5
532
100
AcDbEntity
  8
2
370
    25
100
AcDbCircle
 10
-227.128242
 20
81.482852
 30
0.0
 40
30.341707
100
AcDbArc
 50
43.464822
 51
65.671089
  0
ARC
  5
533
100
AcDbEntity
  8
2
370
    25
100
AcDbCircle
 10
-227.128242
 20
81.482852
 30
0.0
 40
30.341707
100
AcDbArc
 50
114.328911
 51
136.535178
  0
TEXT
  5
534
100
AcDbEntity
  8
2
370
    50
100
AcDbText
 10
137.532654
 20
265.417877
 30
0.0
 40
6.0
  1
赤色
 72
     5
 11
148.332654
 21
265.417877
 31
0.0
100
AcDbText
  0
TEXT
  5
535
100
AcDbEntity
  8
2
370
    50
100
AcDbText
 10
129.800063
 20
258.315567
 30
0.0
 40
6.0
  1
（湯表示）
 72
     5
 11
158.600063
 21
258.315567
 31
0.0
100
AcDbText
  0
LWPOLYLINE
  5
536
100
AcDbEntity
  8
2
370
    25
100
AcDbPolyline
 90
        2
 70
     0
 10
115.726013
 20
235.219299
 10
139.904373
 20
256.511124
  0
LINE
  5
53A
100
AcDbEntity
  8
2
370
    25
100
AcDbLine
 10
118.625662
 20
237.772774
 30
0.0
 11
117.941461
 21
238.549733
 31
0.0
  0
LINE
  5
53B
100
AcDbEntity
  8
2
370
    25
100
AcDbLine
 10
117.941461
 20
238.549733
 30
0.0
 11
115.726013
 21
235.219299
 31
0.0
  0
LINE
  5
53C
100
AcDbEntity
  8
2
370
    25
100
AcDbLine
 10
115.726013
 20
235.219299
 30
0.0
 11
119.309864
 21
236.995815
 31
0.0
  0
LINE
  5
53D
100
AcDbEntity
  8
2
370
    25
100
AcDbLine
 10
119.309864
 20
236.995815
 30
0.0
 11
118.625662
 21
237.772774
 31
0.0
  0
LWPOLYLINE
  5
53E
100
AcDbEntity
  8
2
370
    25
100
AcDbPolyline
 90
        2
 70
     0
 10
115.726013
 20
222.309792
 10
139.904373
 20
201.017968
  0
LINE
  5
542
100
AcDbEntity
  8
2
370
    25
100
AcDbLine
 10
118.625662
 20
219.756317
 30
0.0
 11
119.309864
 21
220.533276
 31
0.0
  0
LINE
  5
543
100
AcDbEntity
  8
2
370
    25
100
AcDbLine
 10
119.309864
 20
220.533276
 30
0.0
 11
115.726013
 21
222.309792
 31
0.0
  0
LINE
  5
544
100
AcDbEntity
  8
2
370
    25
100
AcDbLine
 10
115.726013
 20
222.309792
 30
0.0
 11
117.941461
 21
218.979359
 31
0.0
  0
LINE
  5
545
100
AcDbEntity
  8
2
370
    25
100
AcDbLine
 10
117.941461
 20
218.979359
 30
0.0
 11
118.625662
 21
219.756317
 31
0.0
  0
TEXT
  5
546
100
AcDbEntity
  8
2
370
    50
100
AcDbText
 10
131.548843
 20
192.44548
 30
0.0
 40
6.0
  1
（水表示）
 72
     5
 11
160.348843
 21
192.44548
 31
0.0
100
AcDbText
  0
TEXT
  5
547
100
AcDbEntity
  8
2
370
    50
100
AcDbText
 10
139.732285
 20
200.190582
 30
0.0
 40
6.0
  1
青色
 72
     5
 11
150.532285
 21
200.190582
 31
0.0
100
AcDbText
  0
HATCH
  5
548
100
AcDbEntity
  8
2
370
    25
100
AcDbHatch
 10
0.0
 20
0.0
 30
0.0
210
0.0
220
0.0
230
1.0
  2
_U
 70
     0
 71
     1
 91
        1
 92
        1
 93
        1
 72
     2
 10
115.33834299999999
 20
234.764546
 40
2.5
 50
0.0
 51
360.0
 73
     1
 97
        1
330
0
 75
     0
 76
     0
 52
45.0
 41
1.0
 77
     0
 78
     1
 53
45.0
 43
0.0
 44
0.0
 45
-0.353553
 46
0.353553
 79
     0
 98
        1
 10
0.0
 20
0.0
  0
HATCH
  5
549
100
AcDbEntity
  8
2
370
    25
100
AcDbHatch
 10
0.0
 20
0.0
 30
0.0
210
0.0
220
0.0
230
1.0
  2
_U
 70
     0
 71
     1
 91
        1
 92
        1
 93
        1
 72
     2
 10
115.33834299999999
 20
222.764546
 40
2.5
 50
0.0
 51
360.0
 73
     1
 97
        1
330
0
 75
     0
 76
     0
 52
45.0
 41
1.0
 77
     0
 78
     1
 53
45.0
 43
0.0
 44
0.0
 45
-1.0606599999999999
 46
1.0606599999999999
 79
     0
 98
        1
 10
0.0
 20
0.0
  0
ELLIPSE
  5
54A
100
AcDbEntity
  8
2
370
    50
100
AcDbEllipse
 10
-227.128242
 20
65.05214
 30
0.0
 11
26.5
 21
0.0
 31
0.0
210
0.0
220
0.0
230
1.0
 40
0.017846
 41
0.194559
 42
1.0795809999999999
  0
ELLIPSE
  5
54B
100
AcDbEntity
  8
2
370
    50
100
AcDbEllipse
 10
-227.128242
 20
65.05214
 30
0.0
 11
26.5
 21
0.0
 31
0.0
210
0.0
220
0.0
230
1.0
 40
0.017846
 41
2.0620120000000002
 42
2.9470260000000001
  0
DIMENSION
  5
54C
100
AcDbEntity
  8
2
370
    25
100
AcDbDimension
  2
*D6
 10
280.638092
 20
185.840951
 30
0.0
 11
270.638092
 21
73.521099
 31
0.0
 71
     0
 72
     0
 41
0.0
 42
0.0
  3
Standard
100
AcDbAlignedDimension
 13
141.035355
 23
-29.798753
 33
0.0
 14
49.379235
 24
185.840951
 34
0.0
 50
90.0
100
AcDbRotatedDimension
  0
DIMENSION
  5
54D
100
AcDbEntity
  8
2
370
    25
100
AcDbDimension
  2
*D7
 10
262.806213
 20
137.283782
 30
0.0
 11
252.806213
 21
49.242515
 31
0.0
 71
     0
 72
     0
 41
0.0
 42
0.0
  3
Standard
100
AcDbAlignedDimension
 13
141.035355
 23
-29.798753
 33
0.0
 14
-0.921003
 24
137.283782
 34
0.0
 50
90.0
100
AcDbRotatedDimension
  0
POINT
  5
54E
100
AcDbEntity
  8
2
370
    50
100
AcDbPoint
 10
398.492181
 20
275.764546
 30
0.0
  0
DIMENSION
  5
54F
100
AcDbEntity
  8
2
370
    25
100
AcDbDimension
  2
*D8
 10
114.835355
 20
-98.181335
 30
0.0
 11
-38.164645
 21
-94.181335
 31
0.0
 71
     0
 72
     0
 41
0.0
 42
0.0
  3
Standard
100
AcDbAlignedDimension
 13
-185.164645
 23
122.227923
 33
0.0
 14
114.835355
 24
-98.560204
 34
0.0
100
AcDbRotatedDimension
  0
TEXT
  5
550
100
AcDbEntity
  8
2
370
    50
100
AcDbText
 10
63.238419
 20
-146.997821
 30
0.0
 40
6.0
  1
３９７（金具先端まで）
 50
90.0
 72
     5
 11
63.238419
 21
-82.197821
 31
0.0
100
AcDbText
  0
DIMENSION
  5
551
100
AcDbEntity
  8
2
370
    25
100
AcDbDimension
  2
*D9
 10
64.238419
 20
-29.798753
 30
0.0
 11
61.738419
 21
-108.497821
 31
0.0
 71
     0
 72
     0
 41
0.0
 42
0.0
  3
Standard
100
AcDbAlignedDimension
 13
114.867684
 23
-187.196889
 33
0.0
 14
88.635355
 24
-29.798753
 34
0.0
 50
90.0
100
AcDbRotatedDimension
  0
TEXT
  5
552
100
AcDbEntity
  8
2
370
    50
100
AcDbText
 10
290.42926
 20
-238.721741
 30
0.0
 40
6.0
  1
１　２
 72
     5
 11
307.22926
 21
-238.721741
 31
0.0
100
AcDbText
  0
LINE
  5
553
100
AcDbEntity
  8
2
370
    50
  6
DASHED
100
AcDbLine
 10
141.337312
 20
5.489699
 30
0.0
 11
141.337312
 21
-6.510301
 31
0.0
  0
POINT
  5
554
100
AcDbEntity
  8
2
370
    50
100
AcDbPoint
 10
141.337312
 20
-0.510301
 30
0.0
  0
POINT
  5
555
100
AcDbEntity
  8
2
370
    50
100
AcDbPoint
 10
141.336403
 20
-0.510321
 30
0.0
  0
LINE
  5
556
100
AcDbEntity
  8
2
370
    25
100
AcDbLine
 10
-244.985565
 20
-157.197384
 30
0.0
 11
-244.985565
 21
-155.947384
 31
0.0
  0
LINE
  5
557
100
AcDbEntity
  8
2
370
    25
100
AcDbLine
 10
-244.985565
 20
-145.947384
 30
0.0
 11
-244.985565
 21
-144.697384
 31
0.0
  0
LINE
  5
558
100
AcDbEntity
  8
2
370
    25
100
AcDbLine
 10
-245.692672
 20
-157.197384
 30
0.0
 11
-245.692672
 21
-155.947384
 31
0.0
  0
LINE
  5
559
100
AcDbEntity
  8
2
370
    25
100
AcDbLine
 10
-245.692672
 20
-145.947384
 30
0.0
 11
-245.692672
 21
-144.697384
 31
0.0
  0
LINE
  5
55A
100
AcDbEntity
  8
2
370
    25
100
AcDbLine
 10
-249.421694
 20
-157.197384
 30
0.0
 11
-249.421694
 21
-155.947384
 31
0.0
  0
LINE
  5
55B
100
AcDbEntity
  8
2
370
    25
100
AcDbLine
 10
-249.421694
 20
-145.947384
 30
0.0
 11
-249.421694
 21
-144.697384
 31
0.0
  0
LINE
  5
55C
100
AcDbEntity
  8
2
370
    25
100
AcDbLine
 10
-250.421694
 20
-157.197384
 30
0.0
 11
-250.421694
 21
-155.947384
 31
0.0
  0
LINE
  5
55D
100
AcDbEntity
  8
2
370
    25
100
AcDbLine
 10
-250.421694
 20
-145.947384
 30
0.0
 11
-250.421694
 21
-144.697384
 31
0.0
  0
LINE
  5
55E
100
AcDbEntity
  8
2
370
    25
100
AcDbLine
 10
-254.150716
 20
-157.197384
 30
0.0
 11
-254.150716
 21
-155.947384
 31
0.0
  0
LINE
  5
55F
100
AcDbEntity
  8
2
370
    25
100
AcDbLine
 10
-254.150716
 20
-145.947384
 30
0.0
 11
-254.150716
 21
-144.697384
 31
0.0
  0
LINE
  5
560
100
AcDbEntity
  8
2
370
    25
100
AcDbLine
 10
-254.857823
 20
-157.197384
 30
0.0
 11
-254.857823
 21
-155.947384
 31
0.0
  0
LINE
  5
561
100
AcDbEntity
  8
2
370
    25
100
AcDbLine
 10
-254.857823
 20
-145.947384
 30
0.0
 11
-254.857823
 21
-144.697384
 31
0.0
  0
LINE
  5
562
100
AcDbEntity
  8
2
370
    25
100
AcDbLine
 10
-199.398036
 20
-157.197384
 30
0.0
 11
-199.398036
 21
-155.947384
 31
0.0
  0
LINE
  5
563
100
AcDbEntity
  8
2
370
    25
100
AcDbLine
 10
-199.398036
 20
-145.947384
 30
0.0
 11
-199.398036
 21
-144.697384
 31
0.0
  0
LINE
  5
564
100
AcDbEntity
  8
2
370
    25
100
AcDbLine
 10
-200.105143
 20
-157.197384
 30
0.0
 11
-200.105143
 21
-155.947384
 31
0.0
  0
LINE
  5
565
100
AcDbEntity
  8
2
370
    25
100
AcDbLine
 10
-200.105143
 20
-145.947384
 30
0.0
 11
-200.105143
 21
-144.697384
 31
0.0
  0
LINE
  5
566
100
AcDbEntity
  8
2
370
    25
100
AcDbLine
 10
-203.834165
 20
-157.197384
 30
0.0
 11
-203.834165
 21
-155.947384
 31
0.0
  0
LINE
  5
567
100
AcDbEntity
  8
2
370
    25
100
AcDbLine
 10
-203.834165
 20
-145.947384
 30
0.0
 11
-203.834165
 21
-144.697384
 31
0.0
  0
LINE
  5
568
100
AcDbEntity
  8
2
370
    25
100
AcDbLine
 10
-204.834165
 20
-157.197384
 30
0.0
 11
-204.834165
 21
-155.947384
 31
0.0
  0
LINE
  5
569
100
AcDbEntity
  8
2
370
    25
100
AcDbLine
 10
-204.834165
 20
-145.947384
 30
0.0
 11
-204.834165
 21
-144.697384
 31
0.0
  0
LINE
  5
56A
100
AcDbEntity
  8
2
370
    25
100
AcDbLine
 10
-208.563187
 20
-157.197384
 30
0.0
 11
-208.563187
 21
-155.947384
 31
0.0
  0
LINE
  5
56B
100
AcDbEntity
  8
2
370
    25
100
AcDbLine
 10
-208.563187
 20
-145.947384
 30
0.0
 11
-208.563187
 21
-144.697384
 31
0.0
  0
LINE
  5
56C
100
AcDbEntity
  8
2
370
    25
100
AcDbLine
 10
-209.270294
 20
-157.197384
 30
0.0
 11
-209.270294
 21
-155.947384
 31
0.0
  0
LINE
  5
56D
100
AcDbEntity
  8
2
370
    25
100
AcDbLine
 10
-209.270294
 20
-145.947384
 30
0.0
 11
-209.270294
 21
-144.697384
 31
0.0
  0
LINE
  5
56E
100
AcDbEntity
  8
2
370
    50
100
AcDbLine
 10
-200.017615
 20
-249.971881
 30
0.0
 11
40.982385
 21
-249.971881
 31
0.0
  0
LINE
  5
56F
100
AcDbEntity
  8
2
370
    50
100
AcDbLine
 10
-150.017615
 20
-235.971881
 30
0.0
 11
-150.017615
 21
-277.971881
 31
0.0
  0
TEXT
  5
570
100
AcDbEntity
  8
2
370
    50
100
AcDbText
 10
-192.954001
 20
-245.986728
 30
0.0
 40
7.0
  1
コードＮｏ
 72
     5
 11
-159.354001
 21
-245.986728
 31
0.0
100
AcDbText
  0
LINE
  5
571
100
AcDbEntity
  8
2
370
    50
100
AcDbLine
 10
-200.017615
 20
-235.971881
 30
0.0
 11
40.982385
 21
-235.971881
 31
0.0
  0
LINE
  5
572
100
AcDbEntity
  8
2
370
    50
100
AcDbLine
 10
-200.017615
 20
-263.971881
 30
0.0
 11
40.982385
 21
-263.971881
 31
0.0
  0
LINE
  5
573
100
AcDbEntity
  8
2
370
    50
100
AcDbLine
 10
-200.017615
 20
-235.971881
 30
0.0
 11
-200.017615
 21
-277.971881
 31
0.0
  0
LINE
  5
574
100
AcDbEntity
  8
2
370
    50
100
AcDbLine
 10
-200.017615
 20
-235.971881
 30
0.0
 11
-200.017615
 21
-277.814911
 31
0.0
  0
LINE
  5
575
100
AcDbEntity
  8
2
370
    50
100
AcDbLine
 10
-71.068237
 20
-235.971881
 30
0.0
 11
-71.068237
 21
-277.971881
 31
0.0
  0
TEXT
  5
576
100
AcDbEntity
  8
2
370
    50
100
AcDbText
 10
-30.969351
 20
-246.008682
 30
0.0
 40
7.0
  1
 品 　 名
 72
     5
 11
-0.869351
 21
-246.008682
 31
0.0
100
AcDbText
  0
TEXT
  5
577
100
AcDbEntity
  8
2
370
    50
100
AcDbText
 10
-127.954001
 20
-245.986728
 30
0.0
 40
7.0
  1
品　　番
 72
     5
 11
-101.354001
 21
-245.986728
 31
0.0
100
AcDbText
  0
TEXT
  5
578
100
AcDbEntity
  8
2
370
    50
100
AcDbText
 10
-68.080475
 20
-261.333557
 30
0.0
 40
7.0
  1
台付シングルレバー湯水混合水栓
 72
     5
 11
35.519525
 21
-261.333557
 31
0.0
100
AcDbText
  0
TEXT
  5
579
100
AcDbEntity
  8
2
370
    50
100
AcDbText
 10
-195.837738
 20
-260.980133
 30
0.0
 40
7.0
  1
１０９０３２
 72
     5
 11
-155.237738
 21
-260.980133
 31
0.0
100
AcDbText
  0
TEXT
  5
57A
100
AcDbEntity
  8
2
370
    50
100
AcDbText
 10
-195.630676
 20
-273.819855
 30
0.0
 40
7.0
  1
１０９０４３
 72
     5
 11
-155.030676
 21
-273.819855
 31
0.0
100
AcDbText
  0
TEXT
  5
57B
100
AcDbEntity
  8
2
370
    50
100
AcDbText
 10
-149.080475
 20
-261.333557
 30
0.0
 40
7.0
  1
Ｋ１３－６９４ＬＵＺ
 72
     5
 11
-80.480475
 21
-261.333557
 31
0.0
100
AcDbText
  0
TEXT
  5
57C
100
AcDbEntity
  8
2
370
    50
100
AcDbText
 10
-149.080475
 20
-274.333557
 30
0.0
 40
7.0
  1
Ｋ１３－６９４ＷＬＵＺ
 72
     5
 11
-73.480475
 21
-274.333557
 31
0.0
100
AcDbText
  0
TEXT
  5
57D
100
AcDbEntity
  8
2
370
    50
100
AcDbText
 10
-68.080475
 20
-274.333557
 30
0.0
 40
7.0
  1
台付シングルレバー湯水混合水栓
 72
     5
 11
35.519525
 21
-274.333557
 31
0.0
100
AcDbText
  0
ENDSEC
  0
SECTION
  2
OBJECTS
  0
DICTIONARY
  5
5F3
100
AcDbDictionary
280
     0
281
     1
  3
ACAD_GROUP
350
5F4
  3
ACAD_MLINESTYLE
350
5F5
  0
DICTIONARY
  5
5F4
102
{ACAD_REACTORS
330
5F3
102
}
100
AcDbDictionary
280
     0
281
     1
  0
DICTIONARY
  5
5F5
102
{ACAD_REACTORS
330
5F3
102
}
100
AcDbDictionary
280
     0
281
     1
  3
Standard
350
5F6
  0
MLINESTYLE
  5
5F6
102
{ACAD_REACTORS
330
5F5
102
}
100
AcDbMlineStyle
  2
Standard
 70
     0
  3

 62
     0
 51
90.0
 52
90.0
 71
     2
 49
0.5
 62
   256
  6
ByLayer
 49
-0.5
 62
   256
  6
ByLayer
  0
ENDSEC
  0
EOF
