  0
SECTION
  2
HEADER
  9
$ACADVER
  1
AC1015
  9
$ACADMAINTVER
 70
     6
  9
$DWGCODEPAGE
  3
ANSI_932
  9
$INSBASE
 10
0.0
 20
0.0
 30
0.0
  9
$EXTMIN
 10
-630.0
 20
-445.5
 30
1.000000E+20
  9
$EXTMAX
 10
630.0
 20
445.5
 30
-1.000000E+20
  9
$LIMMIN
 10
-630.0
 20
-445.5
  9
$LIMMAX
 10
630.0
 20
445.5
  9
$ORTHOMODE
 70
     0
  9
$REGENMODE
 70
     1
  9
$FILLMODE
 70
     1
  9
$QTEXTMODE
 70
     0
  9
$MIRRTEXT
 70
     1
  9
$LTSCALE
 40
1.0
  9
$ATTMODE
 70
     1
  9
$TEXTSIZE
 40
0.2
  9
$TRACEWID
 40
0.05
  9
$TEXTSTYLE
  7
STANDARD
  9
$CLAYER
  8
0
  9
$CELTYPE
  6
CONTINUOUS
  9
$CECOLOR
 62
   256
  9
$CELTSCALE
 40
1.0
  9
$DISPSILH
 70
     0
  9
$DIMSCALE
 40
3.0
  9
$DIMASZ
 40
2.0
  9
$DIMEXO
 40
1.0
  9
$DIMDLI
 40
0.38
  9
$DIMRND
 40
0.0
  9
$DIMDLE
 40
0.0
  9
$DIMEXE
 40
2.0
  9
$DIMTP
 40
0.0
  9
$DIMTM
 40
0.0
  9
$DIMTXT
 40
3.5
  9
$DIMCEN
 40
0.09
  9
$DIMTSZ
 40
0.0
  9
$DIMTOL
 70
     0
  9
$DIMLIM
 70
     0
  9
$DIMTIH
 70
     0
  9
$DIMTOH
 70
     0
  9
$DIMSE1
 70
     0
  9
$DIMSE2
 70
     0
  9
$DIMTAD
 70
     1
  9
$DIMZIN
 70
     0
  9
$DIMBLK
  1

  9
$DIMASO
 70
     1
  9
$DIMSHO
 70
     1
  9
$DIMPOST
  1

  9
$DIMAPOST
  1

  9
$DIMALT
 70
     0
  9
$DIMALTD
 70
     2
  9
$DIMALTF
 40
25.4
  9
$DIMLFAC
 40
1.0
  9
$DIMTOFL
 70
     0
  9
$DIMTVP
 40
0.0
  9
$DIMTIX
 70
     0
  9
$DIMSOXD
 70
     0
  9
$DIMSAH
 70
     0
  9
$DIMBLK1
  1

  9
$DIMBLK2
  1

  9
$DIMSTYLE
  2
Standard
  9
$DIMCLRD
 70
     0
  9
$DIMCLRE
 70
     0
  9
$DIMCLRT
 70
     0
  9
$DIMTFAC
 40
1.0
  9
$DIMGAP
 40
0.5
  9
$DIMJUST
 70
     0
  9
$DIMSD1
 70
     0
  9
$DIMSD2
 70
     0
  9
$DIMTOLJ
 70
     1
  9
$DIMTZIN
 70
     0
  9
$DIMALTZ
 70
     0
  9
$DIMALTTZ
 70
     0
  9
$DIMUPT
 70
     0
  9
$DIMDEC
 70
     3
  9
$DIMTDEC
 70
     4
  9
$DIMALTU
 70
     2
  9
$DIMALTTD
 70
     2
  9
$DIMTXSTY
  7
STANDARD
  9
$DIMAUNIT
 70
     0
  9
$DIMADEC
 70
     0
  9
$DIMALTRND
 40
0.0
  9
$DIMAZIN
 70
     0
  9
$DIMDSEP
 70
     0
  9
$DIMATFIT
 70
     3
  9
$DIMFRAC
 70
     0
  9
$DIMLDRBLK
  1

  9
$DIMLUNIT
 70
     2
  9
$DIMLWD
 70
     0
  9
$DIMLWE
 70
     0
  9
$DIMTMOVE
 70
     0
  9
$LUNITS
 70
     2
  9
$LUPREC
 70
     4
  9
$SKETCHINC
 40
0.1
  9
$FILLETRAD
 40
0.0
  9
$AUNITS
 70
     0
  9
$AUPREC
 70
     0
  9
$MENU
  1
acad
  9
$ELEVATION
 40
0.0
  9
$PELEVATION
 40
0.0
  9
$THICKNESS
 40
0.0
  9
$LIMCHECK
 70
     0
  9
$CHAMFERA
 40
0.0
  9
$CHAMFERB
 40
0.0
  9
$CHAMFERC
 40
0.0
  9
$CHAMFERD
 40
0.0
  9
$SKPOLY
 70
     0
  9
$TDCREATE
 40
2453383.000000000
  9
$TDUCREATE
 40
0.000000000
  9
$TDUPDATE
 40
0.000000000
  9
$TDUUPDATE
 40
2447892.625000000
  9
$TDINDWG
 40
0.0000000000
  9
$TDUSRTIMER
 40
0.0000000000
  9
$USRTIMER
 70
     1
  9
$ANGBASE
 50
0.0
  9
$ANGDIR
 70
     0
  9
$PDMODE
 70
     0
  9
$PDSIZE
 40
0.0
  9
$PLINEWID
 40
0.0
  9
$SPLFRAME
 70
     0
  9
$SPLINETYPE
 70
     6
  9
$SPLINESEGS
 70
     8
  9
$HANDSEED
  5
711
  9
$SURFTAB1
 70
     6
  9
$SURFTAB2
 70
     6
  9
$SURFTYPE
 70
     6
  9
$SURFU
 70
     6
  9
$SURFV
 70
     6
  9
$UCSBASE
  2

  9
$UCSNAME
  2

  9
$UCSORG
 10
0.0
 20
0.0
 30
0.0
  9
$UCSXDIR
 10
1.0
 20
0.0
 30
0.0
  9
$UCSYDIR
 10
0.0
 20
1.0
 30
0.0
  9
$UCSORTHOREF
  2

  9
$UCSORTHOVIEW
 70
     0
  9
$UCSORGTOP
 10
0.0
 20
0.0
 30
0.0
  9
$UCSORGBOTTOM
 10
0.0
 20
0.0
 30
0.0
  9
$UCSORGLEFT
 10
0.0
 20
0.0
 30
0.0
  9
$UCSORGRIGHT
 10
0.0
 20
0.0
 30
0.0
  9
$UCSORGFRONT
 10
0.0
 20
0.0
 30
0.0
  9
$UCSORGBACK
 10
0.0
 20
0.0
 30
0.0
  9
$PUCSBASE
  2

  9
$PUCSNAME
  2

  9
$PUCSORG
 10
0.0
 20
0.0
 30
0.0
  9
$PUCSXDIR
 10
1.0
 20
0.0
 30
0.0
  9
$PUCSYDIR
 10
0.0
 20
1.0
 30
0.0
  9
$PUCSORTHOREF
  2

  9
$PUCSORTHOVIEW
 70
     0
  9
$PUCSORGTOP
 10
0.0
 20
0.0
 30
0.0
  9
$PUCSORGBOTTOM
 10
0.0
 20
0.0
 30
0.0
  9
$PUCSORGLEFT
 10
0.0
 20
0.0
 30
0.0
  9
$PUCSORGRIGHT
 10
0.0
 20
0.0
 30
0.0
  9
$PUCSORGFRONT
 10
0.0
 20
0.0
 30
0.0
  9
$PUCSORGBACK
 10
0.0
 20
0.0
 30
0.0
  9
$USERI1
 70
     0
  9
$USERI2
 70
     0
  9
$USERI3
 70
     0
  9
$USERI4
 70
     0
  9
$USERI5
 70
     0
  9
$USERR1
 40
0.0
  9
$USERR2
 40
0.0
  9
$USERR3
 40
0.0
  9
$USERR4
 40
0.0
  9
$USERR5
 40
0.0
  9
$WORLDVIEW
 70
     1
  9
$SHADEDGE
 70
     3
  9
$SHADEDIF
 70
    70
  9
$TILEMODE
 70
     1
  9
$MAXACTVP
 70
    16
  9
$PINSBASE
 10
0.0
 20
0.0
 30
0.0
  9
$PLIMCHECK
 70
     0
  9
$PEXTMIN
 10
1.000000E+20
 20
1.000000E+20
 30
1.000000E+20
  9
$PEXTMAX
 10
-1.000000E+20
 20
-1.000000E+20
 30
-1.000000E+20
  9
$PLIMMIN
 10
0.0
 20
0.0
  9
$PLIMMAX
 10
12.0
 20
9.0
  9
$UNITMODE
 70
     0
  9
$VISRETAIN
 70
     0
  9
$PLINEGEN
 70
     1
  9
$PSLTSCALE
 70
     0
  9
$TREEDEPTH
 70
  3020
  9
$CMLSTYLE
  2
Standard
  9
$CMLJUST
 70
     0
  9
$CMLSCALE
 40
1.0
  9
$PROXYGRAPHICS
 70
     0
  9
$MEASUREMENT
 70
     0
  9
$CELWEIGHT
370
     0
  9
$ENDCAPS
280
     0
  9
$JOINSTYLE
280
     0
  9
$LWDISPLAY
290
     0
  9
$INSUNITS
 70
     0
  9
$HYPERLINKBASE
  1

  9
$STYLESHEET
  1

  9
$XEDIT
290
     1
  9
$CEPSNTYPE
380
     0
  9
$PSTYLEMODE
290
     1
  9
$FINGERPRINTGUID
  2

  9
$VERSIONGUID
  2

  9
$EXTNAMES
290
     1
  9
$PSVPSCALE
 40
0.0
  0
ENDSEC
  0
SECTION
  2
CLASSES
  0
CLASS
  1
LWPOLYLINE
  2
AcDbPolyline
  3
AutoCAD 2000
 90
        0
280
     0
281
     1
  0
CLASS
  1
IMAGE
  2
AcDbRasterImage
  3
ISM
 90
      127
280
     0
281
     1
  0
CLASS
  1
OLE2FRAME
  2
AcDbOle2Frame
  3
AutoCAD 2000
 90
        0
280
     0
281
     1
  0
CLASS
  1
HATCH
  2
AcDbHatch
  3
AutoCAD 2000
 90
        0
280
     0
281
     1
  0
CLASS
  1
DICTIONARYVAR
  2
AcDbDictionaryVar
  3
AutoCAD 2000
 90
        0
280
     0
281
     0
  0
CLASS
  1
RASTERVARIABLES
  2
AcDbRasterVariables
  3
ISM
 90
        0
280
     0
281
     0
  0
CLASS
  1
IMAGEDEF
  2
AcDbRasterImageDef
  3
ISM
 90
        0
280
     0
281
     0
  0
CLASS
  1
IMAGEDEF_REACTOR
  2
AcDbRasterImageDefReactor
  3
ISM
 90
        1
280
     0
281
     0
  0
CLASS
  1
IDBUFFER
  2
AcDbIdBuffer
  3
AutoCAD 2000
 90
        0
280
     0
281
     0
  0
CLASS
  1
SPATIAL_FILTER
  2
AcDbSpatialFilter
  3
AutoCAD 2000
 90
        0
280
     0
281
     0
  0
CLASS
  1
XRECORD
  2
AcDbXrecord
  3
AutoCAD 2000
 90
        0
280
     0
281
     0
  0
CLASS
  1
SORTENTSTABLE
  2
AcDbSortentsTable
  3
AutoCAD 2000
 90
        0
280
     0
281
     0
  0
CLASS
  1
LAYER_INDEX
  2
AcDbLayerIndex
  3
AutoCAD 2000
 90
        0
280
     0
281
     0
  0
CLASS
  1
SPATIAL_INDEX
  2
AcDbSpatialIndex
  3
AutoCAD 2000
 90
        0
280
     0
281
     0
  0
CLASS
  1
OBJECT_PTR
  2
CAseDLPNTableRecord
  3
"ASE-LPNTableRecord"
 90
        1
280
     0
281
     0
  0
CLASS
  1
LAYOUT
  2
AcDbLayout
  3
AutoCAD 2000
 90
        0
280
     0
281
     0
  0
CLASS
  1
PLOTSETTINGS
  2
AcDbPlotSettings
  3
AutoCAD 2000
 90
        0
280
     0
281
     0
  0
CLASS
  1
ACDBDICTIONARYWDFLT
  2
AcDbDictionaryWithDefault
  3
AutoCAD 2000
 90
        0
280
     0
281
     0
  0
CLASS
  1
ACDBPLACEHOLDER
  2
AcDbPlaceHolder
  3
AutoCAD 2000
 90
        0
280
     0
281
     0
  0
CLASS
  1
VBA_PROJECT
  2
AcDbVbaProject
  3
acadvba
 90
        0
280
     0
281
     0
  0
CLASS
  1
WIPEOUT
  2
AcDbWipeout
  3
WipeOut|AutoCAD Express Tool|expresstools@autodesk.com
 90
      127
280
     0
281
     1
  0
CLASS
  1
WIPEOUTVARIABLES
  2
AcDbWipeoutVariables
  3
WipeOut|AutoCAD Express Tool|expresstools@autodesk.com
 90
        0
280
     0
281
     0
  0
CLASS
  1
RTEXT
  2
RText
  3
RText|AutoCAD Express Tool|expresstools@autodesk.com
 90
        0
280
     0
281
     1
  0
CLASS
  1
ARCALIGNEDTEXT
  2
AcDbArcAlignedText
  3
ATEXT|AutoCAD Express Tool|expresstools@autodesk.com
 90
        0
280
     0
281
     1
  0
ENDSEC
  0
SECTION
  2
TABLES
  0
TABLE
  2
VPORT
  5
6
100
AcDbSymbolTable
 70
     1
  0
VPORT
  5
19
100
AcDbSymbolTableRecord
100
AcDbViewportTableRecord
  2
*ACTIVE
 70
     0
 10
0.0
 20
0.0
 11
1.0
 21
1.0
 12
0.0
 22
0.0
 13
0.0
 23
0.0
 14
1.0
 24
1.0
 15
0.0
 25
0.0
 16
0.0
 26
0.0
 36
1.0
 17
0.0
 27
0.0
 37
0.0
 40
891.0
 41
1.414141
 42
50.0
 43
0.0
 44
0.0
 50
0.0
 51
0.0
 71
     0
 72
   500
 73
     1
 74
     1
 75
     0
 76
     0
 77
     0
 78
     0
281
     0
 65
     0
110
0.0
120
0.0
130
0.0
111
1.0
121
0.0
131
0.0
112
0.0
122
1.0
132
0.0
345
0
346
0
 79
     0
146
0.0
  0
ENDTAB
  0
TABLE
  2
LTYPE
  5
3
100
AcDbSymbolTable
 70
     9
  0
LTYPE
  5
C
100
AcDbSymbolTableRecord
100
AcDbLinetypeTableRecord
  2
ByBlock
 70
    64
  3

 72
    65
 73
     0
 40
0.0
  0
LTYPE
  5
D
100
AcDbSymbolTableRecord
100
AcDbLinetypeTableRecord
  2
ByLayer
 70
    64
  3

 72
    65
 73
     0
 40
0.0
  0
LTYPE
  5
E
100
AcDbSymbolTableRecord
100
AcDbLinetypeTableRecord
  2
CONTINUOUS
 70
     0
  3
Solid line
 72
    65
 73
     0
 40
0.0
  0
LTYPE
  5
F
100
AcDbSymbolTableRecord
100
AcDbLinetypeTableRecord
  2
DASHED
 70
     0
  3
__ __ __ __ __ __ __ __ __ __ __ __ __ __ __
 72
    65
 73
     2
 40
2.0
 49
1.2
 74
     0
 49
-0.8
 74
     0
  0
LTYPE
  5
10
100
AcDbSymbolTableRecord
100
AcDbLinetypeTableRecord
  2
CENTER
 70
     0
  3
____ _ ____ _ ____ _ ____ _ ____ _ ____ _ ____
 72
    65
 73
     4
 40
12.0
 49
9.0
 74
     0
 49
-1.0
 74
     0
 49
1.0
 74
     0
 49
-1.0
 74
     0
  0
LTYPE
  5
11
100
AcDbSymbolTableRecord
100
AcDbLinetypeTableRecord
  2
HIDDEN
 70
     0
  3
_ _ _ _ _ _ _ _ _ _ _ _ _ _ _ _ _ _ _ _ _ _ _
 72
    65
 73
     2
 40
3.2
 49
2.4
 74
     0
 49
-0.8
 74
     0
  0
LTYPE
  5
12
100
AcDbSymbolTableRecord
100
AcDbLinetypeTableRecord
  2
PHANTOM
 70
     0
  3
_____ _ _ _____ _ _ _____ _ _ _____ _ _ _____
 72
    65
 73
     6
 40
13.5
 49
9.0
 74
     0
 49
-1.0
 74
     0
 49
1.0
 74
     0
 49
-0.5
 74
     0
 49
1.0
 74
     0
 49
-1.0
 74
     0
  0
LTYPE
  5
13
100
AcDbSymbolTableRecord
100
AcDbLinetypeTableRecord
  2
DOT
 70
     0
  3
...............................................
 72
    65
 73
     2
 40
1.0
 49
0.5
 74
     0
 49
-0.5
 74
     0
  0
LTYPE
  5
14
100
AcDbSymbolTableRecord
100
AcDbLinetypeTableRecord
  2
DASHDOT
 70
     0
  3
__ . __ . __ . __ . __ . __ . __ . __ . __ . __
 72
    65
 73
     4
 40
8.0
 49
5.0
 74
     0
 49
-1.0
 74
     0
 49
1.0
 74
     0
 49
-1.0
 74
     0
  0
ENDTAB
  0
TABLE
  2
LAYER
  5
1
100
AcDbSymbolTable
 70
     4
  0
LAYER
  5
15
100
AcDbSymbolTableRecord
100
AcDbLayerTableRecord
  2
0
 70
     0
 62
     7
  6
CONTINUOUS
290
     1
370
    -3
390
0
  0
LAYER
  5
16
100
AcDbSymbolTableRecord
100
AcDbLayerTableRecord
  2
1
 70
     0
 62
     7
  6
CONTINUOUS
290
     1
370
    -3
390
0
  0
LAYER
  5
17
100
AcDbSymbolTableRecord
100
AcDbLayerTableRecord
  2
2
 70
     0
 62
     7
  6
CONTINUOUS
290
     1
370
    -3
390
0
  0
LAYER
  5
18
100
AcDbSymbolTableRecord
100
AcDbLayerTableRecord
  2
3
 70
     0
 62
     7
  6
CONTINUOUS
290
     1
370
    -3
390
0
  0
ENDTAB
  0
TABLE
  2
STYLE
  5
2
100
AcDbSymbolTable
 70
     1
  0
STYLE
  5
1B
100
AcDbSymbolTableRecord
100
AcDbTextStyleTableRecord
  2
STANDARD
 70
    64
 40
0.0
 41
1.0
 50
0.0
 71
     0
 42
1.0
  3
txt
  4
BIGFONT
  0
ENDTAB
  0
TABLE
  2
VIEW
  5
4
100
AcDbSymbolTable
 70
     0
  0
ENDTAB
  0
TABLE
  2
UCS
  5
5
100
AcDbSymbolTable
 70
     0
  0
ENDTAB
  0
TABLE
  2
APPID
  5
7
100
AcDbSymbolTable
 70
     1
  0
APPID
  5
1A
100
AcDbSymbolTableRecord
100
AcDbRegAppTableRecord
  2
ACAD
 70
     0
  0
ENDTAB
  0
TABLE
  2
DIMSTYLE
  5
8
100
AcDbSymbolTable
 70
     1
100
AcDbDimStyleTable
 71
     0
  0
DIMSTYLE
105
32
100
AcDbSymbolTableRecord
100
AcDbDimStyleTableRecord
  2
Standard
 70
     0
  3

  4

 40
3.0
 41
2.0
 42
1.0
 43
0.38
 44
2.0
 45
0.0
 46
0.0
 47
0.0
 48
0.0
 71
     0
 72
     0
 73
     0
 74
     0
 75
     0
 76
     0
 77
     1
 78
     0
 79
     0
140
3.5
141
0.09
142
0.0
143
25.4
144
1.0
145
0.0
146
1.0
147
0.5
148
0.0
170
     0
171
     2
172
     0
173
     0
174
     0
175
     0
176
     0
177
     0
178
     0
179
     0
271
     3
272
     4
273
     2
274
     2
275
     0
276
     0
277
     2
278
    46
279
     0
280
     0
281
     0
282
     0
283
     1
284
     0
285
     0
286
     0
288
     0
289
     3
340
1B
341
0
342
0
343
0
344
0
371
    -2
372
    -2
  0
ENDTAB
  0
TABLE
  2
BLOCK_RECORD
  5
2D
100
AcDbSymbolTable
 70
    15
  0
BLOCK_RECORD
  5
2B
100
AcDbSymbolTableRecord
100
AcDbBlockTableRecord
  2
*Model_Space
340
0
  0
BLOCK_RECORD
  5
2C
100
AcDbSymbolTableRecord
100
AcDbBlockTableRecord
  2
*Paper_Space
340
0
  0
BLOCK_RECORD
  5
1C
100
AcDbSymbolTableRecord
100
AcDbBlockTableRecord
  2
*D0
340
0
  0
BLOCK_RECORD
  5
1D
100
AcDbSymbolTableRecord
100
AcDbBlockTableRecord
  2
*D1
340
0
  0
BLOCK_RECORD
  5
1E
100
AcDbSymbolTableRecord
100
AcDbBlockTableRecord
  2
*D2
340
0
  0
BLOCK_RECORD
  5
1F
100
AcDbSymbolTableRecord
100
AcDbBlockTableRecord
  2
*D3
340
0
  0
BLOCK_RECORD
  5
20
100
AcDbSymbolTableRecord
100
AcDbBlockTableRecord
  2
*D4
340
0
  0
BLOCK_RECORD
  5
21
100
AcDbSymbolTableRecord
100
AcDbBlockTableRecord
  2
*D5
340
0
  0
BLOCK_RECORD
  5
22
100
AcDbSymbolTableRecord
100
AcDbBlockTableRecord
  2
*D6
340
0
  0
BLOCK_RECORD
  5
23
100
AcDbSymbolTableRecord
100
AcDbBlockTableRecord
  2
*D7
340
0
  0
BLOCK_RECORD
  5
24
100
AcDbSymbolTableRecord
100
AcDbBlockTableRecord
  2
*D8
340
0
  0
BLOCK_RECORD
  5
25
100
AcDbSymbolTableRecord
100
AcDbBlockTableRecord
  2
*D9
340
0
  0
BLOCK_RECORD
  5
26
100
AcDbSymbolTableRecord
100
AcDbBlockTableRecord
  2
*D10
340
0
  0
BLOCK_RECORD
  5
27
100
AcDbSymbolTableRecord
100
AcDbBlockTableRecord
  2
*D11
340
0
  0
BLOCK_RECORD
  5
28
100
AcDbSymbolTableRecord
100
AcDbBlockTableRecord
  2
*D12
340
0
  0
BLOCK_RECORD
  5
29
100
AcDbSymbolTableRecord
100
AcDbBlockTableRecord
  2
*D13
340
0
  0
BLOCK_RECORD
  5
2A
100
AcDbSymbolTableRecord
100
AcDbBlockTableRecord
  2
*D14
340
0
  0
ENDTAB
  0
ENDSEC
  0
SECTION
  2
BLOCKS
  0
BLOCK
  5
2E
100
AcDbEntity
  8
0
390
0
100
AcDbBlockBegin
  2
*Model_Space
 70
     0
 10
0.0
 20
0.0
 30
0.0
  3
*Model_Space
  1

  0
ENDBLK
  5
2F
100
AcDbEntity
  8
0
390
0
100
AcDbBlockEnd
  0
BLOCK
  5
30
100
AcDbEntity
 67
     1
  8
0
390
0
100
AcDbBlockBegin
  2
*Paper_Space
 70
     0
 10
0.0
 20
0.0
 30
0.0
  3
*Paper_Space
  1

  0
ENDBLK
  5
31
100
AcDbEntity
 67
     1
  8
0
390
0
100
AcDbBlockEnd
  0
BLOCK
  5
65E
100
AcDbEntity
  8
3
100
AcDbBlockBegin
  2
*D0
 70
     1
 10
0.0
 20
0.0
 30
0.0
  3
*D0
  1

  0
TEXT
  5
65F
100
AcDbEntity
  8
3
370
    25
100
AcDbText
 10
-220.522293
 20
-90.117685
 30
0.0
 40
10.5
  1
１５７．５
 50
90.0
 72
     5
 11
-220.522293
 21
-39.717685
 31
0.0
100
AcDbText
  0
LINE
  5
660
100
AcDbEntity
  8
3
370
    25
100
AcDbLine
 10
-353.498683
 20
-142.617685
 30
0.0
 11
-216.022293
 21
-142.617685
 31
0.0
  0
LINE
  5
661
100
AcDbEntity
  8
3
370
    25
100
AcDbLine
 10
-219.022293
 20
-142.617685
 30
0.0
 11
-217.469379
 21
-136.82213
 31
0.0
  0
LINE
  5
662
100
AcDbEntity
  8
3
370
    25
100
AcDbLine
 10
-219.022293
 20
-142.617685
 30
0.0
 11
-220.575207
 21
-136.82213
 31
0.0
  0
LINE
  5
663
100
AcDbEntity
  8
3
370
    25
100
AcDbLine
 10
-217.469379
 20
-136.82213
 30
0.0
 11
-220.575207
 21
-136.82213
 31
0.0
  0
LINE
  5
664
100
AcDbEntity
  8
3
370
    25
100
AcDbLine
 10
-219.022293
 20
-142.617685
 30
0.0
 11
-219.022293
 21
14.882315
 31
0.0
  0
LINE
  5
665
100
AcDbEntity
  8
3
370
    25
100
AcDbLine
 10
-219.022293
 20
14.882315
 30
0.0
 11
-220.575207
 21
9.08676
 31
0.0
  0
LINE
  5
666
100
AcDbEntity
  8
3
370
    25
100
AcDbLine
 10
-219.022293
 20
14.882315
 30
0.0
 11
-217.469379
 21
9.08676
 31
0.0
  0
LINE
  5
667
100
AcDbEntity
  8
3
370
    25
100
AcDbLine
 10
-220.575207
 20
9.08676
 30
0.0
 11
-217.469379
 21
9.08676
 31
0.0
  0
LINE
  5
668
100
AcDbEntity
  8
3
370
    25
100
AcDbLine
 10
-299.248683
 20
14.882315
 30
0.0
 11
-216.022293
 21
14.882315
 31
0.0
  0
ENDBLK
  5
669
100
AcDbEntity
  8
3
100
AcDbBlockEnd
  0
BLOCK
  5
66A
100
AcDbEntity
  8
3
100
AcDbBlockBegin
  2
*D1
 70
     1
 10
0.0
 20
0.0
 30
0.0
  3
*D1
  1

  0
TEXT
  5
66B
100
AcDbEntity
  8
3
370
    25
100
AcDbText
 10
-295.206308
 20
46.616849
 30
0.0
 40
10.5
  1
２５゜
 50
347.5
 72
     5
 11
-266.503205
 21
40.253524
 31
0.0
100
AcDbText
  0
LINE
  5
66C
100
AcDbEntity
  8
3
370
    25
100
AcDbLine
 10
-267.521078
 20
4.724763
 30
0.0
 11
-252.442635
 21
37.06059
 31
0.0
  0
LINE
  5
66D
100
AcDbEntity
  8
3
370
    25
100
AcDbLine
 10
-307.248683
 20
20.41477
 30
0.0
 11
-307.248683
 21
49.210798
 31
0.0
  0
LINE
  5
66E
100
AcDbEntity
  8
3
370
    25
100
AcDbLine
 10
-253.71049
 20
34.341666
 30
0.0
 11
-258.393774
 21
38.092246
 31
0.0
  0
LINE
  5
66F
100
AcDbEntity
  8
3
370
    25
100
AcDbLine
 10
-253.71049
 20
34.341666
 30
0.0
 11
-259.641623
 21
35.248122
 31
0.0
  0
LINE
  5
670
100
AcDbEntity
  8
3
370
    25
100
AcDbLine
 10
-258.393774
 20
38.092246
 30
0.0
 11
-259.641623
 21
35.248122
 31
0.0
  0
LINE
  5
671
100
AcDbEntity
  8
3
370
    25
100
AcDbLine
 10
-307.248683
 20
46.210798
 30
0.0
 11
-301.490167
 21
44.52572
 31
0.0
  0
LINE
  5
672
100
AcDbEntity
  8
3
370
    25
100
AcDbLine
 10
-307.248683
 20
46.210798
 30
0.0
 11
-301.419123
 21
47.630736
 31
0.0
  0
LINE
  5
673
100
AcDbEntity
  8
3
370
    25
100
AcDbLine
 10
-301.490167
 20
44.52572
 30
0.0
 11
-301.419123
 21
47.630736
 31
0.0
  0
ARC
  5
674
100
AcDbEntity
  8
3
370
    25
100
AcDbCircle
 10
-307.248683
 20
-80.471362
 30
0.0
 40
126.68216
100
AcDbArc
 50
65.0
 51
90.0
  0
ENDBLK
  5
675
100
AcDbEntity
  8
3
100
AcDbBlockEnd
  0
BLOCK
  5
676
100
AcDbEntity
  8
3
100
AcDbBlockBegin
  2
*D2
 70
     1
 10
0.0
 20
0.0
 30
0.0
  3
*D2
  1

  0
TEXT
  5
677
100
AcDbEntity
  8
3
370
    25
100
AcDbText
 10
-172.94672
 20
-101.867685
 30
0.0
 40
10.5
  1
（１３４）
 50
90.0
 72
     5
 11
-172.94672
 21
-51.467685
 31
0.0
100
AcDbText
  0
LINE
  5
678
100
AcDbEntity
  8
3
370
    25
100
AcDbLine
 10
88.90026
 20
-142.617685
 30
0.0
 11
-174.44672
 21
-142.617685
 31
0.0
  0
LINE
  5
679
100
AcDbEntity
  8
3
370
    25
100
AcDbLine
 10
-171.44672
 20
-142.617685
 30
0.0
 11
-169.893806
 21
-136.82213
 31
0.0
  0
LINE
  5
67A
100
AcDbEntity
  8
3
370
    25
100
AcDbLine
 10
-171.44672
 20
-142.617685
 30
0.0
 11
-172.999634
 21
-136.82213
 31
0.0
  0
LINE
  5
67B
100
AcDbEntity
  8
3
370
    25
100
AcDbLine
 10
-169.893806
 20
-136.82213
 30
0.0
 11
-172.999634
 21
-136.82213
 31
0.0
  0
LINE
  5
67C
100
AcDbEntity
  8
3
370
    25
100
AcDbLine
 10
-171.44672
 20
-142.617685
 30
0.0
 11
-171.44672
 21
-8.617685
 31
0.0
  0
LINE
  5
67D
100
AcDbEntity
  8
3
370
    25
100
AcDbLine
 10
-171.44672
 20
-8.617685
 30
0.0
 11
-172.999634
 21
-14.41324
 31
0.0
  0
LINE
  5
67E
100
AcDbEntity
  8
3
370
    25
100
AcDbLine
 10
-171.44672
 20
-8.617685
 30
0.0
 11
-169.893806
 21
-14.41324
 31
0.0
  0
LINE
  5
67F
100
AcDbEntity
  8
3
370
    25
100
AcDbLine
 10
-172.999634
 20
-14.41324
 30
0.0
 11
-169.893806
 21
-14.41324
 31
0.0
  0
LINE
  5
680
100
AcDbEntity
  8
3
370
    25
100
AcDbLine
 10
-142.91474
 20
-8.617685
 30
0.0
 11
-174.44672
 21
-8.617685
 31
0.0
  0
ENDBLK
  5
681
100
AcDbEntity
  8
3
100
AcDbBlockEnd
  0
BLOCK
  5
682
100
AcDbEntity
  8
3
100
AcDbBlockBegin
  2
*D3
 70
     1
 10
0.0
 20
0.0
 30
0.0
  3
*D3
  1

  0
TEXT
  5
683
100
AcDbEntity
  8
3
370
    25
100
AcDbText
 10
-19.59974
 20
62.12681
 30
0.0
 40
10.5
  1
２４０
 72
     5
 11
9.80026
 21
62.12681
 31
0.0
100
AcDbText
  0
LINE
  5
684
100
AcDbEntity
  8
3
370
    25
100
AcDbLine
 10
-123.84974
 20
60.62681
 30
0.0
 11
-118.054185
 21
59.073896
 31
0.0
  0
LINE
  5
685
100
AcDbEntity
  8
3
370
    25
100
AcDbLine
 10
-123.84974
 20
60.62681
 30
0.0
 11
-118.054185
 21
62.179724
 31
0.0
  0
LINE
  5
686
100
AcDbEntity
  8
3
370
    25
100
AcDbLine
 10
-118.054185
 20
59.073896
 30
0.0
 11
-118.054185
 21
62.179724
 31
0.0
  0
LINE
  5
687
100
AcDbEntity
  8
3
370
    25
100
AcDbLine
 10
-123.84974
 20
60.62681
 30
0.0
 11
116.15026
 21
60.62681
 31
0.0
  0
LINE
  5
688
100
AcDbEntity
  8
3
370
    25
100
AcDbLine
 10
116.15026
 20
60.62681
 30
0.0
 11
110.354705
 21
62.179724
 31
0.0
  0
LINE
  5
689
100
AcDbEntity
  8
3
370
    25
100
AcDbLine
 10
116.15026
 20
60.62681
 30
0.0
 11
110.354705
 21
59.073896
 31
0.0
  0
LINE
  5
68A
100
AcDbEntity
  8
3
370
    25
100
AcDbLine
 10
110.354705
 20
62.179724
 30
0.0
 11
110.354705
 21
59.073896
 31
0.0
  0
ENDBLK
  5
68B
100
AcDbEntity
  8
3
100
AcDbBlockEnd
  0
BLOCK
  5
68C
100
AcDbEntity
  8
3
100
AcDbBlockBegin
  2
*D4
 70
     1
 10
0.0
 20
0.0
 30
0.0
  3
*D4
  1

  0
TEXT
  5
68D
100
AcDbEntity
  8
3
370
    25
100
AcDbText
 10
328.464272
 20
-18.867685
 30
0.0
 40
10.5
  1
２７９
 50
90.0
 72
     5
 11
328.464272
 21
10.532315
 31
0.0
100
AcDbText
  0
LINE
  5
68E
100
AcDbEntity
  8
3
370
    25
100
AcDbLine
 10
143.40026
 20
-142.617685
 30
0.0
 11
332.964272
 21
-142.617685
 31
0.0
  0
LINE
  5
68F
100
AcDbEntity
  8
3
370
    25
100
AcDbLine
 10
329.964272
 20
-142.617685
 30
0.0
 11
331.517186
 21
-136.82213
 31
0.0
  0
LINE
  5
690
100
AcDbEntity
  8
3
370
    25
100
AcDbLine
 10
329.964272
 20
-142.617685
 30
0.0
 11
328.411357
 21
-136.82213
 31
0.0
  0
LINE
  5
691
100
AcDbEntity
  8
3
370
    25
100
AcDbLine
 10
331.517186
 20
-136.82213
 30
0.0
 11
328.411357
 21
-136.82213
 31
0.0
  0
LINE
  5
692
100
AcDbEntity
  8
3
370
    25
100
AcDbLine
 10
329.964272
 20
-142.617685
 30
0.0
 11
329.964272
 21
136.382315
 31
0.0
  0
LINE
  5
693
100
AcDbEntity
  8
3
370
    25
100
AcDbLine
 10
329.964272
 20
136.382315
 30
0.0
 11
328.411357
 21
130.58676
 31
0.0
  0
LINE
  5
694
100
AcDbEntity
  8
3
370
    25
100
AcDbLine
 10
329.964272
 20
136.382315
 30
0.0
 11
331.517186
 21
130.58676
 31
0.0
  0
LINE
  5
695
100
AcDbEntity
  8
3
370
    25
100
AcDbLine
 10
328.411357
 20
130.58676
 30
0.0
 11
331.517186
 21
130.58676
 31
0.0
  0
LINE
  5
696
100
AcDbEntity
  8
3
370
    25
100
AcDbLine
 10
136.65026
 20
136.382315
 30
0.0
 11
332.964272
 21
136.382315
 31
0.0
  0
ENDBLK
  5
697
100
AcDbEntity
  8
3
100
AcDbBlockEnd
  0
BLOCK
  5
698
100
AcDbEntity
  8
3
100
AcDbBlockBegin
  2
*D5
 70
     1
 10
0.0
 20
0.0
 30
0.0
  3
*D5
  1

  0
TEXT
  5
699
100
AcDbEntity
  8
3
370
    25
100
AcDbText
 10
217.572533
 20
221.632315
 30
0.0
 40
10.5
  1
（２２３）
 50
90.0
 72
     5
 11
217.572533
 21
272.032315
 31
0.0
100
AcDbText
  0
LINE
  5
69A
100
AcDbEntity
  8
3
370
    25
100
AcDbLine
 10
136.65026
 20
136.382315
 30
0.0
 11
222.072533
 21
136.382315
 31
0.0
  0
LINE
  5
69B
100
AcDbEntity
  8
3
370
    25
100
AcDbLine
 10
219.072533
 20
136.382315
 30
0.0
 11
220.625447
 21
142.17787
 31
0.0
  0
LINE
  5
69C
100
AcDbEntity
  8
3
370
    25
100
AcDbLine
 10
219.072533
 20
136.382315
 30
0.0
 11
217.519618
 21
142.17787
 31
0.0
  0
LINE
  5
69D
100
AcDbEntity
  8
3
370
    25
100
AcDbLine
 10
220.625447
 20
142.17787
 30
0.0
 11
217.519618
 21
142.17787
 31
0.0
  0
LINE
  5
69E
100
AcDbEntity
  8
3
370
    25
100
AcDbLine
 10
219.072533
 20
136.382315
 30
0.0
 11
219.072533
 21
359.382315
 31
0.0
  0
LINE
  5
69F
100
AcDbEntity
  8
3
370
    25
100
AcDbLine
 10
219.072533
 20
359.382315
 30
0.0
 11
217.519618
 21
353.58676
 31
0.0
  0
LINE
  5
6A0
100
AcDbEntity
  8
3
370
    25
100
AcDbLine
 10
219.072533
 20
359.382315
 30
0.0
 11
220.625447
 21
353.58676
 31
0.0
  0
LINE
  5
6A1
100
AcDbEntity
  8
3
370
    25
100
AcDbLine
 10
217.519618
 20
353.58676
 30
0.0
 11
220.625447
 21
353.58676
 31
0.0
  0
LINE
  5
6A2
100
AcDbEntity
  8
3
370
    25
100
AcDbLine
 10
1.080916
 20
359.382315
 30
0.0
 11
222.072533
 21
359.382315
 31
0.0
  0
ENDBLK
  5
6A3
100
AcDbEntity
  8
3
100
AcDbBlockEnd
  0
BLOCK
  5
6A4
100
AcDbEntity
  8
3
100
AcDbBlockBegin
  2
*D6
 70
     1
 10
0.0
 20
0.0
 30
0.0
  3
*D6
  1

  0
TEXT
  5
6A5
100
AcDbEntity
  8
3
370
    25
100
AcDbText
 10
-518.431549
 20
82.132315
 30
0.0
 40
10.5
  1
（５０２）
 50
90.0
 72
     5
 11
-518.431549
 21
132.532315
 31
0.0
100
AcDbText
  0
LINE
  5
6A6
100
AcDbEntity
  8
3
370
    25
100
AcDbLine
 10
-407.998683
 20
-142.617685
 30
0.0
 11
-519.931549
 21
-142.617685
 31
0.0
  0
LINE
  5
6A7
100
AcDbEntity
  8
3
370
    25
100
AcDbLine
 10
-516.931549
 20
-142.617685
 30
0.0
 11
-515.378635
 21
-136.82213
 31
0.0
  0
LINE
  5
6A8
100
AcDbEntity
  8
3
370
    25
100
AcDbLine
 10
-516.931549
 20
-142.617685
 30
0.0
 11
-518.484463
 21
-136.82213
 31
0.0
  0
LINE
  5
6A9
100
AcDbEntity
  8
3
370
    25
100
AcDbLine
 10
-515.378635
 20
-136.82213
 30
0.0
 11
-518.484463
 21
-136.82213
 31
0.0
  0
LINE
  5
6AA
100
AcDbEntity
  8
3
370
    25
100
AcDbLine
 10
-516.931549
 20
-142.617685
 30
0.0
 11
-516.931549
 21
359.382315
 31
0.0
  0
LINE
  5
6AB
100
AcDbEntity
  8
3
370
    25
100
AcDbLine
 10
-516.931549
 20
359.382315
 30
0.0
 11
-518.484463
 21
353.58676
 31
0.0
  0
LINE
  5
6AC
100
AcDbEntity
  8
3
370
    25
100
AcDbLine
 10
-516.931549
 20
359.382315
 30
0.0
 11
-515.378635
 21
353.58676
 31
0.0
  0
LINE
  5
6AD
100
AcDbEntity
  8
3
370
    25
100
AcDbLine
 10
-518.484463
 20
353.58676
 30
0.0
 11
-515.378635
 21
353.58676
 31
0.0
  0
LINE
  5
6AE
100
AcDbEntity
  8
3
370
    25
100
AcDbLine
 10
-387.498683
 20
359.382315
 30
0.0
 11
-519.931549
 21
359.382315
 31
0.0
  0
ENDBLK
  5
6AF
100
AcDbEntity
  8
3
100
AcDbBlockEnd
  0
BLOCK
  5
6B0
100
AcDbEntity
  8
3
100
AcDbBlockBegin
  2
*D7
 70
     1
 10
0.0
 20
0.0
 30
0.0
  3
*D7
  1

  0
TEXT
  5
6B1
100
AcDbEntity
  8
3
370
    25
100
AcDbText
 10
-469.998683
 20
-110.820076
 30
0.0
 40
10.5
  1
φ４９．５
 72
     5
 11
-419.598683
 21
-110.820076
 31
0.0
100
AcDbText
  0
LINE
  5
6B2
100
AcDbEntity
  8
3
370
    25
100
AcDbLine
 10
-355.998683
 20
-120.117685
 30
0.0
 11
-355.998683
 21
-109.320076
 31
0.0
  0
LINE
  5
6B3
100
AcDbEntity
  8
3
370
    25
100
AcDbLine
 10
-355.998683
 20
-112.320076
 30
0.0
 11
-350.203128
 21
-113.87299
 31
0.0
  0
LINE
  5
6B4
100
AcDbEntity
  8
3
370
    25
100
AcDbLine
 10
-355.998683
 20
-112.320076
 30
0.0
 11
-350.203128
 21
-110.767162
 31
0.0
  0
LINE
  5
6B5
100
AcDbEntity
  8
3
370
    25
100
AcDbLine
 10
-350.203128
 20
-113.87299
 30
0.0
 11
-350.203128
 21
-110.767162
 31
0.0
  0
LINE
  5
6B6
100
AcDbEntity
  8
3
370
    25
100
AcDbLine
 10
-340.998683
 20
-112.320076
 30
0.0
 11
-469.998683
 21
-112.320076
 31
0.0
  0
LINE
  5
6B7
100
AcDbEntity
  8
3
370
    25
100
AcDbLine
 10
-405.498683
 20
-112.320076
 30
0.0
 11
-411.294238
 21
-110.767162
 31
0.0
  0
LINE
  5
6B8
100
AcDbEntity
  8
3
370
    25
100
AcDbLine
 10
-405.498683
 20
-112.320076
 30
0.0
 11
-411.294238
 21
-113.87299
 31
0.0
  0
LINE
  5
6B9
100
AcDbEntity
  8
3
370
    25
100
AcDbLine
 10
-411.294238
 20
-110.767162
 30
0.0
 11
-411.294238
 21
-113.87299
 31
0.0
  0
LINE
  5
6BA
100
AcDbEntity
  8
3
370
    25
100
AcDbLine
 10
-405.498683
 20
-120.117685
 30
0.0
 11
-405.498683
 21
-109.320076
 31
0.0
  0
ENDBLK
  5
6BB
100
AcDbEntity
  8
3
100
AcDbBlockEnd
  0
BLOCK
  5
6BC
100
AcDbEntity
  8
3
100
AcDbBlockBegin
  2
*D8
 70
     1
 10
0.0
 20
0.0
 30
0.0
  3
*D8
  1

  0
TEXT
  5
6BD
100
AcDbEntity
  8
3
370
    25
100
AcDbText
 10
-353.873683
 20
72.236395
 30
0.0
 40
10.5
  1
８２
 72
     5
 11
-334.973683
 21
72.236395
 31
0.0
100
AcDbText
  0
LINE
  5
6BE
100
AcDbEntity
  8
3
370
    25
100
AcDbLine
 10
-384.498683
 20
70.736395
 30
0.0
 11
-378.703128
 21
69.183481
 31
0.0
  0
LINE
  5
6BF
100
AcDbEntity
  8
3
370
    25
100
AcDbLine
 10
-384.498683
 20
70.736395
 30
0.0
 11
-378.703128
 21
72.289309
 31
0.0
  0
LINE
  5
6C0
100
AcDbEntity
  8
3
370
    25
100
AcDbLine
 10
-378.703128
 20
69.183481
 30
0.0
 11
-378.703128
 21
72.289309
 31
0.0
  0
LINE
  5
6C1
100
AcDbEntity
  8
3
370
    25
100
AcDbLine
 10
-384.498683
 20
70.736395
 30
0.0
 11
-302.248683
 21
70.736395
 31
0.0
  0
LINE
  5
6C2
100
AcDbEntity
  8
3
370
    25
100
AcDbLine
 10
-302.248683
 20
70.736395
 30
0.0
 11
-308.044238
 21
72.289309
 31
0.0
  0
LINE
  5
6C3
100
AcDbEntity
  8
3
370
    25
100
AcDbLine
 10
-302.248683
 20
70.736395
 30
0.0
 11
-308.044238
 21
69.183481
 31
0.0
  0
LINE
  5
6C4
100
AcDbEntity
  8
3
370
    25
100
AcDbLine
 10
-308.044238
 20
72.289309
 30
0.0
 11
-308.044238
 21
69.183481
 31
0.0
  0
LINE
  5
6C5
100
AcDbEntity
  8
3
370
    25
100
AcDbLine
 10
-302.248683
 20
17.882315
 30
0.0
 11
-302.248683
 21
73.736395
 31
0.0
  0
ENDBLK
  5
6C6
100
AcDbEntity
  8
3
100
AcDbBlockEnd
  0
BLOCK
  5
6C7
100
AcDbEntity
  8
3
100
AcDbBlockBegin
  2
*D9
 70
     1
 10
0.0
 20
0.0
 30
0.0
  3
*D9
  1

  0
TEXT
  5
6C8
100
AcDbEntity
  8
3
370
    25
100
AcDbText
 10
-340.626136
 20
118.458332
 30
0.0
 40
10.5
  1
１１９
 72
     5
 11
-311.226136
 21
118.458332
 31
0.0
100
AcDbText
  0
LINE
  5
6C9
100
AcDbEntity
  8
3
370
    25
100
AcDbLine
 10
-384.498683
 20
109.472866
 30
0.0
 11
-384.498683
 21
119.958332
 31
0.0
  0
LINE
  5
6CA
100
AcDbEntity
  8
3
370
    25
100
AcDbLine
 10
-384.498683
 20
116.958332
 30
0.0
 11
-378.703128
 21
115.405418
 31
0.0
  0
LINE
  5
6CB
100
AcDbEntity
  8
3
370
    25
100
AcDbLine
 10
-384.498683
 20
116.958332
 30
0.0
 11
-378.703128
 21
118.511246
 31
0.0
  0
LINE
  5
6CC
100
AcDbEntity
  8
3
370
    25
100
AcDbLine
 10
-378.703128
 20
115.405418
 30
0.0
 11
-378.703128
 21
118.511246
 31
0.0
  0
LINE
  5
6CD
100
AcDbEntity
  8
3
370
    25
100
AcDbLine
 10
-384.498683
 20
116.958332
 30
0.0
 11
-265.253588
 21
116.958332
 31
0.0
  0
LINE
  5
6CE
100
AcDbEntity
  8
3
370
    25
100
AcDbLine
 10
-265.253588
 20
116.958332
 30
0.0
 11
-271.049143
 21
118.511246
 31
0.0
  0
LINE
  5
6CF
100
AcDbEntity
  8
3
370
    25
100
AcDbLine
 10
-265.253588
 20
116.958332
 30
0.0
 11
-271.049143
 21
115.405418
 31
0.0
  0
LINE
  5
6D0
100
AcDbEntity
  8
3
370
    25
100
AcDbLine
 10
-271.049143
 20
118.511246
 30
0.0
 11
-271.049143
 21
115.405418
 31
0.0
  0
LINE
  5
6D1
100
AcDbEntity
  8
3
370
    25
100
AcDbLine
 10
-265.253588
 20
0.756403
 30
0.0
 11
-265.253588
 21
119.958332
 31
0.0
  0
ENDBLK
  5
6D2
100
AcDbEntity
  8
3
100
AcDbBlockEnd
  0
BLOCK
  5
6D3
100
AcDbEntity
  8
3
100
AcDbBlockBegin
  2
*D10
 70
     1
 10
0.0
 20
0.0
 30
0.0
  3
*D10
  1

  0
TEXT
  5
6D4
100
AcDbEntity
  8
3
370
    25
100
AcDbText
 10
-258.142113
 20
-130.867685
 30
0.0
 40
10.5
  1
６５．５
 50
90.0
 72
     5
 11
-258.142113
 21
-90.967685
 31
0.0
100
AcDbText
  0
LINE
  5
6D5
100
AcDbEntity
  8
3
370
    25
100
AcDbLine
 10
-353.498683
 20
-142.617685
 30
0.0
 11
-253.642113
 21
-142.617685
 31
0.0
  0
LINE
  5
6D6
100
AcDbEntity
  8
3
370
    25
100
AcDbLine
 10
-256.642113
 20
-142.617685
 30
0.0
 11
-255.089198
 21
-136.82213
 31
0.0
  0
LINE
  5
6D7
100
AcDbEntity
  8
3
370
    25
100
AcDbLine
 10
-256.642113
 20
-142.617685
 30
0.0
 11
-258.195027
 21
-136.82213
 31
0.0
  0
LINE
  5
6D8
100
AcDbEntity
  8
3
370
    25
100
AcDbLine
 10
-255.089198
 20
-136.82213
 30
0.0
 11
-258.195027
 21
-136.82213
 31
0.0
  0
LINE
  5
6D9
100
AcDbEntity
  8
3
370
    25
100
AcDbLine
 10
-256.642113
 20
-142.617685
 30
0.0
 11
-256.642113
 21
-77.117685
 31
0.0
  0
LINE
  5
6DA
100
AcDbEntity
  8
3
370
    25
100
AcDbLine
 10
-256.642113
 20
-77.117685
 30
0.0
 11
-258.195027
 21
-82.91324
 31
0.0
  0
LINE
  5
6DB
100
AcDbEntity
  8
3
370
    25
100
AcDbLine
 10
-256.642113
 20
-77.117685
 30
0.0
 11
-255.089198
 21
-82.91324
 31
0.0
  0
LINE
  5
6DC
100
AcDbEntity
  8
3
370
    25
100
AcDbLine
 10
-258.195027
 20
-82.91324
 30
0.0
 11
-255.089198
 21
-82.91324
 31
0.0
  0
LINE
  5
6DD
100
AcDbEntity
  8
3
370
    25
100
AcDbLine
 10
-286.942346
 20
-77.117685
 30
0.0
 11
-253.642113
 21
-77.117685
 31
0.0
  0
ENDBLK
  5
6DE
100
AcDbEntity
  8
3
100
AcDbBlockEnd
  0
BLOCK
  5
6DF
100
AcDbEntity
  8
3
100
AcDbBlockBegin
  2
*D11
 70
     1
 10
0.0
 20
0.0
 30
0.0
  3
*D11
  1

  0
TEXT
  5
6E0
100
AcDbEntity
  8
3
370
    25
100
AcDbText
 10
38.981842
 20
14.541934
 30
0.0
 40
10.5
  1
１００゜
 50
30.0
 72
     5
 11
73.536256
 21
34.491934
 31
0.0
100
AcDbText
  0
LINE
  5
6E1
100
AcDbEntity
  8
3
370
    25
100
AcDbLine
 10
149.291381
 20
13.936798
 30
0.0
 11
157.009275
 21
35.141536
 31
0.0
  0
LINE
  5
6E2
100
AcDbEntity
  8
3
370
    25
100
AcDbLine
 10
19.336041
 20
-60.046726
 30
0.0
 11
-1.498585
 21
-56.37302
 31
0.0
  0
LINE
  5
6E3
100
AcDbEntity
  8
3
370
    25
100
AcDbLine
 10
155.983214
 20
32.322458
 30
0.0
 11
150.984195
 21
35.640561
 31
0.0
  0
LINE
  5
6E4
100
AcDbEntity
  8
3
370
    25
100
AcDbLine
 10
155.983214
 20
32.322458
 30
0.0
 11
149.994885
 21
32.69651
 31
0.0
  0
LINE
  5
6E5
100
AcDbEntity
  8
3
370
    25
100
AcDbLine
 10
150.984195
 20
35.640561
 30
0.0
 11
149.994885
 21
32.69651
 31
0.0
  0
LINE
  5
6E6
100
AcDbEntity
  8
3
370
    25
100
AcDbLine
 10
1.455838
 20
-56.893964
 30
0.0
 11
4.126064
 21
-51.520893
 31
0.0
  0
LINE
  5
6E7
100
AcDbEntity
  8
3
370
    25
100
AcDbLine
 10
1.455838
 20
-56.893964
 30
0.0
 11
1.081786
 21
-50.905635
 31
0.0
  0
LINE
  5
6E8
100
AcDbEntity
  8
3
370
    25
100
AcDbLine
 10
4.126064
 20
-51.520893
 30
0.0
 11
1.081786
 21
-50.905635
 31
0.0
  0
ARC
  5
6E9
100
AcDbEntity
  8
3
370
    25
100
AcDbCircle
 10
116.15026
 20
-77.117685
 30
0.0
 40
116.463768
100
AcDbArc
 50
70.0
 51
170.0
  0
ENDBLK
  5
6EA
100
AcDbEntity
  8
3
100
AcDbBlockEnd
  0
BLOCK
  5
6EB
100
AcDbEntity
  8
3
100
AcDbBlockBegin
  2
*D12
 70
     1
 10
0.0
 20
0.0
 30
0.0
  3
*D12
  1

  0
LINE
  5
6EC
100
AcDbEntity
  8
3
370
    25
100
AcDbLine
 10
-352.448683
 20
-165.6295
 30
0.0
 11
-253.642113
 21
-165.6295
 31
0.0
  0
LINE
  5
6ED
100
AcDbEntity
  8
3
370
    25
100
AcDbLine
 10
-256.642113
 20
-165.6295
 30
0.0
 11
-258.195027
 21
-171.425055
 31
0.0
  0
LINE
  5
6EE
100
AcDbEntity
  8
3
370
    25
100
AcDbLine
 10
-256.642113
 20
-165.6295
 30
0.0
 11
-255.089198
 21
-171.425055
 31
0.0
  0
LINE
  5
6EF
100
AcDbEntity
  8
3
370
    25
100
AcDbLine
 10
-258.195027
 20
-171.425055
 30
0.0
 11
-255.089198
 21
-171.425055
 31
0.0
  0
LINE
  5
6F0
100
AcDbEntity
  8
3
370
    25
100
AcDbLine
 10
-256.642113
 20
-293.1295
 30
0.0
 11
-256.642113
 21
-127.617685
 31
0.0
  0
LINE
  5
6F1
100
AcDbEntity
  8
3
370
    25
100
AcDbLine
 10
-256.642113
 20
-142.617685
 30
0.0
 11
-255.089198
 21
-136.82213
 31
0.0
  0
LINE
  5
6F2
100
AcDbEntity
  8
3
370
    25
100
AcDbLine
 10
-256.642113
 20
-142.617685
 30
0.0
 11
-258.195027
 21
-136.82213
 31
0.0
  0
LINE
  5
6F3
100
AcDbEntity
  8
3
370
    25
100
AcDbLine
 10
-255.089198
 20
-136.82213
 30
0.0
 11
-258.195027
 21
-136.82213
 31
0.0
  0
LINE
  5
6F4
100
AcDbEntity
  8
3
370
    25
100
AcDbLine
 10
-353.498683
 20
-142.617685
 30
0.0
 11
-253.642113
 21
-142.617685
 31
0.0
  0
ENDBLK
  5
6F5
100
AcDbEntity
  8
3
100
AcDbBlockEnd
  0
BLOCK
  5
6F6
100
AcDbEntity
  8
3
100
AcDbBlockBegin
  2
*D13
 70
     1
 10
0.0
 20
0.0
 30
0.0
  3
*D13
  1

  0
LINE
  5
6F7
100
AcDbEntity
  8
3
370
    25
100
AcDbLine
 10
-344.812159
 20
-152.08093
 30
0.0
 11
-272.492683
 21
-152.08093
 31
0.0
  0
LINE
  5
6F8
100
AcDbEntity
  8
3
370
    25
100
AcDbLine
 10
-275.492683
 20
-152.08093
 30
0.0
 11
-277.045598
 21
-157.876485
 31
0.0
  0
LINE
  5
6F9
100
AcDbEntity
  8
3
370
    25
100
AcDbLine
 10
-275.492683
 20
-152.08093
 30
0.0
 11
-273.939769
 21
-157.876485
 31
0.0
  0
LINE
  5
6FA
100
AcDbEntity
  8
3
370
    25
100
AcDbLine
 10
-277.045598
 20
-157.876485
 30
0.0
 11
-273.939769
 21
-157.876485
 31
0.0
  0
LINE
  5
6FB
100
AcDbEntity
  8
3
370
    25
100
AcDbLine
 10
-275.492683
 20
-279.58093
 30
0.0
 11
-275.492683
 21
-127.617685
 31
0.0
  0
LINE
  5
6FC
100
AcDbEntity
  8
3
370
    25
100
AcDbLine
 10
-275.492683
 20
-142.617685
 30
0.0
 11
-273.939769
 21
-136.82213
 31
0.0
  0
LINE
  5
6FD
100
AcDbEntity
  8
3
370
    25
100
AcDbLine
 10
-275.492683
 20
-142.617685
 30
0.0
 11
-277.045598
 21
-136.82213
 31
0.0
  0
LINE
  5
6FE
100
AcDbEntity
  8
3
370
    25
100
AcDbLine
 10
-273.939769
 20
-136.82213
 30
0.0
 11
-277.045598
 21
-136.82213
 31
0.0
  0
LINE
  5
6FF
100
AcDbEntity
  8
3
370
    25
100
AcDbLine
 10
-353.498683
 20
-142.617685
 30
0.0
 11
-272.492683
 21
-142.617685
 31
0.0
  0
ENDBLK
  5
700
100
AcDbEntity
  8
3
100
AcDbBlockEnd
  0
BLOCK
  5
701
100
AcDbEntity
  8
3
100
AcDbBlockBegin
  2
*D14
 70
     1
 10
0.0
 20
0.0
 30
0.0
  3
*D14
  1

  0
LINE
  5
702
100
AcDbEntity
  8
3
370
    25
100
AcDbLine
 10
-389.749786
 20
-321.555342
 30
0.0
 11
-519.931549
 21
-321.555342
 31
0.0
  0
LINE
  5
703
100
AcDbEntity
  8
3
370
    25
100
AcDbLine
 10
-516.931549
 20
-321.555342
 30
0.0
 11
-515.378635
 21
-315.759787
 31
0.0
  0
LINE
  5
704
100
AcDbEntity
  8
3
370
    25
100
AcDbLine
 10
-516.931549
 20
-321.555342
 30
0.0
 11
-518.484463
 21
-315.759787
 31
0.0
  0
LINE
  5
705
100
AcDbEntity
  8
3
370
    25
100
AcDbLine
 10
-515.378635
 20
-315.759787
 30
0.0
 11
-518.484463
 21
-315.759787
 31
0.0
  0
LINE
  5
706
100
AcDbEntity
  8
3
370
    25
100
AcDbLine
 10
-516.931549
 20
-321.555342
 30
0.0
 11
-516.931549
 21
-142.617685
 31
0.0
  0
LINE
  5
707
100
AcDbEntity
  8
3
370
    25
100
AcDbLine
 10
-516.931549
 20
-142.617685
 30
0.0
 11
-518.484463
 21
-148.41324
 31
0.0
  0
LINE
  5
708
100
AcDbEntity
  8
3
370
    25
100
AcDbLine
 10
-516.931549
 20
-142.617685
 30
0.0
 11
-515.378635
 21
-148.41324
 31
0.0
  0
LINE
  5
709
100
AcDbEntity
  8
3
370
    25
100
AcDbLine
 10
-518.484463
 20
-148.41324
 30
0.0
 11
-515.378635
 21
-148.41324
 31
0.0
  0
LINE
  5
70A
100
AcDbEntity
  8
3
370
    25
100
AcDbLine
 10
-407.998683
 20
-142.617685
 30
0.0
 11
-519.931549
 21
-142.617685
 31
0.0
  0
ENDBLK
  5
70B
100
AcDbEntity
  8
3
100
AcDbBlockEnd
  0
ENDSEC
  0
SECTION
  2
ENTITIES
  0
LINE
  5
33
100
AcDbEntity
  8
1
370
   100
100
AcDbLine
 10
-559.532355
 20
412.543151
 30
0.0
 11
592.473578
 21
412.543151
 31
0.0
  0
LINE
  5
34
100
AcDbEntity
  8
1
370
   100
100
AcDbLine
 10
-559.532355
 20
412.543151
 30
0.0
 11
-559.532355
 21
-416.957822
 31
0.0
  0
LINE
  5
35
100
AcDbEntity
  8
1
370
   100
100
AcDbLine
 10
-559.532355
 20
-416.957822
 30
0.0
 11
592.473578
 21
-416.957822
 31
0.0
  0
LINE
  5
36
100
AcDbEntity
  8
1
370
   100
100
AcDbLine
 10
592.473578
 20
-416.957822
 30
0.0
 11
592.473578
 21
412.543151
 31
0.0
  0
TEXT
  5
37
100
AcDbEntity
  8
1
370
    50
100
AcDbText
 10
539.442664
 20
-339.379285
 30
0.0
 40
9.0
  1
設計
 72
     5
 11
555.642664
 21
-339.379285
 31
0.0
100
AcDbText
  0
TEXT
  5
38
100
AcDbEntity
  8
1
370
    50
100
AcDbText
 10
568.691217
 20
-339.149488
 30
0.0
 40
9.0
  1
製図
 72
     5
 11
584.891217
 21
-339.149488
 31
0.0
100
AcDbText
  0
TEXT
  5
39
100
AcDbEntity
  8
1
370
    50
100
AcDbText
 10
478.508617
 20
-339.379285
 30
0.0
 40
9.0
  1
承認
 72
     5
 11
494.708617
 21
-339.379285
 31
0.0
100
AcDbText
  0
TEXT
  5
3A
100
AcDbEntity
  8
1
370
    50
100
AcDbText
 10
508.484518
 20
-339.297029
 30
0.0
 40
9.0
  1
検図
 72
     5
 11
524.684518
 21
-339.297029
 31
0.0
100
AcDbText
  0
LINE
  5
3B
100
AcDbEntity
  8
1
370
    25
100
AcDbLine
 10
427.473578
 20
-341.957822
 30
0.0
 11
592.473578
 21
-341.957822
 31
0.0
  0
LINE
  5
3C
100
AcDbEntity
  8
1
370
    25
100
AcDbLine
 10
513.723578
 20
-368.957822
 30
0.0
 11
513.723578
 21
-389.957822
 31
0.0
  0
TEXT
  5
3D
100
AcDbEntity
  8
1
370
    50
100
AcDbText
 10
479.327385
 20
-384.018792
 30
0.0
 40
9.0
  1
日　付
 72
     5
 11
504.527385
 21
-384.018792
 31
0.0
100
AcDbText
  0
LINE
  5
3E
100
AcDbEntity
  8
1
370
    50
100
AcDbLine
 10
61.473578
 20
-389.957822
 30
0.0
 11
592.473578
 21
-389.957822
 31
0.0
  0
TEXT
  5
3F
100
AcDbEntity
  8
1
370
    50
100
AcDbText
 10
431.662516
 20
-384.483609
 30
0.0
 40
9.0
  1
第三角法
 72
     5
 11
465.862516
 21
-384.483609
 31
0.0
100
AcDbText
  0
TEXT
  5
40
100
AcDbEntity
  8
1
370
    50
100
AcDbText
 10
436.631129
 20
-338.997029
 30
0.0
 40
9.0
  1
尺　度
 72
     5
 11
461.831129
 21
-338.997029
 31
0.0
100
AcDbText
  0
LINE
  5
41
100
AcDbEntity
  8
1
370
   100
100
AcDbLine
 10
61.473578
 20
-326.957822
 30
0.0
 11
592.473578
 21
-326.957822
 31
0.0
  0
LINE
  5
42
100
AcDbEntity
  8
1
370
    50
100
AcDbLine
 10
317.973578
 20
-326.957822
 30
0.0
 11
317.973578
 21
-416.957822
 31
0.0
  0
LINE
  5
43
100
AcDbEntity
  8
1
370
    25
100
AcDbLine
 10
562.473578
 20
-368.957822
 30
0.0
 11
562.473578
 21
-326.957822
 31
0.0
  0
LINE
  5
44
100
AcDbEntity
  8
1
370
    25
100
AcDbLine
 10
532.473578
 20
-368.957822
 30
0.0
 11
532.473578
 21
-326.957822
 31
0.0
  0
LINE
  5
45
100
AcDbEntity
  8
1
370
    25
100
AcDbLine
 10
502.473578
 20
-368.957822
 30
0.0
 11
502.473578
 21
-326.957822
 31
0.0
  0
LINE
  5
46
100
AcDbEntity
  8
1
370
    50
100
AcDbLine
 10
427.473578
 20
-416.957822
 30
0.0
 11
427.473578
 21
-326.957822
 31
0.0
  0
LINE
  5
47
100
AcDbEntity
  8
1
370
    50
100
AcDbLine
 10
284.973578
 20
-326.957822
 30
0.0
 11
284.973578
 21
-416.957822
 31
0.0
  0
LINE
  5
48
100
AcDbEntity
  8
1
370
    50
100
AcDbLine
 10
94.473578
 20
-326.957822
 30
0.0
 11
94.473578
 21
-389.957822
 31
0.0
  0
LINE
  5
49
100
AcDbEntity
  8
1
370
    50
100
AcDbLine
 10
427.473578
 20
-368.957822
 30
0.0
 11
592.473578
 21
-368.957822
 31
0.0
  0
TEXT
  5
4A
100
AcDbEntity
  8
1
370
    50
100
AcDbText
 10
430.651694
 20
-407.821408
 30
0.0
 40
9.0
  1
コードＮｏ
 41
0.9
 72
     5
 11
469.531694
 21
-407.821408
 31
0.0
100
AcDbText
  0
TEXT
  5
4B
100
AcDbEntity
  8
1
370
   100
100
AcDbText
 10
79.330161
 20
-409.313489
 30
0.0
 40
12.0
  1
ミズタニバルブ工業株式会社
 41
1.2
 72
     5
 11
263.650161
 21
-409.313489
 31
0.0
100
AcDbText
  0
LINE
  5
4C
100
AcDbEntity
  8
1
370
    50
100
AcDbLine
 10
61.473578
 20
-358.457822
 30
0.0
 11
427.473578
 21
-358.457822
 31
0.0
  0
LINE
  5
4D
100
AcDbEntity
  8
1
370
    50
100
AcDbLine
 10
173.223578
 20
-358.457822
 30
0.0
 11
173.223578
 21
-389.957822
 31
0.0
  0
LINE
  5
4E
100
AcDbEntity
  8
1
370
    50
100
AcDbLine
 10
206.223578
 20
-358.457822
 30
0.0
 11
206.223578
 21
-389.957822
 31
0.0
  0
LINE
  5
4F
100
AcDbEntity
  8
1
370
    50
100
AcDbLine
 10
472.473578
 20
-416.957822
 30
0.0
 11
472.473578
 21
-326.957822
 31
0.0
  0
TEXT
  5
50
100
AcDbEntity
  8
1
370
    50
100
AcDbText
 10
517.647196
 20
-384.15044
 30
0.0
 40
9.0
  1
　　・　　・
 72
     5
 11
569.847196
 21
-384.15044
 31
0.0
100
AcDbText
  0
LINE
  5
51
100
AcDbEntity
  8
1
370
   100
100
AcDbLine
 10
61.473578
 20
-326.957822
 30
0.0
 11
61.473578
 21
-416.957822
 31
0.0
  0
TEXT
  5
52
100
AcDbEntity
  8
1
370
    50
100
AcDbText
 10
436.248873
 20
-360.020238
 30
0.0
 40
9.0
  1
　／ 
 72
     5
 11
452.448873
 21
-360.020238
 31
0.0
100
AcDbText
  0
TEXT
  5
53
100
AcDbEntity
  8
1
370
    50
100
AcDbText
 10
290.856184
 20
-408.037363
 30
0.0
 40
9.0
  1
備 考 
 72
     5
 11
311.556184
 21
-408.037363
 31
0.0
100
AcDbText
  0
TEXT
  5
54
100
AcDbEntity
  8
1
370
    50
100
AcDbText
 10
290.2688
 20
-346.33776
 30
0.0
 40
9.0
  1
仕 上
 72
     5
 11
310.9688
 21
-346.33776
 31
0.0
100
AcDbText
  0
TEXT
  5
55
100
AcDbEntity
  8
1
370
    50
100
AcDbText
 10
290.170764
 20
-373.337499
 30
0.0
 40
9.0
  1
表 面
 72
     5
 11
310.870764
 21
-373.337499
 31
0.0
100
AcDbText
  0
TEXT
  5
56
100
AcDbEntity
  8
1
370
    50
100
AcDbText
 10
290.170764
 20
-383.837499
 30
0.0
 40
9.0
  1
処 理
 72
     5
 11
310.870764
 21
-383.837499
 31
0.0
100
AcDbText
  0
TEXT
  5
57
100
AcDbEntity
  8
1
370
    50
100
AcDbText
 10
67.190025
 20
-347.540099
 30
0.0
 40
9.0
  1
品 名
 72
     5
 11
87.890025
 21
-347.540099
 31
0.0
100
AcDbText
  0
TEXT
  5
58
100
AcDbEntity
  8
1
370
    50
100
AcDbText
 10
66.596649
 20
-378.693801
 30
0.0
 40
9.0
  1
材 質
 72
     5
 11
87.296649
 21
-378.693801
 31
0.0
100
AcDbText
  0
TEXT
  5
59
100
AcDbEntity
  8
1
370
    50
100
AcDbText
 10
178.346649
 20
-378.693801
 30
0.0
 40
9.0
  1
規 格
 72
     5
 11
199.046649
 21
-378.693801
 31
0.0
100
AcDbText
  0
LINE
  5
5A
100
AcDbEntity
  8
2
370
    25
  6
CENTER
100
AcDbLine
 10
-384.498683
 20
362.446587
 30
0.0
 11
-384.498683
 21
-77.117685
 31
0.0
  0
LINE
  5
5B
100
AcDbEntity
  8
2
370
    50
100
AcDbLine
 10
-116.84974
 20
224.482315
 30
0.0
 11
-116.84974
 21
136.382315
 31
0.0
  0
LINE
  5
5C
100
AcDbEntity
  8
2
370
    50
100
AcDbLine
 10
-130.84974
 20
224.482315
 30
0.0
 11
-130.84974
 21
136.382315
 31
0.0
  0
LINE
  5
5D
100
AcDbEntity
  8
2
370
    25
  6
PHANTOM
100
AcDbLine
 10
123.15026
 20
224.482315
 30
0.0
 11
123.15026
 21
136.382315
 31
0.0
  0
LINE
  5
5E
100
AcDbEntity
  8
2
370
    25
  6
PHANTOM
100
AcDbLine
 10
109.15026
 20
224.482315
 30
0.0
 11
109.15026
 21
136.382315
 31
0.0
  0
LINE
  5
5F
100
AcDbEntity
  8
2
370
    50
100
AcDbLine
 10
-402.248683
 20
-122.617685
 30
0.0
 11
-402.248683
 21
-103.617685
 31
0.0
  0
LINE
  5
60
100
AcDbEntity
  8
2
370
    50
100
AcDbLine
 10
-359.248683
 20
-122.617685
 30
0.0
 11
-359.248683
 21
-103.617685
 31
0.0
  0
LINE
  5
61
100
AcDbEntity
  8
2
370
    50
100
AcDbLine
 10
-400.248683
 20
-48.617685
 30
0.0
 11
-368.748683
 21
-48.617685
 31
0.0
  0
LINE
  5
62
100
AcDbEntity
  8
2
370
    50
100
AcDbLine
 10
-408.248683
 20
-54.617685
 30
0.0
 11
-408.248683
 21
-99.617685
 31
0.0
  0
LINE
  5
63
100
AcDbEntity
  8
2
370
    50
100
AcDbLine
 10
-400.248683
 20
-50.617685
 30
0.0
 11
-400.248683
 21
-48.617685
 31
0.0
  0
LINE
  5
64
100
AcDbEntity
  8
2
370
    50
100
AcDbLine
 10
-368.748683
 20
-48.617685
 30
0.0
 11
-368.748683
 21
-50.617685
 31
0.0
  0
LINE
  5
65
100
AcDbEntity
  8
2
370
    50
100
AcDbLine
 10
-326.248683
 20
-54.617685
 30
0.0
 11
-326.248683
 21
-99.617685
 31
0.0
  0
LINE
  5
66
100
AcDbEntity
  8
2
370
    50
100
AcDbLine
 10
-323.748683
 20
-55.117685
 30
0.0
 11
-323.748683
 21
-73.617685
 31
0.0
  0
LINE
  5
67
100
AcDbEntity
  8
2
370
    50
100
AcDbLine
 10
-294.748683
 20
-55.117685
 30
0.0
 11
-294.748683
 21
-99.117685
 31
0.0
  0
LINE
  5
68
100
AcDbEntity
  8
2
370
    50
100
AcDbLine
 10
133.65026
 20
95.382315
 30
0.0
 11
98.65026
 21
95.382315
 31
0.0
  0
LINE
  5
69
100
AcDbEntity
  8
2
370
    50
100
AcDbLine
 10
133.65026
 20
136.382315
 30
0.0
 11
98.65026
 21
136.382315
 31
0.0
  0
LINE
  5
6A
100
AcDbEntity
  8
2
370
    50
100
AcDbLine
 10
131.03026
 20
95.382315
 30
0.0
 11
131.03026
 21
-48.617685
 31
0.0
  0
LINE
  5
6B
100
AcDbEntity
  8
2
370
    50
100
AcDbLine
 10
101.27026
 20
95.382315
 30
0.0
 11
101.27026
 21
-41.344769
 31
0.0
  0
LINE
  5
6C
100
AcDbEntity
  8
2
370
    50
100
AcDbLine
 10
133.65026
 20
136.382315
 30
0.0
 11
133.65026
 21
95.382315
 31
0.0
  0
LINE
  5
6D
100
AcDbEntity
  8
2
370
    50
100
AcDbLine
 10
-312.248683
 20
14.882315
 30
0.0
 11
-302.248683
 21
14.882315
 31
0.0
  0
LINE
  5
6E
100
AcDbEntity
  8
2
370
    50
100
AcDbLine
 10
-302.248683
 20
14.882315
 30
0.0
 11
-302.248683
 21
-54.617685
 31
0.0
  0
LINE
  5
6F
100
AcDbEntity
  8
2
370
    50
100
AcDbLine
 10
-312.248683
 20
14.882315
 30
0.0
 11
-312.248683
 21
-54.617685
 31
0.0
  0
ARC
  5
70
100
AcDbEntity
  8
2
370
    50
100
AcDbCircle
 10
-326.248683
 20
-77.117685
 30
0.0
 40
19.8
100
AcDbArc
 50
270.0
 51
301.90407
  0
ARC
  5
71
100
AcDbEntity
  8
2
370
    50
100
AcDbCircle
 10
-326.248683
 20
-77.117685
 30
0.0
 40
19.8
100
AcDbArc
 50
82.746323
 51
90.0
  0
LINE
  5
72
100
AcDbEntity
  8
2
370
    50
100
AcDbLine
 10
-312.748683
 20
-55.117685
 30
0.0
 11
-323.748683
 21
-55.117685
 31
0.0
  0
LINE
  5
73
100
AcDbEntity
  8
2
370
    50
100
AcDbLine
 10
-301.748683
 20
-55.117685
 30
0.0
 11
-294.748683
 21
-55.117685
 31
0.0
  0
LINE
  5
74
100
AcDbEntity
  8
2
370
    50
100
AcDbLine
 10
-408.248683
 20
-54.617685
 30
0.0
 11
-404.248683
 21
-54.617685
 31
0.0
  0
LINE
  5
75
100
AcDbEntity
  8
2
370
    50
100
AcDbLine
 10
-364.748683
 20
-54.617685
 30
0.0
 11
-326.248683
 21
-54.617685
 31
0.0
  0
LINE
  5
76
100
AcDbEntity
  8
2
370
    50
100
AcDbLine
 10
-406.248683
 20
-99.617685
 30
0.0
 11
-408.248683
 21
-99.617685
 31
0.0
  0
LINE
  5
77
100
AcDbEntity
  8
2
370
    50
100
AcDbLine
 10
-355.248683
 20
-99.617685
 30
0.0
 11
-326.248683
 21
-99.617685
 31
0.0
  0
LINE
  5
78
100
AcDbEntity
  8
2
370
    50
100
AcDbLine
 10
98.15026
 20
124.382315
 30
0.0
 11
-105.84974
 21
124.382315
 31
0.0
  0
LINE
  5
79
100
AcDbEntity
  8
2
370
    50
100
AcDbLine
 10
-105.84974
 20
112.382315
 30
0.0
 11
98.15026
 21
112.382315
 31
0.0
  0
LINE
  5
7A
100
AcDbEntity
  8
2
370
    50
100
AcDbLine
 10
-137.34974
 20
136.382315
 30
0.0
 11
-137.34974
 21
101.382315
 31
0.0
  0
LINE
  5
7B
100
AcDbEntity
  8
2
370
    50
100
AcDbLine
 10
-139.91474
 20
81.382315
 30
0.0
 11
-139.91474
 21
-8.617685
 31
0.0
  0
LINE
  5
7C
100
AcDbEntity
  8
2
370
    50
100
AcDbLine
 10
-107.78474
 20
81.382315
 30
0.0
 11
-107.78474
 21
-8.617685
 31
0.0
  0
LINE
  5
7D
100
AcDbEntity
  8
2
370
    50
100
AcDbLine
 10
-108.59974
 20
90.882315
 30
0.0
 11
-108.59974
 21
82.382315
 31
0.0
  0
LINE
  5
7E
100
AcDbEntity
  8
2
370
    50
100
AcDbLine
 10
-139.09974
 20
90.882315
 30
0.0
 11
-139.09974
 21
82.382315
 31
0.0
  0
LINE
  5
7F
100
AcDbEntity
  8
2
370
    50
100
AcDbLine
 10
-107.78474
 20
81.382315
 30
0.0
 11
-139.91474
 21
81.382315
 31
0.0
  0
LINE
  5
80
100
AcDbEntity
  8
2
370
    50
100
AcDbLine
 10
-108.59974
 20
82.382315
 30
0.0
 11
-139.09974
 21
82.382315
 31
0.0
  0
LINE
  5
81
100
AcDbEntity
  8
2
370
    50
100
AcDbLine
 10
-108.59974
 20
90.882315
 30
0.0
 11
-139.09974
 21
90.882315
 31
0.0
  0
LINE
  5
82
100
AcDbEntity
  8
2
370
    50
100
AcDbLine
 10
-112.14974
 20
93.882315
 30
0.0
 11
-135.54974
 21
93.882315
 31
0.0
  0
LINE
  5
83
100
AcDbEntity
  8
2
370
    50
100
AcDbLine
 10
-112.14974
 20
101.382315
 30
0.0
 11
-112.14974
 21
93.882315
 31
0.0
  0
LINE
  5
84
100
AcDbEntity
  8
2
370
    50
100
AcDbLine
 10
-135.54974
 20
101.382315
 30
0.0
 11
-135.54974
 21
93.882315
 31
0.0
  0
LINE
  5
85
100
AcDbEntity
  8
2
370
    50
100
AcDbLine
 10
-112.14974
 20
93.882315
 30
0.0
 11
-108.59974
 21
90.882315
 31
0.0
  0
LINE
  5
86
100
AcDbEntity
  8
2
370
    50
100
AcDbLine
 10
-135.54974
 20
93.882315
 30
0.0
 11
-139.09974
 21
90.882315
 31
0.0
  0
LINE
  5
87
100
AcDbEntity
  8
2
370
    50
100
AcDbLine
 10
-112.49974
 20
82.382315
 30
0.0
 11
-112.49974
 21
81.382315
 31
0.0
  0
LINE
  5
88
100
AcDbEntity
  8
2
370
    50
100
AcDbLine
 10
-135.19974
 20
82.382315
 30
0.0
 11
-135.19974
 21
81.382315
 31
0.0
  0
ARC
  5
89
100
AcDbEntity
  8
2
370
    25
100
AcDbCircle
 10
-384.299871
 20
-40.846261
 30
0.0
 40
20.772376
100
AcDbArc
 50
280.260255
 51
318.473362
  0
ARC
  5
8A
100
AcDbEntity
  8
2
370
    25
100
AcDbCircle
 10
-384.697494
 20
-40.846261
 30
0.0
 40
20.772376
100
AcDbArc
 50
221.526638
 51
257.266314
  0
ARC
  5
8B
100
AcDbEntity
  8
2
370
    25
100
AcDbCircle
 10
-391.009624
 20
-111.293774
 30
0.0
 40
33.839156
100
AcDbArc
 50
23.710137
 51
66.192007
  0
ARC
  5
8C
100
AcDbEntity
  8
2
370
    25
100
AcDbCircle
 10
-370.487741
 20
-111.293774
 30
0.0
 40
33.839156
100
AcDbArc
 50
113.807993
 51
155.625136
  0
ARC
  5
8D
100
AcDbEntity
  8
2
370
    25
100
AcDbCircle
 10
-380.748683
 20
-88.037892
 30
0.0
 40
8.420207
100
AcDbArc
 50
66.192007
 51
113.807993
  0
ARC
  5
8E
100
AcDbEntity
  8
2
370
    50
100
AcDbCircle
 10
-355.248683
 20
-103.617685
 30
0.0
 40
4.0
100
AcDbArc
 50
90.0
 51
180.0
  0
ARC
  5
8F
100
AcDbEntity
  8
2
370
    50
100
AcDbCircle
 10
-406.248683
 20
-103.617685
 30
0.0
 40
4.0
100
AcDbArc
 50
0.0
 51
90.0
  0
ARC
  5
90
100
AcDbEntity
  8
2
370
    50
100
AcDbCircle
 10
-404.248683
 20
-50.617685
 30
0.0
 40
4.0
100
AcDbArc
 50
270.0
 51
360.0
  0
ARC
  5
91
100
AcDbEntity
  8
2
370
    50
100
AcDbCircle
 10
-364.748683
 20
-50.617685
 30
0.0
 40
4.0
100
AcDbArc
 50
180.0
 51
270.0
  0
ARC
  5
92
100
AcDbEntity
  8
2
370
    50
100
AcDbCircle
 10
-307.248683
 20
-30.367685
 30
0.0
 40
25.25
100
AcDbArc
 50
259.585224
 51
280.312692
  0
ARC
  5
93
100
AcDbEntity
  8
2
370
    50
100
AcDbCircle
 10
-301.748683
 20
-54.617685
 30
0.0
 40
0.5
100
AcDbArc
 50
180.0
 51
270.0
  0
ARC
  5
94
100
AcDbEntity
  8
2
370
    50
100
AcDbCircle
 10
-312.748683
 20
-54.617685
 30
0.0
 40
0.5
100
AcDbArc
 50
270.0
 51
360.0
  0
ARC
  5
95
100
AcDbEntity
  8
2
370
    50
100
AcDbCircle
 10
62.90026
 20
118.382315
 30
0.0
 40
36.25
100
AcDbArc
 50
351.650171
 51
8.49488
  0
LINE
  5
96
100
AcDbEntity
  8
2
370
    50
100
AcDbLine
 10
98.65026
 20
136.382315
 30
0.0
 11
98.65026
 21
124.882315
 31
0.0
  0
LINE
  5
97
100
AcDbEntity
  8
2
370
    50
100
AcDbLine
 10
98.65026
 20
111.882315
 30
0.0
 11
98.65026
 21
95.382315
 31
0.0
  0
ARC
  5
98
100
AcDbEntity
  8
2
370
    50
100
AcDbCircle
 10
98.15026
 20
124.882315
 30
0.0
 40
0.5
100
AcDbArc
 50
270.0
 51
360.0
  0
ARC
  5
99
100
AcDbEntity
  8
2
370
    50
100
AcDbCircle
 10
98.15026
 20
111.882315
 30
0.0
 40
0.5
100
AcDbArc
 50
0.0
 51
90.0
  0
ARC
  5
9A
100
AcDbEntity
  8
2
370
    50
100
AcDbCircle
 10
-70.59974
 20
118.382315
 30
0.0
 40
36.25
100
AcDbArc
 50
171.214961
 51
188.429972
  0
ARC
  5
9B
100
AcDbEntity
  8
2
370
    50
100
AcDbCircle
 10
-105.84974
 20
124.882315
 30
0.0
 40
0.5
100
AcDbArc
 50
180.0
 51
270.0
  0
ARC
  5
9C
100
AcDbEntity
  8
2
370
    50
100
AcDbCircle
 10
-105.84974
 20
111.882315
 30
0.0
 40
0.5
100
AcDbArc
 50
90.0
 51
180.0
  0
LINE
  5
9D
100
AcDbEntity
  8
2
370
    50
100
AcDbLine
 10
-106.34974
 20
136.382315
 30
0.0
 11
-106.34974
 21
124.882315
 31
0.0
  0
LINE
  5
9E
100
AcDbEntity
  8
2
370
    50
100
AcDbLine
 10
-106.34974
 20
111.882315
 30
0.0
 11
-106.34974
 21
101.382315
 31
0.0
  0
LINE
  5
9F
100
AcDbEntity
  8
2
370
    50
100
AcDbLine
 10
-302.748683
 20
-99.117685
 30
0.0
 11
-302.748683
 21
-99.717685
 31
0.0
  0
LINE
  5
A0
100
AcDbEntity
  8
2
370
    50
100
AcDbLine
 10
-310.748683
 20
-99.117685
 30
0.0
 11
-310.748683
 21
-99.717685
 31
0.0
  0
LINE
  5
A1
100
AcDbEntity
  8
2
370
    50
100
AcDbLine
 10
-313.748683
 20
-99.117685
 30
0.0
 11
-294.748683
 21
-99.117685
 31
0.0
  0
ARC
  5
A2
100
AcDbEntity
  8
2
370
    50
100
AcDbCircle
 10
-307.267409
 20
-36.771458
 30
0.0
 40
19.56181
100
AcDbArc
 50
252.674343
 51
286.990566
  0
LINE
  5
A3
100
AcDbEntity
  8
2
370
    50
100
AcDbLine
 10
-323.748683
 20
-73.617685
 30
0.0
 11
-313.748683
 21
-99.117685
 31
0.0
  0
ARC
  5
A4
100
AcDbEntity
  8
2
370
    50
100
AcDbCircle
 10
-306.748683
 20
-91.278796
 30
0.0
 40
9.338889
100
AcDbArc
 50
244.639233
 51
295.360767
  0
CIRCLE
  5
A5
100
AcDbEntity
  8
2
370
    50
100
AcDbCircle
 10
116.15026
 20
-77.117685
 30
0.0
 40
22.0
  0
LINE
  5
A6
100
AcDbEntity
  8
2
370
    50
100
AcDbLine
 10
65.820133
 20
0.056652
 30
0.0
 11
74.480387
 21
5.056652
 31
0.0
  0
LINE
  5
A7
100
AcDbEntity
  8
2
370
    50
100
AcDbLine
 10
65.820133
 20
0.056652
 30
0.0
 11
100.718331
 21
-60.388801
 31
0.0
  0
LINE
  5
A8
100
AcDbEntity
  8
2
370
    50
100
AcDbLine
 10
74.480387
 20
5.056652
 30
0.0
 11
109.378585
 21
-55.388801
 31
0.0
  0
ARC
  5
A9
100
AcDbEntity
  8
2
370
    50
100
AcDbCircle
 10
110.244611
 20
-54.888801
 30
0.0
 40
1.0
100
AcDbArc
 50
210.0
 51
284.878335
  0
ARC
  5
AA
100
AcDbEntity
  8
2
370
    50
100
AcDbCircle
 10
99.852306
 20
-60.888801
 30
0.0
 40
1.0
100
AcDbArc
 50
315.121665
 51
30.0
  0
LINE
  5
AB
100
AcDbEntity
  8
2
370
    50
100
AcDbLine
 10
131.90026
 20
-48.617685
 30
0.0
 11
131.90026
 21
-59.070871
 31
0.0
  0
LINE
  5
AC
100
AcDbEntity
  8
2
370
    50
100
AcDbLine
 10
105.46928
 20
-48.617685
 30
0.0
 11
131.90026
 21
-48.617685
 31
0.0
  0
LINE
  5
AD
100
AcDbEntity
  8
2
370
    50
100
AcDbLine
 10
-366.998683
 20
136.382315
 30
0.0
 11
-366.998683
 21
95.382315
 31
0.0
  0
LINE
  5
AE
100
AcDbEntity
  8
2
370
    50
100
AcDbLine
 10
-401.998683
 20
136.382315
 30
0.0
 11
-401.998683
 21
95.382315
 31
0.0
  0
LINE
  5
AF
100
AcDbEntity
  8
2
370
    50
100
AcDbLine
 10
94.40026
 20
-84.580091
 30
0.0
 11
94.40026
 21
-122.617685
 31
0.0
  0
LINE
  5
B0
100
AcDbEntity
  8
2
370
    50
100
AcDbLine
 10
137.90026
 20
-84.580091
 30
0.0
 11
137.90026
 21
-122.617685
 31
0.0
  0
ARC
  5
B1
100
AcDbEntity
  8
2
370
    50
100
AcDbCircle
 10
152.90026
 20
-84.580091
 30
0.0
 40
15.0
100
AcDbArc
 50
168.521659
 51
180.0
  0
ARC
  5
B2
100
AcDbEntity
  8
2
370
    50
100
AcDbCircle
 10
79.40026
 20
-84.580091
 30
0.0
 40
15.0
100
AcDbArc
 50
0.0
 51
11.478341
  0
ARC
  5
B3
100
AcDbEntity
  8
2
370
    50
100
AcDbCircle
 10
136.90026
 20
-59.070871
 30
0.0
 40
5.0
100
AcDbArc
 50
180.0
 51
221.014332
  0
ARC
  5
B4
100
AcDbEntity
  8
2
370
    50
100
AcDbCircle
 10
95.40026
 20
-59.070871
 30
0.0
 40
5.0
100
AcDbArc
 50
318.985668
 51
352.122385
  0
LINE
  5
B5
100
AcDbEntity
  8
2
370
    25
  6
CENTER
100
AcDbLine
 10
-409.93407
 20
-77.117685
 30
0.0
 11
-289.942346
 21
-77.117685
 31
0.0
  0
LINE
  5
B6
100
AcDbEntity
  8
2
370
    25
  6
CENTER
100
AcDbLine
 10
-123.84974
 20
224.482315
 30
0.0
 11
-123.84974
 21
-11.903889
 31
0.0
  0
LINE
  5
B7
100
AcDbEntity
  8
2
370
    25
  6
CENTER
100
AcDbLine
 10
69.399207
 20
3.857514
 30
0.0
 11
128.742385
 21
-98.927886
 31
0.0
  0
ARC
  5
B8
100
AcDbEntity
  8
2
370
    25
  6
CENTER
100
AcDbCircle
 10
-3.84974
 20
224.482315
 30
0.0
 40
120.0
100
AcDbArc
 50
0.0
 51
180.0
  0
LINE
  5
B9
100
AcDbEntity
  8
2
370
    50
100
AcDbLine
 10
129.224571
 20
148.25374
 30
0.0
 11
103.424571
 21
150.510948
 31
0.0
  0
ARC
  5
BA
100
AcDbEntity
  8
2
370
    50
100
AcDbCircle
 10
129.05026
 20
146.261351
 30
0.0
 40
2.0
100
AcDbArc
 50
333.926871
 51
85.0
  0
ARC
  5
BB
100
AcDbEntity
  8
2
370
    50
100
AcDbCircle
 10
103.25026
 20
148.518558
 30
0.0
 40
2.0
100
AcDbArc
 50
85.0
 51
265.0
  0
LINE
  5
BC
100
AcDbEntity
  8
2
370
    50
100
AcDbLine
 10
129.224571
 20
152.26902
 30
0.0
 11
103.424571
 21
154.526227
 31
0.0
  0
ARC
  5
BD
100
AcDbEntity
  8
2
370
    50
100
AcDbCircle
 10
129.05026
 20
150.27663
 30
0.0
 40
2.0
100
AcDbArc
 50
265.0
 51
85.0
  0
ARC
  5
BE
100
AcDbEntity
  8
2
370
    50
100
AcDbCircle
 10
103.25026
 20
152.533838
 30
0.0
 40
2.0
100
AcDbArc
 50
85.0
 51
265.0
  0
LINE
  5
BF
100
AcDbEntity
  8
2
370
    50
100
AcDbLine
 10
129.224571
 20
156.284299
 30
0.0
 11
103.424571
 21
158.541506
 31
0.0
  0
ARC
  5
C0
100
AcDbEntity
  8
2
370
    50
100
AcDbCircle
 10
129.05026
 20
154.29191
 30
0.0
 40
2.0
100
AcDbArc
 50
265.0
 51
85.0
  0
ARC
  5
C1
100
AcDbEntity
  8
2
370
    50
100
AcDbCircle
 10
103.25026
 20
156.549117
 30
0.0
 40
2.0
100
AcDbArc
 50
85.0
 51
265.0
  0
LINE
  5
C2
100
AcDbEntity
  8
2
370
    50
100
AcDbLine
 10
129.224571
 20
160.299578
 30
0.0
 11
103.424571
 21
162.556786
 31
0.0
  0
ARC
  5
C3
100
AcDbEntity
  8
2
370
    50
100
AcDbCircle
 10
129.05026
 20
158.307189
 30
0.0
 40
2.0
100
AcDbArc
 50
265.0
 51
85.0
  0
ARC
  5
C4
100
AcDbEntity
  8
2
370
    50
100
AcDbCircle
 10
103.25026
 20
160.564396
 30
0.0
 40
2.0
100
AcDbArc
 50
85.0
 51
265.0
  0
LINE
  5
C5
100
AcDbEntity
  8
2
370
    50
100
AcDbLine
 10
129.224571
 20
164.314858
 30
0.0
 11
103.424571
 21
166.572065
 31
0.0
  0
ARC
  5
C6
100
AcDbEntity
  8
2
370
    50
100
AcDbCircle
 10
129.05026
 20
162.322468
 30
0.0
 40
2.0
100
AcDbArc
 50
265.0
 51
85.0
  0
ARC
  5
C7
100
AcDbEntity
  8
2
370
    50
100
AcDbCircle
 10
103.25026
 20
164.579676
 30
0.0
 40
2.0
100
AcDbArc
 50
85.0
 51
265.0
  0
LINE
  5
C8
100
AcDbEntity
  8
2
370
    50
100
AcDbLine
 10
129.224571
 20
168.330137
 30
0.0
 11
103.424571
 21
170.587345
 31
0.0
  0
ARC
  5
C9
100
AcDbEntity
  8
2
370
    50
100
AcDbCircle
 10
129.05026
 20
166.337748
 30
0.0
 40
2.0
100
AcDbArc
 50
274.924985
 51
85.0
  0
ARC
  5
CA
100
AcDbEntity
  8
2
370
    50
100
AcDbCircle
 10
103.25026
 20
168.594955
 30
0.0
 40
2.0
100
AcDbArc
 50
85.0
 51
265.0
  0
LINE
  5
CB
100
AcDbEntity
  8
2
370
    50
100
AcDbLine
 10
129.224571
 20
172.345416
 30
0.0
 11
103.424571
 21
174.602624
 31
0.0
  0
ARC
  5
CC
100
AcDbEntity
  8
2
370
    50
100
AcDbCircle
 10
129.05026
 20
170.353027
 30
0.0
 40
2.0
100
AcDbArc
 50
265.0
 51
85.0
  0
ARC
  5
CD
100
AcDbEntity
  8
2
370
    50
100
AcDbCircle
 10
103.25026
 20
172.610234
 30
0.0
 40
2.0
100
AcDbArc
 50
85.0
 51
265.0
  0
LINE
  5
CE
100
AcDbEntity
  8
2
370
    50
100
AcDbLine
 10
129.224571
 20
176.360696
 30
0.0
 11
103.424571
 21
178.617903
 31
0.0
  0
ARC
  5
CF
100
AcDbEntity
  8
2
370
    50
100
AcDbCircle
 10
129.05026
 20
174.368306
 30
0.0
 40
2.0
100
AcDbArc
 50
265.0
 51
85.0
  0
ARC
  5
D0
100
AcDbEntity
  8
2
370
    50
100
AcDbCircle
 10
103.25026
 20
176.625514
 30
0.0
 40
2.0
100
AcDbArc
 50
85.0
 51
265.0
  0
LINE
  5
D1
100
AcDbEntity
  8
2
370
    50
100
AcDbLine
 10
129.224571
 20
180.375975
 30
0.0
 11
103.424571
 21
182.633183
 31
0.0
  0
ARC
  5
D2
100
AcDbEntity
  8
2
370
    50
100
AcDbCircle
 10
129.05026
 20
178.383586
 30
0.0
 40
2.0
100
AcDbArc
 50
265.0
 51
85.0
  0
ARC
  5
D3
100
AcDbEntity
  8
2
370
    50
100
AcDbCircle
 10
103.25026
 20
180.640793
 30
0.0
 40
2.0
100
AcDbArc
 50
85.0
 51
265.0
  0
LINE
  5
D4
100
AcDbEntity
  8
2
370
    50
100
AcDbLine
 10
129.224571
 20
184.391254
 30
0.0
 11
103.424571
 21
186.648462
 31
0.0
  0
ARC
  5
D5
100
AcDbEntity
  8
2
370
    50
100
AcDbCircle
 10
129.05026
 20
182.398865
 30
0.0
 40
2.0
100
AcDbArc
 50
274.924985
 51
85.0
  0
ARC
  5
D6
100
AcDbEntity
  8
2
370
    50
100
AcDbCircle
 10
103.25026
 20
184.656073
 30
0.0
 40
2.0
100
AcDbArc
 50
85.0
 51
265.0
  0
LINE
  5
D7
100
AcDbEntity
  8
2
370
    50
100
AcDbLine
 10
129.224571
 20
188.406534
 30
0.0
 11
103.424571
 21
190.663741
 31
0.0
  0
ARC
  5
D8
100
AcDbEntity
  8
2
370
    50
100
AcDbCircle
 10
129.05026
 20
186.414144
 30
0.0
 40
2.0
100
AcDbArc
 50
265.0
 51
85.0
  0
ARC
  5
D9
100
AcDbEntity
  8
2
370
    50
100
AcDbCircle
 10
103.25026
 20
188.671352
 30
0.0
 40
2.0
100
AcDbArc
 50
85.0
 51
265.0
  0
LINE
  5
DA
100
AcDbEntity
  8
2
370
    50
100
AcDbLine
 10
129.224571
 20
192.421813
 30
0.0
 11
103.424571
 21
194.679021
 31
0.0
  0
ARC
  5
DB
100
AcDbEntity
  8
2
370
    50
100
AcDbCircle
 10
129.05026
 20
190.429424
 30
0.0
 40
2.0
100
AcDbArc
 50
265.0
 51
85.0
  0
ARC
  5
DC
100
AcDbEntity
  8
2
370
    50
100
AcDbCircle
 10
103.25026
 20
192.686631
 30
0.0
 40
2.0
100
AcDbArc
 50
85.0
 51
265.0
  0
LINE
  5
DD
100
AcDbEntity
  8
2
370
    50
100
AcDbLine
 10
129.224571
 20
196.437092
 30
0.0
 11
103.424571
 21
198.6943
 31
0.0
  0
ARC
  5
DE
100
AcDbEntity
  8
2
370
    50
100
AcDbCircle
 10
129.05026
 20
194.444703
 30
0.0
 40
2.0
100
AcDbArc
 50
265.0
 51
85.0
  0
ARC
  5
DF
100
AcDbEntity
  8
2
370
    50
100
AcDbCircle
 10
103.25026
 20
196.701911
 30
0.0
 40
2.0
100
AcDbArc
 50
85.0
 51
265.0
  0
LINE
  5
E0
100
AcDbEntity
  8
2
370
    50
100
AcDbLine
 10
129.224571
 20
200.452372
 30
0.0
 11
103.424571
 21
202.709579
 31
0.0
  0
ARC
  5
E1
100
AcDbEntity
  8
2
370
    50
100
AcDbCircle
 10
129.05026
 20
198.459982
 30
0.0
 40
2.0
100
AcDbArc
 50
265.0
 51
85.0
  0
ARC
  5
E2
100
AcDbEntity
  8
2
370
    50
100
AcDbCircle
 10
103.25026
 20
200.71719
 30
0.0
 40
2.0
100
AcDbArc
 50
85.0
 51
265.0
  0
LINE
  5
E3
100
AcDbEntity
  8
2
370
    50
100
AcDbLine
 10
129.224571
 20
204.467651
 30
0.0
 11
103.424571
 21
206.724859
 31
0.0
  0
ARC
  5
E4
100
AcDbEntity
  8
2
370
    50
100
AcDbCircle
 10
129.05026
 20
202.475262
 30
0.0
 40
2.0
100
AcDbArc
 50
265.0
 51
85.0
  0
ARC
  5
E5
100
AcDbEntity
  8
2
370
    50
100
AcDbCircle
 10
103.25026
 20
204.732469
 30
0.0
 40
2.0
100
AcDbArc
 50
85.0
 51
265.0
  0
LINE
  5
E6
100
AcDbEntity
  8
2
370
    50
100
AcDbLine
 10
129.224571
 20
208.482931
 30
0.0
 11
103.424571
 21
210.740138
 31
0.0
  0
ARC
  5
E7
100
AcDbEntity
  8
2
370
    50
100
AcDbCircle
 10
129.05026
 20
206.490541
 30
0.0
 40
2.0
100
AcDbArc
 50
265.0
 51
85.0
  0
ARC
  5
E8
100
AcDbEntity
  8
2
370
    50
100
AcDbCircle
 10
103.25026
 20
208.747749
 30
0.0
 40
2.0
100
AcDbArc
 50
85.0
 51
265.0
  0
LINE
  5
E9
100
AcDbEntity
  8
2
370
    50
100
AcDbLine
 10
129.224571
 20
212.49821
 30
0.0
 11
103.424571
 21
214.755417
 31
0.0
  0
ARC
  5
EA
100
AcDbEntity
  8
2
370
    50
100
AcDbCircle
 10
129.05026
 20
210.50582
 30
0.0
 40
2.0
100
AcDbArc
 50
265.0
 51
85.0
  0
ARC
  5
EB
100
AcDbEntity
  8
2
370
    50
100
AcDbCircle
 10
103.25026
 20
212.763028
 30
0.0
 40
2.0
100
AcDbArc
 50
85.0
 51
265.0
  0
LINE
  5
EC
100
AcDbEntity
  8
2
370
    50
100
AcDbLine
 10
129.224571
 20
216.513489
 30
0.0
 11
103.424571
 21
218.770697
 31
0.0
  0
ARC
  5
ED
100
AcDbEntity
  8
2
370
    50
100
AcDbCircle
 10
129.05026
 20
214.5211
 30
0.0
 40
2.0
100
AcDbArc
 50
265.0
 51
85.0
  0
ARC
  5
EE
100
AcDbEntity
  8
2
370
    50
100
AcDbCircle
 10
103.25026
 20
216.778307
 30
0.0
 40
2.0
100
AcDbArc
 50
85.0
 51
265.0
  0
LINE
  5
EF
100
AcDbEntity
  8
2
370
    50
100
AcDbLine
 10
129.224571
 20
220.528769
 30
0.0
 11
103.424571
 21
222.785976
 31
0.0
  0
ARC
  5
F0
100
AcDbEntity
  8
2
370
    50
100
AcDbCircle
 10
129.05026
 20
218.536379
 30
0.0
 40
2.0
100
AcDbArc
 50
265.0
 51
85.0
  0
ARC
  5
F1
100
AcDbEntity
  8
2
370
    50
100
AcDbCircle
 10
103.25026
 20
220.793587
 30
0.0
 40
2.0
100
AcDbArc
 50
85.0
 51
265.0
  0
LINE
  5
F2
100
AcDbEntity
  8
2
370
    50
100
AcDbLine
 10
129.224571
 20
224.544048
 30
0.0
 11
103.424571
 21
226.801255
 31
0.0
  0
ARC
  5
F3
100
AcDbEntity
  8
2
370
    50
100
AcDbCircle
 10
129.05026
 20
222.551659
 30
0.0
 40
2.0
100
AcDbArc
 50
265.0
 51
85.0
  0
ARC
  5
F4
100
AcDbEntity
  8
2
370
    50
100
AcDbCircle
 10
103.25026
 20
224.808866
 30
0.0
 40
2.0
100
AcDbArc
 50
85.0
 51
265.0
  0
LINE
  5
F5
100
AcDbEntity
  8
2
370
    50
100
AcDbLine
 10
128.809658
 20
225.659556
 30
0.0
 11
103.009658
 21
228.78602
 31
0.0
  0
LINE
  5
F6
100
AcDbEntity
  8
2
370
    50
100
AcDbLine
 10
129.290861
 20
229.630506
 30
0.0
 11
108.565647
 21
232.142003
 31
0.0
  0
ARC
  5
F7
100
AcDbEntity
  8
2
370
    50
100
AcDbCircle
 10
129.05026
 20
227.645031
 30
0.0
 40
2.0
100
AcDbArc
 50
263.090543
 51
83.090543
  0
ARC
  5
F8
100
AcDbEntity
  8
2
370
    50
100
AcDbCircle
 10
103.25026
 20
230.771495
 30
0.0
 40
2.0
100
AcDbArc
 50
129.197425
 51
263.090543
  0
LINE
  5
F9
100
AcDbEntity
  8
2
370
    50
100
AcDbLine
 10
-104.84974
 20
240.882315
 30
0.0
 11
-142.84974
 21
242.382315
 31
0.0
  0
LINE
  5
FA
100
AcDbEntity
  8
2
370
    50
100
AcDbLine
 10
-105.440924
 20
225.905651
 30
0.0
 11
-143.440924
 21
227.405651
 31
0.0
  0
LINE
  5
FB
100
AcDbEntity
  8
2
370
    50
100
AcDbLine
 10
-104.84974
 20
240.882315
 30
0.0
 11
-105.440924
 21
225.905651
 31
0.0
  0
LINE
  5
FC
100
AcDbEntity
  8
2
370
    50
100
AcDbLine
 10
-142.84974
 20
242.382315
 30
0.0
 11
-143.440924
 21
227.405651
 31
0.0
  0
LINE
  5
FD
100
AcDbEntity
  8
2
370
    50
100
AcDbLine
 10
0.103806
 20
357.556626
 30
0.0
 11
-2.183902
 21
331.408003
 31
0.0
  0
LINE
  5
FE
100
AcDbEntity
  8
2
370
    50
100
AcDbLine
 10
-3.911473
 20
357.556626
 30
0.0
 11
-6.168681
 21
331.756626
 31
0.0
  0
ARC
  5
FF
100
AcDbEntity
  8
2
370
    50
100
AcDbCircle
 10
-1.919084
 20
357.382315
 30
0.0
 40
2.0
100
AcDbArc
 50
355.0
 51
175.0
  0
ARC
  5
100
100
AcDbEntity
  8
2
370
    50
100
AcDbCircle
 10
-4.176291
 20
331.582315
 30
0.0
 40
2.0
100
AcDbArc
 50
175.0
 51
355.0
  0
LINE
  5
101
100
AcDbEntity
  8
2
370
    50
100
AcDbLine
 10
93.043587
 20
315.784484
 30
0.0
 11
72.936065
 21
298.912269
 31
0.0
  0
LINE
  5
102
100
AcDbEntity
  8
2
370
    50
100
AcDbLine
 10
90.204356
 20
318.623715
 30
0.0
 11
70.364914
 21
301.976447
 31
0.0
  0
ARC
  5
103
100
AcDbEntity
  8
2
370
    50
100
AcDbCircle
 10
91.489931
 20
317.091626
 30
0.0
 40
2.0
100
AcDbArc
 50
310.0
 51
130.0
  0
ARC
  5
104
100
AcDbEntity
  8
2
370
    50
100
AcDbCircle
 10
71.65049
 20
300.444358
 30
0.0
 40
2.0
100
AcDbArc
 50
130.0
 51
310.0
  0
LINE
  5
105
100
AcDbEntity
  8
2
370
    50
100
AcDbLine
 10
127.8894
 20
243.696944
 30
0.0
 11
101.567128
 21
241.394043
 31
0.0
  0
LINE
  5
106
100
AcDbEntity
  8
2
370
    50
100
AcDbLine
 10
127.192154
 20
247.651222
 30
0.0
 11
101.392154
 21
245.394014
 31
0.0
  0
ARC
  5
107
100
AcDbEntity
  8
2
370
    50
100
AcDbCircle
 10
127.366465
 20
245.658832
 30
0.0
 40
2.0
100
AcDbArc
 50
275.0
 51
95.0
  0
ARC
  5
108
100
AcDbEntity
  8
2
370
    50
100
AcDbCircle
 10
101.566465
 20
243.401625
 30
0.0
 40
2.0
100
AcDbArc
 50
95.0
 51
275.0
  0
LINE
  5
109
100
AcDbEntity
  8
2
370
    50
100
AcDbLine
 10
129.062758
 20
232.142003
 30
0.0
 11
102.814251
 21
232.142003
 31
0.0
  0
LINE
  5
10A
100
AcDbEntity
  8
2
370
    50
100
AcDbLine
 10
128.712803
 20
236.142003
 30
0.0
 11
102.814251
 21
236.142003
 31
0.0
  0
ARC
  5
10B
100
AcDbEntity
  8
2
370
    50
100
AcDbCircle
 10
128.712803
 20
234.142003
 30
0.0
 40
2.0
100
AcDbArc
 50
270.0
 51
90.0
  0
ARC
  5
10C
100
AcDbEntity
  8
2
370
    50
100
AcDbCircle
 10
102.814251
 20
234.142003
 30
0.0
 40
2.0
100
AcDbArc
 50
90.0
 51
270.0
  0
LINE
  5
10D
100
AcDbEntity
  8
2
370
    50
100
AcDbLine
 10
125.713427
 20
255.105649
 30
0.0
 11
99.521674
 21
250.487336
 31
0.0
  0
LINE
  5
10E
100
AcDbEntity
  8
2
370
    50
100
AcDbLine
 10
124.674196
 20
258.984111
 30
0.0
 11
99.169102
 21
254.486874
 31
0.0
  0
ARC
  5
10F
100
AcDbEntity
  8
2
370
    50
100
AcDbCircle
 10
125.021493
 20
257.014495
 30
0.0
 40
2.0
100
AcDbArc
 50
280.0
 51
100.0
  0
ARC
  5
110
100
AcDbEntity
  8
2
370
    50
100
AcDbCircle
 10
99.516398
 20
252.517259
 30
0.0
 40
2.0
100
AcDbArc
 50
100.0
 51
280.0
  0
LINE
  5
111
100
AcDbEntity
  8
2
370
    50
100
AcDbLine
 10
122.551401
 20
266.281292
 30
0.0
 11
96.69729
 21
259.353704
 31
0.0
  0
LINE
  5
112
100
AcDbEntity
  8
2
370
    50
100
AcDbLine
 10
121.178094
 20
270.05442
 30
0.0
 11
96.162014
 21
263.351382
 31
0.0
  0
ARC
  5
113
100
AcDbEntity
  8
2
370
    50
100
AcDbCircle
 10
121.695732
 20
268.122568
 30
0.0
 40
2.0
100
AcDbArc
 50
285.0
 51
105.0
  0
ARC
  5
114
100
AcDbEntity
  8
2
370
    50
100
AcDbCircle
 10
96.679652
 20
261.41953
 30
0.0
 40
2.0
100
AcDbArc
 50
105.0
 51
285.0
  0
LINE
  5
115
100
AcDbEntity
  8
2
370
    50
100
AcDbLine
 10
118.427385
 20
277.138819
 30
0.0
 11
93.761858
 21
268.161301
 31
0.0
  0
LINE
  5
116
100
AcDbEntity
  8
2
370
    50
100
AcDbLine
 10
116.730455
 20
280.777898
 30
0.0
 11
92.393777
 21
271.920072
 31
0.0
  0
ARC
  5
117
100
AcDbEntity
  8
2
370
    50
100
AcDbCircle
 10
117.414495
 20
278.898513
 30
0.0
 40
2.0
100
AcDbArc
 50
290.0
 51
110.0
  0
ARC
  5
118
100
AcDbEntity
  8
2
370
    50
100
AcDbCircle
 10
93.077817
 20
270.040687
 30
0.0
 40
2.0
100
AcDbArc
 50
110.0
 51
290.0
  0
LINE
  5
119
100
AcDbEntity
  8
2
370
    50
100
AcDbLine
 10
113.372767
 20
287.595599
 30
0.0
 11
88.817497
 21
276.145289
 31
0.0
  0
LINE
  5
11A
100
AcDbEntity
  8
2
370
    50
100
AcDbLine
 10
111.365128
 20
291.072933
 30
0.0
 11
87.893068
 21
280.127732
 31
0.0
  0
ARC
  5
11B
100
AcDbEntity
  8
2
370
    50
100
AcDbCircle
 10
112.210364
 20
289.260317
 30
0.0
 40
2.0
100
AcDbArc
 50
295.0
 51
115.0
  0
ARC
  5
11C
100
AcDbEntity
  8
2
370
    50
100
AcDbCircle
 10
88.738305
 20
278.315116
 30
0.0
 40
2.0
100
AcDbArc
 50
115.0
 51
295.0
  0
LINE
  5
11D
100
AcDbEntity
  8
2
370
    50
100
AcDbLine
 10
107.426015
 20
297.572049
 30
0.0
 11
84.694142
 21
284.447795
 31
0.0
  0
LINE
  5
11E
100
AcDbEntity
  8
2
370
    50
100
AcDbLine
 10
105.122945
 20
300.861173
 30
0.0
 11
82.694142
 21
287.911897
 31
0.0
  0
ARC
  5
11F
100
AcDbEntity
  8
2
370
    50
100
AcDbCircle
 10
106.122945
 20
299.129122
 30
0.0
 40
2.0
100
AcDbArc
 50
300.0
 51
120.0
  0
ARC
  5
120
100
AcDbEntity
  8
2
370
    50
100
AcDbCircle
 10
83.694142
 20
286.179846
 30
0.0
 40
2.0
100
AcDbArc
 50
120.0
 51
300.0
  0
LINE
  5
121
100
AcDbEntity
  8
2
370
    50
100
AcDbLine
 10
100.632387
 20
306.992241
 30
0.0
 11
79.130869
 21
291.936717
 31
0.0
  0
LINE
  5
122
100
AcDbEntity
  8
2
370
    50
100
AcDbLine
 10
98.051415
 20
310.068124
 30
0.0
 11
76.836564
 21
295.213325
 31
0.0
  0
ARC
  5
123
100
AcDbEntity
  8
2
370
    50
100
AcDbCircle
 10
99.198568
 20
308.42982
 30
0.0
 40
2.0
100
AcDbArc
 50
305.0
 51
125.0
  0
ARC
  5
124
100
AcDbEntity
  8
2
370
    50
100
AcDbCircle
 10
77.983717
 20
293.575021
 30
0.0
 40
2.0
100
AcDbArc
 50
125.0
 51
305.0
  0
LINE
  5
125
100
AcDbEntity
  8
2
370
    50
100
AcDbLine
 10
84.717371
 20
323.881861
 30
0.0
 11
66.156874
 21
305.321364
 31
0.0
  0
LINE
  5
126
100
AcDbEntity
  8
2
370
    50
100
AcDbLine
 10
81.641488
 20
326.462833
 30
0.0
 11
63.328447
 21
308.149791
 31
0.0
  0
ARC
  5
127
100
AcDbEntity
  8
2
370
    50
100
AcDbCircle
 10
83.055702
 20
325.048619
 30
0.0
 40
2.0
100
AcDbArc
 50
315.0
 51
135.0
  0
ARC
  5
128
100
AcDbEntity
  8
2
370
    50
100
AcDbCircle
 10
64.74266
 20
306.735578
 30
0.0
 40
2.0
100
AcDbArc
 50
135.0
 51
315.0
  0
LINE
  5
129
100
AcDbEntity
  8
2
370
    50
100
AcDbLine
 10
75.717105
 20
331.222748
 30
0.0
 11
58.84489
 21
311.115226
 31
0.0
  0
LINE
  5
12A
100
AcDbEntity
  8
2
370
    50
100
AcDbLine
 10
72.42798
 20
333.525818
 30
0.0
 11
55.780712
 21
313.686376
 31
0.0
  0
ARC
  5
12B
100
AcDbEntity
  8
2
370
    50
100
AcDbCircle
 10
73.960069
 20
332.240243
 30
0.0
 40
2.0
100
AcDbArc
 50
320.0
 51
140.0
  0
ARC
  5
12C
100
AcDbEntity
  8
2
370
    50
100
AcDbCircle
 10
57.312801
 20
312.400801
 30
0.0
 40
2.0
100
AcDbArc
 50
140.0
 51
320.0
  0
LINE
  5
12D
100
AcDbEntity
  8
2
370
    50
100
AcDbLine
 10
66.111287
 20
337.751276
 30
0.0
 11
51.055762
 21
316.249758
 31
0.0
  0
LINE
  5
12E
100
AcDbEntity
  8
2
370
    50
100
AcDbLine
 10
62.633953
 20
339.758916
 30
0.0
 11
47.779154
 21
318.544064
 31
0.0
  0
ARC
  5
12F
100
AcDbEntity
  8
2
370
    50
100
AcDbCircle
 10
64.272257
 20
338.611763
 30
0.0
 40
2.0
100
AcDbArc
 50
325.0
 51
145.0
  0
ARC
  5
130
100
AcDbEntity
  8
2
370
    50
100
AcDbCircle
 10
49.417458
 20
317.396911
 30
0.0
 40
2.0
100
AcDbArc
 50
145.0
 51
325.0
  0
LINE
  5
131
100
AcDbEntity
  8
2
370
    50
100
AcDbLine
 10
55.973024
 20
343.417759
 30
0.0
 11
42.848771
 21
320.685885
 31
0.0
  0
LINE
  5
132
100
AcDbEntity
  8
2
370
    50
100
AcDbLine
 10
52.333945
 20
345.114689
 30
0.0
 11
39.384669
 21
322.685885
 31
0.0
  0
ARC
  5
133
100
AcDbEntity
  8
2
370
    50
100
AcDbCircle
 10
54.065996
 20
344.114689
 30
0.0
 40
2.0
100
AcDbArc
 50
330.0
 51
150.0
  0
ARC
  5
134
100
AcDbEntity
  8
2
370
    50
100
AcDbCircle
 10
41.11672
 20
321.685885
 30
0.0
 40
2.0
100
AcDbArc
 50
150.0
 51
330.0
  0
LINE
  5
135
100
AcDbEntity
  8
2
370
    50
100
AcDbLine
 10
45.379473
 20
348.179071
 30
0.0
 11
34.286375
 21
324.389845
 31
0.0
  0
LINE
  5
136
100
AcDbEntity
  8
2
370
    50
100
AcDbLine
 10
41.606345
 20
349.552377
 30
0.0
 11
30.661144
 21
326.080318
 31
0.0
  0
ARC
  5
137
100
AcDbEntity
  8
2
370
    50
100
AcDbCircle
 10
43.41896
 20
348.707141
 30
0.0
 40
2.0
100
AcDbArc
 50
335.0
 51
155.0
  0
ARC
  5
138
100
AcDbEntity
  8
2
370
    50
100
AcDbCircle
 10
32.473759
 20
325.235082
 30
0.0
 40
2.0
100
AcDbArc
 50
155.0
 51
335.0
  0
LINE
  5
139
100
AcDbEntity
  8
2
370
    50
100
AcDbLine
 10
34.411259
 20
351.998976
 30
0.0
 11
25.433741
 21
327.333448
 31
0.0
  0
LINE
  5
13A
100
AcDbEntity
  8
2
370
    50
100
AcDbLine
 10
30.532797
 20
353.038207
 30
0.0
 11
21.67497
 21
328.701529
 31
0.0
  0
ARC
  5
13B
100
AcDbEntity
  8
2
370
    50
100
AcDbCircle
 10
32.412182
 20
352.354167
 30
0.0
 40
2.0
100
AcDbArc
 50
340.0
 51
160.0
  0
ARC
  5
13C
100
AcDbEntity
  8
2
370
    50
100
AcDbCircle
 10
23.554355
 20
328.017489
 30
0.0
 40
2.0
100
AcDbArc
 50
160.0
 51
340.0
  0
LINE
  5
13D
100
AcDbEntity
  8
2
370
    50
100
AcDbLine
 10
19.197576
 20
355.545648
 30
0.0
 11
12.494538
 21
330.529568
 31
0.0
  0
ARC
  5
13E
100
AcDbEntity
  8
2
370
    50
100
AcDbCircle
 10
14.42639
 20
330.01193
 30
0.0
 40
2.0
100
AcDbArc
 50
165.0
 51
345.0
  0
ARC
  5
13F
100
AcDbEntity
  8
2
370
    50
100
AcDbCircle
 10
21.129428
 20
355.02801
 30
0.0
 40
2.0
100
AcDbArc
 50
345.0
 51
165.0
  0
LINE
  5
140
100
AcDbEntity
  8
2
370
    50
100
AcDbLine
 10
23.151855
 20
354.848403
 30
0.0
 11
16.358241
 21
329.494292
 31
0.0
  0
LINE
  5
141
100
AcDbEntity
  8
2
370
    50
100
AcDbLine
 10
7.686952
 20
357.055619
 30
0.0
 11
3.189716
 21
331.550524
 31
0.0
  0
ARC
  5
142
100
AcDbEntity
  8
2
370
    50
100
AcDbCircle
 10
5.159331
 20
331.203228
 30
0.0
 40
2.0
100
AcDbArc
 50
170.0
 51
350.0
  0
ARC
  5
143
100
AcDbEntity
  8
2
370
    50
100
AcDbCircle
 10
9.656568
 20
356.708323
 30
0.0
 40
2.0
100
AcDbArc
 50
350.0
 51
170.0
  0
LINE
  5
144
100
AcDbEntity
  8
2
370
    50
100
AcDbLine
 10
11.686952
 20
356.705664
 30
0.0
 11
7.128947
 21
330.855932
 31
0.0
  0
LINE
  5
145
100
AcDbEntity
  8
2
370
    50
100
AcDbLine
 10
-15.509429
 20
357.044858
 30
0.0
 11
-15.509429
 21
331.146306
 31
0.0
  0
ARC
  5
146
100
AcDbEntity
  8
2
370
    50
100
AcDbCircle
 10
-13.509429
 20
331.146306
 30
0.0
 40
2.0
100
AcDbArc
 50
180.0
 51
360.0
  0
ARC
  5
147
100
AcDbEntity
  8
2
370
    50
100
AcDbCircle
 10
-13.509429
 20
357.044858
 30
0.0
 40
2.0
100
AcDbArc
 50
0.0
 51
180.0
  0
LINE
  5
148
100
AcDbEntity
  8
2
370
    50
100
AcDbLine
 10
-11.509429
 20
357.394813
 30
0.0
 11
-11.509429
 21
331.146306
 31
0.0
  0
LINE
  5
149
100
AcDbEntity
  8
2
370
    50
100
AcDbLine
 10
-27.018647
 20
355.524209
 30
0.0
 11
-24.76144
 21
329.724209
 31
0.0
  0
ARC
  5
14A
100
AcDbEntity
  8
2
370
    50
100
AcDbCircle
 10
-22.76905
 20
329.89852
 30
0.0
 40
2.0
100
AcDbArc
 50
185.0
 51
5.0
  0
ARC
  5
14B
100
AcDbEntity
  8
2
370
    50
100
AcDbCircle
 10
-25.026258
 20
355.69852
 30
0.0
 40
2.0
100
AcDbArc
 50
5.0
 51
185.0
  0
LINE
  5
14C
100
AcDbEntity
  8
2
370
    50
100
AcDbLine
 10
-23.064369
 20
356.221455
 30
0.0
 11
-20.776661
 21
330.072832
 31
0.0
  0
LINE
  5
14D
100
AcDbEntity
  8
2
370
    50
100
AcDbLine
 10
-38.351536
 20
353.006252
 30
0.0
 11
-33.8543
 21
327.501157
 31
0.0
  0
ARC
  5
14E
100
AcDbEntity
  8
2
370
    50
100
AcDbCircle
 10
-31.884684
 20
327.848453
 30
0.0
 40
2.0
100
AcDbArc
 50
190.0
 51
10.0
  0
ARC
  5
14F
100
AcDbEntity
  8
2
370
    50
100
AcDbCircle
 10
-36.38192
 20
353.353548
 30
0.0
 40
2.0
100
AcDbArc
 50
10.0
 51
190.0
  0
LINE
  5
150
100
AcDbEntity
  8
2
370
    50
100
AcDbLine
 10
-34.473074
 20
354.045482
 30
0.0
 11
-29.915069
 21
328.19575
 31
0.0
  0
LINE
  5
151
100
AcDbEntity
  8
2
370
    50
100
AcDbLine
 10
-49.421845
 20
349.51015
 30
0.0
 11
-42.718807
 21
324.494069
 31
0.0
  0
ARC
  5
152
100
AcDbEntity
  8
2
370
    50
100
AcDbCircle
 10
-40.786955
 20
325.011708
 30
0.0
 40
2.0
100
AcDbArc
 50
195.0
 51
15.0
  0
ARC
  5
153
100
AcDbEntity
  8
2
370
    50
100
AcDbCircle
 10
-47.489994
 20
350.027788
 30
0.0
 40
2.0
100
AcDbArc
 50
15.0
 51
195.0
  0
LINE
  5
154
100
AcDbEntity
  8
2
370
    50
100
AcDbLine
 10
-45.648717
 20
350.883456
 30
0.0
 11
-38.855104
 21
325.529346
 31
0.0
  0
LINE
  5
155
100
AcDbEntity
  8
2
370
    50
100
AcDbLine
 10
-60.145324
 20
345.06251
 30
0.0
 11
-51.287497
 21
320.725832
 31
0.0
  0
ARC
  5
156
100
AcDbEntity
  8
2
370
    50
100
AcDbCircle
 10
-49.408112
 20
321.409872
 30
0.0
 40
2.0
100
AcDbArc
 50
200.0
 51
20.0
  0
ARC
  5
157
100
AcDbEntity
  8
2
370
    50
100
AcDbCircle
 10
-58.265938
 20
345.746551
 30
0.0
 40
2.0
100
AcDbArc
 50
20.0
 51
200.0
  0
LINE
  5
158
100
AcDbEntity
  8
2
370
    50
100
AcDbLine
 10
-56.506245
 20
346.759441
 30
0.0
 11
-47.528727
 21
322.093913
 31
0.0
  0
LINE
  5
159
100
AcDbEntity
  8
2
370
    50
100
AcDbLine
 10
-70.440358
 20
339.697183
 30
0.0
 11
-59.495157
 21
316.225124
 31
0.0
  0
ARC
  5
15A
100
AcDbEntity
  8
2
370
    50
100
AcDbCircle
 10
-57.682542
 20
317.07036
 30
0.0
 40
2.0
100
AcDbArc
 50
205.0
 51
25.0
  0
ARC
  5
15B
100
AcDbEntity
  8
2
370
    50
100
AcDbCircle
 10
-68.627743
 20
340.542419
 30
0.0
 40
2.0
100
AcDbArc
 50
25.0
 51
205.0
  0
LINE
  5
15C
100
AcDbEntity
  8
2
370
    50
100
AcDbLine
 10
-66.963024
 20
341.704822
 30
0.0
 11
-55.869926
 21
317.915597
 31
0.0
  0
LINE
  5
15D
100
AcDbEntity
  8
2
370
    50
100
AcDbLine
 10
-80.228598
 20
333.455001
 30
0.0
 11
-67.279322
 21
311.026197
 31
0.0
  0
ARC
  5
15E
100
AcDbEntity
  8
2
370
    50
100
AcDbCircle
 10
-65.547272
 20
312.026197
 30
0.0
 40
2.0
100
AcDbArc
 50
210.0
 51
30.0
  0
ARC
  5
15F
100
AcDbEntity
  8
2
370
    50
100
AcDbCircle
 10
-78.496547
 20
334.455001
 30
0.0
 40
2.0
100
AcDbArc
 50
30.0
 51
210.0
  0
LINE
  5
160
100
AcDbEntity
  8
2
370
    50
100
AcDbLine
 10
-76.939474
 20
335.75807
 30
0.0
 11
-63.815221
 21
313.026197
 31
0.0
  0
LINE
  5
161
100
AcDbEntity
  8
2
370
    50
100
AcDbLine
 10
-89.435549
 20
326.383471
 30
0.0
 11
-74.58075
 21
305.168619
 31
0.0
  0
ARC
  5
162
100
AcDbEntity
  8
2
370
    50
100
AcDbCircle
 10
-72.942446
 20
306.315772
 30
0.0
 40
2.0
100
AcDbArc
 50
215.0
 51
35.0
  0
ARC
  5
163
100
AcDbEntity
  8
2
370
    50
100
AcDbCircle
 10
-87.797245
 20
327.530623
 30
0.0
 40
2.0
100
AcDbArc
 50
35.0
 51
215.0
  0
LINE
  5
164
100
AcDbEntity
  8
2
370
    50
100
AcDbLine
 10
-86.359667
 20
328.964442
 30
0.0
 11
-71.304142
 21
307.462925
 31
0.0
  0
LINE
  5
165
100
AcDbEntity
  8
2
370
    50
100
AcDbLine
 10
-105.830258
 20
309.973543
 30
0.0
 11
-87.517217
 21
291.660502
 31
0.0
  0
ARC
  5
166
100
AcDbEntity
  8
2
370
    50
100
AcDbCircle
 10
-86.103003
 20
293.074715
 30
0.0
 40
2.0
100
AcDbArc
 50
225.0
 51
45.0
  0
ARC
  5
167
100
AcDbEntity
  8
2
370
    50
100
AcDbCircle
 10
-104.416045
 20
311.387757
 30
0.0
 40
2.0
100
AcDbArc
 50
45.0
 51
225.0
  0
LINE
  5
168
100
AcDbEntity
  8
2
370
    50
100
AcDbLine
 10
-103.249286
 20
313.049426
 30
0.0
 11
-84.68879
 21
294.488929
 31
0.0
  0
LINE
  5
169
100
AcDbEntity
  8
2
370
    50
100
AcDbLine
 10
-97.99114
 20
318.536411
 30
0.0
 11
-81.343872
 21
298.69697
 31
0.0
  0
ARC
  5
16A
100
AcDbEntity
  8
2
370
    50
100
AcDbCircle
 10
-79.811783
 20
299.982545
 30
0.0
 40
2.0
100
AcDbArc
 50
220.0
 51
40.0
  0
ARC
  5
16B
100
AcDbEntity
  8
2
370
    50
100
AcDbCircle
 10
-96.459051
 20
319.821986
 30
0.0
 40
2.0
100
AcDbArc
 50
40.0
 51
220.0
  0
LINE
  5
16C
100
AcDbEntity
  8
2
370
    50
100
AcDbLine
 10
-95.151909
 20
321.375642
 30
0.0
 11
-78.279694
 21
301.26812
 31
0.0
  0
LINE
  5
16D
100
AcDbEntity
  8
2
370
    50
100
AcDbLine
 10
-112.893243
 20
300.760036
 30
0.0
 11
-93.053801
 21
284.112767
 31
0.0
  0
ARC
  5
16E
100
AcDbEntity
  8
2
370
    50
100
AcDbCircle
 10
-91.768226
 20
285.644856
 30
0.0
 40
2.0
100
AcDbArc
 50
230.0
 51
50.0
  0
ARC
  5
16F
100
AcDbEntity
  8
2
370
    50
100
AcDbCircle
 10
-111.607668
 20
302.292125
 30
0.0
 40
2.0
100
AcDbArc
 50
50.0
 51
230.0
  0
LINE
  5
170
100
AcDbEntity
  8
2
370
    50
100
AcDbLine
 10
-110.590173
 20
304.04916
 30
0.0
 11
-90.482651
 21
287.176945
 31
0.0
  0
LINE
  5
171
100
AcDbEntity
  8
2
370
    50
100
AcDbLine
 10
-119.126341
 20
290.966008
 30
0.0
 11
-97.911489
 21
276.111209
 31
0.0
  0
ARC
  5
172
100
AcDbEntity
  8
2
370
    50
100
AcDbCircle
 10
-96.764337
 20
277.749513
 30
0.0
 40
2.0
100
AcDbArc
 50
235.0
 51
55.0
  0
ARC
  5
173
100
AcDbEntity
  8
2
370
    50
100
AcDbCircle
 10
-117.979188
 20
292.604312
 30
0.0
 40
2.0
100
AcDbArc
 50
55.0
 51
235.0
  0
LINE
  5
174
100
AcDbEntity
  8
2
370
    50
100
AcDbLine
 10
-117.118701
 20
294.443342
 30
0.0
 11
-95.617184
 21
279.387818
 31
0.0
  0
LINE
  5
175
100
AcDbEntity
  8
2
370
    50
100
AcDbLine
 10
-128.919803
 20
269.9384
 30
0.0
 11
-105.447743
 21
258.993199
 31
0.0
  0
ARC
  5
176
100
AcDbEntity
  8
2
370
    50
100
AcDbCircle
 10
-104.602507
 20
260.805815
 30
0.0
 40
2.0
100
AcDbArc
 50
245.0
 51
65.0
  0
ARC
  5
177
100
AcDbEntity
  8
2
370
    50
100
AcDbCircle
 10
-128.074566
 20
271.751016
 30
0.0
 40
2.0
100
AcDbArc
 50
65.0
 51
245.0
  0
LINE
  5
178
100
AcDbEntity
  8
2
370
    50
100
AcDbLine
 10
-127.546496
 20
273.711528
 30
0.0
 11
-103.75727
 21
262.61843
 31
0.0
  0
LINE
  5
179
100
AcDbEntity
  8
2
370
    50
100
AcDbLine
 10
-124.482114
 20
280.666
 30
0.0
 11
-102.053311
 21
267.716724
 31
0.0
  0
ARC
  5
17A
100
AcDbEntity
  8
2
370
    50
100
AcDbCircle
 10
-101.053311
 20
269.448775
 30
0.0
 40
2.0
100
AcDbArc
 50
240.0
 51
60.0
  0
ARC
  5
17B
100
AcDbEntity
  8
2
370
    50
100
AcDbCircle
 10
-123.482114
 20
282.398051
 30
0.0
 40
2.0
100
AcDbArc
 50
60.0
 51
240.0
  0
LINE
  5
17C
100
AcDbEntity
  8
2
370
    50
100
AcDbLine
 10
-122.785184
 20
284.305079
 30
0.0
 11
-100.053311
 21
271.180826
 31
0.0
  0
LINE
  5
17D
100
AcDbEntity
  8
2
370
    50
100
AcDbLine
 10
-132.405632
 20
258.864852
 30
0.0
 11
-108.068954
 21
250.007025
 31
0.0
  0
ARC
  5
17E
100
AcDbEntity
  8
2
370
    50
100
AcDbCircle
 10
-107.384914
 20
251.886411
 30
0.0
 40
2.0
100
AcDbArc
 50
250.0
 51
70.0
  0
ARC
  5
17F
100
AcDbEntity
  8
2
370
    50
100
AcDbCircle
 10
-131.721592
 20
260.744237
 30
0.0
 40
2.0
100
AcDbArc
 50
70.0
 51
250.0
  0
LINE
  5
180
100
AcDbEntity
  8
2
370
    50
100
AcDbLine
 10
-131.366401
 20
262.743314
 30
0.0
 11
-106.700874
 21
253.765796
 31
0.0
  0
LINE
  5
181
100
AcDbEntity
  8
2
370
    50
100
AcDbLine
 10
-134.913074
 20
247.529632
 30
0.0
 11
-111.012893
 21
241.125597
 31
0.0
  0
ARC
  5
182
100
AcDbEntity
  8
2
370
    50
100
AcDbCircle
 10
-109.379356
 20
242.758445
 30
0.0
 40
2.0
100
AcDbArc
 50
299.744246
 51
75.0
  0
ARC
  5
183
100
AcDbEntity
  8
2
370
    50
100
AcDbCircle
 10
-134.395436
 20
249.461483
 30
0.0
 40
2.0
100
AcDbArc
 50
75.0
 51
255.0
  0
LINE
  5
184
100
AcDbEntity
  8
2
370
    50
100
AcDbLine
 10
-134.215828
 20
251.48391
 30
0.0
 11
-108.861717
 21
244.690296
 31
0.0
  0
LINE
  5
185
100
AcDbEntity
  8
2
370
    50
100
AcDbLine
 10
-391.498683
 20
136.994735
 30
0.0
 11
-397.572995
 21
137.526169
 31
0.0
  0
ARC
  5
186
100
AcDbEntity
  8
2
370
    50
100
AcDbCircle
 10
-371.598683
 20
137.261351
 30
0.0
 40
2.0
100
AcDbArc
 50
333.926871
 51
85.0
  0
ARC
  5
187
100
AcDbEntity
  8
2
370
    50
100
AcDbCircle
 10
-397.398683
 20
139.518558
 30
0.0
 40
2.0
100
AcDbArc
 50
85.0
 51
265.0
  0
ARC
  5
188
100
AcDbEntity
  8
2
370
    50
100
AcDbCircle
 10
-397.398683
 20
135.503279
 30
0.0
 40
2.0
100
AcDbArc
 50
85.0
 51
153.926871
  0
ARC
  5
189
100
AcDbEntity
  8
2
370
    50
100
AcDbCircle
 10
-371.598683
 20
141.27663
 30
0.0
 40
2.0
100
AcDbArc
 50
265.0
 51
85.0
  0
ARC
  5
18A
100
AcDbEntity
  8
2
370
    50
100
AcDbCircle
 10
-397.398683
 20
143.533838
 30
0.0
 40
2.0
100
AcDbArc
 50
85.0
 51
265.0
  0
ARC
  5
18B
100
AcDbEntity
  8
2
370
    50
100
AcDbCircle
 10
-371.598683
 20
145.29191
 30
0.0
 40
2.0
100
AcDbArc
 50
265.0
 51
85.0
  0
ARC
  5
18C
100
AcDbEntity
  8
2
370
    50
100
AcDbCircle
 10
-397.398683
 20
147.549117
 30
0.0
 40
2.0
100
AcDbArc
 50
85.0
 51
265.0
  0
ARC
  5
18D
100
AcDbEntity
  8
2
370
    50
100
AcDbCircle
 10
-371.598683
 20
149.307189
 30
0.0
 40
2.0
100
AcDbArc
 50
265.0
 51
85.0
  0
ARC
  5
18E
100
AcDbEntity
  8
2
370
    50
100
AcDbCircle
 10
-397.398683
 20
151.564396
 30
0.0
 40
2.0
100
AcDbArc
 50
85.0
 51
265.0
  0
ARC
  5
18F
100
AcDbEntity
  8
2
370
    50
100
AcDbCircle
 10
-371.598683
 20
153.322468
 30
0.0
 40
2.0
100
AcDbArc
 50
265.0
 51
85.0
  0
ARC
  5
190
100
AcDbEntity
  8
2
370
    50
100
AcDbCircle
 10
-397.398683
 20
155.579676
 30
0.0
 40
2.0
100
AcDbArc
 50
85.0
 51
265.0
  0
ARC
  5
191
100
AcDbEntity
  8
2
370
    50
100
AcDbCircle
 10
-371.598683
 20
157.337748
 30
0.0
 40
2.0
100
AcDbArc
 50
274.924985
 51
85.0
  0
ARC
  5
192
100
AcDbEntity
  8
2
370
    50
100
AcDbCircle
 10
-397.398683
 20
159.594955
 30
0.0
 40
2.0
100
AcDbArc
 50
85.0
 51
265.0
  0
ARC
  5
193
100
AcDbEntity
  8
2
370
    50
100
AcDbCircle
 10
-371.598683
 20
161.353027
 30
0.0
 40
2.0
100
AcDbArc
 50
265.0
 51
360.0
  0
ARC
  5
194
100
AcDbEntity
  8
2
370
    50
100
AcDbCircle
 10
-397.398683
 20
163.610234
 30
0.0
 40
2.0
100
AcDbArc
 50
180.0
 51
265.0
  0
ARC
  5
195
100
AcDbEntity
  8
2
370
    50
100
AcDbCircle
 10
103.25026
 20
148.518558
 30
0.0
 40
2.0
100
AcDbArc
 50
85.0
 51
265.0
  0
ARC
  5
196
100
AcDbEntity
  8
2
370
    50
100
AcDbCircle
 10
129.05026
 20
146.261351
 30
0.0
 40
2.0
100
AcDbArc
 50
265.0
 51
85.0
  0
LINE
  5
197
100
AcDbEntity
  8
2
370
    50
100
AcDbLine
 10
129.224571
 20
144.238461
 30
0.0
 11
103.424571
 21
146.495668
 31
0.0
  0
ARC
  5
198
100
AcDbEntity
  8
2
370
    50
100
AcDbCircle
 10
103.25026
 20
144.503279
 30
0.0
 40
2.0
100
AcDbArc
 50
85.0
 51
265.0
  0
ARC
  5
199
100
AcDbEntity
  8
2
370
    50
100
AcDbCircle
 10
129.05026
 20
142.246072
 30
0.0
 40
2.0
100
AcDbArc
 50
265.0
 51
85.0
  0
LINE
  5
19A
100
AcDbEntity
  8
2
370
    50
100
AcDbLine
 10
129.224571
 20
140.223182
 30
0.0
 11
103.424571
 21
142.480389
 31
0.0
  0
ARC
  5
19B
100
AcDbEntity
  8
2
370
    50
100
AcDbCircle
 10
103.25026
 20
140.488
 30
0.0
 40
2.0
100
AcDbArc
 50
85.0
 51
265.0
  0
ARC
  5
19C
100
AcDbEntity
  8
2
370
    50
100
AcDbCircle
 10
129.05026
 20
138.230792
 30
0.0
 40
2.0
100
AcDbArc
 50
292.446178
 51
85.0
  0
LINE
  5
19D
100
AcDbEntity
  8
2
370
    50
100
AcDbLine
 10
127.231025
 20
136.382315
 30
0.0
 11
103.424571
 21
138.46511
 31
0.0
  0
ARC
  5
19E
100
AcDbEntity
  8
2
370
    50
100
AcDbCircle
 10
103.25026
 20
136.47272
 30
0.0
 40
2.0
100
AcDbArc
 50
85.0
 51
182.590806
  0
LINE
  5
19F
100
AcDbEntity
  8
2
370
    25
  6
PHANTOM
100
AcDbLine
 10
24.679705
 20
-66.066092
 30
0.0
 11
26.416187
 21
-56.218014
 31
0.0
  0
LINE
  5
1A0
100
AcDbEntity
  8
2
370
    25
  6
PHANTOM
100
AcDbLine
 10
24.679705
 20
-66.066092
 30
0.0
 11
85.796663
 21
-76.84266
 31
0.0
  0
LINE
  5
1A1
100
AcDbEntity
  8
2
370
    25
  6
PHANTOM
100
AcDbLine
 10
26.416187
 20
-56.218014
 30
0.0
 11
88.033428
 21
-67.082796
 31
0.0
  0
LINE
  5
1A2
100
AcDbEntity
  8
2
370
    25
  6
PHANTOM
100
AcDbLine
 10
-274.316666
 20
1.982586
 30
0.0
 11
-295.558953
 21
-43.571647
 31
0.0
  0
LINE
  5
1A3
100
AcDbEntity
  8
2
370
    25
  6
PHANTOM
100
AcDbLine
 10
-274.316666
 20
1.982586
 30
0.0
 11
-265.253588
 21
-2.243597
 31
0.0
  0
LINE
  5
1A4
100
AcDbEntity
  8
2
370
    25
  6
PHANTOM
100
AcDbLine
 10
-265.253588
 20
-2.243597
 30
0.0
 11
-286.780808
 21
-48.408868
 31
0.0
  0
ARC
  5
1A5
100
AcDbEntity
  8
2
370
    50
  6
PHANTOM
100
AcDbCircle
 10
-384.498683
 20
344.482315
 30
0.0
 40
14.9
100
AcDbArc
 50
0.0
 51
180.0
  0
LINE
  5
1A6
100
AcDbEntity
  8
2
370
    50
100
AcDbLine
 10
-99.927667
 20
289.880625
 30
0.0
 11
-117.465938
 21
294.537335
 31
0.0
  0
LINE
  5
1A7
100
AcDbEntity
  8
2
370
    50
100
AcDbLine
 10
-107.60204
 20
287.779705
 30
0.0
 11
-92.281476
 21
283.711834
 31
0.0
  0
LINE
  5
1A8
100
AcDbEntity
  8
2
370
    50
100
AcDbLine
 10
-93.862223
 20
298.005508
 30
0.0
 11
-110.927897
 21
304.173058
 31
0.0
  0
LINE
  5
1A9
100
AcDbEntity
  8
2
370
    50
100
AcDbLine
 10
-101.690501
 20
296.581448
 30
0.0
 11
-86.782774
 21
291.193782
 31
0.0
  0
LINE
  5
1AA
100
AcDbEntity
  8
2
370
    50
100
AcDbLine
 10
-87.11173
 20
305.570835
 30
0.0
 11
-103.574926
 21
313.202287
 31
0.0
  0
LINE
  5
1AB
100
AcDbEntity
  8
2
370
    50
100
AcDbLine
 10
-95.034333
 20
304.834473
 30
0.0
 11
-80.652902
 21
298.168015
 31
0.0
  0
LINE
  5
1AC
100
AcDbEntity
  8
2
370
    50
100
AcDbLine
 10
-79.727563
 20
312.519029
 30
0.0
 11
-95.462987
 21
321.556303
 31
0.0
  0
LINE
  5
1AD
100
AcDbEntity
  8
2
370
    50
100
AcDbLine
 10
-87.684197
 20
312.47597
 30
0.0
 11
-73.93851
 21
304.581455
 31
0.0
  0
LINE
  5
1AE
100
AcDbEntity
  8
2
370
    50
100
AcDbLine
 10
-71.765919
 20
318.797211
 30
0.0
 11
-86.653815
 21
329.171528
 31
0.0
  0
LINE
  5
1AF
100
AcDbEntity
  8
2
370
    50
100
AcDbLine
 10
-79.696029
 20
319.447781
 30
0.0
 11
-66.690701
 21
310.385292
 31
0.0
  0
LINE
  5
1B0
100
AcDbEntity
  8
2
370
    50
100
AcDbLine
 10
-63.287393
 20
324.357599
 30
0.0
 11
-77.214454
 21
335.990005
 31
0.0
  0
LINE
  5
1B1
100
AcDbEntity
  8
2
370
    50
100
AcDbLine
 10
-71.130625
 20
325.696849
 30
0.0
 11
-58.964635
 21
315.535356
 31
0.0
  0
LINE
  5
1B2
100
AcDbEntity
  8
2
370
    50
100
AcDbLine
 10
-54.35651
 20
329.157876
 30
0.0
 11
-67.216744
 21
341.95984
 31
0.0
  0
LINE
  5
1B3
100
AcDbEntity
  8
2
370
    50
100
AcDbLine
 10
-62.053173
 20
331.175612
 30
0.0
 11
-50.819111
 21
319.992451
 31
0.0
  0
LINE
  5
1B4
100
AcDbEntity
  8
2
370
    50
100
AcDbLine
 10
-56.736772
 20
347.035601
 30
0.0
 11
-45.04124
 21
333.161509
 31
0.0
  0
LINE
  5
1B5
100
AcDbEntity
  8
2
370
    50
100
AcDbLine
 10
-52.532758
 20
335.842376
 30
0.0
 11
-42.316121
 21
323.722657
 31
0.0
  0
LINE
  5
1B6
100
AcDbEntity
  8
2
370
    50
100
AcDbLine
 10
-42.641835
 20
339.661622
 30
0.0
 11
-33.520379
 21
326.697583
 31
0.0
  0
LINE
  5
1B7
100
AcDbEntity
  8
2
370
    50
100
AcDbLine
 10
-45.854299
 20
351.178658
 30
0.0
 11
-35.412478
 21
336.338028
 31
0.0
  0
LINE
  5
1B8
100
AcDbEntity
  8
2
370
    50
100
AcDbLine
 10
-34.652145
 20
354.357478
 30
0.0
 11
-25.543505
 21
338.663257
 31
0.0
  0
LINE
  5
1B9
100
AcDbEntity
  8
2
370
    50
100
AcDbLine
 10
-32.455682
 20
342.604283
 30
0.0
 11
-24.498826
 21
328.89459
 31
0.0
  0
LINE
  5
1BA
100
AcDbEntity
  8
2
370
    50
100
AcDbLine
 10
-23.215566
 20
356.54787
 30
0.0
 11
-15.509429
 21
340.1195
 31
0.0
  0
LINE
  5
1BB
100
AcDbEntity
  8
2
370
    50
100
AcDbLine
 10
-22.05182
 20
344.647966
 30
0.0
 11
-15.32012
 21
330.296956
 31
0.0
  0
LINE
  5
1BC
100
AcDbEntity
  8
2
370
    50
100
AcDbLine
 10
-11.509429
 20
345.777115
 30
0.0
 11
-6.054119
 21
330.894009
 31
0.0
  0
LINE
  5
1BD
100
AcDbEntity
  8
2
370
    50
100
AcDbLine
 10
-11.631602
 20
357.733164
 30
0.0
 11
-5.386615
 21
340.695675
 31
0.0
  0
LINE
  5
1BE
100
AcDbEntity
  8
2
370
    50
100
AcDbLine
 10
0.011587
 20
357.904338
 30
0.0
 11
4.747895
 21
340.387395
 31
0.0
  0
LINE
  5
1BF
100
AcDbEntity
  8
2
370
    50
100
AcDbLine
 10
-0.908743
 20
345.983137
 30
0.0
 11
3.22866
 21
330.681205
 31
0.0
  0
LINE
  5
1C0
100
AcDbEntity
  8
2
370
    50
100
AcDbLine
 10
9.66956
 20
345.264465
 30
0.0
 11
12.457568
 21
329.660163
 31
0.0
  0
LINE
  5
1C1
100
AcDbEntity
  8
2
370
    50
100
AcDbLine
 10
11.62539
 20
357.06009
 30
0.0
 11
14.816971
 21
339.197008
 31
0.0
  0
LINE
  5
1C2
100
AcDbEntity
  8
2
370
    50
100
AcDbLine
 10
23.121416
 20
355.206845
 30
0.0
 11
24.743983
 21
337.133573
 31
0.0
  0
LINE
  5
1C3
100
AcDbEntity
  8
2
370
    50
100
AcDbLine
 10
20.144973
 20
343.626568
 30
0.0
 11
21.562367
 21
327.838654
 31
0.0
  0
LINE
  5
1C4
100
AcDbEntity
  8
2
370
    50
100
AcDbLine
 10
34.412177
 20
352.358708
 30
0.0
 11
34.453379
 21
334.212794
 31
0.0
  0
LINE
  5
1C5
100
AcDbEntity
  8
2
370
    50
100
AcDbLine
 10
30.437772
 20
341.081911
 30
0.0
 11
30.473765
 21
325.23054
 31
0.0
  0
LINE
  5
1C6
100
AcDbEntity
  8
2
370
    50
100
AcDbLine
 10
40.469622
 20
337.649861
 30
0.0
 11
39.12394
 21
321.855672
 31
0.0
  0
LINE
  5
1C7
100
AcDbEntity
  8
2
370
    50
100
AcDbLine
 10
45.41174
 20
348.537354
 30
0.0
 11
43.871266
 21
330.456899
 31
0.0
  0
LINE
  5
1C8
100
AcDbEntity
  8
2
370
    50
100
AcDbLine
 10
50.164175
 20
333.356537
 30
0.0
 11
47.447059
 21
317.739734
 31
0.0
  0
LINE
  5
1C9
100
AcDbEntity
  8
2
370
    50
100
AcDbLine
 10
56.036395
 20
343.771866
 30
0.0
 11
52.925967
 21
325.894474
 31
0.0
  0
LINE
  5
1CA
100
AcDbEntity
  8
2
370
    50
100
AcDbLine
 10
59.447649
 20
328.234615
 30
0.0
 11
55.379779
 21
312.914051
 31
0.0
  0
LINE
  5
1CB
100
AcDbEntity
  8
2
370
    50
100
AcDbLine
 10
66.205279
 20
338.098513
 30
0.0
 11
61.54857
 21
320.560241
 31
0.0
  0
LINE
  5
1CC
100
AcDbEntity
  8
2
370
    50
100
AcDbLine
 10
68.249392
 20
322.323075
 30
0.0
 11
62.861727
 21
307.415349
 31
0.0
  0
LINE
  5
1CD
100
AcDbEntity
  8
2
370
    50
100
AcDbLine
 10
75.841003
 20
331.560471
 30
0.0
 11
69.673453
 21
314.494798
 31
0.0
  0
LINE
  5
1CE
100
AcDbEntity
  8
2
370
    50
100
AcDbLine
 10
76.502418
 20
315.666908
 30
0.0
 11
69.835959
 21
301.285476
 31
0.0
  0
LINE
  5
1CF
100
AcDbEntity
  8
2
370
    50
100
AcDbLine
 10
84.870232
 20
324.207501
 30
0.0
 11
77.23878
 21
307.744304
 31
0.0
  0
LINE
  5
1D0
100
AcDbEntity
  8
2
370
    50
100
AcDbLine
 10
84.143914
 20
308.316771
 30
0.0
 11
76.2494
 21
294.571085
 31
0.0
  0
LINE
  5
1D1
100
AcDbEntity
  8
2
370
    50
100
AcDbLine
 10
93.224248
 20
316.095561
 30
0.0
 11
84.186974
 21
300.360137
 31
0.0
  0
LINE
  5
1D2
100
AcDbEntity
  8
2
370
    50
100
AcDbLine
 10
91.115726
 20
300.328604
 30
0.0
 11
82.053237
 21
287.323276
 31
0.0
  0
LINE
  5
1D3
100
AcDbEntity
  8
2
370
    50
100
AcDbLine
 10
100.839473
 20
307.28639
 30
0.0
 11
90.465155
 21
292.398494
 31
0.0
  0
LINE
  5
1D4
100
AcDbEntity
  8
2
370
    50
100
AcDbLine
 10
97.364794
 20
291.7632
 30
0.0
 11
87.203301
 21
279.59721
 31
0.0
  0
LINE
  5
1D5
100
AcDbEntity
  8
2
370
    50
100
AcDbLine
 10
107.657949
 20
297.847029
 30
0.0
 11
96.025544
 21
283.919968
 31
0.0
  0
LINE
  5
1D6
100
AcDbEntity
  8
2
370
    50
100
AcDbLine
 10
102.843557
 20
282.685748
 30
0.0
 11
91.660396
 21
271.451685
 31
0.0
  0
LINE
  5
1D7
100
AcDbEntity
  8
2
370
    50
100
AcDbLine
 10
100.825821
 20
274.989085
 30
0.0
 11
113.627785
 21
287.849319
 31
0.0
  0
LINE
  5
1D8
100
AcDbEntity
  8
2
370
    50
100
AcDbLine
 10
107.51032
 20
273.165333
 30
0.0
 11
95.390602
 21
262.948696
 31
0.0
  0
LINE
  5
1D9
100
AcDbEntity
  8
2
370
    50
100
AcDbLine
 10
104.829454
 20
265.673815
 30
0.0
 11
118.703546
 21
277.369347
 31
0.0
  0
LINE
  5
1DA
100
AcDbEntity
  8
2
370
    50
100
AcDbLine
 10
111.329566
 20
263.27441
 30
0.0
 11
98.365528
 21
254.152954
 31
0.0
  0
LINE
  5
1DB
100
AcDbEntity
  8
2
370
    50
100
AcDbLine
 10
108.005973
 20
256.045053
 30
0.0
 11
122.846602
 21
266.486873
 31
0.0
  0
LINE
  5
1DC
100
AcDbEntity
  8
2
370
    50
100
AcDbLine
 10
114.272228
 20
253.088257
 30
0.0
 11
100.562535
 21
245.131401
 31
0.0
  0
LINE
  5
1DD
100
AcDbEntity
  8
2
370
    50
100
AcDbLine
 10
110.331202
 20
246.17608
 30
0.0
 11
126.025423
 21
255.284719
 31
0.0
  0
LINE
  5
1DE
100
AcDbEntity
  8
2
370
    50
100
AcDbLine
 10
116.315911
 20
242.684394
 30
0.0
 11
101.964901
 21
235.952695
 31
0.0
  0
LINE
  5
1DF
100
AcDbEntity
  8
2
370
    50
100
AcDbLine
 10
111.787445
 20
236.142003
 30
0.0
 11
128.215815
 21
243.848141
 31
0.0
  0
LINE
  5
1E0
100
AcDbEntity
  8
2
370
    50
100
AcDbLine
 10
-106.34974
 20
136.382315
 30
0.0
 11
-137.34974
 21
136.382315
 31
0.0
  0
LINE
  5
1E1
100
AcDbEntity
  8
2
370
    50
100
AcDbLine
 10
-106.34974
 20
101.382315
 30
0.0
 11
-137.34974
 21
101.382315
 31
0.0
  0
LINE
  5
1E2
100
AcDbEntity
  8
2
370
    50
100
AcDbLine
 10
-107.78474
 20
-8.617685
 30
0.0
 11
-139.91474
 21
-8.617685
 31
0.0
  0
LINE
  5
1E3
100
AcDbEntity
  8
2
370
    50
100
AcDbLine
 10
-116.500998
 20
253.076038
 30
0.0
 11
-134.574271
 21
251.453472
 31
0.0
  0
LINE
  5
1E4
100
AcDbEntity
  8
2
370
    50
100
AcDbLine
 10
-107.206079
 20
249.894422
 30
0.0
 11
-122.993993
 21
248.477028
 31
0.0
  0
LINE
  5
1E5
100
AcDbEntity
  8
2
370
    50
100
AcDbLine
 10
-131.726133
 20
262.744232
 30
0.0
 11
-113.580219
 21
262.785435
 31
0.0
  0
LINE
  5
1E6
100
AcDbEntity
  8
2
370
    50
100
AcDbLine
 10
-120.449336
 20
258.769827
 30
0.0
 11
-104.597966
 21
258.80582
 31
0.0
  0
LINE
  5
1E7
100
AcDbEntity
  8
2
370
    50
100
AcDbLine
 10
-127.904779
 20
273.743796
 30
0.0
 11
-109.824324
 21
272.203321
 31
0.0
  0
LINE
  5
1E8
100
AcDbEntity
  8
2
370
    50
100
AcDbLine
 10
-101.223098
 20
267.455995
 30
0.0
 11
-117.017286
 21
268.801677
 31
0.0
  0
LINE
  5
1E9
100
AcDbEntity
  8
2
370
    50
100
AcDbLine
 10
-123.139291
 20
284.36845
 30
0.0
 11
-105.261899
 21
281.258022
 31
0.0
  0
LINE
  5
1EA
100
AcDbEntity
  8
2
370
    50
100
AcDbLine
 10
-97.10716
 20
275.779114
 30
0.0
 11
-112.723963
 21
278.49623
 31
0.0
  0
LINE
  5
1EB
100
AcDbEntity
  8
2
370
    50
100
AcDbLine
 10
-103.665991
 20
232.841039
 30
0.0
 11
-105.164824
 21
232.900204
 31
0.0
  0
LINE
  5
1EC
100
AcDbEntity
  8
2
370
    50
100
AcDbLine
 10
-103.488497
 20
237.337538
 30
0.0
 11
-104.98733
 21
237.396702
 31
0.0
  0
LINE
  5
1ED
100
AcDbEntity
  8
2
370
    50
100
AcDbLine
 10
-103.488497
 20
237.337538
 30
0.0
 11
-103.665991
 21
232.841039
 31
0.0
  0
LINE
  5
1EE
100
AcDbEntity
  8
2
370
    50
100
AcDbLine
 10
-355.998683
 20
-123.117685
 30
0.0
 11
-356.498683
 21
-122.617685
 31
0.0
  0
LINE
  5
1EF
100
AcDbEntity
  8
2
370
    50
100
AcDbLine
 10
-405.498683
 20
-123.117685
 30
0.0
 11
-404.998683
 21
-122.617685
 31
0.0
  0
LINE
  5
1F0
100
AcDbEntity
  8
2
370
    50
100
AcDbLine
 10
-356.498683
 20
-122.617685
 30
0.0
 11
-404.998683
 21
-122.617685
 31
0.0
  0
LINE
  5
1F1
100
AcDbEntity
  8
2
370
    50
100
AcDbLine
 10
-355.998683
 20
-123.117685
 30
0.0
 11
-405.498683
 21
-123.117685
 31
0.0
  0
LINE
  5
1F2
100
AcDbEntity
  8
2
370
    25
  6
CENTER
100
AcDbLine
 10
-307.248683
 20
17.41477
 30
0.0
 11
-307.248683
 21
-77.117685
 31
0.0
  0
LINE
  5
1F3
100
AcDbEntity
  8
2
370
    25
  6
CENTER
100
AcDbLine
 10
-268.788933
 20
2.00584
 30
0.0
 11
-291.984308
 21
-47.736803
 31
0.0
  0
LINE
  5
1F4
100
AcDbEntity
  8
2
370
    50
100
AcDbLine
 10
140.90026
 20
-123.117685
 30
0.0
 11
140.40026
 21
-122.617685
 31
0.0
  0
LINE
  5
1F5
100
AcDbEntity
  8
2
370
    50
100
AcDbLine
 10
91.40026
 20
-123.117685
 30
0.0
 11
91.90026
 21
-122.617685
 31
0.0
  0
LINE
  5
1F6
100
AcDbEntity
  8
2
370
    50
100
AcDbLine
 10
140.40026
 20
-122.617685
 30
0.0
 11
91.90026
 21
-122.617685
 31
0.0
  0
LINE
  5
1F7
100
AcDbEntity
  8
2
370
    50
100
AcDbLine
 10
140.90026
 20
-123.117685
 30
0.0
 11
91.40026
 21
-123.117685
 31
0.0
  0
LINE
  5
1F8
100
AcDbEntity
  8
2
370
    25
  6
CENTER
100
AcDbLine
 10
-123.84974
 20
118.382315
 30
0.0
 11
116.15026
 21
118.382315
 31
0.0
  0
LINE
  5
1F9
100
AcDbEntity
  8
2
370
    50
100
AcDbLine
 10
-368.998683
 20
136.382315
 30
0.0
 11
-368.998683
 21
101.382315
 31
0.0
  0
LINE
  5
1FA
100
AcDbEntity
  8
2
370
    50
100
AcDbLine
 10
-399.998683
 20
136.382315
 30
0.0
 11
-399.998683
 21
101.382315
 31
0.0
  0
LINE
  5
1FB
100
AcDbEntity
  8
2
370
    50
100
AcDbLine
 10
-400.563683
 20
81.382315
 30
0.0
 11
-400.563683
 21
-8.617685
 31
0.0
  0
LINE
  5
1FC
100
AcDbEntity
  8
2
370
    50
100
AcDbLine
 10
-368.433683
 20
81.382315
 30
0.0
 11
-368.433683
 21
-8.617685
 31
0.0
  0
LINE
  5
1FD
100
AcDbEntity
  8
2
370
    50
100
AcDbLine
 10
-376.498683
 20
57.382315
 30
0.0
 11
-376.498683
 21
19.382315
 31
0.0
  0
LINE
  5
1FE
100
AcDbEntity
  8
2
370
    50
100
AcDbLine
 10
-392.498683
 20
57.382315
 30
0.0
 11
-392.498683
 21
19.382315
 31
0.0
  0
LINE
  5
1FF
100
AcDbEntity
  8
2
370
    50
100
AcDbLine
 10
-377.498683
 20
18.382315
 30
0.0
 11
-391.498683
 21
18.382315
 31
0.0
  0
LINE
  5
200
100
AcDbEntity
  8
2
370
    50
100
AcDbLine
 10
-377.498683
 20
58.382315
 30
0.0
 11
-391.498683
 21
58.382315
 31
0.0
  0
ARC
  5
201
100
AcDbEntity
  8
2
370
    50
100
AcDbCircle
 10
-377.498683
 20
57.382315
 30
0.0
 40
1.0
100
AcDbArc
 50
0.0
 51
90.0
  0
ARC
  5
202
100
AcDbEntity
  8
2
370
    50
100
AcDbCircle
 10
-391.498683
 20
57.382315
 30
0.0
 40
1.0
100
AcDbArc
 50
90.0
 51
180.0
  0
ARC
  5
203
100
AcDbEntity
  8
2
370
    50
100
AcDbCircle
 10
-391.498683
 20
19.382315
 30
0.0
 40
1.0
100
AcDbArc
 50
180.0
 51
270.0
  0
ARC
  5
204
100
AcDbEntity
  8
2
370
    50
100
AcDbCircle
 10
-377.498683
 20
19.382315
 30
0.0
 40
1.0
100
AcDbArc
 50
270.0
 51
360.0
  0
CIRCLE
  5
205
100
AcDbEntity
  8
2
370
    50
100
AcDbCircle
 10
-384.498683
 20
52.382315
 30
0.0
 40
4.5
  0
CIRCLE
  5
206
100
AcDbEntity
  8
2
370
    50
100
AcDbCircle
 10
-384.498683
 20
31.382315
 30
0.0
 40
4.5
  0
LINE
  5
207
100
AcDbEntity
  8
2
370
    50
100
AcDbLine
 10
-369.248683
 20
90.882315
 30
0.0
 11
-369.248683
 21
82.382315
 31
0.0
  0
LINE
  5
208
100
AcDbEntity
  8
2
370
    50
100
AcDbLine
 10
-399.748683
 20
90.882315
 30
0.0
 11
-399.748683
 21
82.382315
 31
0.0
  0
LINE
  5
209
100
AcDbEntity
  8
2
370
    50
100
AcDbLine
 10
-368.433683
 20
81.382315
 30
0.0
 11
-400.563683
 21
81.382315
 31
0.0
  0
LINE
  5
20A
100
AcDbEntity
  8
2
370
    50
100
AcDbLine
 10
-369.248683
 20
82.382315
 30
0.0
 11
-399.748683
 21
82.382315
 31
0.0
  0
LINE
  5
20B
100
AcDbEntity
  8
2
370
    50
100
AcDbLine
 10
-369.248683
 20
90.882315
 30
0.0
 11
-399.748683
 21
90.882315
 31
0.0
  0
LINE
  5
20C
100
AcDbEntity
  8
2
370
    50
100
AcDbLine
 10
-372.798683
 20
93.882315
 30
0.0
 11
-396.198683
 21
93.882315
 31
0.0
  0
LINE
  5
20D
100
AcDbEntity
  8
2
370
    50
100
AcDbLine
 10
-372.798683
 20
101.382315
 30
0.0
 11
-372.798683
 21
93.882315
 31
0.0
  0
LINE
  5
20E
100
AcDbEntity
  8
2
370
    50
100
AcDbLine
 10
-396.198683
 20
101.382315
 30
0.0
 11
-396.198683
 21
93.882315
 31
0.0
  0
LINE
  5
20F
100
AcDbEntity
  8
2
370
    50
100
AcDbLine
 10
-372.798683
 20
93.882315
 30
0.0
 11
-369.248683
 21
90.882315
 31
0.0
  0
LINE
  5
210
100
AcDbEntity
  8
2
370
    50
100
AcDbLine
 10
-396.198683
 20
93.882315
 30
0.0
 11
-399.748683
 21
90.882315
 31
0.0
  0
LINE
  5
211
100
AcDbEntity
  8
2
370
    50
100
AcDbLine
 10
-373.148683
 20
82.382315
 30
0.0
 11
-373.148683
 21
81.382315
 31
0.0
  0
LINE
  5
212
100
AcDbEntity
  8
2
370
    50
100
AcDbLine
 10
-395.848683
 20
82.382315
 30
0.0
 11
-395.848683
 21
81.382315
 31
0.0
  0
LINE
  5
213
100
AcDbEntity
  8
2
370
    50
100
AcDbLine
 10
-368.433683
 20
-8.617685
 30
0.0
 11
-400.563683
 21
-8.617685
 31
0.0
  0
LINE
  5
214
100
AcDbEntity
  8
2
370
    50
100
AcDbLine
 10
-369.618683
 20
-48.617685
 30
0.0
 11
-369.618683
 21
-8.617685
 31
0.0
  0
LINE
  5
215
100
AcDbEntity
  8
2
370
    50
100
AcDbLine
 10
-369.618683
 20
91.194991
 30
0.0
 11
-369.618683
 21
95.382315
 31
0.0
  0
LINE
  5
216
100
AcDbEntity
  8
2
370
    50
100
AcDbLine
 10
-399.378683
 20
-48.617685
 30
0.0
 11
-399.378683
 21
-8.617685
 31
0.0
  0
LINE
  5
217
100
AcDbEntity
  8
2
370
    50
100
AcDbLine
 10
-399.378683
 20
91.194991
 30
0.0
 11
-399.378683
 21
95.382315
 31
0.0
  0
LINE
  5
218
100
AcDbEntity
  8
2
370
    50
100
AcDbLine
 10
-365.498683
 20
241.632315
 30
0.0
 11
-365.498683
 21
226.655651
 31
0.0
  0
LINE
  5
219
100
AcDbEntity
  8
2
370
    50
100
AcDbLine
 10
-403.498683
 20
241.632315
 30
0.0
 11
-403.498683
 21
226.655651
 31
0.0
  0
ELLIPSE
  5
21A
100
AcDbEntity
  8
2
370
    50
100
AcDbEllipse
 10
-384.498683
 20
241.632315
 30
0.0
 11
19.0
 21
0.0
 31
0.0
210
0.0
220
0.0
230
1.0
 40
0.039474
 41
0.0
 42
3.1415929999999999
  0
LINE
  5
21B
100
AcDbEntity
  8
2
370
    50
  6
PHANTOM
100
AcDbLine
 10
-369.598683
 20
161.353027
 30
0.0
 11
-369.598683
 21
226.19028
 31
0.0
  0
LINE
  5
21C
100
AcDbEntity
  8
2
370
    50
  6
PHANTOM
100
AcDbLine
 10
-369.598683
 20
242.097686
 30
0.0
 11
-369.598683
 21
344.482315
 31
0.0
  0
LINE
  5
21D
100
AcDbEntity
  8
2
370
    50
  6
PHANTOM
100
AcDbLine
 10
-399.398683
 20
163.610234
 30
0.0
 11
-399.398683
 21
226.19028
 31
0.0
  0
LINE
  5
21E
100
AcDbEntity
  8
2
370
    50
  6
PHANTOM
100
AcDbLine
 10
-399.398683
 20
242.097686
 30
0.0
 11
-399.398683
 21
344.482315
 31
0.0
  0
LINE
  5
21F
100
AcDbEntity
  8
2
370
    50
100
AcDbLine
 10
-377.498683
 20
226.631555
 30
0.0
 11
-377.498683
 21
131.982315
 31
0.0
  0
LINE
  5
220
100
AcDbEntity
  8
2
370
    50
100
AcDbLine
 10
-391.498683
 20
226.631555
 30
0.0
 11
-391.498683
 21
131.982315
 31
0.0
  0
ELLIPSE
  5
221
100
AcDbEntity
  8
2
370
    50
100
AcDbEllipse
 10
-384.498683
 20
226.631555
 30
0.0
 11
7.0
 21
0.0
 31
0.0
210
0.0
220
0.0
230
1.0
 40
0.039452
 41
0.0
 42
3.1415929999999999
  0
ELLIPSE
  5
222
100
AcDbEntity
  8
2
370
    50
100
AcDbEllipse
 10
-384.498683
 20
226.655651
 30
0.0
 11
19.0
 21
0.0
 31
0.0
210
0.0
220
0.0
230
1.0
 40
0.039474
 41
5.0896990000000004
 42
4.3350790000000003
  0
LINE
  5
223
100
AcDbEntity
  8
2
370
    50
100
AcDbLine
 10
-397.224372
 20
161.587345
 30
0.0
 11
-391.498683
 21
161.086412
 31
0.0
  0
LINE
  5
224
100
AcDbEntity
  8
2
370
    50
100
AcDbLine
 10
-377.498683
 20
159.86157
 30
0.0
 11
-371.424372
 21
159.330137
 31
0.0
  0
LINE
  5
225
100
AcDbEntity
  8
2
370
    50
100
AcDbLine
 10
-397.224372
 20
157.572065
 30
0.0
 11
-391.498683
 21
157.071132
 31
0.0
  0
LINE
  5
226
100
AcDbEntity
  8
2
370
    50
100
AcDbLine
 10
-377.498683
 20
155.846291
 30
0.0
 11
-371.424372
 21
155.314858
 31
0.0
  0
LINE
  5
227
100
AcDbEntity
  8
2
370
    50
100
AcDbLine
 10
-397.224372
 20
153.556786
 30
0.0
 11
-391.498683
 21
153.055853
 31
0.0
  0
LINE
  5
228
100
AcDbEntity
  8
2
370
    50
100
AcDbLine
 10
-377.498683
 20
151.831011
 30
0.0
 11
-371.424372
 21
151.299578
 31
0.0
  0
LINE
  5
229
100
AcDbEntity
  8
2
370
    50
100
AcDbLine
 10
-397.224372
 20
149.541506
 30
0.0
 11
-391.498683
 21
149.040573
 31
0.0
  0
LINE
  5
22A
100
AcDbEntity
  8
2
370
    50
100
AcDbLine
 10
-377.498683
 20
147.815732
 30
0.0
 11
-371.424372
 21
147.284299
 31
0.0
  0
LINE
  5
22B
100
AcDbEntity
  8
2
370
    50
100
AcDbLine
 10
-397.224372
 20
145.526227
 30
0.0
 11
-391.498683
 21
145.025294
 31
0.0
  0
LINE
  5
22C
100
AcDbEntity
  8
2
370
    50
100
AcDbLine
 10
-377.498683
 20
143.800453
 30
0.0
 11
-371.424372
 21
143.26902
 31
0.0
  0
LINE
  5
22D
100
AcDbEntity
  8
2
370
    50
100
AcDbLine
 10
-397.224372
 20
141.510948
 30
0.0
 11
-391.498683
 21
141.010015
 31
0.0
  0
LINE
  5
22E
100
AcDbEntity
  8
2
370
    50
100
AcDbLine
 10
-377.498683
 20
139.785173
 30
0.0
 11
-371.424372
 21
139.25374
 31
0.0
  0
ARC
  5
22F
100
AcDbEntity
  8
2
370
    25
  6
PHANTOM
100
AcDbCircle
 10
-3.84974
 20
224.482315
 30
0.0
 40
113.0
100
AcDbArc
 50
0.0
 51
179.05023
  0
ARC
  5
230
100
AcDbEntity
  8
2
370
    50
100
AcDbCircle
 10
-3.84974
 20
224.482315
 30
0.0
 40
113.0
100
AcDbArc
 50
179.05023
 51
180.0
  0
ARC
  5
231
100
AcDbEntity
  8
2
370
    25
  6
PHANTOM
100
AcDbCircle
 10
-3.84974
 20
224.482315
 30
0.0
 40
127.0
100
AcDbArc
 50
0.0
 51
178.905719
  0
ARC
  5
232
100
AcDbEntity
  8
2
370
    50
100
AcDbCircle
 10
-3.84974
 20
224.482315
 30
0.0
 40
127.0
100
AcDbArc
 50
178.905719
 51
180.0
  0
LINE
  5
233
100
AcDbEntity
  8
2
370
    50
100
AcDbLine
 10
-137.781152
 20
18.382315
 30
0.0
 11
-137.781152
 21
58.382315
 31
0.0
  0
LINE
  5
234
100
AcDbEntity
  8
2
370
    50
100
AcDbLine
 10
-401.998683
 20
95.382315
 30
0.0
 11
-396.198683
 21
95.382315
 31
0.0
  0
LINE
  5
235
100
AcDbEntity
  8
2
370
    50
100
AcDbLine
 10
-372.798683
 20
95.382315
 30
0.0
 11
-366.998683
 21
95.382315
 31
0.0
  0
LINE
  5
236
100
AcDbEntity
  8
2
370
    50
100
AcDbLine
 10
-139.91474
 20
58.382315
 30
0.0
 11
-137.781152
 21
58.382315
 31
0.0
  0
LINE
  5
237
100
AcDbEntity
  8
2
370
    50
100
AcDbLine
 10
-139.91474
 20
18.382315
 30
0.0
 11
-137.781152
 21
18.382315
 31
0.0
  0
POINT
  5
238
100
AcDbEntity
  8
2
370
    50
100
AcDbPoint
 10
-265.253588
 20
-2.243597
 30
0.0
  0
LINE
  5
239
100
AcDbEntity
  8
2
370
    25
  6
PHANTOM
100
AcDbLine
 10
152.314576
 20
7.623935
 30
0.0
 11
130.357669
 21
-52.70217
 31
0.0
  0
LINE
  5
23A
100
AcDbEntity
  8
2
370
    25
  6
PHANTOM
100
AcDbLine
 10
142.91765
 20
11.044137
 30
0.0
 11
152.314576
 21
7.623935
 31
0.0
  0
LINE
  5
23B
100
AcDbEntity
  8
2
370
    25
  6
PHANTOM
100
AcDbLine
 10
142.91765
 20
11.044137
 30
0.0
 11
120.851537
 21
-49.58201
 31
0.0
  0
ARC
  5
23C
100
AcDbEntity
  8
2
370
    50
100
AcDbCircle
 10
116.15026
 20
-77.117685
 30
0.0
 40
22.5
100
AcDbArc
 50
132.94032
 51
107.05968
  0
LINE
  5
23D
100
AcDbEntity
  8
2
370
    25
  6
CENTER
100
AcDbLine
 10
22.290464
 20
-60.567671
 30
0.0
 11
116.15026
 21
-77.117685
 31
0.0
  0
LINE
  5
23E
100
AcDbEntity
  8
2
370
    25
  6
CENTER
100
AcDbLine
 10
148.265321
 20
11.117721
 30
0.0
 11
116.15026
 21
-77.117685
 31
0.0
  0
LINE
  5
23F
100
AcDbEntity
  8
2
370
    50
100
AcDbLine
 10
-376.498683
 20
136.382315
 30
0.0
 11
-376.498683
 21
101.382315
 31
0.0
  0
LINE
  5
240
100
AcDbEntity
  8
2
370
    50
100
AcDbLine
 10
-392.498683
 20
136.382315
 30
0.0
 11
-392.498683
 21
101.382315
 31
0.0
  0
LINE
  5
241
100
AcDbEntity
  8
2
370
    50
100
AcDbLine
 10
-376.498683
 20
131.982315
 30
0.0
 11
-392.498683
 21
131.982315
 31
0.0
  0
LINE
  5
242
100
AcDbEntity
  8
2
370
    50
100
AcDbLine
 10
-401.998683
 20
136.382315
 30
0.0
 11
-391.498683
 21
136.382315
 31
0.0
  0
LINE
  5
243
100
AcDbEntity
  8
2
370
    50
100
AcDbLine
 10
-377.498683
 20
136.382315
 30
0.0
 11
-366.998683
 21
136.382315
 31
0.0
  0
LINE
  5
244
100
AcDbEntity
  8
2
370
    50
100
AcDbLine
 10
-399.998683
 20
101.382315
 30
0.0
 11
-392.498683
 21
101.382315
 31
0.0
  0
LINE
  5
245
100
AcDbEntity
  8
2
370
    50
100
AcDbLine
 10
-376.498683
 20
101.382315
 30
0.0
 11
-368.998683
 21
101.382315
 31
0.0
  0
LINE
  5
246
100
AcDbEntity
  8
2
370
    25
  6
CENTER
100
AcDbLine
 10
-293.182022
 20
301.264389
 30
0.0
 11
-205.480659
 21
301.264389
 31
0.0
  0
LINE
  5
247
100
AcDbEntity
  8
2
370
    50
100
AcDbLine
 10
-287.671852
 20
323.764389
 30
0.0
 11
-245.170601
 21
323.764389
 31
0.0
  0
LINE
  5
248
100
AcDbEntity
  8
2
370
    50
100
AcDbLine
 10
-287.671852
 20
278.764389
 30
0.0
 11
-245.170601
 21
278.764389
 31
0.0
  0
LINE
  5
249
100
AcDbEntity
  8
2
370
    50
100
AcDbLine
 10
-245.170601
 20
323.764389
 30
0.0
 11
-245.170601
 21
278.764389
 31
0.0
  0
LINE
  5
24A
100
AcDbEntity
  8
2
370
    50
100
AcDbLine
 10
-242.670601
 20
323.264389
 30
0.0
 11
-242.670601
 21
279.264389
 31
0.0
  0
LINE
  5
24B
100
AcDbEntity
  8
2
370
    50
100
AcDbLine
 10
-242.670601
 20
323.264389
 30
0.0
 11
-213.670601
 21
323.264389
 31
0.0
  0
LINE
  5
24C
100
AcDbEntity
  8
2
370
    50
100
AcDbLine
 10
-242.670601
 20
279.264389
 30
0.0
 11
-213.670601
 21
279.264389
 31
0.0
  0
LINE
  5
24D
100
AcDbEntity
  8
2
370
    50
100
AcDbLine
 10
-213.670601
 20
323.264389
 30
0.0
 11
-213.670601
 21
279.264389
 31
0.0
  0
ARC
  5
24E
100
AcDbEntity
  8
2
370
    50
100
AcDbCircle
 10
-245.170601
 20
301.264389
 30
0.0
 40
19.8
100
AcDbArc
 50
270.0
 51
277.253677
  0
ARC
  5
24F
100
AcDbEntity
  8
2
370
    50
100
AcDbCircle
 10
-245.170601
 20
301.264389
 30
0.0
 40
19.8
100
AcDbArc
 50
82.746323
 51
90.0
  0
CIRCLE
  5
250
100
AcDbEntity
  8
2
370
    50
100
AcDbCircle
 10
-226.170601
 20
301.264389
 30
0.0
 40
5.0
  0
LINE
  5
251
100
AcDbEntity
  8
2
370
    50
100
AcDbLine
 10
-237.670601
 20
311.514389
 30
0.0
 11
-236.670601
 21
311.514389
 31
0.0
  0
LINE
  5
252
100
AcDbEntity
  8
2
370
    50
100
AcDbLine
 10
-237.670601
 20
291.014389
 30
0.0
 11
-236.670601
 21
291.014389
 31
0.0
  0
LINE
  5
253
100
AcDbEntity
  8
2
370
    50
100
AcDbLine
 10
-237.670601
 20
306.014389
 30
0.0
 11
-236.670601
 21
306.014389
 31
0.0
  0
LINE
  5
254
100
AcDbEntity
  8
2
370
    50
100
AcDbLine
 10
-237.670601
 20
296.514389
 30
0.0
 11
-236.670601
 21
296.514389
 31
0.0
  0
LINE
  5
255
100
AcDbEntity
  8
2
370
    50
100
AcDbLine
 10
-236.670601
 20
291.014389
 30
0.0
 11
-236.670601
 21
296.514389
 31
0.0
  0
LINE
  5
256
100
AcDbEntity
  8
2
370
    50
100
AcDbLine
 10
-236.670601
 20
306.014389
 30
0.0
 11
-236.670601
 21
311.514389
 31
0.0
  0
LINE
  5
257
100
AcDbEntity
  8
2
370
    50
100
AcDbLine
 10
-237.670601
 20
291.014389
 30
0.0
 11
-237.670601
 21
296.514389
 31
0.0
  0
LINE
  5
258
100
AcDbEntity
  8
2
370
    50
100
AcDbLine
 10
-237.670601
 20
306.014389
 30
0.0
 11
-237.670601
 21
311.514389
 31
0.0
  0
HATCH
  5
259
100
AcDbEntity
  8
2
370
    25
100
AcDbHatch
 10
0.0
 20
0.0
 30
0.0
210
0.0
220
0.0
230
1.0
  2
_U
 70
     0
 71
     1
 91
        1
 92
        1
 93
        4
 72
     1
 10
-237.670601
 20
291.01438899999999
 11
-237.670601
 21
296.51438899999999
 72
     1
 10
-237.670601
 20
296.51438899999999
 11
-236.670601
 21
296.51438899999999
 72
     1
 10
-236.670601
 20
296.51438899999999
 11
-236.670601
 21
291.01438899999999
 72
     1
 10
-236.670601
 20
291.01438899999999
 11
-237.670601
 21
291.01438899999999
 97
        4
330
0
330
0
330
0
330
0
 75
     0
 76
     0
 52
45.0
 41
1.0
 77
     0
 78
     1
 53
45.0
 43
0.0
 44
0.0
 45
-0.53033
 46
0.53033
 79
     0
 98
        1
 10
0.0
 20
0.0
  0
HATCH
  5
25A
100
AcDbEntity
  8
2
370
    25
100
AcDbHatch
 10
0.0
 20
0.0
 30
0.0
210
0.0
220
0.0
230
1.0
  2
_U
 70
     0
 71
     1
 91
        1
 92
        1
 93
        4
 72
     1
 10
-237.670601
 20
306.01438899999999
 11
-237.670601
 21
311.51438899999999
 72
     1
 10
-237.670601
 20
311.51438899999999
 11
-236.670601
 21
311.51438899999999
 72
     1
 10
-236.670601
 20
311.51438899999999
 11
-236.670601
 21
306.01438899999999
 72
     1
 10
-236.670601
 20
306.01438899999999
 11
-237.670601
 21
306.01438899999999
 97
        4
330
0
330
0
330
0
330
0
 75
     0
 76
     0
 52
45.0
 41
1.0
 77
     0
 78
     1
 53
45.0
 43
0.0
 44
0.0
 45
-1.0606599999999999
 46
1.0606599999999999
 79
     0
 98
        1
 10
0.0
 20
0.0
  0
ARC
  5
25B
100
AcDbEntity
  8
2
370
    25
100
AcDbCircle
 10
-384.498683
 20
-39.966477
 30
0.0
 40
21.674344
100
AcDbArc
 50
257.266314
 51
280.363158
  0
LINE
  5
25C
100
AcDbEntity
  8
2
370
    50
100
AcDbLine
 10
458.28634
 20
-100.693677
 30
0.0
 11
458.28634
 21
-122.617685
 31
0.0
  0
LINE
  5
25D
100
AcDbEntity
  8
2
370
    50
100
AcDbLine
 10
414.78634
 20
-104.090897
 30
0.0
 11
414.78634
 21
-122.617685
 31
0.0
  0
LINE
  5
25E
100
AcDbEntity
  8
2
370
    50
100
AcDbLine
 10
411.78634
 20
-123.117685
 30
0.0
 11
411.78634
 21
-142.117685
 31
0.0
  0
LINE
  5
25F
100
AcDbEntity
  8
2
370
    50
100
AcDbLine
 10
461.28634
 20
-123.117685
 30
0.0
 11
461.28634
 21
-142.117685
 31
0.0
  0
LINE
  5
260
100
AcDbEntity
  8
2
370
    50
100
AcDbLine
 10
460.78634
 20
-142.617685
 30
0.0
 11
412.28634
 21
-142.617685
 31
0.0
  0
LINE
  5
261
100
AcDbEntity
  8
2
370
    50
100
AcDbLine
 10
411.78634
 20
-123.117685
 30
0.0
 11
412.28634
 21
-122.617685
 31
0.0
  0
LINE
  5
262
100
AcDbEntity
  8
2
370
    50
100
AcDbLine
 10
411.78634
 20
-142.117685
 30
0.0
 11
412.28634
 21
-142.617685
 31
0.0
  0
LINE
  5
263
100
AcDbEntity
  8
2
370
    50
100
AcDbLine
 10
461.28634
 20
-142.117685
 30
0.0
 11
460.78634
 21
-142.617685
 31
0.0
  0
LINE
  5
264
100
AcDbEntity
  8
2
370
    50
100
AcDbLine
 10
461.28634
 20
-123.117685
 30
0.0
 11
460.78634
 21
-122.617685
 31
0.0
  0
LINE
  5
265
100
AcDbEntity
  8
2
370
    50
100
AcDbLine
 10
412.28634
 20
-122.617685
 30
0.0
 11
460.78634
 21
-122.617685
 31
0.0
  0
LINE
  5
266
100
AcDbEntity
  8
2
370
    50
100
AcDbLine
 10
411.78634
 20
-123.117685
 30
0.0
 11
461.28634
 21
-123.117685
 31
0.0
  0
LINE
  5
267
100
AcDbEntity
  8
2
370
    50
100
AcDbLine
 10
411.78634
 20
-142.117685
 30
0.0
 11
461.28634
 21
-142.117685
 31
0.0
  0
LINE
  5
268
100
AcDbEntity
  8
2
370
    50
100
AcDbLine
 10
413.03634
 20
-145.617685
 30
0.0
 11
460.03634
 21
-145.617685
 31
0.0
  0
LINE
  5
269
100
AcDbEntity
  8
2
370
    50
100
AcDbLine
 10
413.03634
 20
-142.617685
 30
0.0
 11
413.03634
 21
-145.617685
 31
0.0
  0
LINE
  5
26A
100
AcDbEntity
  8
2
370
    50
100
AcDbLine
 10
460.03634
 20
-142.617685
 30
0.0
 11
460.03634
 21
-145.617685
 31
0.0
  0
HATCH
  5
26B
100
AcDbEntity
  8
2
370
    25
100
AcDbHatch
 10
0.0
 20
0.0
 30
0.0
210
0.0
220
0.0
230
1.0
  2
_U
 70
     0
 71
     1
 91
        1
 92
        1
 93
        5
 72
     1
 10
413.03634
 20
-145.61768499999999
 11
413.03634
 21
-142.61768499999999
 72
     1
 10
413.03634
 20
-142.61768499999999
 11
436.53634
 21
-142.61768499999999
 72
     1
 10
436.53634
 20
-142.61768499999999
 11
460.03634
 21
-142.61768499999999
 72
     1
 10
460.03634
 20
-142.61768499999999
 11
460.03634
 21
-145.61768499999999
 72
     1
 10
460.03634
 20
-145.61768499999999
 11
413.03634
 21
-145.61768499999999
 97
        5
330
0
330
0
330
0
330
0
330
0
 75
     0
 76
     0
 52
45.0
 41
1.0
 77
     0
 78
     1
 53
45.0
 43
0.0
 44
0.0
 45
-2.1213199999999999
 46
2.1213199999999999
 79
     0
 98
        1
 10
0.0
 20
0.0
  0
SPLINE
  5
26C
100
AcDbEntity
  8
2
370
    25
100
AcDbSpline
210
0.0
220
0.0
230
1.0
 70
     8
 71
     3
 72
     0
 73
     0
 74
     4
 44
0.0000000001
 11
410.56402600000001
 21
-108.49480800000001
 31
0.0
 11
423.05841099999998
 21
-99.523978999999997
 31
0.0
 11
440.99917599999998
 21
-107.213264
 31
0.0
 11
461.82321200000001
 21
-97.922058000000007
 31
0.0
  0
LINE
  5
26D
100
AcDbEntity
  8
2
370
    50
100
AcDbLine
 10
-355.998683
 20
-123.117685
 30
0.0
 11
-355.998683
 21
-142.117685
 31
0.0
  0
LINE
  5
26E
100
AcDbEntity
  8
2
370
    50
100
AcDbLine
 10
-405.498683
 20
-123.117685
 30
0.0
 11
-405.498683
 21
-142.117685
 31
0.0
  0
LINE
  5
26F
100
AcDbEntity
  8
2
370
    50
100
AcDbLine
 10
-398.248683
 20
-147.317685
 30
0.0
 11
-398.248683
 21
-145.617685
 31
0.0
  0
LINE
  5
270
100
AcDbEntity
  8
2
370
    50
100
AcDbLine
 10
-404.998683
 20
-142.617685
 30
0.0
 11
-356.498683
 21
-142.617685
 31
0.0
  0
LINE
  5
271
100
AcDbEntity
  8
2
370
    50
100
AcDbLine
 10
-363.248683
 20
-145.617685
 30
0.0
 11
-363.248683
 21
-147.317685
 31
0.0
  0
LINE
  5
272
100
AcDbEntity
  8
2
370
    50
100
AcDbLine
 10
-397.948683
 20
-147.617685
 30
0.0
 11
-363.548683
 21
-147.617685
 31
0.0
  0
LINE
  5
273
100
AcDbEntity
  8
2
370
    50
100
AcDbLine
 10
-355.998683
 20
-142.117685
 30
0.0
 11
-356.498683
 21
-142.617685
 31
0.0
  0
LINE
  5
274
100
AcDbEntity
  8
2
370
    50
100
AcDbLine
 10
-405.498683
 20
-142.117685
 30
0.0
 11
-404.998683
 21
-142.617685
 31
0.0
  0
LINE
  5
275
100
AcDbEntity
  8
2
370
    25
  6
CENTER
100
AcDbLine
 10
-368.748683
 20
-138.746967
 30
0.0
 11
-368.748683
 21
-210.158127
 31
0.0
  0
LINE
  5
276
100
AcDbEntity
  8
2
370
    50
100
AcDbLine
 10
-363.548683
 20
-147.617685
 30
0.0
 11
-363.248683
 21
-147.317685
 31
0.0
  0
LINE
  5
277
100
AcDbEntity
  8
2
370
    50
100
AcDbLine
 10
-397.948683
 20
-147.617685
 30
0.0
 11
-398.248683
 21
-147.317685
 31
0.0
  0
LINE
  5
278
100
AcDbEntity
  8
2
370
    50
100
AcDbLine
 10
-355.998683
 20
-142.117685
 30
0.0
 11
-405.498683
 21
-142.117685
 31
0.0
  0
LINE
  5
279
100
AcDbEntity
  8
2
370
    50
100
AcDbLine
 10
-363.248683
 20
-147.317685
 30
0.0
 11
-398.248683
 21
-147.317685
 31
0.0
  0
LINE
  5
27A
100
AcDbEntity
  8
2
370
    50
100
AcDbLine
 10
-372.123683
 20
-207.617685
 30
0.0
 11
-372.748683
 21
-206.992685
 31
0.0
  0
LINE
  5
27B
100
AcDbEntity
  8
2
370
    50
100
AcDbLine
 10
-365.373683
 20
-207.617685
 30
0.0
 11
-364.748683
 21
-206.992685
 31
0.0
  0
LINE
  5
27C
100
AcDbEntity
  8
2
370
    50
100
AcDbLine
 10
-368.248683
 20
-206.617685
 30
0.0
 11
-369.248683
 21
-206.617685
 31
0.0
  0
LINE
  5
27D
100
AcDbEntity
  8
2
370
    50
100
AcDbLine
 10
-369.248683
 20
-206.617685
 30
0.0
 11
-369.248683
 21
-207.617685
 31
0.0
  0
LINE
  5
27E
100
AcDbEntity
  8
2
370
    50
100
AcDbLine
 10
-368.248683
 20
-206.617685
 30
0.0
 11
-368.248683
 21
-207.617685
 31
0.0
  0
LINE
  5
27F
100
AcDbEntity
  8
2
370
    50
100
AcDbLine
 10
-372.123683
 20
-207.617685
 30
0.0
 11
-369.248683
 21
-207.617685
 31
0.0
  0
LINE
  5
280
100
AcDbEntity
  8
2
370
    50
100
AcDbLine
 10
-368.248683
 20
-207.617685
 30
0.0
 11
-365.373683
 21
-207.617685
 31
0.0
  0
LINE
  5
281
100
AcDbEntity
  8
2
370
    50
100
AcDbLine
 10
-361.748683
 20
-171.9295
 30
0.0
 11
-361.748683
 21
-200.9295
 31
0.0
  0
LINE
  5
282
100
AcDbEntity
  8
2
370
    50
100
AcDbLine
 10
-362.248683
 20
-171.4295
 30
0.0
 11
-361.748683
 21
-171.9295
 31
0.0
  0
LINE
  5
283
100
AcDbEntity
  8
2
370
    50
100
AcDbLine
 10
-362.248683
 20
-201.4295
 30
0.0
 11
-361.748683
 21
-200.9295
 31
0.0
  0
LINE
  5
284
100
AcDbEntity
  8
2
370
    50
100
AcDbLine
 10
-375.248683
 20
-171.4295
 30
0.0
 11
-375.748683
 21
-171.9295
 31
0.0
  0
LINE
  5
285
100
AcDbEntity
  8
2
370
    50
100
AcDbLine
 10
-375.748683
 20
-171.9295
 30
0.0
 11
-375.748683
 21
-200.9295
 31
0.0
  0
LINE
  5
286
100
AcDbEntity
  8
2
370
    50
100
AcDbLine
 10
-375.248683
 20
-201.4295
 30
0.0
 11
-375.748683
 21
-200.9295
 31
0.0
  0
LINE
  5
287
100
AcDbEntity
  8
2
370
    50
100
AcDbLine
 10
-395.448683
 20
-171.4295
 30
0.0
 11
-355.448683
 21
-171.4295
 31
0.0
  0
LINE
  5
288
100
AcDbEntity
  8
2
370
    50
100
AcDbLine
 10
-375.248683
 20
-201.4295
 30
0.0
 11
-364.748683
 21
-201.4295
 31
0.0
  0
LINE
  5
289
100
AcDbEntity
  8
2
370
    50
100
AcDbLine
 10
-364.748683
 20
-201.4295
 30
0.0
 11
-362.248683
 21
-201.4295
 31
0.0
  0
LINE
  5
28A
100
AcDbEntity
  8
2
370
    50
100
AcDbLine
 10
-395.448683
 20
-167.4295
 30
0.0
 11
-355.448683
 21
-167.4295
 31
0.0
  0
LINE
  5
28B
100
AcDbEntity
  8
2
370
    50
100
AcDbLine
 10
-395.448683
 20
-165.6295
 30
0.0
 11
-355.448683
 21
-165.6295
 31
0.0
  0
LINE
  5
28C
100
AcDbEntity
  8
2
370
    50
100
AcDbLine
 10
-395.448683
 20
-165.6295
 30
0.0
 11
-395.448683
 21
-171.4295
 31
0.0
  0
LINE
  5
28D
100
AcDbEntity
  8
2
370
    50
100
AcDbLine
 10
-355.448683
 20
-171.4295
 30
0.0
 11
-355.448683
 21
-165.6295
 31
0.0
  0
HATCH
  5
28E
100
AcDbEntity
  8
2
370
    25
100
AcDbHatch
 10
0.0
 20
0.0
 30
0.0
210
0.0
220
0.0
230
1.0
  2
_U
 70
     0
 71
     1
 91
        1
 92
        1
 93
        4
 72
     1
 10
-355.44868300000002
 20
-167.42949999999999
 11
-395.44868300000002
 21
-167.42949999999999
 72
     1
 10
-395.44868300000002
 20
-167.42949999999999
 11
-395.44868300000002
 21
-165.62950000000001
 72
     1
 10
-395.44868300000002
 20
-165.62950000000001
 11
-355.44868300000002
 21
-165.62950000000001
 72
     1
 10
-355.44868300000002
 20
-165.62950000000001
 11
-355.44868300000002
 21
-167.42949999999999
 97
        4
330
0
330
0
330
0
330
0
 75
     0
 76
     0
 52
45.0
 41
1.0
 77
     0
 78
     1
 53
45.0
 43
0.0
 44
0.0
 45
-2.1213199999999999
 46
2.1213199999999999
 79
     0
 98
        1
 10
0.0
 20
0.0
  0
LINE
  5
28F
100
AcDbEntity
  8
2
370
    50
100
AcDbLine
 10
-364.748683
 20
-206.992685
 30
0.0
 11
-364.748683
 21
-201.4295
 31
0.0
  0
LINE
  5
290
100
AcDbEntity
  8
2
370
    50
100
AcDbLine
 10
-365.373683
 20
-207.617685
 30
0.0
 11
-365.373683
 21
-201.4295
 31
0.0
  0
LINE
  5
291
100
AcDbEntity
  8
2
370
    50
100
AcDbLine
 10
-372.123683
 20
-207.617685
 30
0.0
 11
-372.123683
 21
-201.4295
 31
0.0
  0
LINE
  5
292
100
AcDbEntity
  8
2
370
    50
100
AcDbLine
 10
-372.748683
 20
-206.992685
 30
0.0
 11
-372.748683
 21
-201.4295
 31
0.0
  0
LINE
  5
293
100
AcDbEntity
  8
2
370
    50
100
AcDbLine
 10
-364.418556
 20
-171.9295
 30
0.0
 11
-364.418556
 21
-200.9295
 31
0.0
  0
LINE
  5
294
100
AcDbEntity
  8
2
370
    50
100
AcDbLine
 10
-366.150607
 20
-171.9295
 30
0.0
 11
-366.150607
 21
-200.9295
 31
0.0
  0
LINE
  5
295
100
AcDbEntity
  8
2
370
    50
100
AcDbLine
 10
-364.418556
 20
-171.9295
 30
0.0
 11
-366.150607
 21
-171.9295
 31
0.0
  0
LINE
  5
296
100
AcDbEntity
  8
2
370
    50
100
AcDbLine
 10
-364.418556
 20
-200.9295
 30
0.0
 11
-366.150607
 21
-200.9295
 31
0.0
  0
ARC
  5
297
100
AcDbEntity
  8
2
370
    50
100
AcDbCircle
 10
-368.748683
 20
-178.4295
 30
0.0
 40
7.0
100
AcDbArc
 50
68.213211
 51
90.0
  0
ARC
  5
298
100
AcDbEntity
  8
2
370
    50
100
AcDbCircle
 10
-363.08362
 20
-173.461555
 30
0.0
 40
2.032055
100
AcDbArc
 50
48.93316
 51
131.06684
  0
ARC
  5
299
100
AcDbEntity
  8
2
370
    50
100
AcDbCircle
 10
-363.08362
 20
-199.397445
 30
0.0
 40
2.032055
100
AcDbArc
 50
228.93316
 51
311.06684
  0
ARC
  5
29A
100
AcDbEntity
  8
2
370
    50
100
AcDbCircle
 10
-368.748683
 20
-194.4295
 30
0.0
 40
7.0
100
AcDbArc
 50
270.0
 51
291.786789
  0
ARC
  5
29B
100
AcDbEntity
  8
2
370
    50
100
AcDbCircle
 10
-368.748683
 20
-178.4295
 30
0.0
 40
7.0
100
AcDbArc
 50
90.0
 51
111.786789
  0
LINE
  5
29C
100
AcDbEntity
  8
2
370
    50
100
AcDbLine
 10
-371.34676
 20
-171.9295
 30
0.0
 11
-371.34676
 21
-200.9295
 31
0.0
  0
LINE
  5
29D
100
AcDbEntity
  8
2
370
    50
100
AcDbLine
 10
-373.07881
 20
-171.9295
 30
0.0
 11
-371.34676
 21
-171.9295
 31
0.0
  0
LINE
  5
29E
100
AcDbEntity
  8
2
370
    50
100
AcDbLine
 10
-373.07881
 20
-171.9295
 30
0.0
 11
-373.07881
 21
-200.9295
 31
0.0
  0
ARC
  5
29F
100
AcDbEntity
  8
2
370
    50
100
AcDbCircle
 10
-374.413747
 20
-173.461555
 30
0.0
 40
2.032055
100
AcDbArc
 50
48.93316
 51
131.06684
  0
ARC
  5
2A0
100
AcDbEntity
  8
2
370
    50
100
AcDbCircle
 10
-374.413747
 20
-199.397445
 30
0.0
 40
2.032055
100
AcDbArc
 50
228.93316
 51
311.06684
  0
LINE
  5
2A1
100
AcDbEntity
  8
2
370
    50
100
AcDbLine
 10
-373.07881
 20
-200.9295
 30
0.0
 11
-371.34676
 21
-200.9295
 31
0.0
  0
ARC
  5
2A2
100
AcDbEntity
  8
2
370
    50
100
AcDbCircle
 10
-368.748683
 20
-194.4295
 30
0.0
 40
7.0
100
AcDbArc
 50
248.213211
 51
270.0
  0
LINE
  5
2A3
100
AcDbEntity
  8
2
370
    50
100
AcDbLine
 10
-357.248683
 20
-145.617685
 30
0.0
 11
-404.248683
 21
-145.617685
 31
0.0
  0
LINE
  5
2A4
100
AcDbEntity
  8
2
370
    50
100
AcDbLine
 10
-357.248683
 20
-142.617685
 30
0.0
 11
-357.248683
 21
-145.617685
 31
0.0
  0
LINE
  5
2A5
100
AcDbEntity
  8
2
370
    50
100
AcDbLine
 10
-404.248683
 20
-142.617685
 30
0.0
 11
-404.248683
 21
-145.617685
 31
0.0
  0
HATCH
  5
2A6
100
AcDbEntity
  8
2
370
    25
100
AcDbHatch
 10
0.0
 20
0.0
 30
0.0
210
0.0
220
0.0
230
1.0
  2
_U
 70
     0
 71
     1
 91
        1
 92
        1
 93
        5
 72
     1
 10
-357.24868300000003
 20
-145.61768499999999
 11
-357.24868300000003
 21
-142.61768499999999
 72
     1
 10
-357.24868300000003
 20
-142.61768499999999
 11
-380.74868300000003
 21
-142.61768499999999
 72
     1
 10
-380.74868300000003
 20
-142.61768499999999
 11
-404.24868300000003
 21
-142.61768499999999
 72
     1
 10
-404.24868300000003
 20
-142.61768499999999
 11
-404.24868300000003
 21
-145.61768499999999
 72
     1
 10
-404.24868300000003
 20
-145.61768499999999
 11
-357.24868300000003
 21
-145.61768499999999
 97
        5
330
0
330
0
330
0
330
0
330
0
 75
     0
 76
     0
 52
45.0
 41
1.0
 77
     0
 78
     1
 53
45.0
 43
0.0
 44
0.0
 45
-2.1213199999999999
 46
2.1213199999999999
 79
     0
 98
        1
 10
0.0
 20
0.0
  0
LINE
  5
2A7
100
AcDbEntity
  8
2
370
    50
100
AcDbLine
 10
140.90026
 20
-123.117685
 30
0.0
 11
140.90026
 21
-142.117685
 31
0.0
  0
LINE
  5
2A8
100
AcDbEntity
  8
2
370
    50
100
AcDbLine
 10
91.40026
 20
-123.117685
 30
0.0
 11
91.40026
 21
-142.117685
 31
0.0
  0
LINE
  5
2A9
100
AcDbEntity
  8
2
370
    50
100
AcDbLine
 10
91.90026
 20
-142.617685
 30
0.0
 11
140.40026
 21
-142.617685
 31
0.0
  0
LINE
  5
2AA
100
AcDbEntity
  8
2
370
    50
100
AcDbLine
 10
140.90026
 20
-142.117685
 30
0.0
 11
140.40026
 21
-142.617685
 31
0.0
  0
LINE
  5
2AB
100
AcDbEntity
  8
2
370
    50
100
AcDbLine
 10
91.40026
 20
-142.117685
 30
0.0
 11
91.90026
 21
-142.617685
 31
0.0
  0
LINE
  5
2AC
100
AcDbEntity
  8
2
370
    25
  6
DASHED
100
AcDbLine
 10
133.35026
 20
-147.617685
 30
0.0
 11
133.65026
 21
-147.317685
 31
0.0
  0
LINE
  5
2AD
100
AcDbEntity
  8
2
370
    25
  6
DASHED
100
AcDbLine
 10
98.95026
 20
-147.617685
 30
0.0
 11
98.65026
 21
-147.317685
 31
0.0
  0
LINE
  5
2AE
100
AcDbEntity
  8
2
370
    50
100
AcDbLine
 10
140.90026
 20
-142.117685
 30
0.0
 11
91.40026
 21
-142.117685
 31
0.0
  0
LINE
  5
2AF
100
AcDbEntity
  8
2
370
    50
100
AcDbLine
 10
122.65026
 20
-171.4295
 30
0.0
 11
123.15026
 21
-171.9295
 31
0.0
  0
LINE
  5
2B0
100
AcDbEntity
  8
2
370
    50
100
AcDbLine
 10
109.65026
 20
-171.4295
 30
0.0
 11
109.15026
 21
-171.9295
 31
0.0
  0
LINE
  5
2B1
100
AcDbEntity
  8
2
370
    50
100
AcDbLine
 10
91.65026
 20
-171.4295
 30
0.0
 11
140.65026
 21
-171.4295
 31
0.0
  0
LINE
  5
2B2
100
AcDbEntity
  8
2
370
    50
100
AcDbLine
 10
91.65026
 20
-167.4295
 30
0.0
 11
140.65026
 21
-167.4295
 31
0.0
  0
LINE
  5
2B3
100
AcDbEntity
  8
2
370
    50
100
AcDbLine
 10
91.65026
 20
-165.6295
 30
0.0
 11
140.65026
 21
-165.6295
 31
0.0
  0
LINE
  5
2B4
100
AcDbEntity
  8
2
370
    50
100
AcDbLine
 10
120.480387
 20
-171.9295
 30
0.0
 11
118.748336
 21
-171.9295
 31
0.0
  0
ARC
  5
2B5
100
AcDbEntity
  8
2
370
    50
100
AcDbCircle
 10
116.15026
 20
-178.4295
 30
0.0
 40
7.0
100
AcDbArc
 50
68.213211
 51
90.0
  0
ARC
  5
2B6
100
AcDbEntity
  8
2
370
    50
100
AcDbCircle
 10
121.815323
 20
-173.461555
 30
0.0
 40
2.032055
100
AcDbArc
 50
48.93316
 51
131.06684
  0
ARC
  5
2B7
100
AcDbEntity
  8
2
370
    50
100
AcDbCircle
 10
116.15026
 20
-178.4295
 30
0.0
 40
7.0
100
AcDbArc
 50
90.0
 51
111.786789
  0
LINE
  5
2B8
100
AcDbEntity
  8
2
370
    50
100
AcDbLine
 10
111.820133
 20
-171.9295
 30
0.0
 11
113.552183
 21
-171.9295
 31
0.0
  0
ARC
  5
2B9
100
AcDbEntity
  8
2
370
    50
100
AcDbCircle
 10
110.485196
 20
-173.461555
 30
0.0
 40
2.032055
100
AcDbArc
 50
48.93316
 51
131.06684
  0
LINE
  5
2BA
100
AcDbEntity
  8
2
370
    50
100
AcDbLine
 10
139.65026
 20
-145.617685
 30
0.0
 11
92.65026
 21
-145.617685
 31
0.0
  0
LINE
  5
2BB
100
AcDbEntity
  8
2
370
    50
100
AcDbLine
 10
139.65026
 20
-142.617685
 30
0.0
 11
139.65026
 21
-145.617685
 31
0.0
  0
LINE
  5
2BC
100
AcDbEntity
  8
2
370
    50
100
AcDbLine
 10
92.65026
 20
-142.617685
 30
0.0
 11
92.65026
 21
-145.617685
 31
0.0
  0
HATCH
  5
2BD
100
AcDbEntity
  8
2
370
    25
100
AcDbHatch
 10
0.0
 20
0.0
 30
0.0
210
0.0
220
0.0
230
1.0
  2
_U
 70
     0
 71
     1
 91
        1
 92
        1
 93
        5
 72
     1
 10
139.65026
 20
-145.61768499999999
 11
139.65026
 21
-142.61768499999999
 72
     1
 10
139.65026
 20
-142.61768499999999
 11
116.15026
 21
-142.61768499999999
 72
     1
 10
116.15026
 20
-142.61768499999999
 11
92.650260000000003
 21
-142.61768499999999
 72
     1
 10
92.650260000000003
 20
-142.61768499999999
 11
92.650260000000003
 21
-145.61768499999999
 72
     1
 10
92.650260000000003
 20
-145.61768499999999
 11
139.65026
 21
-145.61768499999999
 97
        5
330
0
330
0
330
0
330
0
330
0
 75
     0
 76
     0
 52
45.0
 41
1.0
 77
     0
 78
     1
 53
45.0
 43
0.0
 44
0.0
 45
-2.1213199999999999
 46
2.1213199999999999
 79
     0
 98
        1
 10
0.0
 20
0.0
  0
LINE
  5
2BE
100
AcDbEntity
  8
2
370
    50
100
AcDbLine
 10
140.65026
 20
-165.6295
 30
0.0
 11
140.65026
 21
-171.4295
 31
0.0
  0
LINE
  5
2BF
100
AcDbEntity
  8
2
370
    50
100
AcDbLine
 10
91.65026
 20
-165.6295
 30
0.0
 11
91.65026
 21
-171.4295
 31
0.0
  0
LINE
  5
2C0
100
AcDbEntity
  8
2
370
    25
  6
CENTER
100
AcDbLine
 10
123.65026
 20
-138.66732
 30
0.0
 11
123.65026
 21
-249.696922
 31
0.0
  0
LINE
  5
2C1
100
AcDbEntity
  8
2
370
    25
  6
CENTER
100
AcDbLine
 10
108.65026
 20
-138.66732
 30
0.0
 11
108.65026
 21
-250.253189
 31
0.0
  0
LINE
  5
2C2
100
AcDbEntity
  8
2
370
    25
  6
CENTER
100
AcDbLine
 10
-380.748683
 20
-77.117685
 30
0.0
 11
-380.748683
 21
-147.916092
 31
0.0
  0
LINE
  5
2C3
100
AcDbEntity
  8
2
370
    25
  6
CENTER
100
AcDbLine
 10
123.65026
 20
-249.696922
 30
0.0
 11
151.650777
 21
-201.275162
 31
0.0
  0
LINE
  5
2C4
100
AcDbEntity
  8
2
370
    50
100
AcDbLine
 10
145.150777
 20
-266.277275
 30
0.0
 11
158.150777
 21
-266.277275
 31
0.0
  0
LINE
  5
2C5
100
AcDbEntity
  8
2
370
    50
100
AcDbLine
 10
147.06934
 20
-280.277275
 30
0.0
 11
145.650777
 21
-280.277275
 31
0.0
  0
LINE
  5
2C6
100
AcDbEntity
  8
2
370
    50
100
AcDbLine
 10
147.06934
 20
-282.777275
 30
0.0
 11
145.650777
 21
-282.777275
 31
0.0
  0
ARC
  5
2C7
100
AcDbEntity
  8
2
370
    50
100
AcDbCircle
 10
145.850777
 20
-283.077275
 30
0.0
 40
0.2
100
AcDbArc
 50
180.0
 51
270.0
  0
LINE
  5
2C8
100
AcDbEntity
  8
2
370
    50
100
AcDbLine
 10
151.150777
 20
-282.777275
 30
0.0
 11
147.776447
 21
-282.777275
 31
0.0
  0
LINE
  5
2C9
100
AcDbEntity
  8
2
370
    50
100
AcDbLine
 10
151.150777
 20
-280.277275
 30
0.0
 11
147.776447
 21
-280.277275
 31
0.0
  0
LINE
  5
2CA
100
AcDbEntity
  8
2
370
    50
100
AcDbLine
 10
155.525107
 20
-282.777275
 30
0.0
 11
152.150777
 21
-282.777275
 31
0.0
  0
LINE
  5
2CB
100
AcDbEntity
  8
2
370
    50
100
AcDbLine
 10
155.525107
 20
-280.277275
 30
0.0
 11
152.150777
 21
-280.277275
 31
0.0
  0
LINE
  5
2CC
100
AcDbEntity
  8
2
370
    50
100
AcDbLine
 10
157.650777
 20
-282.777275
 30
0.0
 11
156.232214
 21
-282.777275
 31
0.0
  0
LINE
  5
2CD
100
AcDbEntity
  8
2
370
    50
100
AcDbLine
 10
157.650777
 20
-280.277275
 30
0.0
 11
156.232214
 21
-280.277275
 31
0.0
  0
ARC
  5
2CE
100
AcDbEntity
  8
2
370
    50
100
AcDbCircle
 10
157.450777
 20
-283.077275
 30
0.0
 40
0.2
100
AcDbArc
 50
270.0
 51
360.0
  0
LINE
  5
2CF
100
AcDbEntity
  8
2
370
    50
100
AcDbLine
 10
157.650777
 20
-280.277275
 30
0.0
 11
157.650777
 21
-283.077275
 31
0.0
  0
LINE
  5
2D0
100
AcDbEntity
  8
2
370
    50
100
AcDbLine
 10
157.629907
 20
-280.277275
 30
0.0
 11
157.629907
 21
-282.777275
 31
0.0
  0
ARC
  5
2D1
100
AcDbEntity
  8
2
370
    50
100
AcDbCircle
 10
155.650777
 20
-278.777275
 30
0.0
 40
2.5
100
AcDbArc
 50
323.130102
 51
360.0
  0
LINE
  5
2D2
100
AcDbEntity
  8
2
370
    50
100
AcDbLine
 10
156.232214
 20
-280.277275
 30
0.0
 11
156.232214
 21
-282.777275
 31
0.0
  0
LINE
  5
2D3
100
AcDbEntity
  8
2
370
    50
100
AcDbLine
 10
155.525107
 20
-280.277275
 30
0.0
 11
155.525107
 21
-282.777275
 31
0.0
  0
LINE
  5
2D4
100
AcDbEntity
  8
2
370
    50
100
AcDbLine
 10
152.150777
 20
-280.277275
 30
0.0
 11
152.150777
 21
-282.777275
 31
0.0
  0
LINE
  5
2D5
100
AcDbEntity
  8
2
370
    50
100
AcDbLine
 10
151.150777
 20
-280.277275
 30
0.0
 11
151.150777
 21
-282.777275
 31
0.0
  0
LINE
  5
2D6
100
AcDbEntity
  8
2
370
    50
100
AcDbLine
 10
147.06934
 20
-280.277275
 30
0.0
 11
147.06934
 21
-282.777275
 31
0.0
  0
LINE
  5
2D7
100
AcDbEntity
  8
2
370
    50
100
AcDbLine
 10
147.776447
 20
-280.277275
 30
0.0
 11
147.776447
 21
-282.777275
 31
0.0
  0
LINE
  5
2D8
100
AcDbEntity
  8
2
370
    50
100
AcDbLine
 10
145.650777
 20
-280.277275
 30
0.0
 11
145.650777
 21
-283.077275
 31
0.0
  0
LINE
  5
2D9
100
AcDbEntity
  8
2
370
    50
100
AcDbLine
 10
145.671647
 20
-280.277275
 30
0.0
 11
145.671647
 21
-282.777275
 31
0.0
  0
ARC
  5
2DA
100
AcDbEntity
  8
2
370
    50
100
AcDbCircle
 10
147.650777
 20
-278.777275
 30
0.0
 40
2.5
100
AcDbArc
 50
180.0
 51
216.869898
  0
LINE
  5
2DB
100
AcDbEntity
  8
2
370
    50
100
AcDbLine
 10
145.150777
 20
-266.277275
 30
0.0
 11
145.150777
 21
-278.777275
 31
0.0
  0
LINE
  5
2DC
100
AcDbEntity
  8
2
370
    50
100
AcDbLine
 10
158.150777
 20
-266.277275
 30
0.0
 11
158.150777
 21
-278.777275
 31
0.0
  0
LINE
  5
2DD
100
AcDbEntity
  8
2
370
    50
100
AcDbLine
 10
158.650777
 20
-283.277275
 30
0.0
 11
144.650777
 21
-283.277275
 31
0.0
  0
LINE
  5
2DE
100
AcDbEntity
  8
2
370
    50
100
AcDbLine
 10
159.150777
 20
-283.777275
 30
0.0
 11
158.650777
 21
-283.277275
 31
0.0
  0
LINE
  5
2DF
100
AcDbEntity
  8
2
370
    50
100
AcDbLine
 10
145.900777
 20
-266.277275
 30
0.0
 11
145.900777
 21
-230.785417
 31
0.0
  0
LINE
  5
2E0
100
AcDbEntity
  8
2
370
    50
100
AcDbLine
 10
157.400777
 20
-266.277275
 30
0.0
 11
157.400777
 21
-230.933477
 31
0.0
  0
LINE
  5
2E1
100
AcDbEntity
  8
2
370
    25
100
AcDbLine
 10
158.150637
 20
-297.076653
 30
0.0
 11
158.150637
 21
-294.076653
 31
0.0
  0
LINE
  5
2E2
100
AcDbEntity
  8
2
370
    50
100
AcDbLine
 10
160.550777
 20
-288.67791
 30
0.0
 11
160.550777
 21
-291.07791
 31
0.0
  0
LINE
  5
2E3
100
AcDbEntity
  8
2
370
    50
100
AcDbLine
 10
160.350777
 20
-288.47791
 30
0.0
 11
160.550777
 21
-288.67791
 31
0.0
  0
LINE
  5
2E4
100
AcDbEntity
  8
2
370
    50
100
AcDbLine
 10
160.350777
 20
-291.27791
 30
0.0
 11
160.550777
 21
-291.07791
 31
0.0
  0
LINE
  5
2E5
100
AcDbEntity
  8
2
370
    50
100
AcDbLine
 10
159.150777
 20
-288.47791
 30
0.0
 11
159.150777
 21
-288.076653
 31
0.0
  0
LINE
  5
2E6
100
AcDbEntity
  8
2
370
    50
100
AcDbLine
 10
159.150777
 20
-283.777275
 30
0.0
 11
159.150777
 21
-285.076653
 31
0.0
  0
LINE
  5
2E7
100
AcDbEntity
  8
2
370
    50
100
AcDbLine
 10
142.750777
 20
-288.677275
 30
0.0
 11
142.750777
 21
-291.077275
 31
0.0
  0
LINE
  5
2E8
100
AcDbEntity
  8
2
370
    50
100
AcDbLine
 10
160.550777
 20
-288.677275
 30
0.0
 11
160.550777
 21
-291.077275
 31
0.0
  0
LINE
  5
2E9
100
AcDbEntity
  8
2
370
    50
100
AcDbLine
 10
160.350777
 20
-288.477275
 30
0.0
 11
160.550777
 21
-288.677275
 31
0.0
  0
LINE
  5
2EA
100
AcDbEntity
  8
2
370
    50
100
AcDbLine
 10
142.950777
 20
-288.477275
 30
0.0
 11
142.750777
 21
-288.677275
 31
0.0
  0
LINE
  5
2EB
100
AcDbEntity
  8
2
370
    50
100
AcDbLine
 10
142.950777
 20
-291.277275
 30
0.0
 11
142.750777
 21
-291.077275
 31
0.0
  0
LINE
  5
2EC
100
AcDbEntity
  8
2
370
    50
100
AcDbLine
 10
142.650777
 20
-297.077275
 30
0.0
 11
160.650777
 21
-297.077275
 31
0.0
  0
LINE
  5
2ED
100
AcDbEntity
  8
2
370
    50
100
AcDbLine
 10
143.350777
 20
-285.077275
 30
0.0
 11
159.950777
 21
-285.077275
 31
0.0
  0
LINE
  5
2EE
100
AcDbEntity
  8
2
370
    50
100
AcDbLine
 10
155.650777
 20
-286.077275
 30
0.0
 11
155.650777
 21
-296.077275
 31
0.0
  0
LINE
  5
2EF
100
AcDbEntity
  8
2
370
    50
100
AcDbLine
 10
147.650777
 20
-286.077275
 30
0.0
 11
147.650777
 21
-296.077275
 31
0.0
  0
ARC
  5
2F0
100
AcDbEntity
  8
2
370
    50
100
AcDbCircle
 10
165.150777
 20
-284.077275
 30
0.0
 40
1.0
100
AcDbArc
 50
0.0
 51
90.0
  0
ARC
  5
2F1
100
AcDbEntity
  8
2
370
    50
100
AcDbCircle
 10
165.150777
 20
-296.077275
 30
0.0
 40
1.0
100
AcDbArc
 50
270.0
 51
360.0
  0
LINE
  5
2F2
100
AcDbEntity
  8
2
370
    50
100
AcDbLine
 10
165.150777
 20
-283.077275
 30
0.0
 11
157.650777
 21
-283.077275
 31
0.0
  0
LINE
  5
2F3
100
AcDbEntity
  8
2
370
    50
100
AcDbLine
 10
145.650777
 20
-283.077275
 30
0.0
 11
138.150777
 21
-283.077275
 31
0.0
  0
LINE
  5
2F4
100
AcDbEntity
  8
2
370
    50
100
AcDbLine
 10
165.150777
 20
-297.077275
 30
0.0
 11
159.150777
 21
-297.077275
 31
0.0
  0
LINE
  5
2F5
100
AcDbEntity
  8
2
370
    50
100
AcDbLine
 10
143.350777
 20
-297.077275
 30
0.0
 11
138.150777
 21
-297.077275
 31
0.0
  0
LINE
  5
2F6
100
AcDbEntity
  8
2
370
    50
100
AcDbLine
 10
143.350777
 20
-288.077275
 30
0.0
 11
147.650777
 21
-288.077275
 31
0.0
  0
LINE
  5
2F7
100
AcDbEntity
  8
2
370
    50
100
AcDbLine
 10
155.650777
 20
-288.077275
 30
0.0
 11
159.950777
 21
-288.077275
 31
0.0
  0
LINE
  5
2F8
100
AcDbEntity
  8
2
370
    50
100
AcDbLine
 10
142.950777
 20
-288.477275
 30
0.0
 11
147.650777
 21
-288.477275
 31
0.0
  0
LINE
  5
2F9
100
AcDbEntity
  8
2
370
    50
100
AcDbLine
 10
155.650777
 20
-288.477275
 30
0.0
 11
160.350777
 21
-288.477275
 31
0.0
  0
LINE
  5
2FA
100
AcDbEntity
  8
2
370
    50
100
AcDbLine
 10
142.750777
 20
-288.677275
 30
0.0
 11
147.650777
 21
-288.677275
 31
0.0
  0
LINE
  5
2FB
100
AcDbEntity
  8
2
370
    50
100
AcDbLine
 10
155.650777
 20
-288.677275
 30
0.0
 11
160.550777
 21
-288.677275
 31
0.0
  0
LINE
  5
2FC
100
AcDbEntity
  8
2
370
    50
100
AcDbLine
 10
142.750777
 20
-291.077275
 30
0.0
 11
147.650777
 21
-291.077275
 31
0.0
  0
LINE
  5
2FD
100
AcDbEntity
  8
2
370
    50
100
AcDbLine
 10
155.650777
 20
-291.077275
 30
0.0
 11
160.550777
 21
-291.077275
 31
0.0
  0
LINE
  5
2FE
100
AcDbEntity
  8
2
370
    50
100
AcDbLine
 10
143.350777
 20
-294.077275
 30
0.0
 11
147.650777
 21
-294.077275
 31
0.0
  0
LINE
  5
2FF
100
AcDbEntity
  8
2
370
    50
100
AcDbLine
 10
155.650777
 20
-294.077275
 30
0.0
 11
159.950777
 21
-294.077275
 31
0.0
  0
ARC
  5
300
100
AcDbEntity
  8
2
370
    50
100
AcDbCircle
 10
148.650777
 20
-286.077275
 30
0.0
 40
1.0
100
AcDbArc
 50
90.0
 51
180.0
  0
ARC
  5
301
100
AcDbEntity
  8
2
370
    50
100
AcDbCircle
 10
154.650777
 20
-286.077275
 30
0.0
 40
1.0
100
AcDbArc
 50
0.0
 51
90.0
  0
ARC
  5
302
100
AcDbEntity
  8
2
370
    50
100
AcDbCircle
 10
154.650777
 20
-296.077275
 30
0.0
 40
1.0
100
AcDbArc
 50
270.0
 51
0.0
  0
ARC
  5
303
100
AcDbEntity
  8
2
370
    50
100
AcDbCircle
 10
148.650777
 20
-296.077275
 30
0.0
 40
1.0
100
AcDbArc
 50
180.0
 51
270.0
  0
LINE
  5
304
100
AcDbEntity
  8
2
370
    50
100
AcDbLine
 10
159.950777
 20
-285.077275
 30
0.0
 11
159.950777
 21
-288.077275
 31
0.0
  0
LINE
  5
305
100
AcDbEntity
  8
2
370
    50
100
AcDbLine
 10
143.350777
 20
-285.077275
 30
0.0
 11
143.350777
 21
-288.077275
 31
0.0
  0
LINE
  5
306
100
AcDbEntity
  8
2
370
    50
100
AcDbLine
 10
143.350777
 20
-294.077275
 30
0.0
 11
143.350777
 21
-297.077275
 31
0.0
  0
LINE
  5
307
100
AcDbEntity
  8
2
370
    50
100
AcDbLine
 10
159.950777
 20
-294.077275
 30
0.0
 11
159.950777
 21
-297.077275
 31
0.0
  0
LINE
  5
308
100
AcDbEntity
  8
2
370
    50
100
AcDbLine
 10
159.150777
 20
-288.477275
 30
0.0
 11
159.150777
 21
-288.077275
 31
0.0
  0
LINE
  5
309
100
AcDbEntity
  8
2
370
    50
100
AcDbLine
 10
144.150777
 20
-288.477275
 30
0.0
 11
144.150777
 21
-288.077275
 31
0.0
  0
LINE
  5
30A
100
AcDbEntity
  8
2
370
    25
100
AcDbLine
 10
156.650777
 20
-296.777858
 30
0.0
 11
156.650777
 21
-294.472637
 31
0.0
  0
LINE
  5
30B
100
AcDbEntity
  8
2
370
    25
100
AcDbLine
 10
156.650777
 20
-287.816089
 30
0.0
 11
156.650777
 21
-285.383884
 31
0.0
  0
LINE
  5
30C
100
AcDbEntity
  8
2
370
    25
100
AcDbLine
 10
146.650777
 20
-296.777858
 30
0.0
 11
146.650777
 21
-294.472637
 31
0.0
  0
LINE
  5
30D
100
AcDbEntity
  8
2
370
    25
100
AcDbLine
 10
146.650777
 20
-287.77341
 30
0.0
 11
146.650777
 21
-285.304363
 31
0.0
  0
LINE
  5
30E
100
AcDbEntity
  8
2
370
    50
100
AcDbLine
 10
160.450777
 20
-296.077275
 30
0.0
 11
160.450777
 21
-293.477275
 31
0.0
  0
LINE
  5
30F
100
AcDbEntity
  8
2
370
    50
100
AcDbLine
 10
160.450777
 20
-288.577275
 30
0.0
 11
160.450777
 21
-284.077275
 31
0.0
  0
LINE
  5
310
100
AcDbEntity
  8
2
370
    50
100
AcDbLine
 10
142.850777
 20
-296.077275
 30
0.0
 11
142.850777
 21
-293.477275
 31
0.0
  0
LINE
  5
311
100
AcDbEntity
  8
2
370
    50
100
AcDbLine
 10
142.850777
 20
-288.577275
 30
0.0
 11
142.850777
 21
-284.077275
 31
0.0
  0
ARC
  5
312
100
AcDbEntity
  8
2
370
    50
100
AcDbCircle
 10
159.450777
 20
-284.077275
 30
0.0
 40
1.0
100
AcDbArc
 50
0.0
 51
90.0
  0
ARC
  5
313
100
AcDbEntity
  8
2
370
    50
100
AcDbCircle
 10
143.850777
 20
-284.077275
 30
0.0
 40
1.0
100
AcDbArc
 50
90.0
 51
180.0
  0
ARC
  5
314
100
AcDbEntity
  8
2
370
    50
100
AcDbCircle
 10
161.450777
 20
-296.077275
 30
0.0
 40
1.0
100
AcDbArc
 50
180.0
 51
270.0
  0
ARC
  5
315
100
AcDbEntity
  8
2
370
    50
100
AcDbCircle
 10
141.850777
 20
-296.077275
 30
0.0
 40
1.0
100
AcDbArc
 50
270.0
 51
360.0
  0
LINE
  5
316
100
AcDbEntity
  8
2
370
    50
100
AcDbLine
 10
144.150777
 20
-283.777275
 30
0.0
 11
144.150777
 21
-285.076653
 31
0.0
  0
ARC
  5
317
100
AcDbEntity
  8
2
370
    50
100
AcDbCircle
 10
143.850777
 20
-284.077275
 30
0.0
 40
1.0
100
AcDbArc
 50
90.0
 51
180.0
  0
LINE
  5
318
100
AcDbEntity
  8
2
370
    50
100
AcDbLine
 10
144.150777
 20
-283.777275
 30
0.0
 11
144.650777
 21
-283.277275
 31
0.0
  0
LINE
  5
319
100
AcDbEntity
  8
2
370
    50
100
AcDbLine
 10
142.650777
 20
-291.477275
 30
0.0
 11
142.650777
 21
-293.277275
 31
0.0
  0
LINE
  5
31A
100
AcDbEntity
  8
2
370
    50
100
AcDbLine
 10
160.650777
 20
-291.477275
 30
0.0
 11
160.650777
 21
-293.277275
 31
0.0
  0
LINE
  5
31B
100
AcDbEntity
  8
2
370
    50
100
AcDbLine
 10
142.850777
 20
-291.277275
 30
0.0
 11
142.650777
 21
-291.477275
 31
0.0
  0
LINE
  5
31C
100
AcDbEntity
  8
2
370
    50
100
AcDbLine
 10
142.650777
 20
-293.277275
 30
0.0
 11
142.850777
 21
-293.477275
 31
0.0
  0
LINE
  5
31D
100
AcDbEntity
  8
2
370
    50
100
AcDbLine
 10
160.450777
 20
-291.277275
 30
0.0
 11
160.650777
 21
-291.477275
 31
0.0
  0
LINE
  5
31E
100
AcDbEntity
  8
2
370
    50
100
AcDbLine
 10
160.650777
 20
-293.277275
 30
0.0
 11
160.450777
 21
-293.477275
 31
0.0
  0
LINE
  5
31F
100
AcDbEntity
  8
2
370
    50
100
AcDbLine
 10
159.150777
 20
-297.477275
 30
0.0
 11
159.150777
 21
-297.077275
 31
0.0
  0
LINE
  5
320
100
AcDbEntity
  8
2
370
    50
100
AcDbLine
 10
159.150777
 20
-294.077275
 30
0.0
 11
159.150777
 21
-293.477275
 31
0.0
  0
LINE
  5
321
100
AcDbEntity
  8
2
370
    50
100
AcDbLine
 10
144.150777
 20
-297.477275
 30
0.0
 11
144.150777
 21
-297.077275
 31
0.0
  0
LINE
  5
322
100
AcDbEntity
  8
2
370
    50
100
AcDbLine
 10
144.150777
 20
-294.077275
 30
0.0
 11
144.150777
 21
-293.477275
 31
0.0
  0
LINE
  5
323
100
AcDbEntity
  8
2
370
    50
100
AcDbLine
 10
142.850777
 20
-293.477275
 30
0.0
 11
147.650777
 21
-293.477275
 31
0.0
  0
LINE
  5
324
100
AcDbEntity
  8
2
370
    50
100
AcDbLine
 10
155.650777
 20
-293.477275
 30
0.0
 11
160.450777
 21
-293.477275
 31
0.0
  0
LINE
  5
325
100
AcDbEntity
  8
2
370
    50
100
AcDbLine
 10
142.650777
 20
-293.277275
 30
0.0
 11
147.650777
 21
-293.277275
 31
0.0
  0
LINE
  5
326
100
AcDbEntity
  8
2
370
    50
100
AcDbLine
 10
155.650777
 20
-293.277275
 30
0.0
 11
160.650777
 21
-293.277275
 31
0.0
  0
LINE
  5
327
100
AcDbEntity
  8
2
370
    50
100
AcDbLine
 10
142.650777
 20
-291.477275
 30
0.0
 11
147.650777
 21
-291.477275
 31
0.0
  0
LINE
  5
328
100
AcDbEntity
  8
2
370
    50
100
AcDbLine
 10
155.650777
 20
-291.477275
 30
0.0
 11
160.650777
 21
-291.477275
 31
0.0
  0
LINE
  5
329
100
AcDbEntity
  8
2
370
    50
100
AcDbLine
 10
142.850777
 20
-291.277275
 30
0.0
 11
147.650777
 21
-291.277275
 31
0.0
  0
LINE
  5
32A
100
AcDbEntity
  8
2
370
    50
100
AcDbLine
 10
155.650777
 20
-291.277275
 30
0.0
 11
160.450777
 21
-291.277275
 31
0.0
  0
LINE
  5
32B
100
AcDbEntity
  8
2
370
    25
100
AcDbLine
 10
145.150917
 20
-297.076653
 30
0.0
 11
145.150917
 21
-294.076653
 31
0.0
  0
LINE
  5
32C
100
AcDbEntity
  8
2
370
    25
100
AcDbLine
 10
158.150637
 20
-288.077275
 30
0.0
 11
158.150637
 21
-285.077275
 31
0.0
  0
LINE
  5
32D
100
AcDbEntity
  8
2
370
    25
100
AcDbLine
 10
145.150917
 20
-288.077275
 30
0.0
 11
145.150917
 21
-285.077275
 31
0.0
  0
LINE
  5
32E
100
AcDbEntity
  8
2
370
    25
100
AcDbLine
 10
155.716641
 20
-248.59371
 30
0.0
 11
147.584913
 21
-240.461982
 31
0.0
  0
LINE
  5
32F
100
AcDbEntity
  8
2
370
    25
100
AcDbLine
 10
155.716641
 20
-240.461982
 30
0.0
 11
147.584913
 21
-248.59371
 31
0.0
  0
LINE
  5
330
100
AcDbEntity
  8
2
370
    25
100
AcDbLine
 10
154.947574
 20
-249.238857
 30
0.0
 11
146.939766
 21
-241.231048
 31
0.0
  0
LINE
  5
331
100
AcDbEntity
  8
2
370
    25
100
AcDbLine
 10
154.048551
 20
-249.754047
 30
0.0
 11
146.424576
 21
-242.130072
 31
0.0
  0
LINE
  5
332
100
AcDbEntity
  8
2
370
    25
100
AcDbLine
 10
152.998066
 20
-250.117776
 30
0.0
 11
146.060847
 21
-243.180557
 31
0.0
  0
LINE
  5
333
100
AcDbEntity
  8
2
370
    25
100
AcDbLine
 10
151.74318
 20
-250.277104
 30
0.0
 11
145.901519
 21
-244.435443
 31
0.0
  0
LINE
  5
334
100
AcDbEntity
  8
2
370
    25
100
AcDbLine
 10
150.12304
 20
-250.071177
 30
0.0
 11
146.107446
 21
-246.055583
 31
0.0
  0
LINE
  5
335
100
AcDbEntity
  8
2
370
    25
100
AcDbLine
 10
156.361788
 20
-247.824644
 30
0.0
 11
148.353979
 21
-239.816835
 31
0.0
  0
LINE
  5
336
100
AcDbEntity
  8
2
370
    25
100
AcDbLine
 10
156.876978
 20
-246.92562
 30
0.0
 11
149.253003
 21
-239.301645
 31
0.0
  0
LINE
  5
337
100
AcDbEntity
  8
2
370
    25
100
AcDbLine
 10
157.240706
 20
-245.875135
 30
0.0
 11
150.303488
 21
-238.937916
 31
0.0
  0
LINE
  5
338
100
AcDbEntity
  8
2
370
    25
100
AcDbLine
 10
157.400034
 20
-244.620249
 30
0.0
 11
151.558374
 21
-238.778589
 31
0.0
  0
LINE
  5
339
100
AcDbEntity
  8
2
370
    25
100
AcDbLine
 10
157.194108
 20
-243.000109
 30
0.0
 11
153.178514
 21
-238.984515
 31
0.0
  0
LINE
  5
33A
100
AcDbEntity
  8
2
370
    25
100
AcDbLine
 10
154.947574
 20
-239.816835
 30
0.0
 11
146.939766
 21
-247.824644
 31
0.0
  0
LINE
  5
33B
100
AcDbEntity
  8
2
370
    25
100
AcDbLine
 10
154.048551
 20
-239.301645
 30
0.0
 11
146.424576
 21
-246.92562
 31
0.0
  0
LINE
  5
33C
100
AcDbEntity
  8
2
370
    25
100
AcDbLine
 10
152.998066
 20
-238.937916
 30
0.0
 11
146.060847
 21
-245.875135
 31
0.0
  0
LINE
  5
33D
100
AcDbEntity
  8
2
370
    25
100
AcDbLine
 10
151.74318
 20
-238.778589
 30
0.0
 11
145.901519
 21
-244.620249
 31
0.0
  0
LINE
  5
33E
100
AcDbEntity
  8
2
370
    25
100
AcDbLine
 10
150.12304
 20
-238.984515
 30
0.0
 11
146.107446
 21
-243.000109
 31
0.0
  0
LINE
  5
33F
100
AcDbEntity
  8
2
370
    25
100
AcDbLine
 10
156.361788
 20
-241.231048
 30
0.0
 11
148.353979
 21
-249.238857
 31
0.0
  0
LINE
  5
340
100
AcDbEntity
  8
2
370
    25
100
AcDbLine
 10
156.876978
 20
-242.130072
 30
0.0
 11
149.253003
 21
-249.754047
 31
0.0
  0
LINE
  5
341
100
AcDbEntity
  8
2
370
    25
100
AcDbLine
 10
157.240706
 20
-243.180557
 30
0.0
 11
150.303488
 21
-250.117776
 31
0.0
  0
LINE
  5
342
100
AcDbEntity
  8
2
370
    25
100
AcDbLine
 10
157.400034
 20
-244.435443
 30
0.0
 11
151.558374
 21
-250.277104
 31
0.0
  0
LINE
  5
343
100
AcDbEntity
  8
2
370
    25
100
AcDbLine
 10
157.194108
 20
-246.055583
 30
0.0
 11
153.178514
 21
-250.071177
 31
0.0
  0
LINE
  5
344
100
AcDbEntity
  8
2
370
    50
100
AcDbLine
 10
137.150777
 20
-284.077275
 30
0.0
 11
137.150777
 21
-296.077275
 31
0.0
  0
ARC
  5
345
100
AcDbEntity
  8
2
370
    50
100
AcDbCircle
 10
138.150777
 20
-284.077275
 30
0.0
 40
1.0
100
AcDbArc
 50
90.0
 51
180.0
  0
ARC
  5
346
100
AcDbEntity
  8
2
370
    50
100
AcDbCircle
 10
138.150777
 20
-296.077275
 30
0.0
 40
1.0
100
AcDbArc
 50
180.0
 51
270.0
  0
LINE
  5
347
100
AcDbEntity
  8
2
370
    25
  6
CENTER
100
AcDbLine
 10
151.650777
 20
-201.275162
 30
0.0
 11
151.650777
 21
-234.021538
 31
0.0
  0
ARC
  5
348
100
AcDbEntity
  8
2
370
    50
100
AcDbCircle
 10
148.775777
 20
-226.932629
 30
0.0
 40
4.791667
100
AcDbArc
 50
233.130102
 51
306.869898
  0
ARC
  5
349
100
AcDbEntity
  8
2
370
    50
100
AcDbCircle
 10
154.525777
 20
-234.599295
 30
0.0
 40
4.791667
100
AcDbArc
 50
53.130102
 51
126.869898
  0
ARC
  5
34A
100
AcDbEntity
  8
2
370
    50
100
AcDbCircle
 10
148.775777
 20
-234.599295
 30
0.0
 40
4.791667
100
AcDbArc
 50
53.130102
 51
126.869898
  0
LINE
  5
34B
100
AcDbEntity
  8
2
370
    50
100
AcDbLine
 10
166.150777
 20
-284.077275
 30
0.0
 11
166.150777
 21
-296.077275
 31
0.0
  0
LINE
  5
34C
100
AcDbEntity
  8
2
370
    25
  6
CENTER
100
AcDbLine
 10
108.665348
 20
-249.696922
 30
0.0
 11
80.66436
 21
-201.274347
 31
0.0
  0
LINE
  5
34D
100
AcDbEntity
  8
2
370
    50
100
AcDbLine
 10
87.16436
 20
-266.276461
 30
0.0
 11
74.16436
 21
-266.276461
 31
0.0
  0
LINE
  5
34E
100
AcDbEntity
  8
2
370
    50
100
AcDbLine
 10
85.245797
 20
-280.276461
 30
0.0
 11
86.66436
 21
-280.276461
 31
0.0
  0
LINE
  5
34F
100
AcDbEntity
  8
2
370
    50
100
AcDbLine
 10
85.245797
 20
-282.776461
 30
0.0
 11
86.66436
 21
-282.776461
 31
0.0
  0
ARC
  5
350
100
AcDbEntity
  8
2
370
    50
100
AcDbCircle
 10
86.46436
 20
-283.076461
 30
0.0
 40
0.2
100
AcDbArc
 50
270.0
 51
360.0
  0
LINE
  5
351
100
AcDbEntity
  8
2
370
    50
100
AcDbLine
 10
81.16436
 20
-282.776461
 30
0.0
 11
84.53869
 21
-282.776461
 31
0.0
  0
LINE
  5
352
100
AcDbEntity
  8
2
370
    50
100
AcDbLine
 10
81.16436
 20
-280.276461
 30
0.0
 11
84.53869
 21
-280.276461
 31
0.0
  0
LINE
  5
353
100
AcDbEntity
  8
2
370
    50
100
AcDbLine
 10
76.790029
 20
-282.776461
 30
0.0
 11
80.16436
 21
-282.776461
 31
0.0
  0
LINE
  5
354
100
AcDbEntity
  8
2
370
    50
100
AcDbLine
 10
76.790029
 20
-280.276461
 30
0.0
 11
80.16436
 21
-280.276461
 31
0.0
  0
LINE
  5
355
100
AcDbEntity
  8
2
370
    50
100
AcDbLine
 10
74.66436
 20
-282.776461
 30
0.0
 11
76.082923
 21
-282.776461
 31
0.0
  0
LINE
  5
356
100
AcDbEntity
  8
2
370
    50
100
AcDbLine
 10
74.66436
 20
-280.276461
 30
0.0
 11
76.082923
 21
-280.276461
 31
0.0
  0
ARC
  5
357
100
AcDbEntity
  8
2
370
    50
100
AcDbCircle
 10
74.86436
 20
-283.076461
 30
0.0
 40
0.2
100
AcDbArc
 50
180.0
 51
270.0
  0
LINE
  5
358
100
AcDbEntity
  8
2
370
    50
100
AcDbLine
 10
74.66436
 20
-280.276461
 30
0.0
 11
74.66436
 21
-283.076461
 31
0.0
  0
LINE
  5
359
100
AcDbEntity
  8
2
370
    50
100
AcDbLine
 10
74.685229
 20
-280.276461
 30
0.0
 11
74.685229
 21
-282.776461
 31
0.0
  0
ARC
  5
35A
100
AcDbEntity
  8
2
370
    50
100
AcDbCircle
 10
76.66436
 20
-278.776461
 30
0.0
 40
2.5
100
AcDbArc
 50
180.0
 51
216.869898
  0
LINE
  5
35B
100
AcDbEntity
  8
2
370
    50
100
AcDbLine
 10
76.082923
 20
-280.276461
 30
0.0
 11
76.082923
 21
-282.776461
 31
0.0
  0
LINE
  5
35C
100
AcDbEntity
  8
2
370
    50
100
AcDbLine
 10
76.790029
 20
-280.276461
 30
0.0
 11
76.790029
 21
-282.776461
 31
0.0
  0
LINE
  5
35D
100
AcDbEntity
  8
2
370
    50
100
AcDbLine
 10
80.16436
 20
-280.276461
 30
0.0
 11
80.16436
 21
-282.776461
 31
0.0
  0
LINE
  5
35E
100
AcDbEntity
  8
2
370
    50
100
AcDbLine
 10
81.16436
 20
-280.276461
 30
0.0
 11
81.16436
 21
-282.776461
 31
0.0
  0
LINE
  5
35F
100
AcDbEntity
  8
2
370
    50
100
AcDbLine
 10
85.245797
 20
-280.276461
 30
0.0
 11
85.245797
 21
-282.776461
 31
0.0
  0
LINE
  5
360
100
AcDbEntity
  8
2
370
    50
100
AcDbLine
 10
84.53869
 20
-280.276461
 30
0.0
 11
84.53869
 21
-282.776461
 31
0.0
  0
LINE
  5
361
100
AcDbEntity
  8
2
370
    50
100
AcDbLine
 10
86.66436
 20
-280.276461
 30
0.0
 11
86.66436
 21
-283.076461
 31
0.0
  0
LINE
  5
362
100
AcDbEntity
  8
2
370
    50
100
AcDbLine
 10
86.64349
 20
-280.276461
 30
0.0
 11
86.64349
 21
-282.776461
 31
0.0
  0
ARC
  5
363
100
AcDbEntity
  8
2
370
    50
100
AcDbCircle
 10
84.66436
 20
-278.776461
 30
0.0
 40
2.5
100
AcDbArc
 50
323.130102
 51
360.0
  0
LINE
  5
364
100
AcDbEntity
  8
2
370
    50
100
AcDbLine
 10
87.16436
 20
-266.276461
 30
0.0
 11
87.16436
 21
-278.776461
 31
0.0
  0
LINE
  5
365
100
AcDbEntity
  8
2
370
    50
100
AcDbLine
 10
74.16436
 20
-266.276461
 30
0.0
 11
74.16436
 21
-278.776461
 31
0.0
  0
LINE
  5
366
100
AcDbEntity
  8
2
370
    50
100
AcDbLine
 10
73.66436
 20
-283.276461
 30
0.0
 11
87.66436
 21
-283.276461
 31
0.0
  0
LINE
  5
367
100
AcDbEntity
  8
2
370
    50
100
AcDbLine
 10
73.16436
 20
-283.776461
 30
0.0
 11
73.66436
 21
-283.276461
 31
0.0
  0
LINE
  5
368
100
AcDbEntity
  8
2
370
    50
100
AcDbLine
 10
86.41436
 20
-266.276461
 30
0.0
 11
86.41436
 21
-230.784602
 31
0.0
  0
LINE
  5
369
100
AcDbEntity
  8
2
370
    50
100
AcDbLine
 10
74.91436
 20
-266.276461
 30
0.0
 11
74.91436
 21
-230.932662
 31
0.0
  0
LINE
  5
36A
100
AcDbEntity
  8
2
370
    25
100
AcDbLine
 10
74.164499
 20
-297.075838
 30
0.0
 11
74.164499
 21
-294.075838
 31
0.0
  0
LINE
  5
36B
100
AcDbEntity
  8
2
370
    50
100
AcDbLine
 10
71.76436
 20
-288.677096
 30
0.0
 11
71.76436
 21
-291.077096
 31
0.0
  0
LINE
  5
36C
100
AcDbEntity
  8
2
370
    50
100
AcDbLine
 10
71.96436
 20
-288.477096
 30
0.0
 11
71.76436
 21
-288.677096
 31
0.0
  0
LINE
  5
36D
100
AcDbEntity
  8
2
370
    50
100
AcDbLine
 10
71.96436
 20
-291.277096
 30
0.0
 11
71.76436
 21
-291.077096
 31
0.0
  0
LINE
  5
36E
100
AcDbEntity
  8
2
370
    50
100
AcDbLine
 10
73.16436
 20
-288.477096
 30
0.0
 11
73.16436
 21
-288.075838
 31
0.0
  0
LINE
  5
36F
100
AcDbEntity
  8
2
370
    50
100
AcDbLine
 10
73.16436
 20
-283.776461
 30
0.0
 11
73.16436
 21
-285.075838
 31
0.0
  0
LINE
  5
370
100
AcDbEntity
  8
2
370
    50
100
AcDbLine
 10
89.56436
 20
-288.676461
 30
0.0
 11
89.56436
 21
-291.076461
 31
0.0
  0
LINE
  5
371
100
AcDbEntity
  8
2
370
    50
100
AcDbLine
 10
71.76436
 20
-288.676461
 30
0.0
 11
71.76436
 21
-291.076461
 31
0.0
  0
LINE
  5
372
100
AcDbEntity
  8
2
370
    50
100
AcDbLine
 10
71.96436
 20
-288.476461
 30
0.0
 11
71.76436
 21
-288.676461
 31
0.0
  0
LINE
  5
373
100
AcDbEntity
  8
2
370
    50
100
AcDbLine
 10
89.36436
 20
-288.476461
 30
0.0
 11
89.56436
 21
-288.676461
 31
0.0
  0
LINE
  5
374
100
AcDbEntity
  8
2
370
    50
100
AcDbLine
 10
89.36436
 20
-291.276461
 30
0.0
 11
89.56436
 21
-291.076461
 31
0.0
  0
LINE
  5
375
100
AcDbEntity
  8
2
370
    50
100
AcDbLine
 10
89.66436
 20
-297.076461
 30
0.0
 11
71.66436
 21
-297.076461
 31
0.0
  0
LINE
  5
376
100
AcDbEntity
  8
2
370
    50
100
AcDbLine
 10
88.96436
 20
-285.076461
 30
0.0
 11
72.36436
 21
-285.076461
 31
0.0
  0
LINE
  5
377
100
AcDbEntity
  8
2
370
    50
100
AcDbLine
 10
76.66436
 20
-286.076461
 30
0.0
 11
76.66436
 21
-296.076461
 31
0.0
  0
LINE
  5
378
100
AcDbEntity
  8
2
370
    50
100
AcDbLine
 10
84.66436
 20
-286.076461
 30
0.0
 11
84.66436
 21
-296.076461
 31
0.0
  0
ARC
  5
379
100
AcDbEntity
  8
2
370
    50
100
AcDbCircle
 10
67.16436
 20
-284.076461
 30
0.0
 40
1.0
100
AcDbArc
 50
90.0
 51
180.0
  0
ARC
  5
37A
100
AcDbEntity
  8
2
370
    50
100
AcDbCircle
 10
67.16436
 20
-296.076461
 30
0.0
 40
1.0
100
AcDbArc
 50
180.0
 51
270.0
  0
LINE
  5
37B
100
AcDbEntity
  8
2
370
    50
100
AcDbLine
 10
67.16436
 20
-283.076461
 30
0.0
 11
74.66436
 21
-283.076461
 31
0.0
  0
LINE
  5
37C
100
AcDbEntity
  8
2
370
    50
100
AcDbLine
 10
86.66436
 20
-283.076461
 30
0.0
 11
94.16436
 21
-283.076461
 31
0.0
  0
LINE
  5
37D
100
AcDbEntity
  8
2
370
    50
100
AcDbLine
 10
67.16436
 20
-297.076461
 30
0.0
 11
73.16436
 21
-297.076461
 31
0.0
  0
LINE
  5
37E
100
AcDbEntity
  8
2
370
    50
100
AcDbLine
 10
88.96436
 20
-297.076461
 30
0.0
 11
94.16436
 21
-297.076461
 31
0.0
  0
LINE
  5
37F
100
AcDbEntity
  8
2
370
    50
100
AcDbLine
 10
88.96436
 20
-288.076461
 30
0.0
 11
84.66436
 21
-288.076461
 31
0.0
  0
LINE
  5
380
100
AcDbEntity
  8
2
370
    50
100
AcDbLine
 10
76.66436
 20
-288.076461
 30
0.0
 11
72.36436
 21
-288.076461
 31
0.0
  0
LINE
  5
381
100
AcDbEntity
  8
2
370
    50
100
AcDbLine
 10
89.36436
 20
-288.476461
 30
0.0
 11
84.66436
 21
-288.476461
 31
0.0
  0
LINE
  5
382
100
AcDbEntity
  8
2
370
    50
100
AcDbLine
 10
76.66436
 20
-288.476461
 30
0.0
 11
71.96436
 21
-288.476461
 31
0.0
  0
LINE
  5
383
100
AcDbEntity
  8
2
370
    50
100
AcDbLine
 10
89.56436
 20
-288.676461
 30
0.0
 11
84.66436
 21
-288.676461
 31
0.0
  0
LINE
  5
384
100
AcDbEntity
  8
2
370
    50
100
AcDbLine
 10
76.66436
 20
-288.676461
 30
0.0
 11
71.76436
 21
-288.676461
 31
0.0
  0
LINE
  5
385
100
AcDbEntity
  8
2
370
    50
100
AcDbLine
 10
89.56436
 20
-291.076461
 30
0.0
 11
84.66436
 21
-291.076461
 31
0.0
  0
LINE
  5
386
100
AcDbEntity
  8
2
370
    50
100
AcDbLine
 10
76.66436
 20
-291.076461
 30
0.0
 11
71.76436
 21
-291.076461
 31
0.0
  0
LINE
  5
387
100
AcDbEntity
  8
2
370
    50
100
AcDbLine
 10
88.96436
 20
-294.076461
 30
0.0
 11
84.66436
 21
-294.076461
 31
0.0
  0
LINE
  5
388
100
AcDbEntity
  8
2
370
    50
100
AcDbLine
 10
76.66436
 20
-294.076461
 30
0.0
 11
72.36436
 21
-294.076461
 31
0.0
  0
ARC
  5
389
100
AcDbEntity
  8
2
370
    50
100
AcDbCircle
 10
83.66436
 20
-286.076461
 30
0.0
 40
1.0
100
AcDbArc
 50
0.0
 51
90.0
  0
ARC
  5
38A
100
AcDbEntity
  8
2
370
    50
100
AcDbCircle
 10
77.66436
 20
-286.076461
 30
0.0
 40
1.0
100
AcDbArc
 50
90.0
 51
180.0
  0
ARC
  5
38B
100
AcDbEntity
  8
2
370
    50
100
AcDbCircle
 10
77.66436
 20
-296.076461
 30
0.0
 40
1.0
100
AcDbArc
 50
180.0
 51
270.0
  0
ARC
  5
38C
100
AcDbEntity
  8
2
370
    50
100
AcDbCircle
 10
83.66436
 20
-296.076461
 30
0.0
 40
1.0
100
AcDbArc
 50
270.0
 51
0.0
  0
LINE
  5
38D
100
AcDbEntity
  8
2
370
    50
100
AcDbLine
 10
72.36436
 20
-285.076461
 30
0.0
 11
72.36436
 21
-288.076461
 31
0.0
  0
LINE
  5
38E
100
AcDbEntity
  8
2
370
    50
100
AcDbLine
 10
88.96436
 20
-285.076461
 30
0.0
 11
88.96436
 21
-288.076461
 31
0.0
  0
LINE
  5
38F
100
AcDbEntity
  8
2
370
    50
100
AcDbLine
 10
88.96436
 20
-294.076461
 30
0.0
 11
88.96436
 21
-297.076461
 31
0.0
  0
LINE
  5
390
100
AcDbEntity
  8
2
370
    50
100
AcDbLine
 10
72.36436
 20
-294.076461
 30
0.0
 11
72.36436
 21
-297.076461
 31
0.0
  0
LINE
  5
391
100
AcDbEntity
  8
2
370
    50
100
AcDbLine
 10
73.16436
 20
-288.476461
 30
0.0
 11
73.16436
 21
-288.076461
 31
0.0
  0
LINE
  5
392
100
AcDbEntity
  8
2
370
    50
100
AcDbLine
 10
88.16436
 20
-288.476461
 30
0.0
 11
88.16436
 21
-288.076461
 31
0.0
  0
LINE
  5
393
100
AcDbEntity
  8
2
370
    25
100
AcDbLine
 10
75.66436
 20
-296.777044
 30
0.0
 11
75.66436
 21
-294.471822
 31
0.0
  0
LINE
  5
394
100
AcDbEntity
  8
2
370
    25
100
AcDbLine
 10
75.664359
 20
-287.815274
 30
0.0
 11
75.66436
 21
-285.383069
 31
0.0
  0
LINE
  5
395
100
AcDbEntity
  8
2
370
    25
100
AcDbLine
 10
85.66436
 20
-296.777044
 30
0.0
 11
85.66436
 21
-294.471822
 31
0.0
  0
LINE
  5
396
100
AcDbEntity
  8
2
370
    25
100
AcDbLine
 10
85.66436
 20
-287.772596
 30
0.0
 11
85.66436
 21
-285.303548
 31
0.0
  0
LINE
  5
397
100
AcDbEntity
  8
2
370
    50
100
AcDbLine
 10
71.86436
 20
-296.076461
 30
0.0
 11
71.86436
 21
-293.476461
 31
0.0
  0
LINE
  5
398
100
AcDbEntity
  8
2
370
    50
100
AcDbLine
 10
71.86436
 20
-288.576461
 30
0.0
 11
71.86436
 21
-284.076461
 31
0.0
  0
LINE
  5
399
100
AcDbEntity
  8
2
370
    50
100
AcDbLine
 10
89.46436
 20
-296.076461
 30
0.0
 11
89.46436
 21
-293.476461
 31
0.0
  0
LINE
  5
39A
100
AcDbEntity
  8
2
370
    50
100
AcDbLine
 10
89.46436
 20
-288.576461
 30
0.0
 11
89.46436
 21
-284.076461
 31
0.0
  0
ARC
  5
39B
100
AcDbEntity
  8
2
370
    50
100
AcDbCircle
 10
72.86436
 20
-284.076461
 30
0.0
 40
1.0
100
AcDbArc
 50
90.0
 51
180.0
  0
ARC
  5
39C
100
AcDbEntity
  8
2
370
    50
100
AcDbCircle
 10
88.46436
 20
-284.076461
 30
0.0
 40
1.0
100
AcDbArc
 50
0.0
 51
90.0
  0
ARC
  5
39D
100
AcDbEntity
  8
2
370
    50
100
AcDbCircle
 10
70.86436
 20
-296.076461
 30
0.0
 40
1.0
100
AcDbArc
 50
270.0
 51
0.0
  0
ARC
  5
39E
100
AcDbEntity
  8
2
370
    50
100
AcDbCircle
 10
90.46436
 20
-296.076461
 30
0.0
 40
1.0
100
AcDbArc
 50
180.0
 51
270.0
  0
LINE
  5
39F
100
AcDbEntity
  8
2
370
    50
100
AcDbLine
 10
88.16436
 20
-283.776461
 30
0.0
 11
88.16436
 21
-285.075838
 31
0.0
  0
ARC
  5
3A0
100
AcDbEntity
  8
2
370
    50
100
AcDbCircle
 10
88.46436
 20
-284.076461
 30
0.0
 40
1.0
100
AcDbArc
 50
0.0
 51
90.0
  0
LINE
  5
3A1
100
AcDbEntity
  8
2
370
    50
100
AcDbLine
 10
88.16436
 20
-283.776461
 30
0.0
 11
87.66436
 21
-283.276461
 31
0.0
  0
LINE
  5
3A2
100
AcDbEntity
  8
2
370
    50
100
AcDbLine
 10
89.66436
 20
-291.476461
 30
0.0
 11
89.66436
 21
-293.276461
 31
0.0
  0
LINE
  5
3A3
100
AcDbEntity
  8
2
370
    50
100
AcDbLine
 10
71.66436
 20
-291.476461
 30
0.0
 11
71.66436
 21
-293.276461
 31
0.0
  0
LINE
  5
3A4
100
AcDbEntity
  8
2
370
    50
100
AcDbLine
 10
89.46436
 20
-291.276461
 30
0.0
 11
89.66436
 21
-291.476461
 31
0.0
  0
LINE
  5
3A5
100
AcDbEntity
  8
2
370
    50
100
AcDbLine
 10
89.66436
 20
-293.276461
 30
0.0
 11
89.46436
 21
-293.476461
 31
0.0
  0
LINE
  5
3A6
100
AcDbEntity
  8
2
370
    50
100
AcDbLine
 10
71.86436
 20
-291.276461
 30
0.0
 11
71.66436
 21
-291.476461
 31
0.0
  0
LINE
  5
3A7
100
AcDbEntity
  8
2
370
    50
100
AcDbLine
 10
71.66436
 20
-293.276461
 30
0.0
 11
71.86436
 21
-293.476461
 31
0.0
  0
LINE
  5
3A8
100
AcDbEntity
  8
2
370
    50
100
AcDbLine
 10
73.16436
 20
-297.476461
 30
0.0
 11
73.16436
 21
-297.076461
 31
0.0
  0
LINE
  5
3A9
100
AcDbEntity
  8
2
370
    50
100
AcDbLine
 10
73.16436
 20
-294.076461
 30
0.0
 11
73.16436
 21
-293.476461
 31
0.0
  0
LINE
  5
3AA
100
AcDbEntity
  8
2
370
    50
100
AcDbLine
 10
88.16436
 20
-297.476461
 30
0.0
 11
88.16436
 21
-297.076461
 31
0.0
  0
LINE
  5
3AB
100
AcDbEntity
  8
2
370
    50
100
AcDbLine
 10
88.16436
 20
-294.076461
 30
0.0
 11
88.16436
 21
-293.476461
 31
0.0
  0
LINE
  5
3AC
100
AcDbEntity
  8
2
370
    50
100
AcDbLine
 10
89.46436
 20
-293.476461
 30
0.0
 11
84.66436
 21
-293.476461
 31
0.0
  0
LINE
  5
3AD
100
AcDbEntity
  8
2
370
    50
100
AcDbLine
 10
76.66436
 20
-293.476461
 30
0.0
 11
71.86436
 21
-293.476461
 31
0.0
  0
LINE
  5
3AE
100
AcDbEntity
  8
2
370
    50
100
AcDbLine
 10
89.66436
 20
-293.276461
 30
0.0
 11
84.66436
 21
-293.276461
 31
0.0
  0
LINE
  5
3AF
100
AcDbEntity
  8
2
370
    50
100
AcDbLine
 10
76.66436
 20
-293.276461
 30
0.0
 11
71.66436
 21
-293.276461
 31
0.0
  0
LINE
  5
3B0
100
AcDbEntity
  8
2
370
    50
100
AcDbLine
 10
89.66436
 20
-291.476461
 30
0.0
 11
84.66436
 21
-291.476461
 31
0.0
  0
LINE
  5
3B1
100
AcDbEntity
  8
2
370
    50
100
AcDbLine
 10
76.66436
 20
-291.476461
 30
0.0
 11
71.66436
 21
-291.476461
 31
0.0
  0
LINE
  5
3B2
100
AcDbEntity
  8
2
370
    50
100
AcDbLine
 10
89.46436
 20
-291.276461
 30
0.0
 11
84.66436
 21
-291.276461
 31
0.0
  0
LINE
  5
3B3
100
AcDbEntity
  8
2
370
    50
100
AcDbLine
 10
76.66436
 20
-291.276461
 30
0.0
 11
71.86436
 21
-291.276461
 31
0.0
  0
LINE
  5
3B4
100
AcDbEntity
  8
2
370
    25
100
AcDbLine
 10
87.16422
 20
-297.075838
 30
0.0
 11
87.16422
 21
-294.075838
 31
0.0
  0
LINE
  5
3B5
100
AcDbEntity
  8
2
370
    25
100
AcDbLine
 10
74.164499
 20
-288.076461
 30
0.0
 11
74.164499
 21
-285.076461
 31
0.0
  0
LINE
  5
3B6
100
AcDbEntity
  8
2
370
    25
100
AcDbLine
 10
87.16422
 20
-288.076461
 30
0.0
 11
87.16422
 21
-285.076461
 31
0.0
  0
LINE
  5
3B7
100
AcDbEntity
  8
2
370
    25
100
AcDbLine
 10
76.598496
 20
-248.592895
 30
0.0
 11
84.730224
 21
-240.461167
 31
0.0
  0
LINE
  5
3B8
100
AcDbEntity
  8
2
370
    25
100
AcDbLine
 10
76.598496
 20
-240.461167
 30
0.0
 11
84.730224
 21
-248.592895
 31
0.0
  0
LINE
  5
3B9
100
AcDbEntity
  8
2
370
    25
100
AcDbLine
 10
77.367562
 20
-249.238042
 30
0.0
 11
85.375371
 21
-241.230234
 31
0.0
  0
LINE
  5
3BA
100
AcDbEntity
  8
2
370
    25
100
AcDbLine
 10
78.266586
 20
-249.753233
 30
0.0
 11
85.890561
 21
-242.129257
 31
0.0
  0
LINE
  5
3BB
100
AcDbEntity
  8
2
370
    25
100
AcDbLine
 10
79.317071
 20
-250.116961
 30
0.0
 11
86.254289
 21
-243.179742
 31
0.0
  0
LINE
  5
3BC
100
AcDbEntity
  8
2
370
    25
100
AcDbLine
 10
80.571956
 20
-250.276289
 30
0.0
 11
86.413617
 21
-244.434628
 31
0.0
  0
LINE
  5
3BD
100
AcDbEntity
  8
2
370
    25
100
AcDbLine
 10
82.192096
 20
-250.070363
 30
0.0
 11
86.207691
 21
-246.054768
 31
0.0
  0
LINE
  5
3BE
100
AcDbEntity
  8
2
370
    25
100
AcDbLine
 10
75.953349
 20
-247.823829
 30
0.0
 11
83.961157
 21
-239.81602
 31
0.0
  0
LINE
  5
3BF
100
AcDbEntity
  8
2
370
    25
100
AcDbLine
 10
75.438158
 20
-246.924805
 30
0.0
 11
83.062134
 21
-239.30083
 31
0.0
  0
LINE
  5
3C0
100
AcDbEntity
  8
2
370
    25
100
AcDbLine
 10
75.07443
 20
-245.87432
 30
0.0
 11
82.011649
 21
-238.937102
 31
0.0
  0
LINE
  5
3C1
100
AcDbEntity
  8
2
370
    25
100
AcDbLine
 10
74.915102
 20
-244.619435
 30
0.0
 11
80.756763
 21
-238.777774
 31
0.0
  0
LINE
  5
3C2
100
AcDbEntity
  8
2
370
    25
100
AcDbLine
 10
75.121028
 20
-242.999295
 30
0.0
 11
79.136623
 21
-238.9837
 31
0.0
  0
LINE
  5
3C3
100
AcDbEntity
  8
2
370
    25
100
AcDbLine
 10
77.367562
 20
-239.81602
 30
0.0
 11
85.375371
 21
-247.823829
 31
0.0
  0
LINE
  5
3C4
100
AcDbEntity
  8
2
370
    25
100
AcDbLine
 10
78.266586
 20
-239.30083
 30
0.0
 11
85.890561
 21
-246.924805
 31
0.0
  0
LINE
  5
3C5
100
AcDbEntity
  8
2
370
    25
100
AcDbLine
 10
79.317071
 20
-238.937102
 30
0.0
 11
86.254289
 21
-245.87432
 31
0.0
  0
LINE
  5
3C6
100
AcDbEntity
  8
2
370
    25
100
AcDbLine
 10
80.571956
 20
-238.777774
 30
0.0
 11
86.413617
 21
-244.619435
 31
0.0
  0
LINE
  5
3C7
100
AcDbEntity
  8
2
370
    25
100
AcDbLine
 10
82.192096
 20
-238.9837
 30
0.0
 11
86.207691
 21
-242.999295
 31
0.0
  0
LINE
  5
3C8
100
AcDbEntity
  8
2
370
    25
100
AcDbLine
 10
75.953349
 20
-241.230234
 30
0.0
 11
83.961157
 21
-249.238042
 31
0.0
  0
LINE
  5
3C9
100
AcDbEntity
  8
2
370
    25
100
AcDbLine
 10
75.438158
 20
-242.129257
 30
0.0
 11
83.062134
 21
-249.753233
 31
0.0
  0
LINE
  5
3CA
100
AcDbEntity
  8
2
370
    25
100
AcDbLine
 10
75.07443
 20
-243.179742
 30
0.0
 11
82.011649
 21
-250.116961
 31
0.0
  0
LINE
  5
3CB
100
AcDbEntity
  8
2
370
    25
100
AcDbLine
 10
74.915102
 20
-244.434628
 30
0.0
 11
80.756763
 21
-250.276289
 31
0.0
  0
LINE
  5
3CC
100
AcDbEntity
  8
2
370
    25
100
AcDbLine
 10
75.121028
 20
-246.054768
 30
0.0
 11
79.136623
 21
-250.070363
 31
0.0
  0
LINE
  5
3CD
100
AcDbEntity
  8
2
370
    50
100
AcDbLine
 10
95.16436
 20
-284.076461
 30
0.0
 11
95.16436
 21
-296.076461
 31
0.0
  0
ARC
  5
3CE
100
AcDbEntity
  8
2
370
    50
100
AcDbCircle
 10
94.16436
 20
-284.076461
 30
0.0
 40
1.0
100
AcDbArc
 50
0.0
 51
90.0
  0
ARC
  5
3CF
100
AcDbEntity
  8
2
370
    50
100
AcDbCircle
 10
94.16436
 20
-296.076461
 30
0.0
 40
1.0
100
AcDbArc
 50
270.0
 51
360.0
  0
LINE
  5
3D0
100
AcDbEntity
  8
2
370
    25
  6
CENTER
100
AcDbLine
 10
80.66436
 20
-201.274347
 30
0.0
 11
80.66436
 21
-234.021538
 31
0.0
  0
ARC
  5
3D1
100
AcDbEntity
  8
2
370
    50
100
AcDbCircle
 10
77.78936
 20
-226.931814
 30
0.0
 40
4.791667
100
AcDbArc
 50
233.130102
 51
306.869898
  0
ARC
  5
3D2
100
AcDbEntity
  8
2
370
    50
100
AcDbCircle
 10
83.53936
 20
-234.598481
 30
0.0
 40
4.791667
100
AcDbArc
 50
53.130102
 51
126.869898
  0
ARC
  5
3D3
100
AcDbEntity
  8
2
370
    50
100
AcDbCircle
 10
77.78936
 20
-234.598481
 30
0.0
 40
4.791667
100
AcDbArc
 50
53.130102
 51
126.869898
  0
LINE
  5
3D4
100
AcDbEntity
  8
2
370
    50
100
AcDbLine
 10
66.16436
 20
-284.076461
 30
0.0
 11
66.16436
 21
-296.076461
 31
0.0
  0
LINE
  5
3D5
100
AcDbEntity
  8
2
370
    25
100
AcDbLine
 10
156.586906
 20
-278.777275
 30
0.0
 11
156.586906
 21
-277.527275
 31
0.0
  0
LINE
  5
3D6
100
AcDbEntity
  8
2
370
    25
100
AcDbLine
 10
156.586906
 20
-267.527275
 30
0.0
 11
156.586906
 21
-266.277275
 31
0.0
  0
LINE
  5
3D7
100
AcDbEntity
  8
2
370
    25
100
AcDbLine
 10
155.879799
 20
-278.777275
 30
0.0
 11
155.879799
 21
-277.527275
 31
0.0
  0
LINE
  5
3D8
100
AcDbEntity
  8
2
370
    25
100
AcDbLine
 10
155.879799
 20
-267.527275
 30
0.0
 11
155.879799
 21
-266.277275
 31
0.0
  0
LINE
  5
3D9
100
AcDbEntity
  8
2
370
    25
100
AcDbLine
 10
152.150777
 20
-278.777275
 30
0.0
 11
152.150777
 21
-277.527275
 31
0.0
  0
LINE
  5
3DA
100
AcDbEntity
  8
2
370
    25
100
AcDbLine
 10
152.150777
 20
-267.527275
 30
0.0
 11
152.150777
 21
-266.277275
 31
0.0
  0
LINE
  5
3DB
100
AcDbEntity
  8
2
370
    25
100
AcDbLine
 10
151.150777
 20
-278.777275
 30
0.0
 11
151.150777
 21
-277.527275
 31
0.0
  0
LINE
  5
3DC
100
AcDbEntity
  8
2
370
    25
100
AcDbLine
 10
151.150777
 20
-267.527275
 30
0.0
 11
151.150777
 21
-266.277275
 31
0.0
  0
LINE
  5
3DD
100
AcDbEntity
  8
2
370
    25
100
AcDbLine
 10
147.421755
 20
-278.777275
 30
0.0
 11
147.421755
 21
-277.527275
 31
0.0
  0
LINE
  5
3DE
100
AcDbEntity
  8
2
370
    25
100
AcDbLine
 10
147.421755
 20
-267.527275
 30
0.0
 11
147.421755
 21
-266.277275
 31
0.0
  0
LINE
  5
3DF
100
AcDbEntity
  8
2
370
    25
100
AcDbLine
 10
146.714648
 20
-278.777275
 30
0.0
 11
146.714648
 21
-277.527275
 31
0.0
  0
LINE
  5
3E0
100
AcDbEntity
  8
2
370
    25
100
AcDbLine
 10
146.714648
 20
-267.527275
 30
0.0
 11
146.714648
 21
-266.277275
 31
0.0
  0
LINE
  5
3E1
100
AcDbEntity
  8
2
370
    25
100
AcDbLine
 10
85.600489
 20
-278.776461
 30
0.0
 11
85.600489
 21
-277.526461
 31
0.0
  0
LINE
  5
3E2
100
AcDbEntity
  8
2
370
    25
100
AcDbLine
 10
85.600489
 20
-267.526461
 30
0.0
 11
85.600489
 21
-266.276461
 31
0.0
  0
LINE
  5
3E3
100
AcDbEntity
  8
2
370
    25
100
AcDbLine
 10
84.893382
 20
-278.776461
 30
0.0
 11
84.893382
 21
-277.526461
 31
0.0
  0
LINE
  5
3E4
100
AcDbEntity
  8
2
370
    25
100
AcDbLine
 10
84.893382
 20
-267.526461
 30
0.0
 11
84.893382
 21
-266.276461
 31
0.0
  0
LINE
  5
3E5
100
AcDbEntity
  8
2
370
    25
100
AcDbLine
 10
81.16436
 20
-278.776461
 30
0.0
 11
81.16436
 21
-277.526461
 31
0.0
  0
LINE
  5
3E6
100
AcDbEntity
  8
2
370
    25
100
AcDbLine
 10
81.16436
 20
-267.526461
 30
0.0
 11
81.16436
 21
-266.276461
 31
0.0
  0
LINE
  5
3E7
100
AcDbEntity
  8
2
370
    25
100
AcDbLine
 10
80.16436
 20
-278.776461
 30
0.0
 11
80.16436
 21
-277.526461
 31
0.0
  0
LINE
  5
3E8
100
AcDbEntity
  8
2
370
    25
100
AcDbLine
 10
80.16436
 20
-267.526461
 30
0.0
 11
80.16436
 21
-266.276461
 31
0.0
  0
LINE
  5
3E9
100
AcDbEntity
  8
2
370
    25
100
AcDbLine
 10
76.435337
 20
-278.776461
 30
0.0
 11
76.435337
 21
-277.526461
 31
0.0
  0
LINE
  5
3EA
100
AcDbEntity
  8
2
370
    25
100
AcDbLine
 10
76.435337
 20
-267.526461
 30
0.0
 11
76.435337
 21
-266.276461
 31
0.0
  0
LINE
  5
3EB
100
AcDbEntity
  8
2
370
    25
100
AcDbLine
 10
75.728231
 20
-278.776461
 30
0.0
 11
75.728231
 21
-277.526461
 31
0.0
  0
LINE
  5
3EC
100
AcDbEntity
  8
2
370
    25
100
AcDbLine
 10
75.728231
 20
-267.526461
 30
0.0
 11
75.728231
 21
-266.276461
 31
0.0
  0
LINE
  5
3ED
100
AcDbEntity
  8
2
370
    50
100
AcDbLine
 10
160.650983
 20
-297.476527
 30
0.0
 11
161.650983
 21
-298.476527
 31
0.0
  0
LINE
  5
3EE
100
AcDbEntity
  8
2
370
    50
100
AcDbLine
 10
142.650983
 20
-297.476527
 30
0.0
 11
141.650983
 21
-298.476527
 31
0.0
  0
LINE
  5
3EF
100
AcDbEntity
  8
2
370
    50
100
AcDbLine
 10
142.650983
 20
-297.476527
 30
0.0
 11
160.650983
 21
-297.476527
 31
0.0
  0
LINE
  5
3F0
100
AcDbEntity
  8
2
370
    50
100
AcDbLine
 10
161.650983
 20
-298.476527
 30
0.0
 11
141.650983
 21
-298.476527
 31
0.0
  0
LINE
  5
3F1
100
AcDbEntity
  8
2
370
    50
100
AcDbLine
 10
159.150983
 20
-297.476527
 30
0.0
 11
159.150983
 21
-297.076527
 31
0.0
  0
LINE
  5
3F2
100
AcDbEntity
  8
2
370
    50
100
AcDbLine
 10
144.150983
 20
-297.476527
 30
0.0
 11
144.150983
 21
-297.076527
 31
0.0
  0
LINE
  5
3F3
100
AcDbEntity
  8
2
370
    50
100
AcDbLine
 10
161.650983
 20
-298.476527
 30
0.0
 11
161.650983
 21
-307.276527
 31
0.0
  0
LINE
  5
3F4
100
AcDbEntity
  8
2
370
    50
100
AcDbLine
 10
141.650983
 20
-298.476527
 30
0.0
 11
141.650983
 21
-307.276527
 31
0.0
  0
LINE
  5
3F5
100
AcDbEntity
  8
2
370
    50
100
AcDbLine
 10
141.324115
 20
-307.276527
 30
0.0
 11
163.650983
 21
-307.276527
 31
0.0
  0
LINE
  5
3F6
100
AcDbEntity
  8
2
370
    50
100
AcDbLine
 10
165.507389
 20
-309.132934
 30
0.0
 11
165.507389
 21
-316.420121
 31
0.0
  0
LINE
  5
3F7
100
AcDbEntity
  8
2
370
    50
100
AcDbLine
 10
137.794576
 20
-316.420121
 30
0.0
 11
137.794576
 21
-309.132934
 31
0.0
  0
LINE
  5
3F8
100
AcDbEntity
  8
2
370
    50
100
AcDbLine
 10
139.650983
 20
-318.276527
 30
0.0
 11
163.650983
 21
-318.276527
 31
0.0
  0
LINE
  5
3F9
100
AcDbEntity
  8
2
370
    50
100
AcDbLine
 10
158.579186
 20
-316.420121
 30
0.0
 11
158.579186
 21
-309.132934
 31
0.0
  0
LINE
  5
3FA
100
AcDbEntity
  8
2
370
    50
100
AcDbLine
 10
144.722779
 20
-316.420121
 30
0.0
 11
144.722779
 21
-309.132934
 31
0.0
  0
LINE
  5
3FB
100
AcDbEntity
  8
2
370
    50
100
AcDbLine
 10
139.650983
 20
-307.276527
 30
0.0
 11
163.650983
 21
-307.276527
 31
0.0
  0
LINE
  5
3FC
100
AcDbEntity
  8
2
370
    50
100
AcDbLine
 10
163.650983
 20
-307.276527
 30
0.0
 11
165.507389
 21
-309.132934
 31
0.0
  0
LINE
  5
3FD
100
AcDbEntity
  8
2
370
    50
100
AcDbLine
 10
139.650983
 20
-318.276527
 30
0.0
 11
137.794576
 21
-316.420121
 31
0.0
  0
LINE
  5
3FE
100
AcDbEntity
  8
2
370
    50
100
AcDbLine
 10
139.650983
 20
-307.276527
 30
0.0
 11
137.794576
 21
-309.132934
 31
0.0
  0
LINE
  5
3FF
100
AcDbEntity
  8
2
370
    50
100
AcDbLine
 10
163.650983
 20
-318.276527
 30
0.0
 11
165.507389
 21
-316.420121
 31
0.0
  0
ARC
  5
400
100
AcDbEntity
  8
2
370
    50
100
AcDbCircle
 10
151.650983
 20
-321.132934
 30
0.0
 40
13.856406
100
AcDbArc
 50
60.0
 51
120.0
  0
ARC
  5
401
100
AcDbEntity
  8
2
370
    50
100
AcDbCircle
 10
151.650983
 20
-304.420121
 30
0.0
 40
13.856406
100
AcDbArc
 50
240.0
 51
300.0
  0
ARC
  5
402
100
AcDbEntity
  8
2
370
    50
100
AcDbCircle
 10
161.97785
 20
-311.315827
 30
0.0
 40
4.039299
100
AcDbArc
 50
45.0
 51
147.288191
  0
ARC
  5
403
100
AcDbEntity
  8
2
370
    50
100
AcDbCircle
 10
161.97785
 20
-314.237228
 30
0.0
 40
4.039299
100
AcDbArc
 50
212.711809
 51
315.0
  0
ARC
  5
404
100
AcDbEntity
  8
2
370
    50
100
AcDbCircle
 10
141.324115
 20
-311.315827
 30
0.0
 40
4.039299
100
AcDbArc
 50
32.711809
 51
135.0
  0
ARC
  5
405
100
AcDbEntity
  8
2
370
    50
100
AcDbCircle
 10
141.324115
 20
-314.237228
 30
0.0
 40
4.039299
100
AcDbArc
 50
225.0
 51
327.288191
  0
LINE
  5
406
100
AcDbEntity
  8
2
370
    50
100
AcDbLine
 10
71.664625
 20
-297.475712
 30
0.0
 11
70.664625
 21
-298.475712
 31
0.0
  0
LINE
  5
407
100
AcDbEntity
  8
2
370
    50
100
AcDbLine
 10
89.664625
 20
-297.475712
 30
0.0
 11
90.664625
 21
-298.475712
 31
0.0
  0
LINE
  5
408
100
AcDbEntity
  8
2
370
    50
100
AcDbLine
 10
70.664625
 20
-298.475712
 30
0.0
 11
90.664625
 21
-298.475712
 31
0.0
  0
LINE
  5
409
100
AcDbEntity
  8
2
370
    50
100
AcDbLine
 10
70.664625
 20
-298.475712
 30
0.0
 11
70.664625
 21
-307.275712
 31
0.0
  0
LINE
  5
40A
100
AcDbEntity
  8
2
370
    50
100
AcDbLine
 10
90.664625
 20
-298.475712
 30
0.0
 11
90.664625
 21
-307.275712
 31
0.0
  0
LINE
  5
40B
100
AcDbEntity
  8
2
370
    50
100
AcDbLine
 10
90.991493
 20
-307.275712
 30
0.0
 11
68.664625
 21
-307.275712
 31
0.0
  0
LINE
  5
40C
100
AcDbEntity
  8
2
370
    50
100
AcDbLine
 10
66.808219
 20
-309.132119
 30
0.0
 11
66.808219
 21
-316.419306
 31
0.0
  0
LINE
  5
40D
100
AcDbEntity
  8
2
370
    50
100
AcDbLine
 10
94.521032
 20
-316.419306
 30
0.0
 11
94.521032
 21
-309.132119
 31
0.0
  0
LINE
  5
40E
100
AcDbEntity
  8
2
370
    50
100
AcDbLine
 10
92.664625
 20
-318.275712
 30
0.0
 11
68.664625
 21
-318.275712
 31
0.0
  0
LINE
  5
40F
100
AcDbEntity
  8
2
370
    50
100
AcDbLine
 10
73.736422
 20
-316.419306
 30
0.0
 11
73.736422
 21
-309.132119
 31
0.0
  0
LINE
  5
410
100
AcDbEntity
  8
2
370
    50
100
AcDbLine
 10
87.592828
 20
-316.419306
 30
0.0
 11
87.592828
 21
-309.132119
 31
0.0
  0
LINE
  5
411
100
AcDbEntity
  8
2
370
    50
100
AcDbLine
 10
92.664625
 20
-307.275712
 30
0.0
 11
68.664625
 21
-307.275712
 31
0.0
  0
LINE
  5
412
100
AcDbEntity
  8
2
370
    50
100
AcDbLine
 10
68.664625
 20
-307.275712
 30
0.0
 11
66.808219
 21
-309.132119
 31
0.0
  0
LINE
  5
413
100
AcDbEntity
  8
2
370
    50
100
AcDbLine
 10
92.664625
 20
-318.275712
 30
0.0
 11
94.521032
 21
-316.419306
 31
0.0
  0
LINE
  5
414
100
AcDbEntity
  8
2
370
    50
100
AcDbLine
 10
92.664625
 20
-307.275712
 30
0.0
 11
94.521032
 21
-309.132119
 31
0.0
  0
LINE
  5
415
100
AcDbEntity
  8
2
370
    50
100
AcDbLine
 10
68.664625
 20
-318.275712
 30
0.0
 11
66.808219
 21
-316.419306
 31
0.0
  0
ARC
  5
416
100
AcDbEntity
  8
2
370
    50
100
AcDbCircle
 10
80.664625
 20
-321.132119
 30
0.0
 40
13.856406
100
AcDbArc
 50
60.0
 51
120.0
  0
ARC
  5
417
100
AcDbEntity
  8
2
370
    50
100
AcDbCircle
 10
80.664625
 20
-304.419306
 30
0.0
 40
13.856406
100
AcDbArc
 50
240.0
 51
300.0
  0
ARC
  5
418
100
AcDbEntity
  8
2
370
    50
100
AcDbCircle
 10
70.337758
 20
-311.315012
 30
0.0
 40
4.039299
100
AcDbArc
 50
32.711809
 51
135.0
  0
ARC
  5
419
100
AcDbEntity
  8
2
370
    50
100
AcDbCircle
 10
70.337758
 20
-314.236413
 30
0.0
 40
4.039299
100
AcDbArc
 50
225.0
 51
327.288191
  0
ARC
  5
41A
100
AcDbEntity
  8
2
370
    50
100
AcDbCircle
 10
90.991493
 20
-311.315012
 30
0.0
 40
4.039299
100
AcDbArc
 50
45.0
 51
147.288191
  0
ARC
  5
41B
100
AcDbEntity
  8
2
370
    50
100
AcDbCircle
 10
90.991493
 20
-314.236413
 30
0.0
 40
4.039299
100
AcDbArc
 50
212.711809
 51
315.0
  0
LINE
  5
41C
100
AcDbEntity
  8
2
370
    50
100
AcDbLine
 10
89.664625
 20
-297.475712
 30
0.0
 11
71.664625
 21
-297.475712
 31
0.0
  0
LINE
  5
41D
100
AcDbEntity
  8
2
370
    25
100
AcDbLine
 10
158.131518
 20
-278.777275
 30
0.0
 11
158.131518
 21
-277.527275
 31
0.0
  0
LINE
  5
41E
100
AcDbEntity
  8
2
370
    25
100
AcDbLine
 10
158.131518
 20
-267.527275
 30
0.0
 11
158.131518
 21
-266.277275
 31
0.0
  0
LINE
  5
41F
100
AcDbEntity
  8
2
370
    25
100
AcDbLine
 10
74.183619
 20
-278.776461
 30
0.0
 11
74.183619
 21
-277.526461
 31
0.0
  0
LINE
  5
420
100
AcDbEntity
  8
2
370
    25
100
AcDbLine
 10
74.183619
 20
-267.526461
 30
0.0
 11
74.183619
 21
-266.276461
 31
0.0
  0
LINE
  5
421
100
AcDbEntity
  8
2
370
    50
100
AcDbLine
 10
-364.748683
 20
-152.08093
 30
0.0
 11
-364.748683
 21
-147.617685
 31
0.0
  0
LINE
  5
422
100
AcDbEntity
  8
2
370
    50
100
AcDbLine
 10
-365.373683
 20
-152.08093
 30
0.0
 11
-365.373683
 21
-147.617685
 31
0.0
  0
LINE
  5
423
100
AcDbEntity
  8
2
370
    50
100
AcDbLine
 10
-372.123683
 20
-152.08093
 30
0.0
 11
-372.123683
 21
-147.617685
 31
0.0
  0
LINE
  5
424
100
AcDbEntity
  8
2
370
    50
100
AcDbLine
 10
-372.748683
 20
-152.08093
 30
0.0
 11
-372.748683
 21
-147.617685
 31
0.0
  0
LINE
  5
425
100
AcDbEntity
  8
2
370
    25
  6
DASHED
100
AcDbLine
 10
-380.748521
 20
-145.617685
 30
0.0
 11
-380.748521
 21
-144.90636
 31
0.0
  0
LINE
  5
426
100
AcDbEntity
  8
2
370
    50
100
AcDbLine
 10
119.52526
 20
-152.080961
 30
0.0
 11
119.52526
 21
-145.617685
 31
0.0
  0
LINE
  5
427
100
AcDbEntity
  8
2
370
    50
100
AcDbLine
 10
112.77526
 20
-152.080961
 30
0.0
 11
112.77526
 21
-145.617685
 31
0.0
  0
LINE
  5
428
100
AcDbEntity
  8
2
370
    50
100
AcDbLine
 10
112.15026
 20
-152.080961
 30
0.0
 11
112.15026
 21
-145.617685
 31
0.0
  0
LINE
  5
429
100
AcDbEntity
  8
2
370
    50
100
AcDbLine
 10
120.15026
 20
-152.080961
 30
0.0
 11
120.15026
 21
-145.617685
 31
0.0
  0
LINE
  5
42A
100
AcDbEntity
  8
2
370
    50
100
AcDbLine
 10
133.35026
 20
-147.617685
 30
0.0
 11
120.15026
 21
-147.617685
 31
0.0
  0
LINE
  5
42B
100
AcDbEntity
  8
2
370
    50
100
AcDbLine
 10
133.65026
 20
-147.317685
 30
0.0
 11
120.15026
 21
-147.317685
 31
0.0
  0
LINE
  5
42C
100
AcDbEntity
  8
2
370
    50
100
AcDbLine
 10
98.95026
 20
-147.617685
 30
0.0
 11
112.15026
 21
-147.617685
 31
0.0
  0
LINE
  5
42D
100
AcDbEntity
  8
2
370
    50
100
AcDbLine
 10
112.15026
 20
-147.317685
 30
0.0
 11
98.65026
 21
-147.317685
 31
0.0
  0
LINE
  5
42E
100
AcDbEntity
  8
2
370
    50
100
AcDbLine
 10
98.65026
 20
-147.317685
 30
0.0
 11
98.65026
 21
-145.617685
 31
0.0
  0
LINE
  5
42F
100
AcDbEntity
  8
2
370
    50
100
AcDbLine
 10
133.65026
 20
-147.317685
 30
0.0
 11
133.65026
 21
-145.617685
 31
0.0
  0
LINE
  5
430
100
AcDbEntity
  8
2
370
    50
100
AcDbLine
 10
128.90026
 20
-152.080961
 30
0.0
 11
128.90026
 21
-147.617685
 31
0.0
  0
LINE
  5
431
100
AcDbEntity
  8
2
370
    50
100
AcDbLine
 10
103.40026
 20
-152.080961
 30
0.0
 11
103.40026
 21
-147.617685
 31
0.0
  0
LINE
  5
432
100
AcDbEntity
  8
2
370
    50
100
AcDbLine
 10
-391.998683
 20
-152.08093
 30
0.0
 11
-391.998683
 21
-147.617685
 31
0.0
  0
LINE
  5
433
100
AcDbEntity
  8
2
370
    50
100
AcDbLine
 10
-381.498683
 20
-152.08093
 30
0.0
 11
-381.498683
 21
-147.617685
 31
0.0
  0
LINE
  5
434
100
AcDbEntity
  8
2
370
    50
100
AcDbLine
 10
-408.93445
 20
-152.08093
 30
0.0
 11
-347.812159
 21
-152.08093
 31
0.0
  0
LINE
  5
435
100
AcDbEntity
  8
2
370
    50
100
AcDbLine
 10
-361.360698
 20
-165.629469
 30
0.0
 11
-361.360698
 21
-156.145492
 31
0.0
  0
LINE
  5
436
100
AcDbEntity
  8
2
370
    50
100
AcDbLine
 10
-395.385911
 20
-165.629469
 30
0.0
 11
-395.385911
 21
-156.145492
 31
0.0
  0
LINE
  5
437
100
AcDbEntity
  8
2
370
    50
100
AcDbLine
 10
-408.93445
 20
-156.145492
 30
0.0
 11
-347.812159
 21
-156.145492
 31
0.0
  0
LINE
  5
438
100
AcDbEntity
  8
2
370
    50
100
AcDbLine
 10
-347.812159
 20
-156.145492
 30
0.0
 11
-347.812159
 21
-152.08093
 31
0.0
  0
LINE
  5
439
100
AcDbEntity
  8
2
370
    50
100
AcDbLine
 10
-408.93445
 20
-156.145492
 30
0.0
 11
-408.93445
 21
-152.08093
 31
0.0
  0
LINE
  5
43A
100
AcDbEntity
  8
2
370
    50
100
AcDbLine
 10
91.624064
 20
-152.080961
 30
0.0
 11
139.197815
 21
-152.080961
 31
0.0
  0
LINE
  5
43B
100
AcDbEntity
  8
2
370
    50
100
AcDbLine
 10
98.398333
 20
-165.6295
 30
0.0
 11
98.398333
 21
-156.145523
 31
0.0
  0
LINE
  5
43C
100
AcDbEntity
  8
2
370
    50
100
AcDbLine
 10
91.624064
 20
-156.145523
 30
0.0
 11
139.197815
 21
-156.145523
 31
0.0
  0
LINE
  5
43D
100
AcDbEntity
  8
2
370
    50
100
AcDbLine
 10
91.624064
 20
-156.145523
 30
0.0
 11
91.624064
 21
-152.080961
 31
0.0
  0
LINE
  5
43E
100
AcDbEntity
  8
2
370
    50
100
AcDbLine
 10
132.423546
 20
-165.6295
 30
0.0
 11
132.423546
 21
-156.145523
 31
0.0
  0
LINE
  5
43F
100
AcDbEntity
  8
2
370
    50
100
AcDbLine
 10
139.197815
 20
-156.145523
 30
0.0
 11
139.197815
 21
-152.080961
 31
0.0
  0
LINE
  5
440
100
AcDbEntity
  8
2
370
    50
100
AcDbLine
 10
123.15026
 20
-188.517685
 30
0.0
 11
123.15026
 21
-186.017685
 31
0.0
  0
LINE
  5
441
100
AcDbEntity
  8
2
370
    50
100
AcDbLine
 10
114.40026
 20
-238.562416
 30
0.0
 11
114.40026
 21
-207.617685
 31
0.0
  0
LINE
  5
442
100
AcDbEntity
  8
2
370
    50
100
AcDbLine
 10
112.77526
 20
-207.617685
 30
0.0
 11
112.15026
 21
-206.992685
 31
0.0
  0
LINE
  5
443
100
AcDbEntity
  8
2
370
    50
100
AcDbLine
 10
119.52526
 20
-207.617685
 30
0.0
 11
120.15026
 21
-206.992685
 31
0.0
  0
LINE
  5
444
100
AcDbEntity
  8
2
370
    50
100
AcDbLine
 10
116.65026
 20
-206.617685
 30
0.0
 11
115.65026
 21
-206.617685
 31
0.0
  0
LINE
  5
445
100
AcDbEntity
  8
2
370
    50
100
AcDbLine
 10
115.65026
 20
-206.617685
 30
0.0
 11
115.65026
 21
-207.617685
 31
0.0
  0
LINE
  5
446
100
AcDbEntity
  8
2
370
    50
100
AcDbLine
 10
116.65026
 20
-206.617685
 30
0.0
 11
116.65026
 21
-207.617685
 31
0.0
  0
LINE
  5
447
100
AcDbEntity
  8
2
370
    50
100
AcDbLine
 10
112.77526
 20
-207.617685
 30
0.0
 11
115.65026
 21
-207.617685
 31
0.0
  0
LINE
  5
448
100
AcDbEntity
  8
2
370
    50
100
AcDbLine
 10
116.65026
 20
-207.617685
 30
0.0
 11
119.52526
 21
-207.617685
 31
0.0
  0
LINE
  5
449
100
AcDbEntity
  8
2
370
    50
100
AcDbLine
 10
123.15026
 20
-171.9295
 30
0.0
 11
123.15026
 21
-200.9295
 31
0.0
  0
LINE
  5
44A
100
AcDbEntity
  8
2
370
    50
100
AcDbLine
 10
122.65026
 20
-201.4295
 30
0.0
 11
123.15026
 21
-200.9295
 31
0.0
  0
LINE
  5
44B
100
AcDbEntity
  8
2
370
    50
100
AcDbLine
 10
109.15026
 20
-171.9295
 30
0.0
 11
109.15026
 21
-200.9295
 31
0.0
  0
LINE
  5
44C
100
AcDbEntity
  8
2
370
    50
100
AcDbLine
 10
109.65026
 20
-201.4295
 30
0.0
 11
109.15026
 21
-200.9295
 31
0.0
  0
LINE
  5
44D
100
AcDbEntity
  8
2
370
    50
100
AcDbLine
 10
109.65026
 20
-201.4295
 30
0.0
 11
120.15026
 21
-201.4295
 31
0.0
  0
LINE
  5
44E
100
AcDbEntity
  8
2
370
    50
100
AcDbLine
 10
120.15026
 20
-201.4295
 30
0.0
 11
122.65026
 21
-201.4295
 31
0.0
  0
LINE
  5
44F
100
AcDbEntity
  8
2
370
    50
100
AcDbLine
 10
120.15026
 20
-206.992685
 30
0.0
 11
120.15026
 21
-201.4295
 31
0.0
  0
LINE
  5
450
100
AcDbEntity
  8
2
370
    50
100
AcDbLine
 10
119.52526
 20
-207.617685
 30
0.0
 11
119.52526
 21
-201.4295
 31
0.0
  0
LINE
  5
451
100
AcDbEntity
  8
2
370
    50
100
AcDbLine
 10
112.77526
 20
-207.617685
 30
0.0
 11
112.77526
 21
-201.4295
 31
0.0
  0
LINE
  5
452
100
AcDbEntity
  8
2
370
    50
100
AcDbLine
 10
112.15026
 20
-206.992685
 30
0.0
 11
112.15026
 21
-201.4295
 31
0.0
  0
LINE
  5
453
100
AcDbEntity
  8
2
370
    50
100
AcDbLine
 10
120.480387
 20
-171.9295
 30
0.0
 11
120.480387
 21
-200.9295
 31
0.0
  0
LINE
  5
454
100
AcDbEntity
  8
2
370
    50
100
AcDbLine
 10
118.748336
 20
-171.9295
 30
0.0
 11
118.748336
 21
-200.9295
 31
0.0
  0
LINE
  5
455
100
AcDbEntity
  8
2
370
    50
100
AcDbLine
 10
120.480387
 20
-200.9295
 30
0.0
 11
118.748336
 21
-200.9295
 31
0.0
  0
ARC
  5
456
100
AcDbEntity
  8
2
370
    50
100
AcDbCircle
 10
121.815323
 20
-199.397445
 30
0.0
 40
2.032055
100
AcDbArc
 50
228.93316
 51
311.06684
  0
ARC
  5
457
100
AcDbEntity
  8
2
370
    50
100
AcDbCircle
 10
116.15026
 20
-194.4295
 30
0.0
 40
7.0
100
AcDbArc
 50
270.0
 51
291.786789
  0
LINE
  5
458
100
AcDbEntity
  8
2
370
    50
100
AcDbLine
 10
113.552183
 20
-171.9295
 30
0.0
 11
113.552183
 21
-200.9295
 31
0.0
  0
LINE
  5
459
100
AcDbEntity
  8
2
370
    50
100
AcDbLine
 10
111.820133
 20
-171.9295
 30
0.0
 11
111.820133
 21
-200.9295
 31
0.0
  0
ARC
  5
45A
100
AcDbEntity
  8
2
370
    50
100
AcDbCircle
 10
110.485196
 20
-199.397445
 30
0.0
 40
2.032055
100
AcDbArc
 50
228.93316
 51
311.06684
  0
LINE
  5
45B
100
AcDbEntity
  8
2
370
    50
100
AcDbLine
 10
111.820133
 20
-200.9295
 30
0.0
 11
113.552183
 21
-200.9295
 31
0.0
  0
ARC
  5
45C
100
AcDbEntity
  8
2
370
    50
100
AcDbCircle
 10
116.15026
 20
-194.4295
 30
0.0
 40
7.0
100
AcDbArc
 50
248.213211
 51
270.0
  0
LINE
  5
45D
100
AcDbEntity
  8
2
370
    25
  6
CENTER
100
AcDbLine
 10
116.15026
 20
224.482315
 30
0.0
 11
116.15026
 21
-256.464272
 31
0.0
  0
ARC
  5
45E
100
AcDbEntity
  8
2
370
    25
  6
CENTER
100
AcDbCircle
 10
-389.665977
 20
-240.942308
 30
0.0
 40
4.791667
100
AcDbArc
 50
233.130102
 51
306.869898
  0
ARC
  5
45F
100
AcDbEntity
  8
2
370
    25
  6
CENTER
100
AcDbCircle
 10
-383.915977
 20
-248.608975
 30
0.0
 40
4.791667
100
AcDbArc
 50
53.130102
 51
126.869898
  0
ARC
  5
460
100
AcDbEntity
  8
2
370
    25
  6
CENTER
100
AcDbCircle
 10
-389.665977
 20
-248.608975
 30
0.0
 40
4.791667
100
AcDbArc
 50
53.130102
 51
126.869898
  0
LINE
  5
461
100
AcDbEntity
  8
2
370
    50
100
AcDbLine
 10
-380.498683
 20
-183.117685
 30
0.0
 11
-380.498683
 21
-198.617685
 31
0.0
  0
LINE
  5
462
100
AcDbEntity
  8
2
370
    50
100
AcDbLine
 10
-392.998683
 20
-183.117685
 30
0.0
 11
-392.998683
 21
-198.617685
 31
0.0
  0
LINE
  5
463
100
AcDbEntity
  8
2
370
    50
100
AcDbLine
 10
-392.498683
 20
-199.117685
 30
0.0
 11
-392.248683
 21
-199.117685
 31
0.0
  0
LINE
  5
464
100
AcDbEntity
  8
2
370
    50
100
AcDbLine
 10
-392.998683
 20
-183.117685
 30
0.0
 11
-392.498683
 21
-182.617685
 31
0.0
  0
LINE
  5
465
100
AcDbEntity
  8
2
370
    50
100
AcDbLine
 10
-392.998683
 20
-198.617685
 30
0.0
 11
-392.498683
 21
-199.117685
 31
0.0
  0
LINE
  5
466
100
AcDbEntity
  8
2
370
    50
100
AcDbLine
 10
-380.998683
 20
-199.117685
 30
0.0
 11
-380.498683
 21
-198.617685
 31
0.0
  0
LINE
  5
467
100
AcDbEntity
  8
2
370
    50
100
AcDbLine
 10
-380.998683
 20
-182.617685
 30
0.0
 11
-380.498683
 21
-183.117685
 31
0.0
  0
LINE
  5
468
100
AcDbEntity
  8
2
370
    50
100
AcDbLine
 10
-392.498683
 20
-182.617685
 30
0.0
 11
-390.748683
 21
-182.617685
 31
0.0
  0
LINE
  5
469
100
AcDbEntity
  8
2
370
    50
100
AcDbLine
 10
-390.748683
 20
-182.617685
 30
0.0
 11
-380.998683
 21
-182.617685
 31
0.0
  0
LINE
  5
46A
100
AcDbEntity
  8
2
370
    50
100
AcDbLine
 10
-392.748683
 20
-204.72901
 30
0.0
 11
-392.748683
 21
-199.40636
 31
0.0
  0
LINE
  5
46B
100
AcDbEntity
  8
2
370
    50
100
AcDbLine
 10
-380.748683
 20
-204.72901
 30
0.0
 11
-380.748683
 21
-199.40636
 31
0.0
  0
LINE
  5
46C
100
AcDbEntity
  8
2
370
    50
100
AcDbLine
 10
-380.948683
 20
-205.017685
 30
0.0
 11
-392.548683
 21
-205.017685
 31
0.0
  0
LINE
  5
46D
100
AcDbEntity
  8
2
370
    50
100
AcDbLine
 10
-380.786586
 20
-199.40636
 30
0.0
 11
-380.786586
 21
-204.72901
 31
0.0
  0
LINE
  5
46E
100
AcDbEntity
  8
2
370
    50
100
AcDbLine
 10
-381.248683
 20
-199.117685
 30
0.0
 11
-392.248683
 21
-199.117685
 31
0.0
  0
LINE
  5
46F
100
AcDbEntity
  8
2
370
    50
100
AcDbLine
 10
-381.248683
 20
-205.017685
 30
0.0
 11
-380.748683
 21
-204.72901
 31
0.0
  0
LINE
  5
470
100
AcDbEntity
  8
2
370
    50
100
AcDbLine
 10
-383.184501
 20
-204.72901
 30
0.0
 11
-384.350768
 21
-204.72901
 31
0.0
  0
LINE
  5
471
100
AcDbEntity
  8
2
370
    50
100
AcDbLine
 10
-392.748683
 20
-204.72901
 30
0.0
 11
-392.248683
 21
-205.017685
 31
0.0
  0
LINE
  5
472
100
AcDbEntity
  8
2
370
    50
100
AcDbLine
 10
-392.748683
 20
-199.40636
 30
0.0
 11
-392.248683
 21
-199.117685
 31
0.0
  0
ARC
  5
473
100
AcDbEntity
  8
2
370
    50
100
AcDbCircle
 10
-386.748683
 20
-194.914055
 30
0.0
 40
10.10363
100
AcDbArc
 50
270.0
 51
283.729133
  0
LINE
  5
474
100
AcDbEntity
  8
2
370
    50
100
AcDbLine
 10
-380.748683
 20
-204.72901
 30
0.0
 11
-380.786586
 21
-204.72901
 31
0.0
  0
ARC
  5
475
100
AcDbEntity
  8
2
370
    50
100
AcDbCircle
 10
-381.985544
 20
-202.383525
 30
0.0
 40
2.634161
100
AcDbArc
 50
242.924933
 51
297.075067
  0
LINE
  5
476
100
AcDbEntity
  8
2
370
    50
100
AcDbLine
 10
-381.248683
 20
-199.117685
 30
0.0
 11
-380.748683
 21
-199.40636
 31
0.0
  0
LINE
  5
477
100
AcDbEntity
  8
2
370
    50
100
AcDbLine
 10
-380.748683
 20
-199.40636
 30
0.0
 11
-380.786586
 21
-199.40636
 31
0.0
  0
LINE
  5
478
100
AcDbEntity
  8
2
370
    50
100
AcDbLine
 10
-393.248683
 20
-222.017685
 30
0.0
 11
-380.248683
 21
-222.017685
 31
0.0
  0
LINE
  5
479
100
AcDbEntity
  8
2
370
    50
100
AcDbLine
 10
-393.248683
 20
-222.017685
 30
0.0
 11
-393.248683
 21
-209.517685
 31
0.0
  0
LINE
  5
47A
100
AcDbEntity
  8
2
370
    50
100
AcDbLine
 10
-380.248683
 20
-222.017685
 30
0.0
 11
-380.248683
 21
-209.517685
 31
0.0
  0
LINE
  5
47B
100
AcDbEntity
  8
2
370
    50
100
AcDbLine
 10
-390.623014
 20
-208.017685
 30
0.0
 11
-390.623014
 21
-205.517685
 31
0.0
  0
LINE
  5
47C
100
AcDbEntity
  8
2
370
    50
100
AcDbLine
 10
-391.33012
 20
-208.017685
 30
0.0
 11
-391.33012
 21
-205.517685
 31
0.0
  0
LINE
  5
47D
100
AcDbEntity
  8
2
370
    50
100
AcDbLine
 10
-392.727814
 20
-208.017685
 30
0.0
 11
-392.727814
 21
-205.517685
 31
0.0
  0
LINE
  5
47E
100
AcDbEntity
  8
2
370
    50
100
AcDbLine
 10
-392.748683
 20
-208.017685
 30
0.0
 11
-392.748683
 21
-205.217685
 31
0.0
  0
LINE
  5
47F
100
AcDbEntity
  8
2
370
    50
100
AcDbLine
 10
-387.248683
 20
-208.017685
 30
0.0
 11
-387.248683
 21
-205.517685
 31
0.0
  0
LINE
  5
480
100
AcDbEntity
  8
2
370
    50
100
AcDbLine
 10
-386.248683
 20
-208.017685
 30
0.0
 11
-386.248683
 21
-205.517685
 31
0.0
  0
LINE
  5
481
100
AcDbEntity
  8
2
370
    50
100
AcDbLine
 10
-382.874353
 20
-208.017685
 30
0.0
 11
-382.874353
 21
-205.517685
 31
0.0
  0
LINE
  5
482
100
AcDbEntity
  8
2
370
    50
100
AcDbLine
 10
-382.167246
 20
-208.017685
 30
0.0
 11
-382.167246
 21
-205.517685
 31
0.0
  0
LINE
  5
483
100
AcDbEntity
  8
2
370
    50
100
AcDbLine
 10
-380.748683
 20
-208.017685
 30
0.0
 11
-380.748683
 21
-205.217685
 31
0.0
  0
LINE
  5
484
100
AcDbEntity
  8
2
370
    50
100
AcDbLine
 10
-380.769553
 20
-208.017685
 30
0.0
 11
-380.769553
 21
-205.517685
 31
0.0
  0
LINE
  5
485
100
AcDbEntity
  8
2
370
    50
100
AcDbLine
 10
-391.33012
 20
-205.517685
 30
0.0
 11
-392.748683
 21
-205.517685
 31
0.0
  0
LINE
  5
486
100
AcDbEntity
  8
2
370
    50
100
AcDbLine
 10
-387.248683
 20
-205.517685
 30
0.0
 11
-390.623014
 21
-205.517685
 31
0.0
  0
LINE
  5
487
100
AcDbEntity
  8
2
370
    50
100
AcDbLine
 10
-380.748683
 20
-205.517685
 30
0.0
 11
-382.167246
 21
-205.517685
 31
0.0
  0
LINE
  5
488
100
AcDbEntity
  8
2
370
    50
100
AcDbLine
 10
-382.874353
 20
-205.517685
 30
0.0
 11
-386.248683
 21
-205.517685
 31
0.0
  0
LINE
  5
489
100
AcDbEntity
  8
2
370
    50
100
AcDbLine
 10
-391.33012
 20
-208.017685
 30
0.0
 11
-392.748683
 21
-208.017685
 31
0.0
  0
LINE
  5
48A
100
AcDbEntity
  8
2
370
    50
100
AcDbLine
 10
-387.248683
 20
-208.017685
 30
0.0
 11
-390.623014
 21
-208.017685
 31
0.0
  0
LINE
  5
48B
100
AcDbEntity
  8
2
370
    50
100
AcDbLine
 10
-380.748683
 20
-208.017685
 30
0.0
 11
-382.167246
 21
-208.017685
 31
0.0
  0
LINE
  5
48C
100
AcDbEntity
  8
2
370
    50
100
AcDbLine
 10
-382.874353
 20
-208.017685
 30
0.0
 11
-386.248683
 21
-208.017685
 31
0.0
  0
ARC
  5
48D
100
AcDbEntity
  8
2
370
    50
100
AcDbCircle
 10
-380.948683
 20
-205.217685
 30
0.0
 40
0.2
100
AcDbArc
 50
0.0
 51
90.0
  0
ARC
  5
48E
100
AcDbEntity
  8
2
370
    50
100
AcDbCircle
 10
-392.548683
 20
-205.217685
 30
0.0
 40
0.2
100
AcDbArc
 50
90.0
 51
180.0
  0
ARC
  5
48F
100
AcDbEntity
  8
2
370
    50
100
AcDbCircle
 10
-390.748683
 20
-209.517685
 30
0.0
 40
2.5
100
AcDbArc
 50
143.130102
 51
180.0
  0
ARC
  5
490
100
AcDbEntity
  8
2
370
    50
100
AcDbCircle
 10
-382.748683
 20
-209.517685
 30
0.0
 40
2.5
100
AcDbArc
 50
0.0
 51
36.869898
  0
LINE
  5
491
100
AcDbEntity
  8
2
370
    25
100
AcDbLine
 10
-393.229424
 20
-222.017685
 30
0.0
 11
-393.229424
 21
-209.517685
 31
0.0
  0
LINE
  5
492
100
AcDbEntity
  8
2
370
    25
100
AcDbLine
 10
-391.684812
 20
-222.017685
 30
0.0
 11
-391.684812
 21
-209.517685
 31
0.0
  0
LINE
  5
493
100
AcDbEntity
  8
2
370
    25
100
AcDbLine
 10
-390.977706
 20
-222.017685
 30
0.0
 11
-390.977706
 21
-209.517685
 31
0.0
  0
LINE
  5
494
100
AcDbEntity
  8
2
370
    25
100
AcDbLine
 10
-387.248683
 20
-222.017685
 30
0.0
 11
-387.248683
 21
-209.517685
 31
0.0
  0
LINE
  5
495
100
AcDbEntity
  8
2
370
    25
100
AcDbLine
 10
-386.248683
 20
-222.017685
 30
0.0
 11
-386.248683
 21
-209.517685
 31
0.0
  0
LINE
  5
496
100
AcDbEntity
  8
2
370
    25
100
AcDbLine
 10
-382.519661
 20
-222.017685
 30
0.0
 11
-382.519661
 21
-209.517685
 31
0.0
  0
LINE
  5
497
100
AcDbEntity
  8
2
370
    25
100
AcDbLine
 10
-381.812554
 20
-222.017685
 30
0.0
 11
-381.812554
 21
-209.517685
 31
0.0
  0
LINE
  5
498
100
AcDbEntity
  8
2
370
    25
100
AcDbLine
 10
-380.267943
 20
-222.017685
 30
0.0
 11
-380.267943
 21
-209.517685
 31
0.0
  0
ARC
  5
499
100
AcDbEntity
  8
2
370
    50
100
AcDbCircle
 10
-386.748683
 20
-194.914055
 30
0.0
 40
10.10363
100
AcDbArc
 50
256.270867
 51
270.0
  0
LINE
  5
49A
100
AcDbEntity
  8
2
370
    50
100
AcDbLine
 10
-390.312865
 20
-204.72901
 30
0.0
 11
-389.146599
 21
-204.72901
 31
0.0
  0
LINE
  5
49B
100
AcDbEntity
  8
2
370
    50
100
AcDbLine
 10
-389.146598
 20
-199.40636
 30
0.0
 11
-389.146599
 21
-204.72901
 31
0.0
  0
LINE
  5
49C
100
AcDbEntity
  8
2
370
    50
100
AcDbLine
 10
-390.312866
 20
-199.40636
 30
0.0
 11
-390.312865
 21
-204.72901
 31
0.0
  0
ARC
  5
49D
100
AcDbEntity
  8
2
370
    50
100
AcDbCircle
 10
-391.511823
 20
-202.383525
 30
0.0
 40
2.634161
100
AcDbArc
 50
242.924933
 51
297.075067
  0
LINE
  5
49E
100
AcDbEntity
  8
2
370
    50
100
AcDbLine
 10
-392.498683
 20
-244.174461
 30
0.0
 11
-392.498683
 21
-222.017685
 31
0.0
  0
LINE
  5
49F
100
AcDbEntity
  8
2
370
    50
100
AcDbLine
 10
-380.998683
 20
-244.486267
 30
0.0
 11
-380.998683
 21
-222.017685
 31
0.0
  0
LINE
  5
4A0
100
AcDbEntity
  8
2
370
    50
100
AcDbLine
 10
-392.710781
 20
-199.384477
 30
0.0
 11
-392.710781
 21
-204.72901
 31
0.0
  0
LINE
  5
4A1
100
AcDbEntity
  8
2
370
    50
100
AcDbLine
 10
-392.710781
 20
-204.72901
 30
0.0
 11
-392.748683
 21
-204.72901
 31
0.0
  0
LINE
  5
4A2
100
AcDbEntity
  8
2
370
    50
100
AcDbLine
 10
-383.184501
 20
-199.406359
 30
0.0
 11
-383.184501
 21
-204.72901
 31
0.0
  0
LINE
  5
4A3
100
AcDbEntity
  8
2
370
    50
100
AcDbLine
 10
-384.350769
 20
-199.406359
 30
0.0
 11
-384.350768
 21
-204.72901
 31
0.0
  0
LINE
  5
4A4
100
AcDbEntity
  8
2
370
    50
100
AcDbLine
 10
-383.184501
 20
-202.188885
 30
0.0
 11
-383.184501
 21
-204.72901
 31
0.0
  0
LINE
  5
4A5
100
AcDbEntity
  8
2
370
    50
100
AcDbLine
 10
-382.748683
 20
-182.617685
 30
0.0
 11
-382.748683
 21
-171.4295
 31
0.0
  0
LINE
  5
4A6
100
AcDbEntity
  8
2
370
    50
100
AcDbLine
 10
-390.748683
 20
-182.617685
 30
0.0
 11
-390.748683
 21
-171.4295
 31
0.0
  0
LINE
  5
4A7
100
AcDbEntity
  8
2
370
    50
100
AcDbLine
 10
-384.350769
 20
-199.406359
 30
0.0
 11
-383.184501
 21
-199.406359
 31
0.0
  0
LINE
  5
4A8
100
AcDbEntity
  8
2
370
    50
100
AcDbLine
 10
-389.146598
 20
-199.40636
 30
0.0
 11
-390.312866
 21
-199.40636
 31
0.0
  0
ARC
  5
4A9
100
AcDbEntity
  8
2
370
    50
100
AcDbCircle
 10
-381.985544
 20
-201.751848
 30
0.0
 40
2.634163
100
AcDbArc
 50
62.924947
 51
117.075
  0
ARC
  5
4AA
100
AcDbEntity
  8
2
370
    50
100
AcDbCircle
 10
-391.534183
 20
-201.845578
 30
0.0
 40
2.727893
100
AcDbArc
 50
63.402874
 51
115.551434
  0
ARC
  5
4AB
100
AcDbEntity
  8
2
370
    50
100
AcDbCircle
 10
-386.748681
 20
-209.22133
 30
0.0
 40
10.103644
100
AcDbArc
 50
76.27091
 51
103.729119
  0
LINE
  5
4AC
100
AcDbEntity
  8
2
370
    50
100
AcDbLine
 10
-384.998683
 20
-183.117685
 30
0.0
 11
-384.998683
 21
-198.617685
 31
0.0
  0
LINE
  5
4AD
100
AcDbEntity
  8
2
370
    50
100
AcDbLine
 10
-382.427531
 20
-183.117685
 30
0.0
 11
-382.427531
 21
-198.617685
 31
0.0
  0
LINE
  5
4AE
100
AcDbEntity
  8
2
370
    50
100
AcDbLine
 10
-380.677531
 20
-183.117685
 30
0.0
 11
-380.677531
 21
-198.617685
 31
0.0
  0
LINE
  5
4AF
100
AcDbEntity
  8
2
370
    50
100
AcDbLine
 10
-380.498683
 20
-183.117685
 30
0.0
 11
-380.677531
 21
-183.117685
 31
0.0
  0
LINE
  5
4B0
100
AcDbEntity
  8
2
370
    50
100
AcDbLine
 10
-382.427531
 20
-183.117685
 30
0.0
 11
-384.998683
 21
-183.117685
 31
0.0
  0
LINE
  5
4B1
100
AcDbEntity
  8
2
370
    50
100
AcDbLine
 10
-380.498683
 20
-198.617685
 30
0.0
 11
-380.677531
 21
-198.617685
 31
0.0
  0
LINE
  5
4B2
100
AcDbEntity
  8
2
370
    50
100
AcDbLine
 10
-382.427531
 20
-198.617685
 30
0.0
 11
-384.998683
 21
-198.617685
 31
0.0
  0
ARC
  5
4B3
100
AcDbEntity
  8
2
370
    50
100
AcDbCircle
 10
-381.552531
 20
-183.63331
 30
0.0
 40
1.015625
100
AcDbArc
 50
30.510237
 51
149.489763
  0
ARC
  5
4B4
100
AcDbEntity
  8
2
370
    50
100
AcDbCircle
 10
-386.748683
 20
-185.930185
 30
0.0
 40
3.3125
100
AcDbArc
 50
58.109208
 51
90.0
  0
ARC
  5
4B5
100
AcDbEntity
  8
2
370
    50
100
AcDbCircle
 10
-386.748683
 20
-195.805185
 30
0.0
 40
3.3125
100
AcDbArc
 50
270.0
 51
301.890792
  0
ARC
  5
4B6
100
AcDbEntity
  8
2
370
    50
100
AcDbCircle
 10
-381.552531
 20
-198.10206
 30
0.0
 40
1.015625
100
AcDbArc
 50
210.510237
 51
329.489763
  0
LINE
  5
4B7
100
AcDbEntity
  8
2
370
    50
100
AcDbLine
 10
-388.498683
 20
-183.117685
 30
0.0
 11
-388.498683
 21
-198.617685
 31
0.0
  0
LINE
  5
4B8
100
AcDbEntity
  8
2
370
    50
100
AcDbLine
 10
-391.069836
 20
-183.117685
 30
0.0
 11
-388.498683
 21
-183.117685
 31
0.0
  0
ARC
  5
4B9
100
AcDbEntity
  8
2
370
    50
100
AcDbCircle
 10
-386.748683
 20
-185.930185
 30
0.0
 40
3.3125
100
AcDbArc
 50
90.0
 51
121.890792
  0
ARC
  5
4BA
100
AcDbEntity
  8
2
370
    50
100
AcDbCircle
 10
-391.944836
 20
-183.63331
 30
0.0
 40
1.015625
100
AcDbArc
 50
30.510237
 51
149.489763
  0
ARC
  5
4BB
100
AcDbEntity
  8
2
370
    50
100
AcDbCircle
 10
-386.748683
 20
-195.805185
 30
0.0
 40
3.3125
100
AcDbArc
 50
238.109208
 51
270.0
  0
LINE
  5
4BC
100
AcDbEntity
  8
2
370
    50
100
AcDbLine
 10
-391.069836
 20
-183.117685
 30
0.0
 11
-391.069836
 21
-198.617685
 31
0.0
  0
ARC
  5
4BD
100
AcDbEntity
  8
2
370
    50
100
AcDbCircle
 10
-391.944836
 20
-198.10206
 30
0.0
 40
1.015625
100
AcDbArc
 50
210.510237
 51
329.489763
  0
LINE
  5
4BE
100
AcDbEntity
  8
2
370
    50
100
AcDbLine
 10
-392.819836
 20
-183.117685
 30
0.0
 11
-392.819836
 21
-198.617685
 31
0.0
  0
LINE
  5
4BF
100
AcDbEntity
  8
2
370
    50
100
AcDbLine
 10
-392.819836
 20
-183.117685
 30
0.0
 11
-392.819836
 21
-198.617685
 31
0.0
  0
LINE
  5
4C0
100
AcDbEntity
  8
2
370
    50
100
AcDbLine
 10
-392.998683
 20
-198.617685
 30
0.0
 11
-392.819836
 21
-198.617685
 31
0.0
  0
LINE
  5
4C1
100
AcDbEntity
  8
2
370
    50
100
AcDbLine
 10
-392.998683
 20
-183.117685
 30
0.0
 11
-392.819836
 21
-183.117685
 31
0.0
  0
LINE
  5
4C2
100
AcDbEntity
  8
2
370
    50
100
AcDbLine
 10
-391.069836
 20
-198.617685
 30
0.0
 11
-388.498683
 21
-198.617685
 31
0.0
  0
LINE
  5
4C3
100
AcDbEntity
  8
2
370
    50
100
AcDbLine
 10
-380.998683
 20
-199.117685
 30
0.0
 11
-381.248683
 21
-199.117685
 31
0.0
  0
LINE
  5
4C4
100
AcDbEntity
  8
2
370
    25
  6
CENTER
100
AcDbLine
 10
-386.748683
 20
-138.895489
 30
0.0
 11
-386.748683
 21
-336.074081
 31
0.0
  0
LINE
  5
4C5
100
AcDbEntity
  8
2
370
    50
100
AcDbLine
 10
-393.249936
 20
-278.697246
 30
0.0
 11
-380.249936
 21
-278.697246
 31
0.0
  0
LINE
  5
4C6
100
AcDbEntity
  8
2
370
    50
100
AcDbLine
 10
-380.999936
 20
-278.697246
 30
0.0
 11
-380.999936
 21
-251.640152
 31
0.0
  0
LINE
  5
4C7
100
AcDbEntity
  8
2
370
    25
100
AcDbLine
 10
-382.684072
 20
-276.013681
 30
0.0
 11
-390.8158
 21
-267.881953
 31
0.0
  0
LINE
  5
4C8
100
AcDbEntity
  8
2
370
    25
100
AcDbLine
 10
-382.684072
 20
-267.881953
 30
0.0
 11
-390.8158
 21
-276.013681
 31
0.0
  0
LINE
  5
4C9
100
AcDbEntity
  8
2
370
    25
100
AcDbLine
 10
-383.453138
 20
-276.658828
 30
0.0
 11
-391.460947
 21
-268.65102
 31
0.0
  0
LINE
  5
4CA
100
AcDbEntity
  8
2
370
    25
100
AcDbLine
 10
-384.352161
 20
-277.174018
 30
0.0
 11
-391.976137
 21
-269.550043
 31
0.0
  0
LINE
  5
4CB
100
AcDbEntity
  8
2
370
    25
100
AcDbLine
 10
-385.402647
 20
-277.537747
 30
0.0
 11
-392.339865
 21
-270.600528
 31
0.0
  0
LINE
  5
4CC
100
AcDbEntity
  8
2
370
    25
100
AcDbLine
 10
-386.657532
 20
-277.697075
 30
0.0
 11
-392.499193
 21
-271.855414
 31
0.0
  0
LINE
  5
4CD
100
AcDbEntity
  8
2
370
    25
100
AcDbLine
 10
-388.277672
 20
-277.491148
 30
0.0
 11
-392.293267
 21
-273.475554
 31
0.0
  0
LINE
  5
4CE
100
AcDbEntity
  8
2
370
    25
100
AcDbLine
 10
-382.038924
 20
-275.244615
 30
0.0
 11
-390.046733
 21
-267.236806
 31
0.0
  0
LINE
  5
4CF
100
AcDbEntity
  8
2
370
    25
100
AcDbLine
 10
-381.523734
 20
-274.345591
 30
0.0
 11
-389.14771
 21
-266.721616
 31
0.0
  0
LINE
  5
4D0
100
AcDbEntity
  8
2
370
    25
100
AcDbLine
 10
-381.160006
 20
-273.295106
 30
0.0
 11
-388.097224
 21
-266.357888
 31
0.0
  0
LINE
  5
4D1
100
AcDbEntity
  8
2
370
    25
100
AcDbLine
 10
-381.000678
 20
-272.04022
 30
0.0
 11
-386.842339
 21
-266.19856
 31
0.0
  0
LINE
  5
4D2
100
AcDbEntity
  8
2
370
    25
100
AcDbLine
 10
-381.206604
 20
-270.420081
 30
0.0
 11
-385.222199
 21
-266.404486
 31
0.0
  0
LINE
  5
4D3
100
AcDbEntity
  8
2
370
    25
100
AcDbLine
 10
-383.453138
 20
-267.236806
 30
0.0
 11
-391.460947
 21
-275.244615
 31
0.0
  0
LINE
  5
4D4
100
AcDbEntity
  8
2
370
    25
100
AcDbLine
 10
-384.352161
 20
-266.721616
 30
0.0
 11
-391.976137
 21
-274.345591
 31
0.0
  0
LINE
  5
4D5
100
AcDbEntity
  8
2
370
    25
100
AcDbLine
 10
-385.402647
 20
-266.357888
 30
0.0
 11
-392.339865
 21
-273.295106
 31
0.0
  0
LINE
  5
4D6
100
AcDbEntity
  8
2
370
    25
100
AcDbLine
 10
-386.657532
 20
-266.19856
 30
0.0
 11
-392.499193
 21
-272.04022
 31
0.0
  0
LINE
  5
4D7
100
AcDbEntity
  8
2
370
    25
100
AcDbLine
 10
-388.277672
 20
-266.404486
 30
0.0
 11
-392.293267
 21
-270.420081
 31
0.0
  0
LINE
  5
4D8
100
AcDbEntity
  8
2
370
    25
100
AcDbLine
 10
-382.038924
 20
-268.65102
 30
0.0
 11
-390.046733
 21
-276.658828
 31
0.0
  0
LINE
  5
4D9
100
AcDbEntity
  8
2
370
    25
100
AcDbLine
 10
-381.523734
 20
-269.550043
 30
0.0
 11
-389.14771
 21
-277.174018
 31
0.0
  0
LINE
  5
4DA
100
AcDbEntity
  8
2
370
    25
100
AcDbLine
 10
-381.160006
 20
-270.600528
 30
0.0
 11
-388.097224
 21
-277.537747
 31
0.0
  0
LINE
  5
4DB
100
AcDbEntity
  8
2
370
    25
100
AcDbLine
 10
-381.000678
 20
-271.855414
 30
0.0
 11
-386.842339
 21
-277.697075
 31
0.0
  0
LINE
  5
4DC
100
AcDbEntity
  8
2
370
    25
100
AcDbLine
 10
-381.206604
 20
-273.475554
 30
0.0
 11
-385.222199
 21
-277.491148
 31
0.0
  0
ARC
  5
4DD
100
AcDbEntity
  8
2
370
    50
100
AcDbCircle
 10
-389.624936
 20
-247.879305
 30
0.0
 40
4.791667
100
AcDbArc
 50
233.130102
 51
306.869898
  0
ARC
  5
4DE
100
AcDbEntity
  8
2
370
    50
100
AcDbCircle
 10
-383.874936
 20
-255.545972
 30
0.0
 40
4.791667
100
AcDbArc
 50
53.130102
 51
126.869898
  0
ARC
  5
4DF
100
AcDbEntity
  8
2
370
    50
100
AcDbCircle
 10
-389.624936
 20
-255.545972
 30
0.0
 40
4.791667
100
AcDbArc
 50
53.130102
 51
126.869898
  0
LINE
  5
4E0
100
AcDbEntity
  8
2
370
    50
100
AcDbLine
 10
-393.249936
 20
-278.697703
 30
0.0
 11
-380.249936
 21
-278.697703
 31
0.0
  0
LINE
  5
4E1
100
AcDbEntity
  8
2
370
    50
100
AcDbLine
 10
-391.331373
 20
-292.697703
 30
0.0
 11
-392.749936
 21
-292.697703
 31
0.0
  0
LINE
  5
4E2
100
AcDbEntity
  8
2
370
    50
100
AcDbLine
 10
-391.331373
 20
-295.197703
 30
0.0
 11
-392.749936
 21
-295.197703
 31
0.0
  0
ARC
  5
4E3
100
AcDbEntity
  8
2
370
    50
100
AcDbCircle
 10
-392.549936
 20
-295.497703
 30
0.0
 40
0.2
100
AcDbArc
 50
180.0
 51
270.0
  0
LINE
  5
4E4
100
AcDbEntity
  8
2
370
    50
100
AcDbLine
 10
-387.249936
 20
-295.197703
 30
0.0
 11
-390.624267
 21
-295.197703
 31
0.0
  0
LINE
  5
4E5
100
AcDbEntity
  8
2
370
    50
100
AcDbLine
 10
-387.249936
 20
-292.697703
 30
0.0
 11
-390.624267
 21
-292.697703
 31
0.0
  0
LINE
  5
4E6
100
AcDbEntity
  8
2
370
    50
100
AcDbLine
 10
-382.875606
 20
-295.197703
 30
0.0
 11
-386.249936
 21
-295.197703
 31
0.0
  0
LINE
  5
4E7
100
AcDbEntity
  8
2
370
    50
100
AcDbLine
 10
-382.875606
 20
-292.697703
 30
0.0
 11
-386.249936
 21
-292.697703
 31
0.0
  0
LINE
  5
4E8
100
AcDbEntity
  8
2
370
    50
100
AcDbLine
 10
-380.749936
 20
-295.197703
 30
0.0
 11
-382.168499
 21
-295.197703
 31
0.0
  0
LINE
  5
4E9
100
AcDbEntity
  8
2
370
    50
100
AcDbLine
 10
-380.749936
 20
-292.697703
 30
0.0
 11
-382.168499
 21
-292.697703
 31
0.0
  0
ARC
  5
4EA
100
AcDbEntity
  8
2
370
    50
100
AcDbCircle
 10
-380.949936
 20
-295.497703
 30
0.0
 40
0.2
100
AcDbArc
 50
270.0
 51
360.0
  0
LINE
  5
4EB
100
AcDbEntity
  8
2
370
    50
100
AcDbLine
 10
-380.749936
 20
-292.697703
 30
0.0
 11
-380.749936
 21
-295.497703
 31
0.0
  0
LINE
  5
4EC
100
AcDbEntity
  8
2
370
    50
100
AcDbLine
 10
-380.770806
 20
-292.697703
 30
0.0
 11
-380.770806
 21
-295.197703
 31
0.0
  0
ARC
  5
4ED
100
AcDbEntity
  8
2
370
    50
100
AcDbCircle
 10
-382.749936
 20
-291.197703
 30
0.0
 40
2.5
100
AcDbArc
 50
323.130102
 51
360.0
  0
LINE
  5
4EE
100
AcDbEntity
  8
2
370
    50
100
AcDbLine
 10
-382.168499
 20
-292.697703
 30
0.0
 11
-382.168499
 21
-295.197703
 31
0.0
  0
LINE
  5
4EF
100
AcDbEntity
  8
2
370
    50
100
AcDbLine
 10
-382.875606
 20
-292.697703
 30
0.0
 11
-382.875606
 21
-295.197703
 31
0.0
  0
LINE
  5
4F0
100
AcDbEntity
  8
2
370
    50
100
AcDbLine
 10
-386.249936
 20
-292.697703
 30
0.0
 11
-386.249936
 21
-295.197703
 31
0.0
  0
LINE
  5
4F1
100
AcDbEntity
  8
2
370
    50
100
AcDbLine
 10
-387.249936
 20
-292.697703
 30
0.0
 11
-387.249936
 21
-295.197703
 31
0.0
  0
LINE
  5
4F2
100
AcDbEntity
  8
2
370
    50
100
AcDbLine
 10
-391.331373
 20
-292.697703
 30
0.0
 11
-391.331373
 21
-295.197703
 31
0.0
  0
LINE
  5
4F3
100
AcDbEntity
  8
2
370
    50
100
AcDbLine
 10
-390.624267
 20
-292.697703
 30
0.0
 11
-390.624267
 21
-295.197703
 31
0.0
  0
LINE
  5
4F4
100
AcDbEntity
  8
2
370
    50
100
AcDbLine
 10
-392.749936
 20
-292.697703
 30
0.0
 11
-392.749936
 21
-295.497703
 31
0.0
  0
LINE
  5
4F5
100
AcDbEntity
  8
2
370
    50
100
AcDbLine
 10
-392.729067
 20
-292.697703
 30
0.0
 11
-392.729067
 21
-295.197703
 31
0.0
  0
ARC
  5
4F6
100
AcDbEntity
  8
2
370
    50
100
AcDbCircle
 10
-390.749936
 20
-291.197703
 30
0.0
 40
2.5
100
AcDbArc
 50
180.0
 51
216.869898
  0
LINE
  5
4F7
100
AcDbEntity
  8
2
370
    50
100
AcDbLine
 10
-393.249936
 20
-278.697703
 30
0.0
 11
-393.249936
 21
-291.197703
 31
0.0
  0
LINE
  5
4F8
100
AcDbEntity
  8
2
370
    25
100
AcDbLine
 10
-380.269196
 20
-278.697703
 30
0.0
 11
-380.269196
 21
-291.197703
 31
0.0
  0
LINE
  5
4F9
100
AcDbEntity
  8
2
370
    50
100
AcDbLine
 10
-380.249936
 20
-278.697703
 30
0.0
 11
-380.249936
 21
-291.197703
 31
0.0
  0
LINE
  5
4FA
100
AcDbEntity
  8
2
370
    50
100
AcDbLine
 10
-392.499936
 20
-278.697703
 30
0.0
 11
-392.499936
 21
-251.542946
 31
0.0
  0
LINE
  5
4FB
100
AcDbEntity
  8
2
370
    25
100
AcDbLine
 10
-386.249936
 20
-291.197703
 30
0.0
 11
-386.249936
 21
-278.697703
 31
0.0
  0
LINE
  5
4FC
100
AcDbEntity
  8
2
370
    25
100
AcDbLine
 10
-387.249936
 20
-291.197703
 30
0.0
 11
-387.249936
 21
-278.697703
 31
0.0
  0
LINE
  5
4FD
100
AcDbEntity
  8
2
370
    25
100
AcDbLine
 10
-390.978959
 20
-291.197703
 30
0.0
 11
-390.978959
 21
-278.697703
 31
0.0
  0
LINE
  5
4FE
100
AcDbEntity
  8
2
370
    25
100
AcDbLine
 10
-391.686065
 20
-291.197703
 30
0.0
 11
-391.686065
 21
-278.697703
 31
0.0
  0
LINE
  5
4FF
100
AcDbEntity
  8
2
370
    25
100
AcDbLine
 10
-382.520914
 20
-291.197703
 30
0.0
 11
-382.520914
 21
-278.697703
 31
0.0
  0
LINE
  5
500
100
AcDbEntity
  8
2
370
    25
100
AcDbLine
 10
-381.813807
 20
-291.197703
 30
0.0
 11
-381.813807
 21
-278.697703
 31
0.0
  0
LINE
  5
501
100
AcDbEntity
  8
2
370
    50
100
AcDbLine
 10
-391.331373
 20
-295.197703
 30
0.0
 11
-392.749936
 21
-295.197703
 31
0.0
  0
ARC
  5
502
100
AcDbEntity
  8
2
370
    50
100
AcDbCircle
 10
-392.549936
 20
-295.497703
 30
0.0
 40
0.2
100
AcDbArc
 50
180.0
 51
270.0
  0
LINE
  5
503
100
AcDbEntity
  8
2
370
    50
100
AcDbLine
 10
-387.249936
 20
-295.197703
 30
0.0
 11
-390.624267
 21
-295.197703
 31
0.0
  0
LINE
  5
504
100
AcDbEntity
  8
2
370
    50
100
AcDbLine
 10
-382.875606
 20
-295.197703
 30
0.0
 11
-386.249936
 21
-295.197703
 31
0.0
  0
LINE
  5
505
100
AcDbEntity
  8
2
370
    50
100
AcDbLine
 10
-380.749936
 20
-295.197703
 30
0.0
 11
-382.168499
 21
-295.197703
 31
0.0
  0
ARC
  5
506
100
AcDbEntity
  8
2
370
    50
100
AcDbCircle
 10
-380.949936
 20
-295.497703
 30
0.0
 40
0.2
100
AcDbArc
 50
270.0
 51
360.0
  0
LINE
  5
507
100
AcDbEntity
  8
2
370
    50
100
AcDbLine
 10
-380.749936
 20
-292.697703
 30
0.0
 11
-380.749936
 21
-295.497703
 31
0.0
  0
LINE
  5
508
100
AcDbEntity
  8
2
370
    50
100
AcDbLine
 10
-380.770806
 20
-292.697703
 30
0.0
 11
-380.770806
 21
-295.197703
 31
0.0
  0
LINE
  5
509
100
AcDbEntity
  8
2
370
    50
100
AcDbLine
 10
-382.168499
 20
-292.697703
 30
0.0
 11
-382.168499
 21
-295.197703
 31
0.0
  0
LINE
  5
50A
100
AcDbEntity
  8
2
370
    50
100
AcDbLine
 10
-382.875606
 20
-292.697703
 30
0.0
 11
-382.875606
 21
-295.197703
 31
0.0
  0
LINE
  5
50B
100
AcDbEntity
  8
2
370
    50
100
AcDbLine
 10
-386.249936
 20
-292.697703
 30
0.0
 11
-386.249936
 21
-295.197703
 31
0.0
  0
LINE
  5
50C
100
AcDbEntity
  8
2
370
    50
100
AcDbLine
 10
-387.249936
 20
-292.697703
 30
0.0
 11
-387.249936
 21
-295.197703
 31
0.0
  0
LINE
  5
50D
100
AcDbEntity
  8
2
370
    50
100
AcDbLine
 10
-391.331373
 20
-292.697703
 30
0.0
 11
-391.331373
 21
-295.197703
 31
0.0
  0
LINE
  5
50E
100
AcDbEntity
  8
2
370
    50
100
AcDbLine
 10
-390.624267
 20
-292.697703
 30
0.0
 11
-390.624267
 21
-295.197703
 31
0.0
  0
LINE
  5
50F
100
AcDbEntity
  8
2
370
    50
100
AcDbLine
 10
-392.749936
 20
-292.697703
 30
0.0
 11
-392.749936
 21
-295.497703
 31
0.0
  0
LINE
  5
510
100
AcDbEntity
  8
2
370
    50
100
AcDbLine
 10
-392.729067
 20
-292.697703
 30
0.0
 11
-392.729067
 21
-295.197703
 31
0.0
  0
LINE
  5
511
100
AcDbEntity
  8
2
370
    50
100
AcDbLine
 10
-395.749936
 20
-309.897703
 30
0.0
 11
-396.749936
 21
-310.897703
 31
0.0
  0
LINE
  5
512
100
AcDbEntity
  8
2
370
    50
100
AcDbLine
 10
-395.750491
 20
-303.898411
 30
0.0
 11
-395.750491
 21
-305.698411
 31
0.0
  0
LINE
  5
513
100
AcDbEntity
  8
2
370
    50
100
AcDbLine
 10
-377.750491
 20
-303.898411
 30
0.0
 11
-377.750491
 21
-305.698411
 31
0.0
  0
LINE
  5
514
100
AcDbEntity
  8
2
370
    50
100
AcDbLine
 10
-377.750491
 20
-309.898411
 30
0.0
 11
-376.750491
 21
-310.898411
 31
0.0
  0
LINE
  5
515
100
AcDbEntity
  8
2
370
    50
100
AcDbLine
 10
-395.750491
 20
-309.898411
 30
0.0
 11
-396.750491
 21
-310.898411
 31
0.0
  0
LINE
  5
516
100
AcDbEntity
  8
2
370
    50
100
AcDbLine
 10
-395.550491
 20
-305.898411
 30
0.0
 11
-377.950491
 21
-305.898411
 31
0.0
  0
LINE
  5
517
100
AcDbEntity
  8
2
370
    50
100
AcDbLine
 10
-395.750491
 20
-309.898411
 30
0.0
 11
-377.750491
 21
-309.898411
 31
0.0
  0
LINE
  5
518
100
AcDbEntity
  8
2
370
    50
100
AcDbLine
 10
-395.550491
 20
-303.698411
 30
0.0
 11
-395.750491
 21
-303.898411
 31
0.0
  0
LINE
  5
519
100
AcDbEntity
  8
2
370
    50
100
AcDbLine
 10
-395.750491
 20
-305.698411
 30
0.0
 11
-395.550491
 21
-305.898411
 31
0.0
  0
LINE
  5
51A
100
AcDbEntity
  8
2
370
    50
100
AcDbLine
 10
-377.950491
 20
-303.698411
 30
0.0
 11
-377.750491
 21
-303.898411
 31
0.0
  0
LINE
  5
51B
100
AcDbEntity
  8
2
370
    50
100
AcDbLine
 10
-377.750491
 20
-305.698411
 30
0.0
 11
-377.950491
 21
-305.898411
 31
0.0
  0
LINE
  5
51C
100
AcDbEntity
  8
2
370
    50
100
AcDbLine
 10
-395.650491
 20
-303.698411
 30
0.0
 11
-395.650491
 21
-300.898411
 31
0.0
  0
LINE
  5
51D
100
AcDbEntity
  8
2
370
    50
100
AcDbLine
 10
-377.850491
 20
-303.698411
 30
0.0
 11
-377.850491
 21
-300.898411
 31
0.0
  0
LINE
  5
51E
100
AcDbEntity
  8
2
370
    50
100
AcDbLine
 10
-377.850491
 20
-303.698411
 30
0.0
 11
-395.650491
 21
-303.698411
 31
0.0
  0
LINE
  5
51F
100
AcDbEntity
  8
2
370
    50
100
AcDbLine
 10
-377.850491
 20
-300.898411
 30
0.0
 11
-395.650491
 21
-300.898411
 31
0.0
  0
LINE
  5
520
100
AcDbEntity
  8
2
370
    50
100
AcDbLine
 10
-401.250038
 20
-308.998411
 30
0.0
 11
-401.250038
 21
-297.998411
 31
0.0
  0
LINE
  5
521
100
AcDbEntity
  8
2
370
    50
100
AcDbLine
 10
-397.750038
 20
-301.498411
 30
0.0
 11
-397.750038
 21
-305.498411
 31
0.0
  0
LINE
  5
522
100
AcDbEntity
  8
2
370
    50
100
AcDbLine
 10
-371.250038
 20
-308.498411
 30
0.0
 11
-371.250038
 21
-296.498411
 31
0.0
  0
ARC
  5
523
100
AcDbEntity
  8
2
370
    50
100
AcDbCircle
 10
-396.750038
 20
-301.498411
 30
0.0
 40
1.0
100
AcDbArc
 50
90.0
 51
180.0
  0
ARC
  5
524
100
AcDbEntity
  8
2
370
    50
100
AcDbCircle
 10
-396.750038
 20
-305.498411
 30
0.0
 40
1.0
100
AcDbArc
 50
180.0
 51
270.0
  0
ARC
  5
525
100
AcDbEntity
  8
2
370
    50
100
AcDbCircle
 10
-372.250038
 20
-296.498411
 30
0.0
 40
1.0
100
AcDbArc
 50
0.0
 51
90.0
  0
ARC
  5
526
100
AcDbEntity
  8
2
370
    50
100
AcDbCircle
 10
-372.250038
 20
-308.498411
 30
0.0
 40
1.0
100
AcDbArc
 50
270.0
 51
360.0
  0
ARC
  5
527
100
AcDbEntity
  8
2
370
    50
100
AcDbCircle
 10
-400.750038
 20
-297.998411
 30
0.0
 40
0.5
100
AcDbArc
 50
90.0
 51
180.0
  0
ARC
  5
528
100
AcDbEntity
  8
2
370
    50
100
AcDbCircle
 10
-400.750038
 20
-308.998411
 30
0.0
 40
0.5
100
AcDbArc
 50
180.0
 51
270.0
  0
LINE
  5
529
100
AcDbEntity
  8
2
370
    50
100
AcDbLine
 10
-372.250038
 20
-309.498411
 30
0.0
 11
-379.250491
 21
-309.498411
 31
0.0
  0
LINE
  5
52A
100
AcDbEntity
  8
2
370
    50
100
AcDbLine
 10
-377.250038
 20
-297.498411
 30
0.0
 11
-400.750038
 21
-297.498411
 31
0.0
  0
LINE
  5
52B
100
AcDbEntity
  8
2
370
    50
100
AcDbLine
 10
-377.807549
 20
-309.498411
 30
0.0
 11
-400.750038
 21
-309.498411
 31
0.0
  0
LINE
  5
52C
100
AcDbEntity
  8
2
370
    50
100
AcDbLine
 10
-377.250038
 20
-300.498411
 30
0.0
 11
-396.750038
 21
-300.498411
 31
0.0
  0
LINE
  5
52D
100
AcDbEntity
  8
2
370
    50
100
AcDbLine
 10
-377.250038
 20
-306.498411
 30
0.0
 11
-396.750038
 21
-306.498411
 31
0.0
  0
LINE
  5
52E
100
AcDbEntity
  8
2
370
    50
100
AcDbLine
 10
-386.750491
 20
-303.698411
 30
0.0
 11
-377.950491
 21
-303.698411
 31
0.0
  0
LINE
  5
52F
100
AcDbEntity
  8
2
370
    50
100
AcDbLine
 10
-377.250038
 20
-308.498411
 30
0.0
 11
-377.250038
 21
-296.498411
 31
0.0
  0
ARC
  5
530
100
AcDbEntity
  8
2
370
    50
100
AcDbCircle
 10
-376.250038
 20
-308.498411
 30
0.0
 40
1.0
100
AcDbArc
 50
180.0
 51
270.0
  0
ARC
  5
531
100
AcDbEntity
  8
2
370
    50
100
AcDbCircle
 10
-376.250038
 20
-296.498411
 30
0.0
 40
1.0
100
AcDbArc
 50
90.0
 51
180.0
  0
LINE
  5
532
100
AcDbEntity
  8
2
370
    25
100
AcDbLine
 10
-378.250491
 20
-309.498411
 30
0.0
 11
-378.250491
 21
-306.498411
 31
0.0
  0
LINE
  5
533
100
AcDbEntity
  8
2
370
    25
100
AcDbLine
 10
-378.250491
 20
-300.498411
 30
0.0
 11
-378.250491
 21
-297.498411
 31
0.0
  0
LINE
  5
534
100
AcDbEntity
  8
2
370
    25
100
AcDbLine
 10
-395.250491
 20
-309.498411
 30
0.0
 11
-395.250491
 21
-306.498411
 31
0.0
  0
LINE
  5
535
100
AcDbEntity
  8
2
370
    25
100
AcDbLine
 10
-395.250491
 20
-300.498411
 30
0.0
 11
-395.250491
 21
-297.498411
 31
0.0
  0
LINE
  5
536
100
AcDbEntity
  8
2
370
    50
100
AcDbLine
 10
-379.250491
 20
-300.898411
 30
0.0
 11
-379.250491
 21
-300.498411
 31
0.0
  0
LINE
  5
537
100
AcDbEntity
  8
2
370
    50
100
AcDbLine
 10
-379.250491
 20
-297.498411
 30
0.0
 11
-379.250491
 21
-296.198411
 31
0.0
  0
LINE
  5
538
100
AcDbEntity
  8
2
370
    50
100
AcDbLine
 10
-394.250491
 20
-300.898411
 30
0.0
 11
-394.250491
 21
-300.498411
 31
0.0
  0
LINE
  5
539
100
AcDbEntity
  8
2
370
    50
100
AcDbLine
 10
-394.250491
 20
-297.498411
 30
0.0
 11
-394.250491
 21
-296.198411
 31
0.0
  0
LINE
  5
53A
100
AcDbEntity
  8
2
370
    50
100
AcDbLine
 10
-394.250491
 20
-309.898411
 30
0.0
 11
-394.250491
 21
-309.498411
 31
0.0
  0
LINE
  5
53B
100
AcDbEntity
  8
2
370
    50
100
AcDbLine
 10
-394.250491
 20
-306.498411
 30
0.0
 11
-394.250491
 21
-305.898411
 31
0.0
  0
LINE
  5
53C
100
AcDbEntity
  8
2
370
    50
100
AcDbLine
 10
-379.250491
 20
-309.898411
 30
0.0
 11
-379.250491
 21
-309.498411
 31
0.0
  0
LINE
  5
53D
100
AcDbEntity
  8
2
370
    50
100
AcDbLine
 10
-379.250491
 20
-306.498411
 30
0.0
 11
-379.250491
 21
-305.898411
 31
0.0
  0
LINE
  5
53E
100
AcDbEntity
  8
2
370
    50
100
AcDbLine
 10
-376.750491
 20
-310.898411
 30
0.0
 11
-396.750491
 21
-310.898411
 31
0.0
  0
LINE
  5
53F
100
AcDbEntity
  8
2
370
    50
100
AcDbLine
 10
-377.750491
 20
-303.898411
 30
0.0
 11
-395.750491
 21
-303.898411
 31
0.0
  0
LINE
  5
540
100
AcDbEntity
  8
2
370
    50
100
AcDbLine
 10
-395.750491
 20
-305.698411
 30
0.0
 11
-377.750491
 21
-305.698411
 31
0.0
  0
LINE
  5
541
100
AcDbEntity
  8
2
370
    50
100
AcDbLine
 10
-372.250038
 20
-295.498411
 30
0.0
 11
-376.250038
 21
-295.498411
 31
0.0
  0
ARC
  5
542
100
AcDbEntity
  8
2
370
    50
100
AcDbCircle
 10
-380.950491
 20
-295.498411
 30
0.0
 40
0.2
100
AcDbArc
 50
270.0
 51
360.0
  0
LINE
  5
543
100
AcDbEntity
  8
2
370
    50
100
AcDbLine
 10
-379.750491
 20
-295.698411
 30
0.0
 11
-393.750491
 21
-295.698411
 31
0.0
  0
LINE
  5
544
100
AcDbEntity
  8
2
370
    50
100
AcDbLine
 10
-379.250491
 20
-296.198411
 30
0.0
 11
-379.750491
 21
-295.698411
 31
0.0
  0
LINE
  5
545
100
AcDbEntity
  8
2
370
    50
100
AcDbLine
 10
-393.750491
 20
-295.698411
 30
0.0
 11
-394.250491
 21
-296.198411
 31
0.0
  0
LINE
  5
546
100
AcDbEntity
  8
2
370
    50
100
AcDbLine
 10
-395.749231
 20
-309.898634
 30
0.0
 11
-396.749231
 21
-310.898634
 31
0.0
  0
LINE
  5
547
100
AcDbEntity
  8
2
370
    50
100
AcDbLine
 10
-395.749786
 20
-309.899342
 30
0.0
 11
-377.749786
 21
-309.899342
 31
0.0
  0
LINE
  5
548
100
AcDbEntity
  8
2
370
    50
100
AcDbLine
 10
-394.249786
 20
-309.899342
 30
0.0
 11
-394.249786
 21
-309.499342
 31
0.0
  0
LINE
  5
549
100
AcDbEntity
  8
2
370
    50
100
AcDbLine
 10
-379.249786
 20
-309.899342
 30
0.0
 11
-379.249786
 21
-309.499342
 31
0.0
  0
LINE
  5
54A
100
AcDbEntity
  8
2
370
    50
100
AcDbLine
 10
-395.749786
 20
-309.899342
 30
0.0
 11
-396.749786
 21
-310.899342
 31
0.0
  0
LINE
  5
54B
100
AcDbEntity
  8
2
370
    50
100
AcDbLine
 10
-376.749786
 20
-310.899342
 30
0.0
 11
-377.749786
 21
-309.899342
 31
0.0
  0
LINE
  5
54C
100
AcDbEntity
  8
2
370
    50
100
AcDbLine
 10
-376.749786
 20
-310.899342
 30
0.0
 11
-396.749786
 21
-310.899342
 31
0.0
  0
LINE
  5
54D
100
AcDbEntity
  8
2
370
    50
100
AcDbLine
 10
-396.749786
 20
-310.899342
 30
0.0
 11
-396.749786
 21
-319.699342
 31
0.0
  0
LINE
  5
54E
100
AcDbEntity
  8
2
370
    50
100
AcDbLine
 10
-376.749786
 20
-310.899342
 30
0.0
 11
-376.749786
 21
-319.699342
 31
0.0
  0
LINE
  5
54F
100
AcDbEntity
  8
2
370
    50
100
AcDbLine
 10
-398.749786
 20
-319.699342
 30
0.0
 11
-374.749786
 21
-319.699342
 31
0.0
  0
LINE
  5
550
100
AcDbEntity
  8
2
370
    50
100
AcDbLine
 10
-398.749786
 20
-330.699342
 30
0.0
 11
-398.749786
 21
-319.699342
 31
0.0
  0
LINE
  5
551
100
AcDbEntity
  8
2
370
    50
100
AcDbLine
 10
-374.749786
 20
-319.699342
 30
0.0
 11
-374.749786
 21
-330.699342
 31
0.0
  0
LINE
  5
552
100
AcDbEntity
  8
2
370
    50
100
AcDbLine
 10
-398.749786
 20
-330.699342
 30
0.0
 11
-374.749786
 21
-330.699342
 31
0.0
  0
ARC
  5
553
100
AcDbEntity
  8
2
370
    50
100
AcDbCircle
 10
-380.749786
 20
-330.325618
 30
0.0
 40
10.626276
100
AcDbArc
 50
55.622837
 51
124.377163
  0
ARC
  5
554
100
AcDbEntity
  8
2
370
    50
100
AcDbCircle
 10
-392.749786
 20
-330.325618
 30
0.0
 40
10.626276
100
AcDbArc
 50
55.622837
 51
124.377163
  0
ARC
  5
555
100
AcDbEntity
  8
2
370
    50
100
AcDbCircle
 10
-392.749786
 20
-320.073066
 30
0.0
 40
10.626276
100
AcDbArc
 50
235.622837
 51
304.377163
  0
ARC
  5
556
100
AcDbEntity
  8
2
370
    50
100
AcDbCircle
 10
-380.749786
 20
-320.073066
 30
0.0
 40
10.626276
100
AcDbArc
 50
235.622837
 51
304.377163
  0
LINE
  5
557
100
AcDbEntity
  8
2
370
    50
100
AcDbLine
 10
-386.749786
 20
-321.555342
 30
0.0
 11
-386.749786
 21
-328.843342
 31
0.0
  0
LINE
  5
558
100
AcDbEntity
  8
2
370
    50
100
AcDbLine
 10
-380.998683
 20
-306.142304
 30
0.0
 11
-380.998683
 21
-251.619324
 31
0.0
  0
LINE
  5
559
100
AcDbEntity
  8
2
370
    50
100
AcDbLine
 10
-392.498683
 20
-306.142304
 30
0.0
 11
-392.498683
 21
-251.803459
 31
0.0
  0
TEXT
  5
55A
100
AcDbEntity
  8
2
370
    50
100
AcDbText
 10
-345.816628
 20
-346.043144
 30
0.0
 40
10.5
  1
２４六角
 72
     5
 11
-305.916628
 21
-346.043144
 31
0.0
100
AcDbText
  0
TEXT
  5
55B
100
AcDbEntity
  8
2
370
    50
100
AcDbText
 10
-449.444046
 20
-351.113747
 30
0.0
 40
10.5
  1
Ｇ１／２
 72
     5
 11
-409.544046
 21
-351.113747
 31
0.0
100
AcDbText
  0
POINT
  5
55C
100
AcDbEntity
  8
2
370
    50
100
AcDbPoint
 10
-386.748683
 20
-330.699342
 30
0.0
  0
LWPOLYLINE
  5
55D
100
AcDbEntity
  8
2
370
    25
100
AcDbPolyline
 90
        3
 70
     0
 10
-394.940918
 20
-330.699342
 10
-407.109833
 20
-352.484566
 10
-451.329391
 20
-352.484566
  0
LINE
  5
562
100
AcDbEntity
  8
2
370
    25
100
AcDbLine
 10
-397.767196
 20
-335.759046
 30
0.0
 11
-396.411453
 21
-336.516345
 31
0.0
  0
LINE
  5
563
100
AcDbEntity
  8
2
370
    25
100
AcDbLine
 10
-396.411453
 20
-336.516345
 30
0.0
 11
-394.940918
 21
-330.699342
 31
0.0
  0
LINE
  5
564
100
AcDbEntity
  8
2
370
    25
100
AcDbLine
 10
-394.940918
 20
-330.699342
 30
0.0
 11
-399.12294
 21
-335.001747
 31
0.0
  0
LINE
  5
565
100
AcDbEntity
  8
2
370
    25
100
AcDbLine
 10
-399.12294
 20
-335.001747
 30
0.0
 11
-397.767196
 21
-335.759046
 31
0.0
  0
LWPOLYLINE
  5
566
100
AcDbEntity
  8
2
370
    25
100
AcDbPolyline
 90
        3
 70
     0
 10
-374.749786
 20
-325.151703
 10
-347.75148
 20
-347.203827
 10
-301.508125
 20
-347.203827
  0
LINE
  5
56B
100
AcDbEntity
  8
2
370
    25
100
AcDbLine
 10
-370.261228
 20
-328.817942
 30
0.0
 11
-369.278862
 21
-327.615236
 31
0.0
  0
LINE
  5
56C
100
AcDbEntity
  8
2
370
    25
100
AcDbLine
 10
-369.278862
 20
-327.615236
 30
0.0
 11
-374.749786
 21
-325.151703
 31
0.0
  0
LINE
  5
56D
100
AcDbEntity
  8
2
370
    25
100
AcDbLine
 10
-374.749786
 20
-325.151703
 30
0.0
 11
-371.243594
 21
-330.020647
 31
0.0
  0
LINE
  5
56E
100
AcDbEntity
  8
2
370
    25
100
AcDbLine
 10
-371.243594
 20
-330.020647
 30
0.0
 11
-370.261228
 21
-328.817942
 31
0.0
  0
LINE
  5
56F
100
AcDbEntity
  8
2
370
    50
100
AcDbLine
 10
102.40026
 20
-183.117685
 30
0.0
 11
102.40026
 21
-198.617685
 31
0.0
  0
LINE
  5
570
100
AcDbEntity
  8
2
370
    50
100
AcDbLine
 10
102.90026
 20
-199.117685
 30
0.0
 11
102.40026
 21
-198.617685
 31
0.0
  0
LINE
  5
571
100
AcDbEntity
  8
2
370
    50
100
AcDbLine
 10
102.90026
 20
-182.617685
 30
0.0
 11
102.40026
 21
-183.117685
 31
0.0
  0
LINE
  5
572
100
AcDbEntity
  8
2
370
    50
100
AcDbLine
 10
106.90026
 20
-183.117685
 30
0.0
 11
106.90026
 21
-198.617685
 31
0.0
  0
LINE
  5
573
100
AcDbEntity
  8
2
370
    50
100
AcDbLine
 10
104.329107
 20
-183.117685
 30
0.0
 11
104.329107
 21
-198.617685
 31
0.0
  0
LINE
  5
574
100
AcDbEntity
  8
2
370
    50
100
AcDbLine
 10
102.579107
 20
-183.117685
 30
0.0
 11
102.579107
 21
-198.617685
 31
0.0
  0
LINE
  5
575
100
AcDbEntity
  8
2
370
    50
100
AcDbLine
 10
102.40026
 20
-183.117685
 30
0.0
 11
102.579107
 21
-183.117685
 31
0.0
  0
LINE
  5
576
100
AcDbEntity
  8
2
370
    50
100
AcDbLine
 10
104.329107
 20
-183.117685
 30
0.0
 11
106.90026
 21
-183.117685
 31
0.0
  0
LINE
  5
577
100
AcDbEntity
  8
2
370
    50
100
AcDbLine
 10
102.40026
 20
-198.617685
 30
0.0
 11
102.579107
 21
-198.617685
 31
0.0
  0
LINE
  5
578
100
AcDbEntity
  8
2
370
    50
100
AcDbLine
 10
104.329107
 20
-198.617685
 30
0.0
 11
106.90026
 21
-198.617685
 31
0.0
  0
ARC
  5
579
100
AcDbEntity
  8
2
370
    50
100
AcDbCircle
 10
103.454107
 20
-183.63331
 30
0.0
 40
1.015625
100
AcDbArc
 50
30.510237
 51
149.489763
  0
ARC
  5
57A
100
AcDbEntity
  8
2
370
    50
100
AcDbCircle
 10
108.65026
 20
-185.930185
 30
0.0
 40
3.3125
100
AcDbArc
 50
90.0
 51
121.890792
  0
ARC
  5
57B
100
AcDbEntity
  8
2
370
    50
100
AcDbCircle
 10
108.65026
 20
-195.805185
 30
0.0
 40
3.3125
100
AcDbArc
 50
238.109208
 51
270.0
  0
ARC
  5
57C
100
AcDbEntity
  8
2
370
    50
100
AcDbCircle
 10
103.454107
 20
-198.10206
 30
0.0
 40
1.015625
100
AcDbArc
 50
210.510237
 51
329.489763
  0
LINE
  5
57D
100
AcDbEntity
  8
2
370
    50
100
AcDbLine
 10
104.65026
 20
-182.617685
 30
0.0
 11
104.65026
 21
-171.4295
 31
0.0
  0
LINE
  5
57E
100
AcDbEntity
  8
2
370
    50
100
AcDbLine
 10
108.65026
 20
-182.617685
 30
0.0
 11
102.90026
 21
-182.617685
 31
0.0
  0
LINE
  5
57F
100
AcDbEntity
  8
2
370
    50
100
AcDbLine
 10
102.90026
 20
-199.117685
 30
0.0
 11
108.65026
 21
-199.117685
 31
0.0
  0
LINE
  5
580
100
AcDbEntity
  8
2
370
    50
100
AcDbLine
 10
129.90026
 20
-183.117685
 30
0.0
 11
129.90026
 21
-198.617685
 31
0.0
  0
LINE
  5
581
100
AcDbEntity
  8
2
370
    50
100
AcDbLine
 10
129.40026
 20
-199.117685
 30
0.0
 11
129.90026
 21
-198.617685
 31
0.0
  0
LINE
  5
582
100
AcDbEntity
  8
2
370
    50
100
AcDbLine
 10
129.40026
 20
-182.617685
 30
0.0
 11
129.90026
 21
-183.117685
 31
0.0
  0
LINE
  5
583
100
AcDbEntity
  8
2
370
    50
100
AcDbLine
 10
125.40026
 20
-183.117685
 30
0.0
 11
125.40026
 21
-198.617685
 31
0.0
  0
LINE
  5
584
100
AcDbEntity
  8
2
370
    50
100
AcDbLine
 10
127.971412
 20
-183.117685
 30
0.0
 11
127.971412
 21
-198.617685
 31
0.0
  0
LINE
  5
585
100
AcDbEntity
  8
2
370
    50
100
AcDbLine
 10
129.721412
 20
-183.117685
 30
0.0
 11
129.721412
 21
-198.617685
 31
0.0
  0
LINE
  5
586
100
AcDbEntity
  8
2
370
    50
100
AcDbLine
 10
129.90026
 20
-183.117685
 30
0.0
 11
129.721412
 21
-183.117685
 31
0.0
  0
LINE
  5
587
100
AcDbEntity
  8
2
370
    50
100
AcDbLine
 10
127.971412
 20
-183.117685
 30
0.0
 11
125.40026
 21
-183.117685
 31
0.0
  0
LINE
  5
588
100
AcDbEntity
  8
2
370
    50
100
AcDbLine
 10
129.90026
 20
-198.617685
 30
0.0
 11
129.721412
 21
-198.617685
 31
0.0
  0
LINE
  5
589
100
AcDbEntity
  8
2
370
    50
100
AcDbLine
 10
127.971412
 20
-198.617685
 30
0.0
 11
125.40026
 21
-198.617685
 31
0.0
  0
ARC
  5
58A
100
AcDbEntity
  8
2
370
    50
100
AcDbCircle
 10
128.846412
 20
-183.63331
 30
0.0
 40
1.015625
100
AcDbArc
 50
30.510237
 51
149.489763
  0
ARC
  5
58B
100
AcDbEntity
  8
2
370
    50
100
AcDbCircle
 10
123.65026
 20
-185.930185
 30
0.0
 40
3.3125
100
AcDbArc
 50
58.109208
 51
90.0
  0
ARC
  5
58C
100
AcDbEntity
  8
2
370
    50
100
AcDbCircle
 10
123.65026
 20
-195.805185
 30
0.0
 40
3.3125
100
AcDbArc
 50
270.0
 51
301.890792
  0
ARC
  5
58D
100
AcDbEntity
  8
2
370
    50
100
AcDbCircle
 10
128.846412
 20
-198.10206
 30
0.0
 40
1.015625
100
AcDbArc
 50
210.510237
 51
329.489763
  0
LINE
  5
58E
100
AcDbEntity
  8
2
370
    50
100
AcDbLine
 10
127.65026
 20
-182.617685
 30
0.0
 11
127.65026
 21
-171.4295
 31
0.0
  0
LINE
  5
58F
100
AcDbEntity
  8
2
370
    50
100
AcDbLine
 10
123.65026
 20
-182.617685
 30
0.0
 11
129.40026
 21
-182.617685
 31
0.0
  0
LINE
  5
590
100
AcDbEntity
  8
2
370
    50
100
AcDbLine
 10
129.40026
 20
-199.117685
 30
0.0
 11
123.65026
 21
-199.117685
 31
0.0
  0
LINE
  5
591
100
AcDbEntity
  8
2
370
    50
100
AcDbLine
 10
102.65026
 20
-204.72901
 30
0.0
 11
102.65026
 21
-199.40636
 31
0.0
  0
LINE
  5
592
100
AcDbEntity
  8
2
370
    50
100
AcDbLine
 10
112.15026
 20
-205.017685
 30
0.0
 11
102.85026
 21
-205.017685
 31
0.0
  0
LINE
  5
593
100
AcDbEntity
  8
2
370
    50
100
AcDbLine
 10
111.048175
 20
-201.4295
 30
0.0
 11
111.048175
 21
-204.72901
 31
0.0
  0
LINE
  5
594
100
AcDbEntity
  8
2
370
    50
100
AcDbLine
 10
103.65026
 20
-199.117685
 30
0.0
 11
103.15026
 21
-199.117685
 31
0.0
  0
LINE
  5
595
100
AcDbEntity
  8
2
370
    50
100
AcDbLine
 10
112.214442
 20
-204.72901
 30
0.0
 11
111.048175
 21
-204.72901
 31
0.0
  0
LINE
  5
596
100
AcDbEntity
  8
2
370
    50
100
AcDbLine
 10
102.65026
 20
-204.72901
 30
0.0
 11
103.15026
 21
-205.017685
 31
0.0
  0
LINE
  5
597
100
AcDbEntity
  8
2
370
    50
100
AcDbLine
 10
102.65026
 20
-199.40636
 30
0.0
 11
103.15026
 21
-199.117685
 31
0.0
  0
ARC
  5
598
100
AcDbEntity
  8
2
370
    50
100
AcDbCircle
 10
108.65026
 20
-194.914055
 30
0.0
 40
10.10363
100
AcDbArc
 50
270.0
 51
283.729133
  0
LINE
  5
599
100
AcDbEntity
  8
2
370
    50
100
AcDbLine
 10
102.15026
 20
-222.017685
 30
0.0
 11
115.15026
 21
-222.017685
 31
0.0
  0
LINE
  5
59A
100
AcDbEntity
  8
2
370
    50
100
AcDbLine
 10
102.15026
 20
-222.017685
 30
0.0
 11
102.15026
 21
-209.517685
 31
0.0
  0
LINE
  5
59B
100
AcDbEntity
  8
2
370
    50
100
AcDbLine
 10
115.15026
 20
-222.017685
 30
0.0
 11
115.15026
 21
-209.517685
 31
0.0
  0
LINE
  5
59C
100
AcDbEntity
  8
2
370
    50
100
AcDbLine
 10
104.775929
 20
-208.017685
 30
0.0
 11
104.775929
 21
-205.517685
 31
0.0
  0
LINE
  5
59D
100
AcDbEntity
  8
2
370
    50
100
AcDbLine
 10
104.068823
 20
-208.017685
 30
0.0
 11
104.068823
 21
-205.517685
 31
0.0
  0
LINE
  5
59E
100
AcDbEntity
  8
2
370
    50
100
AcDbLine
 10
102.671129
 20
-208.017685
 30
0.0
 11
102.671129
 21
-205.517685
 31
0.0
  0
LINE
  5
59F
100
AcDbEntity
  8
2
370
    50
100
AcDbLine
 10
102.65026
 20
-208.017685
 30
0.0
 11
102.65026
 21
-205.217685
 31
0.0
  0
LINE
  5
5A0
100
AcDbEntity
  8
2
370
    50
100
AcDbLine
 10
108.15026
 20
-208.017685
 30
0.0
 11
108.15026
 21
-205.517685
 31
0.0
  0
LINE
  5
5A1
100
AcDbEntity
  8
2
370
    50
100
AcDbLine
 10
109.15026
 20
-208.017685
 30
0.0
 11
109.15026
 21
-205.517685
 31
0.0
  0
LINE
  5
5A2
100
AcDbEntity
  8
2
370
    50
100
AcDbLine
 10
112.52459
 20
-208.017685
 30
0.0
 11
112.52459
 21
-207.367015
 31
0.0
  0
LINE
  5
5A3
100
AcDbEntity
  8
2
370
    50
100
AcDbLine
 10
113.231697
 20
-208.017685
 30
0.0
 11
113.231697
 21
-207.617685
 31
0.0
  0
LINE
  5
5A4
100
AcDbEntity
  8
2
370
    50
100
AcDbLine
 10
114.65026
 20
-208.017685
 30
0.0
 11
114.65026
 21
-207.617685
 31
0.0
  0
LINE
  5
5A5
100
AcDbEntity
  8
2
370
    50
100
AcDbLine
 10
114.62939
 20
-208.017685
 30
0.0
 11
114.62939
 21
-207.617685
 31
0.0
  0
LINE
  5
5A6
100
AcDbEntity
  8
2
370
    50
100
AcDbLine
 10
104.068823
 20
-205.517685
 30
0.0
 11
102.65026
 21
-205.517685
 31
0.0
  0
LINE
  5
5A7
100
AcDbEntity
  8
2
370
    50
100
AcDbLine
 10
108.15026
 20
-205.517685
 30
0.0
 11
104.775929
 21
-205.517685
 31
0.0
  0
LINE
  5
5A8
100
AcDbEntity
  8
2
370
    50
100
AcDbLine
 10
112.15026
 20
-205.517685
 30
0.0
 11
109.15026
 21
-205.517685
 31
0.0
  0
LINE
  5
5A9
100
AcDbEntity
  8
2
370
    50
100
AcDbLine
 10
104.068823
 20
-208.017685
 30
0.0
 11
102.65026
 21
-208.017685
 31
0.0
  0
LINE
  5
5AA
100
AcDbEntity
  8
2
370
    50
100
AcDbLine
 10
108.15026
 20
-208.017685
 30
0.0
 11
104.775929
 21
-208.017685
 31
0.0
  0
LINE
  5
5AB
100
AcDbEntity
  8
2
370
    50
100
AcDbLine
 10
114.65026
 20
-208.017685
 30
0.0
 11
113.231697
 21
-208.017685
 31
0.0
  0
LINE
  5
5AC
100
AcDbEntity
  8
2
370
    50
100
AcDbLine
 10
112.52459
 20
-208.017685
 30
0.0
 11
109.15026
 21
-208.017685
 31
0.0
  0
ARC
  5
5AD
100
AcDbEntity
  8
2
370
    50
100
AcDbCircle
 10
102.85026
 20
-205.217685
 30
0.0
 40
0.2
100
AcDbArc
 50
90.0
 51
180.0
  0
ARC
  5
5AE
100
AcDbEntity
  8
2
370
    50
100
AcDbCircle
 10
104.65026
 20
-209.517685
 30
0.0
 40
2.5
100
AcDbArc
 50
143.130102
 51
180.0
  0
ARC
  5
5AF
100
AcDbEntity
  8
2
370
    50
100
AcDbCircle
 10
112.65026
 20
-209.517685
 30
0.0
 40
2.5
100
AcDbArc
 50
0.0
 51
36.869898
  0
LINE
  5
5B0
100
AcDbEntity
  8
2
370
    25
100
AcDbLine
 10
102.169519
 20
-222.017685
 30
0.0
 11
102.169519
 21
-209.517685
 31
0.0
  0
LINE
  5
5B1
100
AcDbEntity
  8
2
370
    25
100
AcDbLine
 10
103.714131
 20
-222.017685
 30
0.0
 11
103.714131
 21
-209.517685
 31
0.0
  0
LINE
  5
5B2
100
AcDbEntity
  8
2
370
    25
100
AcDbLine
 10
104.421237
 20
-222.017685
 30
0.0
 11
104.421237
 21
-209.517685
 31
0.0
  0
LINE
  5
5B3
100
AcDbEntity
  8
2
370
    25
100
AcDbLine
 10
108.15026
 20
-222.017685
 30
0.0
 11
108.15026
 21
-209.517685
 31
0.0
  0
LINE
  5
5B4
100
AcDbEntity
  8
2
370
    25
100
AcDbLine
 10
109.15026
 20
-222.017685
 30
0.0
 11
109.15026
 21
-209.517685
 31
0.0
  0
LINE
  5
5B5
100
AcDbEntity
  8
2
370
    25
100
AcDbLine
 10
112.879282
 20
-222.017685
 30
0.0
 11
112.879282
 21
-209.517685
 31
0.0
  0
LINE
  5
5B6
100
AcDbEntity
  8
2
370
    25
100
AcDbLine
 10
113.586389
 20
-222.017685
 30
0.0
 11
113.586389
 21
-209.517685
 31
0.0
  0
LINE
  5
5B7
100
AcDbEntity
  8
2
370
    25
100
AcDbLine
 10
115.131
 20
-222.017685
 30
0.0
 11
115.131
 21
-209.517685
 31
0.0
  0
ARC
  5
5B8
100
AcDbEntity
  8
2
370
    50
100
AcDbCircle
 10
108.65026
 20
-194.914055
 30
0.0
 40
10.10363
100
AcDbArc
 50
256.270867
 51
270.0
  0
LINE
  5
5B9
100
AcDbEntity
  8
2
370
    50
100
AcDbLine
 10
105.086078
 20
-204.72901
 30
0.0
 11
106.252344
 21
-204.72901
 31
0.0
  0
ARC
  5
5BA
100
AcDbEntity
  8
2
370
    50
100
AcDbCircle
 10
103.88712
 20
-202.383525
 30
0.0
 40
2.634161
100
AcDbArc
 50
242.924933
 51
297.075067
  0
LINE
  5
5BB
100
AcDbEntity
  8
2
370
    50
100
AcDbLine
 10
102.90026
 20
-235.023399
 30
0.0
 11
102.90026
 21
-222.017685
 31
0.0
  0
LINE
  5
5BC
100
AcDbEntity
  8
2
370
    50
100
AcDbLine
 10
114.40026
 20
-235.023399
 30
0.0
 11
114.40026
 21
-222.017685
 31
0.0
  0
LINE
  5
5BD
100
AcDbEntity
  8
2
370
    50
100
AcDbLine
 10
102.688162
 20
-202.314723
 30
0.0
 11
102.688162
 21
-204.72901
 31
0.0
  0
LINE
  5
5BE
100
AcDbEntity
  8
2
370
    50
100
AcDbLine
 10
102.688162
 20
-204.72901
 30
0.0
 11
102.65026
 21
-204.72901
 31
0.0
  0
LINE
  5
5BF
100
AcDbEntity
  8
2
370
    50
100
AcDbLine
 10
103.15026
 20
-199.117685
 30
0.0
 11
108.65026
 21
-199.117685
 31
0.0
  0
ARC
  5
5C0
100
AcDbEntity
  8
2
370
    50
100
AcDbCircle
 10
108.65026
 20
-209.221315
 30
0.0
 40
10.10363
100
AcDbArc
 50
90.0
 51
103.729133
  0
LINE
  5
5C1
100
AcDbEntity
  8
2
370
    50
100
AcDbLine
 10
106.252344
 20
-199.40636
 30
0.0
 11
106.252344
 21
-204.72901
 31
0.0
  0
LINE
  5
5C2
100
AcDbEntity
  8
2
370
    50
100
AcDbLine
 10
105.086078
 20
-199.40636
 30
0.0
 11
106.252344
 21
-199.40636
 31
0.0
  0
LINE
  5
5C3
100
AcDbEntity
  8
2
370
    50
100
AcDbLine
 10
105.086078
 20
-199.40636
 30
0.0
 11
106.252344
 21
-199.40636
 31
0.0
  0
LINE
  5
5C4
100
AcDbEntity
  8
2
370
    50
100
AcDbLine
 10
105.086078
 20
-199.40636
 30
0.0
 11
105.086078
 21
-204.72901
 31
0.0
  0
LINE
  5
5C5
100
AcDbEntity
  8
2
370
    50
100
AcDbLine
 10
103.15026
 20
-199.117685
 30
0.0
 11
108.65026
 21
-199.117685
 31
0.0
  0
ARC
  5
5C6
100
AcDbEntity
  8
2
370
    50
100
AcDbCircle
 10
103.88712
 20
-201.751846
 30
0.0
 40
2.634161
100
AcDbArc
 50
62.924933
 51
117.075067
  0
LINE
  5
5C7
100
AcDbEntity
  8
2
370
    50
100
AcDbLine
 10
102.688162
 20
-199.40636
 30
0.0
 11
102.688162
 21
-204.72901
 31
0.0
  0
LINE
  5
5C8
100
AcDbEntity
  8
2
370
    50
100
AcDbLine
 10
129.65026
 20
-204.72901
 30
0.0
 11
129.65026
 21
-199.40636
 31
0.0
  0
LINE
  5
5C9
100
AcDbEntity
  8
2
370
    50
100
AcDbLine
 10
120.15026
 20
-205.017685
 30
0.0
 11
129.45026
 21
-205.017685
 31
0.0
  0
LINE
  5
5CA
100
AcDbEntity
  8
2
370
    50
100
AcDbLine
 10
121.252344
 20
-201.4295
 30
0.0
 11
121.252344
 21
-204.72901
 31
0.0
  0
LINE
  5
5CB
100
AcDbEntity
  8
2
370
    50
100
AcDbLine
 10
128.65026
 20
-199.117685
 30
0.0
 11
129.15026
 21
-199.117685
 31
0.0
  0
LINE
  5
5CC
100
AcDbEntity
  8
2
370
    50
100
AcDbLine
 10
120.086078
 20
-204.72901
 30
0.0
 11
121.252344
 21
-204.72901
 31
0.0
  0
LINE
  5
5CD
100
AcDbEntity
  8
2
370
    50
100
AcDbLine
 10
129.65026
 20
-204.72901
 30
0.0
 11
129.15026
 21
-205.017685
 31
0.0
  0
LINE
  5
5CE
100
AcDbEntity
  8
2
370
    50
100
AcDbLine
 10
129.65026
 20
-199.40636
 30
0.0
 11
129.15026
 21
-199.117685
 31
0.0
  0
ARC
  5
5CF
100
AcDbEntity
  8
2
370
    50
100
AcDbCircle
 10
123.65026
 20
-194.914055
 30
0.0
 40
10.10363
100
AcDbArc
 50
256.270867
 51
270.0
  0
LINE
  5
5D0
100
AcDbEntity
  8
2
370
    50
100
AcDbLine
 10
130.15026
 20
-222.017685
 30
0.0
 11
117.15026
 21
-222.017685
 31
0.0
  0
LINE
  5
5D1
100
AcDbEntity
  8
2
370
    50
100
AcDbLine
 10
130.15026
 20
-222.017685
 30
0.0
 11
130.15026
 21
-209.517685
 31
0.0
  0
LINE
  5
5D2
100
AcDbEntity
  8
2
370
    50
100
AcDbLine
 10
117.15026
 20
-222.017685
 30
0.0
 11
117.15026
 21
-209.517685
 31
0.0
  0
LINE
  5
5D3
100
AcDbEntity
  8
2
370
    50
100
AcDbLine
 10
127.52459
 20
-208.017685
 30
0.0
 11
127.52459
 21
-205.517685
 31
0.0
  0
LINE
  5
5D4
100
AcDbEntity
  8
2
370
    50
100
AcDbLine
 10
128.231697
 20
-208.017685
 30
0.0
 11
128.231697
 21
-205.517685
 31
0.0
  0
LINE
  5
5D5
100
AcDbEntity
  8
2
370
    50
100
AcDbLine
 10
129.62939
 20
-208.017685
 30
0.0
 11
129.62939
 21
-205.517685
 31
0.0
  0
LINE
  5
5D6
100
AcDbEntity
  8
2
370
    50
100
AcDbLine
 10
129.65026
 20
-208.017685
 30
0.0
 11
129.65026
 21
-205.217685
 31
0.0
  0
LINE
  5
5D7
100
AcDbEntity
  8
2
370
    50
100
AcDbLine
 10
124.15026
 20
-208.017685
 30
0.0
 11
124.15026
 21
-205.517685
 31
0.0
  0
LINE
  5
5D8
100
AcDbEntity
  8
2
370
    50
100
AcDbLine
 10
123.15026
 20
-208.017685
 30
0.0
 11
123.15026
 21
-205.517685
 31
0.0
  0
LINE
  5
5D9
100
AcDbEntity
  8
2
370
    50
100
AcDbLine
 10
119.775929
 20
-208.017685
 30
0.0
 11
119.775929
 21
-207.367015
 31
0.0
  0
LINE
  5
5DA
100
AcDbEntity
  8
2
370
    50
100
AcDbLine
 10
119.068823
 20
-208.017685
 30
0.0
 11
119.068823
 21
-207.617685
 31
0.0
  0
LINE
  5
5DB
100
AcDbEntity
  8
2
370
    50
100
AcDbLine
 10
117.65026
 20
-208.017685
 30
0.0
 11
117.65026
 21
-207.617685
 31
0.0
  0
LINE
  5
5DC
100
AcDbEntity
  8
2
370
    50
100
AcDbLine
 10
117.671129
 20
-208.017685
 30
0.0
 11
117.671129
 21
-207.617685
 31
0.0
  0
LINE
  5
5DD
100
AcDbEntity
  8
2
370
    50
100
AcDbLine
 10
128.231697
 20
-205.517685
 30
0.0
 11
129.65026
 21
-205.517685
 31
0.0
  0
LINE
  5
5DE
100
AcDbEntity
  8
2
370
    50
100
AcDbLine
 10
124.15026
 20
-205.517685
 30
0.0
 11
127.52459
 21
-205.517685
 31
0.0
  0
LINE
  5
5DF
100
AcDbEntity
  8
2
370
    50
100
AcDbLine
 10
120.15026
 20
-205.517685
 30
0.0
 11
123.15026
 21
-205.517685
 31
0.0
  0
LINE
  5
5E0
100
AcDbEntity
  8
2
370
    50
100
AcDbLine
 10
128.231697
 20
-208.017685
 30
0.0
 11
129.65026
 21
-208.017685
 31
0.0
  0
LINE
  5
5E1
100
AcDbEntity
  8
2
370
    50
100
AcDbLine
 10
124.15026
 20
-208.017685
 30
0.0
 11
127.52459
 21
-208.017685
 31
0.0
  0
LINE
  5
5E2
100
AcDbEntity
  8
2
370
    50
100
AcDbLine
 10
117.65026
 20
-208.017685
 30
0.0
 11
119.068823
 21
-208.017685
 31
0.0
  0
LINE
  5
5E3
100
AcDbEntity
  8
2
370
    50
100
AcDbLine
 10
119.775929
 20
-208.017685
 30
0.0
 11
123.15026
 21
-208.017685
 31
0.0
  0
ARC
  5
5E4
100
AcDbEntity
  8
2
370
    50
100
AcDbCircle
 10
129.45026
 20
-205.217685
 30
0.0
 40
0.2
100
AcDbArc
 50
0.0
 51
90.0
  0
ARC
  5
5E5
100
AcDbEntity
  8
2
370
    50
100
AcDbCircle
 10
127.65026
 20
-209.517685
 30
0.0
 40
2.5
100
AcDbArc
 50
0.0
 51
36.869898
  0
ARC
  5
5E6
100
AcDbEntity
  8
2
370
    50
100
AcDbCircle
 10
119.65026
 20
-209.517685
 30
0.0
 40
2.5
100
AcDbArc
 50
143.130102
 51
180.0
  0
LINE
  5
5E7
100
AcDbEntity
  8
2
370
    25
100
AcDbLine
 10
130.131
 20
-222.017685
 30
0.0
 11
130.131
 21
-209.517685
 31
0.0
  0
LINE
  5
5E8
100
AcDbEntity
  8
2
370
    25
100
AcDbLine
 10
128.586389
 20
-222.017685
 30
0.0
 11
128.586389
 21
-209.517685
 31
0.0
  0
LINE
  5
5E9
100
AcDbEntity
  8
2
370
    25
100
AcDbLine
 10
127.879282
 20
-222.017685
 30
0.0
 11
127.879282
 21
-209.517685
 31
0.0
  0
LINE
  5
5EA
100
AcDbEntity
  8
2
370
    25
100
AcDbLine
 10
124.15026
 20
-222.017685
 30
0.0
 11
124.15026
 21
-209.517685
 31
0.0
  0
LINE
  5
5EB
100
AcDbEntity
  8
2
370
    25
100
AcDbLine
 10
123.15026
 20
-222.017685
 30
0.0
 11
123.15026
 21
-209.517685
 31
0.0
  0
LINE
  5
5EC
100
AcDbEntity
  8
2
370
    25
100
AcDbLine
 10
119.421237
 20
-222.017685
 30
0.0
 11
119.421237
 21
-209.517685
 31
0.0
  0
LINE
  5
5ED
100
AcDbEntity
  8
2
370
    25
100
AcDbLine
 10
118.714131
 20
-222.017685
 30
0.0
 11
118.714131
 21
-209.517685
 31
0.0
  0
LINE
  5
5EE
100
AcDbEntity
  8
2
370
    25
100
AcDbLine
 10
117.169519
 20
-222.017685
 30
0.0
 11
117.169519
 21
-209.517685
 31
0.0
  0
ARC
  5
5EF
100
AcDbEntity
  8
2
370
    50
100
AcDbCircle
 10
123.65026
 20
-194.914055
 30
0.0
 40
10.10363
100
AcDbArc
 50
270.0
 51
283.729133
  0
LINE
  5
5F0
100
AcDbEntity
  8
2
370
    50
100
AcDbLine
 10
127.214442
 20
-204.72901
 30
0.0
 11
126.048175
 21
-204.72901
 31
0.0
  0
ARC
  5
5F1
100
AcDbEntity
  8
2
370
    50
100
AcDbCircle
 10
128.413399
 20
-202.383525
 30
0.0
 40
2.634161
100
AcDbArc
 50
242.924933
 51
297.075067
  0
LINE
  5
5F2
100
AcDbEntity
  8
2
370
    50
100
AcDbLine
 10
129.40026
 20
-235.023399
 30
0.0
 11
129.40026
 21
-222.017685
 31
0.0
  0
LINE
  5
5F3
100
AcDbEntity
  8
2
370
    50
100
AcDbLine
 10
117.90026
 20
-235.023399
 30
0.0
 11
117.90026
 21
-222.017685
 31
0.0
  0
LINE
  5
5F4
100
AcDbEntity
  8
2
370
    50
100
AcDbLine
 10
129.612357
 20
-202.314723
 30
0.0
 11
129.612357
 21
-204.72901
 31
0.0
  0
LINE
  5
5F5
100
AcDbEntity
  8
2
370
    50
100
AcDbLine
 10
129.612357
 20
-204.72901
 30
0.0
 11
129.65026
 21
-204.72901
 31
0.0
  0
LINE
  5
5F6
100
AcDbEntity
  8
2
370
    50
100
AcDbLine
 10
129.15026
 20
-199.117685
 30
0.0
 11
123.65026
 21
-199.117685
 31
0.0
  0
ARC
  5
5F7
100
AcDbEntity
  8
2
370
    50
100
AcDbCircle
 10
123.65026
 20
-209.221315
 30
0.0
 40
10.10363
100
AcDbArc
 50
76.270867
 51
90.0
  0
LINE
  5
5F8
100
AcDbEntity
  8
2
370
    50
100
AcDbLine
 10
126.048175
 20
-199.40636
 30
0.0
 11
126.048175
 21
-204.72901
 31
0.0
  0
LINE
  5
5F9
100
AcDbEntity
  8
2
370
    50
100
AcDbLine
 10
127.214442
 20
-199.40636
 30
0.0
 11
126.048175
 21
-199.40636
 31
0.0
  0
LINE
  5
5FA
100
AcDbEntity
  8
2
370
    50
100
AcDbLine
 10
127.214442
 20
-199.40636
 30
0.0
 11
126.048175
 21
-199.40636
 31
0.0
  0
LINE
  5
5FB
100
AcDbEntity
  8
2
370
    50
100
AcDbLine
 10
127.214442
 20
-199.40636
 30
0.0
 11
127.214442
 21
-204.72901
 31
0.0
  0
LINE
  5
5FC
100
AcDbEntity
  8
2
370
    50
100
AcDbLine
 10
129.15026
 20
-199.117685
 30
0.0
 11
123.65026
 21
-199.117685
 31
0.0
  0
ARC
  5
5FD
100
AcDbEntity
  8
2
370
    50
100
AcDbCircle
 10
128.413399
 20
-201.751846
 30
0.0
 40
2.634161
100
AcDbArc
 50
62.924933
 51
117.075067
  0
LINE
  5
5FE
100
AcDbEntity
  8
2
370
    50
100
AcDbLine
 10
129.612357
 20
-199.40636
 30
0.0
 11
129.612357
 21
-204.72901
 31
0.0
  0
ARC
  5
5FF
100
AcDbEntity
  8
2
370
    50
100
AcDbCircle
 10
105.77526
 20
-231.190066
 30
0.0
 40
4.791667
100
AcDbArc
 50
233.130102
 51
306.869898
  0
ARC
  5
600
100
AcDbEntity
  8
2
370
    50
100
AcDbCircle
 10
111.52526
 20
-238.856733
 30
0.0
 40
4.791667
100
AcDbArc
 50
53.130102
 51
126.869898
  0
ARC
  5
601
100
AcDbEntity
  8
2
370
    50
100
AcDbCircle
 10
111.52526
 20
-231.190066
 30
0.0
 40
4.791667
100
AcDbArc
 50
233.130102
 51
306.869898
  0
ARC
  5
602
100
AcDbEntity
  8
2
370
    50
100
AcDbCircle
 10
120.77526
 20
-231.190066
 30
0.0
 40
4.791667
100
AcDbArc
 50
233.130102
 51
306.869898
  0
ARC
  5
603
100
AcDbEntity
  8
2
370
    50
100
AcDbCircle
 10
126.52526
 20
-238.856733
 30
0.0
 40
4.791667
100
AcDbArc
 50
53.130102
 51
126.869898
  0
ARC
  5
604
100
AcDbEntity
  8
2
370
    50
100
AcDbCircle
 10
120.77526
 20
-238.856733
 30
0.0
 40
4.791667
100
AcDbArc
 50
53.130102
 51
126.869898
  0
DIMENSION
  5
605
100
AcDbEntity
  8
3
370
    25
100
AcDbDimension
  2
*D0
 10
-219.022293
 20
14.882315
 30
0.0
 11
-246.772293
 21
-79.617685
 31
0.0
 71
     0
 72
     0
 41
0.0
 42
0.0
  3
Standard
100
AcDbAlignedDimension
 13
-356.498683
 23
-142.617685
 33
0.0
 14
-302.248683
 24
14.882315
 34
0.0
 50
90.0
100
AcDbRotatedDimension
  0
DIMENSION
  5
606
100
AcDbEntity
  8
3
370
    25
100
AcDbDimension
  2
*D1
 10
-307.248683
 20
-40.177287
 30
0.0
 11
-264.452984
 21
39.799001
 31
0.0
 70
     2
 71
     0
 72
     0
 41
0.0
 42
0.0
  3
Standard
100
AcDb2LineAngularDimension
 13
-298.94582
 23
-62.665814
 33
0.0
 14
-307.248683
 24
-80.471362
 34
0.0
 15
-307.248683
 25
-80.471362
 35
0.0
 16
-279.829646
 26
43.207925
 36
0.0
1001
ACAD
1000
DSTYLE
1002
{
1070
   275
1070
     0
1070
   179
1070
     0
1002
}
  0
TEXT
  5
607
100
AcDbEntity
  8
3
370
    18
100
AcDbText
 10
-256.676605
 20
-2.895445
 30
0.0
 40
10.5
  1
吐水
 72
     5
 11
-237.776605
 21
-2.895445
 31
0.0
100
AcDbText
  0
TEXT
  5
608
100
AcDbEntity
  8
3
370
    18
100
AcDbText
 10
-335.436264
 20
17.676347
 30
0.0
 40
10.5
  1
止水
 72
     5
 11
-316.536264
 21
17.676347
 31
0.0
100
AcDbText
  0
DIMENSION
  5
609
100
AcDbEntity
  8
3
370
    25
100
AcDbDimension
  2
*D2
 10
-171.44672
 20
-8.617685
 30
0.0
 11
-199.19672
 21
-91.367685
 31
0.0
 71
     0
 72
     0
 41
0.0
 42
0.0
  3
Standard
100
AcDbAlignedDimension
 13
91.90026
 23
-142.617685
 33
0.0
 14
-139.91474
 24
-8.617685
 34
0.0
 50
90.0
100
AcDbRotatedDimension
  0
DIMENSION
  5
60A
100
AcDbEntity
  8
3
370
    25
100
AcDbDimension
  2
*D3
 10
116.15026
 20
60.62681
 30
0.0
 11
-3.84974
 21
67.37681
 31
0.0
 71
     0
 72
     0
 41
0.0
 42
0.0
  3
Standard
100
AcDbAlignedDimension
 13
-123.84974
 23
60.62681
 33
0.0
 14
116.15026
 24
60.62681
 34
0.0
100
AcDbRotatedDimension
  0
DIMENSION
  5
60B
100
AcDbEntity
  8
3
370
    25
100
AcDbDimension
  2
*D4
 10
329.964272
 20
136.382315
 30
0.0
 11
312.714272
 21
-8.367685
 31
0.0
 71
     0
 72
     0
 41
0.0
 42
0.0
  3
Standard
100
AcDbAlignedDimension
 13
140.40026
 23
-142.617685
 33
0.0
 14
133.65026
 24
136.382315
 34
0.0
 50
90.0
100
AcDbRotatedDimension
  0
DIMENSION
  5
60C
100
AcDbEntity
  8
3
370
    25
100
AcDbDimension
  2
*D5
 10
219.072533
 20
359.382315
 30
0.0
 11
191.322533
 21
232.132315
 31
0.0
 71
     0
 72
     0
 41
0.0
 42
0.0
  3
Standard
100
AcDbAlignedDimension
 13
133.65026
 23
136.382315
 33
0.0
 14
-1.919084
 24
359.382315
 34
0.0
 50
90.0
100
AcDbRotatedDimension
  0
POINT
  5
60D
100
AcDbEntity
  8
3
370
    50
100
AcDbPoint
 10
-384.498683
 20
359.382315
 30
0.0
  0
DIMENSION
  5
60E
100
AcDbEntity
  8
3
370
    25
100
AcDbDimension
  2
*D6
 10
-516.931549
 20
359.382315
 30
0.0
 11
-544.681549
 21
92.632315
 31
0.0
 71
     0
 72
     0
 41
0.0
 42
0.0
  3
Standard
100
AcDbAlignedDimension
 13
-404.998683
 23
-142.617685
 33
0.0
 14
-384.498683
 24
359.382315
 34
0.0
 50
90.0
100
AcDbRotatedDimension
  0
TEXT
  5
60F
100
AcDbEntity
  8
3
370
    50
100
AcDbText
 10
-344.126244
 20
-209.021622
 30
0.0
 40
10.5
  1
１３六角
 72
     5
 11
-304.226244
 21
-209.021622
 31
0.0
100
AcDbText
  0
DIMENSION
  5
610
100
AcDbEntity
  8
3
370
    25
100
AcDbDimension
  2
*D7
 10
-405.498683
 20
-112.320076
 30
0.0
 11
-443.748683
 21
-105.570076
 31
0.0
 70
     1
 71
     0
 72
     0
 41
0.0
 42
0.0
  3
Standard
100
AcDbAlignedDimension
 13
-355.998683
 23
-123.117685
 33
0.0
 14
-405.498683
 24
-123.117685
 34
0.0
  0
POINT
  5
611
100
AcDbEntity
  8
3
370
    50
100
AcDbPoint
 10
-386.748683
 20
-318.275712
 30
0.0
  0
DIMENSION
  5
612
100
AcDbEntity
  8
3
370
    25
100
AcDbDimension
  2
*D8
 10
-302.248683
 20
70.736395
 30
0.0
 11
-343.373683
 21
77.486395
 31
0.0
 71
     0
 72
     0
 41
0.0
 42
0.0
  3
Standard
100
AcDbAlignedDimension
 13
-384.498683
 23
70.736395
 33
0.0
 14
-302.248683
 24
14.882315
 34
0.0
100
AcDbRotatedDimension
  0
DIMENSION
  5
613
100
AcDbEntity
  8
3
370
    25
100
AcDbDimension
  2
*D9
 10
-265.253588
 20
116.958332
 30
0.0
 11
-324.876136
 21
123.708332
 31
0.0
 71
     0
 72
     0
 41
0.0
 42
0.0
  3
Standard
100
AcDbAlignedDimension
 13
-384.498683
 23
106.472866
 33
0.0
 14
-265.253588
 24
-2.243597
 34
0.0
100
AcDbRotatedDimension
  0
DIMENSION
  5
614
100
AcDbEntity
  8
3
370
    25
100
AcDbDimension
  2
*D10
 10
-256.642113
 20
-77.117685
 30
0.0
 11
-279.142113
 21
-120.367685
 31
0.0
 71
     0
 72
     0
 41
0.0
 42
0.0
  3
Standard
100
AcDbAlignedDimension
 13
-356.498683
 23
-142.617685
 33
0.0
 14
-289.942346
 24
-77.117685
 34
0.0
 50
90.0
100
AcDbRotatedDimension
  0
POINT
  5
615
100
AcDbEntity
  8
3
370
    50
100
AcDbPoint
 10
116.15026
 20
-77.117685
 30
0.0
  0
DIMENSION
  5
616
100
AcDbEntity
  8
3
370
    25
100
AcDbDimension
  2
*D11
 10
63.959715
 20
-67.915084
 30
0.0
 11
75.354909
 21
35.541934
 31
0.0
 70
     2
 71
     0
 72
     0
 41
0.0
 42
0.0
  3
Standard
100
AcDb2LineAngularDimension
 13
132.829535
 23
-31.291754
 33
0.0
 14
116.15026
 24
-77.117685
 34
0.0
 15
116.15026
 25
-77.117685
 35
0.0
 16
57.918376
 26
23.742896
 36
0.0
1001
ACAD
1000
DSTYLE
1002
{
1070
   275
1070
     0
1070
   179
1070
     0
1002
}
  0
LWPOLYLINE
  5
617
100
AcDbEntity
  8
3
370
    25
100
AcDbPolyline
 90
        3
 70
     0
 10
-361.748683
 20
-198.205261
 10
-344.187057
 20
-210.541374
 10
-301.000237
 20
-210.541374
  0
LINE
  5
61C
100
AcDbEntity
  8
3
370
    25
100
AcDbLine
 10
-357.006238
 20
-201.536578
 30
0.0
 11
-356.113615
 21
-200.265844
 31
0.0
  0
LINE
  5
61D
100
AcDbEntity
  8
3
370
    25
100
AcDbLine
 10
-356.113615
 20
-200.265844
 30
0.0
 11
-361.748683
 21
-198.205261
 31
0.0
  0
LINE
  5
61E
100
AcDbEntity
  8
3
370
    25
100
AcDbLine
 10
-361.748683
 20
-198.205261
 30
0.0
 11
-357.898862
 21
-202.807312
 31
0.0
  0
LINE
  5
61F
100
AcDbEntity
  8
3
370
    25
100
AcDbLine
 10
-357.898862
 20
-202.807312
 30
0.0
 11
-357.006238
 21
-201.536578
 31
0.0
  0
TEXT
  5
620
100
AcDbEntity
  8
3
370
    50
100
AcDbText
 10
342.281387
 20
-409.67569
 30
0.0
 40
10.5
  1
外観寸法図
 72
     5
 11
392.681387
 21
-409.67569
 31
0.0
100
AcDbText
  0
TEXT
  5
621
100
AcDbEntity
  8
3
370
    50
100
AcDbText
 10
436.248873
 20
-360.020238
 30
0.0
 40
9.0
  1
１　３
 72
     5
 11
461.448873
 21
-360.020238
 31
0.0
100
AcDbText
  0
TEXT
  5
622
100
AcDbEntity
  8
3
370
    50
100
AcDbText
 10
-477.592575
 20
66.351282
 30
0.0
 40
10.5
  1
シャワー吐水
 72
     5
 11
-416.692575
 21
66.351282
 31
0.0
100
AcDbText
  0
TEXT
  5
623
100
AcDbEntity
  8
3
370
    50
100
AcDbText
 10
-455.665604
 20
38.604409
 30
0.0
 40
10.5
  1
泡沫吐水
 72
     5
 11
-415.765604
 21
38.604409
 31
0.0
100
AcDbText
  0
LWPOLYLINE
  5
624
100
AcDbEntity
  8
3
370
    25
100
AcDbPolyline
 90
        2
 70
     0
 10
-387.897171
 20
53.726532
 10
-412.551086
 20
66.229076
  0
LWPOLYLINE
  5
628
100
AcDbEntity
  8
3
370
    25
100
AcDbPolyline
 90
        2
 70
     0
 10
-412.431976
 20
39.199759
 10
-388.373566
 20
31.936375
  0
TEXT
  5
62C
100
AcDbEntity
  8
3
370
    50
100
AcDbText
 10
-494.408249
 20
106.019859
 30
0.0
 40
10.5
  1
ストレーナ内蔵
 72
     5
 11
-423.008249
 21
106.019859
 31
0.0
100
AcDbText
  0
LWPOLYLINE
  5
62D
100
AcDbEntity
  8
3
370
    25
100
AcDbPolyline
 90
        2
 70
     0
 10
-418.021408
 20
110.184284
 10
-386.234161
 20
101.008759
  0
TEXT
  5
631
100
AcDbEntity
  8
3
370
    50
100
AcDbText
 10
-505.182953
 20
94.195272
 30
0.0
 40
10.5
  1
（パッキン一体型）
 72
     5
 11
-412.782953
 21
94.195272
 31
0.0
100
AcDbText
  0
TEXT
  5
632
100
AcDbEntity
  8
3
370
    50
100
AcDbText
 10
-242.687764
 20
351.011639
 30
0.0
 40
10.5
  1
青色
 72
     5
 11
-223.787764
 21
351.011639
 31
0.0
100
AcDbText
  0
TEXT
  5
633
100
AcDbEntity
  8
3
370
    50
100
AcDbText
 10
-242.588562
 20
339.372253
 30
0.0
 40
10.5
  1
（水表示）
 72
     5
 11
-192.188562
 21
339.372253
 31
0.0
100
AcDbText
  0
TEXT
  5
634
100
AcDbEntity
  8
3
370
    50
100
AcDbText
 10
-245.461319
 20
243.881014
 30
0.0
 40
10.5
  1
赤色
 72
     5
 11
-226.561319
 21
243.881014
 31
0.0
100
AcDbText
  0
TEXT
  5
635
100
AcDbEntity
  8
3
370
    50
100
AcDbText
 10
-245.029541
 20
231.809441
 30
0.0
 40
10.5
  1
（湯表示）
 72
     5
 11
-194.629541
 21
231.809441
 31
0.0
100
AcDbText
  0
LWPOLYLINE
  5
636
100
AcDbEntity
  8
3
370
    25
100
AcDbPolyline
 90
        2
 70
     0
 10
-237.592598
 20
310.892029
 10
-236.920166
 20
336.707542
  0
LWPOLYLINE
  5
63A
100
AcDbEntity
  8
3
370
    25
100
AcDbPolyline
 90
        2
 70
     0
 10
-237.157516
 20
291.525833
 10
-239.738571
 20
257.677094
  0
TEXT
  5
63E
100
AcDbEntity
  8
3
370
    50
100
AcDbText
 10
-303.822807
 20
354.389511
 30
0.0
 40
10.5
  1
矢視Ａ
 72
     5
 11
-274.422807
 21
354.389511
 31
0.0
100
AcDbText
  0
LINE
  5
63F
100
AcDbEntity
  8
3
370
    25
100
AcDbLine
 10
-304.943893
 20
352.747696
 30
0.0
 11
-271.071899
 21
352.747696
 31
0.0
  0
LINE
  5
640
100
AcDbEntity
  8
3
370
    25
100
AcDbLine
 10
-304.943893
 20
351.247696
 30
0.0
 11
-271.071899
 21
351.247696
 31
0.0
  0
LINE
  5
641
100
AcDbEntity
  8
3
370
    50
100
AcDbLine
 10
-320.923531
 20
-3.493974
 30
0.0
 11
-320.923531
 21
-12.493974
 31
0.0
  0
LINE
  5
642
100
AcDbEntity
  8
3
370
    50
100
AcDbLine
 10
-332.923531
 20
-3.493974
 30
0.0
 11
-332.923531
 21
-12.493974
 31
0.0
  0
LINE
  5
643
100
AcDbEntity
  8
3
370
    50
100
AcDbLine
 10
-326.923531
 20
-24.493974
 30
0.0
 11
-314.923531
 21
-12.493974
 31
0.0
  0
LINE
  5
644
100
AcDbEntity
  8
3
370
    50
100
AcDbLine
 10
-326.923531
 20
-24.493974
 30
0.0
 11
-338.923531
 21
-12.493974
 31
0.0
  0
LINE
  5
645
100
AcDbEntity
  8
3
370
    50
100
AcDbLine
 10
-338.923531
 20
-12.493974
 30
0.0
 11
-332.923531
 21
-12.493974
 31
0.0
  0
LINE
  5
646
100
AcDbEntity
  8
3
370
    50
100
AcDbLine
 10
-320.923531
 20
-12.493974
 30
0.0
 11
-314.923531
 21
-12.493974
 31
0.0
  0
TEXT
  5
647
100
AcDbEntity
  8
3
370
    50
100
AcDbText
 10
-332.453064
 20
-17.304043
 30
0.0
 40
10.5
  1
Ａ
 72
     5
 11
-324.053064
 21
-17.304043
 31
0.0
100
AcDbText
  0
LINE
  5
648
100
AcDbEntity
  8
3
370
    50
100
AcDbLine
 10
-332.923531
 20
-3.493974
 30
0.0
 11
-320.923531
 21
-3.493974
 31
0.0
  0
TEXT
  5
649
100
AcDbEntity
  8
3
370
    50
100
AcDbText
 10
98.036407
 20
-354.504112
 30
0.0
 40
10.5
  1
ＳＫ１７９ＺＤＡＨ
 72
     5
 11
190.436407
 21
-354.504112
 31
0.0
100
AcDbText
  0
TEXT
  5
64A
100
AcDbEntity
  8
3
370
    50
100
AcDbText
 10
504.105414
 20
-407.821408
 30
0.0
 40
9.6
  1
１１０００８
 72
     5
 11
559.785415
 21
-407.821408
 31
0.0
100
AcDbText
  0
TEXT
  5
64B
100
AcDbEntity
  8
3
370
    50
100
AcDbText
 10
98.218155
 20
-341.380203
 30
0.0
 40
10.5
  1
台付シングルレバー湯水混合水栓（シャワ・寒）
 41
0.8
 72
     5
 11
281.338155
 21
-341.380203
 31
0.0
100
AcDbText
  0
LINE
  5
64C
100
AcDbEntity
  8
3
370
    50
100
AcDbLine
 10
-489.876688
 20
-121.990871
 30
0.0
 11
-480.876688
 21
-121.990871
 31
0.0
  0
LINE
  5
64D
100
AcDbEntity
  8
3
370
    50
100
AcDbLine
 10
-489.876688
 20
-133.990871
 30
0.0
 11
-480.876688
 21
-133.990871
 31
0.0
  0
LINE
  5
64E
100
AcDbEntity
  8
3
370
    50
100
AcDbLine
 10
-468.876688
 20
-127.990871
 30
0.0
 11
-480.876688
 21
-115.990871
 31
0.0
  0
LINE
  5
64F
100
AcDbEntity
  8
3
370
    50
100
AcDbLine
 10
-468.876688
 20
-127.990871
 30
0.0
 11
-480.876688
 21
-139.990871
 31
0.0
  0
LINE
  5
650
100
AcDbEntity
  8
3
370
    50
100
AcDbLine
 10
-480.876688
 20
-139.990871
 30
0.0
 11
-480.876688
 21
-133.990871
 31
0.0
  0
LINE
  5
651
100
AcDbEntity
  8
3
370
    50
100
AcDbLine
 10
-480.876688
 20
-121.990871
 30
0.0
 11
-480.876688
 21
-115.990871
 31
0.0
  0
LINE
  5
652
100
AcDbEntity
  8
3
370
    50
100
AcDbLine
 10
-489.876688
 20
-133.990871
 30
0.0
 11
-489.876688
 21
-121.990871
 31
0.0
  0
TEXT
  5
653
100
AcDbEntity
  8
3
370
    50
100
AcDbText
 10
-487.113693
 20
-132.41827
 30
0.0
 40
10.5
  1
Ｂ
 72
     5
 11
-478.713693
 21
-132.41827
 31
0.0
100
AcDbText
  0
LINE
  5
654
100
AcDbEntity
  8
3
370
    25
100
AcDbLine
 10
424.907112
 20
-184.28524
 30
0.0
 11
458.779106
 21
-184.28524
 31
0.0
  0
LINE
  5
655
100
AcDbEntity
  8
3
370
    25
100
AcDbLine
 10
424.907112
 20
-185.78524
 30
0.0
 11
458.779106
 21
-185.78524
 31
0.0
  0
TEXT
  5
656
100
AcDbEntity
  8
3
370
    50
100
AcDbText
 10
426.028198
 20
-182.643425
 30
0.0
 40
10.5
  1
矢視Ｂ
 72
     5
 11
455.428198
 21
-182.643425
 31
0.0
100
AcDbText
  0
TEXT
  5
657
100
AcDbEntity
  8
3
370
    50
100
AcDbText
 10
-241.249146
 20
-227.396393
 30
0.0
 40
10.5
  1
取付穴φ３７±１
 50
90.0
 72
     5
 11
-241.249146
 21
-145.496393
 31
0.0
100
AcDbText
  0
TEXT
  5
658
100
AcDbEntity
  8
3
370
    50
100
AcDbText
 10
-258.142113
 20
-293.1295
 30
0.0
 40
10.5
  1
５～３０（補強板なし）
 50
90.0
 72
     5
 11
-258.142113
 21
-179.7295
 31
0.0
100
AcDbText
  0
DIMENSION
  5
659
100
AcDbEntity
  8
3
370
    25
100
AcDbDimension
  2
*D12
 10
-256.642113
 20
-142.617685
 30
0.0
 11
-259.142113
 21
-229.3795
 31
0.0
 71
     0
 72
     0
 41
0.0
 42
0.0
  3
Standard
100
AcDbAlignedDimension
 13
-355.448683
 23
-165.6295
 33
0.0
 14
-356.498683
 24
-142.617685
 34
0.0
 50
90.0
100
AcDbRotatedDimension
  0
TEXT
  5
65A
100
AcDbEntity
  8
3
370
    50
100
AcDbText
 10
-276.992683
 20
-279.58093
 30
0.0
 40
10.5
  1
５～１３（補強板あり）
 50
90.0
 72
     5
 11
-276.992683
 21
-166.18093
 31
0.0
100
AcDbText
  0
DIMENSION
  5
65B
100
AcDbEntity
  8
3
370
    25
100
AcDbDimension
  2
*D13
 10
-275.492683
 20
-142.617685
 30
0.0
 11
-277.992683
 21
-215.83093
 31
0.0
 71
     0
 72
     0
 41
0.0
 42
0.0
  3
Standard
100
AcDbAlignedDimension
 13
-347.812159
 23
-152.08093
 33
0.0
 14
-356.498683
 24
-142.617685
 34
0.0
 50
90.0
100
AcDbRotatedDimension
  0
TEXT
  5
65C
100
AcDbEntity
  8
3
370
    50
100
AcDbText
 10
-518.431549
 20
-300.336514
 30
0.0
 40
10.5
  1
４０９．５（先端金具マデ）
 50
90.0
 72
     5
 11
-518.431549
 21
-165.936514
 31
0.0
100
AcDbText
  0
DIMENSION
  5
65D
100
AcDbEntity
  8
3
370
    25
100
AcDbDimension
  2
*D14
 10
-516.931549
 20
-142.617685
 30
0.0
 11
-519.431549
 21
-232.086514
 31
0.0
 71
     0
 72
     0
 41
0.0
 42
0.0
  3
Standard
100
AcDbAlignedDimension
 13
-386.749786
 23
-321.555342
 33
0.0
 14
-404.998683
 24
-142.617685
 34
0.0
 50
90.0
100
AcDbRotatedDimension
  0
ENDSEC
  0
SECTION
  2
OBJECTS
  0
DICTIONARY
  5
70C
100
AcDbDictionary
280
     0
281
     1
  3
ACAD_GROUP
350
70D
  3
ACAD_MLINESTYLE
350
70E
  0
DICTIONARY
  5
70D
102
{ACAD_REACTORS
330
70C
102
}
100
AcDbDictionary
280
     0
281
     1
  0
DICTIONARY
  5
70E
102
{ACAD_REACTORS
330
70C
102
}
100
AcDbDictionary
280
     0
281
     1
  3
Standard
350
70F
  0
MLINESTYLE
  5
70F
102
{ACAD_REACTORS
330
70E
102
}
100
AcDbMlineStyle
  2
Standard
 70
     0
  3

 62
     0
 51
90.0
 52
90.0
 71
     2
 49
0.5
 62
   256
  6
ByLayer
 49
-0.5
 62
   256
  6
ByLayer
  0
ENDSEC
  0
EOF
