  0
SECTION
  2
HEADER
  9
$ACADVER
  1
AC1015
  9
$ACADMAINTVER
 70
     6
  9
$DWGCODEPAGE
  3
ANSI_932
  9
$INSBASE
 10
0.0
 20
0.0
 30
0.0
  9
$EXTMIN
 10
-841.0
 20
-594.0
 30
1.000000E+20
  9
$EXTMAX
 10
841.0
 20
594.0
 30
-1.000000E+20
  9
$LIMMIN
 10
-841.0
 20
-594.0
  9
$LIMMAX
 10
841.0
 20
594.0
  9
$ORTHOMODE
 70
     0
  9
$REGENMODE
 70
     1
  9
$FILLMODE
 70
     1
  9
$QTEXTMODE
 70
     0
  9
$MIRRTEXT
 70
     1
  9
$LTSCALE
 40
1.0
  9
$ATTMODE
 70
     1
  9
$TEXTSIZE
 40
0.2
  9
$TRACEWID
 40
0.05
  9
$TEXTSTYLE
  7
STANDARD
  9
$CLAYER
  8
0
  9
$CELTYPE
  6
CONTINUOUS
  9
$CECOLOR
 62
   256
  9
$CELTSCALE
 40
1.0
  9
$DISPSILH
 70
     0
  9
$DIMSCALE
 40
2.0
  9
$DIMASZ
 40
2.0
  9
$DIMEXO
 40
1.0
  9
$DIMDLI
 40
0.38
  9
$DIMRND
 40
0.0
  9
$DIMDLE
 40
0.0
  9
$DIMEXE
 40
2.0
  9
$DIMTP
 40
0.0
  9
$DIMTM
 40
0.0
  9
$DIMTXT
 40
3.5
  9
$DIMCEN
 40
0.09
  9
$DIMTSZ
 40
0.0
  9
$DIMTOL
 70
     0
  9
$DIMLIM
 70
     0
  9
$DIMTIH
 70
     0
  9
$DIMTOH
 70
     0
  9
$DIMSE1
 70
     0
  9
$DIMSE2
 70
     0
  9
$DIMTAD
 70
     1
  9
$DIMZIN
 70
     0
  9
$DIMBLK
  1

  9
$DIMASO
 70
     1
  9
$DIMSHO
 70
     1
  9
$DIMPOST
  1

  9
$DIMAPOST
  1

  9
$DIMALT
 70
     0
  9
$DIMALTD
 70
     2
  9
$DIMALTF
 40
25.4
  9
$DIMLFAC
 40
1.0
  9
$DIMTOFL
 70
     0
  9
$DIMTVP
 40
0.0
  9
$DIMTIX
 70
     0
  9
$DIMSOXD
 70
     0
  9
$DIMSAH
 70
     0
  9
$DIMBLK1
  1

  9
$DIMBLK2
  1

  9
$DIMSTYLE
  2
Standard
  9
$DIMCLRD
 70
     0
  9
$DIMCLRE
 70
     0
  9
$DIMCLRT
 70
     0
  9
$DIMTFAC
 40
1.0
  9
$DIMGAP
 40
0.5
  9
$DIMJUST
 70
     0
  9
$DIMSD1
 70
     0
  9
$DIMSD2
 70
     0
  9
$DIMTOLJ
 70
     1
  9
$DIMTZIN
 70
     0
  9
$DIMALTZ
 70
     0
  9
$DIMALTTZ
 70
     0
  9
$DIMUPT
 70
     0
  9
$DIMDEC
 70
     3
  9
$DIMTDEC
 70
     4
  9
$DIMALTU
 70
     2
  9
$DIMALTTD
 70
     2
  9
$DIMTXSTY
  7
STANDARD
  9
$DIMAUNIT
 70
     0
  9
$DIMADEC
 70
     0
  9
$DIMALTRND
 40
0.0
  9
$DIMAZIN
 70
     0
  9
$DIMDSEP
 70
     0
  9
$DIMATFIT
 70
     3
  9
$DIMFRAC
 70
     0
  9
$DIMLDRBLK
  1

  9
$DIMLUNIT
 70
     2
  9
$DIMLWD
 70
     0
  9
$DIMLWE
 70
     0
  9
$DIMTMOVE
 70
     0
  9
$LUNITS
 70
     2
  9
$LUPREC
 70
     4
  9
$SKETCHINC
 40
0.1
  9
$FILLETRAD
 40
0.0
  9
$AUNITS
 70
     0
  9
$AUPREC
 70
     0
  9
$MENU
  1
acad
  9
$ELEVATION
 40
0.0
  9
$PELEVATION
 40
0.0
  9
$THICKNESS
 40
0.0
  9
$LIMCHECK
 70
     0
  9
$CHAMFERA
 40
0.0
  9
$CHAMFERB
 40
0.0
  9
$CHAMFERC
 40
0.0
  9
$CHAMFERD
 40
0.0
  9
$SKPOLY
 70
     0
  9
$TDCREATE
 40
2453383.000000000
  9
$TDUCREATE
 40
0.000000000
  9
$TDUPDATE
 40
0.000000000
  9
$TDUUPDATE
 40
2447892.625000000
  9
$TDINDWG
 40
0.0000000000
  9
$TDUSRTIMER
 40
0.0000000000
  9
$USRTIMER
 70
     1
  9
$ANGBASE
 50
0.0
  9
$ANGDIR
 70
     0
  9
$PDMODE
 70
     0
  9
$PDSIZE
 40
0.0
  9
$PLINEWID
 40
0.0
  9
$SPLFRAME
 70
     0
  9
$SPLINETYPE
 70
     6
  9
$SPLINESEGS
 70
     8
  9
$HANDSEED
  5
414
  9
$SURFTAB1
 70
     6
  9
$SURFTAB2
 70
     6
  9
$SURFTYPE
 70
     6
  9
$SURFU
 70
     6
  9
$SURFV
 70
     6
  9
$UCSBASE
  2

  9
$UCSNAME
  2

  9
$UCSORG
 10
0.0
 20
0.0
 30
0.0
  9
$UCSXDIR
 10
1.0
 20
0.0
 30
0.0
  9
$UCSYDIR
 10
0.0
 20
1.0
 30
0.0
  9
$UCSORTHOREF
  2

  9
$UCSORTHOVIEW
 70
     0
  9
$UCSORGTOP
 10
0.0
 20
0.0
 30
0.0
  9
$UCSORGBOTTOM
 10
0.0
 20
0.0
 30
0.0
  9
$UCSORGLEFT
 10
0.0
 20
0.0
 30
0.0
  9
$UCSORGRIGHT
 10
0.0
 20
0.0
 30
0.0
  9
$UCSORGFRONT
 10
0.0
 20
0.0
 30
0.0
  9
$UCSORGBACK
 10
0.0
 20
0.0
 30
0.0
  9
$PUCSBASE
  2

  9
$PUCSNAME
  2

  9
$PUCSORG
 10
0.0
 20
0.0
 30
0.0
  9
$PUCSXDIR
 10
1.0
 20
0.0
 30
0.0
  9
$PUCSYDIR
 10
0.0
 20
1.0
 30
0.0
  9
$PUCSORTHOREF
  2

  9
$PUCSORTHOVIEW
 70
     0
  9
$PUCSORGTOP
 10
0.0
 20
0.0
 30
0.0
  9
$PUCSORGBOTTOM
 10
0.0
 20
0.0
 30
0.0
  9
$PUCSORGLEFT
 10
0.0
 20
0.0
 30
0.0
  9
$PUCSORGRIGHT
 10
0.0
 20
0.0
 30
0.0
  9
$PUCSORGFRONT
 10
0.0
 20
0.0
 30
0.0
  9
$PUCSORGBACK
 10
0.0
 20
0.0
 30
0.0
  9
$USERI1
 70
     0
  9
$USERI2
 70
     0
  9
$USERI3
 70
     0
  9
$USERI4
 70
     0
  9
$USERI5
 70
     0
  9
$USERR1
 40
0.0
  9
$USERR2
 40
0.0
  9
$USERR3
 40
0.0
  9
$USERR4
 40
0.0
  9
$USERR5
 40
0.0
  9
$WORLDVIEW
 70
     1
  9
$SHADEDGE
 70
     3
  9
$SHADEDIF
 70
    70
  9
$TILEMODE
 70
     1
  9
$MAXACTVP
 70
    16
  9
$PINSBASE
 10
0.0
 20
0.0
 30
0.0
  9
$PLIMCHECK
 70
     0
  9
$PEXTMIN
 10
1.000000E+20
 20
1.000000E+20
 30
1.000000E+20
  9
$PEXTMAX
 10
-1.000000E+20
 20
-1.000000E+20
 30
-1.000000E+20
  9
$PLIMMIN
 10
0.0
 20
0.0
  9
$PLIMMAX
 10
12.0
 20
9.0
  9
$UNITMODE
 70
     0
  9
$VISRETAIN
 70
     0
  9
$PLINEGEN
 70
     1
  9
$PSLTSCALE
 70
     0
  9
$TREEDEPTH
 70
  3020
  9
$CMLSTYLE
  2
Standard
  9
$CMLJUST
 70
     0
  9
$CMLSCALE
 40
1.0
  9
$PROXYGRAPHICS
 70
     0
  9
$MEASUREMENT
 70
     0
  9
$CELWEIGHT
370
     0
  9
$ENDCAPS
280
     0
  9
$JOINSTYLE
280
     0
  9
$LWDISPLAY
290
     0
  9
$INSUNITS
 70
     0
  9
$HYPERLINKBASE
  1

  9
$STYLESHEET
  1

  9
$XEDIT
290
     1
  9
$CEPSNTYPE
380
     0
  9
$PSTYLEMODE
290
     1
  9
$FINGERPRINTGUID
  2

  9
$VERSIONGUID
  2

  9
$EXTNAMES
290
     1
  9
$PSVPSCALE
 40
0.0
  0
ENDSEC
  0
SECTION
  2
CLASSES
  0
CLASS
  1
LWPOLYLINE
  2
AcDbPolyline
  3
AutoCAD 2000
 90
        0
280
     0
281
     1
  0
CLASS
  1
IMAGE
  2
AcDbRasterImage
  3
ISM
 90
      127
280
     0
281
     1
  0
CLASS
  1
OLE2FRAME
  2
AcDbOle2Frame
  3
AutoCAD 2000
 90
        0
280
     0
281
     1
  0
CLASS
  1
HATCH
  2
AcDbHatch
  3
AutoCAD 2000
 90
        0
280
     0
281
     1
  0
CLASS
  1
DICTIONARYVAR
  2
AcDbDictionaryVar
  3
AutoCAD 2000
 90
        0
280
     0
281
     0
  0
CLASS
  1
RASTERVARIABLES
  2
AcDbRasterVariables
  3
ISM
 90
        0
280
     0
281
     0
  0
CLASS
  1
IMAGEDEF
  2
AcDbRasterImageDef
  3
ISM
 90
        0
280
     0
281
     0
  0
CLASS
  1
IMAGEDEF_REACTOR
  2
AcDbRasterImageDefReactor
  3
ISM
 90
        1
280
     0
281
     0
  0
CLASS
  1
IDBUFFER
  2
AcDbIdBuffer
  3
AutoCAD 2000
 90
        0
280
     0
281
     0
  0
CLASS
  1
SPATIAL_FILTER
  2
AcDbSpatialFilter
  3
AutoCAD 2000
 90
        0
280
     0
281
     0
  0
CLASS
  1
XRECORD
  2
AcDbXrecord
  3
AutoCAD 2000
 90
        0
280
     0
281
     0
  0
CLASS
  1
SORTENTSTABLE
  2
AcDbSortentsTable
  3
AutoCAD 2000
 90
        0
280
     0
281
     0
  0
CLASS
  1
LAYER_INDEX
  2
AcDbLayerIndex
  3
AutoCAD 2000
 90
        0
280
     0
281
     0
  0
CLASS
  1
SPATIAL_INDEX
  2
AcDbSpatialIndex
  3
AutoCAD 2000
 90
        0
280
     0
281
     0
  0
CLASS
  1
OBJECT_PTR
  2
CAseDLPNTableRecord
  3
"ASE-LPNTableRecord"
 90
        1
280
     0
281
     0
  0
CLASS
  1
LAYOUT
  2
AcDbLayout
  3
AutoCAD 2000
 90
        0
280
     0
281
     0
  0
CLASS
  1
PLOTSETTINGS
  2
AcDbPlotSettings
  3
AutoCAD 2000
 90
        0
280
     0
281
     0
  0
CLASS
  1
ACDBDICTIONARYWDFLT
  2
AcDbDictionaryWithDefault
  3
AutoCAD 2000
 90
        0
280
     0
281
     0
  0
CLASS
  1
ACDBPLACEHOLDER
  2
AcDbPlaceHolder
  3
AutoCAD 2000
 90
        0
280
     0
281
     0
  0
CLASS
  1
VBA_PROJECT
  2
AcDbVbaProject
  3
acadvba
 90
        0
280
     0
281
     0
  0
CLASS
  1
WIPEOUT
  2
AcDbWipeout
  3
WipeOut|AutoCAD Express Tool|expresstools@autodesk.com
 90
      127
280
     0
281
     1
  0
CLASS
  1
WIPEOUTVARIABLES
  2
AcDbWipeoutVariables
  3
WipeOut|AutoCAD Express Tool|expresstools@autodesk.com
 90
        0
280
     0
281
     0
  0
CLASS
  1
RTEXT
  2
RText
  3
RText|AutoCAD Express Tool|expresstools@autodesk.com
 90
        0
280
     0
281
     1
  0
CLASS
  1
ARCALIGNEDTEXT
  2
AcDbArcAlignedText
  3
ATEXT|AutoCAD Express Tool|expresstools@autodesk.com
 90
        0
280
     0
281
     1
  0
ENDSEC
  0
SECTION
  2
TABLES
  0
TABLE
  2
VPORT
  5
6
100
AcDbSymbolTable
 70
     1
  0
VPORT
  5
19
100
AcDbSymbolTableRecord
100
AcDbViewportTableRecord
  2
*ACTIVE
 70
     0
 10
0.0
 20
0.0
 11
1.0
 21
1.0
 12
0.0
 22
0.0
 13
0.0
 23
0.0
 14
1.0
 24
1.0
 15
0.0
 25
0.0
 16
0.0
 26
0.0
 36
1.0
 17
0.0
 27
0.0
 37
0.0
 40
1188.0
 41
1.415825
 42
50.0
 43
0.0
 44
0.0
 50
0.0
 51
0.0
 71
     0
 72
   500
 73
     1
 74
     1
 75
     0
 76
     0
 77
     0
 78
     0
281
     0
 65
     0
110
0.0
120
0.0
130
0.0
111
1.0
121
0.0
131
0.0
112
0.0
122
1.0
132
0.0
345
0
346
0
 79
     0
146
0.0
  0
ENDTAB
  0
TABLE
  2
LTYPE
  5
3
100
AcDbSymbolTable
 70
     9
  0
LTYPE
  5
C
100
AcDbSymbolTableRecord
100
AcDbLinetypeTableRecord
  2
ByBlock
 70
    64
  3

 72
    65
 73
     0
 40
0.0
  0
LTYPE
  5
D
100
AcDbSymbolTableRecord
100
AcDbLinetypeTableRecord
  2
ByLayer
 70
    64
  3

 72
    65
 73
     0
 40
0.0
  0
LTYPE
  5
E
100
AcDbSymbolTableRecord
100
AcDbLinetypeTableRecord
  2
CONTINUOUS
 70
     0
  3
Solid line
 72
    65
 73
     0
 40
0.0
  0
LTYPE
  5
F
100
AcDbSymbolTableRecord
100
AcDbLinetypeTableRecord
  2
DASHED
 70
     0
  3
__ __ __ __ __ __ __ __ __ __ __ __ __ __ __
 72
    65
 73
     2
 40
2.0
 49
1.2
 74
     0
 49
-0.8
 74
     0
  0
LTYPE
  5
10
100
AcDbSymbolTableRecord
100
AcDbLinetypeTableRecord
  2
CENTER
 70
     0
  3
____ _ ____ _ ____ _ ____ _ ____ _ ____ _ ____
 72
    65
 73
     4
 40
12.0
 49
9.0
 74
     0
 49
-1.0
 74
     0
 49
1.0
 74
     0
 49
-1.0
 74
     0
  0
LTYPE
  5
11
100
AcDbSymbolTableRecord
100
AcDbLinetypeTableRecord
  2
HIDDEN
 70
     0
  3
_ _ _ _ _ _ _ _ _ _ _ _ _ _ _ _ _ _ _ _ _ _ _
 72
    65
 73
     2
 40
3.2
 49
2.4
 74
     0
 49
-0.8
 74
     0
  0
LTYPE
  5
12
100
AcDbSymbolTableRecord
100
AcDbLinetypeTableRecord
  2
PHANTOM
 70
     0
  3
_____ _ _ _____ _ _ _____ _ _ _____ _ _ _____
 72
    65
 73
     6
 40
13.5
 49
9.0
 74
     0
 49
-1.0
 74
     0
 49
1.0
 74
     0
 49
-0.5
 74
     0
 49
1.0
 74
     0
 49
-1.0
 74
     0
  0
LTYPE
  5
13
100
AcDbSymbolTableRecord
100
AcDbLinetypeTableRecord
  2
DOT
 70
     0
  3
...............................................
 72
    65
 73
     2
 40
1.0
 49
0.5
 74
     0
 49
-0.5
 74
     0
  0
LTYPE
  5
14
100
AcDbSymbolTableRecord
100
AcDbLinetypeTableRecord
  2
DASHDOT
 70
     0
  3
__ . __ . __ . __ . __ . __ . __ . __ . __ . __
 72
    65
 73
     4
 40
8.0
 49
5.0
 74
     0
 49
-1.0
 74
     0
 49
1.0
 74
     0
 49
-1.0
 74
     0
  0
ENDTAB
  0
TABLE
  2
LAYER
  5
1
100
AcDbSymbolTable
 70
     4
  0
LAYER
  5
15
100
AcDbSymbolTableRecord
100
AcDbLayerTableRecord
  2
0
 70
     0
 62
     7
  6
CONTINUOUS
290
     1
370
    -3
390
0
  0
LAYER
  5
16
100
AcDbSymbolTableRecord
100
AcDbLayerTableRecord
  2
1
 70
     0
 62
     7
  6
CONTINUOUS
290
     1
370
    -3
390
0
  0
LAYER
  5
17
100
AcDbSymbolTableRecord
100
AcDbLayerTableRecord
  2
2
 70
     0
 62
     7
  6
CONTINUOUS
290
     1
370
    -3
390
0
  0
LAYER
  5
18
100
AcDbSymbolTableRecord
100
AcDbLayerTableRecord
  2
3
 70
     0
 62
     7
  6
CONTINUOUS
290
     1
370
    -3
390
0
  0
ENDTAB
  0
TABLE
  2
STYLE
  5
2
100
AcDbSymbolTable
 70
     1
  0
STYLE
  5
1B
100
AcDbSymbolTableRecord
100
AcDbTextStyleTableRecord
  2
STANDARD
 70
    64
 40
0.0
 41
1.0
 50
0.0
 71
     0
 42
1.0
  3
txt
  4
BIGFONT
  0
ENDTAB
  0
TABLE
  2
VIEW
  5
4
100
AcDbSymbolTable
 70
     0
  0
ENDTAB
  0
TABLE
  2
UCS
  5
5
100
AcDbSymbolTable
 70
     0
  0
ENDTAB
  0
TABLE
  2
APPID
  5
7
100
AcDbSymbolTable
 70
     1
  0
APPID
  5
1A
100
AcDbSymbolTableRecord
100
AcDbRegAppTableRecord
  2
ACAD
 70
     0
  0
ENDTAB
  0
TABLE
  2
DIMSTYLE
  5
8
100
AcDbSymbolTable
 70
     1
100
AcDbDimStyleTable
 71
     0
  0
DIMSTYLE
105
2F
100
AcDbSymbolTableRecord
100
AcDbDimStyleTableRecord
  2
Standard
 70
     0
  3

  4

 40
2.0
 41
2.0
 42
1.0
 43
0.38
 44
2.0
 45
0.0
 46
0.0
 47
0.0
 48
0.0
 71
     0
 72
     0
 73
     0
 74
     0
 75
     0
 76
     0
 77
     1
 78
     0
 79
     0
140
3.5
141
0.09
142
0.0
143
25.4
144
1.0
145
0.0
146
1.0
147
0.5
148
0.0
170
     0
171
     2
172
     0
173
     0
174
     0
175
     0
176
     0
177
     0
178
     0
179
     0
271
     3
272
     4
273
     2
274
     2
275
     0
276
     0
277
     2
278
    46
279
     0
280
     0
281
     0
282
     0
283
     1
284
     0
285
     0
286
     0
288
     0
289
     3
340
1B
341
0
342
0
343
0
344
0
371
    -2
372
    -2
  0
ENDTAB
  0
TABLE
  2
BLOCK_RECORD
  5
2A
100
AcDbSymbolTable
 70
    12
  0
BLOCK_RECORD
  5
28
100
AcDbSymbolTableRecord
100
AcDbBlockTableRecord
  2
*Model_Space
340
0
  0
BLOCK_RECORD
  5
29
100
AcDbSymbolTableRecord
100
AcDbBlockTableRecord
  2
*Paper_Space
340
0
  0
BLOCK_RECORD
  5
1C
100
AcDbSymbolTableRecord
100
AcDbBlockTableRecord
  2
*D0
340
0
  0
BLOCK_RECORD
  5
1D
100
AcDbSymbolTableRecord
100
AcDbBlockTableRecord
  2
*D1
340
0
  0
BLOCK_RECORD
  5
1E
100
AcDbSymbolTableRecord
100
AcDbBlockTableRecord
  2
*D2
340
0
  0
BLOCK_RECORD
  5
1F
100
AcDbSymbolTableRecord
100
AcDbBlockTableRecord
  2
*D3
340
0
  0
BLOCK_RECORD
  5
20
100
AcDbSymbolTableRecord
100
AcDbBlockTableRecord
  2
*D4
340
0
  0
BLOCK_RECORD
  5
21
100
AcDbSymbolTableRecord
100
AcDbBlockTableRecord
  2
*D5
340
0
  0
BLOCK_RECORD
  5
22
100
AcDbSymbolTableRecord
100
AcDbBlockTableRecord
  2
*D6
340
0
  0
BLOCK_RECORD
  5
23
100
AcDbSymbolTableRecord
100
AcDbBlockTableRecord
  2
*D7
340
0
  0
BLOCK_RECORD
  5
24
100
AcDbSymbolTableRecord
100
AcDbBlockTableRecord
  2
*D8
340
0
  0
BLOCK_RECORD
  5
25
100
AcDbSymbolTableRecord
100
AcDbBlockTableRecord
  2
*D9
340
0
  0
BLOCK_RECORD
  5
26
100
AcDbSymbolTableRecord
100
AcDbBlockTableRecord
  2
*D10
340
0
  0
BLOCK_RECORD
  5
27
100
AcDbSymbolTableRecord
100
AcDbBlockTableRecord
  2
*D11
340
0
  0
ENDTAB
  0
ENDSEC
  0
SECTION
  2
BLOCKS
  0
BLOCK
  5
2B
100
AcDbEntity
  8
0
390
0
100
AcDbBlockBegin
  2
*Model_Space
 70
     0
 10
0.0
 20
0.0
 30
0.0
  3
*Model_Space
  1

  0
ENDBLK
  5
2C
100
AcDbEntity
  8
0
390
0
100
AcDbBlockEnd
  0
BLOCK
  5
2D
100
AcDbEntity
 67
     1
  8
0
390
0
100
AcDbBlockBegin
  2
*Paper_Space
 70
     0
 10
0.0
 20
0.0
 30
0.0
  3
*Paper_Space
  1

  0
ENDBLK
  5
2E
100
AcDbEntity
 67
     1
  8
0
390
0
100
AcDbBlockEnd
  0
BLOCK
  5
383
100
AcDbEntity
  8
3
100
AcDbBlockBegin
  2
*D0
 70
     1
 10
0.0
 20
0.0
 30
0.0
  3
*D0
  1

  0
LINE
  5
384
100
AcDbEntity
  8
3
370
    25
100
AcDbLine
 10
-210.258426
 20
218.284996
 30
0.0
 11
-210.258426
 21
253.264915
 31
0.0
  0
LINE
  5
385
100
AcDbEntity
  8
3
370
    25
100
AcDbLine
 10
-210.258426
 20
251.264915
 30
0.0
 11
-206.394723
 21
250.229639
 31
0.0
  0
LINE
  5
386
100
AcDbEntity
  8
3
370
    25
100
AcDbLine
 10
-210.258426
 20
251.264915
 30
0.0
 11
-206.394723
 21
252.300191
 31
0.0
  0
LINE
  5
387
100
AcDbEntity
  8
3
370
    25
100
AcDbLine
 10
-206.394723
 20
250.229639
 30
0.0
 11
-206.394723
 21
252.300191
 31
0.0
  0
LINE
  5
388
100
AcDbEntity
  8
3
370
    25
100
AcDbLine
 10
-210.258426
 20
251.264915
 30
0.0
 11
-110.25924
 21
251.264915
 31
0.0
  0
LINE
  5
389
100
AcDbEntity
  8
3
370
    25
100
AcDbLine
 10
-110.25924
 20
251.264915
 30
0.0
 11
-114.122943
 21
252.300191
 31
0.0
  0
LINE
  5
38A
100
AcDbEntity
  8
3
370
    25
100
AcDbLine
 10
-110.25924
 20
251.264915
 30
0.0
 11
-114.122943
 21
250.229639
 31
0.0
  0
LINE
  5
38B
100
AcDbEntity
  8
3
370
    25
100
AcDbLine
 10
-114.122943
 20
252.300191
 30
0.0
 11
-114.122943
 21
250.229639
 31
0.0
  0
LINE
  5
38C
100
AcDbEntity
  8
3
370
    25
100
AcDbLine
 10
-110.25924
 20
218.722435
 30
0.0
 11
-110.25924
 21
253.264915
 31
0.0
  0
ENDBLK
  5
38D
100
AcDbEntity
  8
3
100
AcDbBlockEnd
  0
BLOCK
  5
38E
100
AcDbEntity
  8
3
100
AcDbBlockBegin
  2
*D1
 70
     1
 10
0.0
 20
0.0
 30
0.0
  3
*D1
  1

  0
TEXT
  5
38F
100
AcDbEntity
  8
3
370
    25
100
AcDbText
 10
-140.581066
 20
39.386562
 30
0.0
 40
7.0
  1
３０゜
 50
15.0
 72
     5
 11
-121.64892
 21
44.459415
 31
0.0
100
AcDbText
  0
LINE
  5
390
100
AcDbEntity
  8
3
370
    25
100
AcDbLine
 10
-160.258074
 20
43.552078
 30
0.0
 11
-160.258074
 21
35.178386
 31
0.0
  0
LINE
  5
391
100
AcDbEntity
  8
3
370
    25
100
AcDbLine
 10
-105.338594
 20
58.267708
 30
0.0
 11
-101.151748
 21
51.015878
 31
0.0
  0
LINE
  5
392
100
AcDbEntity
  8
3
370
    25
100
AcDbLine
 10
-160.258074
 20
37.178386
 30
0.0
 11
-156.377694
 21
36.207481
 31
0.0
  0
LINE
  5
393
100
AcDbEntity
  8
3
370
    25
100
AcDbLine
 10
-160.258074
 20
37.178386
 30
0.0
 11
-156.412114
 21
38.277747
 31
0.0
  0
LINE
  5
394
100
AcDbEntity
  8
3
370
    25
100
AcDbLine
 10
-156.377694
 20
36.207481
 30
0.0
 11
-156.412114
 21
38.277747
 31
0.0
  0
LINE
  5
395
100
AcDbEntity
  8
3
370
    25
100
AcDbLine
 10
-102.151748
 20
52.747929
 30
0.0
 11
-106.032127
 21
51.777024
 31
0.0
  0
LINE
  5
396
100
AcDbEntity
  8
3
370
    25
100
AcDbLine
 10
-102.151748
 20
52.747929
 30
0.0
 11
-105.026802
 21
49.966911
 31
0.0
  0
LINE
  5
397
100
AcDbEntity
  8
3
370
    25
100
AcDbLine
 10
-106.032127
 20
51.777024
 30
0.0
 11
-105.026802
 21
49.966911
 31
0.0
  0
ARC
  5
398
100
AcDbEntity
  8
3
370
    25
100
AcDbCircle
 10
-160.258074
 20
153.391037
 30
0.0
 40
116.212652
100
AcDbArc
 50
270.0
 51
300.0
  0
ENDBLK
  5
399
100
AcDbEntity
  8
3
100
AcDbBlockEnd
  0
BLOCK
  5
39A
100
AcDbEntity
  8
3
100
AcDbBlockBegin
  2
*D2
 70
     1
 10
0.0
 20
0.0
 30
0.0
  3
*D2
  1

  0
TEXT
  5
39B
100
AcDbEntity
  8
3
370
    25
100
AcDbText
 10
-226.856375
 20
58.478313
 30
0.0
 40
7.0
  1
６０゜
 50
330.0
 72
     5
 11
-209.882277
 21
48.678313
 31
0.0
100
AcDbText
  0
LINE
  5
39C
100
AcDbEntity
  8
3
370
    25
100
AcDbLine
 10
-255.867315
 20
97.629932
 30
0.0
 11
-262.457791
 21
93.824919
 31
0.0
  0
LINE
  5
39D
100
AcDbEntity
  8
3
370
    25
100
AcDbLine
 10
-160.258074
 20
43.552078
 30
0.0
 11
-160.258074
 21
34.819885
 31
0.0
  0
LINE
  5
39E
100
AcDbEntity
  8
3
370
    25
100
AcDbLine
 10
-260.72574
 20
94.824919
 30
0.0
 11
-259.626268
 21
90.978992
 31
0.0
  0
LINE
  5
39F
100
AcDbEntity
  8
3
370
    25
100
AcDbLine
 10
-260.72574
 20
94.824919
 30
0.0
 11
-257.850605
 21
92.043985
 31
0.0
  0
LINE
  5
3A0
100
AcDbEntity
  8
3
370
    25
100
AcDbLine
 10
-259.626268
 20
90.978992
 30
0.0
 11
-257.850605
 21
92.043985
 31
0.0
  0
LINE
  5
3A1
100
AcDbEntity
  8
3
370
    25
100
AcDbLine
 10
-160.258074
 20
36.819885
 30
0.0
 11
-164.104001
 21
37.919358
 31
0.0
  0
LINE
  5
3A2
100
AcDbEntity
  8
3
370
    25
100
AcDbLine
 10
-160.258074
 20
36.819885
 30
0.0
 11
-164.138481
 21
35.849092
 31
0.0
  0
LINE
  5
3A3
100
AcDbEntity
  8
3
370
    25
100
AcDbLine
 10
-164.104001
 20
37.919358
 30
0.0
 11
-164.138481
 21
35.849092
 31
0.0
  0
ARC
  5
3A4
100
AcDbEntity
  8
3
370
    25
100
AcDbCircle
 10
-160.258074
 20
152.829954
 30
0.0
 40
116.010069
100
AcDbArc
 50
210.0
 51
270.0
  0
ENDBLK
  5
3A5
100
AcDbEntity
  8
3
100
AcDbBlockEnd
  0
BLOCK
  5
3A6
100
AcDbEntity
  8
3
100
AcDbBlockBegin
  2
*D3
 70
     1
 10
0.0
 20
0.0
 30
0.0
  3
*D3
  1

  0
LINE
  5
3A7
100
AcDbEntity
  8
3
370
    25
100
AcDbLine
 10
203.093704
 20
1.967566
 30
0.0
 11
22.377262
 21
1.967566
 31
0.0
  0
LINE
  5
3A8
100
AcDbEntity
  8
3
370
    25
100
AcDbLine
 10
24.377262
 20
1.967566
 30
0.0
 11
25.412538
 21
5.831269
 31
0.0
  0
LINE
  5
3A9
100
AcDbEntity
  8
3
370
    25
100
AcDbLine
 10
24.377262
 20
1.967566
 30
0.0
 11
23.341986
 21
5.831269
 31
0.0
  0
LINE
  5
3AA
100
AcDbEntity
  8
3
370
    25
100
AcDbLine
 10
25.412538
 20
5.831269
 30
0.0
 11
23.341986
 21
5.831269
 31
0.0
  0
LINE
  5
3AB
100
AcDbEntity
  8
3
370
    25
100
AcDbLine
 10
24.377262
 20
1.967566
 30
0.0
 11
24.377262
 21
147.640067
 31
0.0
  0
LINE
  5
3AC
100
AcDbEntity
  8
3
370
    25
100
AcDbLine
 10
24.377262
 20
147.640067
 30
0.0
 11
23.341986
 21
143.776364
 31
0.0
  0
LINE
  5
3AD
100
AcDbEntity
  8
3
370
    25
100
AcDbLine
 10
24.377262
 20
147.640067
 30
0.0
 11
25.412538
 21
143.776364
 31
0.0
  0
LINE
  5
3AE
100
AcDbEntity
  8
3
370
    25
100
AcDbLine
 10
23.341986
 20
143.776364
 30
0.0
 11
25.412538
 21
143.776364
 31
0.0
  0
LINE
  5
3AF
100
AcDbEntity
  8
3
370
    25
100
AcDbLine
 10
165.242362
 20
147.640067
 30
0.0
 11
22.377262
 21
147.640067
 31
0.0
  0
ENDBLK
  5
3B0
100
AcDbEntity
  8
3
100
AcDbBlockEnd
  0
BLOCK
  5
3B1
100
AcDbEntity
  8
3
100
AcDbBlockBegin
  2
*D4
 70
     1
 10
0.0
 20
0.0
 30
0.0
  3
*D4
  1

  0
TEXT
  5
3B2
100
AcDbEntity
  8
3
370
    25
100
AcDbText
 10
121.252595
 20
128.106006
 30
0.0
 40
7.0
  1
２５゜
 50
77.5
 72
     5
 11
125.494812
 21
147.241408
 31
0.0
100
AcDbText
  0
LINE
  5
3B3
100
AcDbEntity
  8
3
370
    25
100
AcDbLine
 10
163.636634
 20
149.321446
 30
0.0
 11
130.407422
 21
164.816482
 31
0.0
  0
LINE
  5
3B4
100
AcDbEntity
  8
3
370
    25
100
AcDbLine
 10
124.780363
 20
111.468235
 30
0.0
 11
118.5804
 21
111.468235
 31
0.0
  0
LINE
  5
3B5
100
AcDbEntity
  8
3
370
    25
100
AcDbLine
 10
132.220037
 20
163.971246
 30
0.0
 11
129.696847
 21
160.867456
 31
0.0
  0
LINE
  5
3B6
100
AcDbEntity
  8
3
370
    25
100
AcDbLine
 10
132.220037
 20
163.971246
 30
0.0
 11
131.586785
 21
160.02169
 31
0.0
  0
LINE
  5
3B7
100
AcDbEntity
  8
3
370
    25
100
AcDbLine
 10
129.696847
 20
160.867456
 30
0.0
 11
131.586785
 21
160.02169
 31
0.0
  0
LINE
  5
3B8
100
AcDbEntity
  8
3
370
    25
100
AcDbLine
 10
120.5804
 20
111.468235
 30
0.0
 11
121.675633
 21
115.315372
 31
0.0
  0
LINE
  5
3B9
100
AcDbEntity
  8
3
370
    25
100
AcDbLine
 10
120.5804
 20
111.468235
 30
0.0
 11
119.605331
 21
115.34757
 31
0.0
  0
LINE
  5
3BA
100
AcDbEntity
  8
3
370
    25
100
AcDbLine
 10
121.675633
 20
115.315372
 30
0.0
 11
119.605331
 21
115.34757
 31
0.0
  0
ARC
  5
3BB
100
AcDbEntity
  8
3
370
    25
100
AcDbCircle
 10
244.813107
 20
111.468235
 30
0.0
 40
124.232707
100
AcDbArc
 50
155.0
 51
180.0
  0
ENDBLK
  5
3BC
100
AcDbEntity
  8
3
100
AcDbBlockEnd
  0
BLOCK
  5
3BD
100
AcDbEntity
  8
3
100
AcDbBlockBegin
  2
*D5
 70
     1
 10
0.0
 20
0.0
 30
0.0
  3
*D5
  1

  0
TEXT
  5
3BE
100
AcDbEntity
  8
3
370
    25
100
AcDbText
 10
-109.75924
 20
252.264915
 30
0.0
 40
7.0
  1
１５
 72
     5
 11
-97.15924
 21
252.264915
 31
0.0
100
AcDbText
  0
LINE
  5
3BF
100
AcDbEntity
  8
3
370
    25
100
AcDbLine
 10
-110.25924
 20
218.722435
 30
0.0
 11
-110.25924
 21
253.264915
 31
0.0
  0
LINE
  5
3C0
100
AcDbEntity
  8
3
370
    25
100
AcDbLine
 10
-110.25924
 20
251.264915
 30
0.0
 11
-106.395536
 21
250.229639
 31
0.0
  0
LINE
  5
3C1
100
AcDbEntity
  8
3
370
    25
100
AcDbLine
 10
-110.25924
 20
251.264915
 30
0.0
 11
-106.395536
 21
252.300191
 31
0.0
  0
LINE
  5
3C2
100
AcDbEntity
  8
3
370
    25
100
AcDbLine
 10
-106.395536
 20
250.229639
 30
0.0
 11
-106.395536
 21
252.300191
 31
0.0
  0
LINE
  5
3C3
100
AcDbEntity
  8
3
370
    25
100
AcDbLine
 10
-110.25924
 20
251.264915
 30
0.0
 11
-95.25924
 21
251.264915
 31
0.0
  0
LINE
  5
3C4
100
AcDbEntity
  8
3
370
    25
100
AcDbLine
 10
-95.25924
 20
251.264915
 30
0.0
 11
-99.122943
 21
252.300191
 31
0.0
  0
LINE
  5
3C5
100
AcDbEntity
  8
3
370
    25
100
AcDbLine
 10
-95.25924
 20
251.264915
 30
0.0
 11
-99.122943
 21
250.229639
 31
0.0
  0
LINE
  5
3C6
100
AcDbEntity
  8
3
370
    25
100
AcDbLine
 10
-99.122943
 20
252.300191
 30
0.0
 11
-99.122943
 21
250.229639
 31
0.0
  0
LINE
  5
3C7
100
AcDbEntity
  8
3
370
    25
100
AcDbLine
 10
-95.25924
 20
217.791333
 30
0.0
 11
-95.25924
 21
253.264915
 31
0.0
  0
ENDBLK
  5
3C8
100
AcDbEntity
  8
3
100
AcDbBlockEnd
  0
BLOCK
  5
3C9
100
AcDbEntity
  8
3
100
AcDbBlockBegin
  2
*D6
 70
     1
 10
0.0
 20
0.0
 30
0.0
  3
*D6
  1

  0
LINE
  5
3CA
100
AcDbEntity
  8
3
370
    25
100
AcDbLine
 10
-210.256908
 20
218.722435
 30
0.0
 11
-210.256908
 21
253.264915
 31
0.0
  0
LINE
  5
3CB
100
AcDbEntity
  8
3
370
    25
100
AcDbLine
 10
-210.256908
 20
251.264915
 30
0.0
 11
-214.120611
 21
252.300191
 31
0.0
  0
LINE
  5
3CC
100
AcDbEntity
  8
3
370
    25
100
AcDbLine
 10
-210.256908
 20
251.264915
 30
0.0
 11
-214.120611
 21
250.229639
 31
0.0
  0
LINE
  5
3CD
100
AcDbEntity
  8
3
370
    25
100
AcDbLine
 10
-214.120611
 20
252.300191
 30
0.0
 11
-214.120611
 21
250.229639
 31
0.0
  0
LINE
  5
3CE
100
AcDbEntity
  8
3
370
    25
100
AcDbLine
 10
-210.256908
 20
251.264915
 30
0.0
 11
-225.256908
 21
251.264915
 31
0.0
  0
LINE
  5
3CF
100
AcDbEntity
  8
3
370
    25
100
AcDbLine
 10
-225.256908
 20
251.264915
 30
0.0
 11
-221.393204
 21
250.229639
 31
0.0
  0
LINE
  5
3D0
100
AcDbEntity
  8
3
370
    25
100
AcDbLine
 10
-225.256908
 20
251.264915
 30
0.0
 11
-221.393204
 21
252.300191
 31
0.0
  0
LINE
  5
3D1
100
AcDbEntity
  8
3
370
    25
100
AcDbLine
 10
-221.393204
 20
250.229639
 30
0.0
 11
-221.393204
 21
252.300191
 31
0.0
  0
LINE
  5
3D2
100
AcDbEntity
  8
3
370
    25
100
AcDbLine
 10
-225.256908
 20
217.791333
 30
0.0
 11
-225.256908
 21
253.264915
 31
0.0
  0
ENDBLK
  5
3D3
100
AcDbEntity
  8
3
100
AcDbBlockEnd
  0
BLOCK
  5
3D4
100
AcDbEntity
  8
3
100
AcDbBlockBegin
  2
*D7
 70
     1
 10
0.0
 20
0.0
 30
0.0
  3
*D7
  1

  0
TEXT
  5
3D5
100
AcDbEntity
  8
3
370
    25
100
AcDbText
 10
261.35308
 20
-111.830284
 30
0.0
 40
7.0
  1
７６
 72
     5
 11
273.95308
 21
-111.830284
 31
0.0
100
AcDbText
  0
LINE
  5
3D6
100
AcDbEntity
  8
3
370
    25
100
AcDbLine
 10
230.402954
 20
-30.0319
 30
0.0
 11
230.402954
 21
-114.830284
 31
0.0
  0
LINE
  5
3D7
100
AcDbEntity
  8
3
370
    25
100
AcDbLine
 10
230.402954
 20
-112.830284
 30
0.0
 11
234.266657
 21
-113.86556
 31
0.0
  0
LINE
  5
3D8
100
AcDbEntity
  8
3
370
    25
100
AcDbLine
 10
230.402954
 20
-112.830284
 30
0.0
 11
234.266657
 21
-111.795008
 31
0.0
  0
LINE
  5
3D9
100
AcDbEntity
  8
3
370
    25
100
AcDbLine
 10
234.266657
 20
-113.86556
 30
0.0
 11
234.266657
 21
-111.795008
 31
0.0
  0
LINE
  5
3DA
100
AcDbEntity
  8
3
370
    25
100
AcDbLine
 10
230.402954
 20
-112.830284
 30
0.0
 11
306.303206
 21
-112.830284
 31
0.0
  0
LINE
  5
3DB
100
AcDbEntity
  8
3
370
    25
100
AcDbLine
 10
306.303206
 20
-112.830284
 30
0.0
 11
302.439503
 21
-111.795008
 31
0.0
  0
LINE
  5
3DC
100
AcDbEntity
  8
3
370
    25
100
AcDbLine
 10
306.303206
 20
-112.830284
 30
0.0
 11
302.439503
 21
-113.86556
 31
0.0
  0
LINE
  5
3DD
100
AcDbEntity
  8
3
370
    25
100
AcDbLine
 10
302.439503
 20
-111.795008
 30
0.0
 11
302.439503
 21
-113.86556
 31
0.0
  0
LINE
  5
3DE
100
AcDbEntity
  8
3
370
    25
100
AcDbLine
 10
306.303206
 20
-27.032163
 30
0.0
 11
306.303206
 21
-114.830284
 31
0.0
  0
ENDBLK
  5
3DF
100
AcDbEntity
  8
3
100
AcDbBlockEnd
  0
BLOCK
  5
3E0
100
AcDbEntity
  8
3
100
AcDbBlockBegin
  2
*D8
 70
     1
 10
0.0
 20
0.0
 30
0.0
  3
*D8
  1

  0
TEXT
  5
3E1
100
AcDbEntity
  8
3
370
    25
100
AcDbText
 10
52.383286
 20
46.218483
 30
0.0
 40
7.0
  1
１１０
 50
90.0
 72
     5
 11
52.383286
 21
65.818483
 31
0.0
100
AcDbText
  0
LINE
  5
3E2
100
AcDbEntity
  8
3
370
    25
100
AcDbLine
 10
203.647019
 20
1.968732
 30
0.0
 11
51.383286
 21
1.968732
 31
0.0
  0
LINE
  5
3E3
100
AcDbEntity
  8
3
370
    25
100
AcDbLine
 10
53.383286
 20
1.968732
 30
0.0
 11
54.418562
 21
5.832435
 31
0.0
  0
LINE
  5
3E4
100
AcDbEntity
  8
3
370
    25
100
AcDbLine
 10
53.383286
 20
1.968732
 30
0.0
 11
52.348009
 21
5.832435
 31
0.0
  0
LINE
  5
3E5
100
AcDbEntity
  8
3
370
    25
100
AcDbLine
 10
54.418562
 20
5.832435
 30
0.0
 11
52.348009
 21
5.832435
 31
0.0
  0
LINE
  5
3E6
100
AcDbEntity
  8
3
370
    25
100
AcDbLine
 10
53.383286
 20
1.968732
 30
0.0
 11
53.383286
 21
111.468235
 31
0.0
  0
LINE
  5
3E7
100
AcDbEntity
  8
3
370
    25
100
AcDbLine
 10
53.383286
 20
111.468235
 30
0.0
 11
52.348009
 21
107.604532
 31
0.0
  0
LINE
  5
3E8
100
AcDbEntity
  8
3
370
    25
100
AcDbLine
 10
53.383286
 20
111.468235
 30
0.0
 11
54.418562
 21
107.604532
 31
0.0
  0
LINE
  5
3E9
100
AcDbEntity
  8
3
370
    25
100
AcDbLine
 10
52.348009
 20
107.604532
 30
0.0
 11
54.418562
 21
107.604532
 31
0.0
  0
LINE
  5
3EA
100
AcDbEntity
  8
3
370
    25
100
AcDbLine
 10
128.402954
 20
111.468235
 30
0.0
 11
51.383286
 21
111.468235
 31
0.0
  0
ENDBLK
  5
3EB
100
AcDbEntity
  8
3
100
AcDbBlockEnd
  0
BLOCK
  5
3EC
100
AcDbEntity
  8
3
100
AcDbBlockBegin
  2
*D9
 70
     1
 10
0.0
 20
0.0
 30
0.0
  3
*D9
  1

  0
LINE
  5
3ED
100
AcDbEntity
  8
3
370
    25
100
AcDbLine
 10
-220.864675
 20
-125.63787
 30
0.0
 11
-220.864675
 21
-241.591934
 31
0.0
  0
LINE
  5
3EE
100
AcDbEntity
  8
3
370
    25
100
AcDbLine
 10
-220.864675
 20
-239.591934
 30
0.0
 11
-217.000972
 21
-240.62721
 31
0.0
  0
LINE
  5
3EF
100
AcDbEntity
  8
3
370
    25
100
AcDbLine
 10
-220.864675
 20
-239.591934
 30
0.0
 11
-217.000972
 21
-238.556658
 31
0.0
  0
LINE
  5
3F0
100
AcDbEntity
  8
3
370
    25
100
AcDbLine
 10
-217.000972
 20
-240.62721
 30
0.0
 11
-217.000972
 21
-238.556658
 31
0.0
  0
LINE
  5
3F1
100
AcDbEntity
  8
3
370
    25
100
AcDbLine
 10
-220.864675
 20
-239.591934
 30
0.0
 11
-99.651472
 21
-239.591934
 31
0.0
  0
LINE
  5
3F2
100
AcDbEntity
  8
3
370
    25
100
AcDbLine
 10
-99.651472
 20
-239.591934
 30
0.0
 11
-103.515175
 21
-238.556658
 31
0.0
  0
LINE
  5
3F3
100
AcDbEntity
  8
3
370
    25
100
AcDbLine
 10
-99.651472
 20
-239.591934
 30
0.0
 11
-103.515175
 21
-240.62721
 31
0.0
  0
LINE
  5
3F4
100
AcDbEntity
  8
3
370
    25
100
AcDbLine
 10
-103.515175
 20
-238.556658
 30
0.0
 11
-103.515175
 21
-240.62721
 31
0.0
  0
LINE
  5
3F5
100
AcDbEntity
  8
3
370
    25
100
AcDbLine
 10
-99.651472
 20
-125.63787
 30
0.0
 11
-99.651472
 21
-241.591934
 31
0.0
  0
ENDBLK
  5
3F6
100
AcDbEntity
  8
3
100
AcDbBlockEnd
  0
BLOCK
  5
3F7
100
AcDbEntity
  8
3
100
AcDbBlockBegin
  2
*D10
 70
     1
 10
0.0
 20
0.0
 30
0.0
  3
*D10
  1

  0
TEXT
  5
3F8
100
AcDbEntity
  8
3
370
    25
100
AcDbText
 10
134.902954
 20
-111.830284
 30
0.0
 40
7.0
  1
１７０
 72
     5
 11
154.502954
 21
-111.830284
 31
0.0
100
AcDbText
  0
LINE
  5
3F9
100
AcDbEntity
  8
3
370
    25
100
AcDbLine
 10
60.402954
 20
-91.131316
 30
0.0
 11
60.402954
 21
-114.830284
 31
0.0
  0
LINE
  5
3FA
100
AcDbEntity
  8
3
370
    25
100
AcDbLine
 10
60.402954
 20
-112.830284
 30
0.0
 11
64.266657
 21
-113.86556
 31
0.0
  0
LINE
  5
3FB
100
AcDbEntity
  8
3
370
    25
100
AcDbLine
 10
60.402954
 20
-112.830284
 30
0.0
 11
64.266657
 21
-111.795008
 31
0.0
  0
LINE
  5
3FC
100
AcDbEntity
  8
3
370
    25
100
AcDbLine
 10
64.266657
 20
-113.86556
 30
0.0
 11
64.266657
 21
-111.795008
 31
0.0
  0
LINE
  5
3FD
100
AcDbEntity
  8
3
370
    25
100
AcDbLine
 10
60.402954
 20
-112.830284
 30
0.0
 11
230.402954
 21
-112.830284
 31
0.0
  0
LINE
  5
3FE
100
AcDbEntity
  8
3
370
    25
100
AcDbLine
 10
230.402954
 20
-112.830284
 30
0.0
 11
226.539251
 21
-111.795008
 31
0.0
  0
LINE
  5
3FF
100
AcDbEntity
  8
3
370
    25
100
AcDbLine
 10
230.402954
 20
-112.830284
 30
0.0
 11
226.539251
 21
-113.86556
 31
0.0
  0
LINE
  5
400
100
AcDbEntity
  8
3
370
    25
100
AcDbLine
 10
226.539251
 20
-111.795008
 30
0.0
 11
226.539251
 21
-113.86556
 31
0.0
  0
LINE
  5
401
100
AcDbEntity
  8
3
370
    25
100
AcDbLine
 10
230.402954
 20
-30.0319
 30
0.0
 11
230.402954
 21
-114.830284
 31
0.0
  0
ENDBLK
  5
402
100
AcDbEntity
  8
3
100
AcDbBlockEnd
  0
BLOCK
  5
403
100
AcDbEntity
  8
3
100
AcDbBlockBegin
  2
*D11
 70
     1
 10
0.0
 20
0.0
 30
0.0
  3
*D11
  1

  0
TEXT
  5
404
100
AcDbEntity
  8
3
370
    25
100
AcDbText
 10
23.377262
 20
-50.581292
 30
0.0
 40
7.0
  1
９１
 50
90.0
 72
     5
 11
23.377262
 21
-37.981292
 31
0.0
100
AcDbText
  0
LINE
  5
405
100
AcDbEntity
  8
3
370
    25
100
AcDbLine
 10
48.079987
 20
-89.131316
 30
0.0
 11
22.377262
 21
-89.131316
 31
0.0
  0
LINE
  5
406
100
AcDbEntity
  8
3
370
    25
100
AcDbLine
 10
24.377262
 20
-89.131316
 30
0.0
 11
25.412538
 21
-85.267613
 31
0.0
  0
LINE
  5
407
100
AcDbEntity
  8
3
370
    25
100
AcDbLine
 10
24.377262
 20
-89.131316
 30
0.0
 11
23.341986
 21
-85.267613
 31
0.0
  0
LINE
  5
408
100
AcDbEntity
  8
3
370
    25
100
AcDbLine
 10
25.412538
 20
-85.267613
 30
0.0
 11
23.341986
 21
-85.267613
 31
0.0
  0
LINE
  5
409
100
AcDbEntity
  8
3
370
    25
100
AcDbLine
 10
24.377262
 20
-89.131316
 30
0.0
 11
24.377262
 21
1.968732
 31
0.0
  0
LINE
  5
40A
100
AcDbEntity
  8
3
370
    25
100
AcDbLine
 10
24.377262
 20
1.968732
 30
0.0
 11
23.341986
 21
-1.894972
 31
0.0
  0
LINE
  5
40B
100
AcDbEntity
  8
3
370
    25
100
AcDbLine
 10
24.377262
 20
1.968732
 30
0.0
 11
25.412538
 21
-1.894972
 31
0.0
  0
LINE
  5
40C
100
AcDbEntity
  8
3
370
    25
100
AcDbLine
 10
23.341986
 20
-1.894972
 30
0.0
 11
25.412538
 21
-1.894972
 31
0.0
  0
LINE
  5
40D
100
AcDbEntity
  8
3
370
    25
100
AcDbLine
 10
203.647019
 20
1.968732
 30
0.0
 11
22.377262
 21
1.968732
 31
0.0
  0
ENDBLK
  5
40E
100
AcDbEntity
  8
3
100
AcDbBlockEnd
  0
ENDSEC
  0
SECTION
  2
ENTITIES
  0
LINE
  5
30
100
AcDbEntity
  8
1
370
   100
100
AcDbLine
 10
-373.02157
 20
275.028767
 30
0.0
 11
394.982385
 21
275.028767
 31
0.0
  0
LINE
  5
31
100
AcDbEntity
  8
1
370
   100
100
AcDbLine
 10
-373.02157
 20
275.028767
 30
0.0
 11
-373.02157
 21
-277.971881
 31
0.0
  0
LINE
  5
32
100
AcDbEntity
  8
1
370
   100
100
AcDbLine
 10
-373.02157
 20
-277.971881
 30
0.0
 11
394.982385
 21
-277.971881
 31
0.0
  0
LINE
  5
33
100
AcDbEntity
  8
1
370
   100
100
AcDbLine
 10
394.982385
 20
-277.971881
 30
0.0
 11
394.982385
 21
275.028767
 31
0.0
  0
TEXT
  5
34
100
AcDbEntity
  8
1
370
    50
100
AcDbText
 10
359.628442
 20
-226.252857
 30
0.0
 40
6.0
  1
設計
 72
     5
 11
370.428442
 21
-226.252857
 31
0.0
100
AcDbText
  0
TEXT
  5
35
100
AcDbEntity
  8
1
370
    50
100
AcDbText
 10
379.127478
 20
-226.099658
 30
0.0
 40
6.0
  1
製図
 72
     5
 11
389.927478
 21
-226.099658
 31
0.0
100
AcDbText
  0
TEXT
  5
36
100
AcDbEntity
  8
1
370
    50
100
AcDbText
 10
319.005745
 20
-226.252857
 30
0.0
 40
6.0
  1
承認
 72
     5
 11
329.805745
 21
-226.252857
 31
0.0
100
AcDbText
  0
TEXT
  5
37
100
AcDbEntity
  8
1
370
    50
100
AcDbText
 10
338.989679
 20
-226.19802
 30
0.0
 40
6.0
  1
検図
 72
     5
 11
349.789679
 21
-226.19802
 31
0.0
100
AcDbText
  0
LINE
  5
38
100
AcDbEntity
  8
1
370
    25
100
AcDbLine
 10
284.982385
 20
-227.971881
 30
0.0
 11
394.982385
 21
-227.971881
 31
0.0
  0
LINE
  5
39
100
AcDbEntity
  8
1
370
    25
100
AcDbLine
 10
342.482385
 20
-245.971881
 30
0.0
 11
342.482385
 21
-259.971881
 31
0.0
  0
TEXT
  5
3A
100
AcDbEntity
  8
1
370
    50
100
AcDbText
 10
319.55159
 20
-256.012528
 30
0.0
 40
6.0
  1
日　付
 72
     5
 11
336.35159
 21
-256.012528
 31
0.0
100
AcDbText
  0
LINE
  5
3B
100
AcDbEntity
  8
1
370
    50
100
AcDbLine
 10
40.982385
 20
-259.971881
 30
0.0
 11
394.982385
 21
-259.971881
 31
0.0
  0
TEXT
  5
3C
100
AcDbEntity
  8
1
370
    50
100
AcDbText
 10
287.775011
 20
-256.322406
 30
0.0
 40
6.0
  1
第三角法
 72
     5
 11
310.575011
 21
-256.322406
 31
0.0
100
AcDbText
  0
TEXT
  5
3D
100
AcDbEntity
  8
1
370
    50
100
AcDbText
 10
291.087419
 20
-225.99802
 30
0.0
 40
6.0
  1
尺　度
 72
     5
 11
307.887419
 21
-225.99802
 31
0.0
100
AcDbText
  0
LINE
  5
3E
100
AcDbEntity
  8
1
370
   100
100
AcDbLine
 10
40.982385
 20
-217.971881
 30
0.0
 11
394.982385
 21
-217.971881
 31
0.0
  0
LINE
  5
3F
100
AcDbEntity
  8
1
370
    50
100
AcDbLine
 10
211.982385
 20
-217.971881
 30
0.0
 11
211.982385
 21
-277.971881
 31
0.0
  0
LINE
  5
40
100
AcDbEntity
  8
1
370
    25
100
AcDbLine
 10
374.982385
 20
-245.971881
 30
0.0
 11
374.982385
 21
-217.971881
 31
0.0
  0
LINE
  5
41
100
AcDbEntity
  8
1
370
    25
100
AcDbLine
 10
354.982385
 20
-245.971881
 30
0.0
 11
354.982385
 21
-217.971881
 31
0.0
  0
LINE
  5
42
100
AcDbEntity
  8
1
370
    25
100
AcDbLine
 10
334.982385
 20
-245.971881
 30
0.0
 11
334.982385
 21
-217.971881
 31
0.0
  0
LINE
  5
43
100
AcDbEntity
  8
1
370
    50
100
AcDbLine
 10
284.982385
 20
-277.971881
 30
0.0
 11
284.982385
 21
-217.971881
 31
0.0
  0
LINE
  5
44
100
AcDbEntity
  8
1
370
    50
100
AcDbLine
 10
189.982385
 20
-217.971881
 30
0.0
 11
189.982385
 21
-277.971881
 31
0.0
  0
LINE
  5
45
100
AcDbEntity
  8
1
370
    50
100
AcDbLine
 10
62.982385
 20
-217.971881
 30
0.0
 11
62.982385
 21
-259.971881
 31
0.0
  0
LINE
  5
46
100
AcDbEntity
  8
1
370
    50
100
AcDbLine
 10
284.982385
 20
-245.971881
 30
0.0
 11
394.982385
 21
-245.971881
 31
0.0
  0
TEXT
  5
47
100
AcDbEntity
  8
1
370
    50
100
AcDbText
 10
287.101129
 20
-271.880939
 30
0.0
 40
6.0
  1
コードＮｏ
 41
0.9
 72
     5
 11
313.021129
 21
-271.880939
 31
0.0
100
AcDbText
  0
TEXT
  5
48
100
AcDbEntity
  8
1
370
   100
100
AcDbText
 10
52.886774
 20
-272.875659
 30
0.0
 40
8.0
  1
ミズタニバルブ工業株式会社
 41
1.2
 72
     5
 11
175.766774
 21
-272.875659
 31
0.0
100
AcDbText
  0
LINE
  5
49
100
AcDbEntity
  8
1
370
    50
100
AcDbLine
 10
40.982385
 20
-238.971881
 30
0.0
 11
284.982385
 21
-238.971881
 31
0.0
  0
LINE
  5
4A
100
AcDbEntity
  8
1
370
    50
100
AcDbLine
 10
115.482385
 20
-238.971881
 30
0.0
 11
115.482385
 21
-259.971881
 31
0.0
  0
LINE
  5
4B
100
AcDbEntity
  8
1
370
    50
100
AcDbLine
 10
137.482385
 20
-238.971881
 30
0.0
 11
137.482385
 21
-259.971881
 31
0.0
  0
LINE
  5
4C
100
AcDbEntity
  8
1
370
    50
100
AcDbLine
 10
314.982385
 20
-277.971881
 30
0.0
 11
314.982385
 21
-217.971881
 31
0.0
  0
TEXT
  5
4D
100
AcDbEntity
  8
1
370
    50
100
AcDbText
 10
345.098131
 20
-256.100293
 30
0.0
 40
6.0
  1
　　・　　・
 72
     5
 11
379.898131
 21
-256.100293
 31
0.0
100
AcDbText
  0
LINE
  5
4E
100
AcDbEntity
  8
1
370
   100
100
AcDbLine
 10
40.982385
 20
-217.971881
 30
0.0
 11
40.982385
 21
-277.971881
 31
0.0
  0
TEXT
  5
4F
100
AcDbEntity
  8
1
370
    50
100
AcDbText
 10
290.832582
 20
-240.013492
 30
0.0
 40
6.0
  1
　／ 
 72
     5
 11
301.632582
 21
-240.013492
 31
0.0
100
AcDbText
  0
TEXT
  5
50
100
AcDbEntity
  8
1
370
    50
100
AcDbText
 10
193.904123
 20
-272.024909
 30
0.0
 40
6.0
  1
備 考 
 72
     5
 11
207.704123
 21
-272.024909
 31
0.0
100
AcDbText
  0
TEXT
  5
51
100
AcDbEntity
  8
1
370
    50
100
AcDbText
 10
193.512534
 20
-230.89184
 30
0.0
 40
6.0
  1
仕 上
 72
     5
 11
207.312534
 21
-230.89184
 31
0.0
100
AcDbText
  0
TEXT
  5
52
100
AcDbEntity
  8
1
370
    50
100
AcDbText
 10
193.447176
 20
-248.891666
 30
0.0
 40
6.0
  1
表 面
 72
     5
 11
207.247176
 21
-248.891666
 31
0.0
100
AcDbText
  0
TEXT
  5
53
100
AcDbEntity
  8
1
370
    50
100
AcDbText
 10
193.447176
 20
-255.891666
 30
0.0
 40
6.0
  1
処 理
 72
     5
 11
207.247176
 21
-255.891666
 31
0.0
100
AcDbText
  0
TEXT
  5
54
100
AcDbEntity
  8
1
370
    50
100
AcDbText
 10
44.79335
 20
-231.693399
 30
0.0
 40
6.0
  1
品 名
 72
     5
 11
58.59335
 21
-231.693399
 31
0.0
100
AcDbText
  0
TEXT
  5
55
100
AcDbEntity
  8
1
370
    50
100
AcDbText
 10
44.397766
 20
-252.462534
 30
0.0
 40
6.0
  1
材 質
 72
     5
 11
58.197766
 21
-252.462534
 31
0.0
100
AcDbText
  0
TEXT
  5
56
100
AcDbEntity
  8
1
370
    50
100
AcDbText
 10
118.897766
 20
-252.462534
 30
0.0
 40
6.0
  1
規 格
 72
     5
 11
132.697766
 21
-252.462534
 31
0.0
100
AcDbText
  0
LINE
  5
57
100
AcDbEntity
  8
2
370
    50
100
AcDbLine
 10
-181.309109
 20
-71.031268
 30
0.0
 11
-139.207038
 21
-71.031268
 31
0.0
  0
LINE
  5
58
100
AcDbEntity
  8
2
370
    50
100
AcDbLine
 10
-147.258074
 20
-131.031268
 30
0.0
 11
-142.258074
 21
-131.031268
 31
0.0
  0
LINE
  5
59
100
AcDbEntity
  8
2
370
    50
100
AcDbLine
 10
-178.258074
 20
-131.031268
 30
0.0
 11
-173.258074
 21
-131.031268
 31
0.0
  0
POINT
  5
5A
100
AcDbEntity
  8
2
370
    50
100
AcDbPoint
 10
-160.258074
 20
-129.030536
 30
0.0
  0
ARC
  5
5B
100
AcDbEntity
  8
2
370
    50
100
AcDbCircle
 10
-111.258074
 20
-113.031268
 30
0.0
 40
14.5
100
AcDbArc
 50
279.774188
 51
87.0
  0
ARC
  5
5C
100
AcDbEntity
  8
2
370
    50
100
AcDbCircle
 10
-209.258074
 20
-113.031268
 30
0.0
 40
14.5
100
AcDbArc
 50
93.0
 51
259.332032
  0
ARC
  5
5D
100
AcDbEntity
  8
2
370
    50
100
AcDbCircle
 10
-156.330826
 20
148.614861
 30
0.0
 40
280.0
100
AcDbArc
 50
272.88089
 51
279.774188
  0
ARC
  5
5E
100
AcDbEntity
  8
2
370
    50
100
AcDbCircle
 10
-164.185321
 20
148.614861
 30
0.0
 40
280.0
100
AcDbArc
 50
260.225812
 51
267.11911
  0
POINT
  5
5F
100
AcDbEntity
  8
2
370
    50
100
AcDbPoint
 10
-211.719674
 20
-127.320793
 30
0.0
  0
POINT
  5
60
100
AcDbEntity
  8
2
370
    50
100
AcDbPoint
 10
-160.258074
 20
-71.031268
 30
0.0
  0
LINE
  5
61
100
AcDbEntity
  8
2
370
    50
100
AcDbLine
 10
-147.858074
 20
-133.031268
 30
0.0
 11
-147.258074
 21
-132.431268
 31
0.0
  0
LINE
  5
62
100
AcDbEntity
  8
2
370
    50
100
AcDbLine
 10
-172.658074
 20
-133.031268
 30
0.0
 11
-173.258074
 21
-132.431268
 31
0.0
  0
POINT
  5
63
100
AcDbEntity
  8
2
370
    50
100
AcDbPoint
 10
-160.258074
 20
-129.030536
 30
0.0
  0
LINE
  5
64
100
AcDbEntity
  8
2
370
    50
100
AcDbLine
 10
-138.208409
 20
-71.978932
 30
0.0
 11
-137.241724
 21
-90.424371
 31
0.0
  0
LINE
  5
65
100
AcDbEntity
  8
2
370
    50
100
AcDbLine
 10
-110.499202
 20
-98.55114
 30
0.0
 11
-130.144522
 21
-97.521573
 31
0.0
  0
ARC
  5
66
100
AcDbEntity
  8
2
370
    50
100
AcDbCircle
 10
-129.752003
 20
-90.031851
 30
0.0
 40
7.5
100
AcDbArc
 50
183.0
 51
267.0
  0
ARC
  5
67
100
AcDbEntity
  8
2
370
    50
100
AcDbCircle
 10
-190.764145
 20
-90.031851
 30
0.0
 40
7.5
100
AcDbArc
 50
273.0
 51
357.0
  0
LINE
  5
68
100
AcDbEntity
  8
2
370
    50
100
AcDbLine
 10
-210.016945
 20
-98.55114
 30
0.0
 11
-190.371625
 21
-97.521573
 31
0.0
  0
LINE
  5
69
100
AcDbEntity
  8
2
370
    50
100
AcDbLine
 10
-182.307739
 20
-71.978932
 30
0.0
 11
-183.274423
 21
-90.424371
 31
0.0
  0
POINT
  5
6A
100
AcDbEntity
  8
2
370
    50
100
AcDbPoint
 10
-183.627849
 20
-97.168146
 30
0.0
  0
POINT
  5
6B
100
AcDbEntity
  8
2
370
    50
100
AcDbPoint
 10
-160.258074
 20
-71.031268
 30
0.0
  0
ARC
  5
6C
100
AcDbEntity
  8
2
370
    50
100
AcDbCircle
 10
-139.207038
 20
-72.031268
 30
0.0
 40
1.0
100
AcDbArc
 50
3.0
 51
90.0
  0
ARC
  5
6D
100
AcDbEntity
  8
2
370
    50
100
AcDbCircle
 10
-181.309109
 20
-72.031268
 30
0.0
 40
1.0
100
AcDbArc
 50
90.0
 51
177.0
  0
POINT
  5
6E
100
AcDbEntity
  8
2
370
    50
100
AcDbPoint
 10
-160.258074
 20
172.391039
 30
0.0
  0
POINT
  5
6F
100
AcDbEntity
  8
2
370
    50
100
AcDbPoint
 10
-160.258074
 20
128.954037
 30
0.0
  0
POINT
  5
70
100
AcDbEntity
  8
2
370
    50
100
AcDbPoint
 10
-135.910154
 20
170.410147
 30
0.0
  0
POINT
  5
71
100
AcDbEntity
  8
2
370
    50
100
AcDbPoint
 10
-135.910154
 20
170.410147
 30
0.0
  0
LINE
  5
72
100
AcDbEntity
  8
2
370
    50
100
AcDbLine
 10
-97.349325
 20
173.391421
 30
0.0
 11
-123.698783
 21
173.391421
 31
0.0
  0
LINE
  5
73
100
AcDbEntity
  8
2
370
    50
100
AcDbLine
 10
-138.758074
 20
-65.531765
 30
0.0
 11
-181.758074
 21
-65.531765
 31
0.0
  0
CIRCLE
  5
74
100
AcDbEntity
  8
2
370
    50
100
AcDbCircle
 10
-160.258074
 20
-52.531765
 30
0.0
 40
5.0
  0
POINT
  5
75
100
AcDbEntity
  8
2
370
    50
100
AcDbPoint
 10
-160.258074
 20
-48.031765
 30
0.0
  0
LINE
  5
76
100
AcDbEntity
  8
2
370
    50
100
AcDbLine
 10
-181.758074
 20
-46.456083
 30
0.0
 11
-181.758074
 21
-65.531765
 31
0.0
  0
LINE
  5
77
100
AcDbEntity
  8
2
370
    50
100
AcDbLine
 10
-138.758074
 20
-46.456083
 30
0.0
 11
-138.758074
 21
-65.531765
 31
0.0
  0
ARC
  5
78
100
AcDbEntity
  8
2
370
    50
100
AcDbCircle
 10
-160.258074
 20
-41.953324
 30
0.0
 40
38.263071
100
AcDbArc
 50
79.986433
 51
100.013567
  0
LINE
  5
79
100
AcDbEntity
  8
2
370
    50
100
AcDbLine
 10
-170.918346
 20
-8.092296
 30
0.0
 11
-179.988074
 21
-48.129745
 31
0.0
  0
ARC
  5
7A
100
AcDbEntity
  8
2
370
    50
100
AcDbCircle
 10
-173.280656
 20
-46.456083
 30
0.0
 40
8.477417
100
AcDbArc
 50
149.878537
 51
180.0
  0
ARC
  5
7B
100
AcDbEntity
  8
2
370
    50
100
AcDbCircle
 10
-217.0717
 20
-21.049383
 30
0.0
 40
42.150203
100
AcDbArc
 50
329.878537
 51
347.236145
  0
ARC
  5
7C
100
AcDbEntity
  8
2
370
    50
100
AcDbCircle
 10
-103.444448
 20
-21.049383
 30
0.0
 40
42.150203
100
AcDbArc
 50
192.763855
 51
210.121463
  0
ARC
  5
7D
100
AcDbEntity
  8
2
370
    50
100
AcDbCircle
 10
-147.235491
 20
-46.456083
 30
0.0
 40
8.477417
100
AcDbArc
 50
360.0
 51
30.121463
  0
ARC
  5
7E
100
AcDbEntity
  8
2
370
    50
100
AcDbCircle
 10
-166.041902
 20
-9.196962
 30
0.0
 40
5.0
100
AcDbArc
 50
100.013567
 51
167.236145
  0
ARC
  5
7F
100
AcDbEntity
  8
2
370
    50
100
AcDbCircle
 10
-154.474246
 20
-9.196962
 30
0.0
 40
5.0
100
AcDbArc
 50
12.763855
 51
79.986433
  0
LINE
  5
80
100
AcDbEntity
  8
2
370
    50
100
AcDbLine
 10
-149.597801
 20
-8.092296
 30
0.0
 11
-140.528074
 21
-48.129745
 31
0.0
  0
LINE
  5
81
100
AcDbEntity
  8
2
370
    50
100
AcDbLine
 10
-169.096941
 20
-9.440457
 30
0.0
 11
-150.534334
 21
-9.440457
 31
0.0
  0
ARC
  5
82
100
AcDbEntity
  8
2
370
    25
100
AcDbCircle
 10
-160.258074
 20
-81.655051
 30
0.0
 40
38.900116
100
AcDbArc
 50
66.010861
 51
113.805803
  0
ARC
  5
83
100
AcDbEntity
  8
2
370
    50
100
AcDbCircle
 10
-180.758074
 20
-70.031704
 30
0.0
 40
1.0
100
AcDbArc
 50
179.975044
 51
270.0
  0
ARC
  5
84
100
AcDbEntity
  8
2
370
    50
100
AcDbCircle
 10
-88.299813
 20
-105.605888
 30
0.0
 40
100.0
100
AcDbArc
 50
156.375476
 51
159.160816
  0
ARC
  5
85
100
AcDbEntity
  8
2
370
    50
100
AcDbCircle
 10
-232.216334
 20
-105.605888
 30
0.0
 40
100.0
100
AcDbArc
 50
20.839184
 51
23.624524
  0
POINT
  5
86
100
AcDbEntity
  8
2
370
    50
100
AcDbPoint
 10
-138.758074
 20
-70.031268
 30
0.0
  0
ARC
  5
87
100
AcDbEntity
  8
2
370
    50
100
AcDbCircle
 10
-139.758074
 20
-70.031704
 30
0.0
 40
1.0
100
AcDbArc
 50
270.0
 51
0.024956
  0
LINE
  5
88
100
AcDbEntity
  8
2
370
    50
100
AcDbLine
 10
-150.296127
 20
62.519945
 30
0.0
 11
-144.449181
 21
129.350836
 31
0.0
  0
LINE
  5
89
100
AcDbEntity
  8
2
370
    50
100
AcDbLine
 10
-170.220021
 20
62.519945
 30
0.0
 11
-176.066966
 21
129.350836
 31
0.0
  0
ARC
  5
8A
100
AcDbEntity
  8
2
370
    50
100
AcDbCircle
 10
-94.639446
 20
124.993049
 30
0.0
 40
50.0
100
AcDbArc
 50
156.598328
 51
175.0
  0
ARC
  5
8B
100
AcDbEntity
  8
2
370
    50
100
AcDbCircle
 10
-225.876701
 20
124.993049
 30
0.0
 40
50.0
100
AcDbArc
 50
5.0
 51
23.401672
  0
ARC
  5
8C
100
AcDbEntity
  8
2
370
    50
100
AcDbCircle
 10
-160.258074
 20
63.391503
 30
0.0
 40
10.0
100
AcDbArc
 50
185.0
 51
355.0
  0
ARC
  5
8D
100
AcDbEntity
  8
2
370
    50
100
AcDbCircle
 10
-160.258074
 20
153.391037
 30
0.0
 40
21.5
100
AcDbArc
 50
336.598328
 51
203.401672
  0
POINT
  5
8E
100
AcDbEntity
  8
2
370
    50
100
AcDbPoint
 10
-170.220021
 20
62.519945
 30
0.0
  0
POINT
  5
8F
100
AcDbEntity
  8
2
370
    50
100
AcDbPoint
 10
-150.296127
 20
62.519945
 30
0.0
  0
POINT
  5
90
100
AcDbEntity
  8
2
370
    50
100
AcDbPoint
 10
-160.258074
 20
53.391503
 30
0.0
  0
ARC
  5
91
100
AcDbEntity
  8
2
370
    50
100
AcDbCircle
 10
-160.258074
 20
153.391037
 30
0.0
 40
22.0
100
AcDbArc
 50
326.395307
 51
213.604693
  0
LINE
  5
92
100
AcDbEntity
  8
2
370
    50
100
AcDbLine
 10
-172.658074
 20
-133.031268
 30
0.0
 11
-147.858074
 21
-133.031268
 31
0.0
  0
LINE
  5
93
100
AcDbEntity
  8
2
370
    50
100
AcDbLine
 10
-173.258074
 20
-131.031268
 30
0.0
 11
-147.258074
 21
-131.031268
 31
0.0
  0
POINT
  5
94
100
AcDbEntity
  8
2
370
    50
100
AcDbPoint
 10
-110.258074
 20
-113.031268
 30
0.0
  0
LINE
  5
95
100
AcDbEntity
  8
2
370
    50
100
AcDbLine
 10
-215.825838
 20
-98.031268
 30
0.0
 11
-204.690309
 21
-98.031268
 31
0.0
  0
LINE
  5
96
100
AcDbEntity
  8
2
370
    50
100
AcDbLine
 10
-226.032337
 20
-110.353094
 30
0.0
 11
-220.464573
 21
-100.709443
 31
0.0
  0
LINE
  5
97
100
AcDbEntity
  8
2
370
    50
100
AcDbLine
 10
-220.464573
 20
-125.353094
 30
0.0
 11
-226.032337
 21
-115.709443
 31
0.0
  0
LINE
  5
98
100
AcDbEntity
  8
2
370
    50
100
AcDbLine
 10
-207.393181
 20
-128.031268
 30
0.0
 11
-215.825838
 21
-128.031268
 31
0.0
  0
ARC
  5
99
100
AcDbEntity
  8
2
370
    50
100
AcDbCircle
 10
-210.258074
 20
-113.031268
 30
0.0
 40
16.0
100
AcDbArc
 50
110.364135
 51
129.635865
  0
ARC
  5
9A
100
AcDbEntity
  8
2
370
    50
100
AcDbCircle
 10
-210.258074
 20
-113.031268
 30
0.0
 40
16.0
100
AcDbArc
 50
170.364135
 51
189.635865
  0
ARC
  5
9B
100
AcDbEntity
  8
2
370
    50
100
AcDbCircle
 10
-210.258074
 20
-113.031268
 30
0.0
 40
16.0
100
AcDbArc
 50
230.364135
 51
249.635865
  0
ARC
  5
9C
100
AcDbEntity
  8
2
370
    50
100
AcDbCircle
 10
-210.258074
 20
-113.031268
 30
0.0
 40
16.0
100
AcDbArc
 50
67.552449
 51
69.635865
  0
LINE
  5
9D
100
AcDbEntity
  8
2
370
    50
100
AcDbLine
 10
-115.825838
 20
-98.031268
 30
0.0
 11
-104.690309
 21
-98.031268
 31
0.0
  0
POINT
  5
9E
100
AcDbEntity
  8
2
370
    50
100
AcDbPoint
 10
-110.258074
 20
-113.031268
 30
0.0
  0
LINE
  5
9F
100
AcDbEntity
  8
2
370
    50
100
AcDbLine
 10
-104.690309
 20
-128.031268
 30
0.0
 11
-113.122966
 21
-128.031268
 31
0.0
  0
LINE
  5
A0
100
AcDbEntity
  8
2
370
    50
100
AcDbLine
 10
-94.48381
 20
-115.709443
 30
0.0
 11
-100.051575
 21
-125.353094
 31
0.0
  0
LINE
  5
A1
100
AcDbEntity
  8
2
370
    50
100
AcDbLine
 10
-100.051575
 20
-100.709443
 30
0.0
 11
-94.48381
 21
-110.353094
 31
0.0
  0
ARC
  5
A2
100
AcDbEntity
  8
2
370
    50
100
AcDbCircle
 10
-110.258074
 20
-113.031268
 30
0.0
 40
16.0
100
AcDbArc
 50
110.364135
 51
112.447551
  0
ARC
  5
A3
100
AcDbEntity
  8
2
370
    50
100
AcDbCircle
 10
-110.258074
 20
-113.031268
 30
0.0
 40
16.0
100
AcDbArc
 50
290.364135
 51
309.635865
  0
ARC
  5
A4
100
AcDbEntity
  8
2
370
    50
100
AcDbCircle
 10
-110.258074
 20
-113.031268
 30
0.0
 40
16.0
100
AcDbArc
 50
350.364135
 51
9.635865
  0
ARC
  5
A5
100
AcDbEntity
  8
2
370
    50
100
AcDbCircle
 10
-110.258074
 20
-113.031268
 30
0.0
 40
16.0
100
AcDbArc
 50
50.364135
 51
69.635865
  0
LINE
  5
A6
100
AcDbEntity
  8
2
370
    25
  6
CENTER
100
AcDbLine
 10
-187.758074
 20
153.391037
 30
0.0
 11
-132.758074
 21
153.391037
 31
0.0
  0
LINE
  5
A7
100
AcDbEntity
  8
2
370
    25
  6
CENTER
100
AcDbLine
 10
-165.801358
 20
-52.531765
 30
0.0
 11
-154.932506
 21
-52.531765
 31
0.0
  0
LINE
  5
A8
100
AcDbEntity
  8
2
370
    50
100
AcDbLine
 10
-161.705466
 20
-50.78999
 30
0.0
 11
-164.298202
 21
-52.271553
 31
0.0
  0
ARC
  5
A9
100
AcDbEntity
  8
2
370
    50
100
AcDbCircle
 10
-161.556774
 20
-51.050202
 30
0.0
 40
0.2997
100
AcDbArc
 50
0.0
 51
119.744881
  0
LINE
  5
AA
100
AcDbEntity
  8
2
370
    50
100
AcDbLine
 10
-161.257074
 20
-51.050202
 30
0.0
 11
-161.257074
 21
-54.013328
 31
0.0
  0
ARC
  5
AB
100
AcDbEntity
  8
2
370
    50
100
AcDbCircle
 10
-161.556774
 20
-54.013328
 30
0.0
 40
0.2997
100
AcDbArc
 50
240.255119
 51
360.0
  0
LINE
  5
AC
100
AcDbEntity
  8
2
370
    50
100
AcDbLine
 10
-161.705466
 20
-54.273541
 30
0.0
 11
-164.298202
 21
-52.791977
 31
0.0
  0
ARC
  5
AD
100
AcDbEntity
  8
2
370
    50
100
AcDbCircle
 10
-164.149509
 20
-52.531765
 30
0.0
 40
0.2997
100
AcDbArc
 50
119.744881
 51
240.255119
  0
ARC
  5
AE
100
AcDbEntity
  8
2
370
    50
100
AcDbCircle
 10
-158.959374
 20
-51.050202
 30
0.0
 40
0.2997
100
AcDbArc
 50
60.255119
 51
180.0
  0
LINE
  5
AF
100
AcDbEntity
  8
2
370
    50
100
AcDbLine
 10
-159.259074
 20
-51.050202
 30
0.0
 11
-159.259074
 21
-54.013328
 31
0.0
  0
LINE
  5
B0
100
AcDbEntity
  8
2
370
    50
100
AcDbLine
 10
-158.810681
 20
-50.78999
 30
0.0
 11
-156.217945
 21
-52.271553
 31
0.0
  0
ARC
  5
B1
100
AcDbEntity
  8
2
370
    50
100
AcDbCircle
 10
-156.366638
 20
-52.531765
 30
0.0
 40
0.2997
100
AcDbArc
 50
299.744881
 51
60.255119
  0
LINE
  5
B2
100
AcDbEntity
  8
2
370
    50
100
AcDbLine
 10
-158.810681
 20
-54.273541
 30
0.0
 11
-156.217945
 21
-52.791977
 31
0.0
  0
ARC
  5
B3
100
AcDbEntity
  8
2
370
    50
100
AcDbCircle
 10
-158.959374
 20
-54.013328
 30
0.0
 40
0.2997
100
AcDbArc
 50
180.0
 51
299.744881
  0
POINT
  5
B4
100
AcDbEntity
  8
2
370
    50
100
AcDbPoint
 10
-160.258074
 20
158.391037
 30
0.0
  0
LINE
  5
B5
100
AcDbEntity
  8
2
370
    50
100
AcDbLine
 10
-96.353187
 20
172.303882
 30
0.0
 11
-97.550869
 21
158.614318
 31
0.0
  0
LINE
  5
B6
100
AcDbEntity
  8
2
370
    50
100
AcDbLine
 10
-224.16296
 20
172.303882
 30
0.0
 11
-222.965278
 21
158.614318
 31
0.0
  0
POINT
  5
B7
100
AcDbEntity
  8
2
370
    50
100
AcDbPoint
 10
-96.258074
 20
173.391037
 30
0.0
  0
ARC
  5
B8
100
AcDbEntity
  8
2
370
    50
100
AcDbCircle
 10
-97.349382
 20
172.391037
 30
0.0
 40
1.0
100
AcDbArc
 50
355.0
 51
90.0
  0
LINE
  5
B9
100
AcDbEntity
  8
2
370
    50
100
AcDbLine
 10
-176.569521
 20
133.287747
 30
0.0
 11
-220.17616
 21
154.556126
 31
0.0
  0
LINE
  5
BA
100
AcDbEntity
  8
2
370
    50
100
AcDbLine
 10
-143.946626
 20
133.287747
 30
0.0
 11
-100.339987
 21
154.556126
 31
0.0
  0
LINE
  5
BB
100
AcDbEntity
  8
2
370
    50
100
AcDbLine
 10
-187.59782
 20
168.391037
 30
0.0
 11
-184.069835
 21
168.391037
 31
0.0
  0
ARC
  5
BC
100
AcDbEntity
  8
2
370
    50
100
AcDbCircle
 10
-184.069835
 20
190.391037
 30
0.0
 40
22.0
100
AcDbArc
 50
270.0
 51
302.763758
  0
ARC
  5
BD
100
AcDbEntity
  8
2
370
    50
100
AcDbCircle
 10
-136.446312
 20
190.391037
 30
0.0
 40
22.0
100
AcDbArc
 50
237.236242
 51
270.0
  0
LINE
  5
BE
100
AcDbEntity
  8
2
370
    50
100
AcDbLine
 10
-132.918328
 20
168.391037
 30
0.0
 11
-136.446312
 21
168.391037
 31
0.0
  0
POINT
  5
BF
100
AcDbEntity
  8
2
370
    50
100
AcDbPoint
 10
-160.258074
 20
128.391037
 30
0.0
  0
ARC
  5
C0
100
AcDbEntity
  8
2
370
    50
100
AcDbCircle
 10
-187.59782
 20
178.391037
 30
0.0
 40
10.0
100
AcDbArc
 50
213.055731
 51
270.0
  0
ARC
  5
C1
100
AcDbEntity
  8
2
370
    50
100
AcDbCircle
 10
-132.918328
 20
178.391037
 30
0.0
 40
10.0
100
AcDbArc
 50
270.0
 51
326.944269
  0
ARC
  5
C2
100
AcDbEntity
  8
2
370
    50
100
AcDbCircle
 10
-223.166765
 20
172.391037
 30
0.0
 40
1.0
100
AcDbArc
 50
90.0
 51
185.0
  0
POINT
  5
C3
100
AcDbEntity
  8
2
370
    50
100
AcDbPoint
 10
-224.258074
 20
173.391037
 30
0.0
  0
ARC
  5
C4
100
AcDbEntity
  8
2
370
    50
100
AcDbCircle
 10
-196.817364
 20
172.391037
 30
0.0
 40
1.0
100
AcDbArc
 50
33.055731
 51
90.0
  0
ARC
  5
C5
100
AcDbEntity
  8
2
370
    50
100
AcDbCircle
 10
-123.698783
 20
172.391037
 30
0.0
 40
1.0
100
AcDbArc
 50
90.0
 51
146.944269
  0
POINT
  5
C6
100
AcDbEntity
  8
2
370
    50
100
AcDbPoint
 10
-160.258074
 20
175.391037
 30
0.0
  0
ARC
  5
C7
100
AcDbEntity
  8
2
370
    50
100
AcDbCircle
 10
-102.531843
 20
159.050096
 30
0.0
 40
5.0
100
AcDbArc
 50
296.0
 51
355.0
  0
ARC
  5
C8
100
AcDbEntity
  8
2
370
    50
100
AcDbCircle
 10
-217.984305
 20
159.050096
 30
0.0
 40
5.0
100
AcDbArc
 50
185.0
 51
244.0
  0
LINE
  5
C9
100
AcDbEntity
  8
2
370
    50
100
AcDbLine
 10
-100.008481
 20
174.091081
 30
0.0
 11
-100.008481
 21
173.391081
 31
0.0
  0
LINE
  5
CA
100
AcDbEntity
  8
2
370
    50
100
AcDbLine
 10
-120.508481
 20
174.091081
 30
0.0
 11
-120.508481
 21
173.391081
 31
0.0
  0
LINE
  5
CB
100
AcDbEntity
  8
2
370
    25
  6
CENTER
100
AcDbLine
 10
-110.25924
 20
216.722435
 30
0.0
 11
-110.25924
 21
166.006263
 31
0.0
  0
LINE
  5
CC
100
AcDbEntity
  8
2
370
    25
  6
CENTER
100
AcDbLine
 10
-210.258426
 20
216.284996
 30
0.0
 11
-210.258426
 21
166.006263
 31
0.0
  0
LINE
  5
CD
100
AcDbEntity
  8
2
370
    50
100
AcDbLine
 10
-147.258074
 20
-131.031636
 30
0.0
 11
-147.258074
 21
-133.031201
 31
0.0
  0
LINE
  5
CE
100
AcDbEntity
  8
2
370
    50
100
AcDbLine
 10
-173.258074
 20
-131.031636
 30
0.0
 11
-173.258074
 21
-133.031201
 31
0.0
  0
LINE
  5
CF
100
AcDbEntity
  8
2
370
    50
100
AcDbLine
 10
-147.858074
 20
-133.031201
 30
0.0
 11
-147.258074
 21
-132.431201
 31
0.0
  0
LINE
  5
D0
100
AcDbEntity
  8
2
370
    50
100
AcDbLine
 10
-172.658074
 20
-133.031201
 30
0.0
 11
-173.258074
 21
-132.431201
 31
0.0
  0
POINT
  5
D1
100
AcDbEntity
  8
2
370
    50
100
AcDbPoint
 10
-160.258074
 20
-133.031636
 30
0.0
  0
POINT
  5
D2
100
AcDbEntity
  8
2
370
    50
100
AcDbPoint
 10
-148.039574
 20
132.227975
 30
0.0
  0
POINT
  5
D3
100
AcDbEntity
  8
2
370
    50
100
AcDbPoint
 10
-110.258306
 20
66.7889
 30
0.0
  0
LINE
  5
D4
100
AcDbEntity
  8
2
370
    25
  6
CENTER
100
AcDbLine
 10
-106.338594
 20
59.999759
 30
0.0
 11
-174.008074
 21
177.206736
 31
0.0
  0
POINT
  5
D5
100
AcDbEntity
  8
2
370
    50
100
AcDbPoint
 10
-147.758074
 20
131.740402
 30
0.0
  0
LINE
  5
D6
100
AcDbEntity
  8
2
370
    25
  6
DASHED
100
AcDbLine
 10
-234.702644
 20
98.907379
 30
0.0
 11
-181.709539
 21
123.61847
 31
0.0
  0
LINE
  5
D7
100
AcDbEntity
  8
2
370
    25
  6
DASHED
100
AcDbLine
 10
-244.664591
 20
116.161978
 30
0.0
 11
-205.114016
 21
143.855588
 31
0.0
  0
ARC
  5
D8
100
AcDbEntity
  8
2
370
    25
  6
DASHED
100
AcDbCircle
 10
-238.928826
 20
107.970457
 30
0.0
 40
10.0
100
AcDbArc
 50
125.0
 51
295.0
  0
POINT
  5
D9
100
AcDbEntity
  8
2
370
    50
100
AcDbPoint
 10
-244.664591
 20
116.161978
 30
0.0
  0
POINT
  5
DA
100
AcDbEntity
  8
2
370
    50
100
AcDbPoint
 10
-234.702644
 20
98.907379
 30
0.0
  0
POINT
  5
DB
100
AcDbEntity
  8
2
370
    50
100
AcDbPoint
 10
-247.58908
 20
102.970457
 30
0.0
  0
LINE
  5
DC
100
AcDbEntity
  8
2
370
    25
  6
CENTER
100
AcDbLine
 10
-254.378221
 20
99.050745
 30
0.0
 11
-137.171244
 21
166.720225
 31
0.0
  0
LINE
  5
DD
100
AcDbEntity
  8
2
370
    25
  6
DASHED
100
AcDbLine
 10
-106.195228
 20
79.675337
 30
0.0
 11
-131.696977
 21
134.364013
 31
0.0
  0
LINE
  5
DE
100
AcDbEntity
  8
2
370
    25
  6
DASHED
100
AcDbLine
 10
-123.449827
 20
69.71339
 30
0.0
 11
-142.899352
 21
97.490191
 31
0.0
  0
ARC
  5
DF
100
AcDbEntity
  8
2
370
    25
  6
DASHED
100
AcDbCircle
 10
-115.258306
 20
75.449154
 30
0.0
 40
10.0
100
AcDbArc
 50
215.0
 51
25.0
  0
POINT
  5
E0
100
AcDbEntity
  8
2
370
    50
100
AcDbPoint
 10
-123.449827
 20
69.71339
 30
0.0
  0
POINT
  5
E1
100
AcDbEntity
  8
2
370
    50
100
AcDbPoint
 10
-106.195228
 20
79.675337
 30
0.0
  0
LINE
  5
E2
100
AcDbEntity
  8
2
370
    50
100
AcDbLine
 10
-223.166822
 20
173.391421
 30
0.0
 11
-196.817364
 21
173.391421
 31
0.0
  0
LINE
  5
E3
100
AcDbEntity
  8
2
370
    50
100
AcDbLine
 10
-223.166822
 20
173.391421
 30
0.0
 11
-196.817364
 21
173.391421
 31
0.0
  0
LINE
  5
E4
100
AcDbEntity
  8
2
370
    50
100
AcDbLine
 10
-220.507667
 20
174.091081
 30
0.0
 11
-220.507667
 21
173.391081
 31
0.0
  0
LINE
  5
E5
100
AcDbEntity
  8
2
370
    50
100
AcDbLine
 10
-200.007667
 20
174.091081
 30
0.0
 11
-200.007667
 21
173.391081
 31
0.0
  0
POINT
  5
E6
100
AcDbEntity
  8
2
370
    50
100
AcDbPoint
 10
230.402954
 20
-16.531268
 30
0.0
  0
POINT
  5
E7
100
AcDbEntity
  8
2
370
    50
100
AcDbPoint
 10
252.402954
 20
-3.531704
 30
0.0
  0
LINE
  5
E8
100
AcDbEntity
  8
2
370
    50
100
AcDbLine
 10
250.57839
 20
43.968732
 30
0.0
 11
251.402954
 21
43.968732
 31
0.0
  0
LINE
  5
E9
100
AcDbEntity
  8
2
370
    50
100
AcDbLine
 10
130.402954
 20
106.559543
 30
0.0
 11
130.402954
 21
110.330204
 31
0.0
  0
LINE
  5
EA
100
AcDbEntity
  8
2
370
    50
100
AcDbLine
 10
131.49011
 20
105.563349
 30
0.0
 11
137.711981
 21
106.107692
 31
0.0
  0
ARC
  5
EB
100
AcDbEntity
  8
2
370
    50
100
AcDbCircle
 10
193.90296
 20
72.245066
 30
0.0
 40
15.0
100
AcDbArc
 50
0.000001
 51
64.279919
  0
ARC
  5
EC
100
AcDbEntity
  8
2
370
    50
100
AcDbCircle
 10
131.402954
 20
106.559543
 30
0.0
 40
1.0
100
AcDbArc
 50
180.0
 51
275.0
  0
ARC
  5
ED
100
AcDbEntity
  8
2
370
    50
100
AcDbCircle
 10
138.14776
 20
101.126719
 30
0.0
 40
5.0
100
AcDbArc
 50
79.123693
 51
95.0
  0
LINE
  5
EE
100
AcDbEntity
  8
2
370
    50
100
AcDbLine
 10
208.902954
 20
72.245066
 30
0.0
 11
208.902954
 21
49.468235
 31
0.0
  0
LINE
  5
EF
100
AcDbEntity
  8
2
370
    50
100
AcDbLine
 10
208.902954
 20
49.468235
 30
0.0
 11
230.402954
 21
49.468235
 31
0.0
  0
LINE
  5
F0
100
AcDbEntity
  8
2
370
    50
100
AcDbLine
 10
251.902954
 20
62.956446
 30
0.0
 11
251.902954
 21
57.293595
 31
0.0
  0
ARC
  5
F1
100
AcDbEntity
  8
2
370
    50
100
AcDbCircle
 10
91.918864
 20
-139.472303
 30
0.0
 40
250.0
100
AcDbArc
 50
64.279919
 51
79.123693
  0
ARC
  5
F2
100
AcDbEntity
  8
2
370
    50
100
AcDbCircle
 10
96.946679
 20
-150.991398
 30
0.0
 40
264.583411
100
AcDbArc
 50
54.261314
 51
82.488657
  0
ARC
  5
F3
100
AcDbEntity
  8
2
370
    50
100
AcDbCircle
 10
250.902954
 20
62.956446
 30
0.0
 40
1.0
100
AcDbArc
 50
360.0
 51
54.261314
  0
ARC
  5
F4
100
AcDbEntity
  8
2
370
    50
100
AcDbCircle
 10
131.402954
 20
110.330204
 30
0.0
 40
1.0
100
AcDbArc
 50
82.488657
 51
180.0
  0
LINE
  5
F5
100
AcDbEntity
  8
2
370
    50
100
AcDbLine
 10
230.402954
 20
49.468235
 30
0.0
 11
251.902954
 21
57.293595
 31
0.0
  0
POINT
  5
F6
100
AcDbEntity
  8
2
370
    50
100
AcDbPoint
 10
209.902954
 20
49.468235
 30
0.0
  0
LINE
  5
F7
100
AcDbEntity
  8
2
370
    50
100
AcDbLine
 10
209.189255
 20
43.968732
 30
0.0
 11
214.027954
 21
43.968732
 31
0.0
  0
POINT
  5
F8
100
AcDbEntity
  8
2
370
    50
100
AcDbPoint
 10
230.402954
 20
51.968418
 30
0.0
  0
POINT
  5
F9
100
AcDbEntity
  8
2
370
    50
100
AcDbPoint
 10
208.902954
 20
49.468235
 30
0.0
  0
POINT
  5
FA
100
AcDbEntity
  8
2
370
    50
100
AcDbPoint
 10
260.652954
 20
1.968732
 30
0.0
  0
POINT
  5
FB
100
AcDbEntity
  8
2
370
    50
100
AcDbPoint
 10
254.402954
 20
1.968732
 30
0.0
  0
LINE
  5
FC
100
AcDbEntity
  8
2
370
    50
100
AcDbLine
 10
253.602954
 20
12.468732
 30
0.0
 11
252.387123
 21
12.468732
 31
0.0
  0
LINE
  5
FD
100
AcDbEntity
  8
2
370
    50
100
AcDbLine
 10
253.602954
 20
-8.531268
 30
0.0
 11
252.402954
 21
-8.531268
 31
0.0
  0
POINT
  5
FE
100
AcDbEntity
  8
2
370
    50
100
AcDbPoint
 10
230.402954
 20
-16.531268
 30
0.0
  0
LINE
  5
FF
100
AcDbEntity
  8
2
370
    50
100
AcDbLine
 10
230.402954
 20
-16.031704
 30
0.0
 11
251.402954
 21
-16.031704
 31
0.0
  0
LINE
  5
100
100
AcDbEntity
  8
2
370
    50
100
AcDbLine
 10
230.402954
 20
43.968296
 30
0.0
 11
209.319285
 21
43.968296
 31
0.0
  0
LINE
  5
101
100
AcDbEntity
  8
2
370
    50
100
AcDbLine
 10
242.802954
 20
-18.031268
 30
0.0
 11
243.402954
 21
-17.431268
 31
0.0
  0
LINE
  5
102
100
AcDbEntity
  8
2
370
    50
100
AcDbLine
 10
218.002954
 20
-18.031268
 30
0.0
 11
217.402954
 21
-17.431268
 31
0.0
  0
POINT
  5
103
100
AcDbEntity
  8
2
370
    50
100
AcDbPoint
 10
230.402954
 20
-16.531268
 30
0.0
  0
LINE
  5
104
100
AcDbEntity
  8
2
370
    50
100
AcDbLine
 10
213.930704
 20
-16.031704
 30
0.0
 11
230.402954
 21
-16.031704
 31
0.0
  0
LINE
  5
105
100
AcDbEntity
  8
2
370
    50
100
AcDbLine
 10
252.402954
 20
-15.031704
 30
0.0
 11
252.402954
 21
42.968296
 31
0.0
  0
POINT
  5
106
100
AcDbEntity
  8
2
370
    50
100
AcDbPoint
 10
252.402954
 20
-3.531704
 30
0.0
  0
POINT
  5
107
100
AcDbEntity
  8
2
370
    50
100
AcDbPoint
 10
230.402954
 20
43.968296
 30
0.0
  0
POINT
  5
108
100
AcDbEntity
  8
2
370
    50
100
AcDbPoint
 10
230.402954
 20
43.968296
 30
0.0
  0
ARC
  5
109
100
AcDbEntity
  8
2
370
    50
100
AcDbCircle
 10
251.402954
 20
42.968296
 30
0.0
 40
1.0
100
AcDbArc
 50
0.0
 51
90.0
  0
ARC
  5
10A
100
AcDbEntity
  8
2
370
    50
100
AcDbCircle
 10
251.402954
 20
-15.031704
 30
0.0
 40
1.0
100
AcDbArc
 50
270.0
 51
360.0
  0
ARC
  5
10B
100
AcDbEntity
  8
2
370
    50
100
AcDbCircle
 10
250.402954
 20
9.580793
 30
0.0
 40
45.0
100
AcDbArc
 50
179.874484
 51
214.012581
  0
LINE
  5
10C
100
AcDbEntity
  8
2
370
    50
100
AcDbLine
 10
208.323091
 20
43.055452
 30
0.0
 11
205.403062
 21
9.679373
 31
0.0
  0
ARC
  5
10D
100
AcDbEntity
  8
2
370
    50
100
AcDbCircle
 10
209.319285
 20
42.968296
 30
0.0
 40
1.0
100
AcDbArc
 50
90.0
 51
175.0
  0
ARC
  5
10E
100
AcDbEntity
  8
2
370
    50
100
AcDbCircle
 10
213.930704
 20
-15.031704
 30
0.0
 40
1.0
100
AcDbArc
 50
214.012581
 51
270.0
  0
POINT
  5
10F
100
AcDbEntity
  8
2
370
    50
100
AcDbPoint
 10
230.402954
 20
51.968418
 30
0.0
  0
POINT
  5
110
100
AcDbEntity
  8
2
370
    50
100
AcDbPoint
 10
230.402954
 20
51.968418
 30
0.0
  0
LINE
  5
111
100
AcDbEntity
  8
2
370
    50
100
AcDbLine
 10
268.802954
 20
18.468325
 30
0.0
 11
254.602954
 21
18.468325
 31
0.0
  0
LINE
  5
112
100
AcDbEntity
  8
2
370
    50
100
AcDbLine
 10
268.802954
 20
-14.531675
 30
0.0
 11
254.602954
 21
-14.531675
 31
0.0
  0
LINE
  5
113
100
AcDbEntity
  8
2
370
    50
100
AcDbLine
 10
269.802954
 20
-12.781675
 30
0.0
 11
269.802954
 21
16.719138
 31
0.0
  0
LINE
  5
114
100
AcDbEntity
  8
2
370
    50
100
AcDbLine
 10
253.602954
 20
-12.781675
 30
0.0
 11
253.602954
 21
-10.819838
 31
0.0
  0
LINE
  5
115
100
AcDbEntity
  8
2
370
    50
100
AcDbLine
 10
254.402954
 20
18.118325
 30
0.0
 11
254.602954
 21
18.468325
 31
0.0
  0
LINE
  5
116
100
AcDbEntity
  8
2
370
    50
100
AcDbLine
 10
253.602954
 20
-12.781675
 30
0.0
 11
254.602954
 21
-14.531675
 31
0.0
  0
LINE
  5
117
100
AcDbEntity
  8
2
370
    50
100
AcDbLine
 10
268.802954
 20
-14.531675
 30
0.0
 11
269.802954
 21
-12.781675
 31
0.0
  0
LINE
  5
118
100
AcDbEntity
  8
2
370
    50
100
AcDbLine
 10
254.602954
 20
9.363424
 30
0.0
 11
268.802954
 21
9.363424
 31
0.0
  0
LINE
  5
119
100
AcDbEntity
  8
2
370
    50
100
AcDbLine
 10
254.602954
 20
11.04465
 30
0.0
 11
268.802954
 21
11.04465
 31
0.0
  0
LINE
  5
11A
100
AcDbEntity
  8
2
370
    50
100
AcDbLine
 10
254.602954
 20
-5.426775
 30
0.0
 11
268.802954
 21
-5.426775
 31
0.0
  0
LINE
  5
11B
100
AcDbEntity
  8
2
370
    50
100
AcDbLine
 10
254.602954
 20
-7.108
 30
0.0
 11
268.802954
 21
-7.108
 31
0.0
  0
ARC
  5
11C
100
AcDbEntity
  8
2
370
    50
100
AcDbCircle
 10
241.959204
 20
1.968325
 30
0.0
 40
27.84375
100
AcDbArc
 50
344.59782
 51
15.40218
  0
LINE
  5
11D
100
AcDbEntity
  8
2
370
    50
100
AcDbLine
 10
268.802954
 20
-7.108
 30
0.0
 11
268.802954
 21
-5.426775
 31
0.0
  0
LINE
  5
11E
100
AcDbEntity
  8
2
370
    50
100
AcDbLine
 10
268.802954
 20
9.363424
 30
0.0
 11
268.802954
 21
11.04465
 31
0.0
  0
ARC
  5
11F
100
AcDbEntity
  8
2
370
    50
100
AcDbCircle
 10
262.414085
 20
-10.819838
 30
0.0
 40
7.388869
100
AcDbArc
 50
329.844052
 51
30.155948
  0
ARC
  5
120
100
AcDbEntity
  8
2
370
    50
100
AcDbCircle
 10
262.414085
 20
14.756487
 30
0.0
 40
7.388869
100
AcDbArc
 50
329.844052
 51
30.155948
  0
ARC
  5
121
100
AcDbEntity
  8
2
370
    50
100
AcDbCircle
 10
260.991823
 20
14.756487
 30
0.0
 40
7.388869
100
AcDbArc
 50
206.908673
 51
210.155948
  0
LINE
  5
122
100
AcDbEntity
  8
2
370
    50
100
AcDbLine
 10
254.602954
 20
-7.108
 30
0.0
 11
254.602954
 21
-5.426775
 31
0.0
  0
LINE
  5
123
100
AcDbEntity
  8
2
370
    50
100
AcDbLine
 10
254.602954
 20
9.363424
 30
0.0
 11
254.602954
 21
11.04465
 31
0.0
  0
ARC
  5
124
100
AcDbEntity
  8
2
370
    50
100
AcDbCircle
 10
281.446704
 20
1.968325
 30
0.0
 40
27.84375
100
AcDbArc
 50
164.59782
 51
166.232214
  0
ARC
  5
125
100
AcDbEntity
  8
2
370
    50
100
AcDbCircle
 10
281.446704
 20
1.968325
 30
0.0
 40
27.84375
100
AcDbArc
 50
193.767786
 51
195.40218
  0
ARC
  5
126
100
AcDbEntity
  8
2
370
    50
100
AcDbCircle
 10
260.991823
 20
-10.819838
 30
0.0
 40
7.388869
100
AcDbArc
 50
149.844052
 51
157.786468
  0
ARC
  5
127
100
AcDbEntity
  8
2
370
    50
100
AcDbCircle
 10
260.991823
 20
-10.819838
 30
0.0
 40
7.388869
100
AcDbArc
 50
186.52386
 51
210.155948
  0
LINE
  5
128
100
AcDbEntity
  8
2
370
    50
100
AcDbLine
 10
269.802954
 20
14.756487
 30
0.0
 11
269.802954
 21
15.168325
 31
0.0
  0
ARC
  5
129
100
AcDbEntity
  8
2
370
    50
100
AcDbCircle
 10
260.991823
 20
14.756487
 30
0.0
 40
7.388869
100
AcDbArc
 50
149.844052
 51
210.155948
  0
ARC
  5
12A
100
AcDbEntity
  8
2
370
    50
100
AcDbCircle
 10
281.446704
 20
1.968325
 30
0.0
 40
27.84375
100
AcDbArc
 50
164.59782
 51
195.40218
  0
ARC
  5
12B
100
AcDbEntity
  8
2
370
    50
100
AcDbCircle
 10
260.991823
 20
-10.819838
 30
0.0
 40
7.388869
100
AcDbArc
 50
149.844052
 51
210.155948
  0
LINE
  5
12C
100
AcDbEntity
  8
2
370
    50
100
AcDbLine
 10
254.602954
 20
-14.531675
 30
0.0
 11
253.602954
 21
-12.781675
 31
0.0
  0
LINE
  5
12D
100
AcDbEntity
  8
2
370
    50
100
AcDbLine
 10
253.602954
 20
-10.819838
 30
0.0
 11
253.602954
 21
16.719138
 31
0.0
  0
LINE
  5
12E
100
AcDbEntity
  8
2
370
    50
100
AcDbLine
 10
250.652954
 20
43.968732
 30
0.0
 11
246.777954
 21
43.968732
 31
0.0
  0
LINE
  5
12F
100
AcDbEntity
  8
2
370
    50
100
AcDbLine
 10
230.402954
 20
43.968732
 30
0.0
 11
246.777954
 21
43.968732
 31
0.0
  0
LINE
  5
130
100
AcDbEntity
  8
2
370
    50
100
AcDbLine
 10
214.027954
 20
43.968732
 30
0.0
 11
214.402954
 21
43.968732
 31
0.0
  0
LINE
  5
131
100
AcDbEntity
  8
2
370
    50
100
AcDbLine
 10
210.152954
 20
43.968732
 30
0.0
 11
214.027954
 21
43.968732
 31
0.0
  0
ARC
  5
132
100
AcDbEntity
  8
2
370
    50
100
AcDbCircle
 10
210.152954
 20
44.968732
 30
0.0
 40
1.0
100
AcDbArc
 50
159.772974
 51
270.0
  0
POINT
  5
133
100
AcDbEntity
  8
2
370
    50
100
AcDbPoint
 10
209.152954
 20
44.968732
 30
0.0
  0
POINT
  5
134
100
AcDbEntity
  8
2
370
    50
100
AcDbPoint
 10
209.152954
 20
44.968732
 30
0.0
  0
LINE
  5
135
100
AcDbEntity
  8
2
370
    50
100
AcDbLine
 10
246.777954
 20
43.968732
 30
0.0
 11
246.402954
 21
43.968732
 31
0.0
  0
LINE
  5
136
100
AcDbEntity
  8
2
370
    50
100
AcDbLine
 10
250.652954
 20
43.968732
 30
0.0
 11
246.777954
 21
43.968732
 31
0.0
  0
ARC
  5
137
100
AcDbEntity
  8
2
370
    50
100
AcDbCircle
 10
250.652954
 20
44.968732
 30
0.0
 40
1.0
100
AcDbArc
 50
270.0
 51
22.322634
  0
POINT
  5
138
100
AcDbEntity
  8
2
370
    50
100
AcDbPoint
 10
251.652954
 20
44.968732
 30
0.0
  0
POINT
  5
139
100
AcDbEntity
  8
2
370
    50
100
AcDbPoint
 10
251.652954
 20
44.968732
 30
0.0
  0
ARC
  5
13A
100
AcDbEntity
  8
2
370
    50
100
AcDbCircle
 10
159.072039
 20
7.36639
 30
0.0
 40
100.0
100
AcDbArc
 50
22.322634
 51
28.723244
  0
ARC
  5
13B
100
AcDbEntity
  8
2
370
    50
100
AcDbCircle
 10
301.733869
 20
7.36639
 30
0.0
 40
100.0
100
AcDbArc
 50
155.101097
 51
157.677366
  0
LINE
  5
13C
100
AcDbEntity
  8
2
370
    50
100
AcDbLine
 10
130.402954
 20
106.559543
 30
0.0
 11
130.402954
 21
110.330204
 31
0.0
  0
LINE
  5
13D
100
AcDbEntity
  8
2
370
    50
100
AcDbLine
 10
131.49011
 20
105.563349
 30
0.0
 11
137.711981
 21
106.107692
 31
0.0
  0
ARC
  5
13E
100
AcDbEntity
  8
2
370
    50
100
AcDbCircle
 10
131.402954
 20
106.559543
 30
0.0
 40
1.0
100
AcDbArc
 50
180.0
 51
275.0
  0
ARC
  5
13F
100
AcDbEntity
  8
2
370
    50
100
AcDbCircle
 10
138.14776
 20
101.126719
 30
0.0
 40
5.0
100
AcDbArc
 50
79.123693
 51
95.0
  0
POINT
  5
140
100
AcDbEntity
  8
2
370
    50
100
AcDbPoint
 10
230.402954
 20
49.468235
 30
0.0
  0
POINT
  5
141
100
AcDbEntity
  8
2
370
    50
100
AcDbPoint
 10
230.402954
 20
49.468235
 30
0.0
  0
ARC
  5
142
100
AcDbEntity
  8
2
370
    50
100
AcDbCircle
 10
91.918864
 20
-139.472303
 30
0.0
 40
250.0
100
AcDbArc
 50
64.279919
 51
79.123693
  0
POINT
  5
143
100
AcDbEntity
  8
2
370
    50
100
AcDbPoint
 10
208.902954
 20
81.468238
 30
0.0
  0
POINT
  5
144
100
AcDbEntity
  8
2
370
    50
100
AcDbPoint
 10
230.402954
 20
77.468235
 30
0.0
  0
ARC
  5
145
100
AcDbEntity
  8
2
370
    50
100
AcDbCircle
 10
131.402954
 20
110.330204
 30
0.0
 40
1.0
100
AcDbArc
 50
82.488657
 51
180.0
  0
POINT
  5
146
100
AcDbEntity
  8
2
370
    50
100
AcDbPoint
 10
146.604016
 20
104.473458
 30
0.0
  0
POINT
  5
147
100
AcDbEntity
  8
2
370
    50
100
AcDbPoint
 10
189.691047
 20
90.615941
 30
0.0
  0
POINT
  5
148
100
AcDbEntity
  8
2
370
    50
100
AcDbPoint
 10
147.431574
 20
108.73087
 30
0.0
  0
POINT
  5
149
100
AcDbEntity
  8
2
370
    50
100
AcDbPoint
 10
191.764893
 20
96.018496
 30
0.0
  0
POINT
  5
14A
100
AcDbEntity
  8
2
370
    50
100
AcDbPoint
 10
138.402954
 20
106.168144
 30
0.0
  0
POINT
  5
14B
100
AcDbEntity
  8
2
370
    50
100
AcDbPoint
 10
130.402954
 20
111.468235
 30
0.0
  0
POINT
  5
14C
100
AcDbEntity
  8
2
370
    50
100
AcDbPoint
 10
130.402954
 20
105.468235
 30
0.0
  0
LINE
  5
14D
100
AcDbEntity
  8
2
370
    50
100
AcDbLine
 10
243.402954
 20
-16.032336
 30
0.0
 11
243.402954
 21
-18.032234
 31
0.0
  0
LINE
  5
14E
100
AcDbEntity
  8
2
370
    50
100
AcDbLine
 10
217.402954
 20
-16.032336
 30
0.0
 11
217.402954
 21
-18.032234
 31
0.0
  0
LINE
  5
14F
100
AcDbEntity
  8
2
370
    50
100
AcDbLine
 10
242.802954
 20
-18.0319
 30
0.0
 11
243.402954
 21
-17.4319
 31
0.0
  0
LINE
  5
150
100
AcDbEntity
  8
2
370
    50
100
AcDbLine
 10
218.002954
 20
-18.0319
 30
0.0
 11
217.402954
 21
-17.4319
 31
0.0
  0
LINE
  5
151
100
AcDbEntity
  8
2
370
    25
  6
CENTER
100
AcDbLine
 10
205.647019
 20
1.968732
 30
0.0
 11
295.013764
 21
1.968732
 31
0.0
  0
LINE
  5
152
100
AcDbEntity
  8
2
370
    50
100
AcDbLine
 10
268.802954
 20
18.469138
 30
0.0
 11
269.802954
 21
16.719138
 31
0.0
  0
LINE
  5
153
100
AcDbEntity
  8
2
370
    50
100
AcDbLine
 10
253.602954
 20
16.719138
 30
0.0
 11
254.602954
 21
18.469138
 31
0.0
  0
LINE
  5
154
100
AcDbEntity
  8
2
370
    25
100
AcDbLine
 10
271.303206
 20
-10.011406
 30
0.0
 11
269.802954
 21
-10.011406
 31
0.0
  0
LINE
  5
155
100
AcDbEntity
  8
2
370
    25
100
AcDbLine
 10
271.303206
 20
13.946594
 30
0.0
 11
269.802954
 21
13.946594
 31
0.0
  0
LINE
  5
156
100
AcDbEntity
  8
2
370
    50
100
AcDbLine
 10
271.303206
 20
-10.011406
 30
0.0
 11
273.071658
 21
-11.032422
 31
0.0
  0
LINE
  5
157
100
AcDbEntity
  8
2
370
    50
100
AcDbLine
 10
271.303206
 20
13.946594
 30
0.0
 11
273.071601
 21
14.967578
 31
0.0
  0
LINE
  5
158
100
AcDbEntity
  8
2
370
    50
100
AcDbLine
 10
279.303206
 20
-11.032422
 30
0.0
 11
269.802954
 21
-11.032422
 31
0.0
  0
LINE
  5
159
100
AcDbEntity
  8
2
370
    50
100
AcDbLine
 10
279.303206
 20
-26.532422
 30
0.0
 11
279.303206
 21
15.467578
 31
0.0
  0
LINE
  5
15A
100
AcDbEntity
  8
2
370
    50
100
AcDbLine
 10
295.303206
 20
-26.532422
 30
0.0
 11
295.303206
 21
15.467578
 31
0.0
  0
LINE
  5
15B
100
AcDbEntity
  8
2
370
    50
100
AcDbLine
 10
294.803206
 20
-27.032422
 30
0.0
 11
279.803206
 21
-27.032422
 31
0.0
  0
LINE
  5
15C
100
AcDbEntity
  8
2
370
    50
100
AcDbLine
 10
279.803206
 20
15.967578
 30
0.0
 11
294.803206
 21
15.967578
 31
0.0
  0
LINE
  5
15D
100
AcDbEntity
  8
2
370
    50
100
AcDbLine
 10
269.802954
 20
14.967578
 30
0.0
 11
279.303206
 21
14.967578
 31
0.0
  0
LINE
  5
15E
100
AcDbEntity
  8
2
370
    50
100
AcDbLine
 10
295.303206
 20
-26.532422
 30
0.0
 11
294.803206
 21
-27.032422
 31
0.0
  0
LINE
  5
15F
100
AcDbEntity
  8
2
370
    50
100
AcDbLine
 10
279.803206
 20
-27.032422
 30
0.0
 11
279.303206
 21
-26.532422
 31
0.0
  0
LINE
  5
160
100
AcDbEntity
  8
2
370
    50
100
AcDbLine
 10
279.303206
 20
15.467578
 30
0.0
 11
279.803206
 21
15.967578
 31
0.0
  0
LINE
  5
161
100
AcDbEntity
  8
2
370
    50
100
AcDbLine
 10
294.803965
 20
15.966819
 30
0.0
 11
295.303965
 21
15.466819
 31
0.0
  0
LINE
  5
162
100
AcDbEntity
  8
2
370
    50
100
AcDbLine
 10
297.803206
 20
-24.532422
 30
0.0
 11
295.303206
 21
-24.532422
 31
0.0
  0
LINE
  5
163
100
AcDbEntity
  8
2
370
    50
100
AcDbLine
 10
297.803206
 20
-1.532422
 30
0.0
 11
295.303206
 21
-1.532422
 31
0.0
  0
LINE
  5
164
100
AcDbEntity
  8
2
370
    50
100
AcDbLine
 10
298.303206
 20
-24.032422
 30
0.0
 11
297.803206
 21
-24.532422
 31
0.0
  0
LINE
  5
165
100
AcDbEntity
  8
2
370
    50
100
AcDbLine
 10
298.303206
 20
-2.032422
 30
0.0
 11
297.803206
 21
-1.532422
 31
0.0
  0
LINE
  5
166
100
AcDbEntity
  8
2
370
    50
100
AcDbLine
 10
299.324222
 20
-0.032422
 30
0.0
 11
305.303206
 21
-0.032422
 31
0.0
  0
LINE
  5
167
100
AcDbEntity
  8
2
370
    25
100
AcDbLine
 10
298.303206
 20
-1.053406
 30
0.0
 11
306.303206
 21
-1.053406
 31
0.0
  0
LINE
  5
168
100
AcDbEntity
  8
2
370
    25
100
AcDbLine
 10
298.303206
 20
-25.011406
 30
0.0
 11
306.303206
 21
-25.011406
 31
0.0
  0
LINE
  5
169
100
AcDbEntity
  8
2
370
    50
100
AcDbLine
 10
305.303206
 20
-26.032422
 30
0.0
 11
299.324222
 21
-26.032422
 31
0.0
  0
LINE
  5
16A
100
AcDbEntity
  8
2
370
    50
100
AcDbLine
 10
305.303206
 20
-0.032422
 30
0.0
 11
306.303206
 21
-1.032422
 31
0.0
  0
LINE
  5
16B
100
AcDbEntity
  8
2
370
    50
100
AcDbLine
 10
305.303206
 20
-26.032422
 30
0.0
 11
306.303206
 21
-25.032422
 31
0.0
  0
LINE
  5
16C
100
AcDbEntity
  8
2
370
    50
100
AcDbLine
 10
298.303206
 20
-25.011406
 30
0.0
 11
299.324222
 21
-26.032422
 31
0.0
  0
LINE
  5
16D
100
AcDbEntity
  8
2
370
    50
100
AcDbLine
 10
298.303206
 20
-1.053439
 30
0.0
 11
299.324222
 21
-0.032422
 31
0.0
  0
LINE
  5
16E
100
AcDbEntity
  8
2
370
    50
100
AcDbLine
 10
298.303206
 20
-1.053406
 30
0.0
 11
298.303206
 21
-25.011406
 31
0.0
  0
LINE
  5
16F
100
AcDbEntity
  8
2
370
    50
100
AcDbLine
 10
305.303206
 20
-0.032422
 30
0.0
 11
305.303206
 21
-26.032422
 31
0.0
  0
LINE
  5
170
100
AcDbEntity
  8
2
370
    50
100
AcDbLine
 10
299.324222
 20
-26.032422
 30
0.0
 11
299.324222
 21
-0.032422
 31
0.0
  0
LINE
  5
171
100
AcDbEntity
  8
2
370
    50
100
AcDbLine
 10
297.803206
 20
-1.532422
 30
0.0
 11
297.803206
 21
-24.532422
 31
0.0
  0
LINE
  5
172
100
AcDbEntity
  8
2
370
    50
100
AcDbLine
 10
271.303206
 20
13.946594
 30
0.0
 11
271.303206
 21
-10.011406
 31
0.0
  0
LINE
  5
173
100
AcDbEntity
  8
2
370
    50
100
AcDbLine
 10
306.303206
 20
-1.032163
 30
0.0
 11
306.303206
 21
-25.032163
 31
0.0
  0
POINT
  5
174
100
AcDbEntity
  8
2
370
    50
100
AcDbPoint
 10
295.303206
 20
-13.032422
 30
0.0
  0
POINT
  5
175
100
AcDbEntity
  8
2
370
    50
100
AcDbPoint
 10
-110.257721
 20
174.091081
 30
0.0
  0
LINE
  5
176
100
AcDbEntity
  8
2
370
    50
100
AcDbLine
 10
-126.758481
 20
189.291081
 30
0.0
 11
-126.758481
 21
175.091081
 31
0.0
  0
LINE
  5
177
100
AcDbEntity
  8
2
370
    50
100
AcDbLine
 10
-93.758481
 20
189.291081
 30
0.0
 11
-93.758481
 21
175.091081
 31
0.0
  0
LINE
  5
178
100
AcDbEntity
  8
2
370
    50
100
AcDbLine
 10
-95.508481
 20
190.291081
 30
0.0
 11
-123.046643
 21
190.291081
 31
0.0
  0
LINE
  5
179
100
AcDbEntity
  8
2
370
    50
100
AcDbLine
 10
-126.408481
 20
174.891081
 30
0.0
 11
-126.758481
 21
175.091081
 31
0.0
  0
LINE
  5
17A
100
AcDbEntity
  8
2
370
    50
100
AcDbLine
 10
-95.508481
 20
174.091081
 30
0.0
 11
-93.758481
 21
175.091081
 31
0.0
  0
LINE
  5
17B
100
AcDbEntity
  8
2
370
    50
100
AcDbLine
 10
-93.758481
 20
189.291081
 30
0.0
 11
-95.508481
 21
190.291081
 31
0.0
  0
LINE
  5
17C
100
AcDbEntity
  8
2
370
    50
100
AcDbLine
 10
-117.65358
 20
175.091081
 30
0.0
 11
-117.65358
 21
189.291081
 31
0.0
  0
LINE
  5
17D
100
AcDbEntity
  8
2
370
    50
100
AcDbLine
 10
-119.334805
 20
175.091081
 30
0.0
 11
-119.334805
 21
189.291081
 31
0.0
  0
LINE
  5
17E
100
AcDbEntity
  8
2
370
    50
100
AcDbLine
 10
-102.863381
 20
175.091081
 30
0.0
 11
-102.863381
 21
189.291081
 31
0.0
  0
LINE
  5
17F
100
AcDbEntity
  8
2
370
    50
100
AcDbLine
 10
-101.182156
 20
175.091081
 30
0.0
 11
-101.182156
 21
189.291081
 31
0.0
  0
ARC
  5
180
100
AcDbEntity
  8
2
370
    50
100
AcDbCircle
 10
-110.258481
 20
162.447331
 30
0.0
 40
27.84375
100
AcDbArc
 50
74.59782
 51
105.40218
  0
LINE
  5
181
100
AcDbEntity
  8
2
370
    50
100
AcDbLine
 10
-101.182156
 20
189.291081
 30
0.0
 11
-102.863381
 21
189.291081
 31
0.0
  0
LINE
  5
182
100
AcDbEntity
  8
2
370
    50
100
AcDbLine
 10
-117.65358
 20
189.291081
 30
0.0
 11
-119.334805
 21
189.291081
 31
0.0
  0
ARC
  5
183
100
AcDbEntity
  8
2
370
    50
100
AcDbCircle
 10
-97.470318
 20
182.902212
 30
0.0
 40
7.388869
100
AcDbArc
 50
59.844052
 51
120.155948
  0
ARC
  5
184
100
AcDbEntity
  8
2
370
    50
100
AcDbCircle
 10
-123.046643
 20
182.902212
 30
0.0
 40
7.388869
100
AcDbArc
 50
59.844052
 51
120.155948
  0
ARC
  5
185
100
AcDbEntity
  8
2
370
    50
100
AcDbCircle
 10
-123.046643
 20
181.479951
 30
0.0
 40
7.388869
100
AcDbArc
 50
296.908673
 51
300.155948
  0
LINE
  5
186
100
AcDbEntity
  8
2
370
    50
100
AcDbLine
 10
-101.182156
 20
175.091081
 30
0.0
 11
-102.863381
 21
175.091081
 31
0.0
  0
LINE
  5
187
100
AcDbEntity
  8
2
370
    50
100
AcDbLine
 10
-117.65358
 20
175.091081
 30
0.0
 11
-119.334805
 21
175.091081
 31
0.0
  0
ARC
  5
188
100
AcDbEntity
  8
2
370
    50
100
AcDbCircle
 10
-110.258481
 20
201.934831
 30
0.0
 40
27.84375
100
AcDbArc
 50
254.59782
 51
256.232214
  0
ARC
  5
189
100
AcDbEntity
  8
2
370
    50
100
AcDbCircle
 10
-110.258481
 20
201.934831
 30
0.0
 40
27.84375
100
AcDbArc
 50
283.767786
 51
285.40218
  0
ARC
  5
18A
100
AcDbEntity
  8
2
370
    50
100
AcDbCircle
 10
-97.470318
 20
181.479951
 30
0.0
 40
7.388869
100
AcDbArc
 50
239.844052
 51
247.786468
  0
ARC
  5
18B
100
AcDbEntity
  8
2
370
    50
100
AcDbCircle
 10
-97.470318
 20
181.479951
 30
0.0
 40
7.388869
100
AcDbArc
 50
276.52386
 51
300.155948
  0
ARC
  5
18C
100
AcDbEntity
  8
2
370
    50
100
AcDbCircle
 10
-123.046643
 20
181.479951
 30
0.0
 40
7.388869
100
AcDbArc
 50
239.844052
 51
300.155948
  0
ARC
  5
18D
100
AcDbEntity
  8
2
370
    50
100
AcDbCircle
 10
-110.258481
 20
201.934831
 30
0.0
 40
27.84375
100
AcDbArc
 50
254.59782
 51
285.40218
  0
ARC
  5
18E
100
AcDbEntity
  8
2
370
    50
100
AcDbCircle
 10
-97.470318
 20
181.479951
 30
0.0
 40
7.388869
100
AcDbArc
 50
239.844052
 51
300.155948
  0
LINE
  5
18F
100
AcDbEntity
  8
2
370
    50
100
AcDbLine
 10
-93.758481
 20
175.091081
 30
0.0
 11
-95.508481
 21
174.091081
 31
0.0
  0
LINE
  5
190
100
AcDbEntity
  8
2
370
    50
100
AcDbLine
 10
-95.508481
 20
174.091081
 30
0.0
 11
-125.006962
 21
174.091081
 31
0.0
  0
LINE
  5
191
100
AcDbEntity
  8
2
370
    50
100
AcDbLine
 10
-126.758481
 20
189.291081
 30
0.0
 11
-126.758481
 21
175.091081
 31
0.0
  0
LINE
  5
192
100
AcDbEntity
  8
2
370
    50
100
AcDbLine
 10
-93.758481
 20
189.291081
 30
0.0
 11
-93.758481
 21
175.091081
 31
0.0
  0
LINE
  5
193
100
AcDbEntity
  8
2
370
    50
100
AcDbLine
 10
-95.508481
 20
190.291081
 30
0.0
 11
-125.006962
 21
190.291081
 31
0.0
  0
LINE
  5
194
100
AcDbEntity
  8
2
370
    50
100
AcDbLine
 10
-126.408481
 20
174.891081
 30
0.0
 11
-126.758481
 21
175.091081
 31
0.0
  0
LINE
  5
195
100
AcDbEntity
  8
2
370
    50
100
AcDbLine
 10
-95.508481
 20
174.091081
 30
0.0
 11
-93.758481
 21
175.091081
 31
0.0
  0
LINE
  5
196
100
AcDbEntity
  8
2
370
    50
100
AcDbLine
 10
-93.758481
 20
189.291081
 30
0.0
 11
-95.508481
 21
190.291081
 31
0.0
  0
LINE
  5
197
100
AcDbEntity
  8
2
370
    50
100
AcDbLine
 10
-117.65358
 20
175.091081
 30
0.0
 11
-117.65358
 21
189.291081
 31
0.0
  0
LINE
  5
198
100
AcDbEntity
  8
2
370
    50
100
AcDbLine
 10
-119.334805
 20
175.091081
 30
0.0
 11
-119.334805
 21
189.291081
 31
0.0
  0
LINE
  5
199
100
AcDbEntity
  8
2
370
    50
100
AcDbLine
 10
-102.863381
 20
175.091081
 30
0.0
 11
-102.863381
 21
189.291081
 31
0.0
  0
LINE
  5
19A
100
AcDbEntity
  8
2
370
    50
100
AcDbLine
 10
-101.182156
 20
175.091081
 30
0.0
 11
-101.182156
 21
189.291081
 31
0.0
  0
ARC
  5
19B
100
AcDbEntity
  8
2
370
    50
100
AcDbCircle
 10
-110.258481
 20
162.447331
 30
0.0
 40
27.84375
100
AcDbArc
 50
74.59782
 51
105.40218
  0
LINE
  5
19C
100
AcDbEntity
  8
2
370
    50
100
AcDbLine
 10
-101.182156
 20
189.291081
 30
0.0
 11
-102.863381
 21
189.291081
 31
0.0
  0
LINE
  5
19D
100
AcDbEntity
  8
2
370
    50
100
AcDbLine
 10
-117.65358
 20
189.291081
 30
0.0
 11
-119.334805
 21
189.291081
 31
0.0
  0
ARC
  5
19E
100
AcDbEntity
  8
2
370
    50
100
AcDbCircle
 10
-97.470318
 20
182.902212
 30
0.0
 40
7.388869
100
AcDbArc
 50
59.844052
 51
120.155948
  0
ARC
  5
19F
100
AcDbEntity
  8
2
370
    50
100
AcDbCircle
 10
-123.046643
 20
182.902212
 30
0.0
 40
7.388869
100
AcDbArc
 50
59.844052
 51
120.155948
  0
ARC
  5
1A0
100
AcDbEntity
  8
2
370
    50
100
AcDbCircle
 10
-123.046643
 20
181.479951
 30
0.0
 40
7.388869
100
AcDbArc
 50
296.908673
 51
300.155948
  0
LINE
  5
1A1
100
AcDbEntity
  8
2
370
    50
100
AcDbLine
 10
-101.182156
 20
175.091081
 30
0.0
 11
-102.863381
 21
175.091081
 31
0.0
  0
LINE
  5
1A2
100
AcDbEntity
  8
2
370
    50
100
AcDbLine
 10
-117.65358
 20
175.091081
 30
0.0
 11
-119.334805
 21
175.091081
 31
0.0
  0
ARC
  5
1A3
100
AcDbEntity
  8
2
370
    50
100
AcDbCircle
 10
-110.258481
 20
201.934831
 30
0.0
 40
27.84375
100
AcDbArc
 50
254.59782
 51
256.232214
  0
ARC
  5
1A4
100
AcDbEntity
  8
2
370
    50
100
AcDbCircle
 10
-110.258481
 20
201.934831
 30
0.0
 40
27.84375
100
AcDbArc
 50
283.767786
 51
285.40218
  0
ARC
  5
1A5
100
AcDbEntity
  8
2
370
    50
100
AcDbCircle
 10
-97.470318
 20
181.479951
 30
0.0
 40
7.388869
100
AcDbArc
 50
239.844052
 51
247.786468
  0
ARC
  5
1A6
100
AcDbEntity
  8
2
370
    50
100
AcDbCircle
 10
-97.470318
 20
181.479951
 30
0.0
 40
7.388869
100
AcDbArc
 50
276.52386
 51
300.155948
  0
ARC
  5
1A7
100
AcDbEntity
  8
2
370
    50
100
AcDbCircle
 10
-123.046643
 20
181.479951
 30
0.0
 40
7.388869
100
AcDbArc
 50
239.844052
 51
300.155948
  0
ARC
  5
1A8
100
AcDbEntity
  8
2
370
    50
100
AcDbCircle
 10
-110.258481
 20
201.934831
 30
0.0
 40
27.84375
100
AcDbArc
 50
254.59782
 51
285.40218
  0
ARC
  5
1A9
100
AcDbEntity
  8
2
370
    50
100
AcDbCircle
 10
-97.470318
 20
181.479951
 30
0.0
 40
7.388869
100
AcDbArc
 50
239.844052
 51
300.155948
  0
LINE
  5
1AA
100
AcDbEntity
  8
2
370
    50
100
AcDbLine
 10
-93.758481
 20
175.091081
 30
0.0
 11
-95.508481
 21
174.091081
 31
0.0
  0
LINE
  5
1AB
100
AcDbEntity
  8
2
370
    50
100
AcDbLine
 10
-126.756962
 20
189.291081
 30
0.0
 11
-125.006962
 21
190.291081
 31
0.0
  0
LINE
  5
1AC
100
AcDbEntity
  8
2
370
    50
100
AcDbLine
 10
-126.756962
 20
175.091081
 30
0.0
 11
-125.006962
 21
174.091081
 31
0.0
  0
POINT
  5
1AD
100
AcDbEntity
  8
2
370
    50
100
AcDbPoint
 10
-110.25924
 20
190.791421
 30
0.0
  0
LINE
  5
1AE
100
AcDbEntity
  8
2
370
    50
100
AcDbLine
 10
-193.757667
 20
189.291081
 30
0.0
 11
-193.757667
 21
175.091081
 31
0.0
  0
LINE
  5
1AF
100
AcDbEntity
  8
2
370
    50
100
AcDbLine
 10
-226.757667
 20
189.291081
 30
0.0
 11
-226.757667
 21
175.091081
 31
0.0
  0
LINE
  5
1B0
100
AcDbEntity
  8
2
370
    50
100
AcDbLine
 10
-225.007667
 20
190.291081
 30
0.0
 11
-197.469504
 21
190.291081
 31
0.0
  0
LINE
  5
1B1
100
AcDbEntity
  8
2
370
    50
100
AcDbLine
 10
-225.007667
 20
174.091081
 30
0.0
 11
-226.757667
 21
175.091081
 31
0.0
  0
LINE
  5
1B2
100
AcDbEntity
  8
2
370
    50
100
AcDbLine
 10
-226.757667
 20
189.291081
 30
0.0
 11
-225.007667
 21
190.291081
 31
0.0
  0
LINE
  5
1B3
100
AcDbEntity
  8
2
370
    50
100
AcDbLine
 10
-202.862567
 20
175.091081
 30
0.0
 11
-202.862567
 21
189.291081
 31
0.0
  0
LINE
  5
1B4
100
AcDbEntity
  8
2
370
    50
100
AcDbLine
 10
-201.181342
 20
175.091081
 30
0.0
 11
-201.181342
 21
189.291081
 31
0.0
  0
LINE
  5
1B5
100
AcDbEntity
  8
2
370
    50
100
AcDbLine
 10
-217.652766
 20
175.091081
 30
0.0
 11
-217.652766
 21
189.291081
 31
0.0
  0
LINE
  5
1B6
100
AcDbEntity
  8
2
370
    50
100
AcDbLine
 10
-219.333992
 20
175.091081
 30
0.0
 11
-219.333992
 21
189.291081
 31
0.0
  0
ARC
  5
1B7
100
AcDbEntity
  8
2
370
    50
100
AcDbCircle
 10
-210.257667
 20
162.447331
 30
0.0
 40
27.84375
100
AcDbArc
 50
74.59782
 51
105.40218
  0
LINE
  5
1B8
100
AcDbEntity
  8
2
370
    50
100
AcDbLine
 10
-219.333992
 20
189.291081
 30
0.0
 11
-217.652766
 21
189.291081
 31
0.0
  0
LINE
  5
1B9
100
AcDbEntity
  8
2
370
    50
100
AcDbLine
 10
-202.862567
 20
189.291081
 30
0.0
 11
-201.181342
 21
189.291081
 31
0.0
  0
ARC
  5
1BA
100
AcDbEntity
  8
2
370
    50
100
AcDbCircle
 10
-223.045829
 20
182.902212
 30
0.0
 40
7.388869
100
AcDbArc
 50
59.844052
 51
120.155948
  0
ARC
  5
1BB
100
AcDbEntity
  8
2
370
    50
100
AcDbCircle
 10
-197.469504
 20
182.902212
 30
0.0
 40
7.388869
100
AcDbArc
 50
59.844052
 51
120.155948
  0
ARC
  5
1BC
100
AcDbEntity
  8
2
370
    50
100
AcDbCircle
 10
-197.469504
 20
181.479951
 30
0.0
 40
7.388869
100
AcDbArc
 50
239.844052
 51
243.091327
  0
LINE
  5
1BD
100
AcDbEntity
  8
2
370
    50
100
AcDbLine
 10
-219.333992
 20
175.091081
 30
0.0
 11
-217.652766
 21
175.091081
 31
0.0
  0
LINE
  5
1BE
100
AcDbEntity
  8
2
370
    50
100
AcDbLine
 10
-202.862567
 20
175.091081
 30
0.0
 11
-201.181342
 21
175.091081
 31
0.0
  0
ARC
  5
1BF
100
AcDbEntity
  8
2
370
    50
100
AcDbCircle
 10
-210.257667
 20
201.934831
 30
0.0
 40
27.84375
100
AcDbArc
 50
254.59782
 51
256.232214
  0
ARC
  5
1C0
100
AcDbEntity
  8
2
370
    50
100
AcDbCircle
 10
-223.045829
 20
181.479951
 30
0.0
 40
7.388869
100
AcDbArc
 50
292.213532
 51
300.155948
  0
ARC
  5
1C1
100
AcDbEntity
  8
2
370
    50
100
AcDbCircle
 10
-223.045829
 20
181.479951
 30
0.0
 40
7.388869
100
AcDbArc
 50
239.844052
 51
263.47614
  0
ARC
  5
1C2
100
AcDbEntity
  8
2
370
    50
100
AcDbCircle
 10
-197.469504
 20
181.479951
 30
0.0
 40
7.388869
100
AcDbArc
 50
239.844052
 51
300.155948
  0
ARC
  5
1C3
100
AcDbEntity
  8
2
370
    50
100
AcDbCircle
 10
-210.257667
 20
201.934831
 30
0.0
 40
27.84375
100
AcDbArc
 50
254.59782
 51
285.40218
  0
ARC
  5
1C4
100
AcDbEntity
  8
2
370
    50
100
AcDbCircle
 10
-223.045829
 20
181.479951
 30
0.0
 40
7.388869
100
AcDbArc
 50
239.844052
 51
300.155948
  0
LINE
  5
1C5
100
AcDbEntity
  8
2
370
    50
100
AcDbLine
 10
-226.757667
 20
175.091081
 30
0.0
 11
-225.007667
 21
174.091081
 31
0.0
  0
LINE
  5
1C6
100
AcDbEntity
  8
2
370
    50
100
AcDbLine
 10
-225.007667
 20
174.091081
 30
0.0
 11
-195.509185
 21
174.091081
 31
0.0
  0
LINE
  5
1C7
100
AcDbEntity
  8
2
370
    50
100
AcDbLine
 10
-193.757667
 20
189.291081
 30
0.0
 11
-193.757667
 21
175.091081
 31
0.0
  0
LINE
  5
1C8
100
AcDbEntity
  8
2
370
    50
100
AcDbLine
 10
-226.757667
 20
189.291081
 30
0.0
 11
-226.757667
 21
175.091081
 31
0.0
  0
LINE
  5
1C9
100
AcDbEntity
  8
2
370
    50
100
AcDbLine
 10
-225.007667
 20
190.291081
 30
0.0
 11
-195.509185
 21
190.291081
 31
0.0
  0
LINE
  5
1CA
100
AcDbEntity
  8
2
370
    50
100
AcDbLine
 10
-225.007667
 20
174.091081
 30
0.0
 11
-226.757667
 21
175.091081
 31
0.0
  0
LINE
  5
1CB
100
AcDbEntity
  8
2
370
    50
100
AcDbLine
 10
-226.757667
 20
189.291081
 30
0.0
 11
-225.007667
 21
190.291081
 31
0.0
  0
LINE
  5
1CC
100
AcDbEntity
  8
2
370
    50
100
AcDbLine
 10
-202.862567
 20
175.091081
 30
0.0
 11
-202.862567
 21
189.291081
 31
0.0
  0
LINE
  5
1CD
100
AcDbEntity
  8
2
370
    50
100
AcDbLine
 10
-201.181342
 20
175.091081
 30
0.0
 11
-201.181342
 21
189.291081
 31
0.0
  0
LINE
  5
1CE
100
AcDbEntity
  8
2
370
    50
100
AcDbLine
 10
-217.652766
 20
175.091081
 30
0.0
 11
-217.652766
 21
189.291081
 31
0.0
  0
LINE
  5
1CF
100
AcDbEntity
  8
2
370
    50
100
AcDbLine
 10
-219.333992
 20
175.091081
 30
0.0
 11
-219.333992
 21
189.291081
 31
0.0
  0
ARC
  5
1D0
100
AcDbEntity
  8
2
370
    50
100
AcDbCircle
 10
-210.257667
 20
162.447331
 30
0.0
 40
27.84375
100
AcDbArc
 50
74.59782
 51
105.40218
  0
LINE
  5
1D1
100
AcDbEntity
  8
2
370
    50
100
AcDbLine
 10
-219.333992
 20
189.291081
 30
0.0
 11
-217.652766
 21
189.291081
 31
0.0
  0
LINE
  5
1D2
100
AcDbEntity
  8
2
370
    50
100
AcDbLine
 10
-202.862567
 20
189.291081
 30
0.0
 11
-201.181342
 21
189.291081
 31
0.0
  0
ARC
  5
1D3
100
AcDbEntity
  8
2
370
    50
100
AcDbCircle
 10
-223.045829
 20
182.902212
 30
0.0
 40
7.388869
100
AcDbArc
 50
59.844052
 51
120.155948
  0
ARC
  5
1D4
100
AcDbEntity
  8
2
370
    50
100
AcDbCircle
 10
-197.469504
 20
182.902212
 30
0.0
 40
7.388869
100
AcDbArc
 50
59.844052
 51
120.155948
  0
ARC
  5
1D5
100
AcDbEntity
  8
2
370
    50
100
AcDbCircle
 10
-197.469504
 20
181.479951
 30
0.0
 40
7.388869
100
AcDbArc
 50
239.844052
 51
243.091327
  0
LINE
  5
1D6
100
AcDbEntity
  8
2
370
    50
100
AcDbLine
 10
-219.333992
 20
175.091081
 30
0.0
 11
-217.652766
 21
175.091081
 31
0.0
  0
LINE
  5
1D7
100
AcDbEntity
  8
2
370
    50
100
AcDbLine
 10
-202.862567
 20
175.091081
 30
0.0
 11
-201.181342
 21
175.091081
 31
0.0
  0
ARC
  5
1D8
100
AcDbEntity
  8
2
370
    50
100
AcDbCircle
 10
-210.257667
 20
201.934831
 30
0.0
 40
27.84375
100
AcDbArc
 50
254.59782
 51
256.232214
  0
ARC
  5
1D9
100
AcDbEntity
  8
2
370
    50
100
AcDbCircle
 10
-223.045829
 20
181.479951
 30
0.0
 40
7.388869
100
AcDbArc
 50
292.213532
 51
300.155948
  0
ARC
  5
1DA
100
AcDbEntity
  8
2
370
    50
100
AcDbCircle
 10
-223.045829
 20
181.479951
 30
0.0
 40
7.388869
100
AcDbArc
 50
239.844052
 51
263.47614
  0
ARC
  5
1DB
100
AcDbEntity
  8
2
370
    50
100
AcDbCircle
 10
-210.257667
 20
201.934831
 30
0.0
 40
27.84375
100
AcDbArc
 50
254.59782
 51
285.40218
  0
ARC
  5
1DC
100
AcDbEntity
  8
2
370
    50
100
AcDbCircle
 10
-223.045829
 20
181.479951
 30
0.0
 40
7.388869
100
AcDbArc
 50
239.844052
 51
300.155948
  0
LINE
  5
1DD
100
AcDbEntity
  8
2
370
    50
100
AcDbLine
 10
-226.757667
 20
175.091081
 30
0.0
 11
-225.007667
 21
174.091081
 31
0.0
  0
LINE
  5
1DE
100
AcDbEntity
  8
2
370
    50
100
AcDbLine
 10
-193.759185
 20
189.291081
 30
0.0
 11
-195.509185
 21
190.291081
 31
0.0
  0
LINE
  5
1DF
100
AcDbEntity
  8
2
370
    50
100
AcDbLine
 10
-193.759185
 20
175.091081
 30
0.0
 11
-195.509185
 21
174.091081
 31
0.0
  0
LINE
  5
1E0
100
AcDbEntity
  8
2
370
    25
100
AcDbLine
 10
-98.279509
 20
191.791333
 30
0.0
 11
-98.279509
 21
190.291081
 31
0.0
  0
LINE
  5
1E1
100
AcDbEntity
  8
2
370
    25
100
AcDbLine
 10
-122.237509
 20
191.791333
 30
0.0
 11
-122.237509
 21
190.291081
 31
0.0
  0
LINE
  5
1E2
100
AcDbEntity
  8
2
370
    50
100
AcDbLine
 10
-98.279509
 20
191.791333
 30
0.0
 11
-97.258493
 21
193.559785
 31
0.0
  0
LINE
  5
1E3
100
AcDbEntity
  8
2
370
    50
100
AcDbLine
 10
-122.237509
 20
191.791333
 30
0.0
 11
-123.258493
 21
193.559729
 31
0.0
  0
LINE
  5
1E4
100
AcDbEntity
  8
2
370
    50
100
AcDbLine
 10
-97.258493
 20
199.791333
 30
0.0
 11
-97.258493
 21
190.291081
 31
0.0
  0
LINE
  5
1E5
100
AcDbEntity
  8
2
370
    50
100
AcDbLine
 10
-81.758493
 20
199.791333
 30
0.0
 11
-123.758493
 21
199.791333
 31
0.0
  0
LINE
  5
1E6
100
AcDbEntity
  8
2
370
    50
100
AcDbLine
 10
-81.758493
 20
215.791333
 30
0.0
 11
-123.758493
 21
215.791333
 31
0.0
  0
LINE
  5
1E7
100
AcDbEntity
  8
2
370
    50
100
AcDbLine
 10
-81.258493
 20
215.291333
 30
0.0
 11
-81.258493
 21
200.291333
 31
0.0
  0
LINE
  5
1E8
100
AcDbEntity
  8
2
370
    50
100
AcDbLine
 10
-124.258493
 20
200.291333
 30
0.0
 11
-124.258493
 21
215.291333
 31
0.0
  0
LINE
  5
1E9
100
AcDbEntity
  8
2
370
    50
100
AcDbLine
 10
-123.258493
 20
190.291081
 30
0.0
 11
-123.258493
 21
199.791333
 31
0.0
  0
LINE
  5
1EA
100
AcDbEntity
  8
2
370
    50
100
AcDbLine
 10
-81.758493
 20
215.791333
 30
0.0
 11
-81.258493
 21
215.291333
 31
0.0
  0
LINE
  5
1EB
100
AcDbEntity
  8
2
370
    50
100
AcDbLine
 10
-81.258493
 20
200.291333
 30
0.0
 11
-81.758493
 21
199.791333
 31
0.0
  0
LINE
  5
1EC
100
AcDbEntity
  8
2
370
    50
100
AcDbLine
 10
-123.758493
 20
199.791333
 30
0.0
 11
-124.258493
 21
200.291333
 31
0.0
  0
LINE
  5
1ED
100
AcDbEntity
  8
2
370
    50
100
AcDbLine
 10
-124.257734
 20
215.292092
 30
0.0
 11
-123.757734
 21
215.792092
 31
0.0
  0
LINE
  5
1EE
100
AcDbEntity
  8
2
370
    50
100
AcDbLine
 10
-83.758493
 20
218.291333
 30
0.0
 11
-83.758493
 21
215.791333
 31
0.0
  0
LINE
  5
1EF
100
AcDbEntity
  8
2
370
    50
100
AcDbLine
 10
-106.758493
 20
218.291333
 30
0.0
 11
-106.758493
 21
215.791333
 31
0.0
  0
LINE
  5
1F0
100
AcDbEntity
  8
2
370
    50
100
AcDbLine
 10
-84.258493
 20
218.791333
 30
0.0
 11
-83.758493
 21
218.291333
 31
0.0
  0
LINE
  5
1F1
100
AcDbEntity
  8
2
370
    50
100
AcDbLine
 10
-106.258493
 20
218.791333
 30
0.0
 11
-106.758493
 21
218.291333
 31
0.0
  0
LINE
  5
1F2
100
AcDbEntity
  8
2
370
    50
100
AcDbLine
 10
-108.258493
 20
219.81235
 30
0.0
 11
-108.258493
 21
225.791333
 31
0.0
  0
LINE
  5
1F3
100
AcDbEntity
  8
2
370
    25
100
AcDbLine
 10
-107.237509
 20
218.791333
 30
0.0
 11
-107.237509
 21
226.791333
 31
0.0
  0
LINE
  5
1F4
100
AcDbEntity
  8
2
370
    50
100
AcDbLine
 10
-83.258493
 20
226.791333
 30
0.0
 11
-107.258493
 21
226.791333
 31
0.0
  0
LINE
  5
1F5
100
AcDbEntity
  8
2
370
    25
100
AcDbLine
 10
-83.279509
 20
218.791333
 30
0.0
 11
-83.279509
 21
226.791333
 31
0.0
  0
LINE
  5
1F6
100
AcDbEntity
  8
2
370
    50
100
AcDbLine
 10
-82.258493
 20
225.791333
 30
0.0
 11
-82.258493
 21
219.81235
 31
0.0
  0
LINE
  5
1F7
100
AcDbEntity
  8
2
370
    50
100
AcDbLine
 10
-108.258493
 20
225.791333
 30
0.0
 11
-107.258493
 21
226.791333
 31
0.0
  0
LINE
  5
1F8
100
AcDbEntity
  8
2
370
    50
100
AcDbLine
 10
-82.258493
 20
225.791333
 30
0.0
 11
-83.258493
 21
226.791333
 31
0.0
  0
LINE
  5
1F9
100
AcDbEntity
  8
2
370
    50
100
AcDbLine
 10
-83.279509
 20
218.791333
 30
0.0
 11
-82.258493
 21
219.81235
 31
0.0
  0
LINE
  5
1FA
100
AcDbEntity
  8
2
370
    50
100
AcDbLine
 10
-107.237476
 20
218.791333
 30
0.0
 11
-108.258493
 21
219.81235
 31
0.0
  0
LINE
  5
1FB
100
AcDbEntity
  8
2
370
    50
100
AcDbLine
 10
-107.237509
 20
218.791333
 30
0.0
 11
-83.279509
 21
218.791333
 31
0.0
  0
LINE
  5
1FC
100
AcDbEntity
  8
2
370
    50
100
AcDbLine
 10
-108.258493
 20
225.791333
 30
0.0
 11
-82.258493
 21
225.791333
 31
0.0
  0
LINE
  5
1FD
100
AcDbEntity
  8
2
370
    50
100
AcDbLine
 10
-82.258493
 20
219.81235
 30
0.0
 11
-108.258493
 21
219.81235
 31
0.0
  0
LINE
  5
1FE
100
AcDbEntity
  8
2
370
    50
100
AcDbLine
 10
-106.758493
 20
218.291333
 30
0.0
 11
-83.758493
 21
218.291333
 31
0.0
  0
LINE
  5
1FF
100
AcDbEntity
  8
2
370
    50
100
AcDbLine
 10
-21.716849
 20
212.291333
 30
0.0
 11
-38.716849
 21
212.291333
 31
0.0
  0
LINE
  5
200
100
AcDbEntity
  8
2
370
    50
100
AcDbLine
 10
-21.716849
 20
212.291333
 30
0.0
 11
-21.216849
 21
212.791333
 31
0.0
  0
LINE
  5
201
100
AcDbEntity
  8
2
370
    50
100
AcDbLine
 10
-21.216849
 20
212.791333
 30
0.0
 11
-21.216849
 21
215.791333
 31
0.0
  0
LINE
  5
202
100
AcDbEntity
  8
2
370
    50
100
AcDbLine
 10
-39.216849
 20
212.791333
 30
0.0
 11
-39.216849
 21
215.791333
 31
0.0
  0
LINE
  5
203
100
AcDbEntity
  8
2
370
    50
100
AcDbLine
 10
-38.716849
 20
212.291333
 30
0.0
 11
-39.216849
 21
212.791333
 31
0.0
  0
LINE
  5
204
100
AcDbEntity
  8
2
370
    50
100
AcDbLine
 10
-43.516849
 20
218.791333
 30
0.0
 11
-16.916849
 21
218.791333
 31
0.0
  0
LINE
  5
205
100
AcDbEntity
  8
2
370
    25
100
AcDbLine
 10
-21.716849
 20
212.291333
 30
0.0
 11
-21.716849
 21
216.291333
 31
0.0
  0
LINE
  5
206
100
AcDbEntity
  8
2
370
    25
100
AcDbLine
 10
-38.716849
 20
212.291333
 30
0.0
 11
-38.716849
 21
216.291333
 31
0.0
  0
LINE
  5
207
100
AcDbEntity
  8
2
370
    50
100
AcDbLine
 10
-21.716849
 20
216.291333
 30
0.0
 11
-21.216849
 21
215.791333
 31
0.0
  0
LINE
  5
208
100
AcDbEntity
  8
2
370
    50
100
AcDbLine
 10
-38.716849
 20
216.291333
 30
0.0
 11
-39.216849
 21
215.791333
 31
0.0
  0
LINE
  5
209
100
AcDbEntity
  8
2
370
    50
100
AcDbLine
 10
-38.716849
 20
216.291333
 30
0.0
 11
-30.216849
 21
216.291333
 31
0.0
  0
LINE
  5
20A
100
AcDbEntity
  8
2
370
    50
100
AcDbLine
 10
-30.216849
 20
216.291333
 30
0.0
 11
-21.716849
 21
216.291333
 31
0.0
  0
LINE
  5
20B
100
AcDbEntity
  8
2
370
    50
100
AcDbLine
 10
-21.216849
 20
215.791333
 30
0.0
 11
-39.216849
 21
215.791333
 31
0.0
  0
LINE
  5
20C
100
AcDbEntity
  8
2
370
    50
100
AcDbLine
 10
-21.216849
 20
212.791333
 30
0.0
 11
-39.216849
 21
212.791333
 31
0.0
  0
LINE
  5
20D
100
AcDbEntity
  8
2
370
    50
100
AcDbLine
 10
-16.216849
 20
219.491333
 30
0.0
 11
-16.216849
 21
226.091333
 31
0.0
  0
LINE
  5
20E
100
AcDbEntity
  8
2
370
    25
100
AcDbLine
 10
-16.916849
 20
218.791333
 30
0.0
 11
-16.916849
 21
226.791333
 31
0.0
  0
LINE
  5
20F
100
AcDbEntity
  8
2
370
    50
100
AcDbLine
 10
-16.916849
 20
218.791333
 30
0.0
 11
-16.216849
 21
219.491333
 31
0.0
  0
LINE
  5
210
100
AcDbEntity
  8
2
370
    50
100
AcDbLine
 10
-16.916849
 20
226.791333
 30
0.0
 11
-16.216849
 21
226.091333
 31
0.0
  0
LINE
  5
211
100
AcDbEntity
  8
2
370
    50
100
AcDbLine
 10
-16.216849
 20
226.091333
 30
0.0
 11
-44.216849
 21
226.091333
 31
0.0
  0
LINE
  5
212
100
AcDbEntity
  8
2
370
    50
100
AcDbLine
 10
-16.216849
 20
219.491333
 30
0.0
 11
-44.216849
 21
219.491333
 31
0.0
  0
LINE
  5
213
100
AcDbEntity
  8
2
370
    50
100
AcDbLine
 10
-44.216849
 20
219.491333
 30
0.0
 11
-44.216849
 21
226.091333
 31
0.0
  0
LINE
  5
214
100
AcDbEntity
  8
2
370
    25
100
AcDbLine
 10
-43.516849
 20
218.791333
 30
0.0
 11
-43.516849
 21
226.791333
 31
0.0
  0
LINE
  5
215
100
AcDbEntity
  8
2
370
    50
100
AcDbLine
 10
-43.516849
 20
226.791333
 30
0.0
 11
-44.216849
 21
226.091333
 31
0.0
  0
LINE
  5
216
100
AcDbEntity
  8
2
370
    50
100
AcDbLine
 10
-43.516849
 20
218.791333
 30
0.0
 11
-44.216849
 21
219.491333
 31
0.0
  0
LINE
  5
217
100
AcDbEntity
  8
2
370
    50
100
AcDbLine
 10
-39.216849
 20
218.491333
 30
0.0
 11
-21.216849
 21
218.491333
 31
0.0
  0
LINE
  5
218
100
AcDbEntity
  8
2
370
    50
100
AcDbLine
 10
-39.216849
 20
216.591333
 30
0.0
 11
-21.216849
 21
216.591333
 31
0.0
  0
ARC
  5
219
100
AcDbEntity
  8
2
370
    50
100
AcDbCircle
 10
-21.216849
 20
217.541333
 30
0.0
 40
0.95
100
AcDbArc
 50
270.0
 51
90.0
  0
LINE
  5
21A
100
AcDbEntity
  8
2
370
    50
100
AcDbLine
 10
-22.166849
 20
216.291333
 30
0.0
 11
-22.166849
 21
216.591333
 31
0.0
  0
LINE
  5
21B
100
AcDbEntity
  8
2
370
    50
100
AcDbLine
 10
-22.166849
 20
218.491333
 30
0.0
 11
-22.166849
 21
218.791333
 31
0.0
  0
ARC
  5
21C
100
AcDbEntity
  8
2
370
    50
100
AcDbCircle
 10
-39.216849
 20
217.541333
 30
0.0
 40
0.95
100
AcDbArc
 50
90.0
 51
270.0
  0
LINE
  5
21D
100
AcDbEntity
  8
2
370
    50
100
AcDbLine
 10
-38.266849
 20
216.291333
 30
0.0
 11
-38.266849
 21
216.591333
 31
0.0
  0
LINE
  5
21E
100
AcDbEntity
  8
2
370
    50
100
AcDbLine
 10
-38.266849
 20
218.491333
 30
0.0
 11
-38.266849
 21
218.791333
 31
0.0
  0
HATCH
  5
21F
100
AcDbEntity
  8
2
370
    25
100
AcDbHatch
 10
0.0
 20
0.0
 30
0.0
210
0.0
220
0.0
230
1.0
  2
_U
 70
     0
 71
     1
 91
        1
 92
        1
 93
        4
 72
     1
 10
-21.216849
 20
218.491333
 11
-39.216849000000003
 21
218.491333
 72
     2
 10
-39.216849000000003
 20
217.54133300000001
 40
0.95
 50
90.0
 51
270.0
 73
     1
 72
     1
 10
-39.216849000000003
 20
216.59133299999999
 11
-21.216849
 21
216.59133299999999
 72
     2
 10
-21.216849
 20
217.54133300000001
 40
0.95
 50
270.0
 51
90.0
 73
     1
 97
        4
330
0
330
0
330
0
330
0
 75
     0
 76
     0
 52
45.0
 41
1.0
 77
     0
 78
     1
 53
45.0
 43
0.0
 44
0.0
 45
-0.707107
 46
0.707107
 79
     0
 98
        1
 10
0.0
 20
0.0
  0
LINE
  5
220
100
AcDbEntity
  8
2
370
    50
100
AcDbLine
 10
-73.237671
 20
219.541333
 30
0.0
 11
-68.237671
 21
224.541333
 31
0.0
  0
LINE
  5
221
100
AcDbEntity
  8
2
370
    50
100
AcDbLine
 10
-73.237671
 20
219.541333
 30
0.0
 11
-68.237671
 21
214.541333
 31
0.0
  0
LINE
  5
222
100
AcDbEntity
  8
2
370
    50
100
AcDbLine
 10
-53.237671
 20
219.541333
 30
0.0
 11
-58.237671
 21
224.541333
 31
0.0
  0
LINE
  5
223
100
AcDbEntity
  8
2
370
    50
100
AcDbLine
 10
-53.237671
 20
219.541333
 30
0.0
 11
-58.237671
 21
214.541333
 31
0.0
  0
LINE
  5
224
100
AcDbEntity
  8
2
370
    50
100
AcDbLine
 10
-58.237671
 20
214.541333
 30
0.0
 11
-58.237671
 21
216.541333
 31
0.0
  0
LINE
  5
225
100
AcDbEntity
  8
2
370
    50
100
AcDbLine
 10
-58.237671
 20
222.541333
 30
0.0
 11
-58.237671
 21
224.541333
 31
0.0
  0
LINE
  5
226
100
AcDbEntity
  8
2
370
    50
100
AcDbLine
 10
-68.237671
 20
214.541333
 30
0.0
 11
-68.237671
 21
216.541333
 31
0.0
  0
LINE
  5
227
100
AcDbEntity
  8
2
370
    50
100
AcDbLine
 10
-68.237671
 20
222.541333
 30
0.0
 11
-68.237671
 21
224.541333
 31
0.0
  0
LINE
  5
228
100
AcDbEntity
  8
2
370
    50
100
AcDbLine
 10
-68.237671
 20
216.541333
 30
0.0
 11
-58.237671
 21
216.541333
 31
0.0
  0
LINE
  5
229
100
AcDbEntity
  8
2
370
    50
100
AcDbLine
 10
-68.237671
 20
222.541333
 30
0.0
 11
-58.237671
 21
222.541333
 31
0.0
  0
LINE
  5
22A
100
AcDbEntity
  8
2
370
    50
100
AcDbLine
 10
-122.237509
 20
191.791333
 30
0.0
 11
-98.279509
 21
191.791333
 31
0.0
  0
LINE
  5
22B
100
AcDbEntity
  8
2
370
    50
100
AcDbLine
 10
-17.217109
 20
228.291333
 30
0.0
 11
-17.217109
 21
226.791333
 31
0.0
  0
LINE
  5
22C
100
AcDbEntity
  8
2
370
    50
100
AcDbLine
 10
-43.217109
 20
228.291333
 30
0.0
 11
-43.217109
 21
226.791333
 31
0.0
  0
LINE
  5
22D
100
AcDbEntity
  8
2
370
    50
100
AcDbLine
 10
-17.216849
 20
228.291333
 30
0.0
 11
-43.217109
 21
228.291333
 31
0.0
  0
LINE
  5
22E
100
AcDbEntity
  8
2
370
    50
100
AcDbLine
 10
-16.916849
 20
226.791333
 30
0.0
 11
-43.516849
 21
226.791333
 31
0.0
  0
HATCH
  5
22F
100
AcDbEntity
  8
2
370
    25
100
AcDbHatch
 10
0.0
 20
0.0
 30
0.0
210
0.0
220
0.0
230
1.0
  2
_U
 70
     0
 71
     1
 91
        1
 92
        1
 93
        4
 72
     1
 10
-17.217109000000001
 20
228.29133300000001
 11
-43.217109000000001
 21
228.29133300000001
 72
     1
 10
-43.217109000000001
 20
228.29133300000001
 11
-43.217109000000001
 21
226.79133300000001
 72
     1
 10
-43.217109000000001
 20
226.79133300000001
 11
-17.217109000000001
 21
226.79133300000001
 72
     1
 10
-17.217109000000001
 20
226.79133300000001
 11
-17.217109000000001
 21
228.29133300000001
 97
        4
330
0
330
0
330
0
330
0
 75
     0
 76
     0
 52
45.0
 41
1.0
 77
     0
 78
     1
 53
45.0
 43
0.0
 44
0.0
 45
-0.707107
 46
0.707107
 79
     0
 98
        1
 10
0.0
 20
0.0
  0
LINE
  5
230
100
AcDbEntity
  8
2
370
    50
100
AcDbLine
 10
-107.258752
 20
226.791333
 30
0.0
 11
-83.258752
 21
226.791333
 31
0.0
  0
LINE
  5
231
100
AcDbEntity
  8
2
370
    50
100
AcDbLine
 10
-83.258752
 20
229.791333
 30
0.0
 11
-83.258752
 21
226.791333
 31
0.0
  0
LINE
  5
232
100
AcDbEntity
  8
2
370
    50
100
AcDbLine
 10
-107.258752
 20
229.791333
 30
0.0
 11
-107.258752
 21
226.791333
 31
0.0
  0
LINE
  5
233
100
AcDbEntity
  8
2
370
    50
100
AcDbLine
 10
-83.258493
 20
229.791333
 30
0.0
 11
-107.258752
 21
229.791333
 31
0.0
  0
HATCH
  5
234
100
AcDbEntity
  8
2
370
    25
100
AcDbHatch
 10
0.0
 20
0.0
 30
0.0
210
0.0
220
0.0
230
1.0
  2
_U
 70
     0
 71
     1
 91
        1
 92
        1
 93
        4
 72
     1
 10
-107.258752
 20
229.79133300000001
 11
-83.258493000000001
 21
229.79133300000001
 72
     1
 10
-83.258493000000001
 20
229.79133300000001
 11
-83.258752000000001
 21
226.79133300000001
 72
     1
 10
-83.258752000000001
 20
226.79133300000001
 11
-107.258493
 21
226.79133300000001
 72
     1
 10
-107.258493
 20
226.79133300000001
 11
-107.258752
 21
229.79133300000001
 97
        4
330
0
330
0
330
0
330
0
 75
     0
 76
     0
 52
45.0
 41
1.0
 77
     0
 78
     1
 53
45.0
 43
0.0
 44
0.0
 45
-0.707107
 46
0.707107
 79
     0
 98
        1
 10
0.0
 20
0.0
  0
LINE
  5
235
100
AcDbEntity
  8
2
370
    25
100
AcDbLine
 10
-222.236638
 20
191.791333
 30
0.0
 11
-222.236638
 21
190.291081
 31
0.0
  0
LINE
  5
236
100
AcDbEntity
  8
2
370
    25
100
AcDbLine
 10
-198.278638
 20
191.791333
 30
0.0
 11
-198.278638
 21
190.291081
 31
0.0
  0
LINE
  5
237
100
AcDbEntity
  8
2
370
    50
100
AcDbLine
 10
-222.236638
 20
191.791333
 30
0.0
 11
-223.257655
 21
193.559785
 31
0.0
  0
LINE
  5
238
100
AcDbEntity
  8
2
370
    50
100
AcDbLine
 10
-198.278638
 20
191.791333
 30
0.0
 11
-197.257655
 21
193.559729
 31
0.0
  0
LINE
  5
239
100
AcDbEntity
  8
2
370
    50
100
AcDbLine
 10
-223.257655
 20
199.791333
 30
0.0
 11
-223.257655
 21
190.291081
 31
0.0
  0
LINE
  5
23A
100
AcDbEntity
  8
2
370
    50
100
AcDbLine
 10
-238.757655
 20
199.791333
 30
0.0
 11
-196.757655
 21
199.791333
 31
0.0
  0
LINE
  5
23B
100
AcDbEntity
  8
2
370
    50
100
AcDbLine
 10
-238.757655
 20
215.791333
 30
0.0
 11
-196.757655
 21
215.791333
 31
0.0
  0
LINE
  5
23C
100
AcDbEntity
  8
2
370
    50
100
AcDbLine
 10
-239.257655
 20
215.291333
 30
0.0
 11
-239.257655
 21
200.291333
 31
0.0
  0
LINE
  5
23D
100
AcDbEntity
  8
2
370
    50
100
AcDbLine
 10
-196.257655
 20
200.291333
 30
0.0
 11
-196.257655
 21
215.291333
 31
0.0
  0
LINE
  5
23E
100
AcDbEntity
  8
2
370
    50
100
AcDbLine
 10
-197.257655
 20
190.291081
 30
0.0
 11
-197.257655
 21
199.791333
 31
0.0
  0
LINE
  5
23F
100
AcDbEntity
  8
2
370
    50
100
AcDbLine
 10
-238.757655
 20
215.791333
 30
0.0
 11
-239.257655
 21
215.291333
 31
0.0
  0
LINE
  5
240
100
AcDbEntity
  8
2
370
    50
100
AcDbLine
 10
-239.257655
 20
200.291333
 30
0.0
 11
-238.757655
 21
199.791333
 31
0.0
  0
LINE
  5
241
100
AcDbEntity
  8
2
370
    50
100
AcDbLine
 10
-196.757655
 20
199.791333
 30
0.0
 11
-196.257655
 21
200.291333
 31
0.0
  0
LINE
  5
242
100
AcDbEntity
  8
2
370
    50
100
AcDbLine
 10
-196.258414
 20
215.292092
 30
0.0
 11
-196.758414
 21
215.792092
 31
0.0
  0
LINE
  5
243
100
AcDbEntity
  8
2
370
    50
100
AcDbLine
 10
-236.757655
 20
218.291333
 30
0.0
 11
-236.757655
 21
215.791333
 31
0.0
  0
LINE
  5
244
100
AcDbEntity
  8
2
370
    50
100
AcDbLine
 10
-213.757655
 20
218.291333
 30
0.0
 11
-213.757655
 21
215.791333
 31
0.0
  0
LINE
  5
245
100
AcDbEntity
  8
2
370
    50
100
AcDbLine
 10
-236.257655
 20
218.791333
 30
0.0
 11
-236.757655
 21
218.291333
 31
0.0
  0
LINE
  5
246
100
AcDbEntity
  8
2
370
    50
100
AcDbLine
 10
-214.257655
 20
218.791333
 30
0.0
 11
-213.757655
 21
218.291333
 31
0.0
  0
LINE
  5
247
100
AcDbEntity
  8
2
370
    50
100
AcDbLine
 10
-212.257655
 20
219.81235
 30
0.0
 11
-212.257655
 21
225.791333
 31
0.0
  0
LINE
  5
248
100
AcDbEntity
  8
2
370
    25
100
AcDbLine
 10
-213.278638
 20
218.791333
 30
0.0
 11
-213.278638
 21
226.791333
 31
0.0
  0
LINE
  5
249
100
AcDbEntity
  8
2
370
    50
100
AcDbLine
 10
-237.257655
 20
226.791333
 30
0.0
 11
-213.257655
 21
226.791333
 31
0.0
  0
LINE
  5
24A
100
AcDbEntity
  8
2
370
    25
100
AcDbLine
 10
-237.236638
 20
218.791333
 30
0.0
 11
-237.236638
 21
226.791333
 31
0.0
  0
LINE
  5
24B
100
AcDbEntity
  8
2
370
    50
100
AcDbLine
 10
-238.257655
 20
225.791333
 30
0.0
 11
-238.257655
 21
219.81235
 31
0.0
  0
LINE
  5
24C
100
AcDbEntity
  8
2
370
    50
100
AcDbLine
 10
-212.257655
 20
225.791333
 30
0.0
 11
-213.257655
 21
226.791333
 31
0.0
  0
LINE
  5
24D
100
AcDbEntity
  8
2
370
    50
100
AcDbLine
 10
-238.257655
 20
225.791333
 30
0.0
 11
-237.257655
 21
226.791333
 31
0.0
  0
LINE
  5
24E
100
AcDbEntity
  8
2
370
    50
100
AcDbLine
 10
-237.236638
 20
218.791333
 30
0.0
 11
-238.257655
 21
219.81235
 31
0.0
  0
LINE
  5
24F
100
AcDbEntity
  8
2
370
    50
100
AcDbLine
 10
-213.278671
 20
218.791333
 30
0.0
 11
-212.257655
 21
219.81235
 31
0.0
  0
LINE
  5
250
100
AcDbEntity
  8
2
370
    50
100
AcDbLine
 10
-213.278638
 20
218.791333
 30
0.0
 11
-237.236638
 21
218.791333
 31
0.0
  0
LINE
  5
251
100
AcDbEntity
  8
2
370
    50
100
AcDbLine
 10
-212.257655
 20
225.791333
 30
0.0
 11
-238.257655
 21
225.791333
 31
0.0
  0
LINE
  5
252
100
AcDbEntity
  8
2
370
    50
100
AcDbLine
 10
-238.257655
 20
219.81235
 30
0.0
 11
-212.257655
 21
219.81235
 31
0.0
  0
LINE
  5
253
100
AcDbEntity
  8
2
370
    50
100
AcDbLine
 10
-213.757655
 20
218.291333
 30
0.0
 11
-236.757655
 21
218.291333
 31
0.0
  0
LINE
  5
254
100
AcDbEntity
  8
2
370
    50
100
AcDbLine
 10
-298.799298
 20
212.291333
 30
0.0
 11
-281.799298
 21
212.291333
 31
0.0
  0
LINE
  5
255
100
AcDbEntity
  8
2
370
    50
100
AcDbLine
 10
-298.799298
 20
212.291333
 30
0.0
 11
-299.299298
 21
212.791333
 31
0.0
  0
LINE
  5
256
100
AcDbEntity
  8
2
370
    50
100
AcDbLine
 10
-299.299298
 20
212.791333
 30
0.0
 11
-299.299298
 21
215.791333
 31
0.0
  0
LINE
  5
257
100
AcDbEntity
  8
2
370
    50
100
AcDbLine
 10
-281.299298
 20
212.791333
 30
0.0
 11
-281.299298
 21
215.791333
 31
0.0
  0
LINE
  5
258
100
AcDbEntity
  8
2
370
    50
100
AcDbLine
 10
-281.799298
 20
212.291333
 30
0.0
 11
-281.299298
 21
212.791333
 31
0.0
  0
LINE
  5
259
100
AcDbEntity
  8
2
370
    50
100
AcDbLine
 10
-276.999298
 20
218.791333
 30
0.0
 11
-303.599298
 21
218.791333
 31
0.0
  0
LINE
  5
25A
100
AcDbEntity
  8
2
370
    25
100
AcDbLine
 10
-298.799298
 20
212.291333
 30
0.0
 11
-298.799298
 21
216.291333
 31
0.0
  0
LINE
  5
25B
100
AcDbEntity
  8
2
370
    25
100
AcDbLine
 10
-281.799298
 20
212.291333
 30
0.0
 11
-281.799298
 21
216.291333
 31
0.0
  0
LINE
  5
25C
100
AcDbEntity
  8
2
370
    50
100
AcDbLine
 10
-298.799298
 20
216.291333
 30
0.0
 11
-299.299298
 21
215.791333
 31
0.0
  0
LINE
  5
25D
100
AcDbEntity
  8
2
370
    50
100
AcDbLine
 10
-281.799298
 20
216.291333
 30
0.0
 11
-281.299298
 21
215.791333
 31
0.0
  0
LINE
  5
25E
100
AcDbEntity
  8
2
370
    50
100
AcDbLine
 10
-281.799298
 20
216.291333
 30
0.0
 11
-290.299298
 21
216.291333
 31
0.0
  0
LINE
  5
25F
100
AcDbEntity
  8
2
370
    50
100
AcDbLine
 10
-290.299298
 20
216.291333
 30
0.0
 11
-298.799298
 21
216.291333
 31
0.0
  0
LINE
  5
260
100
AcDbEntity
  8
2
370
    50
100
AcDbLine
 10
-299.299298
 20
215.791333
 30
0.0
 11
-281.299298
 21
215.791333
 31
0.0
  0
LINE
  5
261
100
AcDbEntity
  8
2
370
    50
100
AcDbLine
 10
-299.299298
 20
212.791333
 30
0.0
 11
-281.299298
 21
212.791333
 31
0.0
  0
LINE
  5
262
100
AcDbEntity
  8
2
370
    50
100
AcDbLine
 10
-304.299298
 20
219.491333
 30
0.0
 11
-304.299298
 21
226.091333
 31
0.0
  0
LINE
  5
263
100
AcDbEntity
  8
2
370
    25
100
AcDbLine
 10
-303.599298
 20
218.791333
 30
0.0
 11
-303.599298
 21
226.791333
 31
0.0
  0
LINE
  5
264
100
AcDbEntity
  8
2
370
    50
100
AcDbLine
 10
-303.599298
 20
218.791333
 30
0.0
 11
-304.299298
 21
219.491333
 31
0.0
  0
LINE
  5
265
100
AcDbEntity
  8
2
370
    50
100
AcDbLine
 10
-303.599298
 20
226.791333
 30
0.0
 11
-304.299298
 21
226.091333
 31
0.0
  0
LINE
  5
266
100
AcDbEntity
  8
2
370
    50
100
AcDbLine
 10
-304.299298
 20
226.091333
 30
0.0
 11
-276.299298
 21
226.091333
 31
0.0
  0
LINE
  5
267
100
AcDbEntity
  8
2
370
    50
100
AcDbLine
 10
-304.299298
 20
219.491333
 30
0.0
 11
-276.299298
 21
219.491333
 31
0.0
  0
LINE
  5
268
100
AcDbEntity
  8
2
370
    50
100
AcDbLine
 10
-276.299298
 20
219.491333
 30
0.0
 11
-276.299298
 21
226.091333
 31
0.0
  0
LINE
  5
269
100
AcDbEntity
  8
2
370
    25
100
AcDbLine
 10
-276.999298
 20
218.791333
 30
0.0
 11
-276.999298
 21
226.791333
 31
0.0
  0
LINE
  5
26A
100
AcDbEntity
  8
2
370
    50
100
AcDbLine
 10
-276.999298
 20
226.791333
 30
0.0
 11
-276.299298
 21
226.091333
 31
0.0
  0
LINE
  5
26B
100
AcDbEntity
  8
2
370
    50
100
AcDbLine
 10
-276.999298
 20
218.791333
 30
0.0
 11
-276.299298
 21
219.491333
 31
0.0
  0
LINE
  5
26C
100
AcDbEntity
  8
2
370
    50
100
AcDbLine
 10
-281.299298
 20
218.491333
 30
0.0
 11
-299.299298
 21
218.491333
 31
0.0
  0
LINE
  5
26D
100
AcDbEntity
  8
2
370
    50
100
AcDbLine
 10
-281.299298
 20
216.591333
 30
0.0
 11
-299.299298
 21
216.591333
 31
0.0
  0
ARC
  5
26E
100
AcDbEntity
  8
2
370
    50
100
AcDbCircle
 10
-299.299298
 20
217.541333
 30
0.0
 40
0.95
100
AcDbArc
 50
90.0
 51
270.0
  0
LINE
  5
26F
100
AcDbEntity
  8
2
370
    50
100
AcDbLine
 10
-298.349298
 20
216.291333
 30
0.0
 11
-298.349298
 21
216.591333
 31
0.0
  0
LINE
  5
270
100
AcDbEntity
  8
2
370
    50
100
AcDbLine
 10
-298.349298
 20
218.491333
 30
0.0
 11
-298.349298
 21
218.791333
 31
0.0
  0
ARC
  5
271
100
AcDbEntity
  8
2
370
    50
100
AcDbCircle
 10
-281.299298
 20
217.541333
 30
0.0
 40
0.95
100
AcDbArc
 50
270.0
 51
90.0
  0
LINE
  5
272
100
AcDbEntity
  8
2
370
    50
100
AcDbLine
 10
-282.249298
 20
216.291333
 30
0.0
 11
-282.249298
 21
216.591333
 31
0.0
  0
LINE
  5
273
100
AcDbEntity
  8
2
370
    50
100
AcDbLine
 10
-282.249298
 20
218.491333
 30
0.0
 11
-282.249298
 21
218.791333
 31
0.0
  0
LINE
  5
274
100
AcDbEntity
  8
2
370
    25
100
AcDbLine
 10
-292.199298
 20
216.591333
 30
0.0
 11
-290.299298
 21
218.491333
 31
0.0
  0
LINE
  5
275
100
AcDbEntity
  8
2
370
    25
100
AcDbLine
 10
-290.785084
 20
216.591333
 30
0.0
 11
-288.885084
 21
218.491333
 31
0.0
  0
LINE
  5
276
100
AcDbEntity
  8
2
370
    25
100
AcDbLine
 10
-289.370871
 20
216.591333
 30
0.0
 11
-287.470871
 21
218.491333
 31
0.0
  0
LINE
  5
277
100
AcDbEntity
  8
2
370
    25
100
AcDbLine
 10
-287.956657
 20
216.591333
 30
0.0
 11
-286.056657
 21
218.491333
 31
0.0
  0
LINE
  5
278
100
AcDbEntity
  8
2
370
    25
100
AcDbLine
 10
-286.542444
 20
216.591333
 30
0.0
 11
-284.642444
 21
218.491333
 31
0.0
  0
LINE
  5
279
100
AcDbEntity
  8
2
370
    25
100
AcDbLine
 10
-285.12823
 20
216.591333
 30
0.0
 11
-283.22823
 21
218.491333
 31
0.0
  0
LINE
  5
27A
100
AcDbEntity
  8
2
370
    25
100
AcDbLine
 10
-283.714016
 20
216.591333
 30
0.0
 11
-281.814016
 21
218.491333
 31
0.0
  0
LINE
  5
27B
100
AcDbEntity
  8
2
370
    25
100
AcDbLine
 10
-282.299803
 20
216.591333
 30
0.0
 11
-280.653274
 21
218.237862
 31
0.0
  0
LINE
  5
27C
100
AcDbEntity
  8
2
370
    25
100
AcDbLine
 10
-293.613511
 20
216.591333
 30
0.0
 11
-291.713511
 21
218.491333
 31
0.0
  0
LINE
  5
27D
100
AcDbEntity
  8
2
370
    25
100
AcDbLine
 10
-295.027725
 20
216.591333
 30
0.0
 11
-293.127725
 21
218.491333
 31
0.0
  0
LINE
  5
27E
100
AcDbEntity
  8
2
370
    25
100
AcDbLine
 10
-296.441938
 20
216.591333
 30
0.0
 11
-294.541938
 21
218.491333
 31
0.0
  0
LINE
  5
27F
100
AcDbEntity
  8
2
370
    25
100
AcDbLine
 10
-297.856152
 20
216.591333
 30
0.0
 11
-295.956152
 21
218.491333
 31
0.0
  0
LINE
  5
280
100
AcDbEntity
  8
2
370
    25
100
AcDbLine
 10
-299.270366
 20
216.591333
 30
0.0
 11
-297.370366
 21
218.491333
 31
0.0
  0
LINE
  5
281
100
AcDbEntity
  8
2
370
    25
100
AcDbLine
 10
-300.152456
 20
217.123456
 30
0.0
 11
-298.784579
 21
218.491333
 31
0.0
  0
LINE
  5
282
100
AcDbEntity
  8
2
370
    50
100
AcDbLine
 10
-247.278476
 20
219.541333
 30
0.0
 11
-252.278476
 21
224.541333
 31
0.0
  0
LINE
  5
283
100
AcDbEntity
  8
2
370
    50
100
AcDbLine
 10
-247.278476
 20
219.541333
 30
0.0
 11
-252.278476
 21
214.541333
 31
0.0
  0
LINE
  5
284
100
AcDbEntity
  8
2
370
    50
100
AcDbLine
 10
-267.278476
 20
219.541333
 30
0.0
 11
-262.278476
 21
224.541333
 31
0.0
  0
LINE
  5
285
100
AcDbEntity
  8
2
370
    50
100
AcDbLine
 10
-267.278476
 20
219.541333
 30
0.0
 11
-262.278476
 21
214.541333
 31
0.0
  0
LINE
  5
286
100
AcDbEntity
  8
2
370
    50
100
AcDbLine
 10
-262.278476
 20
214.541333
 30
0.0
 11
-262.278476
 21
216.541333
 31
0.0
  0
LINE
  5
287
100
AcDbEntity
  8
2
370
    50
100
AcDbLine
 10
-262.278476
 20
222.541333
 30
0.0
 11
-262.278476
 21
224.541333
 31
0.0
  0
LINE
  5
288
100
AcDbEntity
  8
2
370
    50
100
AcDbLine
 10
-252.278476
 20
214.541333
 30
0.0
 11
-252.278476
 21
216.541333
 31
0.0
  0
LINE
  5
289
100
AcDbEntity
  8
2
370
    50
100
AcDbLine
 10
-252.278476
 20
222.541333
 30
0.0
 11
-252.278476
 21
224.541333
 31
0.0
  0
LINE
  5
28A
100
AcDbEntity
  8
2
370
    50
100
AcDbLine
 10
-252.278476
 20
216.541333
 30
0.0
 11
-262.278476
 21
216.541333
 31
0.0
  0
LINE
  5
28B
100
AcDbEntity
  8
2
370
    50
100
AcDbLine
 10
-252.278476
 20
222.541333
 30
0.0
 11
-262.278476
 21
222.541333
 31
0.0
  0
LINE
  5
28C
100
AcDbEntity
  8
2
370
    50
100
AcDbLine
 10
-198.278638
 20
191.791333
 30
0.0
 11
-222.236638
 21
191.791333
 31
0.0
  0
LINE
  5
28D
100
AcDbEntity
  8
2
370
    50
100
AcDbLine
 10
-303.299039
 20
228.291333
 30
0.0
 11
-303.299039
 21
226.791333
 31
0.0
  0
LINE
  5
28E
100
AcDbEntity
  8
2
370
    50
100
AcDbLine
 10
-277.299039
 20
228.291333
 30
0.0
 11
-277.299039
 21
226.791333
 31
0.0
  0
LINE
  5
28F
100
AcDbEntity
  8
2
370
    50
100
AcDbLine
 10
-303.299298
 20
228.291333
 30
0.0
 11
-277.299039
 21
228.291333
 31
0.0
  0
LINE
  5
290
100
AcDbEntity
  8
2
370
    50
100
AcDbLine
 10
-303.599298
 20
226.791333
 30
0.0
 11
-276.999298
 21
226.791333
 31
0.0
  0
HATCH
  5
291
100
AcDbEntity
  8
2
370
    25
100
AcDbHatch
 10
0.0
 20
0.0
 30
0.0
210
0.0
220
0.0
230
1.0
  2
_U
 70
     0
 71
     1
 91
        1
 92
        1
 93
        4
 72
     1
 10
-303.29903899999999
 20
228.29133300000001
 11
-277.29903899999999
 21
228.29133300000001
 72
     1
 10
-277.29903899999999
 20
228.29133300000001
 11
-277.29903899999999
 21
226.79133300000001
 72
     1
 10
-277.29903899999999
 20
226.79133300000001
 11
-303.29903899999999
 21
226.79133300000001
 72
     1
 10
-303.29903899999999
 20
226.79133300000001
 11
-303.29903899999999
 21
228.29133300000001
 97
        4
330
0
330
0
330
0
330
0
 75
     0
 76
     0
 52
45.0
 41
1.0
 77
     0
 78
     1
 53
45.0
 43
0.0
 44
0.0
 45
-0.707107
 46
0.707107
 79
     0
 98
        1
 10
0.0
 20
0.0
  0
LINE
  5
292
100
AcDbEntity
  8
2
370
    50
100
AcDbLine
 10
-213.257395
 20
226.791333
 30
0.0
 11
-237.257395
 21
226.791333
 31
0.0
  0
LINE
  5
293
100
AcDbEntity
  8
2
370
    50
100
AcDbLine
 10
-237.257395
 20
229.791333
 30
0.0
 11
-237.257395
 21
226.791333
 31
0.0
  0
LINE
  5
294
100
AcDbEntity
  8
2
370
    50
100
AcDbLine
 10
-213.257395
 20
229.791333
 30
0.0
 11
-213.257395
 21
226.791333
 31
0.0
  0
LINE
  5
295
100
AcDbEntity
  8
2
370
    50
100
AcDbLine
 10
-237.257655
 20
229.791333
 30
0.0
 11
-213.257395
 21
229.791333
 31
0.0
  0
HATCH
  5
296
100
AcDbEntity
  8
2
370
    25
100
AcDbHatch
 10
0.0
 20
0.0
 30
0.0
210
0.0
220
0.0
230
1.0
  2
_U
 70
     0
 71
     1
 91
        1
 92
        1
 93
        4
 72
     1
 10
-213.257395
 20
229.79133300000001
 11
-237.257655
 21
229.79133300000001
 72
     1
 10
-237.257655
 20
229.79133300000001
 11
-237.257395
 21
226.79133300000001
 72
     1
 10
-237.257395
 20
226.79133300000001
 11
-213.257655
 21
226.79133300000001
 72
     1
 10
-213.257655
 20
226.79133300000001
 11
-213.257395
 21
229.79133300000001
 97
        4
330
0
330
0
330
0
330
0
 75
     0
 76
     0
 52
45.0
 41
1.0
 77
     0
 78
     1
 53
45.0
 43
0.0
 44
0.0
 45
-0.707107
 46
0.707107
 79
     0
 98
        1
 10
0.0
 20
0.0
  0
POINT
  5
297
100
AcDbEntity
  8
2
370
    50
100
AcDbPoint
 10
-225.257655
 20
215.791333
 30
0.0
  0
LINE
  5
298
100
AcDbEntity
  8
2
370
    50
100
AcDbLine
 10
-95.357309
 20
-108.84015
 30
0.0
 11
-87.483508
 21
-116.713951
 31
0.0
  0
LINE
  5
299
100
AcDbEntity
  8
2
370
    50
100
AcDbLine
 10
-114.186016
 20
-128.195209
 30
0.0
 11
-106.575391
 21
-135.805834
 31
0.0
  0
ARC
  5
29A
100
AcDbEntity
  8
2
370
    50
100
AcDbCircle
 10
-99.651472
 20
-123.63787
 30
0.0
 40
14.0
100
AcDbArc
 50
240.358886
 51
29.641114
  0
LINE
  5
29B
100
AcDbEntity
  8
2
370
    50
100
AcDbLine
 10
-113.572945
 20
-128.101173
 30
0.0
 11
-106.269953
 21
-135.404166
 31
0.0
  0
ARC
  5
29C
100
AcDbEntity
  8
2
370
    50
100
AcDbCircle
 10
-99.651472
 20
-123.63787
 30
0.0
 40
13.5
100
AcDbArc
 50
240.642471
 51
29.357529
  0
LINE
  5
29D
100
AcDbEntity
  8
2
370
    50
100
AcDbLine
 10
-94.470233
 20
-110.434333
 30
0.0
 11
-87.885176
 21
-117.01939
 31
0.0
  0
LINE
  5
29E
100
AcDbEntity
  8
2
370
    50
100
AcDbLine
 10
-225.158838
 20
-108.84015
 30
0.0
 11
-233.032639
 21
-116.713951
 31
0.0
  0
ARC
  5
29F
100
AcDbEntity
  8
2
370
    50
100
AcDbCircle
 10
-220.864675
 20
-123.63787
 30
0.0
 40
14.0
100
AcDbArc
 50
150.358886
 51
299.641114
  0
ARC
  5
2A0
100
AcDbEntity
  8
2
370
    50
100
AcDbCircle
 10
-220.864675
 20
-123.63787
 30
0.0
 40
13.5
100
AcDbArc
 50
150.642471
 51
299.357529
  0
LINE
  5
2A1
100
AcDbEntity
  8
2
370
    50
100
AcDbLine
 10
-226.045915
 20
-110.434333
 30
0.0
 11
-232.630971
 21
-117.01939
 31
0.0
  0
LINE
  5
2A2
100
AcDbEntity
  8
2
370
    50
100
AcDbLine
 10
-206.943202
 20
-128.101173
 30
0.0
 11
-214.246195
 21
-135.404166
 31
0.0
  0
LINE
  5
2A3
100
AcDbEntity
  8
2
370
    50
100
AcDbLine
 10
-206.330131
 20
-128.195209
 30
0.0
 11
-213.940756
 21
-135.805834
 31
0.0
  0
ARC
  5
2A4
100
AcDbEntity
  8
2
370
    50
100
AcDbCircle
 10
220.127954
 20
-23.0319
 30
0.0
 40
5.0
100
AcDbArc
 50
221.840901
 51
270.0
  0
ARC
  5
2A5
100
AcDbEntity
  8
2
370
    50
100
AcDbCircle
 10
237.472668
 20
-23.0319
 30
0.0
 40
8.205286
100
AcDbArc
 50
32.369572
 51
37.543478
  0
ARC
  5
2A6
100
AcDbEntity
  8
2
370
    50
100
AcDbCircle
 10
240.677954
 20
-23.0319
 30
0.0
 40
5.0
100
AcDbArc
 50
270.0
 51
318.159099
  0
ARC
  5
2A7
100
AcDbEntity
  8
2
370
    50
100
AcDbCircle
 10
223.33324
 20
-23.0319
 30
0.0
 40
8.205286
100
AcDbArc
 50
142.456522
 51
147.630428
  0
LINE
  5
2A8
100
AcDbEntity
  8
2
370
    50
100
AcDbLine
 10
244.402954
 20
-26.367222
 30
0.0
 11
244.402954
 21
-18.638968
 31
0.0
  0
LINE
  5
2A9
100
AcDbEntity
  8
2
370
    50
100
AcDbLine
 10
216.402954
 20
-26.367222
 30
0.0
 11
216.402954
 21
-18.638968
 31
0.0
  0
LINE
  5
2AA
100
AcDbEntity
  8
2
370
    50
100
AcDbLine
 10
216.827341
 20
-18.0319
 30
0.0
 11
217.402954
 21
-18.0319
 31
0.0
  0
LINE
  5
2AB
100
AcDbEntity
  8
2
370
    50
100
AcDbLine
 10
243.978567
 20
-18.0319
 30
0.0
 11
216.827341
 21
-18.0319
 31
0.0
  0
LINE
  5
2AC
100
AcDbEntity
  8
2
370
    50
100
AcDbLine
 10
238.302954
 20
-28.0319
 30
0.0
 11
220.127954
 21
-28.0319
 31
0.0
  0
LINE
  5
2AD
100
AcDbEntity
  8
2
370
    50
100
AcDbLine
 10
238.302954
 20
-28.0319
 30
0.0
 11
240.677954
 21
-28.0319
 31
0.0
  0
ARC
  5
2AE
100
AcDbEntity
  8
2
370
    50
100
AcDbCircle
 10
220.127954
 20
-23.0319
 30
0.0
 40
5.0
100
AcDbArc
 50
221.840901
 51
270.0
  0
ARC
  5
2AF
100
AcDbEntity
  8
2
370
    50
100
AcDbCircle
 10
237.472668
 20
-23.0319
 30
0.0
 40
8.205286
100
AcDbArc
 50
32.369572
 51
37.543478
  0
ARC
  5
2B0
100
AcDbEntity
  8
2
370
    50
100
AcDbCircle
 10
240.677954
 20
-23.0319
 30
0.0
 40
5.0
100
AcDbArc
 50
270.0
 51
318.159099
  0
ARC
  5
2B1
100
AcDbEntity
  8
2
370
    50
100
AcDbCircle
 10
223.33324
 20
-23.0319
 30
0.0
 40
8.205286
100
AcDbArc
 50
142.456522
 51
147.630428
  0
LINE
  5
2B2
100
AcDbEntity
  8
2
370
    50
100
AcDbLine
 10
244.402954
 20
-26.367222
 30
0.0
 11
244.402954
 21
-18.638968
 31
0.0
  0
LINE
  5
2B3
100
AcDbEntity
  8
2
370
    50
100
AcDbLine
 10
216.402954
 20
-26.367222
 30
0.0
 11
216.402954
 21
-18.638968
 31
0.0
  0
LINE
  5
2B4
100
AcDbEntity
  8
2
370
    50
100
AcDbLine
 10
216.827341
 20
-18.0319
 30
0.0
 11
243.978567
 21
-18.0319
 31
0.0
  0
LINE
  5
2B5
100
AcDbEntity
  8
2
370
    50
100
AcDbLine
 10
220.127954
 20
-28.0319
 30
0.0
 11
240.677954
 21
-28.0319
 31
0.0
  0
ELLIPSE
  5
2B6
100
AcDbEntity
  8
2
370
    50
100
AcDbEllipse
 10
223.402954
 20
-22.503095
 30
0.0
 11
5.5560780000000003
 21
0.0
 31
0.0
210
0.0
220
0.0
230
1.0
 40
0.695478
 41
0.0
 42
6.2831849999999996
  0
ELLIPSE
  5
2B7
100
AcDbEntity
  8
2
370
    50
100
AcDbEllipse
 10
237.402954
 20
-22.503095
 30
0.0
 11
5.5560780000000003
 21
0.0
 31
0.0
210
0.0
220
0.0
230
1.0
 40
0.695478
 41
0.0
 42
6.2831849999999996
  0
POINT
  5
2B8
100
AcDbEntity
  8
2
370
    50
100
AcDbPoint
 10
230.402954
 20
-28.0319
 30
0.0
  0
POINT
  5
2B9
100
AcDbEntity
  8
2
370
    50
100
AcDbPoint
 10
230.402954
 20
-28.0319
 30
0.0
  0
POINT
  5
2BA
100
AcDbEntity
  8
2
370
    50
100
AcDbPoint
 10
230.402954
 20
-18.0319
 30
0.0
  0
LINE
  5
2BB
100
AcDbEntity
  8
2
370
    50
100
AcDbLine
 10
-149.983074
 20
-143.031268
 30
0.0
 11
-170.533074
 21
-143.031268
 31
0.0
  0
LINE
  5
2BC
100
AcDbEntity
  8
2
370
    50
100
AcDbLine
 10
-146.682461
 20
-133.031268
 30
0.0
 11
-173.833686
 21
-133.031268
 31
0.0
  0
ARC
  5
2BD
100
AcDbEntity
  8
2
370
    50
100
AcDbCircle
 10
-170.533074
 20
-138.031268
 30
0.0
 40
5.0
100
AcDbArc
 50
180.0
 51
270.0
  0
ARC
  5
2BE
100
AcDbEntity
  8
2
370
    50
100
AcDbCircle
 10
-167.327788
 20
-138.031268
 30
0.0
 40
8.205286
100
AcDbArc
 50
142.456522
 51
180.0
  0
ELLIPSE
  5
2BF
100
AcDbEntity
  8
2
370
    50
100
AcDbEllipse
 10
-160.258074
 20
-137.502463
 30
0.0
 11
-6.10947
 21
0.0
 31
0.0
210
0.0
220
0.0
230
1.0
 40
0.632482
 41
0.0
 42
6.2831849999999996
  0
ELLIPSE
  5
2C0
100
AcDbEntity
  8
2
370
    50
100
AcDbEllipse
 10
-172.382429
 20
-137.502463
 30
0.0
 11
0.0
 21
-3.8641269999999999
 31
0.0
210
0.0
220
0.0
230
1.0
 40
0.790537
 41
0.0
 42
6.2831849999999996
  0
ELLIPSE
  5
2C1
100
AcDbEntity
  8
2
370
    50
100
AcDbEllipse
 10
-148.133718
 20
-137.502463
 30
0.0
 11
0.0
 21
3.8641269999999999
 31
0.0
210
0.0
220
0.0
230
1.0
 40
0.790537
 41
0.0
 42
6.2831849999999996
  0
ARC
  5
2C2
100
AcDbEntity
  8
2
370
    50
100
AcDbCircle
 10
-149.983074
 20
-138.031268
 30
0.0
 40
5.0
100
AcDbArc
 50
270.0
 51
0.0
  0
ARC
  5
2C3
100
AcDbEntity
  8
2
370
    50
100
AcDbCircle
 10
-153.18836
 20
-138.031268
 30
0.0
 40
8.205286
100
AcDbArc
 50
0.0
 51
37.543478
  0
LINE
  5
2C4
100
AcDbEntity
  8
2
370
    50
100
AcDbLine
 10
-147.258074
 20
-132.731636
 30
0.0
 11
-147.258074
 21
-133.031636
 31
0.0
  0
LINE
  5
2C5
100
AcDbEntity
  8
2
370
    50
100
AcDbLine
 10
-173.258074
 20
-132.731636
 30
0.0
 11
-173.258074
 21
-133.031636
 31
0.0
  0
POINT
  5
2C6
100
AcDbEntity
  8
2
370
    50
100
AcDbPoint
 10
-160.258074
 20
-133.531081
 30
0.0
  0
LINE
  5
2C7
100
AcDbEntity
  8
2
370
    25
  6
CENTER
100
AcDbLine
 10
-160.258074
 20
-207.677856
 30
0.0
 11
-160.258074
 21
-1.63518
 31
0.0
  0
LINE
  5
2C8
100
AcDbEntity
  8
2
370
    25
  6
CENTER
100
AcDbLine
 10
-160.258074
 20
45.248936
 30
0.0
 11
-160.258074
 21
179.307617
 31
0.0
  0
POINT
  5
2C9
100
AcDbEntity
  8
2
370
    50
100
AcDbPoint
 10
230.402954
 20
-18.0319
 30
0.0
  0
POINT
  5
2CA
100
AcDbEntity
  8
2
370
    50
100
AcDbPoint
 10
230.402954
 20
-18.0319
 30
0.0
  0
LINE
  5
2CB
100
AcDbEntity
  8
2
370
    50
100
AcDbLine
 10
-168.233074
 20
-143.031268
 30
0.0
 11
-152.283074
 21
-143.031268
 31
0.0
  0
POINT
  5
2CC
100
AcDbEntity
  8
2
370
    50
100
AcDbPoint
 10
-160.258074
 20
-143.031268
 30
0.0
  0
POINT
  5
2CD
100
AcDbEntity
  8
2
370
    50
100
AcDbPoint
 10
-160.258074
 20
-143.031268
 30
0.0
  0
LINE
  5
2CE
100
AcDbEntity
  8
2
370
    50
100
AcDbLine
 10
250.402954
 20
15.457291
 30
0.0
 11
250.402954
 21
-15.031704
 31
0.0
  0
LINE
  5
2CF
100
AcDbEntity
  8
2
370
    50
100
AcDbLine
 10
208.089471
 20
16.457291
 30
0.0
 11
249.402954
 21
16.457291
 31
0.0
  0
LINE
  5
2D0
100
AcDbEntity
  8
2
370
    25
100
AcDbLine
 10
208.471375
 20
16.109234
 30
0.0
 11
229.173317
 21
9.997662
 31
0.0
  0
LINE
  5
2D1
100
AcDbEntity
  8
2
370
    25
100
AcDbLine
 10
214.178111
 20
-15.402526
 30
0.0
 11
227.806813
 21
-12.243394
 31
0.0
  0
ARC
  5
2D2
100
AcDbEntity
  8
2
370
    25
100
AcDbCircle
 10
180.402954
 20
1.968296
 30
0.0
 40
50.0
100
AcDbArc
 50
344.326601
 51
8.296257
  0
ARC
  5
2D3
100
AcDbEntity
  8
2
370
    25
100
AcDbCircle
 10
228.89018
 20
9.038583
 30
0.0
 40
1.0
100
AcDbArc
 50
8.296257
 51
73.552486
  0
ARC
  5
2D4
100
AcDbEntity
  8
2
370
    25
100
AcDbCircle
 10
227.581001
 20
-11.269223
 30
0.0
 40
1.0
100
AcDbArc
 50
283.05067
 51
344.326601
  0
ARC
  5
2D5
100
AcDbEntity
  8
2
370
    50
100
AcDbCircle
 10
249.402954
 20
15.457291
 30
0.0
 40
1.0
100
AcDbArc
 50
0.0
 51
90.0
  0
ARC
  5
2D6
100
AcDbEntity
  8
2
370
    50
100
AcDbCircle
 10
249.402954
 20
-15.031704
 30
0.0
 40
1.0
100
AcDbArc
 50
270.0
 51
360.0
  0
ARC
  5
2D7
100
AcDbEntity
  8
2
370
    25
  6
DASHED
100
AcDbCircle
 10
166.074168
 20
142.769099
 30
0.0
 40
1.0
100
AcDbArc
 50
155.0
 51
250.0
  0
ARC
  5
2D8
100
AcDbEntity
  8
2
370
    25
  6
DASHED
100
AcDbCircle
 10
169.891027
 20
134.99481
 30
0.0
 40
5.0
100
AcDbArc
 50
54.123693
 51
70.0
  0
ARC
  5
2D9
100
AcDbEntity
  8
2
370
    25
  6
DASHED
100
AcDbCircle
 10
26.000445
 20
-76.089474
 30
0.0
 40
264.583411
100
AcDbArc
 50
38.733524
 51
57.488657
  0
LINE
  5
2DA
100
AcDbEntity
  8
2
370
    25
  6
DASHED
100
AcDbLine
 10
165.16786
 20
143.191718
 30
0.0
 11
166.76141
 21
146.609096
 31
0.0
  0
LINE
  5
2DB
100
AcDbEntity
  8
2
370
    25
  6
DASHED
100
AcDbLine
 10
165.732147
 20
141.829407
 30
0.0
 11
171.601127
 21
139.693273
 31
0.0
  0
ARC
  5
2DC
100
AcDbEntity
  8
2
370
    25
  6
DASHED
100
AcDbCircle
 10
169.891027
 20
134.99481
 30
0.0
 40
5.0
100
AcDbArc
 50
54.123693
 51
70.0
  0
ARC
  5
2DD
100
AcDbEntity
  8
2
370
    25
  6
DASHED
100
AcDbCircle
 10
26.311878
 20
-63.524782
 30
0.0
 40
250.0
100
AcDbArc
 50
39.279919
 51
54.123693
  0
ARC
  5
2DE
100
AcDbEntity
  8
2
370
    25
  6
DASHED
100
AcDbCircle
 10
167.667717
 20
146.186478
 30
0.0
 40
1.0
100
AcDbArc
 50
57.488657
 51
155.0
  0
POINT
  5
2DF
100
AcDbEntity
  8
2
370
    50
100
AcDbPoint
 10
-280.466226
 20
27.183885
 30
0.0
  0
LINE
  5
2E0
100
AcDbEntity
  8
2
370
    50
100
AcDbLine
 10
-175.336366
 20
121.000037
 30
0.0
 11
-240.868043
 21
55.46836
 31
0.0
  0
LINE
  5
2E1
100
AcDbEntity
  8
2
370
    50
100
AcDbLine
 10
-182.690615
 20
136.273204
 30
0.0
 11
-252.181751
 21
66.782068
 31
0.0
  0
LINE
  5
2E2
100
AcDbEntity
  8
2
370
    50
100
AcDbLine
 10
-289.481634
 20
36.1997
 30
0.0
 11
-258.368935
 21
67.312399
 31
0.0
  0
LINE
  5
2E3
100
AcDbEntity
  8
2
370
    50
100
AcDbLine
 10
-271.450411
 20
18.168477
 30
0.0
 11
-240.337713
 21
49.281176
 31
0.0
  0
LINE
  5
2E4
100
AcDbEntity
  8
2
370
    50
100
AcDbLine
 10
-254.833402
 20
69.433719
 30
0.0
 11
-238.216392
 21
52.81671
 31
0.0
  0
ARC
  5
2E5
100
AcDbEntity
  8
2
370
    50
100
AcDbCircle
 10
-278.344702
 20
29.305409
 30
0.0
 40
15.0
100
AcDbArc
 50
171.686015
 51
278.313985
  0
ARC
  5
2E6
100
AcDbEntity
  8
2
370
    50
100
AcDbCircle
 10
-271.803964
 20
18.522031
 30
0.0
 40
25.0
100
AcDbArc
 50
135.0
 51
148.795528
  0
ARC
  5
2E7
100
AcDbEntity
  8
2
370
    50
100
AcDbCircle
 10
-289.12808
 20
35.846147
 30
0.0
 40
25.0
100
AcDbArc
 50
301.204472
 51
315.0
  0
LINE
  5
2E8
100
AcDbEntity
  8
2
370
    25
100
AcDbLine
 10
-291.673128
 20
32.947546
 30
0.0
 11
-257.838605
 21
66.782068
 31
0.0
  0
LINE
  5
2E9
100
AcDbEntity
  8
2
370
    25
100
AcDbLine
 10
-274.583483
 20
16.096065
 30
0.0
 11
-240.868043
 21
49.811506
 31
0.0
  0
ARC
  5
2EA
100
AcDbEntity
  8
2
370
    50
100
AcDbCircle
 10
-252.358528
 20
61.301991
 30
0.0
 40
8.5
100
AcDbArc
 50
106.927513
 51
135.0
  0
ARC
  5
2EB
100
AcDbEntity
  8
2
370
    50
100
AcDbCircle
 10
-246.34812
 20
55.291583
 30
0.0
 40
8.5
100
AcDbArc
 50
315.0
 51
343.072487
  0
LINE
  5
2EC
100
AcDbEntity
  8
2
370
    50
100
AcDbLine
 10
-170.890778
 20
-204.130685
 30
0.0
 11
-149.625369
 21
-204.130685
 31
0.0
  0
LINE
  5
2ED
100
AcDbEntity
  8
2
370
    50
100
AcDbLine
 10
-172.258074
 20
-192.830685
 30
0.0
 11
-172.258074
 21
-200.630685
 31
0.0
  0
LINE
  5
2EE
100
AcDbEntity
  8
2
370
    50
100
AcDbLine
 10
-148.258074
 20
-192.830685
 30
0.0
 11
-148.258074
 21
-200.630685
 31
0.0
  0
LINE
  5
2EF
100
AcDbEntity
  8
2
370
    50
100
AcDbLine
 10
-148.258074
 20
-200.630685
 30
0.0
 11
-148.63542
 21
-203.272106
 31
0.0
  0
LINE
  5
2F0
100
AcDbEntity
  8
2
370
    50
100
AcDbLine
 10
-172.258074
 20
-200.630685
 30
0.0
 11
-171.880728
 21
-203.272106
 31
0.0
  0
ARC
  5
2F1
100
AcDbEntity
  8
2
370
    50
100
AcDbCircle
 10
-149.625369
 20
-203.130685
 30
0.0
 40
1.0
100
AcDbArc
 50
270.0
 51
351.869898
  0
ARC
  5
2F2
100
AcDbEntity
  8
2
370
    50
100
AcDbCircle
 10
-170.890778
 20
-203.130685
 30
0.0
 40
1.0
100
AcDbArc
 50
188.130102
 51
270.0
  0
LINE
  5
2F3
100
AcDbEntity
  8
2
370
    25
100
AcDbLine
 10
-171.691789
 20
-200.630685
 30
0.0
 11
-149.089617
 21
-200.630685
 31
0.0
  0
LINE
  5
2F4
100
AcDbEntity
  8
2
370
    50
100
AcDbLine
 10
-152.358074
 20
-143.031268
 30
0.0
 11
-152.358074
 21
-157.779606
 31
0.0
  0
LINE
  5
2F5
100
AcDbEntity
  8
2
370
    50
100
AcDbLine
 10
-168.158074
 20
-143.031268
 30
0.0
 11
-168.158074
 21
-157.779606
 31
0.0
  0
LINE
  5
2F6
100
AcDbEntity
  8
2
370
    50
100
AcDbLine
 10
-172.058074
 20
-192.630685
 30
0.0
 11
-148.458074
 21
-192.630685
 31
0.0
  0
LINE
  5
2F7
100
AcDbEntity
  8
2
370
    50
100
AcDbLine
 10
-148.458074
 20
-192.630685
 30
0.0
 11
-148.258074
 21
-192.830685
 31
0.0
  0
LINE
  5
2F8
100
AcDbEntity
  8
2
370
    50
100
AcDbLine
 10
-172.058074
 20
-192.630685
 30
0.0
 11
-172.258074
 21
-192.830685
 31
0.0
  0
ARC
  5
2F9
100
AcDbEntity
  8
2
370
    50
100
AcDbCircle
 10
-148.008074
 20
-167.530685
 30
0.0
 40
25.0
100
AcDbArc
 50
166.204472
 51
180.0
  0
ARC
  5
2FA
100
AcDbEntity
  8
2
370
    50
100
AcDbCircle
 10
-160.258074
 20
-170.530685
 30
0.0
 40
15.0
100
AcDbArc
 50
36.686015
 51
143.313985
  0
ARC
  5
2FB
100
AcDbEntity
  8
2
370
    50
100
AcDbCircle
 10
-172.508074
 20
-167.530685
 30
0.0
 40
25.0
100
AcDbArc
 50
0.0
 51
13.795528
  0
LINE
  5
2FC
100
AcDbEntity
  8
2
370
    50
100
AcDbLine
 10
-147.508074
 20
-167.530685
 30
0.0
 11
-147.508074
 21
-189.030685
 31
0.0
  0
LINE
  5
2FD
100
AcDbEntity
  8
2
370
    50
100
AcDbLine
 10
-173.008074
 20
-167.530685
 30
0.0
 11
-173.008074
 21
-189.030685
 31
0.0
  0
LINE
  5
2FE
100
AcDbEntity
  8
2
370
    25
100
AcDbLine
 10
-172.258074
 20
-189.030685
 30
0.0
 11
-172.258074
 21
-161.530685
 31
0.0
  0
LINE
  5
2FF
100
AcDbEntity
  8
2
370
    50
100
AcDbLine
 10
-173.008074
 20
-189.030685
 30
0.0
 11
-172.352757
 21
-191.651952
 31
0.0
  0
LINE
  5
300
100
AcDbEntity
  8
2
370
    50
100
AcDbLine
 10
-147.508074
 20
-189.030685
 30
0.0
 11
-148.163391
 21
-191.651952
 31
0.0
  0
LINE
  5
301
100
AcDbEntity
  8
2
370
    25
100
AcDbLine
 10
-148.258074
 20
-189.030685
 30
0.0
 11
-148.258074
 21
-161.530685
 31
0.0
  0
LINE
  5
302
100
AcDbEntity
  8
2
370
    50
100
AcDbLine
 10
-149.508074
 20
-192.630685
 30
0.0
 11
-149.508074
 21
-192.030685
 31
0.0
  0
LINE
  5
303
100
AcDbEntity
  8
2
370
    50
100
AcDbLine
 10
-171.008074
 20
-192.630685
 30
0.0
 11
-171.008074
 21
-192.030685
 31
0.0
  0
LINE
  5
304
100
AcDbEntity
  8
2
370
    50
100
AcDbLine
 10
-148.648462
 20
-192.030685
 30
0.0
 11
-171.867685
 21
-192.030685
 31
0.0
  0
ARC
  5
305
100
AcDbEntity
  8
2
370
    50
100
AcDbCircle
 10
-171.867685
 20
-191.530685
 30
0.0
 40
0.5
100
AcDbArc
 50
194.036243
 51
270.0
  0
ARC
  5
306
100
AcDbEntity
  8
2
370
    50
100
AcDbCircle
 10
-148.648462
 20
-191.530685
 30
0.0
 40
0.5
100
AcDbArc
 50
270.0
 51
345.963757
  0
ARC
  5
307
100
AcDbEntity
  8
2
370
    25
100
AcDbCircle
 10
72.402954
 20
-69.453063
 30
0.0
 40
7.578254
100
AcDbArc
 50
219.737283
 51
252.332056
  0
ARC
  5
308
100
AcDbEntity
  8
2
370
    25
100
AcDbCircle
 10
48.402954
 20
-69.453063
 30
0.0
 40
7.578254
100
AcDbArc
 50
281.13592
 51
320.262717
  0
LINE
  5
309
100
AcDbEntity
  8
2
370
    25
100
AcDbLine
 10
54.441954
 20
-74.031316
 30
0.0
 11
66.363954
 21
-74.031316
 31
0.0
  0
ARC
  5
30A
100
AcDbEntity
  8
2
370
    25
100
AcDbCircle
 10
80.402954
 20
-72.531316
 30
0.0
 40
25.961
100
AcDbArc
 50
90.0
 51
180.0
  0
LINE
  5
30B
100
AcDbEntity
  8
2
370
    25
100
AcDbLine
 10
80.402954
 20
-46.570316
 30
0.0
 11
104.402954
 21
-46.570316
 31
0.0
  0
LINE
  5
30C
100
AcDbEntity
  8
2
370
    25
100
AcDbLine
 10
104.402954
 20
-58.492758
 30
0.0
 11
80.291628
 21
-58.492758
 31
0.0
  0
ARC
  5
30D
100
AcDbEntity
  8
2
370
    25
100
AcDbCircle
 10
80.402954
 20
-72.531316
 30
0.0
 40
14.039
100
AcDbArc
 50
90.0
 51
180.0
  0
LINE
  5
30E
100
AcDbEntity
  8
2
370
    25
100
AcDbLine
 10
54.441954
 20
-72.531316
 30
0.0
 11
54.441954
 21
-74.031316
 31
0.0
  0
LINE
  5
30F
100
AcDbEntity
  8
2
370
    50
100
AcDbLine
 10
108.402954
 20
-44.581316
 30
0.0
 11
210.402954
 21
-44.581316
 31
0.0
  0
LINE
  5
310
100
AcDbEntity
  8
2
370
    50
100
AcDbLine
 10
108.402954
 20
-60.481316
 30
0.0
 11
210.402954
 21
-60.481316
 31
0.0
  0
LINE
  5
311
100
AcDbEntity
  8
2
370
    50
100
AcDbLine
 10
72.402954
 20
-72.531316
 30
0.0
 11
72.402954
 21
-76.531316
 31
0.0
  0
ARC
  5
312
100
AcDbEntity
  8
2
370
    50
100
AcDbCircle
 10
71.652954
 20
-77.531316
 30
0.0
 40
0.5
100
AcDbArc
 50
90.0
 51
180.0
  0
LINE
  5
313
100
AcDbEntity
  8
2
370
    50
100
AcDbLine
 10
108.402954
 20
-41.531316
 30
0.0
 11
108.402954
 21
-63.531316
 31
0.0
  0
LINE
  5
314
100
AcDbEntity
  8
2
370
    50
100
AcDbLine
 10
80.402954
 20
-64.531316
 30
0.0
 11
104.402954
 21
-64.531316
 31
0.0
  0
ARC
  5
315
100
AcDbEntity
  8
2
370
    50
100
AcDbCircle
 10
80.402954
 20
-72.531316
 30
0.0
 40
8.0
100
AcDbArc
 50
90.0
 51
180.0
  0
ARC
  5
316
100
AcDbEntity
  8
2
370
    50
100
AcDbCircle
 10
71.902954
 20
-76.531316
 30
0.0
 40
0.5
100
AcDbArc
 50
270.0
 51
360.0
  0
LINE
  5
317
100
AcDbEntity
  8
2
370
    50
100
AcDbLine
 10
71.152954
 20
-77.531316
 30
0.0
 11
71.152954
 21
-77.631316
 31
0.0
  0
ARC
  5
318
100
AcDbEntity
  8
2
370
    50
100
AcDbCircle
 10
104.402954
 20
-56.031316
 30
0.0
 40
8.5
100
AcDbArc
 50
270.0
 51
298.072487
  0
LINE
  5
319
100
AcDbEntity
  8
2
370
    50
100
AcDbLine
 10
80.402954
 20
-40.531316
 30
0.0
 11
104.402954
 21
-40.531316
 31
0.0
  0
ARC
  5
31A
100
AcDbEntity
  8
2
370
    50
100
AcDbCircle
 10
80.402954
 20
-72.531316
 30
0.0
 40
32.0
100
AcDbArc
 50
90.0
 51
180.0
  0
LINE
  5
31B
100
AcDbEntity
  8
2
370
    50
100
AcDbLine
 10
48.402954
 20
-72.531316
 30
0.0
 11
48.402954
 21
-76.531316
 31
0.0
  0
ARC
  5
31C
100
AcDbEntity
  8
2
370
    50
100
AcDbCircle
 10
48.902954
 20
-76.531316
 30
0.0
 40
0.5
100
AcDbArc
 50
180.0
 51
270.0
  0
LINE
  5
31D
100
AcDbEntity
  8
2
370
    50
100
AcDbLine
 10
48.902954
 20
-77.031316
 30
0.0
 11
71.902954
 21
-77.031316
 31
0.0
  0
LINE
  5
31E
100
AcDbEntity
  8
2
370
    50
100
AcDbLine
 10
49.652954
 20
-77.531316
 30
0.0
 11
49.652954
 21
-77.631316
 31
0.0
  0
ARC
  5
31F
100
AcDbEntity
  8
2
370
    50
100
AcDbCircle
 10
49.152954
 20
-77.531316
 30
0.0
 40
0.5
100
AcDbArc
 50
0.0
 51
90.0
  0
ARC
  5
320
100
AcDbEntity
  8
2
370
    50
100
AcDbCircle
 10
104.402954
 20
-49.031316
 30
0.0
 40
8.5
100
AcDbArc
 50
61.927513
 51
90.0
  0
LINE
  5
321
100
AcDbEntity
  8
2
370
    50
100
AcDbLine
 10
50.079987
 20
-89.131316
 30
0.0
 11
70.725921
 21
-89.131316
 31
0.0
  0
LINE
  5
322
100
AcDbEntity
  8
2
370
    50
100
AcDbLine
 10
48.402954
 20
-77.831316
 30
0.0
 11
48.402954
 21
-86.631316
 31
0.0
  0
LINE
  5
323
100
AcDbEntity
  8
2
370
    50
100
AcDbLine
 10
72.402954
 20
-77.831316
 30
0.0
 11
72.402954
 21
-86.631316
 31
0.0
  0
LINE
  5
324
100
AcDbEntity
  8
2
370
    50
100
AcDbLine
 10
72.402954
 20
-77.831316
 30
0.0
 11
72.202954
 21
-77.631316
 31
0.0
  0
LINE
  5
325
100
AcDbEntity
  8
2
370
    50
100
AcDbLine
 10
48.402954
 20
-77.831316
 30
0.0
 11
48.602954
 21
-77.631316
 31
0.0
  0
LINE
  5
326
100
AcDbEntity
  8
2
370
    50
100
AcDbLine
 10
48.602954
 20
-77.631316
 30
0.0
 11
72.202954
 21
-77.631316
 31
0.0
  0
LINE
  5
327
100
AcDbEntity
  8
2
370
    50
100
AcDbLine
 10
72.402954
 20
-86.631316
 30
0.0
 11
71.654398
 21
-88.502707
 31
0.0
  0
LINE
  5
328
100
AcDbEntity
  8
2
370
    50
100
AcDbLine
 10
48.402954
 20
-86.631316
 30
0.0
 11
49.15151
 21
-88.502707
 31
0.0
  0
ARC
  5
329
100
AcDbEntity
  8
2
370
    50
100
AcDbCircle
 10
50.079987
 20
-88.131316
 30
0.0
 40
1.0
100
AcDbArc
 50
201.801409
 51
270.0
  0
ARC
  5
32A
100
AcDbEntity
  8
2
370
    50
100
AcDbCircle
 10
70.725921
 20
-88.131316
 30
0.0
 40
1.0
100
AcDbArc
 50
270.0
 51
338.198591
  0
LINE
  5
32B
100
AcDbEntity
  8
2
370
    25
100
AcDbLine
 10
71.281512
 20
-86.631316
 30
0.0
 11
49.394471
 21
-86.631316
 31
0.0
  0
POINT
  5
32C
100
AcDbEntity
  8
2
370
    50
100
AcDbPoint
 10
60.402954
 20
-89.131316
 30
0.0
  0
LINE
  5
32D
100
AcDbEntity
  8
2
370
    50
100
AcDbLine
 10
222.452954
 20
-32.531316
 30
0.0
 11
222.452954
 21
-28.0319
 31
0.0
  0
LINE
  5
32E
100
AcDbEntity
  8
2
370
    50
100
AcDbLine
 10
238.352954
 20
-32.531316
 30
0.0
 11
238.352954
 21
-28.0319
 31
0.0
  0
ARC
  5
32F
100
AcDbEntity
  8
2
370
    50
100
AcDbCircle
 10
210.402954
 20
-32.531316
 30
0.0
 40
12.05
100
AcDbArc
 50
270.0
 51
0.0
  0
ARC
  5
330
100
AcDbEntity
  8
2
370
    50
100
AcDbCircle
 10
210.402954
 20
-32.531316
 30
0.0
 40
27.95
100
AcDbArc
 50
270.0
 51
0.0
  0
POINT
  5
331
100
AcDbEntity
  8
3
370
    50
100
AcDbPoint
 10
394.982385
 20
48.028119
 30
0.0
  0
TEXT
  5
332
100
AcDbEntity
  8
3
370
    50
100
AcDbText
 10
290.832582
 20
-240.013492
 30
0.0
 40
6.0
  1
１　２
 72
     5
 11
307.632582
 21
-240.013492
 31
0.0
100
AcDbText
  0
TEXT
  5
333
100
AcDbEntity
  8
3
370
    50
100
AcDbText
 10
65.721176
 20
-227.630386
 30
0.0
 40
7.0
  1
壁付シングルレバー湯水混合水栓
 72
     5
 11
169.321176
 21
-227.630386
 31
0.0
100
AcDbText
  0
TEXT
  5
334
100
AcDbEntity
  8
3
370
    50
100
AcDbText
 10
-170.758833
 20
252.264915
 30
0.0
 40
7.0
  1
１００
 72
     5
 11
-151.158833
 21
252.264915
 31
0.0
100
AcDbText
  0
DIMENSION
  5
335
100
AcDbEntity
  8
3
370
    25
100
AcDbDimension
  2
*D0
 10
-110.25924
 20
251.264915
 30
0.0
 11
-160.258833
 21
253.264915
 31
0.0
 71
     0
 72
     0
 41
0.0
 42
0.0
  3
Standard
100
AcDbAlignedDimension
 13
-210.258426
 23
216.284996
 33
0.0
 14
-110.25924
 24
216.722435
 34
0.0
100
AcDbRotatedDimension
  0
DIMENSION
  5
336
100
AcDbEntity
  8
3
370
    25
100
AcDbDimension
  2
*D1
 10
-110.52544
 20
67.25159
 30
0.0
 11
-120.296624
 21
44.821762
 31
0.0
 70
     2
 71
     0
 72
     0
 41
0.0
 42
0.0
  3
Standard
100
AcDb2LineAngularDimension
 13
-160.258074
 23
53.925771
 33
0.0
 14
-160.258074
 24
153.391037
 34
0.0
 15
-160.258074
 25
153.391037
 35
0.0
 16
-130.180026
 26
41.138236
 36
0.0
1001
ACAD
1000
DSTYLE
1002
{
1070
   275
1070
     0
1070
   179
1070
     0
1002
}
  0
DIMENSION
  5
337
100
AcDbEntity
  8
3
370
    25
100
AcDbDimension
  2
*D2
 10
-160.258074
 20
54.284271
 30
0.0
 11
-208.669841
 21
47.978313
 31
0.0
 70
     2
 71
     0
 72
     0
 41
0.0
 42
0.0
  3
Standard
100
AcDb2LineAngularDimension
 13
-247.544789
 23
102.434945
 33
0.0
 14
-160.258074
 24
152.829954
 34
0.0
 15
-160.258074
 25
152.829954
 35
0.0
 16
-218.263108
 26
52.362287
 36
0.0
1001
ACAD
1000
DSTYLE
1002
{
1070
   275
1070
     0
1070
   179
1070
     0
1002
}
  0
TEXT
  5
338
100
AcDbEntity
  8
3
370
    50
100
AcDbText
 10
136.599862
 20
112.661096
 30
0.0
 40
7.0
  1
止水
 72
     5
 11
149.199862
 21
112.661096
 31
0.0
100
AcDbText
  0
TEXT
  5
339
100
AcDbEntity
  8
3
370
    50
100
AcDbText
 10
173.630036
 20
146.179188
 30
0.0
 40
7.0
  1
吐水
 72
     5
 11
186.230036
 21
146.179188
 31
0.0
100
AcDbText
  0
TEXT
  5
33A
100
AcDbEntity
  8
3
370
    50
100
AcDbText
 10
23.377262
 20
64.303816
 30
0.0
 40
7.0
  1
１４６
 50
90.0
 72
     5
 11
23.377262
 21
83.903816
 31
0.0
100
AcDbText
  0
DIMENSION
  5
33B
100
AcDbEntity
  8
3
370
    25
100
AcDbDimension
  2
*D3
 10
24.377262
 20
147.640067
 30
0.0
 11
21.877262
 21
74.803816
 31
0.0
 71
     0
 72
     0
 41
0.0
 42
0.0
  3
Standard
100
AcDbAlignedDimension
 13
205.093704
 23
1.967566
 33
0.0
 14
167.242362
 24
147.640067
 34
0.0
 50
90.0
100
AcDbRotatedDimension
  0
DIMENSION
  5
33C
100
AcDbEntity
  8
3
370
    25
100
AcDbDimension
  2
*D4
 10
132.980325
 20
111.468235
 30
0.0
 11
125.797827
 21
148.608222
 31
0.0
 70
     2
 71
     0
 72
     0
 41
0.0
 42
0.0
  3
Standard
100
AcDb2LineAngularDimension
 13
198.678462
 23
132.981173
 33
0.0
 14
244.813107
 24
111.468235
 34
0.0
 15
244.813107
 25
111.468235
 35
0.0
 16
123.525211
 26
138.357114
 36
0.0
1001
ACAD
1000
DSTYLE
1002
{
1070
   275
1070
     0
1070
   179
1070
     0
1002
}
  0
LINE
  5
33D
100
AcDbEntity
  8
3
370
    25
  6
CENTER
100
AcDbLine
 10
-237.882917
 20
-15.320762
 30
0.0
 11
-237.882917
 21
-25.273264
 31
0.0
  0
LINE
  5
33E
100
AcDbEntity
  8
3
370
    25
  6
CENTER
100
AcDbLine
 10
-243.426201
 20
-20.899657
 30
0.0
 11
-232.557349
 21
-20.899657
 31
0.0
  0
ARC
  5
33F
100
AcDbEntity
  8
3
370
    50
100
AcDbCircle
 10
-237.882917
 20
-20.899657
 30
0.0
 40
4.8951
100
AcDbArc
 50
305.281262
 51
234.718738
  0
LINE
  5
340
100
AcDbEntity
  8
3
370
    50
100
AcDbLine
 10
-240.710281
 20
-24.895657
 30
0.0
 11
-235.055553
 21
-24.895657
 31
0.0
  0
LINE
  5
341
100
AcDbEntity
  8
3
370
    50
100
AcDbLine
 10
-239.33031
 20
-19.157881
 30
0.0
 11
-241.923045
 21
-20.639444
 31
0.0
  0
ARC
  5
342
100
AcDbEntity
  8
3
370
    50
100
AcDbCircle
 10
-239.181617
 20
-19.418094
 30
0.0
 40
0.2997
100
AcDbArc
 50
0.0
 51
119.744881
  0
LINE
  5
343
100
AcDbEntity
  8
3
370
    50
100
AcDbLine
 10
-238.881917
 20
-19.418094
 30
0.0
 11
-238.881917
 21
-22.38122
 31
0.0
  0
ARC
  5
344
100
AcDbEntity
  8
3
370
    50
100
AcDbCircle
 10
-239.181617
 20
-22.38122
 30
0.0
 40
0.2997
100
AcDbArc
 50
240.255119
 51
360.0
  0
LINE
  5
345
100
AcDbEntity
  8
3
370
    50
100
AcDbLine
 10
-239.33031
 20
-22.641432
 30
0.0
 11
-241.923045
 21
-21.159869
 31
0.0
  0
ARC
  5
346
100
AcDbEntity
  8
3
370
    50
100
AcDbCircle
 10
-241.774352
 20
-20.899657
 30
0.0
 40
0.2997
100
AcDbArc
 50
119.744881
 51
240.255119
  0
ARC
  5
347
100
AcDbEntity
  8
3
370
    50
100
AcDbCircle
 10
-236.584217
 20
-19.418094
 30
0.0
 40
0.2997
100
AcDbArc
 50
60.255119
 51
180.0
  0
LINE
  5
348
100
AcDbEntity
  8
3
370
    50
100
AcDbLine
 10
-236.883917
 20
-19.418094
 30
0.0
 11
-236.883917
 21
-22.38122
 31
0.0
  0
LINE
  5
349
100
AcDbEntity
  8
3
370
    50
100
AcDbLine
 10
-236.435524
 20
-19.157881
 30
0.0
 11
-233.842789
 21
-20.639444
 31
0.0
  0
ARC
  5
34A
100
AcDbEntity
  8
3
370
    50
100
AcDbCircle
 10
-233.991482
 20
-20.899657
 30
0.0
 40
0.2997
100
AcDbArc
 50
299.744881
 51
60.255119
  0
LINE
  5
34B
100
AcDbEntity
  8
3
370
    50
100
AcDbLine
 10
-236.435524
 20
-22.641432
 30
0.0
 11
-233.842789
 21
-21.159869
 31
0.0
  0
ARC
  5
34C
100
AcDbEntity
  8
3
370
    50
100
AcDbCircle
 10
-236.584217
 20
-22.38122
 30
0.0
 40
0.2997
100
AcDbArc
 50
180.0
 51
299.744881
  0
LWPOLYLINE
  5
34D
100
AcDbEntity
  8
3
370
    25
100
AcDbPolyline
 90
        3
 70
     0
 10
-235.923568
 20
-20.28902
 10
-230.440139
 20
-11.853878
 10
-195.830948
 20
-11.853878
  0
LWPOLYLINE
  5
352
100
AcDbEntity
  8
3
370
    25
100
AcDbPolyline
 90
        3
 70
     0
 10
-239.842265
 20
-20.28902
 10
-245.325694
 20
-11.853878
 10
-279.202438
 20
-11.853878
  0
TEXT
  5
357
100
AcDbEntity
  8
3
370
    50
100
AcDbText
 10
-228.790847
 20
-11.148731
 30
0.0
 40
7.0
  1
青色
 72
     5
 11
-216.190847
 21
-11.148731
 31
0.0
100
AcDbText
  0
TEXT
  5
358
100
AcDbEntity
  8
3
370
    50
100
AcDbText
 10
-228.790847
 20
-19.148731
 30
0.0
 40
7.0
  1
（水表示）
 72
     5
 11
-195.190847
 21
-19.148731
 31
0.0
100
AcDbText
  0
TEXT
  5
359
100
AcDbEntity
  8
3
370
    50
100
AcDbText
 10
-279.393478
 20
-19.234989
 30
0.0
 40
7.0
  1
（湯表示）
 72
     5
 11
-245.793478
 21
-19.234989
 31
0.0
100
AcDbText
  0
TEXT
  5
35A
100
AcDbEntity
  8
3
370
    50
100
AcDbText
 10
-260.393478
 20
-11.234989
 30
0.0
 40
7.0
  1
赤色
 72
     5
 11
-247.793478
 21
-11.234989
 31
0.0
100
AcDbText
  0
LWPOLYLINE
  5
35B
100
AcDbEntity
  8
3
370
    25
100
AcDbPolyline
 90
        2
 70
     0
 10
-164.176424
 20
-50.194845
 10
-234.977401
 20
-23.562031
  0
TEXT
  5
35F
100
AcDbEntity
  8
3
370
    50
100
AcDbText
 10
-67.903931
 20
240.57816
 30
0.0
 40
7.0
  1
Ｇ３／４
 72
     5
 11
-41.303931
 21
240.57816
 31
0.0
100
AcDbText
  0
LWPOLYLINE
  5
360
100
AcDbEntity
  8
3
370
    25
100
AcDbPolyline
 90
        3
 70
     0
 10
-82.258493
 20
222.876469
 10
-68.876527
 20
239.411061
 10
-39.405682
 20
239.411061
  0
LINE
  5
365
100
AcDbEntity
  8
3
370
    25
100
AcDbLine
 10
-79.827806
 20
225.879795
 30
0.0
 11
-80.632545
 21
226.531095
 31
0.0
  0
LINE
  5
366
100
AcDbEntity
  8
3
370
    25
100
AcDbLine
 10
-80.632545
 20
226.531095
 30
0.0
 11
-82.258493
 21
222.876469
 31
0.0
  0
LINE
  5
367
100
AcDbEntity
  8
3
370
    25
100
AcDbLine
 10
-82.258493
 20
222.876469
 30
0.0
 11
-79.023067
 21
225.228494
 31
0.0
  0
LINE
  5
368
100
AcDbEntity
  8
3
370
    25
100
AcDbLine
 10
-79.023067
 20
225.228494
 30
0.0
 11
-79.827806
 21
225.879795
 31
0.0
  0
LWPOLYLINE
  5
369
100
AcDbEntity
  8
3
370
    25
100
AcDbPolyline
 90
        3
 70
     0
 10
-16.196807
 20
223.246687
 10
0.200529
 20
237.230238
 10
44.146411
 20
237.230238
  0
LINE
  5
36E
100
AcDbEntity
  8
3
370
    25
100
AcDbLine
 10
-13.256957
 20
225.753774
 30
0.0
 11
-13.928729
 21
226.541504
 31
0.0
  0
LINE
  5
36F
100
AcDbEntity
  8
3
370
    25
100
AcDbLine
 10
-13.928729
 20
226.541504
 30
0.0
 11
-16.196807
 21
223.246687
 31
0.0
  0
LINE
  5
370
100
AcDbEntity
  8
3
370
    25
100
AcDbLine
 10
-16.196807
 20
223.246687
 30
0.0
 11
-12.585185
 21
224.966044
 31
0.0
  0
LINE
  5
371
100
AcDbEntity
  8
3
370
    25
100
AcDbLine
 10
-12.585185
 20
224.966044
 30
0.0
 11
-13.256957
 21
225.753774
 31
0.0
  0
TEXT
  5
372
100
AcDbEntity
  8
3
370
    50
100
AcDbText
 10
0.663192
 20
238.509199
 30
0.0
 40
7.0
  1
Ｗ２８山１８
 72
     5
 11
41.263192
 21
238.509199
 31
0.0
100
AcDbText
  0
POINT
  5
373
100
AcDbEntity
  8
3
370
    50
100
AcDbPoint
 10
-95.25924
 20
215.791333
 30
0.0
  0
DIMENSION
  5
374
100
AcDbEntity
  8
3
370
    25
100
AcDbDimension
  2
*D5
 10
-95.25924
 20
251.264915
 30
0.0
 11
-102.75924
 21
255.764915
 31
0.0
 71
     0
 72
     0
 41
0.0
 42
0.0
  3
Standard
100
AcDbAlignedDimension
 13
-110.25924
 23
216.722435
 33
0.0
 14
-95.25924
 24
215.791333
 34
0.0
100
AcDbRotatedDimension
  0
DIMENSION
  5
375
100
AcDbEntity
  8
3
370
    25
100
AcDbDimension
  2
*D6
 10
-225.256908
 20
251.264915
 30
0.0
 11
-217.756908
 21
249.264915
 31
0.0
 70
     1
 71
     0
 72
     0
 41
0.0
 42
0.0
 51
270.0
  3
Standard
100
AcDbAlignedDimension
 13
-210.256908
 23
216.722435
 33
0.0
 14
-225.256908
 24
215.791333
 34
0.0
 50
180.0
  0
TEXT
  5
376
100
AcDbEntity
  8
3
370
    50
100
AcDbText
 10
-224.756908
 20
252.264915
 30
0.0
 40
7.0
  1
１５
 72
     5
 11
-212.156908
 21
252.264915
 31
0.0
100
AcDbText
  0
TEXT
  5
377
100
AcDbEntity
  8
3
370
    50
100
AcDbText
 10
233.753326
 20
-272.129395
 30
0.0
 40
6.0
  1
外観寸法図
 72
     5
 11
262.553326
 21
-272.129395
 31
0.0
100
AcDbText
  0
DIMENSION
  5
378
100
AcDbEntity
  8
3
370
    25
100
AcDbDimension
  2
*D7
 10
306.303206
 20
-112.830284
 30
0.0
 11
268.35308
 21
-108.330284
 31
0.0
 71
     0
 72
     0
 41
0.0
 42
0.0
  3
Standard
100
AcDbAlignedDimension
 13
230.402954
 23
-28.0319
 33
0.0
 14
306.303206
 24
-25.032163
 34
0.0
100
AcDbRotatedDimension
  0
TEXT
  5
379
100
AcDbEntity
  8
3
370
    50
100
AcDbText
 10
336.982385
 20
-272.129395
 30
0.0
 40
6.0
  1
１１０２１３
 72
     5
 11
371.782385
 21
-272.129395
 31
0.0
100
AcDbText
  0
DIMENSION
  5
37A
100
AcDbEntity
  8
3
370
    25
100
AcDbDimension
  2
*D8
 10
53.383286
 20
111.468235
 30
0.0
 11
41.883286
 21
53.218483
 31
0.0
 71
     0
 72
     0
 41
0.0
 42
0.0
  3
Standard
100
AcDbAlignedDimension
 13
205.647019
 23
1.968732
 33
0.0
 14
130.402954
 24
111.468235
 34
0.0
 50
90.0
100
AcDbRotatedDimension
  0
TEXT
  5
37B
100
AcDbEntity
  8
3
370
    50
100
AcDbText
 10
345.098131
 20
-256.100293
 30
0.0
 40
6.0
  1
１９　　７　２６
 72
     5
 11
391.898131
 21
-256.100293
 31
0.0
100
AcDbText
  0
POINT
  5
37C
100
AcDbEntity
  8
3
370
    50
100
AcDbPoint
 10
-220.864675
 20
-123.63787
 30
0.0
  0
POINT
  5
37D
100
AcDbEntity
  8
3
370
    50
100
AcDbPoint
 10
-99.651472
 20
-123.63787
 30
0.0
  0
TEXT
  5
37E
100
AcDbEntity
  8
3
370
    50
100
AcDbText
 10
-198.758074
 20
-238.591934
 30
0.0
 40
7.0
  1
１２０（ＭＡＸ１２５）
 72
     5
 11
-123.158074
 21
-238.591934
 31
0.0
100
AcDbText
  0
DIMENSION
  5
37F
100
AcDbEntity
  8
3
370
    25
100
AcDbDimension
  2
*D9
 10
-99.651472
 20
-239.591934
 30
0.0
 11
-160.258074
 21
-237.591934
 31
0.0
 71
     0
 72
     0
 41
0.0
 42
0.0
  3
Standard
100
AcDbAlignedDimension
 13
-220.864675
 23
-123.63787
 33
0.0
 14
-99.651472
 24
-123.63787
 34
0.0
100
AcDbRotatedDimension
  0
TEXT
  5
380
100
AcDbEntity
  8
3
370
    50
100
AcDbText
 10
64.863625
 20
-236.598251
 30
0.0
 40
7.0
  1
ＭＫ３１７ＭＧＲＥ
 72
     5
 11
126.463625
 21
-236.598251
 31
0.0
100
AcDbText
  0
DIMENSION
  5
381
100
AcDbEntity
  8
3
370
    25
100
AcDbDimension
  2
*D10
 10
230.402954
 20
-112.830284
 30
0.0
 11
145.402954
 21
-108.330284
 31
0.0
 71
     0
 72
     0
 41
0.0
 42
0.0
  3
Standard
100
AcDbAlignedDimension
 13
60.402954
 23
-89.131316
 33
0.0
 14
230.402954
 24
-28.0319
 34
0.0
100
AcDbRotatedDimension
  0
DIMENSION
  5
382
100
AcDbEntity
  8
3
370
    25
100
AcDbDimension
  2
*D11
 10
24.377262
 20
1.968732
 30
0.0
 11
16.377262
 21
-43.581292
 31
0.0
 71
     0
 72
     0
 41
0.0
 42
0.0
  3
Standard
100
AcDbAlignedDimension
 13
50.079987
 23
-89.131316
 33
0.0
 14
205.647019
 24
1.968732
 34
0.0
 50
90.0
100
AcDbRotatedDimension
  0
ENDSEC
  0
SECTION
  2
OBJECTS
  0
DICTIONARY
  5
40F
100
AcDbDictionary
280
     0
281
     1
  3
ACAD_GROUP
350
410
  3
ACAD_MLINESTYLE
350
411
  0
DICTIONARY
  5
410
102
{ACAD_REACTORS
330
40F
102
}
100
AcDbDictionary
280
     0
281
     1
  0
DICTIONARY
  5
411
102
{ACAD_REACTORS
330
40F
102
}
100
AcDbDictionary
280
     0
281
     1
  3
Standard
350
412
  0
MLINESTYLE
  5
412
102
{ACAD_REACTORS
330
411
102
}
100
AcDbMlineStyle
  2
Standard
 70
     0
  3

 62
     0
 51
90.0
 52
90.0
 71
     2
 49
0.5
 62
   256
  6
ByLayer
 49
-0.5
 62
   256
  6
ByLayer
  0
ENDSEC
  0
EOF
